  0
SECTION
  2
HEADER
  9
$ACADVER
  1
AC1014
  9
$ACADMAINTVER
 70
     0
  9
$DWGCODEPAGE
  3
ANSI_932
  9
$INSBASE
 10
0.0
 20
0.0
 30
0.0
  9
$EXTMIN
 10
62.609304
 20
44.333559
 30
0.0
  9
$EXTMAX
 10
224.371086
 20
148.8578
 30
0.0
  9
$LIMMIN
 10
0.0
 20
0.0
  9
$LIMMAX
 10
297.0
 20
210.0
  9
$ORTHOMODE
 70
     0
  9
$REGENMODE
 70
     1
  9
$FILLMODE
 70
     1
  9
$QTEXTMODE
 70
     0
  9
$MIRRTEXT
 70
     1
  9
$DRAGMODE
 70
     2
  9
$LTSCALE
 40
0.707071
  9
$OSMODE
 70
    33
  9
$ATTMODE
 70
     1
  9
$TEXTSIZE
 40
1.767677
  9
$TRACEWID
 40
1.0
  9
$TEXTSTYLE
  7
STANDARD
  9
$CLAYER
  8
0
  9
$CELTYPE
  6
BYLAYER
  9
$CECOLOR
 62
   256
  9
$CELTSCALE
 40
1.0
  9
$DELOBJ
 70
     1
  9
$DISPSILH
 70
     0
  9
$DIMSCALE
 40
1.0
  9
$DIMASZ
 40
2.0
  9
$DIMEXO
 40
1.0
  9
$DIMDLI
 40
10.0
  9
$DIMRND
 40
0.0
  9
$DIMDLE
 40
0.0
  9
$DIMEXE
 40
1.0
  9
$DIMTP
 40
0.0
  9
$DIMTM
 40
0.0
  9
$DIMTXT
 40
3.0
  9
$DIMCEN
 40
2.0
  9
$DIMTSZ
 40
0.0
  9
$DIMTOL
 70
     0
  9
$DIMLIM
 70
     0
  9
$DIMTIH
 70
     0
  9
$DIMTOH
 70
     0
  9
$DIMSE1
 70
     0
  9
$DIMSE2
 70
     0
  9
$DIMTAD
 70
     1
  9
$DIMZIN
 70
     8
  9
$DIMBLK
  1

  9
$DIMASO
 70
     1
  9
$DIMSHO
 70
     1
  9
$DIMPOST
  1

  9
$DIMAPOST
  1

  9
$DIMALT
 70
     0
  9
$DIMALTD
 70
     2
  9
$DIMALTF
 40
25.4
  9
$DIMLFAC
 40
1.0
  9
$DIMTOFL
 70
     1
  9
$DIMTVP
 40
0.0
  9
$DIMTIX
 70
     0
  9
$DIMSOXD
 70
     0
  9
$DIMSAH
 70
     1
  9
$DIMBLK1
  1
OPEN30
  9
$DIMBLK2
  1
OPEN30
  9
$DIMSTYLE
  2
STANDARD
  9
$DIMCLRD
 70
     1
  9
$DIMCLRE
 70
     1
  9
$DIMCLRT
 70
     1
  9
$DIMTFAC
 40
1.0
  9
$DIMGAP
 40
1.0
  9
$DIMJUST
 70
     0
  9
$DIMSD1
 70
     0
  9
$DIMSD2
 70
     0
  9
$DIMTOLJ
 70
     1
  9
$DIMTZIN
 70
     0
  9
$DIMALTZ
 70
     0
  9
$DIMALTTZ
 70
     0
  9
$DIMFIT
 70
     3
  9
$DIMUPT
 70
     0
  9
$DIMUNIT
 70
     2
  9
$DIMDEC
 70
     2
  9
$DIMTDEC
 70
     4
  9
$DIMALTU
 70
     2
  9
$DIMALTTD
 70
     2
  9
$DIMTXSTY
  7
STANDARD
  9
$DIMAUNIT
 70
     0
  9
$LUNITS
 70
     2
  9
$LUPREC
 70
     4
  9
$SKETCHINC
 40
1.0
  9
$FILLETRAD
 40
7.070707
  9
$AUNITS
 70
     0
  9
$AUPREC
 70
     0
  9
$MENU
  1
acad
  9
$ELEVATION
 40
0.0
  9
$PELEVATION
 40
0.0
  9
$THICKNESS
 40
0.0
  9
$LIMCHECK
 70
     0
  9
$BLIPMODE
 70
     0
  9
$CHAMFERA
 40
0.0
  9
$CHAMFERB
 40
0.0
  9
$CHAMFERC
 40
14.141414
  9
$CHAMFERD
 40
0.0
  9
$SKPOLY
 70
     0
  9
$TDCREATE
 40
2451930.601099537
  9
$TDUPDATE
 40
2451977.421504630
  9
$TDINDWG
 40
0.0328569444
  9
$TDUSRTIMER
 40
0.0328569444
  9
$USRTIMER
 70
     1
  9
$ANGBASE
 50
0.0
  9
$ANGDIR
 70
     0
  9
$PDMODE
 70
     0
  9
$PDSIZE
 40
0.0
  9
$PLINEWID
 40
0.0
  9
$COORDS
 70
     1
  9
$SPLFRAME
 70
     0
  9
$SPLINETYPE
 70
     6
  9
$SPLINESEGS
 70
     8
  9
$ATTDIA
 70
     0
  9
$ATTREQ
 70
     1
  9
$HANDLING
 70
     1
  9
$HANDSEED
  5
5CA
  9
$SURFTAB1
 70
     6
  9
$SURFTAB2
 70
     6
  9
$SURFTYPE
 70
     6
  9
$SURFU
 70
     6
  9
$SURFV
 70
     6
  9
$UCSNAME
  2

  9
$UCSORG
 10
0.0
 20
0.0
 30
0.0
  9
$UCSXDIR
 10
1.0
 20
0.0
 30
0.0
  9
$UCSYDIR
 10
0.0
 20
1.0
 30
0.0
  9
$PUCSNAME
  2

  9
$PUCSORG
 10
0.0
 20
0.0
 30
0.0
  9
$PUCSXDIR
 10
1.0
 20
0.0
 30
0.0
  9
$PUCSYDIR
 10
0.0
 20
1.0
 30
0.0
  9
$USERI1
 70
     0
  9
$USERI2
 70
     0
  9
$USERI3
 70
     0
  9
$USERI4
 70
     0
  9
$USERI5
 70
     0
  9
$USERR1
 40
0.0
  9
$USERR2
 40
0.0
  9
$USERR3
 40
0.0
  9
$USERR4
 40
0.0
  9
$USERR5
 40
0.0
  9
$WORLDVIEW
 70
     1
  9
$SHADEDGE
 70
     3
  9
$SHADEDIF
 70
    70
  9
$TILEMODE
 70
     1
  9
$MAXACTVP
 70
    48
  9
$PINSBASE
 10
0.0
 20
0.0
 30
0.0
  9
$PLIMCHECK
 70
     0
  9
$PEXTMIN
 10
1.000000E+20
 20
1.000000E+20
 30
1.000000E+20
  9
$PEXTMAX
 10
-1.000000E+20
 20
-1.000000E+20
 30
-1.000000E+20
  9
$PLIMMIN
 10
0.0
 20
0.0
  9
$PLIMMAX
 10
420.0
 20
297.0
  9
$UNITMODE
 70
     0
  9
$VISRETAIN
 70
     1
  9
$PLINEGEN
 70
     0
  9
$PSLTSCALE
 70
     1
  9
$TREEDEPTH
 70
  3020
  9
$PICKSTYLE
 70
     1
  9
$CMLSTYLE
  2
STANDARD
  9
$CMLJUST
 70
     0
  9
$CMLSCALE
 40
20.0
  9
$PROXYGRAPHICS
 70
     1
  9
$MEASUREMENT
 70
     1
  0
ENDSEC
  0
SECTION
  2
CLASSES
  0
CLASS
  1
DICTIONARYVAR
  2
AcDbDictionaryVar
  3
"AutoCAD"
 90
        0
280
     0
281
     0
  0
CLASS
  1
LWPOLYLINE
  2
AcDbPolyline
  3
"AutoCAD"
 90
        0
280
     0
281
     1
  0
CLASS
  1
ACDBDICTIONARYWDFLT
  2
AcDbDictionaryWithDefault
  3
AutoCAD 2000
 90
        0
280
     0
281
     0
  0
CLASS
  1
ACDBPLACEHOLDER
  2
AcDbPlaceHolder
  3
AutoCAD 2000
 90
        0
280
     0
281
     0
  0
CLASS
  1
LAYOUT
  2
AcDbLayout
  3
AutoCAD 2000
 90
        0
280
     0
281
     0
  0
CLASS
  1
LONG_TRANSACTION
  2
AcDbLongTransaction
  3
AutoCAD 2000
 90
        0
280
     0
281
     0
  0
CLASS
  1
LWPOLYLINE
  2
AcDbPolyline
  3
"AutoCAD"
 90
        0
280
     0
281
     1
  0
CLASS
  1
HATCH
  2
AcDbHatch
  3
"ACAD_SEDONA"
 90
        0
280
     0
281
     1
  0
CLASS
  1
XRECORD
  2
AcDbXrecord
  3
"<Built In>"
 90
        0
280
     0
281
     0
  0
ENDSEC
  0
SECTION
  2
TABLES
  0
TABLE
  2
VPORT
  5
8
100
AcDbSymbolTable
 70
     1
  0
VPORT
  5
5C5
100
AcDbSymbolTableRecord
100
AcDbViewportTableRecord
  2
*ACTIVE
 70
     0
 10
0.0
 20
0.0
 11
1.0
 21
1.0
 12
158.174562
 22
106.640777
 13
0.0
 23
0.0
 14
0.1
 24
0.1
 15
10.0
 25
10.0
 16
0.0
 26
0.0
 36
1.0
 17
0.0
 27
0.0
 37
0.0
 40
149.889766
 41
1.710425
 42
50.0
 43
0.0
 44
0.0
 50
0.0
 51
0.0
 71
     0
 72
   100
 73
     1
 74
     1
 75
     0
 76
     0
 77
     0
 78
     0
  0
ENDTAB
  0
TABLE
  2
LTYPE
  5
5
100
AcDbSymbolTable
 70
     5
  0
LTYPE
  5
12
100
AcDbSymbolTableRecord
100
AcDbLinetypeTableRecord
  2
BYBLOCK
 70
     0
  3

 72
    65
 73
     0
 40
0.0
  0
LTYPE
  5
13
100
AcDbSymbolTableRecord
100
AcDbLinetypeTableRecord
  2
BYLAYER
 70
     0
  3

 72
    65
 73
     0
 40
0.0
  0
LTYPE
  5
14
100
AcDbSymbolTableRecord
100
AcDbLinetypeTableRecord
  2
CONTINUOUS
 70
     0
  3
Solid line
 72
    65
 73
     0
 40
0.0
  0
LTYPE
  5
49
100
AcDbSymbolTableRecord
100
AcDbLinetypeTableRecord
  2
DASHED
 70
     0
  3
__ __ __ __ __ __ __ __ __ __ __ __ __ __ __
 72
    65
 73
     2
 40
3.5
 49
2.0
 74
     0
 49
-1.5
 74
     0
  0
LTYPE
  5
4A
100
AcDbSymbolTableRecord
100
AcDbLinetypeTableRecord
  2
CENTER
 70
     0
  3
____ _ ____ _ ____ _ ____ _ ____ _ ____ _ ____
 72
    65
 73
     4
 40
17.5
 49
13.0
 74
     0
 49
-1.5
 74
     0
 49
1.5
 74
     0
 49
-1.5
 74
     0
  0
LTYPE
  5
4B
100
AcDbSymbolTableRecord
100
AcDbLinetypeTableRecord
  2
PHANTOM
 70
     0
  3
_____ _ _ _____ _ _ _____ _ _ _____ _ _ ____  
 72
    65
 73
     6
 40
15.5
 49
8.0
 74
     0
 49
-1.5
 74
     0
 49
1.5
 74
     0
 49
-1.5
 74
     0
 49
1.5
 74
     0
 49
-1.5
 74
     0
  0
LTYPE
  5
4C
100
AcDbSymbolTableRecord
100
AcDbLinetypeTableRecord
  2
DOT
 70
     0
  3
. . . . . . . . . . . . . . . . . . . . . . . .
 72
    65
 73
     2
 40
0.25
 49
0.0
 74
     0
 49
-0.25
 74
     0
  0
ENDTAB
  0
TABLE
  2
LAYER
  5
2
100
AcDbSymbolTable
 70
     3
  0
LAYER
  5
E
100
AcDbSymbolTableRecord
100
AcDbLayerTableRecord
  2
0
 70
     0
 62
     7
  6
CONTINUOUS
  0
LAYER
  5
18C
102
{ACAD_XDICTIONARY
360
540
102
}
100
AcDbSymbolTableRecord
100
AcDbLayerTableRecord
  2
DEFPOINTS
 70
     0
 62
     7
  6
CONTINUOUS
  0
LAYER
  5
2D0
100
AcDbSymbolTableRecord
100
AcDbLayerTableRecord
  2
寸法
 70
     0
 62
     1
  6
CONTINUOUS
  0
ENDTAB
  0
TABLE
  2
STYLE
  5
3
100
AcDbSymbolTable
 70
     1
  0
STYLE
  5
F
100
AcDbSymbolTableRecord
100
AcDbTextStyleTableRecord
  2
STANDARD
 70
     0
 40
0.0
 41
1.0
 50
0.0
 71
     0
 42
1.767677
  3
txt.shx
  4
bigfont.shx
  0
ENDTAB
  0
TABLE
  2
VIEW
  5
6
100
AcDbSymbolTable
 70
     0
  0
ENDTAB
  0
TABLE
  2
UCS
  5
7
100
AcDbSymbolTable
 70
     0
  0
ENDTAB
  0
TABLE
  2
APPID
  5
9
100
AcDbSymbolTable
 70
     3
  0
APPID
  5
10
100
AcDbSymbolTableRecord
100
AcDbRegAppTableRecord
  2
ACAD
 70
     0
  0
APPID
  5
24
100
AcDbSymbolTableRecord
100
AcDbRegAppTableRecord
  2
CONTENTTABDATA
 70
     0
  0
APPID
  5
25
100
AcDbSymbolTableRecord
100
AcDbRegAppTableRecord
  2
CONTENTCURRENTTAB
 70
     0
  0
ENDTAB
  0
TABLE
  2
DIMSTYLE
  5
A
100
AcDbSymbolTable
 70
     2
  0
DIMSTYLE
105
1D
102
{ACAD_XDICTIONARY
360
53E
102
}
102
{ACAD_REACTORS
330
2DD
330
2EE
330
2FB
330
423
330
468
330
47B
330
488
330
497
330
4A4
330
4D6
330
4F6
330
595
102
}
100
AcDbSymbolTableRecord
100
AcDbDimStyleTableRecord
  2
STANDARD
 70
     0
  3

  4

  5

  6
OPEN30
  7
OPEN30
 40
1.0
 41
2.0
 42
1.0
 43
10.0
 44
1.0
 45
0.0
 46
0.0
 47
0.0
 48
0.0
140
3.0
141
2.0
142
0.0
143
25.4
144
1.0
145
0.0
146
1.0
147
1.0
 71
     0
 72
     0
 73
     0
 74
     0
 75
     0
 76
     0
 77
     1
 78
     8
170
     0
171
     2
172
     1
173
     1
174
     0
175
     0
176
     1
177
     1
178
     1
270
     2
271
     2
272
     4
273
     2
274
     2
340
F
275
     0
280
     0
281
     0
282
     0
283
     1
284
     0
285
     0
286
     0
287
     3
288
     0
  0
DIMSTYLE
105
35
100
AcDbSymbolTableRecord
100
AcDbDimStyleTableRecord
  2
STANDARD_WS
 70
     0
  3

  4

  5

  6

  7

 40
0.707071
 41
2.5
 42
0.625
 43
3.75
 44
1.25
 45
0.0
 46
0.0
 47
0.0
 48
0.0
140
2.5
141
2.5
142
0.0
143
0.0394
144
1.0
145
0.0
146
1.0
147
0.625
 71
     0
 72
     0
 73
     0
 74
     0
 75
     0
 76
     0
 77
     1
 78
     8
170
     0
171
     4
172
     1
173
     0
174
     0
175
     0
176
     0
177
     0
178
     0
270
     2
271
     4
272
     4
273
     8
274
     4
340
F
275
     0
280
     0
281
     0
282
     0
283
     1
284
     0
285
     0
286
     0
287
     3
288
     0
  0
ENDTAB
  0
TABLE
  2
BLOCK_RECORD
  5
1
100
AcDbSymbolTable
 70
    14
  0
BLOCK_RECORD
  5
18
102
{ACAD_XDICTIONARY
360
53C
102
}
100
AcDbSymbolTableRecord
100
AcDbBlockTableRecord
  2
*MODEL_SPACE
  0
BLOCK_RECORD
  5
15
102
{ACAD_XDICTIONARY
360
53A
102
}
100
AcDbSymbolTableRecord
100
AcDbBlockTableRecord
  2
*PAPER_SPACE
  0
BLOCK_RECORD
  5
37
100
AcDbSymbolTableRecord
100
AcDbBlockTableRecord
  2
_OPEN30
  0
BLOCK_RECORD
  5
4D
100
AcDbSymbolTableRecord
100
AcDbBlockTableRecord
  2
BU113R
  0
BLOCK_RECORD
  5
2D1
100
AcDbSymbolTableRecord
100
AcDbBlockTableRecord
  2
*D2
  0
BLOCK_RECORD
  5
2DE
100
AcDbSymbolTableRecord
100
AcDbBlockTableRecord
  2
*D3
  0
BLOCK_RECORD
  5
2EF
100
AcDbSymbolTableRecord
100
AcDbBlockTableRecord
  2
*D4
  0
BLOCK_RECORD
  5
417
100
AcDbSymbolTableRecord
100
AcDbBlockTableRecord
  2
*D5
  0
BLOCK_RECORD
  5
45C
100
AcDbSymbolTableRecord
100
AcDbBlockTableRecord
  2
*D6
  0
BLOCK_RECORD
  5
469
100
AcDbSymbolTableRecord
100
AcDbBlockTableRecord
  2
*D7
  0
BLOCK_RECORD
  5
47C
100
AcDbSymbolTableRecord
100
AcDbBlockTableRecord
  2
*D8
  0
BLOCK_RECORD
  5
489
100
AcDbSymbolTableRecord
100
AcDbBlockTableRecord
  2
*D9
  0
BLOCK_RECORD
  5
498
100
AcDbSymbolTableRecord
100
AcDbBlockTableRecord
  2
*D10
  0
BLOCK_RECORD
  5
4C4
100
AcDbSymbolTableRecord
100
AcDbBlockTableRecord
  2
*D11
  0
BLOCK_RECORD
  5
4E8
100
AcDbSymbolTableRecord
100
AcDbBlockTableRecord
  2
*D12
  0
BLOCK_RECORD
  5
583
100
AcDbSymbolTableRecord
100
AcDbBlockTableRecord
  2
*D13
  0
ENDTAB
  0
ENDSEC
  0
SECTION
  2
BLOCKS
  0
BLOCK
  5
19
100
AcDbEntity
  8
0
100
AcDbBlockBegin
  2
*MODEL_SPACE
 70
     0
 10
0.0
 20
0.0
 30
0.0
  3
*MODEL_SPACE
  1

  0
ENDBLK
  5
1A
100
AcDbEntity
  8
0
100
AcDbBlockEnd
  0
BLOCK
  5
16
100
AcDbEntity
 67
     1
  8
0
100
AcDbBlockBegin
  2
*PAPER_SPACE
 70
     0
 10
0.0
 20
0.0
 30
0.0
  3
*PAPER_SPACE
  1

  0
ENDBLK
  5
17
100
AcDbEntity
 67
     1
  8
0
100
AcDbBlockEnd
  0
BLOCK
  5
38
100
AcDbEntity
  8
0
100
AcDbBlockBegin
  2
_OPEN30
 70
     0
 10
0.0
 20
0.0
 30
0.0
  3
_OPEN30
  1

  0
LINE
  5
39
100
AcDbEntity
  8
0
  6
BYBLOCK
 62
     0
100
AcDbLine
 10
-1.0
 20
0.267949
 30
0.0
 11
0.0
 21
0.0
 31
0.0
  0
LINE
  5
3A
100
AcDbEntity
  8
0
  6
BYBLOCK
 62
     0
100
AcDbLine
 10
0.0
 20
0.0
 30
0.0
 11
-1.0
 21
-0.267949
 31
0.0
  0
LINE
  5
3B
100
AcDbEntity
  8
0
  6
BYBLOCK
 62
     0
100
AcDbLine
 10
0.0
 20
0.0
 30
0.0
 11
-1.0
 21
0.0
 31
0.0
  0
ENDBLK
  5
3C
100
AcDbEntity
  8
0
100
AcDbBlockEnd
  0
BLOCK
  5
181
100
AcDbEntity
  8
0
100
AcDbBlockBegin
  2
BU113R
 70
     0
 10
0.0
 20
0.0
 30
0.0
  3
BU113R
  1

  0
POINT
  5
4E
100
AcDbEntity
  8
0
  6
CONTINUOUS
 62
     7
100
AcDbPoint
 10
-22.349979
 20
0.000002
 30
0.0
  0
POINT
  5
4F
100
AcDbEntity
  8
0
  6
CONTINUOUS
 62
     7
100
AcDbPoint
 10
0.0
 20
0.0
 30
0.0
  0
POINT
  5
50
100
AcDbEntity
  8
0
  6
CONTINUOUS
 62
     7
100
AcDbPoint
 10
0.000003
 20
-21.5
 30
0.0
  0
POINT
  5
51
100
AcDbEntity
  8
0
  6
CONTINUOUS
 62
     7
100
AcDbPoint
 10
77.985847
 20
-31.5
 30
0.0
  0
LINE
  5
52
100
AcDbEntity
  8
0
  6
CENTER
 62
     7
100
AcDbLine
 10
31.0
 20
2.568546
 30
0.0
 11
31.0
 21
-1.5252
 31
0.0
  0
LINE
  5
53
100
AcDbEntity
  8
0
  6
CONTINUOUS
 62
     7
100
AcDbLine
 10
42.0
 20
10.0
 30
0.0
 11
42.0
 21
-0.165993
 31
0.0
  0
LINE
  5
54
100
AcDbEntity
  8
0
  6
CONTINUOUS
 62
     7
100
AcDbLine
 10
2.679492
 20
10.0
 30
0.0
 11
42.0
 21
10.0
 31
0.0
  0
LINE
  5
55
100
AcDbEntity
  8
0
  6
CONTINUOUS
 62
     7
100
AcDbLine
 10
77.985847
 20
-31.5
 30
0.0
 11
79.485847
 21
-31.5
 31
0.0
  0
LINE
  5
56
100
AcDbEntity
  8
0
  6
CONTINUOUS
 62
     7
100
AcDbLine
 10
87.165993
 20
-21.0
 30
0.0
 11
87.165993
 21
-30.499994
 31
0.0
  0
LINE
  5
57
100
AcDbEntity
  8
0
  6
CONTINUOUS
 62
     7
100
AcDbLine
 10
78.165993
 20
-20.0
 30
0.0
 11
86.165993
 21
-20.0
 31
0.0
  0
LINE
  5
58
100
AcDbEntity
  8
0
  6
CONTINUOUS
 62
     7
100
AcDbLine
 10
86.165993
 20
-19.999996
 30
0.0
 11
87.165993
 21
-20.999996
 31
0.0
  0
LINE
  5
59
100
AcDbEntity
  8
0
  6
CONTINUOUS
 62
     7
100
AcDbLine
 10
87.165993
 20
-30.499994
 30
0.0
 11
86.224792
 21
-31.441191
 31
0.0
  0
LINE
  5
5A
100
AcDbEntity
  8
0
  6
CONTINUOUS
 62
     7
100
AcDbLine
 10
78.165985
 20
-19.999998
 30
0.0
 11
76.949814
 21
-28.653522
 31
0.0
  0
LINE
  5
5B
100
AcDbEntity
  8
0
  6
CONTINUOUS
 62
     7
100
AcDbLine
 10
83.083855
 20
-20.934034
 30
0.0
 11
81.886971
 21
-29.45034
 31
0.0
  0
LINE
  5
5C
100
AcDbEntity
  8
0
  6
CONTINUOUS
 62
     7
100
AcDbLine
 10
14.799999
 20
1.0
 30
0.0
 11
42.0
 21
1.0
 31
0.0
  0
LINE
  5
5D
100
AcDbEntity
  8
0
  6
CONTINUOUS
 62
     7
100
AcDbLine
 10
11.417245
 20
9.052822
 30
0.0
 11
42.0
 21
9.052822
 31
0.0
  0
LINE
  5
5E
100
AcDbEntity
  8
0
  6
CONTINUOUS
 62
     7
100
AcDbLine
 10
14.0
 20
0.200001
 30
0.0
 11
14.0
 21
-0.091957
 31
0.0
  0
LINE
  5
5F
100
AcDbEntity
  8
0
  6
CONTINUOUS
 62
     7
100
AcDbLine
 10
7.732051
 20
-1.0
 30
0.0
 11
10.0
 21
-1.0
 31
0.0
  0
LINE
  5
60
100
AcDbEntity
  8
0
  6
CONTINUOUS
 62
     7
100
AcDbLine
 10
0.0
 20
0.0
 30
0.0
 11
2.679492
 21
10.0
 31
0.0
  0
LINE
  5
61
100
AcDbEntity
  8
0
  6
CONTINUOUS
 62
     7
100
AcDbLine
 10
0.0
 20
0.0
 30
0.0
 11
7.464101
 21
-2.0
 31
0.0
  0
LINE
  5
62
100
AcDbEntity
  8
0
  6
CONTINUOUS
 62
     7
100
AcDbLine
 10
2.055023
 20
7.669451
 30
0.0
 11
9.519125
 21
5.669451
 31
0.0
  0
LINE
  5
63
100
AcDbEntity
  8
0
  6
CONTINUOUS
 62
     7
100
AcDbLine
 10
14.0
 20
0.200001
 30
0.0
 11
14.0
 21
-0.650045
 31
0.0
  0
LINE
  5
64
100
AcDbEntity
  8
0
  6
CONTINUOUS
 62
     7
100
AcDbLine
 10
-31.349977
 20
10.0
 30
0.0
 11
-21.849977
 21
10.0
 31
0.0
  0
LINE
  5
65
100
AcDbEntity
  8
0
  6
CONTINUOUS
 62
     7
100
AcDbLine
 10
3.102848
 20
-31.5
 30
0.0
 11
42.0
 21
-31.5
 31
0.0
  0
LINE
  5
66
100
AcDbEntity
  8
0
  6
CONTINUOUS
 62
     7
100
AcDbLine
 10
42.0
 20
-20.0
 30
0.0
 11
42.0
 21
-31.5
 31
0.0
  0
LINE
  5
67
100
AcDbEntity
  8
0
  6
CENTER
 62
     7
100
AcDbLine
 10
32.25
 20
-18.611437
 30
0.0
 11
32.25
 21
-33.579178
 31
0.0
  0
LINE
  5
68
100
AcDbEntity
  8
0
  6
CENTER
 62
     7
100
AcDbLine
 10
29.75
 20
-18.781525
 30
0.0
 11
29.75
 21
-32.983871
 31
0.0
  0
LINE
  5
69
100
AcDbEntity
  8
0
  6
CONTINUOUS
 62
     7
100
AcDbLine
 10
14.0
 20
-20.0
 30
0.0
 11
14.0
 21
-28.653521
 31
0.0
  0
LINE
  5
6A
100
AcDbEntity
  8
0
  6
CONTINUOUS
 62
     7
100
AcDbLine
 10
0.664185
 20
-26.5
 30
0.0
 11
10.0
 21
-26.5
 31
0.0
  0
LINE
  5
6B
100
AcDbEntity
  8
0
  6
CENTER
 62
     7
100
AcDbLine
 10
10.574986
 20
-26.5
 30
0.0
 11
15.531586
 21
-26.5
 31
0.0
  0
LINE
  5
6C
100
AcDbEntity
  8
0
  6
CENTER
 62
     7
100
AcDbLine
 10
12.0
 20
-23.935129
 30
0.0
 11
12.0
 21
-29.470001
 31
0.0
  0
LINE
  5
6D
100
AcDbEntity
  8
0
  6
CENTER
 62
     7
100
AcDbLine
 10
31.0
 20
-18.323681
 30
0.0
 11
31.0
 21
-35.365101
 31
0.0
  0
LINE
  5
6E
100
AcDbEntity
  8
0
  6
CONTINUOUS
 62
     7
100
AcDbLine
 10
10.0
 20
-20.148958
 30
0.0
 11
10.0
 21
-26.5
 31
0.0
  0
LINE
  5
6F
100
AcDbEntity
  8
0
  6
CONTINUOUS
 62
     7
100
AcDbLine
 10
11.417245
 20
-20.0
 30
0.0
 11
42.0
 21
-20.0
 31
0.0
  0
LINE
  5
70
100
AcDbEntity
  8
0
  6
CONTINUOUS
 62
     7
100
AcDbLine
 10
-32.349979
 20
9.0
 30
0.0
 11
-32.349979
 21
0.819852
 31
0.0
  0
LINE
  5
71
100
AcDbEntity
  8
0
  6
CONTINUOUS
 62
     7
100
AcDbLine
 10
-27.349977
 20
0.000002
 30
0.0
 11
-27.349977
 21
-1.0
 31
0.0
  0
LINE
  5
72
100
AcDbEntity
  8
0
  6
CONTINUOUS
 62
     7
100
AcDbLine
 10
-32.349979
 20
0.819852
 30
0.0
 11
-27.349979
 21
-1.0
 31
0.0
  0
LINE
  5
73
100
AcDbEntity
  8
0
  6
CONTINUOUS
 62
     7
100
AcDbLine
 10
-31.349979
 20
10.000001
 30
0.0
 11
-32.349979
 21
9.0
 31
0.0
  0
LINE
  5
74
100
AcDbEntity
  8
0
  6
CONTINUOUS
 62
     7
100
AcDbLine
 10
-20.849977
 20
9.0
 30
0.0
 11
-20.849977
 21
0.0
 31
0.0
  0
LINE
  5
75
100
AcDbEntity
  8
0
  6
CONTINUOUS
 62
     7
100
AcDbLine
 10
-21.849979
 20
10.0
 30
0.0
 11
-20.849979
 21
9.0
 31
0.0
  0
LINE
  5
76
100
AcDbEntity
  8
0
  6
CONTINUOUS
 62
     7
100
AcDbLine
 10
-27.349977
 20
0.000002
 30
0.0
 11
-22.349979
 21
0.000002
 31
0.0
  0
LINE
  5
77
100
AcDbEntity
  8
0
  6
CONTINUOUS
 62
     7
100
AcDbLine
 10
-27.349977
 20
-1.0
 30
0.0
 11
-24.965429
 21
-1.0
 31
0.0
  0
LINE
  5
78
100
AcDbEntity
  8
0
  6
CENTER
 62
     7
100
AcDbLine
 10
4.549838
 20
-18.593822
 30
0.0
 11
6.200789
 21
-30.340946
 31
0.0
  0
LINE
  5
79
100
AcDbEntity
  8
0
  6
CONTINUOUS
 62
     7
100
AcDbLine
 10
13.53235
 20
-27.785265
 30
0.0
 11
14.0
 21
-27.955421
 31
0.0
  0
LINE
  5
7A
100
AcDbEntity
  8
0
  6
CONTINUOUS
 62
     7
100
AcDbLine
 10
50.0
 20
7.0
 30
0.0
 11
50.0
 21
3.0
 31
0.0
  0
LINE
  5
7B
100
AcDbEntity
  8
0
  6
CENTER
 62
     7
100
AcDbLine
 10
39.541668
 20
5.0
 30
0.0
 11
51.930676
 21
5.0
 31
0.0
  0
LINE
  5
7C
100
AcDbEntity
  8
0
  6
CONTINUOUS
 62
     7
100
AcDbLine
 10
45.0
 20
9.0
 30
0.0
 11
45.0
 21
1.0
 31
0.0
  0
LINE
  5
7D
100
AcDbEntity
  8
0
  6
CONTINUOUS
 62
     7
100
AcDbLine
 10
42.0
 20
2.5
 30
0.0
 11
45.0
 21
2.5
 31
0.0
  0
LINE
  5
7E
100
AcDbEntity
  8
0
  6
CONTINUOUS
 62
     7
100
AcDbLine
 10
42.0
 20
7.5
 30
0.0
 11
45.0
 21
7.5
 31
0.0
  0
LINE
  5
7F
100
AcDbEntity
  8
0
  6
CONTINUOUS
 62
     7
100
AcDbLine
 10
47.5
 20
9.499999
 30
0.0
 11
50.0
 21
6.999999
 31
0.0
  0
LINE
  5
80
100
AcDbEntity
  8
0
  6
CONTINUOUS
 62
     7
100
AcDbLine
 10
47.499996
 20
0.499999
 30
0.0
 11
49.999996
 21
2.999998
 31
0.0
  0
LINE
  5
81
100
AcDbEntity
  8
0
  6
CONTINUOUS
 62
     7
100
AcDbLine
 10
45.5
 20
0.5
 30
0.0
 11
47.5
 21
0.5
 31
0.0
  0
LINE
  5
82
100
AcDbEntity
  8
0
  6
CONTINUOUS
 62
     7
100
AcDbLine
 10
45.5
 20
9.5
 30
0.0
 11
47.5
 21
9.5
 31
0.0
  0
LINE
  5
83
100
AcDbEntity
  8
0
  6
CONTINUOUS
 62
     7
100
AcDbLine
 10
45.499996
 20
9.499996
 30
0.0
 11
45.0
 21
8.999998
 31
0.0
  0
LINE
  5
84
100
AcDbEntity
  8
0
  6
CONTINUOUS
 62
     7
100
AcDbLine
 10
45.000004
 20
1.000003
 30
0.0
 11
45.500004
 21
0.500004
 31
0.0
  0
LINE
  5
85
100
AcDbEntity
  8
0
  6
CONTINUOUS
 62
     7
100
AcDbLine
 10
45.5
 20
9.5
 30
0.0
 11
45.5
 21
0.5
 31
0.0
  0
LINE
  5
86
100
AcDbEntity
  8
0
  6
CONTINUOUS
 62
     7
100
AcDbLine
 10
47.5
 20
9.5
 30
0.0
 11
47.5
 21
0.5
 31
0.0
  0
LINE
  5
87
100
AcDbEntity
  8
0
  6
CONTINUOUS
 62
     7
100
AcDbLine
 10
42.0
 20
3.0
 30
0.0
 11
45.0
 21
3.0
 31
0.0
  0
LINE
  5
88
100
AcDbEntity
  8
0
  6
CONTINUOUS
 62
     7
100
AcDbLine
 10
42.0
 20
7.0
 30
0.0
 11
45.0
 21
7.0
 31
0.0
  0
LINE
  5
89
100
AcDbEntity
  8
0
  6
CONTINUOUS
 62
     7
100
AcDbLine
 10
50.0
 20
-24.0
 30
0.0
 11
50.0
 21
-28.0
 31
0.0
  0
LINE
  5
8A
100
AcDbEntity
  8
0
  6
CENTER
 62
     7
100
AcDbLine
 10
39.541668
 20
-26.0
 30
0.0
 11
51.930676
 21
-26.0
 31
0.0
  0
LINE
  5
8B
100
AcDbEntity
  8
0
  6
CONTINUOUS
 62
     7
100
AcDbLine
 10
45.0
 20
-22.0
 30
0.0
 11
45.0
 21
-30.0
 31
0.0
  0
LINE
  5
8C
100
AcDbEntity
  8
0
  6
CONTINUOUS
 62
     7
100
AcDbLine
 10
42.0
 20
-28.5
 30
0.0
 11
45.0
 21
-28.5
 31
0.0
  0
LINE
  5
8D
100
AcDbEntity
  8
0
  6
CONTINUOUS
 62
     7
100
AcDbLine
 10
47.500004
 20
-21.500002
 30
0.0
 11
50.000004
 21
-24.0
 31
0.0
  0
LINE
  5
8E
100
AcDbEntity
  8
0
  6
CONTINUOUS
 62
     7
100
AcDbLine
 10
47.499996
 20
-30.5
 30
0.0
 11
50.0
 21
-28.0
 31
0.0
  0
LINE
  5
8F
100
AcDbEntity
  8
0
  6
CONTINUOUS
 62
     7
100
AcDbLine
 10
45.5
 20
-30.5
 30
0.0
 11
47.5
 21
-30.5
 31
0.0
  0
LINE
  5
90
100
AcDbEntity
  8
0
  6
CONTINUOUS
 62
     7
100
AcDbLine
 10
45.5
 20
-21.5
 30
0.0
 11
47.5
 21
-21.5
 31
0.0
  0
LINE
  5
91
100
AcDbEntity
  8
0
  6
CONTINUOUS
 62
     7
100
AcDbLine
 10
45.499996
 20
-21.500004
 30
0.0
 11
45.0
 21
-22.000002
 31
0.0
  0
LINE
  5
92
100
AcDbEntity
  8
0
  6
CONTINUOUS
 62
     7
100
AcDbLine
 10
45.000004
 20
-29.999998
 30
0.0
 11
45.500004
 21
-30.499998
 31
0.0
  0
LINE
  5
93
100
AcDbEntity
  8
0
  6
CONTINUOUS
 62
     7
100
AcDbLine
 10
45.5
 20
-21.5
 30
0.0
 11
45.5
 21
-30.5
 31
0.0
  0
LINE
  5
94
100
AcDbEntity
  8
0
  6
CONTINUOUS
 62
     7
100
AcDbLine
 10
47.5
 20
-21.5
 30
0.0
 11
47.5
 21
-30.5
 31
0.0
  0
LINE
  5
95
100
AcDbEntity
  8
0
  6
CONTINUOUS
 62
     7
100
AcDbLine
 10
42.0
 20
-28.0
 30
0.0
 11
45.0
 21
-28.0
 31
0.0
  0
LINE
  5
96
100
AcDbEntity
  8
0
  6
CONTINUOUS
 62
     7
100
AcDbLine
 10
42.0
 20
-24.0
 30
0.0
 11
45.0
 21
-24.0
 31
0.0
  0
LINE
  5
97
100
AcDbEntity
  8
0
  6
CONTINUOUS
 62
     7
100
AcDbLine
 10
10.0
 20
-1.0
 30
0.0
 11
13.984808
 21
-0.651374
 31
0.0
  0
LINE
  5
98
100
AcDbEntity
  8
0
  6
CENTER
 62
     7
100
AcDbLine
 10
2.106626
 20
3.545578
 30
0.0
 11
7.617849
 21
2.06885
 31
0.0
  0
LINE
  5
99
100
AcDbEntity
  8
0
  6
CENTER
 62
     7
100
AcDbLine
 10
4.123874
 20
0.051602
 30
0.0
 11
5.600602
 21
5.562826
 31
0.0
  0
LINE
  5
9A
100
AcDbEntity
  8
0
  6
CENTER
 62
     7
100
AcDbLine
 10
12.0
 20
11.909945
 30
0.0
 11
12.0
 21
-2.315754
 31
0.0
  0
LINE
  5
9B
100
AcDbEntity
  8
0
  6
CONTINUOUS
 62
     7
100
AcDbLine
 10
7.464101
 20
-2.0
 30
0.0
 11
9.519125
 21
5.669451
 31
0.0
  0
LINE
  5
9C
100
AcDbEntity
  8
0
  6
CONTINUOUS
 62
     7
100
AcDbLine
 10
8.48578
 20
1.812955
 30
0.0
 11
8.652493
 21
1.768284
 31
0.0
  0
LINE
  5
9D
100
AcDbEntity
  8
0
  6
CONTINUOUS
 62
     7
100
AcDbLine
 10
-24.573179
 20
-1.999998
 30
0.0
 11
-21.565479
 21
-1.999998
 31
0.0
  0
LINE
  5
9E
100
AcDbEntity
  8
0
  6
CONTINUOUS
 62
     7
100
AcDbLine
 10
79.485847
 20
-31.5
 30
0.0
 11
86.2248
 21
-31.441189
 31
0.0
  0
LINE
  5
9F
100
AcDbEntity
  8
0
  6
CONTINUOUS
 62
     7
100
AcDbLine
 10
77.985847
 20
-31.5
 30
0.0
 11
76.949814
 21
-28.653521
 31
0.0
  0
LINE
  5
A0
100
AcDbEntity
  8
0
  6
CONTINUOUS
 62
     7
100
AcDbLine
 10
14.3
 20
-0.216178
 30
0.0
 11
42.0
 21
-0.216178
 31
0.0
  0
LINE
  5
A1
100
AcDbEntity
  8
0
  6
CONTINUOUS
 62
     7
100
AcDbLine
 10
0.000003
 20
-21.5
 30
0.0
 11
7.763238
 21
-20.684052
 31
0.0
  0
LINE
  5
A2
100
AcDbEntity
  8
0
  6
CONTINUOUS
 62
     7
100
AcDbLine
 10
0.292683
 20
-24.28466
 30
0.0
 11
0.000003
 21
-21.5
 31
0.0
  0
LINE
  5
A3
100
AcDbEntity
  8
0
  6
CONTINUOUS
 62
     7
100
AcDbLine
 10
0.292683
 20
-24.28466
 30
0.0
 11
8.055917
 21
-23.468712
 31
0.0
  0
LINE
  5
A4
100
AcDbEntity
  8
0
  6
CONTINUOUS
 62
     7
100
AcDbLine
 10
7.756781
 20
-23.500153
 30
0.0
 11
7.464102
 21
-20.715492
 31
0.0
  0
LINE
  5
A5
100
AcDbEntity
  8
0
  6
CONTINUOUS
 62
     7
100
AcDbLine
 10
42.0
 20
-23.5
 30
0.0
 11
45.0
 21
-23.5
 31
0.0
  0
LINE
  5
A6
100
AcDbEntity
  8
0
  6
CENTER
 62
     7
100
AcDbLine
 10
91.55378
 20
-26.466663
 30
0.0
 11
71.620567
 21
-23.665234
 31
0.0
  0
LINE
  5
A7
100
AcDbEntity
  8
0
  6
CONTINUOUS
 62
     7
100
AcDbLine
 10
83.083855
 20
-20.934034
 30
0.0
 11
78.132515
 21
-20.238169
 31
0.0
  0
LINE
  5
A8
100
AcDbEntity
  8
0
  6
CONTINUOUS
 62
     7
100
AcDbLine
 10
81.886971
 20
-29.45034
 30
0.0
 11
76.989304
 21
-28.762018
 31
0.0
  0
LINE
  5
A9
100
AcDbEntity
  8
0
  6
CONTINUOUS
 62
     7
100
AcDbLine
 10
87.165993
 20
-23.173958
 30
0.0
 11
82.854218
 21
-22.567978
 31
0.0
  0
LINE
  5
AA
100
AcDbEntity
  8
0
  6
CONTINUOUS
 62
     7
100
AcDbLine
 10
87.165993
 20
-28.526043
 30
0.0
 11
82.1166
 21
-27.816397
 31
0.0
  0
LINE
  5
AB
100
AcDbEntity
  8
0
  6
CONTINUOUS
 62
     7
100
AcDbLine
 10
14.0
 20
-28.653521
 30
0.0
 11
28.784931
 21
-28.653521
 31
0.0
  0
LINE
  5
AC
100
AcDbEntity
  8
0
  6
CONTINUOUS
 62
     7
100
AcDbLine
 10
29.75
 20
-28.762018
 30
0.0
 11
32.25
 21
-28.762018
 31
0.0
  0
LINE
  5
AD
100
AcDbEntity
  8
0
  6
CONTINUOUS
 62
     7
100
AcDbLine
 10
29.75
 20
-27.816399
 30
0.0
 11
32.25
 21
-27.816399
 31
0.0
  0
LINE
  5
AE
100
AcDbEntity
  8
0
  6
CONTINUOUS
 62
     7
100
AcDbLine
 10
29.75
 20
-23.173958
 30
0.0
 11
32.25
 21
-23.173958
 31
0.0
  0
LINE
  5
AF
100
AcDbEntity
  8
0
  6
CONTINUOUS
 62
     7
100
AcDbLine
 10
29.75
 20
-22.567978
 30
0.0
 11
32.25
 21
-22.567978
 31
0.0
  0
LINE
  5
B0
100
AcDbEntity
  8
0
  6
CONTINUOUS
 62
     7
100
AcDbLine
 10
29.75
 20
-20.934034
 30
0.0
 11
32.25
 21
-20.934034
 31
0.0
  0
LINE
  5
B1
100
AcDbEntity
  8
0
  6
CONTINUOUS
 62
     7
100
AcDbLine
 10
29.75
 20
-20.238169
 30
0.0
 11
32.25
 21
-20.238169
 31
0.0
  0
LINE
  5
B2
100
AcDbEntity
  8
0
  6
CONTINUOUS
 62
     7
100
AcDbLine
 10
33.215069
 20
-28.653521
 30
0.0
 11
42.0
 21
-28.653521
 31
0.0
  0
LINE
  5
B3
100
AcDbEntity
  8
0
  6
CONTINUOUS
 62
     7
100
AcDbLine
 10
2.055023
 20
-20.984009
 30
0.0
 11
11.417245
 21
-20.0
 31
0.0
  0
LINE
  5
B4
100
AcDbEntity
  8
0
  6
CONTINUOUS
 62
     7
100
AcDbLine
 10
2.08621
 20
-21.280731
 30
0.0
 11
2.055023
 21
-20.984009
 31
0.0
  0
LINE
  5
B5
100
AcDbEntity
  8
0
  6
PHANTOM
 62
     7
100
AcDbLine
 10
2.055023
 20
-20.984009
 30
0.0
 11
0.0
 21
-21.200001
 31
0.0
  0
LINE
  5
B6
100
AcDbEntity
  8
0
  6
CONTINUOUS
 62
     7
100
AcDbLine
 10
11.417245
 20
9.052822
 30
0.0
 11
11.417245
 21
-0.876007
 31
0.0
  0
LINE
  5
B7
100
AcDbEntity
  8
0
  6
CONTINUOUS
 62
     7
100
AcDbLine
 10
8.055917
 20
-23.468712
 30
0.0
 11
7.732051
 21
-20.387329
 31
0.0
  0
LINE
  5
B8
100
AcDbEntity
  8
0
  6
CONTINUOUS
 62
     7
100
AcDbLine
 10
11.417245
 20
9.052822
 30
0.0
 11
2.679492
 21
10.0
 31
0.0
  0
LINE
  5
B9
100
AcDbEntity
  8
0
  6
CONTINUOUS
 62
     7
100
AcDbLine
 10
-21.528255
 20
-0.678277
 30
0.0
 11
-20.849977
 21
0.0
 31
0.0
  0
LINE
  5
BA
100
AcDbEntity
  8
0
  6
CONTINUOUS
 62
     7
100
AcDbLine
 10
-32.349979
 20
1.819853
 30
0.0
 11
-27.349977
 21
0.000001
 31
0.0
  0
LINE
  5
BB
100
AcDbEntity
  8
0
  6
CONTINUOUS
 62
     7
100
AcDbLine
 10
0.664185
 20
-26.5
 30
0.0
 11
0.368844
 21
-24.276657
 31
0.0
  0
LINE
  5
BC
100
AcDbEntity
  8
0
  6
CONTINUOUS
 62
     7
100
AcDbLine
 10
3.102848
 20
-31.5
 30
0.0
 11
0.664185
 21
-26.5
 31
0.0
  0
LINE
  5
BD
100
AcDbEntity
  8
0
  6
CONTINUOUS
 62
     7
100
AcDbLine
 10
-22.349979
 20
0.000002
 30
0.0
 11
-21.565479
 21
-1.999998
 31
0.0
  0
LINE
  5
BE
100
AcDbEntity
  8
0
  6
CONTINUOUS
 62
     7
100
AcDbLine
 10
-25.357681
 20
0.000002
 30
0.0
 11
-24.573181
 21
-1.999999
 31
0.0
  0
LINE
  5
BF
100
AcDbEntity
  8
0
  6
CONTINUOUS
 62
     7
100
AcDbLine
 10
-25.14168
 20
7.669451
 30
0.0
 11
-22.13398
 21
7.669451
 31
0.0
  0
LINE
  5
C0
100
AcDbEntity
  8
0
  6
CONTINUOUS
 62
     7
100
AcDbLine
 10
-22.349979
 20
0.000002
 30
0.0
 11
-22.068344
 21
10.0
 31
0.0
  0
LINE
  5
C1
100
AcDbEntity
  8
0
  6
CONTINUOUS
 62
     7
100
AcDbLine
 10
-25.357679
 20
0.000002
 30
0.0
 11
-25.14168
 21
7.669451
 31
0.0
  0
LINE
  5
C2
100
AcDbEntity
  8
0
  6
CONTINUOUS
 62
     7
100
AcDbLine
 10
-22.13398
 20
7.669451
 30
0.0
 11
-21.34948
 21
5.669451
 31
0.0
  0
LINE
  5
C3
100
AcDbEntity
  8
0
  6
CONTINUOUS
 62
     7
100
AcDbLine
 10
-21.565481
 20
-1.999998
 30
0.0
 11
-21.34948
 21
5.669451
 31
0.0
  0
ARC
  5
C4
100
AcDbEntity
  8
0
  6
CONTINUOUS
 62
     7
100
AcDbCircle
 10
14.799999
 20
0.200001
 30
0.0
 40
0.8
100
AcDbArc
 50
90.000003
 51
180.00001
  0
ARC
  5
C5
100
AcDbEntity
  8
0
  6
CONTINUOUS
 62
     7
100
AcDbCircle
 10
9.170131
 20
3.700136
 30
0.0
 40
2.0
100
AcDbArc
 50
255.0
 51
79.950595
  0
CIRCLE
  5
C6
100
AcDbEntity
  8
0
  6
CONTINUOUS
 62
     7
100
AcDbCircle
 10
12.0
 20
-26.5
 30
0.0
 40
2.0
  0
CIRCLE
  5
C7
100
AcDbEntity
  8
0
  6
CONTINUOUS
 62
     7
100
AcDbCircle
 10
12.0
 20
-26.5
 30
0.0
 40
1.75
  0
CIRCLE
  5
C8
100
AcDbEntity
  8
0
  6
CONTINUOUS
 62
     7
100
AcDbCircle
 10
4.862237
 20
2.807214
 30
0.0
 40
1.575
  0
ARC
  5
C9
100
AcDbEntity
  8
0
  6
CONTINUOUS
 62
     7
100
AcDbCircle
 10
14.3
 20
-0.516178
 30
0.0
 40
0.3
100
AcDbArc
 50
90.000003
 51
180.00001
  0
LWPOLYLINE
  5
CA
100
AcDbEntity
  8
0
  6
CONTINUOUS
 62
     7
100
AcDbPolyline
 90
       17
 70
     0
 43
0.0
 10
29.75
 20
-20.238169
 42
0.048431
 10
28.915683
 20
-20.319162
 42
0.048575
 10
28.111784
 20
-20.55959
 42
0.048755
 10
27.369468
 20
-20.950871
 42
0.048991
 10
26.717177
 20
-21.47881
 42
0.049259
 10
26.180281
 20
-22.124009
 42
0.04951
 10
25.780245
 20
-22.86214
 42
0.049697
 10
25.533428
 20
-23.664636
 42
0.049799
 10
25.450001
 20
-24.500093
 42
0.049757
 10
25.53329
 20
-25.334866
 42
0.049651
 10
25.779671
 20
-26.136679
 42
0.049484
 10
26.1792
 20
-26.874582
 42
0.049246
 10
26.71564
 20
-27.51986
 42
0.049001
 10
27.367807
 20
-28.048222
 42
0.04878
 10
28.110343
 20
-28.440008
 42
0.048607
 10
28.914694
 20
-28.680831
 42
0.048489
 10
29.75
 20
-28.762018
  0
LWPOLYLINE
  5
DD
100
AcDbEntity
  8
0
  6
CONTINUOUS
 62
     7
100
AcDbPolyline
 90
       17
 70
     0
 43
0.0
 10
29.75
 20
-20.934034
 42
0.020079
 10
29.365977
 20
-20.949458
 42
0.020188
 10
28.984148
 20
-20.995746
 42
0.02038
 10
28.607234
 20
-21.072833
 42
0.020658
 10
28.23793
 20
-21.180542
 42
0.021029
 10
27.878874
 20
-21.318619
 42
0.02149
 10
27.532823
 20
-21.486689
 42
0.022034
 10
27.202661
 20
-21.684212
 42
0.022654
 10
26.891411
 20
-21.910426
 42
0.023338
 10
26.602222
 20
-22.164288
 42
0.024066
 10
26.338337
 20
-22.444401
 42
0.024815
 10
26.103034
 20
-22.748942
 42
0.025554
 10
25.899544
 20
-23.075606
 42
0.026247
 10
25.730929
 20
-23.421553
 42
0.026853
 10
25.599944
 20
-23.7834
 42
0.02733
 10
25.508876
 20
-24.157252
 42
0.027645
 10
25.459395
 20
-24.538784
  0
LWPOLYLINE
  5
F0
100
AcDbEntity
  8
0
  6
CONTINUOUS
 62
     7
100
AcDbPolyline
 90
       17
 70
     0
 43
0.0
 10
29.75
 20
-22.567978
 42
0.048369
 10
29.236034
 20
-22.617808
 42
0.048522
 10
28.740767
 20
-22.765739
 42
0.048718
 10
28.283364
 20
-23.006525
 42
0.048977
 10
27.881339
 20
-23.331484
 42
0.04927
 10
27.550351
 20
-23.72872
 42
0.049546
 10
27.303677
 20
-24.18328
 42
0.049752
 10
27.151456
 20
-24.677568
 42
0.049862
 10
27.1
 20
-25.192188
 42
0.049751
 10
27.151229
 20
-25.705685
 42
0.049704
 10
27.303041
 20
-26.199584
 42
0.04952
 10
27.549277
 20
-26.654072
 42
0.049258
 10
27.879873
 20
-27.051447
 42
0.048988
 10
28.281731
 20
-27.376775
 42
0.048744
 10
28.739202
 20
-27.617999
 42
0.048553
 10
29.234702
 20
-27.766308
 42
0.048496
 10
29.75
 20
-27.816399
  0
LWPOLYLINE
  5
103
100
AcDbEntity
  8
0
  6
CONTINUOUS
 62
     7
100
AcDbPolyline
 90
       17
 70
     0
 43
0.0
 10
29.75
 20
-23.173958
 42
0.019231
 10
29.517722
 20
-23.182892
 42
0.019313
 10
29.287077
 20
-23.209649
 42
0.019548
 10
29.058869
 20
-23.254291
 42
0.019858
 10
28.834893
 20
-23.31675
 42
0.020275
 10
28.61664
 20
-23.39696
 42
0.020795
 10
28.405685
 20
-23.494806
 42
0.021417
 10
28.20371
 20
-23.610094
 42
0.022135
 10
28.012504
 20
-23.742524
 42
0.022938
 10
27.833974
 20
-23.891638
 42
0.023809
 10
27.670126
 20
-24.056775
 42
0.024721
 10
27.52304
 20
-24.237018
 42
0.02564
 10
27.39482
 20
-24.431137
 42
0.026521
 10
27.287514
 20
-24.637543
 42
0.027311
 10
27.203016
 20
-24.854267
 42
0.027952
 10
27.14295
 20
-25.078961
 42
0.028393
 10
27.108543
 20
-25.308949
  0
LWPOLYLINE
  5
116
100
AcDbEntity
  8
0
  6
CONTINUOUS
 62
     7
100
AcDbPolyline
 90
       17
 70
     0
 43
0.0
 10
32.25
 20
-20.238169
 42
-0.048431
 10
33.084317
 20
-20.319162
 42
-0.048575
 10
33.888216
 20
-20.55959
 42
-0.048755
 10
34.630532
 20
-20.950871
 42
-0.048991
 10
35.282823
 20
-21.47881
 42
-0.049259
 10
35.819719
 20
-22.124009
 42
-0.04951
 10
36.219755
 20
-22.86214
 42
-0.049697
 10
36.466572
 20
-23.664636
 42
-0.049799
 10
36.549999
 20
-24.500093
 42
-0.049757
 10
36.46671
 20
-25.334866
 42
-0.049651
 10
36.220329
 20
-26.136679
 42
-0.049484
 10
35.8208
 20
-26.874582
 42
-0.049246
 10
35.28436
 20
-27.51986
 42
-0.049001
 10
34.632193
 20
-28.048222
 42
-0.04878
 10
33.889657
 20
-28.440008
 42
-0.048607
 10
33.085306
 20
-28.680831
 42
-0.048489
 10
32.25
 20
-28.762018
  0
LWPOLYLINE
  5
129
100
AcDbEntity
  8
0
  6
CONTINUOUS
 62
     7
100
AcDbPolyline
 90
       17
 70
     0
 43
0.0
 10
32.25
 20
-22.567978
 42
-0.048369
 10
32.763966
 20
-22.617808
 42
-0.048521
 10
33.259233
 20
-22.765739
 42
-0.048718
 10
33.716636
 20
-23.006525
 42
-0.048977
 10
34.118662
 20
-23.331484
 42
-0.04927
 10
34.44965
 20
-23.72872
 42
-0.049546
 10
34.696325
 20
-24.18328
 42
-0.049752
 10
34.848546
 20
-24.677568
 42
-0.049862
 10
34.900002
 20
-25.192188
 42
-0.049751
 10
34.848773
 20
-25.705685
 42
-0.049705
 10
34.69696
 20
-26.199584
 42
-0.04952
 10
34.450725
 20
-26.654072
 42
-0.049258
 10
34.120128
 20
-27.051447
 42
-0.048988
 10
33.71827
 20
-27.376776
 42
-0.048744
 10
33.260798
 20
-27.617999
 42
-0.048553
 10
32.765298
 20
-27.766308
 42
-0.048496
 10
32.25
 20
-27.816399
  0
LWPOLYLINE
  5
13C
100
AcDbEntity
  8
0
  6
CONTINUOUS
 62
     7
100
AcDbPolyline
 90
       17
 70
     0
 43
0.0
 10
32.25
 20
-23.173958
 42
-0.019231
 10
32.482278
 20
-23.182892
 42
-0.019313
 10
32.712924
 20
-23.209649
 42
-0.019548
 10
32.941131
 20
-23.254291
 42
-0.019858
 10
33.165107
 20
-23.316751
 42
-0.020275
 10
33.383361
 20
-23.39696
 42
-0.020795
 10
33.594315
 20
-23.494806
 42
-0.021417
 10
33.796291
 20
-23.610094
 42
-0.022135
 10
33.987497
 20
-23.742524
 42
-0.022938
 10
34.166027
 20
-23.891638
 42
-0.023809
 10
34.329875
 20
-24.056775
 42
-0.024721
 10
34.476961
 20
-24.237018
 42
-0.02564
 10
34.605181
 20
-24.431137
 42
-0.026521
 10
34.712488
 20
-24.637543
 42
-0.027311
 10
34.796986
 20
-24.854267
 42
-0.027952
 10
34.857052
 20
-25.078961
 42
-0.028393
 10
34.891459
 20
-25.308948
  0
LWPOLYLINE
  5
14F
100
AcDbEntity
  8
0
  6
CONTINUOUS
 62
     7
100
AcDbPolyline
 90
       17
 70
     0
 43
0.0
 10
32.25
 20
-20.934034
 42
-0.020079
 10
32.634023
 20
-20.949458
 42
-0.020188
 10
33.015852
 20
-20.995746
 42
-0.02038
 10
33.392766
 20
-21.072833
 42
-0.020658
 10
33.76207
 20
-21.180542
 42
-0.021029
 10
34.121126
 20
-21.318619
 42
-0.02149
 10
34.467177
 20
-21.486689
 42
-0.022034
 10
34.797339
 20
-21.684212
 42
-0.022654
 10
35.108589
 20
-21.910426
 42
-0.023338
 10
35.397778
 20
-22.164288
 42
-0.024066
 10
35.661663
 20
-22.444401
 42
-0.024815
 10
35.896966
 20
-22.748942
 42
-0.025554
 10
36.100456
 20
-23.075606
 42
-0.026247
 10
36.269071
 20
-23.421553
 42
-0.026853
 10
36.400056
 20
-23.7834
 42
-0.02733
 10
36.491124
 20
-24.157252
 42
-0.027645
 10
36.540605
 20
-24.538784
  0
LWPOLYLINE
  5
162
100
AcDbEntity
  8
0
  6
CONTINUOUS
 62
     7
100
AcDbPolyline
 90
       16
 70
     1
 43
0.0
 10
36.549999
 20
0.394917
 42
0.123941
 10
35.226584
 20
0.76538
 42
0.014475
 10
33.821467
 20
0.887148
 42
0.008336
 10
32.41203
 20
0.947713
 42
0.006742
 10
31.0
 20
0.966522
 42
0.006735
 10
29.589367
 20
0.947751
 42
0.008336
 10
28.179482
 20
0.887205
 42
0.014477
 10
26.773675
 20
0.765411
 42
0.124044
 10
25.450001
 20
0.394917
 42
0.123941
 10
26.773416
 20
0.024454
 42
0.014475
 10
28.178533
 20
-0.097314
 42
0.008336
 10
29.58797
 20
-0.157879
 42
0.006742
 10
31.0
 20
-0.176689
 42
0.006735
 10
32.410633
 20
-0.157917
 42
0.008336
 10
33.820518
 20
-0.097372
 42
0.014477
 10
35.226325
 20
0.024422
 42
0.124044
  0
LINE
  5
174
100
AcDbEntity
  8
0
  6
CONTINUOUS
 62
     7
100
AcDbLine
 10
85.291295
 20
-31.449337
 30
0.0
 11
87.165993
 21
-29.574636
 31
0.0
  0
LINE
  5
175
100
AcDbEntity
  8
0
  6
CONTINUOUS
 62
     7
100
AcDbLine
 10
83.026469
 20
-31.469102
 30
0.0
 11
86.116954
 21
-28.378611
 31
0.0
  0
LINE
  5
176
100
AcDbEntity
  8
0
  6
CONTINUOUS
 62
     7
100
AcDbLine
 10
80.761643
 20
-31.488866
 30
0.0
 11
84.148535
 21
-28.101968
 31
0.0
  0
LINE
  5
177
100
AcDbEntity
  8
0
  6
CONTINUOUS
 62
     7
100
AcDbLine
 10
78.505447
 20
-31.5
 30
0.0
 11
80.719219
 21
-29.286224
 31
0.0
  0
LINE
  5
178
100
AcDbEntity
  8
0
  6
CONTINUOUS
 62
     7
100
AcDbLine
 10
82.104754
 20
-27.900686
 30
0.0
 11
82.180115
 21
-27.825325
 31
0.0
  0
LINE
  5
179
100
AcDbEntity
  8
0
  6
CONTINUOUS
 62
     7
100
AcDbLine
 10
77.525414
 20
-30.234969
 30
0.0
 11
78.7508
 21
-29.009581
 31
0.0
  0
LINE
  5
17A
100
AcDbEntity
  8
0
  6
CONTINUOUS
 62
     7
100
AcDbLine
 10
86.872693
 20
-23.132737
 30
0.0
 11
87.165993
 21
-22.839437
 31
0.0
  0
LINE
  5
17B
100
AcDbEntity
  8
0
  6
CONTINUOUS
 62
     7
100
AcDbLine
 10
84.904274
 20
-22.856094
 30
0.0
 11
86.963179
 21
-20.797185
 31
0.0
  0
LINE
  5
17C
100
AcDbEntity
  8
0
  6
CONTINUOUS
 62
     7
100
AcDbLine
 10
82.935855
 20
-22.579451
 30
0.0
 11
85.515304
 21
-19.999996
 31
0.0
  0
LINE
  5
17D
100
AcDbEntity
  8
0
  6
CONTINUOUS
 62
     7
100
AcDbLine
 10
82.428334
 20
-20.841907
 30
0.0
 11
83.270242
 21
-19.999998
 31
0.0
  0
LINE
  5
17E
100
AcDbEntity
  8
0
  6
CONTINUOUS
 62
     7
100
AcDbLine
 10
80.459915
 20
-20.565264
 30
0.0
 11
81.025179
 21
-19.999999
 31
0.0
  0
LINE
  5
17F
100
AcDbEntity
  8
0
  6
CONTINUOUS
 62
     7
100
AcDbLine
 10
78.491496
 20
-20.28862
 30
0.0
 11
78.780116
 21
-20.0
 31
0.0
  0
TEXT
  5
180
100
AcDbEntity
  8
0
  6
CONTINUOUS
100
AcDbText
 10
7.975339
 20
-58.96327
 30
0.0
 40
6.0
  1
ＢＵ１１３Ｒ
100
AcDbText
  0
ENDBLK
  5
182
100
AcDbEntity
  8
0
100
AcDbBlockEnd
  0
BLOCK
  5
312
100
AcDbEntity
  8
0
100
AcDbBlockBegin
  2
*D2
 70
     1
 10
0.0
 20
0.0
 30
0.0
  3
*D2
  1

  0
LINE
  5
313
100
AcDbEntity
  8
0
  6
BYBLOCK
 62
     1
100
AcDbLine
 10
118.760592
 20
118.857804
 30
0.0
 11
118.760592
 21
98.85667
 31
0.0
  0
LINE
  5
314
100
AcDbEntity
  8
0
  6
BYBLOCK
 62
     1
100
AcDbLine
 10
168.760592
 20
121.857804
 30
0.0
 11
168.760592
 21
98.85667
 31
0.0
  0
LINE
  5
315
100
AcDbEntity
  8
0
  6
BYBLOCK
 62
     1
100
AcDbLine
 10
120.760592
 20
99.85667
 30
0.0
 11
166.760592
 21
99.85667
 31
0.0
  0
INSERT
  5
316
100
AcDbEntity
  8
0
  6
BYBLOCK
 62
     1
100
AcDbBlockReference
  2
_OPEN30
 10
118.760592
 20
99.85667
 30
0.0
 41
2.0
 42
2.0
 43
2.0
 50
180.0
  0
INSERT
  5
317
100
AcDbEntity
  8
0
  6
BYBLOCK
 62
     1
100
AcDbBlockReference
  2
_OPEN30
 10
168.760592
 20
99.85667
 30
0.0
 41
2.0
 42
2.0
 43
2.0
  0
MTEXT
  5
318
100
AcDbEntity
  8
0
  6
BYBLOCK
 62
     1
100
AcDbMText
 10
143.760592
 20
102.35667
 30
0.0
 40
3.0
 41
0.0
 71
     5
 72
     1
  1
\A1;50
1001
ACAD
1000
MTEXTBEGIN
1070
    73
1070
     1
1070
    44
1040
1.0
1070
    74
1070
     0
1000
MTEXTEND
  0
POINT
  5
319
100
AcDbEntity
  8
DEFPOINTS
  6
BYBLOCK
 62
     0
100
AcDbPoint
 10
118.760592
 20
119.857804
 30
0.0
  0
POINT
  5
31A
100
AcDbEntity
  8
DEFPOINTS
  6
BYBLOCK
 62
     0
100
AcDbPoint
 10
168.760592
 20
122.857804
 30
0.0
  0
POINT
  5
31B
100
AcDbEntity
  8
DEFPOINTS
  6
BYBLOCK
 62
     0
100
AcDbPoint
 10
168.760592
 20
99.85667
 30
0.0
  0
ENDBLK
  5
31C
100
AcDbEntity
  8
0
100
AcDbBlockEnd
  0
BLOCK
  5
408
100
AcDbEntity
  8
0
100
AcDbBlockBegin
  2
*D3
 70
     1
 10
0.0
 20
0.0
 30
0.0
  3
*D3
  1

  0
LINE
  5
542
100
AcDbEntity
  8
寸法
 62
     1
100
AcDbLine
 10
127.19062
 20
117.598984
 30
0.0
 11
135.70285
 21
115.318139
 31
0.0
  0
LINE
  5
543
100
AcDbEntity
  8
寸法
 62
     1
100
AcDbLine
 10
129.760592
 20
118.857804
 30
0.0
 11
136.168855
 21
118.857804
 31
0.0
  0
ARC
  5
544
100
AcDbEntity
  8
寸法
 62
     1
100
AcDbCircle
 10
122.492643
 20
118.857804
 30
0.0
 40
12.676212
100
AcDbArc
 50
326.901415
 51
335.950707
  0
ARC
  5
545
100
AcDbEntity
  8
寸法
 62
     1
100
AcDbCircle
 10
122.492643
 20
118.857804
 30
0.0
 40
12.676212
100
AcDbArc
 50
9.049292
 51
18.098584
  0
ARC
  5
546
100
AcDbEntity
  8
寸法
 62
     1
100
AcDbCircle
 10
122.492643
 20
118.857804
 30
0.0
 40
12.676212
100
AcDbArc
 50
344.999999
 51
0.0
  0
INSERT
  5
547
100
AcDbEntity
  8
寸法
 62
     1
100
AcDbBlockReference
  2
_OPEN30
 10
134.736924
 20
115.576958
 30
0.0
 41
2.0
 42
2.0
 43
2.0
 50
70.475353
  0
INSERT
  5
548
100
AcDbEntity
  8
寸法
 62
     1
100
AcDbBlockReference
  2
_OPEN30
 10
135.168855
 20
118.857804
 30
0.0
 41
2.0
 42
2.0
 43
2.0
 50
274.524646
  0
MTEXT
  5
549
100
AcDbEntity
  8
寸法
 62
     1
100
AcDbMText
 10
129.228002
 20
111.229551
 30
0.0
 40
3.0
 41
0.0
 71
     5
 72
     1
  1
\A1;15°
 11
0.749616
 21
0.661873
 31
0.0
  0
POINT
  5
54A
100
AcDbEntity
  8
DEFPOINTS
 62
     0
100
AcDbPoint
 10
135.120619
 20
117.752999
 30
0.0
  0
POINT
  5
54B
100
AcDbEntity
  8
DEFPOINTS
 62
     0
100
AcDbPoint
 10
126.492643
 20
118.857804
 30
0.0
  0
POINT
  5
54C
100
AcDbEntity
  8
DEFPOINTS
 62
     0
100
AcDbPoint
 10
118.760592
 20
119.857804
 30
0.0
  0
POINT
  5
54D
100
AcDbEntity
  8
DEFPOINTS
 62
     0
100
AcDbPoint
 10
126.224694
 20
117.857804
 30
0.0
  0
POINT
  5
54E
100
AcDbEntity
  8
DEFPOINTS
 62
     0
100
AcDbPoint
 10
128.760592
 20
118.857804
 30
0.0
  0
ENDBLK
  5
416
100
AcDbEntity
  8
0
100
AcDbBlockEnd
  0
BLOCK
  5
31D
100
AcDbEntity
  8
0
100
AcDbBlockBegin
  2
*D4
 70
     1
 10
0.0
 20
0.0
 30
0.0
  3
*D4
  1

  0
LINE
  5
31E
100
AcDbEntity
  8
0
  6
BYBLOCK
 62
     1
100
AcDbLine
 10
160.760592
 20
118.641625
 30
0.0
 11
160.760592
 21
108.978541
 31
0.0
  0
LINE
  5
31F
100
AcDbEntity
  8
0
  6
BYBLOCK
 62
     1
100
AcDbLine
 10
168.760588
 20
121.857802
 30
0.0
 11
168.760588
 21
108.978541
 31
0.0
  0
LINE
  5
320
100
AcDbEntity
  8
0
  6
BYBLOCK
 62
     1
100
AcDbLine
 10
162.760592
 20
109.978541
 30
0.0
 11
166.760588
 21
109.978541
 31
0.0
  0
INSERT
  5
321
100
AcDbEntity
  8
0
  6
BYBLOCK
 62
     1
100
AcDbBlockReference
  2
_OPEN30
 10
160.760592
 20
109.978541
 30
0.0
 41
2.0
 42
2.0
 43
2.0
 50
180.0
  0
INSERT
  5
322
100
AcDbEntity
  8
0
  6
BYBLOCK
 62
     1
100
AcDbBlockReference
  2
_OPEN30
 10
168.760588
 20
109.978541
 30
0.0
 41
2.0
 42
2.0
 43
2.0
  0
MTEXT
  5
323
100
AcDbEntity
  8
0
  6
BYBLOCK
 62
     1
100
AcDbMText
 10
164.76059
 20
112.478541
 30
0.0
 40
3.0
 41
0.0
 71
     5
 72
     1
  1
\A1;8
1001
ACAD
1000
MTEXTBEGIN
1070
    73
1070
     1
1070
    44
1040
1.0
1070
    74
1070
     0
1000
MTEXTEND
  0
POINT
  5
324
100
AcDbEntity
  8
DEFPOINTS
  6
BYBLOCK
 62
     0
100
AcDbPoint
 10
160.760592
 20
119.641625
 30
0.0
  0
POINT
  5
325
100
AcDbEntity
  8
DEFPOINTS
  6
BYBLOCK
 62
     0
100
AcDbPoint
 10
168.760588
 20
122.857802
 30
0.0
  0
POINT
  5
326
100
AcDbEntity
  8
DEFPOINTS
  6
BYBLOCK
 62
     0
100
AcDbPoint
 10
168.760588
 20
109.978541
 30
0.0
  0
ENDBLK
  5
327
100
AcDbEntity
  8
0
100
AcDbBlockEnd
  0
BLOCK
  5
4FA
100
AcDbEntity
  8
0
100
AcDbBlockBegin
  2
*D5
 70
     1
 10
0.0
 20
0.0
 30
0.0
  3
*D5
  1

  0
LINE
  5
4FB
100
AcDbEntity
  8
0
  6
BYBLOCK
 62
     1
100
AcDbLine
 10
120.440084
 20
129.857804
 30
0.0
 11
109.107694
 21
129.857804
 31
0.0
  0
LINE
  5
4FC
100
AcDbEntity
  8
0
  6
BYBLOCK
 62
     1
100
AcDbLine
 10
125.224694
 20
117.857804
 30
0.0
 11
109.107694
 21
117.857804
 31
0.0
  0
LINE
  5
4FD
100
AcDbEntity
  8
0
  6
BYBLOCK
 62
     1
100
AcDbLine
 10
110.107694
 20
127.857804
 30
0.0
 11
110.107694
 21
119.857804
 31
0.0
  0
INSERT
  5
4FE
100
AcDbEntity
  8
0
  6
BYBLOCK
 62
     1
100
AcDbBlockReference
  2
_OPEN30
 10
110.107694
 20
129.857804
 30
0.0
 41
2.0
 42
2.0
 43
2.0
 50
90.0
  0
INSERT
  5
4FF
100
AcDbEntity
  8
0
  6
BYBLOCK
 62
     1
100
AcDbBlockReference
  2
_OPEN30
 10
110.107694
 20
117.857804
 30
0.0
 41
2.0
 42
2.0
 43
2.0
 50
270.0
  0
MTEXT
  5
500
100
AcDbEntity
  8
0
  6
BYBLOCK
 62
     1
100
AcDbMText
 10
107.607694
 20
123.857804
 30
0.0
 40
3.0
 41
0.0
 71
     5
 72
     1
  1
\A1;12
 11
0.0
 21
1.0
 31
0.0
1001
ACAD
1000
MTEXTBEGIN
1070
    73
1070
     1
1070
    44
1040
1.0
1070
    74
1070
     0
1000
MTEXTEND
  0
POINT
  5
501
100
AcDbEntity
  8
DEFPOINTS
  6
BYBLOCK
 62
     0
100
AcDbPoint
 10
121.440084
 20
129.857804
 30
0.0
  0
POINT
  5
502
100
AcDbEntity
  8
DEFPOINTS
  6
BYBLOCK
 62
     0
100
AcDbPoint
 10
126.224694
 20
117.857804
 30
0.0
  0
POINT
  5
503
100
AcDbEntity
  8
DEFPOINTS
  6
BYBLOCK
 62
     0
100
AcDbPoint
 10
110.107694
 20
117.857804
 30
0.0
  0
ENDBLK
  5
504
100
AcDbEntity
  8
0
100
AcDbBlockEnd
  0
BLOCK
  5
45D
100
AcDbEntity
  8
0
100
AcDbBlockBegin
  2
*D6
 70
     1
 10
0.0
 20
0.0
 30
0.0
  3
*D6
  1

  0
LINE
  5
45E
100
AcDbEntity
  8
0
  6
BYBLOCK
 62
     1
100
AcDbLine
 10
117.760596
 20
81.39683
 30
0.0
 11
108.448077
 21
81.39683
 31
0.0
  0
LINE
  5
45F
100
AcDbEntity
  8
0
  6
BYBLOCK
 62
     1
100
AcDbLine
 10
120.86344
 20
71.39683
 30
0.0
 11
108.448077
 21
71.39683
 31
0.0
  0
LINE
  5
460
100
AcDbEntity
  8
0
  6
BYBLOCK
 62
     1
100
AcDbLine
 10
109.448077
 20
79.39683
 30
0.0
 11
109.448077
 21
73.39683
 31
0.0
  0
INSERT
  5
461
100
AcDbEntity
  8
0
  6
BYBLOCK
 62
     1
100
AcDbBlockReference
  2
_OPEN30
 10
109.448077
 20
81.39683
 30
0.0
 41
2.0
 42
2.0
 43
2.0
 50
90.0
  0
INSERT
  5
462
100
AcDbEntity
  8
0
  6
BYBLOCK
 62
     1
100
AcDbBlockReference
  2
_OPEN30
 10
109.448077
 20
71.39683
 30
0.0
 41
2.0
 42
2.0
 43
2.0
 50
270.0
  0
MTEXT
  5
463
100
AcDbEntity
  8
0
  6
BYBLOCK
 62
     1
100
AcDbMText
 10
106.948077
 20
76.39683
 30
0.0
 40
3.0
 41
0.0
 71
     5
 72
     1
  1
\A1;10
 11
0.0
 21
1.0
 31
0.0
1001
ACAD
1000
MTEXTBEGIN
1070
    73
1070
     1
1070
    44
1040
1.0
1070
    74
1070
     0
1000
MTEXTEND
  0
POINT
  5
464
100
AcDbEntity
  8
DEFPOINTS
  6
BYBLOCK
 62
     0
100
AcDbPoint
 10
118.760596
 20
81.39683
 30
0.0
  0
POINT
  5
465
100
AcDbEntity
  8
DEFPOINTS
  6
BYBLOCK
 62
     0
100
AcDbPoint
 10
121.86344
 20
71.39683
 30
0.0
  0
POINT
  5
466
100
AcDbEntity
  8
DEFPOINTS
  6
BYBLOCK
 62
     0
100
AcDbPoint
 10
109.448077
 20
71.39683
 30
0.0
  0
ENDBLK
  5
467
100
AcDbEntity
  8
0
100
AcDbBlockEnd
  0
BLOCK
  5
46A
100
AcDbEntity
  8
0
100
AcDbBlockBegin
  2
*D7
 70
     1
 10
0.0
 20
0.0
 30
0.0
  3
*D7
  1

  0
LINE
  5
55C
100
AcDbEntity
  8
寸法
 62
     1
100
AcDbLine
 10
129.177837
 20
82.89683
 30
0.0
 11
98.24168
 21
82.89683
 31
0.0
  0
LINE
  5
55D
100
AcDbEntity
  8
寸法
 62
     1
100
AcDbLine
 10
117.766074
 20
81.292301
 30
0.0
 11
98.432266
 21
79.260238
 31
0.0
  0
ARC
  5
55E
100
AcDbEntity
  8
寸法
 62
     1
100
AcDbCircle
 10
133.032156
 20
82.89683
 30
0.0
 40
33.790476
100
AcDbArc
 50
173.213557
 51
180.0
  0
LINE
  5
55F
100
AcDbEntity
  8
寸法
 62
     1
100
AcDbLine
 10
99.478433
 20
86.889817
 30
0.0
 11
100.494687
 21
95.429561
 31
0.0
  0
ARC
  5
560
100
AcDbEntity
  8
寸法
 62
     1
100
AcDbCircle
 10
133.032156
 20
82.89683
 30
0.0
 40
33.790476
100
AcDbArc
 50
173.216533
 51
176.608266
  0
ARC
  5
561
100
AcDbEntity
  8
寸法
 62
     1
100
AcDbCircle
 10
133.032156
 20
82.89683
 30
0.0
 40
33.790476
100
AcDbArc
 50
189.391728
 51
192.783461
  0
ARC
  5
562
100
AcDbEntity
  8
寸法
 62
     1
100
AcDbCircle
 10
133.032156
 20
82.89683
 30
0.0
 40
33.790476
100
AcDbArc
 50
180.0
 51
185.999994
  0
INSERT
  5
563
100
AcDbEntity
  8
寸法
 62
     1
100
AcDbBlockReference
  2
_OPEN30
 10
99.24168
 20
82.89683
 30
0.0
 41
2.0
 42
2.0
 43
2.0
 50
268.304133
  0
INSERT
  5
564
100
AcDbEntity
  8
寸法
 62
     1
100
AcDbBlockReference
  2
_OPEN30
 10
99.426788
 20
79.364766
 30
0.0
 41
2.0
 42
2.0
 43
2.0
 50
97.695861
  0
MTEXT
  5
565
100
AcDbEntity
  8
寸法
 62
     1
100
AcDbMText
 10
102.469044
 20
90.864266
 30
0.0
 40
3.0
 41
0.0
 71
     5
 72
     1
  1
\A1;6°
 11
-0.118169
 21
-0.992993
 31
0.0
  0
POINT
  5
566
100
AcDbEntity
  8
DEFPOINTS
 62
     0
100
AcDbPoint
 10
99.323992
 20
80.539727
 30
0.0
  0
POINT
  5
567
100
AcDbEntity
  8
DEFPOINTS
 62
     0
100
AcDbPoint
 10
118.760596
 20
81.39683
 30
0.0
  0
POINT
  5
568
100
AcDbEntity
  8
DEFPOINTS
 62
     0
100
AcDbPoint
 10
130.177837
 20
82.89683
 30
0.0
  0
POINT
  5
569
100
AcDbEntity
  8
DEFPOINTS
 62
     0
100
AcDbPoint
 10
160.760592
 20
82.89683
 30
0.0
  0
POINT
  5
56A
100
AcDbEntity
  8
DEFPOINTS
 62
     0
100
AcDbPoint
 10
126.52383
 20
82.212778
 30
0.0
  0
ENDBLK
  5
47A
100
AcDbEntity
  8
0
100
AcDbBlockEnd
  0
BLOCK
  5
47D
100
AcDbEntity
  8
0
100
AcDbBlockBegin
  2
*D8
 70
     1
 10
0.0
 20
0.0
 30
0.0
  3
*D8
  1

  0
LINE
  5
47E
100
AcDbEntity
  8
0
  6
BYBLOCK
 62
     1
100
AcDbLine
 10
149.760592
 20
85.573149
 30
0.0
 11
149.760592
 21
91.061976
 31
0.0
  0
LINE
  5
47F
100
AcDbEntity
  8
0
  6
BYBLOCK
 62
     1
100
AcDbLine
 10
168.760596
 20
79.89683
 30
0.0
 11
168.760596
 21
91.061976
 31
0.0
  0
LINE
  5
480
100
AcDbEntity
  8
0
  6
BYBLOCK
 62
     1
100
AcDbLine
 10
151.760592
 20
90.061976
 30
0.0
 11
166.760596
 21
90.061976
 31
0.0
  0
INSERT
  5
481
100
AcDbEntity
  8
0
  6
BYBLOCK
 62
     1
100
AcDbBlockReference
  2
_OPEN30
 10
149.760592
 20
90.061976
 30
0.0
 41
2.0
 42
2.0
 43
2.0
 50
180.0
  0
INSERT
  5
482
100
AcDbEntity
  8
0
  6
BYBLOCK
 62
     1
100
AcDbBlockReference
  2
_OPEN30
 10
168.760596
 20
90.061976
 30
0.0
 41
2.0
 42
2.0
 43
2.0
  0
MTEXT
  5
483
100
AcDbEntity
  8
0
  6
BYBLOCK
 62
     1
100
AcDbMText
 10
159.260594
 20
92.561976
 30
0.0
 40
3.0
 41
0.0
 71
     5
 72
     1
  1
\A1;19
1001
ACAD
1000
MTEXTBEGIN
1070
    73
1070
     1
1070
    44
1040
1.0
1070
    74
1070
     0
1000
MTEXTEND
  0
POINT
  5
484
100
AcDbEntity
  8
DEFPOINTS
  6
BYBLOCK
 62
     0
100
AcDbPoint
 10
149.760592
 20
84.573149
 30
0.0
  0
POINT
  5
485
100
AcDbEntity
  8
DEFPOINTS
  6
BYBLOCK
 62
     0
100
AcDbPoint
 10
168.760596
 20
78.89683
 30
0.0
  0
POINT
  5
486
100
AcDbEntity
  8
DEFPOINTS
  6
BYBLOCK
 62
     0
100
AcDbPoint
 10
168.760596
 20
90.061976
 30
0.0
  0
ENDBLK
  5
487
100
AcDbEntity
  8
0
100
AcDbBlockEnd
  0
BLOCK
  5
48A
100
AcDbEntity
  8
0
100
AcDbBlockBegin
  2
*D9
 70
     1
 10
0.0
 20
0.0
 30
0.0
  3
*D9
  1

  0
LINE
  5
48B
100
AcDbEntity
  8
0
  6
BYBLOCK
 62
     1
100
AcDbLine
 10
148.510592
 20
68.912959
 30
0.0
 11
148.510592
 21
58.843472
 31
0.0
  0
LINE
  5
48C
100
AcDbEntity
  8
0
  6
BYBLOCK
 62
     1
100
AcDbLine
 10
151.010592
 20
68.317652
 30
0.0
 11
151.010592
 21
58.843472
 31
0.0
  0
LINE
  5
48D
100
AcDbEntity
  8
0
  6
BYBLOCK
 62
     1
100
AcDbLine
 10
146.510592
 20
59.843472
 30
0.0
 11
144.510592
 21
59.843472
 31
0.0
  0
LINE
  5
48E
100
AcDbEntity
  8
0
  6
BYBLOCK
 62
     1
100
AcDbLine
 10
153.010592
 20
59.843472
 30
0.0
 11
163.010592
 21
59.843472
 31
0.0
  0
LINE
  5
48F
100
AcDbEntity
  8
0
  6
BYBLOCK
 62
     1
100
AcDbLine
 10
148.510592
 20
59.843472
 30
0.0
 11
151.010592
 21
59.843472
 31
0.0
  0
INSERT
  5
490
100
AcDbEntity
  8
0
  6
BYBLOCK
 62
     1
100
AcDbBlockReference
  2
_OPEN30
 10
148.510592
 20
59.843472
 30
0.0
 41
2.0
 42
2.0
 43
2.0
  0
INSERT
  5
491
100
AcDbEntity
  8
0
  6
BYBLOCK
 62
     1
100
AcDbBlockReference
  2
_OPEN30
 10
151.010592
 20
59.843472
 30
0.0
 41
2.0
 42
2.0
 43
2.0
 50
180.0
  0
MTEXT
  5
492
100
AcDbEntity
  8
0
  6
BYBLOCK
 62
     1
100
AcDbMText
 10
159.010592
 20
62.343472
 30
0.0
 40
3.0
 41
0.0
 71
     5
 72
     1
  1
\A1;2.5
1001
ACAD
1000
MTEXTBEGIN
1070
    73
1070
     1
1070
    44
1040
1.0
1070
    74
1070
     0
1000
MTEXTEND
  0
POINT
  5
493
100
AcDbEntity
  8
DEFPOINTS
  6
BYBLOCK
 62
     0
100
AcDbPoint
 10
148.510592
 20
69.912959
 30
0.0
  0
POINT
  5
494
100
AcDbEntity
  8
DEFPOINTS
  6
BYBLOCK
 62
     0
100
AcDbPoint
 10
151.010592
 20
69.317652
 30
0.0
  0
POINT
  5
495
100
AcDbEntity
  8
DEFPOINTS
  6
BYBLOCK
 62
     0
100
AcDbPoint
 10
151.010592
 20
59.843472
 30
0.0
  0
ENDBLK
  5
496
100
AcDbEntity
  8
0
100
AcDbBlockEnd
  0
BLOCK
  5
499
100
AcDbEntity
  8
0
100
AcDbBlockBegin
  2
*D10
 70
     1
 10
0.0
 20
0.0
 30
0.0
  3
*D10
  1

  0
LINE
  5
49A
100
AcDbEntity
  8
0
  6
BYBLOCK
 62
     1
100
AcDbLine
 10
161.760592
 20
82.89683
 30
0.0
 11
180.384334
 21
82.89683
 31
0.0
  0
LINE
  5
49B
100
AcDbEntity
  8
0
  6
BYBLOCK
 62
     1
100
AcDbLine
 10
161.760592
 20
71.39683
 30
0.0
 11
180.384334
 21
71.39683
 31
0.0
  0
LINE
  5
49C
100
AcDbEntity
  8
0
  6
BYBLOCK
 62
     1
100
AcDbLine
 10
179.384334
 20
80.89683
 30
0.0
 11
179.384334
 21
73.39683
 31
0.0
  0
INSERT
  5
49D
100
AcDbEntity
  8
0
  6
BYBLOCK
 62
     1
100
AcDbBlockReference
  2
_OPEN30
 10
179.384334
 20
82.89683
 30
0.0
 41
2.0
 42
2.0
 43
2.0
 50
90.0
  0
INSERT
  5
49E
100
AcDbEntity
  8
0
  6
BYBLOCK
 62
     1
100
AcDbBlockReference
  2
_OPEN30
 10
179.384334
 20
71.39683
 30
0.0
 41
2.0
 42
2.0
 43
2.0
 50
270.0
  0
MTEXT
  5
49F
100
AcDbEntity
  8
0
  6
BYBLOCK
 62
     1
100
AcDbMText
 10
176.884334
 20
77.14683
 30
0.0
 40
3.0
 41
0.0
 71
     5
 72
     1
  1
\A1;11.5
 11
0.0
 21
1.0
 31
0.0
1001
ACAD
1000
MTEXTBEGIN
1070
    73
1070
     1
1070
    44
1040
1.0
1070
    74
1070
     0
1000
MTEXTEND
  0
POINT
  5
4A0
100
AcDbEntity
  8
DEFPOINTS
  6
BYBLOCK
 62
     0
100
AcDbPoint
 10
160.760592
 20
82.89683
 30
0.0
  0
POINT
  5
4A1
100
AcDbEntity
  8
DEFPOINTS
  6
BYBLOCK
 62
     0
100
AcDbPoint
 10
160.760592
 20
71.39683
 30
0.0
  0
POINT
  5
4A2
100
AcDbEntity
  8
DEFPOINTS
  6
BYBLOCK
 62
     0
100
AcDbPoint
 10
179.384334
 20
71.39683
 30
0.0
  0
ENDBLK
  5
4A3
100
AcDbEntity
  8
0
100
AcDbBlockEnd
  0
BLOCK
  5
4D7
100
AcDbEntity
  8
0
100
AcDbBlockBegin
  2
*D11
 70
     1
 10
0.0
 20
0.0
 30
0.0
  3
*D11
  1

  0
LINE
  5
56B
100
AcDbEntity
  8
寸法
 62
     1
100
AcDbLine
 10
211.30464
 20
76.290993
 30
0.0
 11
224.191586
 21
74.479852
 31
0.0
  0
LINE
  5
56C
100
AcDbEntity
  8
寸法
 62
     1
100
AcDbLine
 10
211.975726
 20
77.046829
 30
0.0
 11
224.371086
 21
77.046829
 31
0.0
  0
ARC
  5
56D
100
AcDbEntity
  8
寸法
 62
     1
100
AcDbCircle
 10
205.926585
 20
77.046829
 30
0.0
 40
17.444501
100
AcDbArc
 50
338.854954
 51
345.427479
  0
ARC
  5
56E
100
AcDbEntity
  8
寸法
 62
     1
100
AcDbCircle
 10
205.926585
 20
77.046829
 30
0.0
 40
17.444501
100
AcDbArc
 50
6.572525
 51
13.14505
  0
ARC
  5
56F
100
AcDbEntity
  8
寸法
 62
     1
100
AcDbCircle
 10
205.926585
 20
77.046829
 30
0.0
 40
17.444501
100
AcDbArc
 50
352.000004
 51
0.0
  0
INSERT
  5
570
100
AcDbEntity
  8
寸法
 62
     1
100
AcDbBlockReference
  2
_OPEN30
 10
223.201317
 20
74.619025
 30
0.0
 41
2.0
 42
2.0
 43
2.0
 50
78.713742
  0
INSERT
  5
571
100
AcDbEntity
  8
寸法
 62
     1
100
AcDbBlockReference
  2
_OPEN30
 10
223.371086
 20
77.046829
 30
0.0
 41
2.0
 42
2.0
 43
2.0
 50
273.286262
  0
MTEXT
  5
572
100
AcDbEntity
  8
寸法
 62
     1
100
AcDbMText
 10
219.654081
 20
71.139719
 30
0.0
 40
3.0
 41
0.0
 71
     5
 72
     1
  1
\A1;8°
 11
0.39527
 21
0.918565
 31
0.0
  0
POINT
  5
573
100
AcDbEntity
  8
DEFPOINTS
 62
     0
100
AcDbPoint
 10
223.352196
 20
76.235219
 30
0.0
  0
POINT
  5
574
100
AcDbEntity
  8
DEFPOINTS
 62
     0
100
AcDbPoint
 10
210.975726
 20
77.046829
 30
0.0
  0
POINT
  5
575
100
AcDbEntity
  8
DEFPOINTS
 62
     0
100
AcDbPoint
 10
210.314372
 20
76.430167
 30
0.0
  0
POINT
  5
576
100
AcDbEntity
  8
DEFPOINTS
 62
     0
100
AcDbPoint
 10
190.381159
 20
79.231596
 30
0.0
  0
POINT
  5
577
100
AcDbEntity
  8
DEFPOINTS
 62
     0
100
AcDbPoint
 10
205.926585
 20
77.046829
 30
0.0
  0
ENDBLK
  5
4E5
100
AcDbEntity
  8
0
100
AcDbBlockEnd
  0
BLOCK
  5
4E9
100
AcDbEntity
  8
0
100
AcDbBlockBegin
  2
*D12
 70
     1
 10
0.0
 20
0.0
 30
0.0
  3
*D12
  1

  0
LINE
  5
4EA
100
AcDbEntity
  8
0
  6
BYBLOCK
 62
     1
100
AcDbLine
 10
206.926585
 20
77.046829
 30
0.0
 11
213.120696
 21
77.046829
 31
0.0
  0
LINE
  5
4EB
100
AcDbEntity
  8
0
  6
BYBLOCK
 62
     1
100
AcDbLine
 10
205.926575
 20
71.396829
 30
0.0
 11
213.120696
 21
71.396829
 31
0.0
  0
LINE
  5
4EC
100
AcDbEntity
  8
0
  6
BYBLOCK
 62
     1
100
AcDbLine
 10
212.120696
 20
79.046829
 30
0.0
 11
212.120696
 21
81.046829
 31
0.0
  0
LINE
  5
4ED
100
AcDbEntity
  8
0
  6
BYBLOCK
 62
     1
100
AcDbLine
 10
212.120696
 20
69.396829
 30
0.0
 11
212.120696
 21
56.396829
 31
0.0
  0
LINE
  5
4EE
100
AcDbEntity
  8
0
  6
BYBLOCK
 62
     1
100
AcDbLine
 10
212.120696
 20
77.046829
 30
0.0
 11
212.120696
 21
71.396829
 31
0.0
  0
INSERT
  5
4EF
100
AcDbEntity
  8
0
  6
BYBLOCK
 62
     1
100
AcDbBlockReference
  2
_OPEN30
 10
212.120696
 20
77.046829
 30
0.0
 41
2.0
 42
2.0
 43
2.0
 50
270.0
  0
INSERT
  5
4F0
100
AcDbEntity
  8
0
  6
BYBLOCK
 62
     1
100
AcDbBlockReference
  2
_OPEN30
 10
212.120696
 20
71.396829
 30
0.0
 41
2.0
 42
2.0
 43
2.0
 50
90.0
  0
MTEXT
  5
4F1
100
AcDbEntity
  8
0
  6
BYBLOCK
 62
     1
100
AcDbMText
 10
209.620696
 20
61.896829
 30
0.0
 40
3.0
 41
0.0
 71
     5
 72
     1
  1
\A1;5.65
 11
0.0
 21
1.0
 31
0.0
1001
ACAD
1000
MTEXTBEGIN
1070
    73
1070
     1
1070
    44
1040
1.0
1070
    74
1070
     0
1000
MTEXTEND
  0
POINT
  5
4F2
100
AcDbEntity
  8
DEFPOINTS
  6
BYBLOCK
 62
     0
100
AcDbPoint
 10
205.926585
 20
77.046829
 30
0.0
  0
POINT
  5
4F3
100
AcDbEntity
  8
DEFPOINTS
  6
BYBLOCK
 62
     0
100
AcDbPoint
 10
204.926575
 20
71.396829
 30
0.0
  0
POINT
  5
4F4
100
AcDbEntity
  8
DEFPOINTS
  6
BYBLOCK
 62
     0
100
AcDbPoint
 10
212.120696
 20
71.396829
 30
0.0
  0
ENDBLK
  5
4F5
100
AcDbEntity
  8
0
100
AcDbBlockEnd
  0
BLOCK
  5
5A6
100
AcDbEntity
  8
0
100
AcDbBlockBegin
  2
*D13
 70
     1
 10
0.0
 20
0.0
 30
0.0
  3
*D13
  1

  0
LINE
  5
5A7
100
AcDbEntity
  8
0
  6
BYBLOCK
 62
     1
100
AcDbLine
 10
89.351792
 20
116.857805
 30
0.0
 11
89.351792
 21
97.148848
 31
0.0
  0
LINE
  5
5A8
100
AcDbEntity
  8
0
  6
BYBLOCK
 62
     1
100
AcDbLine
 10
91.721604
 20
118.868611
 30
0.0
 11
94.880369
 21
97.556327
 31
0.0
  0
ARC
  5
5A9
100
AcDbEntity
  8
0
  6
BYBLOCK
 62
     1
100
AcDbCircle
 10
89.351792
 20
134.857804
 30
0.0
 40
36.708955
100
AcDbArc
 50
266.87799
 51
270.0
  0
LINE
  5
5AA
100
AcDbEntity
  8
0
  6
BYBLOCK
 62
     1
100
AcDbLine
 10
87.352534
 20
98.203331
 30
0.0
 11
78.765298
 21
98.671708
 31
0.0
  0
ARC
  5
5AB
100
AcDbEntity
  8
0
  6
BYBLOCK
 62
     1
100
AcDbCircle
 10
89.351792
 20
134.857804
 30
0.0
 40
36.708955
100
AcDbArc
 50
273.12201
 51
275.308614
  0
INSERT
  5
5AC
100
AcDbEntity
  8
0
  6
BYBLOCK
 62
     1
100
AcDbBlockReference
  2
_OPEN30
 10
89.351792
 20
98.148848
 30
0.0
 41
2.0
 42
2.0
 43
2.0
 50
181.561005
  0
INSERT
  5
5AD
100
AcDbEntity
  8
0
  6
BYBLOCK
 62
     1
100
AcDbBlockReference
  2
_OPEN30
 10
94.733757
 20
98.545521
 30
0.0
 41
2.0
 42
2.0
 43
2.0
 50
6.86962
  0
MTEXT
  5
5AE
100
AcDbEntity
  8
0
  6
BYBLOCK
 62
     1
100
AcDbMText
 10
83.195072
 20
100.933809
 30
0.0
 40
3.0
 41
0.0
 71
     5
 72
     1
  1
\A1;8°
 11
0.998516
 21
-0.054462
 31
0.0
  0
POINT
  5
5AF
100
AcDbEntity
  8
DEFPOINTS
  6
BYBLOCK
 62
     0
100
AcDbPoint
 10
92.946976
 20
98.325324
 30
0.0
  0
POINT
  5
5B0
100
AcDbEntity
  8
DEFPOINTS
  6
BYBLOCK
 62
     0
100
AcDbPoint
 10
89.351792
 20
134.857804
 30
0.0
  0
POINT
  5
5B1
100
AcDbEntity
  8
DEFPOINTS
  6
BYBLOCK
 62
     0
100
AcDbPoint
 10
89.351792
 20
117.857805
 30
0.0
  0
POINT
  5
5B2
100
AcDbEntity
  8
DEFPOINTS
  6
BYBLOCK
 62
     0
100
AcDbPoint
 10
89.351792
 20
137.811698
 30
0.0
  0
POINT
  5
5B3
100
AcDbEntity
  8
DEFPOINTS
  6
BYBLOCK
 62
     0
100
AcDbPoint
 10
91.574992
 20
119.857805
 30
0.0
  0
ENDBLK
  5
5B4
100
AcDbEntity
  8
0
100
AcDbBlockEnd
  0
ENDSEC
  0
SECTION
  2
ENTITIES
  0
POINT
  5
198
100
AcDbEntity
  8
0
  6
CONTINUOUS
 62
     7
100
AcDbPoint
 10
91.574992
 20
119.857805
 30
0.0
  0
POINT
  5
199
100
AcDbEntity
  8
0
  6
CONTINUOUS
 62
     7
100
AcDbPoint
 10
118.760592
 20
119.857804
 30
0.0
  0
POINT
  5
19A
100
AcDbEntity
  8
0
  6
CONTINUOUS
 62
     7
100
AcDbPoint
 10
118.760596
 20
81.39683
 30
0.0
  0
POINT
  5
19B
100
AcDbEntity
  8
0
  6
CONTINUOUS
 62
     7
100
AcDbPoint
 10
196.746439
 20
71.39683
 30
0.0
  0
LINE
  5
19C
100
AcDbEntity
  8
0
  6
CENTER
 62
     1
100
AcDbLine
 10
149.760592
 20
122.42635
 30
0.0
 11
149.760592
 21
118.332604
 31
0.0
  0
LINE
  5
19D
100
AcDbEntity
  8
0
  6
CONTINUOUS
 62
     7
100
AcDbLine
 10
160.760592
 20
129.857804
 30
0.0
 11
160.760592
 21
119.691811
 31
0.0
  0
LINE
  5
19E
100
AcDbEntity
  8
0
  6
CONTINUOUS
 62
     7
100
AcDbLine
 10
121.440084
 20
129.857804
 30
0.0
 11
160.760592
 21
129.857804
 31
0.0
  0
LINE
  5
19F
100
AcDbEntity
  8
0
  6
CONTINUOUS
 62
     7
100
AcDbLine
 10
196.746439
 20
71.39683
 30
0.0
 11
198.246439
 21
71.39683
 31
0.0
  0
LINE
  5
1A0
100
AcDbEntity
  8
0
  6
CONTINUOUS
 62
     7
100
AcDbLine
 10
205.926585
 20
81.89683
 30
0.0
 11
205.926585
 21
72.396836
 31
0.0
  0
LINE
  5
1A1
100
AcDbEntity
  8
0
  6
CONTINUOUS
 62
     7
100
AcDbLine
 10
196.926585
 20
82.89683
 30
0.0
 11
204.926585
 21
82.89683
 31
0.0
  0
LINE
  5
1A2
100
AcDbEntity
  8
0
  6
CONTINUOUS
 62
     7
100
AcDbLine
 10
204.926585
 20
82.896834
 30
0.0
 11
205.926585
 21
81.896834
 31
0.0
  0
LINE
  5
1A3
100
AcDbEntity
  8
0
  6
CONTINUOUS
 62
     7
100
AcDbLine
 10
205.926585
 20
72.396836
 30
0.0
 11
204.926575
 21
71.396829
 31
0.0
  0
LINE
  5
1A4
100
AcDbEntity
  8
0
  6
CONTINUOUS
 62
     7
100
AcDbLine
 10
196.926577
 20
82.896832
 30
0.0
 11
195.710406
 21
74.243308
 31
0.0
  0
LINE
  5
1A5
100
AcDbEntity
  8
0
  6
CONTINUOUS
 62
     7
100
AcDbLine
 10
201.844447
 20
81.962796
 30
0.0
 11
200.647563
 21
73.44649
 31
0.0
  0
LINE
  5
1A6
100
AcDbEntity
  8
0
  6
CONTINUOUS
 62
     7
100
AcDbLine
 10
133.560591
 20
120.857804
 30
0.0
 11
160.760592
 21
120.857804
 31
0.0
  0
LINE
  5
1A7
100
AcDbEntity
  8
0
  6
CONTINUOUS
 62
     7
100
AcDbLine
 10
130.177837
 20
128.910626
 30
0.0
 11
160.760592
 21
128.910626
 31
0.0
  0
LINE
  5
1A8
100
AcDbEntity
  8
0
  6
CONTINUOUS
 62
     7
100
AcDbLine
 10
132.760592
 20
120.057804
 30
0.0
 11
132.760592
 21
119.765846
 31
0.0
  0
LINE
  5
1A9
100
AcDbEntity
  8
0
  6
CONTINUOUS
 62
     7
100
AcDbLine
 10
126.492643
 20
118.857804
 30
0.0
 11
128.760592
 21
118.857804
 31
0.0
  0
LINE
  5
1AA
100
AcDbEntity
  8
0
  6
CONTINUOUS
 62
     7
100
AcDbLine
 10
118.760592
 20
119.857804
 30
0.0
 11
121.440084
 21
129.857804
 31
0.0
  0
LINE
  5
1AB
100
AcDbEntity
  8
0
  6
CONTINUOUS
 62
     7
100
AcDbLine
 10
118.760592
 20
119.857804
 30
0.0
 11
126.224694
 21
117.857804
 31
0.0
  0
LINE
  5
1AC
100
AcDbEntity
  8
0
  6
CONTINUOUS
 62
     7
100
AcDbLine
 10
120.815616
 20
127.527255
 30
0.0
 11
128.279717
 21
125.527255
 31
0.0
  0
LINE
  5
1AD
100
AcDbEntity
  8
0
  6
CONTINUOUS
 62
     7
100
AcDbLine
 10
132.760592
 20
120.057804
 30
0.0
 11
132.760592
 21
119.207758
 31
0.0
  0
LINE
  5
1AE
100
AcDbEntity
  8
0
  6
CONTINUOUS
 62
     7
100
AcDbLine
 10
82.574994
 20
129.857804
 30
0.0
 11
92.074994
 21
129.857804
 31
0.0
  0
LINE
  5
1AF
100
AcDbEntity
  8
0
  6
CONTINUOUS
 62
     7
100
AcDbLine
 10
121.863441
 20
71.39683
 30
0.0
 11
160.760592
 21
71.39683
 31
0.0
  0
LINE
  5
1B0
100
AcDbEntity
  8
0
  6
CONTINUOUS
 62
     7
100
AcDbLine
 10
160.760592
 20
82.89683
 30
0.0
 11
160.760592
 21
71.39683
 31
0.0
  0
LINE
  5
1B1
100
AcDbEntity
  8
0
  6
CENTER
 62
     1
100
AcDbLine
 10
151.010592
 20
84.285393
 30
0.0
 11
151.010592
 21
69.317652
 31
0.0
  0
LINE
  5
1B2
100
AcDbEntity
  8
0
  6
CENTER
 62
     1
100
AcDbLine
 10
148.510592
 20
84.115305
 30
0.0
 11
148.510592
 21
69.912959
 31
0.0
  0
LINE
  5
1B3
100
AcDbEntity
  8
0
  6
CONTINUOUS
 62
     7
100
AcDbLine
 10
132.760592
 20
82.89683
 30
0.0
 11
132.760592
 21
74.243309
 31
0.0
  0
LINE
  5
1B4
100
AcDbEntity
  8
0
  6
CONTINUOUS
 62
     7
100
AcDbLine
 10
119.424778
 20
76.39683
 30
0.0
 11
128.760592
 21
76.39683
 31
0.0
  0
LINE
  5
1B5
100
AcDbEntity
  8
0
  6
CENTER
 62
     1
100
AcDbLine
 10
129.335578
 20
76.39683
 30
0.0
 11
134.292178
 21
76.39683
 31
0.0
  0
LINE
  5
1B6
100
AcDbEntity
  8
0
  6
CENTER
 62
     1
100
AcDbLine
 10
130.760592
 20
78.961701
 30
0.0
 11
130.760592
 21
73.426829
 31
0.0
  0
LINE
  5
1B7
100
AcDbEntity
  8
0
  6
CENTER
 62
     1
100
AcDbLine
 10
149.760592
 20
84.573149
 30
0.0
 11
149.760592
 21
67.531729
 31
0.0
  0
LINE
  5
1B8
100
AcDbEntity
  8
0
  6
CONTINUOUS
 62
     7
100
AcDbLine
 10
128.760592
 20
82.747872
 30
0.0
 11
128.760592
 21
76.39683
 31
0.0
  0
LINE
  5
1B9
100
AcDbEntity
  8
0
  6
CONTINUOUS
 62
     7
100
AcDbLine
 10
130.177837
 20
82.89683
 30
0.0
 11
160.760592
 21
82.89683
 31
0.0
  0
LINE
  5
1BA
100
AcDbEntity
  8
0
  6
CONTINUOUS
 62
     7
100
AcDbLine
 10
81.574992
 20
128.857804
 30
0.0
 11
81.574992
 21
120.677655
 31
0.0
  0
LINE
  5
1BB
100
AcDbEntity
  8
0
  6
CONTINUOUS
 62
     7
100
AcDbLine
 10
86.574994
 20
119.857805
 30
0.0
 11
86.574994
 21
118.857803
 31
0.0
  0
LINE
  5
1BC
100
AcDbEntity
  8
0
  6
CONTINUOUS
 62
     7
100
AcDbLine
 10
81.574992
 20
120.677655
 30
0.0
 11
86.574992
 21
118.857803
 31
0.0
  0
LINE
  5
1BD
100
AcDbEntity
  8
0
  6
CONTINUOUS
 62
     7
100
AcDbLine
 10
82.574992
 20
129.857805
 30
0.0
 11
81.574992
 21
128.857804
 31
0.0
  0
LINE
  5
1BE
100
AcDbEntity
  8
0
  6
CONTINUOUS
 62
     7
100
AcDbLine
 10
93.074994
 20
128.857804
 30
0.0
 11
93.074994
 21
119.857804
 31
0.0
  0
LINE
  5
1BF
100
AcDbEntity
  8
0
  6
CONTINUOUS
 62
     7
100
AcDbLine
 10
92.074992
 20
129.857804
 30
0.0
 11
93.074992
 21
128.857804
 31
0.0
  0
LINE
  5
1C0
100
AcDbEntity
  8
0
  6
CONTINUOUS
 62
     7
100
AcDbLine
 10
86.574994
 20
119.857805
 30
0.0
 11
91.574992
 21
119.857805
 31
0.0
  0
LINE
  5
1C1
100
AcDbEntity
  8
0
  6
CONTINUOUS
 62
     7
100
AcDbLine
 10
86.574994
 20
118.857804
 30
0.0
 11
88.959542
 21
118.857804
 31
0.0
  0
LINE
  5
1C2
100
AcDbEntity
  8
0
  6
CENTER
 62
     1
100
AcDbLine
 10
123.310431
 20
84.303008
 30
0.0
 11
124.961381
 21
72.555884
 31
0.0
  0
LINE
  5
1C3
100
AcDbEntity
  8
0
  6
CONTINUOUS
 62
     7
100
AcDbLine
 10
132.292942
 20
75.111565
 30
0.0
 11
132.760592
 21
74.941409
 31
0.0
  0
LINE
  5
1C4
100
AcDbEntity
  8
0
  6
CONTINUOUS
 62
     7
100
AcDbLine
 10
168.760592
 20
126.857804
 30
0.0
 11
168.760592
 21
122.857804
 31
0.0
  0
LINE
  5
1C5
100
AcDbEntity
  8
0
  6
CENTER
 62
     1
100
AcDbLine
 10
158.30226
 20
124.857804
 30
0.0
 11
170.691268
 21
124.857804
 31
0.0
  0
LINE
  5
1C6
100
AcDbEntity
  8
0
  6
CONTINUOUS
 62
     7
100
AcDbLine
 10
163.760592
 20
128.857804
 30
0.0
 11
163.760592
 21
120.857804
 31
0.0
  0
LINE
  5
1C7
100
AcDbEntity
  8
0
  6
CONTINUOUS
 62
     7
100
AcDbLine
 10
160.760592
 20
122.357804
 30
0.0
 11
163.760592
 21
122.357804
 31
0.0
  0
LINE
  5
1C8
100
AcDbEntity
  8
0
  6
CONTINUOUS
 62
     7
100
AcDbLine
 10
160.760592
 20
127.357804
 30
0.0
 11
163.760592
 21
127.357804
 31
0.0
  0
LINE
  5
1C9
100
AcDbEntity
  8
0
  6
CONTINUOUS
 62
     7
100
AcDbLine
 10
166.260592
 20
129.357803
 30
0.0
 11
168.760592
 21
126.857803
 31
0.0
  0
LINE
  5
1CA
100
AcDbEntity
  8
0
  6
CONTINUOUS
 62
     7
100
AcDbLine
 10
166.260588
 20
120.357802
 30
0.0
 11
168.760588
 21
122.857802
 31
0.0
  0
LINE
  5
1CB
100
AcDbEntity
  8
0
  6
CONTINUOUS
 62
     7
100
AcDbLine
 10
164.260592
 20
120.357804
 30
0.0
 11
166.260592
 21
120.357804
 31
0.0
  0
LINE
  5
1CC
100
AcDbEntity
  8
0
  6
CONTINUOUS
 62
     7
100
AcDbLine
 10
164.260592
 20
129.357804
 30
0.0
 11
166.260592
 21
129.357804
 31
0.0
  0
LINE
  5
1CD
100
AcDbEntity
  8
0
  6
CONTINUOUS
 62
     7
100
AcDbLine
 10
164.260588
 20
129.3578
 30
0.0
 11
163.760592
 21
128.857802
 31
0.0
  0
LINE
  5
1CE
100
AcDbEntity
  8
0
  6
CONTINUOUS
 62
     7
100
AcDbLine
 10
163.760596
 20
120.857807
 30
0.0
 11
164.260596
 21
120.357807
 31
0.0
  0
LINE
  5
1CF
100
AcDbEntity
  8
0
  6
CONTINUOUS
 62
     7
100
AcDbLine
 10
164.260592
 20
129.357804
 30
0.0
 11
164.260592
 21
120.357803
 31
0.0
  0
LINE
  5
1D0
100
AcDbEntity
  8
0
  6
CONTINUOUS
 62
     7
100
AcDbLine
 10
166.260592
 20
129.357804
 30
0.0
 11
166.260592
 21
120.357804
 31
0.0
  0
LINE
  5
1D1
100
AcDbEntity
  8
0
  6
CONTINUOUS
 62
     7
100
AcDbLine
 10
160.760592
 20
122.857804
 30
0.0
 11
163.760592
 21
122.857804
 31
0.0
  0
LINE
  5
1D2
100
AcDbEntity
  8
0
  6
CONTINUOUS
 62
     7
100
AcDbLine
 10
160.760592
 20
126.857804
 30
0.0
 11
163.760592
 21
126.857804
 31
0.0
  0
LINE
  5
1D3
100
AcDbEntity
  8
0
  6
CONTINUOUS
 62
     7
100
AcDbLine
 10
168.760592
 20
78.89683
 30
0.0
 11
168.760592
 21
74.89683
 31
0.0
  0
LINE
  5
1D4
100
AcDbEntity
  8
0
  6
CENTER
 62
     1
100
AcDbLine
 10
158.30226
 20
76.89683
 30
0.0
 11
170.691268
 21
76.89683
 31
0.0
  0
LINE
  5
1D5
100
AcDbEntity
  8
0
  6
CONTINUOUS
 62
     7
100
AcDbLine
 10
163.760592
 20
80.89683
 30
0.0
 11
163.760592
 21
72.89683
 31
0.0
  0
LINE
  5
1D6
100
AcDbEntity
  8
0
  6
CONTINUOUS
 62
     7
100
AcDbLine
 10
160.760592
 20
74.39683
 30
0.0
 11
163.760592
 21
74.39683
 31
0.0
  0
LINE
  5
1D7
100
AcDbEntity
  8
0
  6
CONTINUOUS
 62
     7
100
AcDbLine
 10
166.260596
 20
81.396828
 30
0.0
 11
168.760596
 21
78.89683
 31
0.0
  0
LINE
  5
1D8
100
AcDbEntity
  8
0
  6
CONTINUOUS
 62
     7
100
AcDbLine
 10
166.260588
 20
72.39683
 30
0.0
 11
168.760592
 21
74.89683
 31
0.0
  0
LINE
  5
1D9
100
AcDbEntity
  8
0
  6
CONTINUOUS
 62
     7
100
AcDbLine
 10
164.260592
 20
72.39683
 30
0.0
 11
166.260592
 21
72.39683
 31
0.0
  0
LINE
  5
1DA
100
AcDbEntity
  8
0
  6
CONTINUOUS
 62
     7
100
AcDbLine
 10
164.260592
 20
81.39683
 30
0.0
 11
166.260592
 21
81.39683
 31
0.0
  0
LINE
  5
1DB
100
AcDbEntity
  8
0
  6
CONTINUOUS
 62
     7
100
AcDbLine
 10
164.260588
 20
81.396826
 30
0.0
 11
163.760592
 21
80.896828
 31
0.0
  0
LINE
  5
1DC
100
AcDbEntity
  8
0
  6
CONTINUOUS
 62
     7
100
AcDbLine
 10
163.760596
 20
72.896832
 30
0.0
 11
164.260596
 21
72.396832
 31
0.0
  0
LINE
  5
1DD
100
AcDbEntity
  8
0
  6
CONTINUOUS
 62
     7
100
AcDbLine
 10
164.260592
 20
81.39683
 30
0.0
 11
164.260592
 21
72.39683
 31
0.0
  0
LINE
  5
1DE
100
AcDbEntity
  8
0
  6
CONTINUOUS
 62
     7
100
AcDbLine
 10
166.260592
 20
81.39683
 30
0.0
 11
166.260592
 21
72.39683
 31
0.0
  0
LINE
  5
1DF
100
AcDbEntity
  8
0
  6
CONTINUOUS
 62
     7
100
AcDbLine
 10
160.760592
 20
74.89683
 30
0.0
 11
163.760592
 21
74.89683
 31
0.0
  0
LINE
  5
1E0
100
AcDbEntity
  8
0
  6
CONTINUOUS
 62
     7
100
AcDbLine
 10
160.760592
 20
78.89683
 30
0.0
 11
163.760592
 21
78.89683
 31
0.0
  0
LINE
  5
1E1
100
AcDbEntity
  8
0
  6
CONTINUOUS
 62
     7
100
AcDbLine
 10
128.760592
 20
118.857804
 30
0.0
 11
132.7454
 21
119.206429
 31
0.0
  0
LINE
  5
1E2
100
AcDbEntity
  8
0
  6
CENTER
 62
     1
100
AcDbLine
 10
120.867218
 20
123.403382
 30
0.0
 11
126.378442
 21
121.926654
 31
0.0
  0
LINE
  5
1E3
100
AcDbEntity
  8
0
  6
CENTER
 62
     1
100
AcDbLine
 10
122.884466
 20
119.909405
 30
0.0
 11
124.361194
 21
125.420629
 31
0.0
  0
LINE
  5
1E5
100
AcDbEntity
  8
0
  6
CONTINUOUS
 62
     7
100
AcDbLine
 10
126.224694
 20
117.857804
 30
0.0
 11
128.279717
 21
125.527255
 31
0.0
  0
LINE
  5
1E6
100
AcDbEntity
  8
0
  6
CONTINUOUS
 62
     7
100
AcDbLine
 10
127.246372
 20
121.670758
 30
0.0
 11
127.413085
 21
121.626088
 31
0.0
  0
LINE
  5
1E7
100
AcDbEntity
  8
0
  6
CONTINUOUS
 62
     7
100
AcDbLine
 10
89.351792
 20
117.857805
 30
0.0
 11
92.359492
 21
117.857805
 31
0.0
  0
LINE
  5
1E9
100
AcDbEntity
  8
0
  6
CONTINUOUS
 62
     7
100
AcDbLine
 10
196.746439
 20
71.39683
 30
0.0
 11
195.710406
 21
74.243309
 31
0.0
  0
LINE
  5
1EA
100
AcDbEntity
  8
0
  6
CONTINUOUS
 62
     7
100
AcDbLine
 10
133.060592
 20
119.641625
 30
0.0
 11
160.760592
 21
119.641625
 31
0.0
  0
LINE
  5
1EB
100
AcDbEntity
  8
0
  6
CONTINUOUS
 62
     7
100
AcDbLine
 10
118.760596
 20
81.39683
 30
0.0
 11
126.52383
 21
82.212778
 31
0.0
  0
LINE
  5
1EC
100
AcDbEntity
  8
0
  6
CONTINUOUS
 62
     7
100
AcDbLine
 10
119.053275
 20
78.61217
 30
0.0
 11
118.760596
 21
81.39683
 31
0.0
  0
LINE
  5
1ED
100
AcDbEntity
  8
0
  6
CONTINUOUS
 62
     7
100
AcDbLine
 10
119.053275
 20
78.61217
 30
0.0
 11
126.816509
 21
79.428118
 31
0.0
  0
LINE
  5
1EE
100
AcDbEntity
  8
0
  6
CONTINUOUS
 62
     7
100
AcDbLine
 10
126.517374
 20
79.396677
 30
0.0
 11
126.224694
 21
82.181338
 31
0.0
  0
LINE
  5
1EF
100
AcDbEntity
  8
0
  6
CONTINUOUS
 62
     7
100
AcDbLine
 10
160.760592
 20
79.39683
 30
0.0
 11
163.760592
 21
79.39683
 31
0.0
  0
LINE
  5
1F0
100
AcDbEntity
  8
0
  6
CENTER
 62
     1
100
AcDbLine
 10
210.314372
 20
76.430167
 30
0.0
 11
190.381159
 21
79.231596
 31
0.0
  0
LINE
  5
1F1
100
AcDbEntity
  8
0
  6
CONTINUOUS
 62
     7
100
AcDbLine
 10
201.844447
 20
81.962796
 30
0.0
 11
196.893107
 21
82.658661
 31
0.0
  0
LINE
  5
1F2
100
AcDbEntity
  8
0
  6
CONTINUOUS
 62
     7
100
AcDbLine
 10
200.647563
 20
73.44649
 30
0.0
 11
195.749896
 21
74.134812
 31
0.0
  0
LINE
  5
1F3
100
AcDbEntity
  8
0
  6
CONTINUOUS
 62
     7
100
AcDbLine
 10
205.926585
 20
79.722872
 30
0.0
 11
201.61481
 21
80.328852
 31
0.0
  0
LINE
  5
1F4
100
AcDbEntity
  8
0
  6
CONTINUOUS
 62
     7
100
AcDbLine
 10
205.926585
 20
74.370787
 30
0.0
 11
200.877192
 21
75.080433
 31
0.0
  0
LINE
  5
1F5
100
AcDbEntity
  8
0
  6
CONTINUOUS
 62
     7
100
AcDbLine
 10
132.760592
 20
74.243309
 30
0.0
 11
147.545523
 21
74.243309
 31
0.0
  0
LINE
  5
1F6
100
AcDbEntity
  8
0
  6
CONTINUOUS
 62
     7
100
AcDbLine
 10
148.510592
 20
74.134812
 30
0.0
 11
151.010592
 21
74.134812
 31
0.0
  0
LINE
  5
1F7
100
AcDbEntity
  8
0
  6
CONTINUOUS
 62
     7
100
AcDbLine
 10
148.510592
 20
75.080431
 30
0.0
 11
151.010592
 21
75.080431
 31
0.0
  0
LINE
  5
1F8
100
AcDbEntity
  8
0
  6
CONTINUOUS
 62
     7
100
AcDbLine
 10
148.510592
 20
79.722872
 30
0.0
 11
151.010592
 21
79.722872
 31
0.0
  0
LINE
  5
1F9
100
AcDbEntity
  8
0
  6
CONTINUOUS
 62
     7
100
AcDbLine
 10
148.510592
 20
80.328852
 30
0.0
 11
151.010592
 21
80.328852
 31
0.0
  0
LINE
  5
1FA
100
AcDbEntity
  8
0
  6
CONTINUOUS
 62
     7
100
AcDbLine
 10
148.510592
 20
81.962796
 30
0.0
 11
151.010592
 21
81.962796
 31
0.0
  0
LINE
  5
1FB
100
AcDbEntity
  8
0
  6
CONTINUOUS
 62
     7
100
AcDbLine
 10
148.510592
 20
82.658661
 30
0.0
 11
151.010592
 21
82.658661
 31
0.0
  0
LINE
  5
1FC
100
AcDbEntity
  8
0
  6
CONTINUOUS
 62
     7
100
AcDbLine
 10
151.975661
 20
74.243309
 30
0.0
 11
160.760592
 21
74.243309
 31
0.0
  0
LINE
  5
1FD
100
AcDbEntity
  8
0
  6
CONTINUOUS
 62
     7
100
AcDbLine
 10
120.815616
 20
81.912821
 30
0.0
 11
130.177837
 21
82.89683
 31
0.0
  0
LINE
  5
1FE
100
AcDbEntity
  8
0
  6
CONTINUOUS
 62
     7
100
AcDbLine
 10
120.846802
 20
81.616099
 30
0.0
 11
120.815616
 21
81.912821
 31
0.0
  0
LINE
  5
1FF
100
AcDbEntity
  8
0
  6
PHANTOM
 62
     7
100
AcDbLine
 10
120.815616
 20
81.912821
 30
0.0
 11
118.760592
 21
81.696829
 31
0.0
  0
LINE
  5
200
100
AcDbEntity
  8
0
  6
CONTINUOUS
 62
     7
100
AcDbLine
 10
130.177837
 20
128.910626
 30
0.0
 11
130.177837
 21
118.981796
 31
0.0
  0
LINE
  5
201
100
AcDbEntity
  8
0
  6
CONTINUOUS
 62
     7
100
AcDbLine
 10
126.816509
 20
79.428118
 30
0.0
 11
126.492643
 21
82.509501
 31
0.0
  0
LINE
  5
202
100
AcDbEntity
  8
0
  6
CONTINUOUS
 62
     7
100
AcDbLine
 10
130.177837
 20
128.910626
 30
0.0
 11
121.440084
 21
129.857804
 31
0.0
  0
LINE
  5
203
100
AcDbEntity
  8
0
  6
CONTINUOUS
 62
     7
100
AcDbLine
 10
92.396716
 20
119.179526
 30
0.0
 11
93.074994
 21
119.857803
 31
0.0
  0
LINE
  5
204
100
AcDbEntity
  8
0
  6
CONTINUOUS
 62
     7
100
AcDbLine
 10
81.574992
 20
121.677657
 30
0.0
 11
86.574994
 21
119.857805
 31
0.0
  0
LINE
  5
205
100
AcDbEntity
  8
0
  6
CONTINUOUS
 62
     7
100
AcDbLine
 10
119.424778
 20
76.39683
 30
0.0
 11
119.129437
 21
78.620173
 31
0.0
  0
LINE
  5
206
100
AcDbEntity
  8
0
  6
CONTINUOUS
 62
     7
100
AcDbLine
 10
121.86344
 20
71.39683
 30
0.0
 11
119.424777
 21
76.39683
 31
0.0
  0
LINE
  5
207
100
AcDbEntity
  8
0
  6
CONTINUOUS
 62
     7
100
AcDbLine
 10
91.574992
 20
119.857805
 30
0.0
 11
92.359492
 21
117.857805
 31
0.0
  0
LINE
  5
208
100
AcDbEntity
  8
0
  6
CONTINUOUS
 62
     7
100
AcDbLine
 10
88.56729
 20
119.857805
 30
0.0
 11
89.35179
 21
117.857805
 31
0.0
  0
LINE
  5
209
100
AcDbEntity
  8
0
  6
CONTINUOUS
 62
     7
100
AcDbLine
 10
88.783291
 20
127.527255
 30
0.0
 11
91.790991
 21
127.527255
 31
0.0
  0
LINE
  5
20A
100
AcDbEntity
  8
0
  6
CONTINUOUS
 62
     7
100
AcDbLine
 10
91.574992
 20
119.857805
 30
0.0
 11
91.856627
 21
129.857804
 31
0.0
  0
LINE
  5
20B
100
AcDbEntity
  8
0
  6
CONTINUOUS
 62
     7
100
AcDbLine
 10
88.567292
 20
119.857805
 30
0.0
 11
88.783291
 21
127.527255
 31
0.0
  0
LINE
  5
20C
100
AcDbEntity
  8
0
  6
CONTINUOUS
 62
     7
100
AcDbLine
 10
91.790991
 20
127.527254
 30
0.0
 11
92.575491
 21
125.527255
 31
0.0
  0
LINE
  5
20D
100
AcDbEntity
  8
0
  6
CONTINUOUS
 62
     7
100
AcDbLine
 10
92.35949
 20
117.857805
 30
0.0
 11
92.575491
 21
125.527255
 31
0.0
  0
ARC
  5
20E
100
AcDbEntity
  8
0
  6
CONTINUOUS
 62
     7
100
AcDbCircle
 10
133.560591
 20
120.057804
 30
0.0
 40
0.8
100
AcDbArc
 50
90.000003
 51
180.00001
  0
ARC
  5
20F
100
AcDbEntity
  8
0
  6
CONTINUOUS
 62
     7
100
AcDbCircle
 10
127.930723
 20
123.557939
 30
0.0
 40
2.0
100
AcDbArc
 50
255.0
 51
79.950595
  0
CIRCLE
  5
210
100
AcDbEntity
  8
0
  6
CONTINUOUS
 62
     7
100
AcDbCircle
 10
130.760592
 20
76.39683
 30
0.0
 40
2.0
  0
CIRCLE
  5
211
100
AcDbEntity
  8
0
  6
CONTINUOUS
 62
     7
100
AcDbCircle
 10
130.760592
 20
76.39683
 30
0.0
 40
1.75
  0
CIRCLE
  5
212
100
AcDbEntity
  8
0
  6
CONTINUOUS
 62
     7
100
AcDbCircle
 10
123.622829
 20
122.665018
 30
0.0
 40
1.575
  0
ARC
  5
213
100
AcDbEntity
  8
0
  6
CONTINUOUS
 62
     7
100
AcDbCircle
 10
133.060592
 20
119.341625
 30
0.0
 40
0.3
100
AcDbArc
 50
90.000003
 51
180.00001
  0
LWPOLYLINE
  5
214
100
AcDbEntity
  8
0
  6
CONTINUOUS
 62
     7
100
AcDbPolyline
 90
       17
 70
     0
 43
0.0
 10
148.510592
 20
82.658661
 42
0.048431
 10
147.676275
 20
82.577668
 42
0.048575
 10
146.872376
 20
82.33724
 42
0.048755
 10
146.13006
 20
81.945959
 42
0.048991
 10
145.477769
 20
81.41802
 42
0.049259
 10
144.940873
 20
80.772821
 42
0.04951
 10
144.540837
 20
80.03469
 42
0.049697
 10
144.29402
 20
79.232194
 42
0.049799
 10
144.210593
 20
78.396737
 42
0.049757
 10
144.293882
 20
77.561964
 42
0.049651
 10
144.540263
 20
76.760151
 42
0.049484
 10
144.939792
 20
76.022248
 42
0.049246
 10
145.476232
 20
75.37697
 42
0.049001
 10
146.128399
 20
74.848608
 42
0.04878
 10
146.870935
 20
74.456822
 42
0.048607
 10
147.675286
 20
74.215999
 42
0.048489
 10
148.510592
 20
74.134812
  0
LWPOLYLINE
  5
227
100
AcDbEntity
  8
0
  6
CONTINUOUS
 62
     7
100
AcDbPolyline
 90
       17
 70
     0
 43
0.0
 10
148.510592
 20
81.962796
 42
0.020079
 10
148.126569
 20
81.947372
 42
0.020188
 10
147.74474
 20
81.901084
 42
0.02038
 10
147.367826
 20
81.823997
 42
0.020658
 10
146.998522
 20
81.716288
 42
0.021029
 10
146.639466
 20
81.578211
 42
0.02149
 10
146.293415
 20
81.410141
 42
0.022034
 10
145.963253
 20
81.212618
 42
0.022654
 10
145.652003
 20
80.986404
 42
0.023338
 10
145.362814
 20
80.732542
 42
0.024066
 10
145.098929
 20
80.452429
 42
0.024815
 10
144.863626
 20
80.147888
 42
0.025554
 10
144.660136
 20
79.821224
 42
0.026247
 10
144.491521
 20
79.475277
 42
0.026853
 10
144.360536
 20
79.11343
 42
0.02733
 10
144.269468
 20
78.739578
 42
0.027645
 10
144.219987
 20
78.358046
  0
LWPOLYLINE
  5
23A
100
AcDbEntity
  8
0
  6
CONTINUOUS
 62
     7
100
AcDbPolyline
 90
       17
 70
     0
 43
0.0
 10
148.510592
 20
80.328852
 42
0.048369
 10
147.996626
 20
80.279022
 42
0.048522
 10
147.501359
 20
80.131091
 42
0.048718
 10
147.043956
 20
79.890305
 42
0.048977
 10
146.641931
 20
79.565346
 42
0.04927
 10
146.310943
 20
79.16811
 42
0.049546
 10
146.064269
 20
78.71355
 42
0.049752
 10
145.912048
 20
78.219262
 42
0.049862
 10
145.860592
 20
77.704642
 42
0.049751
 10
145.911821
 20
77.191145
 42
0.049704
 10
146.063633
 20
76.697246
 42
0.04952
 10
146.309869
 20
76.242758
 42
0.049258
 10
146.640465
 20
75.845383
 42
0.048988
 10
147.042323
 20
75.520055
 42
0.048744
 10
147.499794
 20
75.278831
 42
0.048553
 10
147.995294
 20
75.130522
 42
0.048496
 10
148.510592
 20
75.080431
  0
LWPOLYLINE
  5
24D
100
AcDbEntity
  8
0
  6
CONTINUOUS
 62
     7
100
AcDbPolyline
 90
       17
 70
     0
 43
0.0
 10
148.510592
 20
79.722872
 42
0.019231
 10
148.278314
 20
79.713938
 42
0.019313
 10
148.047669
 20
79.687181
 42
0.019548
 10
147.819461
 20
79.642539
 42
0.019858
 10
147.595485
 20
79.58008
 42
0.020275
 10
147.377232
 20
79.49987
 42
0.020795
 10
147.166277
 20
79.402024
 42
0.021417
 10
146.964302
 20
79.286736
 42
0.022135
 10
146.773096
 20
79.154306
 42
0.022938
 10
146.594566
 20
79.005192
 42
0.023809
 10
146.430718
 20
78.840055
 42
0.024721
 10
146.283632
 20
78.659812
 42
0.02564
 10
146.155412
 20
78.465693
 42
0.026521
 10
146.048106
 20
78.259287
 42
0.027311
 10
145.963608
 20
78.042563
 42
0.027952
 10
145.903542
 20
77.817869
 42
0.028393
 10
145.869135
 20
77.587881
  0
LWPOLYLINE
  5
260
100
AcDbEntity
  8
0
  6
CONTINUOUS
 62
     7
100
AcDbPolyline
 90
       17
 70
     0
 43
0.0
 10
151.010592
 20
82.658661
 42
-0.048431
 10
151.844909
 20
82.577668
 42
-0.048575
 10
152.648808
 20
82.33724
 42
-0.048755
 10
153.391124
 20
81.945959
 42
-0.048991
 10
154.043415
 20
81.41802
 42
-0.049259
 10
154.580311
 20
80.772821
 42
-0.04951
 10
154.980347
 20
80.03469
 42
-0.049697
 10
155.227164
 20
79.232194
 42
-0.049799
 10
155.310591
 20
78.396737
 42
-0.049757
 10
155.227302
 20
77.561964
 42
-0.049651
 10
154.980921
 20
76.760151
 42
-0.049484
 10
154.581392
 20
76.022248
 42
-0.049246
 10
154.044952
 20
75.37697
 42
-0.049001
 10
153.392785
 20
74.848608
 42
-0.04878
 10
152.650249
 20
74.456822
 42
-0.048607
 10
151.845898
 20
74.215999
 42
-0.048489
 10
151.010592
 20
74.134812
  0
LWPOLYLINE
  5
273
100
AcDbEntity
  8
0
  6
CONTINUOUS
 62
     7
100
AcDbPolyline
 90
       17
 70
     0
 43
0.0
 10
151.010592
 20
80.328852
 42
-0.048369
 10
151.524558
 20
80.279022
 42
-0.048521
 10
152.019825
 20
80.131091
 42
-0.048718
 10
152.477228
 20
79.890305
 42
-0.048977
 10
152.879254
 20
79.565346
 42
-0.04927
 10
153.210242
 20
79.16811
 42
-0.049546
 10
153.456917
 20
78.71355
 42
-0.049752
 10
153.609138
 20
78.219262
 42
-0.049862
 10
153.660594
 20
77.704642
 42
-0.049751
 10
153.609365
 20
77.191145
 42
-0.049705
 10
153.457552
 20
76.697246
 42
-0.04952
 10
153.211317
 20
76.242758
 42
-0.049258
 10
152.88072
 20
75.845383
 42
-0.048988
 10
152.478862
 20
75.520054
 42
-0.048744
 10
152.02139
 20
75.278831
 42
-0.048553
 10
151.52589
 20
75.130522
 42
-0.048496
 10
151.010592
 20
75.080431
  0
LWPOLYLINE
  5
286
100
AcDbEntity
  8
0
  6
CONTINUOUS
 62
     7
100
AcDbPolyline
 90
       17
 70
     0
 43
0.0
 10
151.010592
 20
79.722872
 42
-0.019231
 10
151.24287
 20
79.713938
 42
-0.019313
 10
151.473516
 20
79.687181
 42
-0.019548
 10
151.701723
 20
79.642539
 42
-0.019858
 10
151.925699
 20
79.580079
 42
-0.020275
 10
152.143953
 20
79.49987
 42
-0.020795
 10
152.354907
 20
79.402024
 42
-0.021417
 10
152.556883
 20
79.286736
 42
-0.022135
 10
152.748089
 20
79.154306
 42
-0.022938
 10
152.926619
 20
79.005192
 42
-0.023809
 10
153.090467
 20
78.840055
 42
-0.024721
 10
153.237553
 20
78.659812
 42
-0.02564
 10
153.365773
 20
78.465693
 42
-0.026521
 10
153.47308
 20
78.259287
 42
-0.027311
 10
153.557578
 20
78.042563
 42
-0.027952
 10
153.617644
 20
77.817869
 42
-0.028393
 10
153.652051
 20
77.587882
  0
LWPOLYLINE
  5
299
100
AcDbEntity
  8
0
  6
CONTINUOUS
 62
     7
100
AcDbPolyline
 90
       17
 70
     0
 43
0.0
 10
151.010592
 20
81.962796
 42
-0.020079
 10
151.394615
 20
81.947372
 42
-0.020188
 10
151.776444
 20
81.901084
 42
-0.02038
 10
152.153358
 20
81.823997
 42
-0.020658
 10
152.522662
 20
81.716288
 42
-0.021029
 10
152.881718
 20
81.578211
 42
-0.02149
 10
153.227769
 20
81.410141
 42
-0.022034
 10
153.557931
 20
81.212618
 42
-0.022654
 10
153.869181
 20
80.986404
 42
-0.023338
 10
154.15837
 20
80.732542
 42
-0.024066
 10
154.422255
 20
80.452429
 42
-0.024815
 10
154.657558
 20
80.147888
 42
-0.025554
 10
154.861048
 20
79.821224
 42
-0.026247
 10
155.029663
 20
79.475277
 42
-0.026853
 10
155.160648
 20
79.11343
 42
-0.02733
 10
155.251716
 20
78.739578
 42
-0.027645
 10
155.301197
 20
78.358046
  0
LWPOLYLINE
  5
2AC
100
AcDbEntity
  8
0
  6
CONTINUOUS
 62
     7
100
AcDbPolyline
 90
       16
 70
     1
 43
0.0
 10
155.310591
 20
120.25272
 42
0.123941
 10
153.987176
 20
120.623183
 42
0.014475
 10
152.582059
 20
120.744951
 42
0.008336
 10
151.172622
 20
120.805516
 42
0.006742
 10
149.760592
 20
120.824326
 42
0.006735
 10
148.349959
 20
120.805554
 42
0.008336
 10
146.940074
 20
120.745009
 42
0.014477
 10
145.534267
 20
120.623215
 42
0.124044
 10
144.210593
 20
120.25272
 42
0.123941
 10
145.534008
 20
119.882257
 42
0.014475
 10
146.939125
 20
119.760489
 42
0.008336
 10
148.348562
 20
119.699924
 42
0.006742
 10
149.760592
 20
119.681115
 42
0.006735
 10
151.171225
 20
119.699886
 42
0.008336
 10
152.58111
 20
119.760432
 42
0.014477
 10
153.986917
 20
119.882226
 42
0.124044
  0
LINE
  5
2BE
100
AcDbEntity
  8
0
  6
CONTINUOUS
 62
     7
100
AcDbLine
 10
204.051887
 20
71.447493
 30
0.0
 11
205.926585
 21
73.322194
 31
0.0
  0
LINE
  5
2BF
100
AcDbEntity
  8
0
  6
CONTINUOUS
 62
     7
100
AcDbLine
 10
201.787061
 20
71.427728
 30
0.0
 11
204.877546
 21
74.518219
 31
0.0
  0
LINE
  5
2C0
100
AcDbEntity
  8
0
  6
CONTINUOUS
 62
     7
100
AcDbLine
 10
199.522235
 20
71.407964
 30
0.0
 11
202.909127
 21
74.794862
 31
0.0
  0
LINE
  5
2C1
100
AcDbEntity
  8
0
  6
CONTINUOUS
 62
     7
100
AcDbLine
 10
197.266039
 20
71.39683
 30
0.0
 11
199.479811
 21
73.610606
 31
0.0
  0
LINE
  5
2C2
100
AcDbEntity
  8
0
  6
CONTINUOUS
 62
     7
100
AcDbLine
 10
200.865346
 20
74.996144
 30
0.0
 11
200.940707
 21
75.071505
 31
0.0
  0
LINE
  5
2C3
100
AcDbEntity
  8
0
  6
CONTINUOUS
 62
     7
100
AcDbLine
 10
196.286006
 20
72.661861
 30
0.0
 11
197.511392
 21
73.887249
 31
0.0
  0
LINE
  5
2C4
100
AcDbEntity
  8
0
  6
CONTINUOUS
 62
     7
100
AcDbLine
 10
205.633285
 20
79.764093
 30
0.0
 11
205.926585
 21
80.057393
 31
0.0
  0
LINE
  5
2C5
100
AcDbEntity
  8
0
  6
CONTINUOUS
 62
     7
100
AcDbLine
 10
203.664866
 20
80.040736
 30
0.0
 11
205.723771
 21
82.099645
 31
0.0
  0
LINE
  5
2C6
100
AcDbEntity
  8
0
  6
CONTINUOUS
 62
     7
100
AcDbLine
 10
201.696447
 20
80.317379
 30
0.0
 11
204.275896
 21
82.896834
 31
0.0
  0
LINE
  5
2C7
100
AcDbEntity
  8
0
  6
CONTINUOUS
 62
     7
100
AcDbLine
 10
201.188926
 20
82.054923
 30
0.0
 11
202.030834
 21
82.896832
 31
0.0
  0
LINE
  5
2C8
100
AcDbEntity
  8
0
  6
CONTINUOUS
 62
     7
100
AcDbLine
 10
199.220507
 20
82.331566
 30
0.0
 11
199.785771
 21
82.896831
 31
0.0
  0
LINE
  5
2C9
100
AcDbEntity
  8
0
  6
CONTINUOUS
 62
     7
100
AcDbLine
 10
197.252088
 20
82.60821
 30
0.0
 11
197.540708
 21
82.89683
 31
0.0
  0
TEXT
  5
2CA
100
AcDbEntity
  8
0
  6
CONTINUOUS
100
AcDbText
 10
126.735931
 20
43.933559
 30
0.0
 40
6.0
  1
ＢＵ１１３Ｒ
100
AcDbText
  0
DIMENSION
  5
2DD
100
AcDbEntity
  8
寸法
100
AcDbDimension
  2
*D2
 10
168.760592
 20
99.85667
 30
0.0
 11
143.760592
 21
102.35667
 31
0.0
 70
    32
  3
STANDARD
100
AcDbAlignedDimension
 13
118.760592
 23
119.857804
 33
0.0
 14
168.760592
 24
122.857804
 34
0.0
100
AcDbRotatedDimension
  0
DIMENSION
  5
2EE
100
AcDbEntity
  8
寸法
100
AcDbDimension
  2
*D3
 10
128.760592
 20
118.857804
 30
0.0
 11
130.882684
 21
109.355511
 31
0.0
 70
   162
  3
STANDARD
100
AcDb2LineAngularDimension
 13
118.760592
 23
119.857804
 33
0.0
 14
126.224694
 24
117.857804
 34
0.0
 15
126.492643
 25
118.857804
 35
0.0
 16
135.120619
 26
117.752999
 36
0.0
1001
ACAD
1000
DSTYLE
1002
{
1070
   271
1070
     0
1070
   272
1070
     0
1070
   271
1070
     0
1002
}
  0
DIMENSION
  5
2FB
100
AcDbEntity
  8
寸法
100
AcDbDimension
  2
*D4
 10
168.760588
 20
109.978541
 30
0.0
 11
164.76059
 21
112.478541
 31
0.0
 70
    32
  3
STANDARD
100
AcDbAlignedDimension
 13
160.760592
 23
119.641625
 33
0.0
 14
168.760588
 24
122.857802
 34
0.0
100
AcDbRotatedDimension
  0
DIMENSION
  5
423
100
AcDbEntity
  8
寸法
100
AcDbDimension
  2
*D5
 10
110.107694
 20
117.857804
 30
0.0
 11
107.607694
 21
123.857804
 31
0.0
 70
    32
  3
STANDARD
100
AcDbAlignedDimension
 13
121.440084
 23
129.857804
 33
0.0
 14
126.224694
 24
117.857804
 34
0.0
 50
90.0
100
AcDbRotatedDimension
  0
LINE
  5
424
100
AcDbEntity
  8
0
  6
CENTER
 62
     1
100
AcDbLine
 10
89.351792
 20
117.857805
 30
0.0
 11
89.351792
 21
137.811698
 31
0.0
  0
DIMENSION
  5
468
100
AcDbEntity
  8
寸法
100
AcDbDimension
  2
*D6
 10
109.448077
 20
71.39683
 30
0.0
 11
106.948077
 21
76.39683
 31
0.0
 70
    32
  3
STANDARD
100
AcDbAlignedDimension
 13
118.760596
 23
81.39683
 33
0.0
 14
121.86344
 24
71.39683
 34
0.0
 50
90.0
100
AcDbRotatedDimension
  0
DIMENSION
  5
47B
100
AcDbEntity
  8
寸法
100
AcDbDimension
  2
*D7
 10
126.52383
 20
82.212778
 30
0.0
 11
102.469044
 21
90.864266
 31
0.0
 70
    34
  3
STANDARD
100
AcDb2LineAngularDimension
 13
130.177837
 23
82.89683
 33
0.0
 14
160.760592
 24
82.89683
 34
0.0
 15
118.760596
 25
81.39683
 35
0.0
 16
99.323992
 26
80.539727
 36
0.0
1001
ACAD
1000
DSTYLE
1002
{
1070
   271
1070
     0
1070
   272
1070
     0
1070
   271
1070
     0
1002
}
  0
DIMENSION
  5
488
100
AcDbEntity
  8
寸法
100
AcDbDimension
  2
*D8
 10
168.760596
 20
90.061976
 30
0.0
 11
159.260594
 21
92.561976
 31
0.0
 70
    32
  3
STANDARD
100
AcDbAlignedDimension
 13
149.760592
 23
84.573149
 33
0.0
 14
168.760596
 24
78.89683
 34
0.0
100
AcDbRotatedDimension
  0
DIMENSION
  5
497
100
AcDbEntity
  8
寸法
100
AcDbDimension
  2
*D9
 10
151.010592
 20
59.843472
 30
0.0
 11
159.010592
 21
62.343472
 31
0.0
 70
    32
  3
STANDARD
100
AcDbAlignedDimension
 13
148.510592
 23
69.912959
 33
0.0
 14
151.010592
 24
69.317652
 34
0.0
100
AcDbRotatedDimension
  0
DIMENSION
  5
4A4
100
AcDbEntity
  8
寸法
100
AcDbDimension
  2
*D10
 10
179.384334
 20
71.39683
 30
0.0
 11
176.884334
 21
77.14683
 31
0.0
 70
    32
  3
STANDARD
100
AcDbAlignedDimension
 13
160.760592
 23
82.89683
 33
0.0
 14
160.760592
 24
71.39683
 34
0.0
 50
90.0
100
AcDbRotatedDimension
  0
LINE
  5
4A5
100
AcDbEntity
  8
寸法
100
AcDbLine
 10
210.975726
 20
77.046829
 30
0.0
 11
205.926585
 21
77.046829
 31
0.0
  0
DIMENSION
  5
4D6
100
AcDbEntity
  8
寸法
100
AcDbDimension
  2
*D11
 10
205.926585
 20
77.046829
 30
0.0
 11
221.950494
 21
70.151544
 31
0.0
 70
   162
  3
STANDARD
100
AcDb2LineAngularDimension
 13
210.314372
 23
76.430167
 33
0.0
 14
190.381159
 24
79.231596
 34
0.0
 15
210.975726
 25
77.046829
 35
0.0
 16
223.352196
 26
76.235219
 36
0.0
1001
ACAD
1000
DSTYLE
1002
{
1070
   271
1070
     0
1070
   272
1070
     0
1070
   271
1070
     0
1002
}
  0
LINE
  5
4E7
100
AcDbEntity
  8
0
  6
CONTINUOUS
 62
     7
100
AcDbLine
 10
204.926575
 20
71.396829
 30
0.0
 11
196.746439
 21
71.396829
 31
0.0
  0
DIMENSION
  5
4F6
100
AcDbEntity
  8
寸法
100
AcDbDimension
  2
*D12
 10
212.120696
 20
71.396829
 30
0.0
 11
209.620696
 21
61.896829
 31
0.0
 70
    32
  3
STANDARD
100
AcDbAlignedDimension
 13
205.926585
 23
77.046829
 33
0.0
 14
204.926575
 24
71.396829
 34
0.0
 50
90.0
100
AcDbRotatedDimension
  0
LEADER
  5
4F7
100
AcDbEntity
  8
寸法
 62
     1
100
AcDbLeader
  3
STANDARD
 73
     0
 75
     1
 40
3.0
 41
7.5
 76
     3
 10
77.842112
 20
124.238693
 30
0.0
 10
73.109304
 20
112.00305
 30
0.0
 10
71.109304
 20
112.00305
 30
0.0
 77
     1
340
4F8
1001
ACAD
1000
DSTYLE
1002
{
1070
     6
1000
OPEN30
1002
}
  0
MTEXT
  5
4F8
102
{ACAD_REACTORS
330
4F7
102
}
100
AcDbEntity
  8
寸法
 62
     1
100
AcDbMText
 10
70.109304
 20
114.50305
 30
0.0
 40
3.0
 41
0.0
 71
     6
 72
     1
  1
\A1;%%c30
1001
ACAD
1000
MTEXTBEGIN
1070
    73
1070
     1
1070
    44
1040
1.0
1070
    74
1070
     0
1000
MTEXTEND
  0
ARC
  5
581
100
AcDbEntity
  8
0
  6
CENTER
 62
     1
100
AcDbCircle
 10
89.351792
 20
134.857804
 30
0.0
 40
14.999998
100
AcDbArc
 50
180.0
 51
0.0
  0
LINE
  5
582
100
AcDbEntity
  8
0
  6
CENTER
 62
     1
100
AcDbLine
 10
89.351792
 20
134.857804
 30
0.0
 11
91.574992
 21
119.857805
 31
0.0
  0
DIMENSION
  5
595
100
AcDbEntity
  8
0
100
AcDbDimension
  2
*D13
 10
91.574992
 20
119.857805
 30
0.0
 11
83.195072
 21
100.933809
 31
0.0
 70
    34
  3
STANDARD
100
AcDb2LineAngularDimension
 13
89.351792
 23
117.857805
 33
0.0
 14
89.351792
 24
137.811698
 34
0.0
 15
89.351792
 25
134.857804
 35
0.0
 16
92.946976
 26
98.325324
 36
0.0
1001
ACAD
1000
DSTYLE
1002
{
1070
   272
1070
     0
1070
   271
1070
     0
1002
}
  0
ARC
  5
598
100
AcDbEntity
  8
0
  6
CENTER
 62
     1
100
AcDbCircle
 10
89.351794
 20
133.857802
 30
0.0
 40
14.999998
100
AcDbArc
 50
172.337743
 51
7.662257
  0
ENDSEC
  0
SECTION
  2
OBJECTS
  0
DICTIONARY
  5
C
100
AcDbDictionary
  3
ACAD_GROUP
350
D
  3
ACAD_LAYOUT
350
50F
  3
ACAD_MLINESTYLE
350
1B
  3
ACAD_PLOTSETTINGS
350
510
  3
ACAD_PLOTSTYLENAME
350
50D
  3
ACDBHEADERROUNDTRIPXREC
350
519
  3
ACDBVARIABLEDICTIONARY
350
33
  3
CONTENTDICTIONARY
350
23
  0
DICTIONARY
  5
540
100
AcDbDictionary
280
     1
  3
ACAD_XREC_ROUNDTRIP
360
541
  0
DICTIONARY
  5
53E
100
AcDbDictionary
280
     1
  3
ACAD_XREC_ROUNDTRIP
360
53F
  0
DICTIONARY
  5
53C
100
AcDbDictionary
280
     1
  3
ACAD_LAYOUTSELFREF
360
53D
  0
DICTIONARY
  5
53A
100
AcDbDictionary
280
     1
  3
ACAD_LAYOUTSELFREF
360
53B
  0
DICTIONARY
  5
D
102
{ACAD_REACTORS
330
C
102
}
100
AcDbDictionary
  0
DICTIONARY
  5
50F
102
{ACAD_XDICTIONARY
360
578
102
}
102
{ACAD_REACTORS
330
C
102
}
100
AcDbDictionary
  3
MODEL
350
511
  3
ﾚｲｱｳﾄ1
350
512
  0
DICTIONARY
  5
1B
102
{ACAD_REACTORS
330
C
102
}
100
AcDbDictionary
  3
STANDARD
350
1C
  0
DICTIONARY
  5
510
102
{ACAD_REACTORS
330
C
102
}
100
AcDbDictionary
  0
ACAD_PROXY_OBJECT
  5
50D
102
{ACAD_REACTORS
330
C
102
}
100
AcDbProxyObject
 90
      499
 91
      502
 93
       86
310
405010041939BDC9B585B0
350
50E
340
50E
 94
        0
  0
DICTIONARY
  5
519
102
{ACAD_REACTORS
330
C
102
}
100
AcDbDictionary
  3
CEPSNTYPE
350
523
  3
DIMSTYLEDATA
350
527
  3
FINGERPRINTGUID
350
524
  3
HYPERLINKBASE
350
51C
  3
INSUNITS
350
522
  3
LAYOUTDICT
350
51E
  3
LWETCUNION
350
521
  3
PLOTSETDICT
350
51F
  3
PLOTSTYLNAMDICT
350
520
  3
PSVPSCALE
350
526
  3
PUCSBASE
350
52A
  3
PUCSORGBACK
350
530
  3
PUCSORGBOTTOM
350
52C
  3
PUCSORGFRONT
350
52F
  3
PUCSORGLEFT
350
52D
  3
PUCSORGRIGHT
350
52E
  3
PUCSORGTOP
350
52B
  3
PUCSORTHOREF
350
528
  3
PUCSORTHOVIEW
350
529
  3
STYLESHEET
350
51D
  3
TSTACKALIGN
350
51A
  3
TSTACKSIZE
350
51B
  3
UCSBASE
350
533
  3
UCSORGBACK
350
539
  3
UCSORGBOTTOM
350
535
  3
UCSORGFRONT
350
538
  3
UCSORGLEFT
350
536
  3
UCSORGRIGHT
350
537
  3
UCSORGTOP
350
534
  3
UCSORTHOREF
350
531
  3
UCSORTHOVIEW
350
532
  3
VERSIONGUID
350
525
  0
DICTIONARY
  5
33
102
{ACAD_REACTORS
330
C
102
}
100
AcDbDictionary
  3
DIMADEC
350
34
  0
DICTIONARY
  5
23
102
{ACAD_REACTORS
330
C
102
}
100
AcDbDictionary
  0
XRECORD
  5
541
102
{ACAD_REACTORS
330
540
102
}
100
AcDbXrecord
102
PLOTBIT
280
     0
  0
XRECORD
  5
53F
102
{ACAD_REACTORS
330
53E
102
}
100
AcDbXrecord
102
ACADR14ROUNDTRIP
1000
DSTYLE
1002
{
1070
   341
340
37
1070
   343
340
37
1070
   344
340
37
1002
}
  0
XRECORD
  5
53D
102
{ACAD_REACTORS
330
53C
102
}
100
AcDbXrecord
340
18
  0
XRECORD
  5
53B
102
{ACAD_REACTORS
330
53A
102
}
100
AcDbXrecord
340
15
  0
DICTIONARY
  5
578
100
AcDbDictionary
280
     1
  3
ACAD_XREC_ROUNDTRIP
360
579
  0
ACAD_PROXY_OBJECT
  5
511
102
{ACAD_REACTORS
330
50F
102
}
100
AcDbProxyObject
 90
      499
 91
      504
 93
      492
310
90731465F535038302C01AAAAAAAAA5A69054D6F64656C901A800000000000000000000000000000000000000000000A1000000000000008902A6A6AAAA4
330
18
330
0
340
0
340
0
 94
        0
  0
ACAD_PROXY_OBJECT
  5
512
102
{ACAD_REACTORS
330
50F
102
}
100
AcDbProxyObject
 90
      499
 91
      504
 93
      908
310
90731465F535038302C00AAAAAA416AA59106906DAB2B1B3C43140501A800000000000000000000000000000000000000000101E900000000000241C902A6A6A10232D5E076BC5510408CB5781DAF154410232D5E076BC5510408CB5781DAF15C410232D5E076BC5710408CB5781DAF15C40
330
15
330
0
340
0
340
0
 94
        0
  0
MLINESTYLE
  5
1C
102
{ACAD_REACTORS
330
1B
102
}
100
AcDbMlineStyle
  2
STANDARD
 70
     0
  3

 62
   256
 51
90.0
 52
90.0
 71
     2
 49
0.5
 62
   256
  6
BYLAYER
 49
-0.5
 62
   256
  6
BYLAYER
  0
ACAD_PROXY_OBJECT
  5
50E
102
{ACAD_REACTORS
330
50D
102
}
100
AcDbProxyObject
 90
      499
 91
      503
 93
        0
 94
        0
  0
XRECORD
  5
523
102
{ACAD_REACTORS
330
519
102
}
100
AcDbXrecord
 90
        0
  0
XRECORD
  5
527
102
{ACAD_REACTORS
330
519
102
}
100
AcDbXrecord
1000
DSTYLE
1002
{
1070
   341
340
37
1070
   343
340
37
1070
   344
340
37
1002
}
  0
XRECORD
  5
524
102
{ACAD_REACTORS
330
519
102
}
100
AcDbXrecord
  1
{8E9D7CC0-F5F7-11D4-99F7-0000F4DC2FEC}
  0
XRECORD
  5
51C
102
{ACAD_REACTORS
330
519
102
}
100
AcDbXrecord
  1

  0
XRECORD
  5
522
102
{ACAD_REACTORS
330
519
102
}
100
AcDbXrecord
 90
        0
  0
XRECORD
  5
51E
102
{ACAD_REACTORS
330
519
102
}
100
AcDbXrecord
340
50F
  0
XRECORD
  5
521
102
{ACAD_REACTORS
330
519
102
}
100
AcDbXrecord
 90
    14877
  0
XRECORD
  5
51F
102
{ACAD_REACTORS
330
519
102
}
100
AcDbXrecord
340
510
  0
XRECORD
  5
520
102
{ACAD_REACTORS
330
519
102
}
100
AcDbXrecord
340
50D
  0
XRECORD
  5
526
102
{ACAD_REACTORS
330
519
102
}
100
AcDbXrecord
 40
0.0
  0
XRECORD
  5
52A
102
{ACAD_REACTORS
330
519
102
}
100
AcDbXrecord
340
0
  0
XRECORD
  5
530
102
{ACAD_REACTORS
330
519
102
}
100
AcDbXrecord
 10
0.0
 20
0.0
 30
0.0
  0
XRECORD
  5
52C
102
{ACAD_REACTORS
330
519
102
}
100
AcDbXrecord
 10
0.0
 20
0.0
 30
0.0
  0
XRECORD
  5
52F
102
{ACAD_REACTORS
330
519
102
}
100
AcDbXrecord
 10
0.0
 20
0.0
 30
0.0
  0
XRECORD
  5
52D
102
{ACAD_REACTORS
330
519
102
}
100
AcDbXrecord
 10
0.0
 20
0.0
 30
0.0
  0
XRECORD
  5
52E
102
{ACAD_REACTORS
330
519
102
}
100
AcDbXrecord
 10
0.0
 20
0.0
 30
0.0
  0
XRECORD
  5
52B
102
{ACAD_REACTORS
330
519
102
}
100
AcDbXrecord
 10
0.0
 20
0.0
 30
0.0
  0
XRECORD
  5
528
102
{ACAD_REACTORS
330
519
102
}
100
AcDbXrecord
340
0
  0
XRECORD
  5
529
102
{ACAD_REACTORS
330
519
102
}
100
AcDbXrecord
 70
     0
  0
XRECORD
  5
51D
102
{ACAD_REACTORS
330
519
102
}
100
AcDbXrecord
  1

  0
XRECORD
  5
51A
102
{ACAD_REACTORS
330
519
102
}
100
AcDbXrecord
 90
        1
  0
XRECORD
  5
51B
102
{ACAD_REACTORS
330
519
102
}
100
AcDbXrecord
 90
       70
  0
XRECORD
  5
533
102
{ACAD_REACTORS
330
519
102
}
100
AcDbXrecord
340
0
  0
XRECORD
  5
539
102
{ACAD_REACTORS
330
519
102
}
100
AcDbXrecord
 10
0.0
 20
0.0
 30
0.0
  0
XRECORD
  5
535
102
{ACAD_REACTORS
330
519
102
}
100
AcDbXrecord
 10
0.0
 20
0.0
 30
0.0
  0
XRECORD
  5
538
102
{ACAD_REACTORS
330
519
102
}
100
AcDbXrecord
 10
0.0
 20
0.0
 30
0.0
  0
XRECORD
  5
536
102
{ACAD_REACTORS
330
519
102
}
100
AcDbXrecord
 10
0.0
 20
0.0
 30
0.0
  0
XRECORD
  5
537
102
{ACAD_REACTORS
330
519
102
}
100
AcDbXrecord
 10
0.0
 20
0.0
 30
0.0
  0
XRECORD
  5
534
102
{ACAD_REACTORS
330
519
102
}
100
AcDbXrecord
 10
0.0
 20
0.0
 30
0.0
  0
XRECORD
  5
531
102
{ACAD_REACTORS
330
519
102
}
100
AcDbXrecord
340
0
  0
XRECORD
  5
532
102
{ACAD_REACTORS
330
519
102
}
100
AcDbXrecord
 70
     0
  0
XRECORD
  5
525
102
{ACAD_REACTORS
330
519
102
}
100
AcDbXrecord
  1
{8E9D7CC1-F5F7-11D4-99F7-0000F4DC2FEC}
  0
DICTIONARYVAR
  5
34
102
{ACAD_REACTORS
330
33
102
}
100
DictionaryVariables
280
     0
  1
0
  0
XRECORD
  5
579
102
{ACAD_REACTORS
330
578
102
}
100
AcDbXrecord
102
EXTNAMES
  1
MODEL
  2
Model
  0
ENDSEC
  0
EOF
