  0
SECTION
  2
HEADER
  9
$ACADVER
  1
AC1014
  9
$ACADMAINTVER
 70
     0
  9
$DWGCODEPAGE
  3
ANSI_932
  9
$INSBASE
 10
0.0
 20
0.0
 30
0.0
  9
$EXTMIN
 10
43.767656
 20
39.339254
 30
0.0
  9
$EXTMAX
 10
251.152853
 20
177.866558
 30
0.0
  9
$LIMMIN
 10
0.0
 20
0.0
  9
$LIMMAX
 10
297.0
 20
210.0
  9
$ORTHOMODE
 70
     1
  9
$REGENMODE
 70
     1
  9
$FILLMODE
 70
     1
  9
$QTEXTMODE
 70
     0
  9
$MIRRTEXT
 70
     1
  9
$DRAGMODE
 70
     2
  9
$LTSCALE
 40
0.707071
  9
$OSMODE
 70
    33
  9
$ATTMODE
 70
     1
  9
$TEXTSIZE
 40
1.767677
  9
$TRACEWID
 40
1.0
  9
$TEXTSTYLE
  7
STANDARD
  9
$CLAYER
  8
0
  9
$CELTYPE
  6
BYLAYER
  9
$CECOLOR
 62
   256
  9
$CELTSCALE
 40
1.0
  9
$DELOBJ
 70
     1
  9
$DISPSILH
 70
     0
  9
$DIMSCALE
 40
1.0
  9
$DIMASZ
 40
2.0
  9
$DIMEXO
 40
1.0
  9
$DIMDLI
 40
10.0
  9
$DIMRND
 40
0.0
  9
$DIMDLE
 40
0.0
  9
$DIMEXE
 40
1.0
  9
$DIMTP
 40
0.0
  9
$DIMTM
 40
0.0
  9
$DIMTXT
 40
3.0
  9
$DIMCEN
 40
2.0
  9
$DIMTSZ
 40
0.0
  9
$DIMTOL
 70
     0
  9
$DIMLIM
 70
     0
  9
$DIMTIH
 70
     0
  9
$DIMTOH
 70
     0
  9
$DIMSE1
 70
     0
  9
$DIMSE2
 70
     0
  9
$DIMTAD
 70
     1
  9
$DIMZIN
 70
     8
  9
$DIMBLK
  1

  9
$DIMASO
 70
     1
  9
$DIMSHO
 70
     1
  9
$DIMPOST
  1

  9
$DIMAPOST
  1

  9
$DIMALT
 70
     0
  9
$DIMALTD
 70
     2
  9
$DIMALTF
 40
25.4
  9
$DIMLFAC
 40
1.0
  9
$DIMTOFL
 70
     1
  9
$DIMTVP
 40
0.0
  9
$DIMTIX
 70
     0
  9
$DIMSOXD
 70
     0
  9
$DIMSAH
 70
     1
  9
$DIMBLK1
  1
OPEN30
  9
$DIMBLK2
  1
OPEN30
  9
$DIMSTYLE
  2
STANDARD
  9
$DIMCLRD
 70
     1
  9
$DIMCLRE
 70
     1
  9
$DIMCLRT
 70
     1
  9
$DIMTFAC
 40
1.0
  9
$DIMGAP
 40
1.0
  9
$DIMJUST
 70
     0
  9
$DIMSD1
 70
     0
  9
$DIMSD2
 70
     0
  9
$DIMTOLJ
 70
     1
  9
$DIMTZIN
 70
     0
  9
$DIMALTZ
 70
     0
  9
$DIMALTTZ
 70
     0
  9
$DIMFIT
 70
     3
  9
$DIMUPT
 70
     0
  9
$DIMUNIT
 70
     2
  9
$DIMDEC
 70
     2
  9
$DIMTDEC
 70
     4
  9
$DIMALTU
 70
     2
  9
$DIMALTTD
 70
     2
  9
$DIMTXSTY
  7
STANDARD
  9
$DIMAUNIT
 70
     0
  9
$LUNITS
 70
     2
  9
$LUPREC
 70
     4
  9
$SKETCHINC
 40
1.0
  9
$FILLETRAD
 40
7.070707
  9
$AUNITS
 70
     0
  9
$AUPREC
 70
     0
  9
$MENU
  1
acad
  9
$ELEVATION
 40
0.0
  9
$PELEVATION
 40
0.0
  9
$THICKNESS
 40
0.0
  9
$LIMCHECK
 70
     0
  9
$BLIPMODE
 70
     0
  9
$CHAMFERA
 40
7.070707
  9
$CHAMFERB
 40
7.070707
  9
$CHAMFERC
 40
14.141414
  9
$CHAMFERD
 40
0.0
  9
$SKPOLY
 70
     0
  9
$TDCREATE
 40
2451930.603553240
  9
$TDUPDATE
 40
2451977.422002314
  9
$TDINDWG
 40
0.0425261574
  9
$TDUSRTIMER
 40
0.0425261574
  9
$USRTIMER
 70
     1
  9
$ANGBASE
 50
0.0
  9
$ANGDIR
 70
     0
  9
$PDMODE
 70
     0
  9
$PDSIZE
 40
0.0
  9
$PLINEWID
 40
0.0
  9
$COORDS
 70
     1
  9
$SPLFRAME
 70
     0
  9
$SPLINETYPE
 70
     6
  9
$SPLINESEGS
 70
     8
  9
$ATTDIA
 70
     0
  9
$ATTREQ
 70
     1
  9
$HANDLING
 70
     1
  9
$HANDSEED
  5
4EA
  9
$SURFTAB1
 70
     6
  9
$SURFTAB2
 70
     6
  9
$SURFTYPE
 70
     6
  9
$SURFU
 70
     6
  9
$SURFV
 70
     6
  9
$UCSNAME
  2

  9
$UCSORG
 10
0.0
 20
0.0
 30
0.0
  9
$UCSXDIR
 10
1.0
 20
0.0
 30
0.0
  9
$UCSYDIR
 10
0.0
 20
1.0
 30
0.0
  9
$PUCSNAME
  2

  9
$PUCSORG
 10
0.0
 20
0.0
 30
0.0
  9
$PUCSXDIR
 10
1.0
 20
0.0
 30
0.0
  9
$PUCSYDIR
 10
0.0
 20
1.0
 30
0.0
  9
$USERI1
 70
     0
  9
$USERI2
 70
     0
  9
$USERI3
 70
     0
  9
$USERI4
 70
     0
  9
$USERI5
 70
     0
  9
$USERR1
 40
0.0
  9
$USERR2
 40
0.0
  9
$USERR3
 40
0.0
  9
$USERR4
 40
0.0
  9
$USERR5
 40
0.0
  9
$WORLDVIEW
 70
     1
  9
$SHADEDGE
 70
     3
  9
$SHADEDIF
 70
    70
  9
$TILEMODE
 70
     1
  9
$MAXACTVP
 70
    48
  9
$PINSBASE
 10
0.0
 20
0.0
 30
0.0
  9
$PLIMCHECK
 70
     0
  9
$PEXTMIN
 10
1.000000E+20
 20
1.000000E+20
 30
1.000000E+20
  9
$PEXTMAX
 10
-1.000000E+20
 20
-1.000000E+20
 30
-1.000000E+20
  9
$PLIMMIN
 10
0.0
 20
0.0
  9
$PLIMMAX
 10
420.0
 20
297.0
  9
$UNITMODE
 70
     0
  9
$VISRETAIN
 70
     1
  9
$PLINEGEN
 70
     0
  9
$PSLTSCALE
 70
     1
  9
$TREEDEPTH
 70
  3020
  9
$PICKSTYLE
 70
     1
  9
$CMLSTYLE
  2
STANDARD
  9
$CMLJUST
 70
     0
  9
$CMLSCALE
 40
20.0
  9
$PROXYGRAPHICS
 70
     1
  9
$MEASUREMENT
 70
     1
  0
ENDSEC
  0
SECTION
  2
CLASSES
  0
CLASS
  1
DICTIONARYVAR
  2
AcDbDictionaryVar
  3
"AutoCAD"
 90
        0
280
     0
281
     0
  0
CLASS
  1
LWPOLYLINE
  2
AcDbPolyline
  3
"AutoCAD"
 90
        0
280
     0
281
     1
  0
CLASS
  1
ACDBDICTIONARYWDFLT
  2
AcDbDictionaryWithDefault
  3
AutoCAD 2000
 90
        0
280
     0
281
     0
  0
CLASS
  1
ACDBPLACEHOLDER
  2
AcDbPlaceHolder
  3
AutoCAD 2000
 90
        0
280
     0
281
     0
  0
CLASS
  1
LAYOUT
  2
AcDbLayout
  3
AutoCAD 2000
 90
        0
280
     0
281
     0
  0
CLASS
  1
LONG_TRANSACTION
  2
AcDbLongTransaction
  3
AutoCAD 2000
 90
        0
280
     0
281
     0
  0
CLASS
  1
LWPOLYLINE
  2
AcDbPolyline
  3
"AutoCAD"
 90
        0
280
     0
281
     1
  0
CLASS
  1
HATCH
  2
AcDbHatch
  3
"ACAD_SEDONA"
 90
        0
280
     0
281
     1
  0
CLASS
  1
XRECORD
  2
AcDbXrecord
  3
"<Built In>"
 90
        0
280
     0
281
     0
  0
ENDSEC
  0
SECTION
  2
TABLES
  0
TABLE
  2
VPORT
  5
8
100
AcDbSymbolTable
 70
     2
  0
VPORT
  5
4E9
100
AcDbSymbolTableRecord
100
AcDbViewportTableRecord
  2
*ACTIVE
 70
     0
 10
0.0
 20
0.0
 11
1.0
 21
1.0
 12
156.263495
 22
95.869961
 13
0.0
 23
0.0
 14
10.0
 24
10.0
 15
10.0
 25
10.0
 16
0.0
 26
0.0
 36
1.0
 17
0.0
 27
0.0
 37
0.0
 40
167.018487
 41
1.710425
 42
50.0
 43
0.0
 44
0.0
 50
0.0
 51
0.0
 71
     0
 72
   100
 73
     1
 74
     1
 75
     0
 76
     0
 77
     0
 78
     0
  0
ENDTAB
  0
TABLE
  2
LTYPE
  5
5
100
AcDbSymbolTable
 70
     5
  0
LTYPE
  5
12
100
AcDbSymbolTableRecord
100
AcDbLinetypeTableRecord
  2
BYBLOCK
 70
     0
  3

 72
    65
 73
     0
 40
0.0
  0
LTYPE
  5
13
100
AcDbSymbolTableRecord
100
AcDbLinetypeTableRecord
  2
BYLAYER
 70
     0
  3

 72
    65
 73
     0
 40
0.0
  0
LTYPE
  5
14
100
AcDbSymbolTableRecord
100
AcDbLinetypeTableRecord
  2
CONTINUOUS
 70
     0
  3
Solid line
 72
    65
 73
     0
 40
0.0
  0
LTYPE
  5
4E
100
AcDbSymbolTableRecord
100
AcDbLinetypeTableRecord
  2
DASHED
 70
     0
  3
__ __ __ __ __ __ __ __ __ __ __ __ __ __ __
 72
    65
 73
     2
 40
3.5
 49
2.0
 74
     0
 49
-1.5
 74
     0
  0
LTYPE
  5
4F
100
AcDbSymbolTableRecord
100
AcDbLinetypeTableRecord
  2
CENTER
 70
     0
  3
____ _ ____ _ ____ _ ____ _ ____ _ ____ _ ____
 72
    65
 73
     4
 40
17.5
 49
13.0
 74
     0
 49
-1.5
 74
     0
 49
1.5
 74
     0
 49
-1.5
 74
     0
  0
LTYPE
  5
50
100
AcDbSymbolTableRecord
100
AcDbLinetypeTableRecord
  2
PHANTOM
 70
     0
  3
_____ _ _ _____ _ _ _____ _ _ _____ _ _ ____  
 72
    65
 73
     6
 40
15.5
 49
8.0
 74
     0
 49
-1.5
 74
     0
 49
1.5
 74
     0
 49
-1.5
 74
     0
 49
1.5
 74
     0
 49
-1.5
 74
     0
  0
LTYPE
  5
51
100
AcDbSymbolTableRecord
100
AcDbLinetypeTableRecord
  2
DOT
 70
     0
  3
. . . . . . . . . . . . . . . . . . . . . . . .
 72
    65
 73
     2
 40
0.25
 49
0.0
 74
     0
 49
-0.25
 74
     0
  0
ENDTAB
  0
TABLE
  2
LAYER
  5
2
100
AcDbSymbolTable
 70
     3
  0
LAYER
  5
E
100
AcDbSymbolTableRecord
100
AcDbLayerTableRecord
  2
0
 70
     0
 62
     7
  6
CONTINUOUS
  0
LAYER
  5
2D2
100
AcDbSymbolTableRecord
100
AcDbLayerTableRecord
  2
寸法
 70
     0
 62
     1
  6
CONTINUOUS
  0
LAYER
  5
2D4
102
{ACAD_XDICTIONARY
360
46D
102
}
100
AcDbSymbolTableRecord
100
AcDbLayerTableRecord
  2
DEFPOINTS
 70
     0
 62
     7
  6
CONTINUOUS
  0
ENDTAB
  0
TABLE
  2
STYLE
  5
3
100
AcDbSymbolTable
 70
     1
  0
STYLE
  5
F
100
AcDbSymbolTableRecord
100
AcDbTextStyleTableRecord
  2
STANDARD
 70
     0
 40
0.0
 41
1.0
 50
0.0
 71
     0
 42
1.767677
  3
txt.shx
  4
bigfont.shx
  0
ENDTAB
  0
TABLE
  2
VIEW
  5
6
100
AcDbSymbolTable
 70
     0
  0
ENDTAB
  0
TABLE
  2
UCS
  5
7
100
AcDbSymbolTable
 70
     0
  0
ENDTAB
  0
TABLE
  2
APPID
  5
9
100
AcDbSymbolTable
 70
     3
  0
APPID
  5
10
100
AcDbSymbolTableRecord
100
AcDbRegAppTableRecord
  2
ACAD
 70
     0
  0
APPID
  5
24
100
AcDbSymbolTableRecord
100
AcDbRegAppTableRecord
  2
CONTENTTABDATA
 70
     0
  0
APPID
  5
25
100
AcDbSymbolTableRecord
100
AcDbRegAppTableRecord
  2
CONTENTCURRENTTAB
 70
     0
  0
ENDTAB
  0
TABLE
  2
DIMSTYLE
  5
A
100
AcDbSymbolTable
 70
     2
  0
DIMSTYLE
105
1D
102
{ACAD_XDICTIONARY
360
496
102
}
102
{ACAD_REACTORS
330
2D3
330
2E1
330
2EE
330
2FD
330
30A
330
34D
330
375
330
382
330
407
330
418
330
456
102
}
100
AcDbSymbolTableRecord
100
AcDbDimStyleTableRecord
  2
STANDARD
 70
     0
  3

  4

  5

  6
OPEN30
  7
OPEN30
 40
1.0
 41
2.0
 42
1.0
 43
10.0
 44
1.0
 45
0.0
 46
0.0
 47
0.0
 48
0.0
140
3.0
141
2.0
142
0.0
143
25.4
144
1.0
145
0.0
146
1.0
147
1.0
 71
     0
 72
     0
 73
     0
 74
     0
 75
     0
 76
     0
 77
     1
 78
     8
170
     0
171
     2
172
     1
173
     1
174
     0
175
     0
176
     1
177
     1
178
     1
270
     2
271
     2
272
     4
273
     2
274
     2
340
F
275
     0
280
     0
281
     0
282
     0
283
     1
284
     0
285
     0
286
     0
287
     3
288
     0
  0
DIMSTYLE
105
35
100
AcDbSymbolTableRecord
100
AcDbDimStyleTableRecord
  2
STANDARD_WS
 70
     0
  3

  4

  5

  6

  7

 40
0.707071
 41
2.5
 42
0.625
 43
3.75
 44
1.25
 45
0.0
 46
0.0
 47
0.0
 48
0.0
140
2.5
141
2.5
142
0.0
143
0.0394
144
1.0
145
0.0
146
1.0
147
0.625
 71
     0
 72
     0
 73
     0
 74
     0
 75
     0
 76
     0
 77
     1
 78
     8
170
     0
171
     4
172
     1
173
     0
174
     0
175
     0
176
     0
177
     0
178
     0
270
     2
271
     4
272
     4
273
     8
274
     4
340
F
275
     0
280
     0
281
     0
282
     0
283
     1
284
     0
285
     0
286
     0
287
     3
288
     0
  0
ENDTAB
  0
TABLE
  2
BLOCK_RECORD
  5
1
100
AcDbSymbolTable
 70
    13
  0
BLOCK_RECORD
  5
18
102
{ACAD_XDICTIONARY
360
494
102
}
100
AcDbSymbolTableRecord
100
AcDbBlockTableRecord
  2
*MODEL_SPACE
  0
BLOCK_RECORD
  5
15
102
{ACAD_XDICTIONARY
360
492
102
}
100
AcDbSymbolTableRecord
100
AcDbBlockTableRecord
  2
*PAPER_SPACE
  0
BLOCK_RECORD
  5
37
100
AcDbSymbolTableRecord
100
AcDbBlockTableRecord
  2
_OPEN30
  0
BLOCK_RECORD
  5
52
100
AcDbSymbolTableRecord
100
AcDbBlockTableRecord
  2
BU115R
  0
BLOCK_RECORD
  5
2D5
100
AcDbSymbolTableRecord
100
AcDbBlockTableRecord
  2
*D2
  0
BLOCK_RECORD
  5
2E2
100
AcDbSymbolTableRecord
100
AcDbBlockTableRecord
  2
*D3
  0
BLOCK_RECORD
  5
2EF
100
AcDbSymbolTableRecord
100
AcDbBlockTableRecord
  2
*D4
  0
BLOCK_RECORD
  5
2FE
100
AcDbSymbolTableRecord
100
AcDbBlockTableRecord
  2
*D5
  0
BLOCK_RECORD
  5
30B
100
AcDbSymbolTableRecord
100
AcDbBlockTableRecord
  2
*D6
  0
BLOCK_RECORD
  5
34E
100
AcDbSymbolTableRecord
100
AcDbBlockTableRecord
  2
*D7
  0
BLOCK_RECORD
  5
376
100
AcDbSymbolTableRecord
100
AcDbBlockTableRecord
  2
*D8
  0
BLOCK_RECORD
  5
383
100
AcDbSymbolTableRecord
100
AcDbBlockTableRecord
  2
*D9
  0
BLOCK_RECORD
  5
408
100
AcDbSymbolTableRecord
100
AcDbBlockTableRecord
  2
*D10
  0
BLOCK_RECORD
  5
419
100
AcDbSymbolTableRecord
100
AcDbBlockTableRecord
  2
*D11
  0
BLOCK_RECORD
  5
457
100
AcDbSymbolTableRecord
100
AcDbBlockTableRecord
  2
*D12
  0
ENDTAB
  0
ENDSEC
  0
SECTION
  2
BLOCKS
  0
BLOCK
  5
19
100
AcDbEntity
  8
0
100
AcDbBlockBegin
  2
*MODEL_SPACE
 70
     0
 10
0.0
 20
0.0
 30
0.0
  3
*MODEL_SPACE
  1

  0
ENDBLK
  5
1A
100
AcDbEntity
  8
0
100
AcDbBlockEnd
  0
BLOCK
  5
16
100
AcDbEntity
 67
     1
  8
0
100
AcDbBlockBegin
  2
*PAPER_SPACE
 70
     0
 10
0.0
 20
0.0
 30
0.0
  3
*PAPER_SPACE
  1

  0
ENDBLK
  5
17
100
AcDbEntity
 67
     1
  8
0
100
AcDbBlockEnd
  0
BLOCK
  5
38
100
AcDbEntity
  8
0
100
AcDbBlockBegin
  2
_OPEN30
 70
     0
 10
0.0
 20
0.0
 30
0.0
  3
_OPEN30
  1

  0
LINE
  5
39
100
AcDbEntity
  8
0
  6
BYBLOCK
 62
     0
100
AcDbLine
 10
-1.0
 20
0.267949
 30
0.0
 11
0.0
 21
0.0
 31
0.0
  0
LINE
  5
3A
100
AcDbEntity
  8
0
  6
BYBLOCK
 62
     0
100
AcDbLine
 10
0.0
 20
0.0
 30
0.0
 11
-1.0
 21
-0.267949
 31
0.0
  0
LINE
  5
3B
100
AcDbEntity
  8
0
  6
BYBLOCK
 62
     0
100
AcDbLine
 10
0.0
 20
0.0
 30
0.0
 11
-1.0
 21
0.0
 31
0.0
  0
ENDBLK
  5
3C
100
AcDbEntity
  8
0
100
AcDbBlockEnd
  0
BLOCK
  5
189
100
AcDbEntity
  8
0
100
AcDbBlockBegin
  2
BU115R
 70
     0
 10
0.0
 20
0.0
 30
0.0
  3
BU115R
  1

  0
POINT
  5
53
100
AcDbEntity
  8
0
  6
CONTINUOUS
 62
     7
100
AcDbPoint
 10
-36.909443
 20
0.013
 30
0.0
  0
POINT
  5
54
100
AcDbEntity
  8
0
  6
CONTINUOUS
 62
     7
100
AcDbPoint
 10
0.0
 20
0.013
 30
0.0
  0
POINT
  5
55
100
AcDbEntity
  8
0
  6
CONTINUOUS
 62
     7
100
AcDbPoint
 10
0.00002
 20
-52.299961
 30
0.0
  0
POINT
  5
56
100
AcDbEntity
  8
0
  6
CONTINUOUS
 62
     7
100
AcDbPoint
 10
94.593994
 20
-68.299965
 30
0.0
  0
LINE
  5
57
100
AcDbEntity
  8
0
  6
CONTINUOUS
 62
     7
100
AcDbLine
 10
3.287
 20
12.267249
 30
0.0
 11
15.599516
 21
8.968121
 31
0.0
  0
LINE
  5
58
100
AcDbEntity
  8
0
  6
CONTINUOUS
 62
     7
100
AcDbLine
 10
57.999992
 20
15.713
 30
0.0
 11
57.999992
 21
-0.004
 31
0.0
  0
LINE
  5
59
100
AcDbEntity
  8
0
  6
CONTINUOUS
 62
     7
100
AcDbLine
 10
16.174488
 20
-50.299969
 30
0.0
 11
57.999992
 21
-50.299969
 31
0.0
  0
LINE
  5
5A
100
AcDbEntity
  8
0
  6
CONTINUOUS
 62
     7
100
AcDbLine
 10
3.882054
 20
-68.299973
 30
0.0
 11
57.999992
 21
-68.299973
 31
0.0
  0
LINE
  5
5B
100
AcDbEntity
  8
0
  6
CONTINUOUS
 62
     7
100
AcDbLine
 10
57.999992
 20
-50.299969
 30
0.0
 11
57.999992
 21
-68.299973
 31
0.0
  0
LINE
  5
5C
100
AcDbEntity
  8
0
  6
CENTER
 62
     7
100
AcDbLine
 10
17.0
 20
-56.299969
 30
0.0
 11
17.0
 21
-64.299973
 31
0.0
  0
LINE
  5
5D
100
AcDbEntity
  8
0
  6
CONTINUOUS
 62
     7
100
AcDbLine
 10
0.000023
 20
-52.299961
 30
0.0
 11
12.614901
 21
-50.974083
 31
0.0
  0
LINE
  5
5E
100
AcDbEntity
  8
0
  6
CONTINUOUS
 62
     7
100
AcDbLine
 10
0.501755
 20
-57.073654
 30
0.0
 11
13.116635
 21
-55.747776
 31
0.0
  0
LINE
  5
5F
100
AcDbEntity
  8
0
  6
CENTER
 62
     7
100
AcDbLine
 10
12.999999
 20
-60.299969
 30
0.0
 11
21.0
 21
-60.299969
 31
0.0
  0
LINE
  5
60
100
AcDbEntity
  8
0
  6
CONTINUOUS
 62
     7
100
AcDbLine
 10
109.49999
 20
-51.799969
 30
0.0
 11
109.49999
 21
-66.68734
 31
0.0
  0
LINE
  5
61
100
AcDbEntity
  8
0
  6
CONTINUOUS
 62
     7
100
AcDbLine
 10
95.999992
 20
-50.299969
 30
0.0
 11
107.99999
 21
-50.299969
 31
0.0
  0
LINE
  5
62
100
AcDbEntity
  8
0
  6
CONTINUOUS
 62
     7
100
AcDbLine
 10
95.999962
 20
-50.299923
 30
0.0
 11
93.783272
 21
-66.072517
 31
0.0
  0
LINE
  5
63
100
AcDbEntity
  8
0
  6
CENTER
 62
     7
100
AcDbLine
 10
6.617319
 20
0.077623
 30
0.0
 11
8.998453
 21
8.964137
 31
0.0
  0
LINE
  5
64
100
AcDbEntity
  8
0
  6
CENTER
 62
     7
100
AcDbLine
 10
3.364628
 20
5.711447
 30
0.0
 11
12.251141
 21
3.330313
 31
0.0
  0
LINE
  5
65
100
AcDbEntity
  8
0
  6
CENTER
 62
     7
100
AcDbLine
 10
54.704479
 20
8.700009
 30
0.0
 11
68.886299
 21
8.700009
 31
0.0
  0
LINE
  5
66
100
AcDbEntity
  8
0
  6
CENTER
 62
     7
100
AcDbLine
 10
43.999992
 20
-47.305325
 30
0.0
 11
43.999992
 21
-71.305328
 31
0.0
  0
LINE
  5
67
100
AcDbEntity
  8
0
  6
CENTER
 62
     7
100
AcDbLine
 10
55.086731
 20
-59.799969
 30
0.0
 11
68.687759
 21
-59.799969
 31
0.0
  0
LINE
  5
68
100
AcDbEntity
  8
0
  6
CENTER
 62
     7
100
AcDbLine
 10
45.749992
 20
-47.305325
 30
0.0
 11
45.749992
 21
-71.305328
 31
0.0
  0
LINE
  5
69
100
AcDbEntity
  8
0
  6
CENTER
 62
     7
100
AcDbLine
 10
42.249992
 20
-47.305325
 30
0.0
 11
42.249992
 21
-71.305328
 31
0.0
  0
LINE
  5
6A
100
AcDbEntity
  8
0
  6
CENTER
 62
     7
100
AcDbLine
 10
43.999992
 20
5.617767
 30
0.0
 11
43.999992
 21
-2.674974
 31
0.0
  0
LINE
  5
6B
100
AcDbEntity
  8
0
  6
CONTINUOUS
 62
     7
100
AcDbLine
 10
-34.90432
 20
14.213
 30
0.0
 11
-34.90432
 21
-1.79999
 31
0.0
  0
LINE
  5
6C
100
AcDbEntity
  8
0
  6
CONTINUOUS
 62
     7
100
AcDbLine
 10
21.999998
 20
1.713
 30
0.0
 11
21.999998
 21
-1.674579
 31
0.0
  0
LINE
  5
6D
100
AcDbEntity
  8
0
  6
CONTINUOUS
 62
     7
100
AcDbLine
 10
0.7883
 20
-59.799953
 30
0.0
 11
14.041963
 21
-59.799953
 31
0.0
  0
LINE
  5
6E
100
AcDbEntity
  8
0
  6
CONTINUOUS
 62
     7
100
AcDbLine
 10
0.000018
 20
-52.299946
 30
0.0
 11
0.7883
 21
-59.799953
 31
0.0
  0
LINE
  5
6F
100
AcDbEntity
  8
0
  6
CONTINUOUS
 62
     7
100
AcDbLine
 10
-35.582123
 20
-2.29999
 30
0.0
 11
-35.404305
 21
-2.29999
 31
0.0
  0
LINE
  5
70
100
AcDbEntity
  8
0
  6
CONTINUOUS
 62
     7
100
AcDbLine
 10
-41.715263
 20
12.267249
 30
0.0
 11
-36.559219
 21
12.267249
 31
0.0
  0
LINE
  5
71
100
AcDbEntity
  8
0
  6
CONTINUOUS
 62
     7
100
AcDbLine
 10
-35.404316
 20
-2.299989
 30
0.0
 11
-34.904316
 21
-1.799989
 31
0.0
  0
LINE
  5
72
100
AcDbEntity
  8
0
  6
CONTINUOUS
 62
     7
100
AcDbLine
 10
-40.765965
 20
-3.287
 30
0.0
 11
-35.609921
 21
-3.287
 31
0.0
  0
LINE
  5
73
100
AcDbEntity
  8
0
  6
CONTINUOUS
 62
     7
100
AcDbLine
 10
-51.291687
 20
15.713
 30
0.0
 11
-36.40432
 21
15.713
 31
0.0
  0
LINE
  5
74
100
AcDbEntity
  8
0
  6
CONTINUOUS
 62
     7
100
AcDbLine
 10
4.206803
 20
15.713
 30
0.0
 11
57.999992
 21
15.713
 31
0.0
  0
LINE
  5
75
100
AcDbEntity
  8
0
  6
CONTINUOUS
 62
     7
100
AcDbLine
 10
12.583715
 20
-2.287
 30
0.0
 11
14.999998
 21
-2.287
 31
0.0
  0
LINE
  5
76
100
AcDbEntity
  8
0
  6
CONTINUOUS
 62
     7
100
AcDbLine
 10
16.174488
 20
14.213
 30
0.0
 11
57.999992
 21
14.213
 31
0.0
  0
LINE
  5
77
100
AcDbEntity
  8
0
  6
CONTINUOUS
 62
     7
100
AcDbLine
 10
-36.404324
 20
15.713001
 30
0.0
 11
-34.90432
 21
14.212999
 31
0.0
  0
LINE
  5
78
100
AcDbEntity
  8
0
  6
CONTINUOUS
 62
     7
100
AcDbLine
 10
-44.40432
 20
-2.287
 30
0.0
 11
-41.158207
 21
-2.287
 31
0.0
  0
LINE
  5
79
100
AcDbEntity
  8
0
  6
CONTINUOUS
 62
     7
100
AcDbLine
 10
-44.40432
 20
0.013
 30
0.0
 11
-44.40432
 21
-2.287
 31
0.0
  0
LINE
  5
7A
100
AcDbEntity
  8
0
  6
CONTINUOUS
 62
     7
100
AcDbLine
 10
-44.40432
 20
-2.287
 30
0.0
 11
-52.90432
 21
0.806748
 31
0.0
  0
LINE
  5
7B
100
AcDbEntity
  8
0
  6
CONTINUOUS
 62
     7
100
AcDbLine
 10
-51.291687
 20
15.712996
 30
0.0
 11
-52.90432
 21
14.100364
 31
0.0
  0
LINE
  5
7C
100
AcDbEntity
  8
0
  6
CONTINUOUS
 62
     7
100
AcDbLine
 10
-52.90432
 20
14.100366
 30
0.0
 11
-52.90432
 21
0.806748
 31
0.0
  0
LINE
  5
7D
100
AcDbEntity
  8
0
  6
CONTINUOUS
 62
     7
100
AcDbLine
 10
65.999992
 20
10.700009
 30
0.0
 11
65.999992
 21
6.700009
 31
0.0
  0
LINE
  5
7E
100
AcDbEntity
  8
0
  6
CONTINUOUS
 62
     7
100
AcDbLine
 10
60.999992
 20
12.700009
 30
0.0
 11
60.999992
 21
4.700009
 31
0.0
  0
LINE
  5
7F
100
AcDbEntity
  8
0
  6
CONTINUOUS
 62
     7
100
AcDbLine
 10
57.999992
 20
6.200009
 30
0.0
 11
60.999992
 21
6.200009
 31
0.0
  0
LINE
  5
80
100
AcDbEntity
  8
0
  6
CONTINUOUS
 62
     7
100
AcDbLine
 10
57.999992
 20
11.200009
 30
0.0
 11
60.999992
 21
11.200009
 31
0.0
  0
LINE
  5
81
100
AcDbEntity
  8
0
  6
CONTINUOUS
 62
     7
100
AcDbLine
 10
63.499992
 20
13.200007
 30
0.0
 11
65.999992
 21
10.700007
 31
0.0
  0
LINE
  5
82
100
AcDbEntity
  8
0
  6
CONTINUOUS
 62
     7
100
AcDbLine
 10
63.499989
 20
4.200008
 30
0.0
 11
65.999985
 21
6.700008
 31
0.0
  0
LINE
  5
83
100
AcDbEntity
  8
0
  6
CONTINUOUS
 62
     7
100
AcDbLine
 10
61.499992
 20
4.200009
 30
0.0
 11
63.499992
 21
4.200009
 31
0.0
  0
LINE
  5
84
100
AcDbEntity
  8
0
  6
CONTINUOUS
 62
     7
100
AcDbLine
 10
61.499992
 20
13.200009
 30
0.0
 11
63.499992
 21
13.200009
 31
0.0
  0
LINE
  5
85
100
AcDbEntity
  8
0
  6
CONTINUOUS
 62
     7
100
AcDbLine
 10
61.499989
 20
13.200004
 30
0.0
 11
60.999989
 21
12.700006
 31
0.0
  0
LINE
  5
86
100
AcDbEntity
  8
0
  6
CONTINUOUS
 62
     7
100
AcDbLine
 10
60.999992
 20
4.70001
 30
0.0
 11
61.499992
 21
4.200009
 31
0.0
  0
LINE
  5
87
100
AcDbEntity
  8
0
  6
CONTINUOUS
 62
     7
100
AcDbLine
 10
61.499992
 20
13.200009
 30
0.0
 11
61.499992
 21
4.200009
 31
0.0
  0
LINE
  5
88
100
AcDbEntity
  8
0
  6
CONTINUOUS
 62
     7
100
AcDbLine
 10
63.499992
 20
13.200009
 30
0.0
 11
63.499992
 21
4.200009
 31
0.0
  0
LINE
  5
89
100
AcDbEntity
  8
0
  6
CONTINUOUS
 62
     7
100
AcDbLine
 10
57.999992
 20
6.700009
 30
0.0
 11
60.999992
 21
6.700009
 31
0.0
  0
LINE
  5
8A
100
AcDbEntity
  8
0
  6
CONTINUOUS
 62
     7
100
AcDbLine
 10
57.999992
 20
10.700009
 30
0.0
 11
60.999992
 21
10.700009
 31
0.0
  0
LINE
  5
8B
100
AcDbEntity
  8
0
  6
CONTINUOUS
 62
     7
100
AcDbLine
 10
65.999992
 20
-57.799969
 30
0.0
 11
65.999992
 21
-61.799969
 31
0.0
  0
LINE
  5
8C
100
AcDbEntity
  8
0
  6
CONTINUOUS
 62
     7
100
AcDbLine
 10
60.999992
 20
-55.799969
 30
0.0
 11
60.999992
 21
-63.799969
 31
0.0
  0
LINE
  5
8D
100
AcDbEntity
  8
0
  6
CONTINUOUS
 62
     7
100
AcDbLine
 10
57.999992
 20
-62.299969
 30
0.0
 11
60.999992
 21
-62.299969
 31
0.0
  0
LINE
  5
8E
100
AcDbEntity
  8
0
  6
CONTINUOUS
 62
     7
100
AcDbLine
 10
57.999992
 20
-57.299969
 30
0.0
 11
60.999992
 21
-57.299969
 31
0.0
  0
LINE
  5
8F
100
AcDbEntity
  8
0
  6
CONTINUOUS
 62
     7
100
AcDbLine
 10
63.499992
 20
-55.299969
 30
0.0
 11
65.999985
 21
-57.799965
 31
0.0
  0
LINE
  5
90
100
AcDbEntity
  8
0
  6
CONTINUOUS
 62
     7
100
AcDbLine
 10
63.499989
 20
-64.299973
 30
0.0
 11
65.999992
 21
-61.799969
 31
0.0
  0
LINE
  5
91
100
AcDbEntity
  8
0
  6
CONTINUOUS
 62
     7
100
AcDbLine
 10
61.499992
 20
-64.299973
 30
0.0
 11
63.499992
 21
-64.299973
 31
0.0
  0
LINE
  5
92
100
AcDbEntity
  8
0
  6
CONTINUOUS
 62
     7
100
AcDbLine
 10
61.499992
 20
-55.299969
 30
0.0
 11
63.499992
 21
-55.299969
 31
0.0
  0
LINE
  5
93
100
AcDbEntity
  8
0
  6
CONTINUOUS
 62
     7
100
AcDbLine
 10
61.499985
 20
-55.299969
 30
0.0
 11
60.999989
 21
-55.799969
 31
0.0
  0
LINE
  5
94
100
AcDbEntity
  8
0
  6
CONTINUOUS
 62
     7
100
AcDbLine
 10
60.999996
 20
-63.799969
 30
0.0
 11
61.499996
 21
-64.299973
 31
0.0
  0
LINE
  5
95
100
AcDbEntity
  8
0
  6
CONTINUOUS
 62
     7
100
AcDbLine
 10
61.499992
 20
-55.299969
 30
0.0
 11
61.499992
 21
-64.299973
 31
0.0
  0
LINE
  5
96
100
AcDbEntity
  8
0
  6
CONTINUOUS
 62
     7
100
AcDbLine
 10
63.499992
 20
-55.299969
 30
0.0
 11
63.499992
 21
-64.299973
 31
0.0
  0
LINE
  5
97
100
AcDbEntity
  8
0
  6
CONTINUOUS
 62
     7
100
AcDbLine
 10
57.999992
 20
-61.799969
 30
0.0
 11
60.999992
 21
-61.799969
 31
0.0
  0
LINE
  5
98
100
AcDbEntity
  8
0
  6
CONTINUOUS
 62
     7
100
AcDbLine
 10
57.999992
 20
-57.799969
 30
0.0
 11
60.999992
 21
-57.799969
 31
0.0
  0
LINE
  5
99
100
AcDbEntity
  8
0
  6
CONTINUOUS
 62
     7
100
AcDbLine
 10
22.499998
 20
-0.004
 30
0.0
 11
57.999992
 21
-0.004
 31
0.0
  0
LINE
  5
9A
100
AcDbEntity
  8
0
  6
CONTINUOUS
 62
     7
100
AcDbLine
 10
94.593994
 20
-68.299965
 30
0.0
 11
96.593994
 21
-68.299965
 31
0.0
  0
LINE
  5
9B
100
AcDbEntity
  8
0
  6
CONTINUOUS
 62
     7
100
AcDbLine
 10
96.593994
 20
-68.299965
 30
0.0
 11
107.98679
 21
-68.200546
 31
0.0
  0
LINE
  5
9C
100
AcDbEntity
  8
0
  6
CONTINUOUS
 62
     7
100
AcDbLine
 10
109.49999
 20
-66.68734
 30
0.0
 11
107.98679
 21
-68.200539
 31
0.0
  0
LINE
  5
9D
100
AcDbEntity
  8
0
  6
CONTINUOUS
 62
     7
100
AcDbLine
 10
94.593994
 20
-68.299965
 30
0.0
 11
93.783272
 21
-66.072525
 31
0.0
  0
LINE
  5
9E
100
AcDbEntity
  8
0
  6
CONTINUOUS
 62
     7
100
AcDbLine
 10
107.99999
 20
-50.299973
 30
0.0
 11
109.49999
 21
-51.799973
 31
0.0
  0
LINE
  5
9F
100
AcDbEntity
  8
0
  6
CONTINUOUS
 62
     7
100
AcDbLine
 10
21.999998
 20
-66.072525
 30
0.0
 11
57.999992
 21
-66.072525
 31
0.0
  0
LINE
  5
A0
100
AcDbEntity
  8
0
  6
CONTINUOUS
 62
     7
100
AcDbLine
 10
16.158825
 20
-50.299969
 30
0.0
 11
16.158825
 21
-57.420311
 31
0.0
  0
LINE
  5
A1
100
AcDbEntity
  8
0
  6
CONTINUOUS
 62
     7
100
AcDbLine
 10
0.0
 20
0.013
 30
0.0
 11
12.315766
 21
-3.286999
 31
0.0
  0
LINE
  5
A2
100
AcDbEntity
  8
0
  6
CONTINUOUS
 62
     7
100
AcDbLine
 10
0.0
 20
0.013
 30
0.0
 11
4.206803
 21
15.713
 31
0.0
  0
LINE
  5
A3
100
AcDbEntity
  8
0
  6
CONTINUOUS
 62
     7
100
AcDbLine
 10
12.315766
 20
-3.286999
 30
0.0
 11
15.599516
 21
8.968121
 31
0.0
  0
LINE
  5
A4
100
AcDbEntity
  8
0
  6
CENTER
 62
     7
100
AcDbLine
 10
17.0
 20
18.892658
 30
0.0
 11
17.0
 21
-6.877216
 31
0.0
  0
LINE
  5
A5
100
AcDbEntity
  8
0
  6
CONTINUOUS
 62
     7
100
AcDbLine
 10
-44.40432
 20
0.013
 30
0.0
 11
-36.90432
 21
0.013
 31
0.0
  0
LINE
  5
A6
100
AcDbEntity
  8
0
  6
CONTINUOUS
 62
     7
100
AcDbLine
 10
14.999998
 20
-2.287
 30
0.0
 11
21.999998
 21
-1.674579
 31
0.0
  0
LINE
  5
A7
100
AcDbEntity
  8
0
  6
CONTINUOUS
 62
     7
100
AcDbLine
 10
19.876181
 20
-61.152962
 30
0.0
 11
21.999998
 21
-61.925968
 31
0.0
  0
LINE
  5
A8
100
AcDbEntity
  8
0
  6
CONTINUOUS
 62
     7
100
AcDbLine
 10
103.80821
 20
-52.223701
 30
0.0
 11
101.92937
 21
-65.592323
 31
0.0
  0
LINE
  5
A9
100
AcDbEntity
  8
0
  6
CENTER
 62
     7
100
AcDbLine
 10
114.40436
 20
-60.529228
 30
0.0
 11
87.027878
 21
-56.681717
 31
0.0
  0
LINE
  5
AA
100
AcDbEntity
  8
0
  6
CONTINUOUS
 62
     7
100
AcDbLine
 10
101.92937
 20
-65.592323
 30
0.0
 11
94.007233
 21
-64.478935
 31
0.0
  0
LINE
  5
AB
100
AcDbEntity
  8
0
  6
CONTINUOUS
 62
     7
100
AcDbLine
 10
103.80821
 20
-52.223701
 30
0.0
 11
95.88607
 21
-51.110317
 31
0.0
  0
LINE
  5
AC
100
AcDbEntity
  8
0
  6
CONTINUOUS
 62
     7
100
AcDbLine
 10
109.49999
 20
-64.081238
 30
0.0
 11
102.28427
 21
-63.067139
 31
0.0
  0
LINE
  5
AD
100
AcDbEntity
  8
0
  6
CONTINUOUS
 62
     7
100
AcDbLine
 10
109.49999
 20
-55.59869
 30
0.0
 11
103.45332
 21
-54.748886
 31
0.0
  0
LINE
  5
AE
100
AcDbEntity
  8
0
  6
CONTINUOUS
 62
     7
100
AcDbLine
 10
42.249992
 20
-51.110317
 30
0.0
 11
45.749992
 21
-51.110317
 31
0.0
  0
LINE
  5
AF
100
AcDbEntity
  8
0
  6
CONTINUOUS
 62
     7
100
AcDbLine
 10
42.249992
 20
-52.223701
 30
0.0
 11
45.749992
 21
-52.223701
 31
0.0
  0
LINE
  5
B0
100
AcDbEntity
  8
0
  6
CONTINUOUS
 62
     7
100
AcDbLine
 10
42.249992
 20
-54.748886
 30
0.0
 11
45.749992
 21
-54.748886
 31
0.0
  0
LINE
  5
B1
100
AcDbEntity
  8
0
  6
CONTINUOUS
 62
     7
100
AcDbLine
 10
42.249992
 20
-55.59869
 30
0.0
 11
45.749992
 21
-55.59869
 31
0.0
  0
LINE
  5
B2
100
AcDbEntity
  8
0
  6
CONTINUOUS
 62
     7
100
AcDbLine
 10
42.249992
 20
-63.067139
 30
0.0
 11
45.749992
 21
-63.067139
 31
0.0
  0
LINE
  5
B3
100
AcDbEntity
  8
0
  6
CONTINUOUS
 62
     7
100
AcDbLine
 10
42.249992
 20
-64.478935
 30
0.0
 11
45.749992
 21
-64.478935
 31
0.0
  0
LINE
  5
B4
100
AcDbEntity
  8
0
  6
CONTINUOUS
 62
     7
100
AcDbLine
 10
21.999998
 20
-50.299969
 30
0.0
 11
21.999998
 21
-66.072525
 31
0.0
  0
LINE
  5
B5
100
AcDbEntity
  8
0
  6
CONTINUOUS
 62
     7
100
AcDbLine
 10
3.287
 20
-51.654499
 30
0.0
 11
16.174488
 21
-50.299969
 31
0.0
  0
LINE
  5
B6
100
AcDbEntity
  8
0
  6
PHANTOM
 62
     7
100
AcDbLine
 10
3.287
 20
-51.654499
 30
0.0
 11
0.00002
 21
-51.999973
 31
0.0
  0
LINE
  5
B7
100
AcDbEntity
  8
0
  6
CONTINUOUS
 62
     7
100
AcDbLine
 10
3.287
 20
-51.654499
 30
0.0
 11
3.318185
 21
-51.951206
 31
0.0
  0
LINE
  5
B8
100
AcDbEntity
  8
0
  6
CONTINUOUS
 62
     7
100
AcDbLine
 10
16.174488
 20
14.213
 30
0.0
 11
16.174488
 21
8.722022
 31
0.0
  0
LINE
  5
B9
100
AcDbEntity
  8
0
  6
CONTINUOUS
 62
     7
100
AcDbLine
 10
16.174488
 20
14.213
 30
0.0
 11
4.206803
 21
15.713
 31
0.0
  0
LINE
  5
BA
100
AcDbEntity
  8
0
  6
CONTINUOUS
 62
     7
100
AcDbLine
 10
16.174488
 20
4.964146
 30
0.0
 11
16.174488
 21
-2.184245
 31
0.0
  0
LINE
  5
BB
100
AcDbEntity
  8
0
  6
CONTINUOUS
 62
     7
100
AcDbLine
 10
12.583715
 20
-50.677376
 30
0.0
 11
13.116636
 21
-55.747776
 31
0.0
  0
LINE
  5
BC
100
AcDbEntity
  8
0
  6
CONTINUOUS
 62
     7
100
AcDbLine
 10
-52.90432
 20
3.106747
 30
0.0
 11
-44.40432
 21
0.013001
 31
0.0
  0
LINE
  5
BD
100
AcDbEntity
  8
0
  6
CONTINUOUS
 62
     7
100
AcDbLine
 10
22.499998
 20
2.213
 30
0.0
 11
57.999992
 21
2.213
 31
0.0
  0
LINE
  5
BE
100
AcDbEntity
  8
0
  6
CONTINUOUS
 62
     7
100
AcDbLine
 10
0.788301
 20
-59.799953
 30
0.0
 11
3.882055
 21
-68.299973
 31
0.0
  0
LINE
  5
BF
100
AcDbEntity
  8
0
  6
CONTINUOUS
 62
     7
100
AcDbLine
 10
8.583716
 20
-59.799953
 30
0.0
 11
8.583716
 21
-68.299973
 31
0.0
  0
LINE
  5
C0
100
AcDbEntity
  8
0
  6
CONTINUOUS
 62
     7
100
AcDbLine
 10
12.315766
 20
-51.005524
 30
0.0
 11
12.817501
 21
-55.779217
 31
0.0
  0
LINE
  5
C1
100
AcDbEntity
  8
0
  6
CONTINUOUS
 62
     7
100
AcDbLine
 10
-36.90432
 20
0.013
 30
0.0
 11
-35.609921
 21
-3.287
 31
0.0
  0
LINE
  5
C2
100
AcDbEntity
  8
0
  6
CONTINUOUS
 62
     7
100
AcDbLine
 10
-42.060364
 20
0.013001
 30
0.0
 11
-40.765965
 21
-3.286999
 31
0.0
  0
LINE
  5
C3
100
AcDbEntity
  8
0
  6
CONTINUOUS
 62
     7
100
AcDbLine
 10
-36.462181
 20
15.713
 30
0.0
 11
-36.90432
 21
0.013
 31
0.0
  0
LINE
  5
C4
100
AcDbEntity
  8
0
  6
CONTINUOUS
 62
     7
100
AcDbLine
 10
-41.715267
 20
12.267249
 30
0.0
 11
-42.056282
 21
0.158088
 31
0.0
  0
LINE
  5
C5
100
AcDbEntity
  8
0
  6
CONTINUOUS
 62
     7
100
AcDbLine
 10
-35.26482
 20
8.96725
 30
0.0
 11
-35.609921
 21
-3.287
 31
0.0
  0
LINE
  5
C6
100
AcDbEntity
  8
0
  6
CONTINUOUS
 62
     7
100
AcDbLine
 10
-36.559219
 20
12.267248
 30
0.0
 11
-35.26482
 21
8.967249
 31
0.0
  0
CIRCLE
  5
C7
100
AcDbEntity
  8
0
  6
CONTINUOUS
 62
     7
100
AcDbCircle
 10
7.807883
 20
4.520884
 30
0.0
 40
2.599999
  0
CIRCLE
  5
C8
100
AcDbEntity
  8
0
  6
CONTINUOUS
 62
     7
100
AcDbCircle
 10
17.0
 20
-60.299969
 30
0.0
 40
3.0
  0
CIRCLE
  5
C9
100
AcDbEntity
  8
0
  6
CONTINUOUS
 62
     7
100
AcDbCircle
 10
17.0
 20
-60.299969
 30
0.0
 40
2.5
  0
ARC
  5
CA
100
AcDbEntity
  8
0
  6
CONTINUOUS
 62
     7
100
AcDbCircle
 10
15.030114
 20
6.843084
 30
0.0
 40
2.2
100
AcDbArc
 50
255.0
 51
74.999999
  0
ARC
  5
CB
100
AcDbEntity
  8
0
  6
CONTINUOUS
 62
     7
100
AcDbCircle
 10
22.499998
 20
-0.504
 30
0.0
 40
0.5
100
AcDbArc
 50
90.000003
 51
180.00001
  0
ARC
  5
CC
100
AcDbEntity
  8
0
  6
CONTINUOUS
 62
     7
100
AcDbCircle
 10
22.499998
 20
1.713
 30
0.0
 40
0.5
100
AcDbArc
 50
90.000003
 51
180.00001
  0
LWPOLYLINE
  5
CD
100
AcDbEntity
  8
0
  6
CONTINUOUS
 62
     7
100
AcDbPolyline
 90
       17
 70
     0
 43
0.0
 10
42.249992
 20
-51.110317
 42
0.048416
 10
40.93957
 20
-51.23749
 42
0.048522
 10
39.678111
 20
-51.614535
 42
0.048718
 10
38.513145
 20
-52.228081
 42
0.048977
 10
37.489277
 20
-53.056002
 42
0.049271
 10
36.646388
 20
-54.067993
 42
0.049546
 10
36.018291
 20
-55.225955
 42
0.049752
 10
35.630802
 20
-56.485066
 42
0.049813
 10
35.499992
 20
-57.794628
 42
0.049822
 10
35.630849
 20
-59.104421
 42
0.049704
 10
36.017897
 20
-60.362361
 42
0.04952
 10
36.645425
 20
-61.519842
 42
0.049257
 10
37.487792
 20
-62.531789
 42
0.048988
 10
38.511624
 20
-63.360171
 42
0.048743
 10
39.677052
 20
-63.974286
 42
0.048553
 10
40.939277
 20
-64.351706
 42
0.048427
 10
42.249992
 20
-64.478935
  0
LWPOLYLINE
  5
E0
100
AcDbEntity
  8
0
  6
CONTINUOUS
 62
     7
100
AcDbPolyline
 90
       17
 70
     0
 43
0.0
 10
42.249992
 20
-52.223701
 42
0.020581
 10
41.639016
 20
-52.248855
 42
0.020698
 10
41.031384
 20
-52.324387
 42
0.020877
 10
40.432098
 20
-52.450108
 42
0.021141
 10
39.845519
 20
-52.625656
 42
0.021493
 10
39.27602
 20
-52.8505
 42
0.021926
 10
38.728138
 20
-53.123881
 42
0.022437
 10
38.206588
 20
-53.44474
 42
0.023014
 10
37.716264
 20
-53.811635
 42
0.023645
 10
37.262209
 20
-54.222645
 42
0.024311
 10
36.84956
 20
-54.675272
 42
0.024989
 10
36.483444
 20
-55.166339
 42
0.025651
 10
36.168842
 20
-55.691911
 42
0.026261
 10
35.910405
 20
-56.247244
 42
0.026786
 10
35.712241
 20
-56.826787
 42
0.027191
 10
35.577693
 20
-57.424246
 42
0.027446
 10
35.509122
 20
-58.032726
  0
LWPOLYLINE
  5
F3
100
AcDbEntity
  8
0
  6
CONTINUOUS
 62
     7
100
AcDbPolyline
 90
       17
 70
     0
 43
0.0
 10
42.249992
 20
-54.748886
 42
0.048369
 10
41.435405
 20
-54.827862
 42
0.048522
 10
40.650453
 20
-55.062318
 42
0.048718
 10
39.925513
 20
-55.443942
 42
0.048977
 10
39.28834
 20
-55.958972
 42
0.04927
 10
38.763755
 20
-56.588553
 42
0.049546
 10
38.3728
 20
-57.308988
 42
0.049752
 10
38.131543
 20
-58.092388
 42
0.049862
 10
38.049992
 20
-58.908012
 42
0.049822
 10
38.131414
 20
-59.722994
 42
0.049704
 10
38.372243
 20
-60.505713
 42
0.04952
 10
38.762705
 20
-61.225923
 42
0.049257
 10
39.286845
 20
-61.85558
 42
0.048988
 10
39.923895
 20
-62.371018
 42
0.048743
 10
40.649051
 20
-62.753134
 42
0.048553
 10
41.434435
 20
-62.987973
 42
0.048427
 10
42.249992
 20
-63.067139
  0
LWPOLYLINE
  5
106
100
AcDbEntity
  8
0
  6
CONTINUOUS
 62
     7
100
AcDbPolyline
 90
       17
 70
     0
 43
0.0
 10
42.249992
 20
-55.59869
 42
0.019741
 10
41.87768
 20
-55.613391
 42
0.019892
 10
41.506705
 20
-55.657632
 42
0.020049
 10
41.141159
 20
-55.731178
 42
0.020341
 10
40.782759
 20
-55.833963
 42
0.020731
 10
40.433994
 20
-55.965797
 42
0.021217
 10
40.097479
 20
-56.12639
 42
0.021794
 10
39.775973
 20
-56.315306
 42
0.022454
 10
39.472384
 20
-56.531908
 42
0.023185
 10
39.189768
 20
-56.775294
 42
0.02397
 10
38.931301
 20
-57.044227
 42
0.024784
 10
38.700225
 20
-57.337053
 42
0.025593
 10
38.499767
 20
-57.651638
 42
0.026358
 10
38.333021
 20
-57.985305
 42
0.027033
 10
38.202796
 20
-58.334818
 42
0.027571
 10
38.111455
 20
-58.696403
 42
0.027932
 10
38.060748
 20
-59.065825
  0
LWPOLYLINE
  5
119
100
AcDbEntity
  8
0
  6
CONTINUOUS
 62
     7
100
AcDbPolyline
 90
       17
 70
     0
 43
0.0
 10
45.749992
 20
-54.748886
 42
-0.048369
 10
46.56458
 20
-54.827862
 42
-0.048522
 10
47.349532
 20
-55.062318
 42
-0.048718
 10
48.074472
 20
-55.443942
 42
-0.048977
 10
48.711645
 20
-55.958972
 42
-0.04927
 10
49.23623
 20
-56.588553
 42
-0.049546
 10
49.627185
 20
-57.308988
 42
-0.049752
 10
49.868441
 20
-58.092388
 42
-0.049862
 10
49.949993
 20
-58.908012
 42
-0.049822
 10
49.868571
 20
-59.722994
 42
-0.049704
 10
49.627742
 20
-60.505713
 42
-0.04952
 10
49.23728
 20
-61.225923
 42
-0.049257
 10
48.71314
 20
-61.85558
 42
-0.048988
 10
48.076089
 20
-62.371018
 42
-0.048743
 10
47.350934
 20
-62.753134
 42
-0.048553
 10
46.565549
 20
-62.987973
 42
-0.048427
 10
45.749992
 20
-63.067139
  0
LWPOLYLINE
  5
12C
100
AcDbEntity
  8
0
  6
CONTINUOUS
 62
     7
100
AcDbPolyline
 90
       17
 70
     0
 43
0.0
 10
45.749992
 20
-55.59869
 42
-0.019741
 10
46.122305
 20
-55.613391
 42
-0.019892
 10
46.49328
 20
-55.657632
 42
-0.020049
 10
46.858825
 20
-55.731178
 42
-0.020341
 10
47.217226
 20
-55.833963
 42
-0.020731
 10
47.565991
 20
-55.965797
 42
-0.021217
 10
47.902506
 20
-56.12639
 42
-0.021794
 10
48.224012
 20
-56.315306
 42
-0.022454
 10
48.527601
 20
-56.531908
 42
-0.023185
 10
48.810217
 20
-56.775294
 42
-0.02397
 10
49.068684
 20
-57.044227
 42
-0.024784
 10
49.29976
 20
-57.337053
 42
-0.025593
 10
49.500217
 20
-57.651638
 42
-0.026358
 10
49.666964
 20
-57.985305
 42
-0.027033
 10
49.797189
 20
-58.334818
 42
-0.027571
 10
49.888529
 20
-58.696403
 42
-0.027932
 10
49.939236
 20
-59.065825
  0
LWPOLYLINE
  5
13F
100
AcDbEntity
  8
0
  6
CONTINUOUS
 62
     7
100
AcDbPolyline
 90
       17
 70
     0
 43
0.0
 10
45.749992
 20
-52.223701
 42
-0.020581
 10
46.360969
 20
-52.248855
 42
-0.020698
 10
46.9686
 20
-52.324387
 42
-0.020877
 10
47.567887
 20
-52.450108
 42
-0.021141
 10
48.154466
 20
-52.625656
 42
-0.021493
 10
48.723964
 20
-52.8505
 42
-0.021926
 10
49.271847
 20
-53.123881
 42
-0.022437
 10
49.793397
 20
-53.44474
 42
-0.023014
 10
50.283721
 20
-53.811635
 42
-0.023645
 10
50.737776
 20
-54.222645
 42
-0.024311
 10
51.150425
 20
-54.675272
 42
-0.024989
 10
51.51654
 20
-55.166339
 42
-0.025651
 10
51.831143
 20
-55.691911
 42
-0.026261
 10
52.08958
 20
-56.247244
 42
-0.026786
 10
52.287743
 20
-56.826787
 42
-0.027191
 10
52.422292
 20
-57.424246
 42
-0.027446
 10
52.490863
 20
-58.032726
  0
LWPOLYLINE
  5
152
100
AcDbEntity
  8
0
  6
CONTINUOUS
 62
     7
100
AcDbPolyline
 90
       17
 70
     0
 43
0.0
 10
45.749992
 20
-51.110317
 42
-0.048416
 10
47.060415
 20
-51.23749
 42
-0.048522
 10
48.321874
 20
-51.614535
 42
-0.048718
 10
49.486839
 20
-52.228081
 42
-0.048977
 10
50.510708
 20
-53.056002
 42
-0.049271
 10
51.353597
 20
-54.067993
 42
-0.049546
 10
51.981693
 20
-55.225955
 42
-0.049752
 10
52.369182
 20
-56.485066
 42
-0.049813
 10
52.499992
 20
-57.794628
 42
-0.049822
 10
52.369136
 20
-59.104421
 42
-0.049704
 10
51.982088
 20
-60.362361
 42
-0.04952
 10
51.35456
 20
-61.519842
 42
-0.049257
 10
50.512193
 20
-62.531789
 42
-0.048988
 10
49.488361
 20
-63.360171
 42
-0.048743
 10
48.322933
 20
-63.974286
 42
-0.048553
 10
47.060707
 20
-64.351706
 42
-0.048427
 10
45.749992
 20
-64.478935
  0
LWPOLYLINE
  5
165
100
AcDbEntity
  8
0
  6
CONTINUOUS
 62
     7
100
AcDbPolyline
 90
       16
 70
     1
 43
0.0
 10
52.499992
 20
1.159659
 42
0.13236
 10
50.484205
 20
1.767065
 42
0.015599
 10
48.329058
 20
1.968111
 42
0.008969
 10
46.16628
 20
2.068056
 42
0.007248
 10
43.999992
 20
2.099077
 42
0.007243
 10
41.83509
 20
2.068097
 42
0.00897
 10
39.671624
 20
1.968156
 42
0.015605
 10
37.515417
 20
1.767018
 42
0.132457
 10
35.499992
 20
1.159659
 42
0.13236
 10
37.51578
 20
0.552252
 42
0.015599
 10
39.670926
 20
0.351206
 42
0.008969
 10
41.833705
 20
0.251261
 42
0.007248
 10
43.999992
 20
0.22024
 42
0.007243
 10
46.164895
 20
0.251221
 42
0.00897
 10
48.328361
 20
0.351161
 42
0.015605
 10
50.484567
 20
0.552299
 42
0.132457
  0
LINE
  5
177
100
AcDbEntity
  8
0
  6
CONTINUOUS
 62
     7
100
AcDbLine
 10
106.90231
 20
-68.210003
 30
0.0
 11
109.49999
 21
-65.612314
 31
0.0
  0
LINE
  5
178
100
AcDbEntity
  8
0
  6
CONTINUOUS
 62
     7
100
AcDbLine
 10
104.63748
 20
-68.229768
 30
0.0
 11
108.87398
 21
-63.993264
 31
0.0
  0
LINE
  5
179
100
AcDbEntity
  8
0
  6
CONTINUOUS
 62
     7
100
AcDbLine
 10
102.37265
 20
-68.249534
 30
0.0
 11
106.90556
 21
-63.71662
 31
0.0
  0
LINE
  5
17A
100
AcDbEntity
  8
0
  6
CONTINUOUS
 62
     7
100
AcDbLine
 10
100.10783
 20
-68.269299
 30
0.0
 11
104.93714
 21
-63.439976
 31
0.0
  0
LINE
  5
17B
100
AcDbEntity
  8
0
  6
CONTINUOUS
 62
     7
100
AcDbLine
 10
97.843
 20
-68.289065
 30
0.0
 11
100.71097
 21
-65.421087
 31
0.0
  0
LINE
  5
17C
100
AcDbEntity
  8
0
  6
CONTINUOUS
 62
     7
100
AcDbLine
 10
102.15662
 20
-63.97544
 30
0.0
 11
102.96872
 21
-63.163332
 31
0.0
  0
LINE
  5
17D
100
AcDbEntity
  8
0
  6
CONTINUOUS
 62
     7
100
AcDbLine
 10
95.587038
 20
-68.299965
 30
0.0
 11
98.742553
 21
-65.144443
 31
0.0
  0
LINE
  5
17E
100
AcDbEntity
  8
0
  6
CONTINUOUS
 62
     7
100
AcDbLine
 10
94.259898
 20
-67.382041
 30
0.0
 11
96.774135
 21
-64.867799
 31
0.0
  0
LINE
  5
17F
100
AcDbEntity
  8
0
  6
CONTINUOUS
 62
     7
100
AcDbLine
 10
93.858314
 20
-65.53856
 30
0.0
 11
94.805717
 21
-64.591155
 31
0.0
  0
LINE
  5
180
100
AcDbEntity
  8
0
  6
CONTINUOUS
 62
     7
100
AcDbLine
 10
108.4376
 20
-55.44938
 30
0.0
 11
109.49999
 21
-54.386983
 31
0.0
  0
LINE
  5
181
100
AcDbEntity
  8
0
  6
CONTINUOUS
 62
     7
100
AcDbLine
 10
106.46918
 20
-55.172737
 30
0.0
 11
109.49999
 21
-52.141917
 31
0.0
  0
LINE
  5
182
100
AcDbEntity
  8
0
  6
CONTINUOUS
 62
     7
100
AcDbLine
 10
104.50076
 20
-54.896094
 30
0.0
 11
108.54843
 21
-50.848412
 31
0.0
  0
LINE
  5
183
100
AcDbEntity
  8
0
  6
CONTINUOUS
 62
     7
100
AcDbLine
 10
103.62509
 20
-53.526699
 30
0.0
 11
106.85181
 21
-50.299972
 31
0.0
  0
LINE
  5
184
100
AcDbEntity
  8
0
  6
CONTINUOUS
 62
     7
100
AcDbLine
 10
102.82167
 20
-52.085052
 30
0.0
 11
104.60675
 21
-50.299971
 31
0.0
  0
LINE
  5
185
100
AcDbEntity
  8
0
  6
CONTINUOUS
 62
     7
100
AcDbLine
 10
100.85325
 20
-51.808409
 30
0.0
 11
102.36169
 21
-50.299971
 31
0.0
  0
LINE
  5
186
100
AcDbEntity
  8
0
  6
CONTINUOUS
 62
     7
100
AcDbLine
 10
98.884833
 20
-51.531766
 30
0.0
 11
100.11663
 21
-50.29997
 31
0.0
  0
LINE
  5
187
100
AcDbEntity
  8
0
  6
CONTINUOUS
 62
     7
100
AcDbLine
 10
96.916414
 20
-51.255123
 30
0.0
 11
97.871565
 21
-50.299969
 31
0.0
  0
TEXT
  5
188
100
AcDbEntity
  8
0
  6
CONTINUOUS
100
AcDbText
 10
11.860743
 20
-98.871729
 30
0.0
 40
6.0
  1
ＢＵ１１５Ｒ
100
AcDbText
  0
ENDBLK
  5
18A
100
AcDbEntity
  8
0
100
AcDbBlockEnd
  0
BLOCK
  5
2DF
100
AcDbEntity
  8
0
100
AcDbBlockBegin
  2
*D2
 70
     1
 10
0.0
 20
0.0
 30
0.0
  3
*D2
  1

  0
LINE
  5
2D6
100
AcDbEntity
  8
寸法
 62
     1
100
AcDbLine
 10
184.760584
 20
81.011014
 30
0.0
 11
184.760584
 21
101.0
 31
0.0
1001
ACAD
1000
RTLwPs
1070
   158
  0
LINE
  5
2D7
100
AcDbEntity
  8
寸法
 62
     1
100
AcDbLine
 10
162.760584
 20
91.505658
 30
0.0
 11
162.760584
 21
101.0
 31
0.0
1001
ACAD
1000
RTLwPs
1070
   158
  0
LINE
  5
2D8
100
AcDbEntity
  8
寸法
 62
     1
100
AcDbLine
 10
182.760584
 20
100.0
 30
0.0
 11
164.760584
 21
100.0
 31
0.0
1001
ACAD
1000
RTLwPs
1070
   158
  0
INSERT
  5
2D9
100
AcDbEntity
  8
寸法
 62
     1
100
AcDbBlockReference
  2
_OPEN30
 10
184.760584
 20
100.0
 30
0.0
 41
2.0
 42
2.0
 43
2.0
1001
ACAD
1000
RTLwPs
1070
   158
  0
INSERT
  5
2DA
100
AcDbEntity
  8
寸法
 62
     1
100
AcDbBlockReference
  2
_OPEN30
 10
162.760584
 20
100.0
 30
0.0
 41
2.0
 42
2.0
 43
2.0
 50
180.0
1001
ACAD
1000
RTLwPs
1070
   158
  0
MTEXT
  5
2DB
100
AcDbEntity
  8
寸法
 62
     1
100
AcDbMText
 10
173.760584
 20
102.5
 30
0.0
 40
3.0
 41
0.0
 71
     5
 72
     1
  1
\A1;22
1001
ACAD
1000
MTEXTBEGIN
1070
    73
1070
     1
1070
    44
1040
1.0
1070
    74
1070
     0
1000
MTEXTEND
  0
POINT
  5
2DC
100
AcDbEntity
  8
DEFPOINTS
 62
     0
100
AcDbPoint
 10
184.760584
 20
80.011014
 30
0.0
  0
POINT
  5
2DD
100
AcDbEntity
  8
DEFPOINTS
 62
     0
100
AcDbPoint
 10
162.760584
 20
90.505658
 30
0.0
  0
POINT
  5
2DE
100
AcDbEntity
  8
DEFPOINTS
 62
     0
100
AcDbPoint
 10
162.760584
 20
100.0
 30
0.0
  0
ENDBLK
  5
2E0
100
AcDbEntity
  8
0
100
AcDbBlockEnd
  0
BLOCK
  5
2EC
100
AcDbEntity
  8
0
100
AcDbBlockBegin
  2
*D3
 70
     1
 10
0.0
 20
0.0
 30
0.0
  3
*D3
  1

  0
LINE
  5
2E3
100
AcDbEntity
  8
寸法
 62
     1
100
AcDbLine
 10
177.760584
 20
69.51101
 30
0.0
 11
201.0
 21
69.51101
 31
0.0
1001
ACAD
1000
RTLwPs
1070
   158
  0
LINE
  5
2E4
100
AcDbEntity
  8
寸法
 62
     1
100
AcDbLine
 10
177.760584
 20
87.511014
 30
0.0
 11
201.0
 21
87.511014
 31
0.0
1001
ACAD
1000
RTLwPs
1070
   158
  0
LINE
  5
2E5
100
AcDbEntity
  8
寸法
 62
     1
100
AcDbLine
 10
200.0
 20
71.51101
 30
0.0
 11
200.0
 21
85.511014
 31
0.0
1001
ACAD
1000
RTLwPs
1070
   158
  0
INSERT
  5
2E6
100
AcDbEntity
  8
寸法
 62
     1
100
AcDbBlockReference
  2
_OPEN30
 10
200.0
 20
69.51101
 30
0.0
 41
2.0
 42
2.0
 43
2.0
 50
270.0
1001
ACAD
1000
RTLwPs
1070
   158
  0
INSERT
  5
2E7
100
AcDbEntity
  8
寸法
 62
     1
100
AcDbBlockReference
  2
_OPEN30
 10
200.0
 20
87.511014
 30
0.0
 41
2.0
 42
2.0
 43
2.0
 50
90.0
1001
ACAD
1000
RTLwPs
1070
   158
  0
MTEXT
  5
2E8
100
AcDbEntity
  8
寸法
 62
     1
100
AcDbMText
 10
197.5
 20
78.511012
 30
0.0
 40
3.0
 41
0.0
 71
     5
 72
     1
  1
\A1;18
 11
0.0
 21
1.0
 31
0.0
1001
ACAD
1000
MTEXTBEGIN
1070
    73
1070
     1
1070
    44
1040
1.0
1070
    74
1070
     0
1000
MTEXTEND
  0
POINT
  5
2E9
100
AcDbEntity
  8
DEFPOINTS
 62
     0
100
AcDbPoint
 10
176.760584
 20
69.51101
 30
0.0
  0
POINT
  5
2EA
100
AcDbEntity
  8
DEFPOINTS
 62
     0
100
AcDbPoint
 10
176.760584
 20
87.511014
 30
0.0
  0
POINT
  5
2EB
100
AcDbEntity
  8
DEFPOINTS
 62
     0
100
AcDbPoint
 10
200.0
 20
87.511014
 30
0.0
  0
ENDBLK
  5
2ED
100
AcDbEntity
  8
0
100
AcDbBlockEnd
  0
BLOCK
  5
2FB
100
AcDbEntity
  8
0
100
AcDbBlockBegin
  2
*D4
 70
     1
 10
0.0
 20
0.0
 30
0.0
  3
*D4
  1

  0
LINE
  5
2F0
100
AcDbEntity
  8
寸法
 62
     1
100
AcDbLine
 10
161.010584
 20
65.505655
 30
0.0
 11
161.010584
 21
59.0
 31
0.0
1001
ACAD
1000
RTLwPs
1070
   158
  0
LINE
  5
2F1
100
AcDbEntity
  8
寸法
 62
     1
100
AcDbLine
 10
164.510584
 20
65.505655
 30
0.0
 11
164.510584
 21
59.0
 31
0.0
1001
ACAD
1000
RTLwPs
1070
   158
  0
LINE
  5
2F2
100
AcDbEntity
  8
寸法
 62
     1
100
AcDbLine
 10
159.010584
 20
60.0
 30
0.0
 11
157.010584
 21
60.0
 31
0.0
1001
ACAD
1000
RTLwPs
1070
   158
  0
LINE
  5
2F3
100
AcDbEntity
  8
寸法
 62
     1
100
AcDbLine
 10
166.510584
 20
60.0
 30
0.0
 11
176.510584
 21
60.0
 31
0.0
1001
ACAD
1000
RTLwPs
1070
   158
  0
LINE
  5
2F4
100
AcDbEntity
  8
寸法
 62
     1
100
AcDbLine
 10
161.010584
 20
60.0
 30
0.0
 11
164.510584
 21
60.0
 31
0.0
1001
ACAD
1000
RTLwPs
1070
   158
  0
INSERT
  5
2F5
100
AcDbEntity
  8
寸法
 62
     1
100
AcDbBlockReference
  2
_OPEN30
 10
161.010584
 20
60.0
 30
0.0
 41
2.0
 42
2.0
 43
2.0
1001
ACAD
1000
RTLwPs
1070
   158
  0
INSERT
  5
2F6
100
AcDbEntity
  8
寸法
 62
     1
100
AcDbBlockReference
  2
_OPEN30
 10
164.510584
 20
60.0
 30
0.0
 41
2.0
 42
2.0
 43
2.0
 50
180.0
1001
ACAD
1000
RTLwPs
1070
   158
  0
MTEXT
  5
2F7
100
AcDbEntity
  8
寸法
 62
     1
100
AcDbMText
 10
172.510584
 20
62.5
 30
0.0
 40
3.0
 41
0.0
 71
     5
 72
     1
  1
\A1;3.5
1001
ACAD
1000
MTEXTBEGIN
1070
    73
1070
     1
1070
    44
1040
1.0
1070
    74
1070
     0
1000
MTEXTEND
  0
POINT
  5
2F8
100
AcDbEntity
  8
DEFPOINTS
 62
     0
100
AcDbPoint
 10
161.010584
 20
66.505655
 30
0.0
  0
POINT
  5
2F9
100
AcDbEntity
  8
DEFPOINTS
 62
     0
100
AcDbPoint
 10
164.510584
 20
66.505655
 30
0.0
  0
POINT
  5
2FA
100
AcDbEntity
  8
DEFPOINTS
 62
     0
100
AcDbPoint
 10
164.510584
 20
60.0
 30
0.0
  0
ENDBLK
  5
2FC
100
AcDbEntity
  8
0
100
AcDbBlockEnd
  0
BLOCK
  5
308
100
AcDbEntity
  8
0
100
AcDbBlockBegin
  2
*D5
 70
     1
 10
0.0
 20
0.0
 30
0.0
  3
*D5
  1

  0
LINE
  5
2FF
100
AcDbEntity
  8
寸法
 62
     1
100
AcDbLine
 10
121.642647
 20
69.51101
 30
0.0
 11
109.0
 21
69.51101
 31
0.0
1001
ACAD
1000
RTLwPs
1070
   158
  0
LINE
  5
300
100
AcDbEntity
  8
寸法
 62
     1
100
AcDbLine
 10
117.760615
 20
85.511022
 30
0.0
 11
109.0
 21
85.511022
 31
0.0
1001
ACAD
1000
RTLwPs
1070
   158
  0
LINE
  5
301
100
AcDbEntity
  8
寸法
 62
     1
100
AcDbLine
 10
110.0
 20
71.51101
 30
0.0
 11
110.0
 21
83.511022
 31
0.0
1001
ACAD
1000
RTLwPs
1070
   158
  0
INSERT
  5
302
100
AcDbEntity
  8
寸法
 62
     1
100
AcDbBlockReference
  2
_OPEN30
 10
110.0
 20
69.51101
 30
0.0
 41
2.0
 42
2.0
 43
2.0
 50
270.0
1001
ACAD
1000
RTLwPs
1070
   158
  0
INSERT
  5
303
100
AcDbEntity
  8
寸法
 62
     1
100
AcDbBlockReference
  2
_OPEN30
 10
110.0
 20
85.511022
 30
0.0
 41
2.0
 42
2.0
 43
2.0
 50
90.0
1001
ACAD
1000
RTLwPs
1070
   158
  0
MTEXT
  5
304
100
AcDbEntity
  8
寸法
 62
     1
100
AcDbMText
 10
107.5
 20
77.511016
 30
0.0
 40
3.0
 41
0.0
 71
     5
 72
     1
  1
\A1;16
 11
0.0
 21
1.0
 31
0.0
1001
ACAD
1000
MTEXTBEGIN
1070
    73
1070
     1
1070
    44
1040
1.0
1070
    74
1070
     0
1000
MTEXTEND
  0
POINT
  5
305
100
AcDbEntity
  8
DEFPOINTS
 62
     0
100
AcDbPoint
 10
122.642647
 20
69.51101
 30
0.0
  0
POINT
  5
306
100
AcDbEntity
  8
DEFPOINTS
 62
     0
100
AcDbPoint
 10
118.760615
 20
85.511022
 30
0.0
  0
POINT
  5
307
100
AcDbEntity
  8
DEFPOINTS
 62
     0
100
AcDbPoint
 10
110.0
 20
85.511022
 30
0.0
  0
ENDBLK
  5
309
100
AcDbEntity
  8
0
100
AcDbBlockEnd
  0
BLOCK
  5
31B
100
AcDbEntity
  8
0
100
AcDbBlockBegin
  2
*D6
 70
     1
 10
0.0
 20
0.0
 30
0.0
  3
*D6
  1

  0
LINE
  5
49A
100
AcDbEntity
  8
寸法
 62
     1
100
AcDbLine
 10
133.93508
 20
87.511014
 30
0.0
 11
99.043241
 21
87.511014
 31
0.0
  0
LINE
  5
49B
100
AcDbEntity
  8
寸法
 62
     1
100
AcDbLine
 10
117.766093
 20
85.406493
 30
0.0
 11
99.255496
 21
83.46095
 31
0.0
  0
ARC
  5
49C
100
AcDbEntity
  8
寸法
 62
     1
100
AcDbCircle
 10
137.789255
 20
87.511014
 30
0.0
 40
37.746015
100
AcDbArc
 50
173.925438
 51
180.0
  0
LINE
  5
49D
100
AcDbEntity
  8
寸法
 62
     1
100
AcDbLine
 10
100.255184
 20
91.505395
 30
0.0
 11
101.165258
 21
100.057106
 31
0.0
  0
ARC
  5
49E
100
AcDbEntity
  8
寸法
 62
     1
100
AcDbCircle
 10
137.789255
 20
87.511014
 30
0.0
 40
37.746015
100
AcDbArc
 50
173.927573
 51
176.963786
  0
ARC
  5
49F
100
AcDbEntity
  8
寸法
 62
     1
100
AcDbCircle
 10
137.789255
 20
87.511014
 30
0.0
 40
37.746015
100
AcDbArc
 50
189.036218
 51
192.072431
  0
ARC
  5
4A0
100
AcDbEntity
  8
寸法
 62
     1
100
AcDbCircle
 10
137.789255
 20
87.511014
 30
0.0
 40
37.746015
100
AcDbArc
 50
180.0
 51
186.000004
  0
INSERT
  5
4A1
100
AcDbEntity
  8
寸法
 62
     1
100
AcDbBlockReference
  2
_OPEN30
 10
100.043241
 20
87.511014
 30
0.0
 41
2.0
 42
2.0
 43
2.0
 50
268.481893
  0
INSERT
  5
4A2
100
AcDbEntity
  8
寸法
 62
     1
100
AcDbBlockReference
  2
_OPEN30
 10
100.250018
 20
83.565478
 30
0.0
 41
2.0
 42
2.0
 43
2.0
 50
97.518111
  0
MTEXT
  5
4A3
100
AcDbEntity
  8
寸法
 62
     1
100
AcDbMText
 10
103.196183
 20
95.516694
 30
0.0
 40
3.0
 41
0.0
 71
     5
 72
     1
  1
\A1;6°
 11
-0.105823
 21
-0.994385
 31
0.0
  0
POINT
  5
4A4
100
AcDbEntity
  8
DEFPOINTS
 62
     0
100
AcDbPoint
 10
100.135188
 20
84.877983
 30
0.0
  0
POINT
  5
4A5
100
AcDbEntity
  8
DEFPOINTS
 62
     0
100
AcDbPoint
 10
134.93508
 20
87.511014
 30
0.0
  0
POINT
  5
4A6
100
AcDbEntity
  8
DEFPOINTS
 62
     0
100
AcDbPoint
 10
118.760615
 20
85.511022
 30
0.0
  0
POINT
  5
4A7
100
AcDbEntity
  8
DEFPOINTS
 62
     0
100
AcDbPoint
 10
131.375493
 20
86.8369
 30
0.0
  0
POINT
  5
4A8
100
AcDbEntity
  8
DEFPOINTS
 62
     0
100
AcDbPoint
 10
176.760584
 20
87.511014
 30
0.0
  0
ENDBLK
  5
31C
100
AcDbEntity
  8
0
100
AcDbBlockEnd
  0
BLOCK
  5
359
100
AcDbEntity
  8
0
100
AcDbBlockBegin
  2
*D7
 70
     1
 10
0.0
 20
0.0
 30
0.0
  3
*D7
  1

  0
LINE
  5
34F
100
AcDbEntity
  8
寸法
 62
     1
100
AcDbLine
 10
229.260582
 20
77.971019
 30
0.0
 11
241.0
 21
77.971019
 31
0.0
1001
ACAD
1000
RTLwPs
1070
   158
  0
LINE
  5
350
100
AcDbEntity
  8
寸法
 62
     1
100
AcDbLine
 10
227.647956
 20
69.511018
 30
0.0
 11
241.0
 21
69.511018
 31
0.0
1001
ACAD
1000
RTLwPs
1070
   158
  0
LINE
  5
351
100
AcDbEntity
  8
寸法
 62
     1
100
AcDbLine
 10
240.0
 20
75.971019
 30
0.0
 11
240.0
 21
71.511018
 31
0.0
1001
ACAD
1000
RTLwPs
1070
   158
  0
LINE
  5
352
100
AcDbEntity
  8
寸法
 62
     1
100
AcDbLine
 10
240.0
 20
69.511018
 30
0.0
 11
240.0
 21
56.511018
 31
0.0
1001
ACAD
1000
RTLwPs
1070
   158
  0
INSERT
  5
353
100
AcDbEntity
  8
寸法
 62
     1
100
AcDbBlockReference
  2
_OPEN30
 10
240.0
 20
77.971019
 30
0.0
 41
2.0
 42
2.0
 43
2.0
 50
90.0
1001
ACAD
1000
RTLwPs
1070
   158
  0
INSERT
  5
354
100
AcDbEntity
  8
寸法
 62
     1
100
AcDbBlockReference
  2
_OPEN30
 10
240.0
 20
69.511018
 30
0.0
 41
2.0
 42
2.0
 43
2.0
 50
270.0
1001
ACAD
1000
RTLwPs
1070
   158
  0
MTEXT
  5
355
100
AcDbEntity
  8
寸法
 62
     1
100
AcDbMText
 10
237.5
 20
62.011018
 30
0.0
 40
3.0
 41
0.0
 71
     5
 72
     1
  1
\A1;8.46
 11
0.0
 21
1.0
 31
0.0
1001
ACAD
1000
MTEXTBEGIN
1070
    73
1070
     1
1070
    44
1040
1.0
1070
    74
1070
     0
1000
MTEXTEND
  0
POINT
  5
356
100
AcDbEntity
  8
DEFPOINTS
 62
     0
100
AcDbPoint
 10
228.260582
 20
77.971019
 30
0.0
  0
POINT
  5
357
100
AcDbEntity
  8
DEFPOINTS
 62
     0
100
AcDbPoint
 10
226.647956
 20
69.511018
 30
0.0
  0
POINT
  5
358
100
AcDbEntity
  8
DEFPOINTS
 62
     0
100
AcDbPoint
 10
240.0
 20
69.511018
 30
0.0
  0
ENDBLK
  5
35A
100
AcDbEntity
  8
0
100
AcDbBlockEnd
  0
BLOCK
  5
380
100
AcDbEntity
  8
0
100
AcDbBlockBegin
  2
*D8
 70
     1
 10
0.0
 20
0.0
 30
0.0
  3
*D8
  1

  0
LINE
  5
3EC
100
AcDbEntity
  8
寸法
 62
     1
100
AcDbLine
 10
184.760577
 20
137.853566
 30
0.0
 11
184.760577
 21
109.0
 31
0.0
1001
ACAD
1000
RTLwPs
1070
   158
  0
LINE
  5
3ED
100
AcDbEntity
  8
寸法
 62
     1
100
AcDbLine
 10
118.760593
 20
131.166558
 30
0.0
 11
118.760593
 21
109.0
 31
0.0
1001
ACAD
1000
RTLwPs
1070
   158
  0
LINE
  5
3EE
100
AcDbEntity
  8
寸法
 62
     1
100
AcDbLine
 10
182.760577
 20
110.0
 30
0.0
 11
120.760593
 21
110.0
 31
0.0
1001
ACAD
1000
RTLwPs
1070
   158
  0
INSERT
  5
3EF
100
AcDbEntity
  8
寸法
 62
     1
100
AcDbBlockReference
  2
_OPEN30
 10
184.760577
 20
110.0
 30
0.0
 41
2.0
 42
2.0
 43
2.0
1001
ACAD
1000
RTLwPs
1070
   158
  0
INSERT
  5
3F0
100
AcDbEntity
  8
寸法
 62
     1
100
AcDbBlockReference
  2
_OPEN30
 10
118.760593
 20
110.0
 30
0.0
 41
2.0
 42
2.0
 43
2.0
 50
180.0
1001
ACAD
1000
RTLwPs
1070
   158
  0
MTEXT
  5
3F1
100
AcDbEntity
  8
寸法
 62
     1
100
AcDbMText
 10
151.760585
 20
112.5
 30
0.0
 40
3.0
 41
0.0
 71
     5
 72
     1
  1
\A1;66
1001
ACAD
1000
MTEXTBEGIN
1070
    73
1070
     1
1070
    44
1040
1.0
1070
    74
1070
     0
1000
MTEXTEND
  0
POINT
  5
3F2
100
AcDbEntity
  8
DEFPOINTS
 62
     0
100
AcDbPoint
 10
184.760577
 20
138.853566
 30
0.0
  0
POINT
  5
3F3
100
AcDbEntity
  8
DEFPOINTS
 62
     0
100
AcDbPoint
 10
118.760593
 20
132.166558
 30
0.0
  0
POINT
  5
3F4
100
AcDbEntity
  8
DEFPOINTS
 62
     0
100
AcDbPoint
 10
118.760593
 20
110.0
 30
0.0
  0
ENDBLK
  5
381
100
AcDbEntity
  8
0
100
AcDbBlockEnd
  0
BLOCK
  5
38D
100
AcDbEntity
  8
0
100
AcDbBlockBegin
  2
*D9
 70
     1
 10
0.0
 20
0.0
 30
0.0
  3
*D9
  1

  0
LINE
  5
4A9
100
AcDbEntity
  8
寸法
 62
     1
100
AcDbLine
 10
184.760577
 20
137.853566
 30
0.0
 11
184.760577
 21
119.0
 31
0.0
  0
LINE
  5
4AA
100
AcDbEntity
  8
寸法
 62
     1
100
AcDbLine
 10
176.760584
 20
131.149558
 30
0.0
 11
176.760584
 21
119.0
 31
0.0
  0
LINE
  5
4AB
100
AcDbEntity
  8
寸法
 62
     1
100
AcDbLine
 10
182.760577
 20
120.0
 30
0.0
 11
178.760584
 21
120.0
 31
0.0
  0
INSERT
  5
4AC
100
AcDbEntity
  8
寸法
 62
     1
100
AcDbBlockReference
  2
_OPEN30
 10
184.760577
 20
120.0
 30
0.0
 41
2.0
 42
2.0
 43
2.0
  0
INSERT
  5
4AD
100
AcDbEntity
  8
寸法
 62
     1
100
AcDbBlockReference
  2
_OPEN30
 10
176.760584
 20
120.0
 30
0.0
 41
2.0
 42
2.0
 43
2.0
 50
180.0
  0
MTEXT
  5
4AE
100
AcDbEntity
  8
寸法
 62
     1
100
AcDbMText
 10
180.760581
 20
122.5
 30
0.0
 40
3.0
 41
0.0
 71
     5
 72
     1
  1
\A1;8
  0
POINT
  5
4AF
100
AcDbEntity
  8
DEFPOINTS
 62
     0
100
AcDbPoint
 10
184.760577
 20
138.853566
 30
0.0
  0
POINT
  5
4B0
100
AcDbEntity
  8
DEFPOINTS
 62
     0
100
AcDbPoint
 10
176.760584
 20
132.149558
 30
0.0
  0
POINT
  5
4B1
100
AcDbEntity
  8
DEFPOINTS
 62
     0
100
AcDbPoint
 10
176.760584
 20
120.0
 30
0.0
  0
ENDBLK
  5
38E
100
AcDbEntity
  8
0
100
AcDbBlockEnd
  0
BLOCK
  5
416
100
AcDbEntity
  8
0
100
AcDbBlockBegin
  2
*D10
 70
     1
 10
0.0
 20
0.0
 30
0.0
  3
*D10
  1

  0
LINE
  5
4B2
100
AcDbEntity
  8
寸法
 62
     1
100
AcDbLine
 10
132.042284
 20
128.607739
 30
0.0
 11
145.160441
 21
125.09274
 31
0.0
  0
LINE
  5
4B3
100
AcDbEntity
  8
寸法
 62
     1
100
AcDbLine
 10
134.76059
 20
129.866558
 30
0.0
 11
145.788926
 21
129.866558
 31
0.0
  0
ARC
  5
4B4
100
AcDbEntity
  8
寸法
 62
     1
100
AcDbCircle
 10
127.344309
 20
129.866558
 30
0.0
 40
17.444617
100
AcDbArc
 50
338.427519
 51
345.0
  0
LINE
  5
4B5
100
AcDbEntity
  8
寸法
 62
     1
100
AcDbLine
 10
143.566986
 20
123.452557
 30
0.0
 11
139.6696
 21
113.595053
 31
0.0
  0
ARC
  5
4B6
100
AcDbEntity
  8
寸法
 62
     1
100
AcDbCircle
 10
127.344309
 20
129.866558
 30
0.0
 40
17.444617
100
AcDbArc
 50
351.572481
 51
353.427519
  0
INSERT
  5
4B7
100
AcDbEntity
  8
寸法
 62
     1
100
AcDbBlockReference
  2
_OPEN30
 10
144.194515
 20
125.351559
 30
0.0
 41
2.0
 42
2.0
 43
2.0
 50
258.28624
  0
INSERT
  5
4B8
100
AcDbEntity
  8
寸法
 62
     1
100
AcDbBlockReference
  2
_OPEN30
 10
144.788926
 20
129.866558
 30
0.0
 41
2.0
 42
2.0
 43
2.0
 50
86.71376
  0
MTEXT
  5
4B9
100
AcDbEntity
  8
寸法
 62
     1
100
AcDbMText
 10
139.29341
 20
119.443
 30
0.0
 40
3.0
 41
0.0
 71
     5
 72
     1
  1
\A1;15°
 11
0.367678
 21
0.929953
 31
0.0
  0
POINT
  5
4BA
100
AcDbEntity
  8
DEFPOINTS
 62
     0
100
AcDbPoint
 10
144.722544
 20
128.346159
 30
0.0
  0
POINT
  5
4BB
100
AcDbEntity
  8
DEFPOINTS
 62
     0
100
AcDbPoint
 10
131.344307
 20
129.866558
 30
0.0
  0
POINT
  5
4BC
100
AcDbEntity
  8
DEFPOINTS
 62
     0
100
AcDbPoint
 10
118.760593
 20
132.166558
 30
0.0
  0
POINT
  5
4BD
100
AcDbEntity
  8
DEFPOINTS
 62
     0
100
AcDbPoint
 10
131.076358
 20
128.866558
 30
0.0
  0
POINT
  5
4BE
100
AcDbEntity
  8
DEFPOINTS
 62
     0
100
AcDbPoint
 10
133.76059
 20
129.866558
 30
0.0
  0
ENDBLK
  5
417
100
AcDbEntity
  8
0
100
AcDbBlockEnd
  0
BLOCK
  5
423
100
AcDbEntity
  8
0
100
AcDbBlockBegin
  2
*D11
 70
     1
 10
0.0
 20
0.0
 30
0.0
  3
*D11
  1

  0
LINE
  5
41A
100
AcDbEntity
  8
寸法
 62
     1
100
AcDbLine
 10
121.967395
 20
147.866557
 30
0.0
 11
109.0
 21
147.866557
 31
0.0
1001
ACAD
1000
RTLwPs
1070
   158
  0
LINE
  5
41B
100
AcDbEntity
  8
寸法
 62
     1
100
AcDbLine
 10
130.076358
 20
128.866558
 30
0.0
 11
109.0
 21
128.866558
 31
0.0
1001
ACAD
1000
RTLwPs
1070
   158
  0
LINE
  5
41C
100
AcDbEntity
  8
寸法
 62
     1
100
AcDbLine
 10
110.0
 20
145.866557
 30
0.0
 11
110.0
 21
130.866558
 31
0.0
1001
ACAD
1000
RTLwPs
1070
   158
  0
INSERT
  5
41D
100
AcDbEntity
  8
寸法
 62
     1
100
AcDbBlockReference
  2
_OPEN30
 10
110.0
 20
147.866557
 30
0.0
 41
2.0
 42
2.0
 43
2.0
 50
90.0
1001
ACAD
1000
RTLwPs
1070
   158
  0
INSERT
  5
41E
100
AcDbEntity
  8
寸法
 62
     1
100
AcDbBlockReference
  2
_OPEN30
 10
110.0
 20
128.866558
 30
0.0
 41
2.0
 42
2.0
 43
2.0
 50
270.0
1001
ACAD
1000
RTLwPs
1070
   158
  0
MTEXT
  5
41F
100
AcDbEntity
  8
寸法
 62
     1
100
AcDbMText
 10
107.5
 20
138.366558
 30
0.0
 40
3.0
 41
0.0
 71
     5
 72
     1
  1
\A1;19
 11
0.0
 21
1.0
 31
0.0
1001
ACAD
1000
MTEXTBEGIN
1070
    73
1070
     1
1070
    44
1040
1.0
1070
    74
1070
     0
1000
MTEXTEND
  0
POINT
  5
420
100
AcDbEntity
  8
DEFPOINTS
 62
     0
100
AcDbPoint
 10
122.967395
 20
147.866557
 30
0.0
  0
POINT
  5
421
100
AcDbEntity
  8
DEFPOINTS
 62
     0
100
AcDbPoint
 10
131.076358
 20
128.866558
 30
0.0
  0
POINT
  5
422
100
AcDbEntity
  8
DEFPOINTS
 62
     0
100
AcDbPoint
 10
110.0
 20
128.866558
 30
0.0
  0
ENDBLK
  5
424
100
AcDbEntity
  8
0
100
AcDbBlockEnd
  0
BLOCK
  5
4D5
100
AcDbEntity
  8
0
100
AcDbBlockBegin
  2
*D12
 70
     1
 10
0.0
 20
0.0
 30
0.0
  3
*D12
  1

  0
LINE
  5
4D6
100
AcDbEntity
  8
0
  6
BYBLOCK
 62
     1
100
AcDbLine
 10
77.994628
 20
127.866558
 30
0.0
 11
77.994628
 21
112.821713
 31
0.0
  0
LINE
  5
4D7
100
AcDbEntity
  8
0
  6
BYBLOCK
 62
     1
100
AcDbLine
 10
81.613128
 20
128.119588
 30
0.0
 11
83.706966
 21
113.221159
 31
0.0
  0
ARC
  5
4D8
100
AcDbEntity
  8
0
  6
BYBLOCK
 62
     1
100
AcDbCircle
 10
77.994628
 20
153.866558
 30
0.0
 40
40.044845
100
AcDbArc
 50
267.138122
 51
270.0
  0
LINE
  5
4D9
100
AcDbEntity
  8
0
  6
BYBLOCK
 62
     1
100
AcDbLine
 10
75.995251
 20
113.871657
 30
0.0
 11
67.405977
 21
114.301042
 31
0.0
  0
ARC
  5
4DA
100
AcDbEntity
  8
0
  6
BYBLOCK
 62
     1
100
AcDbCircle
 10
77.994628
 20
153.866558
 30
0.0
 40
40.044845
100
AcDbArc
 50
272.861878
 51
275.138122
  0
INSERT
  5
4DB
100
AcDbEntity
  8
0
  6
BYBLOCK
 62
     1
100
AcDbBlockReference
  2
_OPEN30
 10
77.994628
 20
113.821713
 30
0.0
 41
2.0
 42
2.0
 43
2.0
 50
181.430939
  0
INSERT
  5
4DC
100
AcDbEntity
  8
0
  6
BYBLOCK
 62
     1
100
AcDbBlockReference
  2
_OPEN30
 10
83.567793
 20
114.211427
 30
0.0
 41
2.0
 42
2.0
 43
2.0
 50
6.569061
  0
MTEXT
  5
4DD
100
AcDbEntity
  8
0
  6
BYBLOCK
 62
     1
100
AcDbMText
 10
71.825435
 20
116.583231
 30
0.0
 40
3.0
 41
0.0
 71
     5
 72
     1
  1
\A1;8°
 11
0.998753
 21
-0.049928
 31
0.0
  0
POINT
  5
4DE
100
AcDbEntity
  8
DEFPOINTS
  6
BYBLOCK
 62
     0
100
AcDbPoint
 10
81.71679
 20
113.995076
 30
0.0
  0
POINT
  5
4DF
100
AcDbEntity
  8
DEFPOINTS
  6
BYBLOCK
 62
     0
100
AcDbPoint
 10
77.994628
 20
153.866558
 30
0.0
  0
POINT
  5
4E0
100
AcDbEntity
  8
DEFPOINTS
  6
BYBLOCK
 62
     0
100
AcDbPoint
 10
81.473955
 20
129.109856
 30
0.0
  0
POINT
  5
4E1
100
AcDbEntity
  8
DEFPOINTS
  6
BYBLOCK
 62
     0
100
AcDbPoint
 10
77.994628
 20
153.866558
 30
0.0
  0
POINT
  5
4E2
100
AcDbEntity
  8
DEFPOINTS
  6
BYBLOCK
 62
     0
100
AcDbPoint
 10
77.994628
 20
128.866558
 30
0.0
  0
ENDBLK
  5
4E3
100
AcDbEntity
  8
0
100
AcDbBlockEnd
  0
ENDSEC
  0
SECTION
  2
ENTITIES
  0
POINT
  5
191
100
AcDbEntity
  8
0
  6
CONTINUOUS
 62
     7
100
AcDbPoint
 10
81.851149
 20
132.166558
 30
0.0
  0
POINT
  5
192
100
AcDbEntity
  8
0
  6
CONTINUOUS
 62
     7
100
AcDbPoint
 10
118.760593
 20
132.166558
 30
0.0
  0
POINT
  5
193
100
AcDbEntity
  8
0
  6
CONTINUOUS
 62
     7
100
AcDbPoint
 10
118.760612
 20
85.511022
 30
0.0
  0
POINT
  5
194
100
AcDbEntity
  8
0
  6
CONTINUOUS
 62
     7
100
AcDbPoint
 10
213.354586
 20
69.511018
 30
0.0
  0
LINE
  5
195
100
AcDbEntity
  8
0
  6
CONTINUOUS
 62
     7
100
AcDbLine
 10
122.047592
 20
144.420806
 30
0.0
 11
134.360108
 21
141.121678
 31
0.0
  0
LINE
  5
196
100
AcDbEntity
  8
0
  6
CONTINUOUS
 62
     7
100
AcDbLine
 10
176.760584
 20
147.866557
 30
0.0
 11
176.760584
 21
132.149558
 31
0.0
  0
LINE
  5
197
100
AcDbEntity
  8
0
  6
CONTINUOUS
 62
     7
100
AcDbLine
 10
134.93508
 20
87.511014
 30
0.0
 11
176.760584
 21
87.511014
 31
0.0
  0
LINE
  5
198
100
AcDbEntity
  8
0
  6
CONTINUOUS
 62
     7
100
AcDbLine
 10
122.642647
 20
69.51101
 30
0.0
 11
176.760584
 21
69.51101
 31
0.0
  0
LINE
  5
199
100
AcDbEntity
  8
0
  6
CONTINUOUS
 62
     7
100
AcDbLine
 10
176.760584
 20
87.511014
 30
0.0
 11
176.760584
 21
69.51101
 31
0.0
  0
LINE
  5
19A
100
AcDbEntity
  8
0
  6
CENTER
 62
     1
 48
0.5
100
AcDbLine
 10
135.760592
 20
81.511014
 30
0.0
 11
135.760592
 21
73.51101
 31
0.0
  0
LINE
  5
19B
100
AcDbEntity
  8
0
  6
CONTINUOUS
 62
     7
100
AcDbLine
 10
118.760615
 20
85.511022
 30
0.0
 11
131.375493
 21
86.8369
 31
0.0
  0
LINE
  5
19C
100
AcDbEntity
  8
0
  6
CONTINUOUS
 62
     7
100
AcDbLine
 10
119.262347
 20
80.737329
 30
0.0
 11
131.877227
 21
82.063207
 31
0.0
  0
LINE
  5
19D
100
AcDbEntity
  8
0
  6
CENTER
 62
     1
 48
0.5
100
AcDbLine
 10
131.760591
 20
77.511014
 30
0.0
 11
139.760592
 21
77.511014
 31
0.0
  0
LINE
  5
19E
100
AcDbEntity
  8
0
  6
CONTINUOUS
 62
     7
100
AcDbLine
 10
228.260582
 20
86.011014
 30
0.0
 11
228.260582
 21
71.123643
 31
0.0
  0
LINE
  5
19F
100
AcDbEntity
  8
0
  6
CONTINUOUS
 62
     7
100
AcDbLine
 10
214.760584
 20
87.511014
 30
0.0
 11
226.760582
 21
87.511014
 31
0.0
  0
LINE
  5
1A0
100
AcDbEntity
  8
0
  6
CONTINUOUS
 62
     7
100
AcDbLine
 10
214.760554
 20
87.51106
 30
0.0
 11
212.543864
 21
71.738466
 31
0.0
  0
LINE
  5
1A1
100
AcDbEntity
  8
0
  6
CENTER
 62
     1
 48
0.5
100
AcDbLine
 10
125.377912
 20
132.23118
 30
0.0
 11
127.759046
 21
141.117695
 31
0.0
  0
LINE
  5
1A2
100
AcDbEntity
  8
0
  6
CENTER
 62
     1
 48
0.5
100
AcDbLine
 10
122.125221
 20
137.865004
 30
0.0
 11
131.011733
 21
135.48387
 31
0.0
  0
LINE
  5
1A3
100
AcDbEntity
  8
0
  6
CENTER
 62
     1
 48
0.5
100
AcDbLine
 10
173.465071
 20
140.853567
 30
0.0
 11
187.646891
 21
140.853567
 31
0.0
  0
LINE
  5
1A4
100
AcDbEntity
  8
0
  6
CENTER
 62
     1
 48
0.5
100
AcDbLine
 10
162.760584
 20
90.505658
 30
0.0
 11
162.760584
 21
66.505655
 31
0.0
  0
LINE
  5
1A5
100
AcDbEntity
  8
0
  6
CENTER
 62
     1
 48
0.5
100
AcDbLine
 10
173.847323
 20
78.011014
 30
0.0
 11
187.448351
 21
78.011014
 31
0.0
  0
LINE
  5
1A6
100
AcDbEntity
  8
0
  6
CENTER
 62
     1
 48
0.5
100
AcDbLine
 10
164.510584
 20
90.505658
 30
0.0
 11
164.510584
 21
66.505655
 31
0.0
  0
LINE
  5
1A7
100
AcDbEntity
  8
0
  6
CENTER
 62
     1
 48
0.5
100
AcDbLine
 10
161.010584
 20
90.505658
 30
0.0
 11
161.010584
 21
66.505655
 31
0.0
  0
LINE
  5
1A8
100
AcDbEntity
  8
0
  6
CENTER
 62
     1
 48
0.5
100
AcDbLine
 10
162.760584
 20
137.771324
 30
0.0
 11
162.760584
 21
129.478583
 31
0.0
  0
LINE
  5
1A9
100
AcDbEntity
  8
0
  6
CONTINUOUS
 62
     7
100
AcDbLine
 10
83.856272
 20
146.366557
 30
0.0
 11
83.856272
 21
130.353567
 31
0.0
  0
LINE
  5
1AA
100
AcDbEntity
  8
0
  6
CONTINUOUS
 62
     7
100
AcDbLine
 10
140.76059
 20
133.866558
 30
0.0
 11
140.76059
 21
130.478979
 31
0.0
  0
LINE
  5
1AB
100
AcDbEntity
  8
0
  6
CONTINUOUS
 62
     7
100
AcDbLine
 10
119.548892
 20
78.01103
 30
0.0
 11
132.802555
 21
78.01103
 31
0.0
  0
LINE
  5
1AC
100
AcDbEntity
  8
0
  6
CONTINUOUS
 62
     7
100
AcDbLine
 10
118.760611
 20
85.511037
 30
0.0
 11
119.548893
 21
78.01103
 31
0.0
  0
LINE
  5
1AD
100
AcDbEntity
  8
0
  6
CONTINUOUS
 62
     7
100
AcDbLine
 10
83.178469
 20
129.853568
 30
0.0
 11
83.356287
 21
129.853568
 31
0.0
  0
LINE
  5
1AE
100
AcDbEntity
  8
0
  6
CONTINUOUS
 62
     7
100
AcDbLine
 10
77.045329
 20
144.420806
 30
0.0
 11
82.201373
 21
144.420806
 31
0.0
  0
LINE
  5
1AF
100
AcDbEntity
  8
0
  6
CONTINUOUS
 62
     7
100
AcDbLine
 10
83.356276
 20
129.853568
 30
0.0
 11
83.856276
 21
130.353569
 31
0.0
  0
LINE
  5
1B0
100
AcDbEntity
  8
0
  6
CONTINUOUS
 62
     7
100
AcDbLine
 10
77.994627
 20
128.866558
 30
0.0
 11
83.150671
 21
128.866558
 31
0.0
  0
LINE
  5
1B1
100
AcDbEntity
  8
0
  6
CONTINUOUS
 62
     7
100
AcDbLine
 10
67.468905
 20
147.866557
 30
0.0
 11
82.356272
 21
147.866557
 31
0.0
  0
LINE
  5
1B2
100
AcDbEntity
  8
0
  6
CONTINUOUS
 62
     7
100
AcDbLine
 10
122.967395
 20
147.866557
 30
0.0
 11
176.760584
 21
147.866557
 31
0.0
  0
LINE
  5
1B3
100
AcDbEntity
  8
0
  6
CONTINUOUS
 62
     7
100
AcDbLine
 10
131.344307
 20
129.866558
 30
0.0
 11
133.76059
 21
129.866558
 31
0.0
  0
LINE
  5
1B4
100
AcDbEntity
  8
0
  6
CONTINUOUS
 62
     7
100
AcDbLine
 10
134.93508
 20
146.366557
 30
0.0
 11
176.760584
 21
146.366557
 31
0.0
  0
LINE
  5
1B5
100
AcDbEntity
  8
0
  6
CONTINUOUS
 62
     7
100
AcDbLine
 10
82.356268
 20
147.866558
 30
0.0
 11
83.856272
 21
146.366556
 31
0.0
  0
LINE
  5
1B6
100
AcDbEntity
  8
0
  6
CONTINUOUS
 62
     7
100
AcDbLine
 10
74.356272
 20
129.866558
 30
0.0
 11
77.602385
 21
129.866558
 31
0.0
  0
LINE
  5
1B7
100
AcDbEntity
  8
0
  6
CONTINUOUS
 62
     7
100
AcDbLine
 10
74.356272
 20
132.166558
 30
0.0
 11
74.356272
 21
129.866558
 31
0.0
  0
LINE
  5
1B8
100
AcDbEntity
  8
0
  6
CONTINUOUS
 62
     7
100
AcDbLine
 10
74.356272
 20
129.866558
 30
0.0
 11
65.856272
 21
132.960306
 31
0.0
  0
LINE
  5
1B9
100
AcDbEntity
  8
0
  6
CONTINUOUS
 62
     7
100
AcDbLine
 10
67.468905
 20
147.866553
 30
0.0
 11
65.856272
 21
146.253921
 31
0.0
  0
LINE
  5
1BA
100
AcDbEntity
  8
0
  6
CONTINUOUS
 62
     7
100
AcDbLine
 10
65.856272
 20
146.253923
 30
0.0
 11
65.856272
 21
132.960305
 31
0.0
  0
LINE
  5
1BB
100
AcDbEntity
  8
0
  6
CONTINUOUS
 62
     7
100
AcDbLine
 10
184.760584
 20
142.853566
 30
0.0
 11
184.760584
 21
138.853567
 31
0.0
  0
LINE
  5
1BC
100
AcDbEntity
  8
0
  6
CONTINUOUS
 62
     7
100
AcDbLine
 10
179.760584
 20
144.853566
 30
0.0
 11
179.760584
 21
136.853567
 31
0.0
  0
LINE
  5
1BD
100
AcDbEntity
  8
0
  6
CONTINUOUS
 62
     7
100
AcDbLine
 10
176.760584
 20
138.353567
 30
0.0
 11
179.760584
 21
138.353567
 31
0.0
  0
LINE
  5
1BE
100
AcDbEntity
  8
0
  6
CONTINUOUS
 62
     7
100
AcDbLine
 10
176.760584
 20
143.353566
 30
0.0
 11
179.760584
 21
143.353566
 31
0.0
  0
LINE
  5
1BF
100
AcDbEntity
  8
0
  6
CONTINUOUS
 62
     7
100
AcDbLine
 10
182.260584
 20
145.353564
 30
0.0
 11
184.760584
 21
142.853564
 31
0.0
  0
LINE
  5
1C0
100
AcDbEntity
  8
0
  6
CONTINUOUS
 62
     7
100
AcDbLine
 10
182.260581
 20
136.353566
 30
0.0
 11
184.760577
 21
138.853566
 31
0.0
  0
LINE
  5
1C1
100
AcDbEntity
  8
0
  6
CONTINUOUS
 62
     7
100
AcDbLine
 10
180.260584
 20
136.353567
 30
0.0
 11
182.260584
 21
136.353567
 31
0.0
  0
LINE
  5
1C2
100
AcDbEntity
  8
0
  6
CONTINUOUS
 62
     7
100
AcDbLine
 10
180.260584
 20
145.353566
 30
0.0
 11
182.260584
 21
145.353566
 31
0.0
  0
LINE
  5
1C3
100
AcDbEntity
  8
0
  6
CONTINUOUS
 62
     7
100
AcDbLine
 10
180.260581
 20
145.353561
 30
0.0
 11
179.760581
 21
144.853563
 31
0.0
  0
LINE
  5
1C4
100
AcDbEntity
  8
0
  6
CONTINUOUS
 62
     7
100
AcDbLine
 10
179.760584
 20
136.853568
 30
0.0
 11
180.260584
 21
136.353567
 31
0.0
  0
LINE
  5
1C5
100
AcDbEntity
  8
0
  6
CONTINUOUS
 62
     7
100
AcDbLine
 10
180.260584
 20
145.353566
 30
0.0
 11
180.260584
 21
136.353566
 31
0.0
  0
LINE
  5
1C6
100
AcDbEntity
  8
0
  6
CONTINUOUS
 62
     7
100
AcDbLine
 10
182.260584
 20
145.353566
 30
0.0
 11
182.260584
 21
136.353567
 31
0.0
  0
LINE
  5
1C7
100
AcDbEntity
  8
0
  6
CONTINUOUS
 62
     7
100
AcDbLine
 10
176.760584
 20
138.853567
 30
0.0
 11
179.760584
 21
138.853567
 31
0.0
  0
LINE
  5
1C8
100
AcDbEntity
  8
0
  6
CONTINUOUS
 62
     7
100
AcDbLine
 10
176.760584
 20
142.853566
 30
0.0
 11
179.760584
 21
142.853566
 31
0.0
  0
LINE
  5
1C9
100
AcDbEntity
  8
0
  6
CONTINUOUS
 62
     7
100
AcDbLine
 10
184.760584
 20
80.011014
 30
0.0
 11
184.760584
 21
76.011014
 31
0.0
  0
LINE
  5
1CA
100
AcDbEntity
  8
0
  6
CONTINUOUS
 62
     7
100
AcDbLine
 10
179.760584
 20
82.011014
 30
0.0
 11
179.760584
 21
74.011014
 31
0.0
  0
LINE
  5
1CB
100
AcDbEntity
  8
0
  6
CONTINUOUS
 62
     7
100
AcDbLine
 10
176.760584
 20
75.511014
 30
0.0
 11
179.760584
 21
75.511014
 31
0.0
  0
LINE
  5
1CC
100
AcDbEntity
  8
0
  6
CONTINUOUS
 62
     7
100
AcDbLine
 10
176.760584
 20
80.511014
 30
0.0
 11
179.760584
 21
80.511014
 31
0.0
  0
LINE
  5
1CD
100
AcDbEntity
  8
0
  6
CONTINUOUS
 62
     7
100
AcDbLine
 10
182.260584
 20
82.511014
 30
0.0
 11
184.760577
 21
80.011018
 31
0.0
  0
LINE
  5
1CE
100
AcDbEntity
  8
0
  6
CONTINUOUS
 62
     7
100
AcDbLine
 10
182.260581
 20
73.51101
 30
0.0
 11
184.760584
 21
76.011014
 31
0.0
  0
LINE
  5
1CF
100
AcDbEntity
  8
0
  6
CONTINUOUS
 62
     7
100
AcDbLine
 10
180.260584
 20
73.51101
 30
0.0
 11
182.260584
 21
73.51101
 31
0.0
  0
LINE
  5
1D0
100
AcDbEntity
  8
0
  6
CONTINUOUS
 62
     7
100
AcDbLine
 10
180.260584
 20
82.511014
 30
0.0
 11
182.260584
 21
82.511014
 31
0.0
  0
LINE
  5
1D1
100
AcDbEntity
  8
0
  6
CONTINUOUS
 62
     7
100
AcDbLine
 10
180.260577
 20
82.511014
 30
0.0
 11
179.760581
 21
82.011014
 31
0.0
  0
LINE
  5
1D2
100
AcDbEntity
  8
0
  6
CONTINUOUS
 62
     7
100
AcDbLine
 10
179.760588
 20
74.011014
 30
0.0
 11
180.260588
 21
73.51101
 31
0.0
  0
LINE
  5
1D3
100
AcDbEntity
  8
0
  6
CONTINUOUS
 62
     7
100
AcDbLine
 10
180.260584
 20
82.511014
 30
0.0
 11
180.260584
 21
73.51101
 31
0.0
  0
LINE
  5
1D4
100
AcDbEntity
  8
0
  6
CONTINUOUS
 62
     7
100
AcDbLine
 10
182.260584
 20
82.511014
 30
0.0
 11
182.260584
 21
73.51101
 31
0.0
  0
LINE
  5
1D5
100
AcDbEntity
  8
0
  6
CONTINUOUS
 62
     7
100
AcDbLine
 10
176.760584
 20
76.011014
 30
0.0
 11
179.760584
 21
76.011014
 31
0.0
  0
LINE
  5
1D6
100
AcDbEntity
  8
0
  6
CONTINUOUS
 62
     7
100
AcDbLine
 10
176.760584
 20
80.011014
 30
0.0
 11
179.760584
 21
80.011014
 31
0.0
  0
LINE
  5
1D7
100
AcDbEntity
  8
0
  6
CONTINUOUS
 62
     7
100
AcDbLine
 10
141.26059
 20
132.149558
 30
0.0
 11
176.760584
 21
132.149558
 31
0.0
  0
LINE
  5
1D8
100
AcDbEntity
  8
0
  6
CONTINUOUS
 62
     7
100
AcDbLine
 10
213.354586
 20
69.511018
 30
0.0
 11
226.647956
 21
69.511018
 31
0.0
  0
LINE
  5
1DA
100
AcDbEntity
  8
0
  6
CONTINUOUS
 62
     7
100
AcDbLine
 10
228.260582
 20
71.123643
 30
0.0
 11
226.647956
 21
69.511018
 31
0.0
  0
LINE
  5
1DB
100
AcDbEntity
  8
0
  6
CONTINUOUS
 62
     7
100
AcDbLine
 10
213.354586
 20
69.511018
 30
0.0
 11
212.543864
 21
71.738458
 31
0.0
  0
LINE
  5
1DC
100
AcDbEntity
  8
0
  6
CONTINUOUS
 62
     7
100
AcDbLine
 10
226.760582
 20
87.51101
 30
0.0
 11
228.260582
 21
86.01101
 31
0.0
  0
LINE
  5
1DD
100
AcDbEntity
  8
0
  6
CONTINUOUS
 62
     7
100
AcDbLine
 10
140.76059
 20
71.738458
 30
0.0
 11
176.760584
 21
71.738458
 31
0.0
  0
LINE
  5
1DE
100
AcDbEntity
  8
0
  6
CONTINUOUS
 62
     7
100
AcDbLine
 10
134.919417
 20
87.511014
 30
0.0
 11
134.919417
 21
80.390672
 31
0.0
  0
LINE
  5
1DF
100
AcDbEntity
  8
0
  6
CONTINUOUS
 62
     7
100
AcDbLine
 10
118.760593
 20
132.166558
 30
0.0
 11
131.076358
 21
128.866558
 31
0.0
  0
LINE
  5
1E0
100
AcDbEntity
  8
0
  6
CONTINUOUS
 62
     7
100
AcDbLine
 10
118.760593
 20
132.166558
 30
0.0
 11
122.967395
 21
147.866557
 31
0.0
  0
LINE
  5
1E1
100
AcDbEntity
  8
0
  6
CONTINUOUS
 62
     7
100
AcDbLine
 10
131.076358
 20
128.866558
 30
0.0
 11
134.360108
 21
141.121678
 31
0.0
  0
LINE
  5
1E3
100
AcDbEntity
  8
0
  6
CONTINUOUS
 62
     7
100
AcDbLine
 10
74.356272
 20
132.166558
 30
0.0
 11
81.856272
 21
132.166558
 31
0.0
  0
LINE
  5
1E4
100
AcDbEntity
  8
0
  6
CONTINUOUS
 62
     7
100
AcDbLine
 10
133.76059
 20
129.866558
 30
0.0
 11
140.76059
 21
130.478979
 31
0.0
  0
LINE
  5
1E5
100
AcDbEntity
  8
0
  6
CONTINUOUS
 62
     7
100
AcDbLine
 10
138.636773
 20
76.658021
 30
0.0
 11
140.76059
 21
75.885015
 31
0.0
  0
LINE
  5
1E6
100
AcDbEntity
  8
0
  6
CONTINUOUS
 62
     7
100
AcDbLine
 10
222.568802
 20
85.587282
 30
0.0
 11
220.689962
 21
72.21866
 31
0.0
  0
LINE
  5
1E7
100
AcDbEntity
  8
0
  6
CENTER
 62
     1
 48
0.5
100
AcDbLine
 10
233.164952
 20
77.281755
 30
0.0
 11
205.78847
 21
81.129266
 31
0.0
  0
LINE
  5
1E8
100
AcDbEntity
  8
0
  6
CONTINUOUS
 62
     7
100
AcDbLine
 10
220.689962
 20
72.21866
 30
0.0
 11
212.767825
 21
73.332048
 31
0.0
  0
LINE
  5
1E9
100
AcDbEntity
  8
0
  6
CONTINUOUS
 62
     7
100
AcDbLine
 10
222.568802
 20
85.587282
 30
0.0
 11
214.646662
 21
86.700666
 31
0.0
  0
LINE
  5
1EA
100
AcDbEntity
  8
0
  6
CONTINUOUS
 62
     7
100
AcDbLine
 10
228.260582
 20
73.729745
 30
0.0
 11
221.044862
 21
74.743844
 31
0.0
  0
LINE
  5
1EB
100
AcDbEntity
  8
0
  6
CONTINUOUS
 62
     7
100
AcDbLine
 10
228.260582
 20
82.212293
 30
0.0
 11
222.213912
 21
83.062097
 31
0.0
  0
LINE
  5
1EC
100
AcDbEntity
  8
0
  6
CONTINUOUS
 62
     7
100
AcDbLine
 10
161.010584
 20
86.700666
 30
0.0
 11
164.510584
 21
86.700666
 31
0.0
  0
LINE
  5
1ED
100
AcDbEntity
  8
0
  6
CONTINUOUS
 62
     7
100
AcDbLine
 10
161.010584
 20
85.587282
 30
0.0
 11
164.510584
 21
85.587282
 31
0.0
  0
LINE
  5
1EE
100
AcDbEntity
  8
0
  6
CONTINUOUS
 62
     7
100
AcDbLine
 10
161.010584
 20
83.062097
 30
0.0
 11
164.510584
 21
83.062097
 31
0.0
  0
LINE
  5
1EF
100
AcDbEntity
  8
0
  6
CONTINUOUS
 62
     7
100
AcDbLine
 10
161.010584
 20
82.212293
 30
0.0
 11
164.510584
 21
82.212293
 31
0.0
  0
LINE
  5
1F0
100
AcDbEntity
  8
0
  6
CONTINUOUS
 62
     7
100
AcDbLine
 10
161.010584
 20
74.743844
 30
0.0
 11
164.510584
 21
74.743844
 31
0.0
  0
LINE
  5
1F1
100
AcDbEntity
  8
0
  6
CONTINUOUS
 62
     7
100
AcDbLine
 10
161.010584
 20
73.332048
 30
0.0
 11
164.510584
 21
73.332048
 31
0.0
  0
LINE
  5
1F2
100
AcDbEntity
  8
0
  6
CONTINUOUS
 62
     7
100
AcDbLine
 10
140.76059
 20
87.511014
 30
0.0
 11
140.76059
 21
71.738458
 31
0.0
  0
LINE
  5
1F3
100
AcDbEntity
  8
0
  6
CONTINUOUS
 62
     7
100
AcDbLine
 10
122.047592
 20
86.156484
 30
0.0
 11
134.93508
 21
87.511014
 31
0.0
  0
LINE
  5
1F4
100
AcDbEntity
  8
0
  6
PHANTOM
 62
     7
100
AcDbLine
 10
122.047592
 20
86.156484
 30
0.0
 11
118.760612
 21
85.81101
 31
0.0
  0
LINE
  5
1F5
100
AcDbEntity
  8
0
  6
CONTINUOUS
 62
     7
100
AcDbLine
 10
122.047592
 20
86.156484
 30
0.0
 11
122.078778
 21
85.859777
 31
0.0
  0
LINE
  5
1F6
100
AcDbEntity
  8
0
  6
CONTINUOUS
 62
     7
100
AcDbLine
 10
134.93508
 20
146.366557
 30
0.0
 11
134.93508
 21
140.87558
 31
0.0
  0
LINE
  5
1F7
100
AcDbEntity
  8
0
  6
CONTINUOUS
 62
     7
100
AcDbLine
 10
134.93508
 20
146.366557
 30
0.0
 11
122.967395
 21
147.866557
 31
0.0
  0
LINE
  5
1F8
100
AcDbEntity
  8
0
  6
CONTINUOUS
 62
     7
100
AcDbLine
 10
134.93508
 20
137.117703
 30
0.0
 11
134.93508
 21
129.969312
 31
0.0
  0
LINE
  5
1F9
100
AcDbEntity
  8
0
  6
CONTINUOUS
 62
     7
100
AcDbLine
 10
131.344307
 20
87.133607
 30
0.0
 11
131.877228
 21
82.063207
 31
0.0
  0
LINE
  5
1FA
100
AcDbEntity
  8
0
  6
CONTINUOUS
 62
     7
100
AcDbLine
 10
65.856272
 20
135.260305
 30
0.0
 11
74.356272
 21
132.166558
 31
0.0
  0
LINE
  5
1FB
100
AcDbEntity
  8
0
  6
CONTINUOUS
 62
     7
100
AcDbLine
 10
141.26059
 20
134.366558
 30
0.0
 11
176.760584
 21
134.366558
 31
0.0
  0
LINE
  5
1FC
100
AcDbEntity
  8
0
  6
CONTINUOUS
 62
     7
100
AcDbLine
 10
119.548893
 20
78.01103
 30
0.0
 11
122.642647
 21
69.51101
 31
0.0
  0
LINE
  5
1FD
100
AcDbEntity
  8
0
  6
CONTINUOUS
 62
     7
100
AcDbLine
 10
127.344309
 20
78.01103
 30
0.0
 11
127.344309
 21
69.51101
 31
0.0
  0
LINE
  5
1FE
100
AcDbEntity
  8
0
  6
CONTINUOUS
 62
     7
100
AcDbLine
 10
131.076358
 20
86.805459
 30
0.0
 11
131.578093
 21
82.031766
 31
0.0
  0
LINE
  5
1FF
100
AcDbEntity
  8
0
  6
CONTINUOUS
 62
     7
100
AcDbLine
 10
81.856272
 20
132.166558
 30
0.0
 11
83.150671
 21
128.866558
 31
0.0
  0
LINE
  5
200
100
AcDbEntity
  8
0
  6
CONTINUOUS
 62
     7
100
AcDbLine
 10
76.700228
 20
132.166558
 30
0.0
 11
77.994627
 21
128.866558
 31
0.0
  0
LINE
  5
201
100
AcDbEntity
  8
0
  6
CONTINUOUS
 62
     7
100
AcDbLine
 10
82.298411
 20
147.866557
 30
0.0
 11
81.856272
 21
132.166558
 31
0.0
  0
LINE
  5
202
100
AcDbEntity
  8
0
  6
CONTINUOUS
 62
     7
100
AcDbLine
 10
77.045325
 20
144.420806
 30
0.0
 11
76.70431
 21
132.311645
 31
0.0
  0
LINE
  5
203
100
AcDbEntity
  8
0
  6
CONTINUOUS
 62
     7
100
AcDbLine
 10
83.495772
 20
141.120807
 30
0.0
 11
83.150671
 21
128.866558
 31
0.0
  0
LINE
  5
204
100
AcDbEntity
  8
0
  6
CONTINUOUS
 62
     7
100
AcDbLine
 10
82.201373
 20
144.420805
 30
0.0
 11
83.495772
 21
141.120806
 31
0.0
  0
CIRCLE
  5
205
100
AcDbEntity
  8
0
  6
CONTINUOUS
 62
     7
100
AcDbCircle
 10
126.568476
 20
136.674441
 30
0.0
 40
2.599999
  0
CIRCLE
  5
206
100
AcDbEntity
  8
0
  6
CONTINUOUS
 62
     7
100
AcDbCircle
 10
135.760592
 20
77.511014
 30
0.0
 40
3.0
  0
CIRCLE
  5
207
100
AcDbEntity
  8
0
  6
CONTINUOUS
 62
     7
100
AcDbCircle
 10
135.760592
 20
77.511014
 30
0.0
 40
2.5
  0
ARC
  5
208
100
AcDbEntity
  8
0
  6
CONTINUOUS
 62
     7
100
AcDbCircle
 10
133.790706
 20
138.996641
 30
0.0
 40
2.2
100
AcDbArc
 50
255.0
 51
74.999999
  0
ARC
  5
209
100
AcDbEntity
  8
0
  6
CONTINUOUS
 62
     7
100
AcDbCircle
 10
141.26059
 20
131.649558
 30
0.0
 40
0.5
100
AcDbArc
 50
90.000003
 51
180.00001
  0
ARC
  5
20A
100
AcDbEntity
  8
0
  6
CONTINUOUS
 62
     7
100
AcDbCircle
 10
141.26059
 20
133.866558
 30
0.0
 40
0.5
100
AcDbArc
 50
90.000003
 51
180.00001
  0
LWPOLYLINE
  5
20B
100
AcDbEntity
  8
0
  6
CONTINUOUS
 62
     7
100
AcDbPolyline
 90
       17
 70
     0
 43
0.0
 10
161.010584
 20
86.700666
 42
0.048416
 10
159.700162
 20
86.573493
 42
0.048522
 10
158.438703
 20
86.196448
 42
0.048718
 10
157.273737
 20
85.582902
 42
0.048977
 10
156.249869
 20
84.754981
 42
0.049271
 10
155.40698
 20
83.74299
 42
0.049546
 10
154.778883
 20
82.585028
 42
0.049752
 10
154.391394
 20
81.325917
 42
0.049813
 10
154.260584
 20
80.016355
 42
0.049822
 10
154.391441
 20
78.706562
 42
0.049704
 10
154.778489
 20
77.448622
 42
0.04952
 10
155.406017
 20
76.291141
 42
0.049257
 10
156.248384
 20
75.279194
 42
0.048988
 10
157.272216
 20
74.450812
 42
0.048743
 10
158.437644
 20
73.836697
 42
0.048553
 10
159.699869
 20
73.459277
 42
0.048427
 10
161.010584
 20
73.332048
  0
LWPOLYLINE
  5
21E
100
AcDbEntity
  8
0
  6
CONTINUOUS
 62
     7
100
AcDbPolyline
 90
       17
 70
     0
 43
0.0
 10
161.010584
 20
85.587282
 42
0.020581
 10
160.399608
 20
85.562128
 42
0.020698
 10
159.791976
 20
85.486596
 42
0.020877
 10
159.19269
 20
85.360875
 42
0.021141
 10
158.606111
 20
85.185327
 42
0.021493
 10
158.036612
 20
84.960483
 42
0.021926
 10
157.48873
 20
84.687102
 42
0.022437
 10
156.96718
 20
84.366243
 42
0.023014
 10
156.476856
 20
83.999348
 42
0.023645
 10
156.022801
 20
83.588338
 42
0.024311
 10
155.610152
 20
83.135711
 42
0.024989
 10
155.244036
 20
82.644644
 42
0.025651
 10
154.929434
 20
82.119072
 42
0.026261
 10
154.670997
 20
81.563739
 42
0.026786
 10
154.472833
 20
80.984196
 42
0.027191
 10
154.338285
 20
80.386737
 42
0.027446
 10
154.269714
 20
79.778257
  0
LWPOLYLINE
  5
231
100
AcDbEntity
  8
0
  6
CONTINUOUS
 62
     7
100
AcDbPolyline
 90
       17
 70
     0
 43
0.0
 10
161.010584
 20
83.062097
 42
0.048369
 10
160.195997
 20
82.983121
 42
0.048522
 10
159.411045
 20
82.748665
 42
0.048718
 10
158.686105
 20
82.367041
 42
0.048977
 10
158.048932
 20
81.852011
 42
0.04927
 10
157.524347
 20
81.22243
 42
0.049546
 10
157.133392
 20
80.501995
 42
0.049752
 10
156.892135
 20
79.718595
 42
0.049862
 10
156.810584
 20
78.902971
 42
0.049822
 10
156.892006
 20
78.087989
 42
0.049704
 10
157.132835
 20
77.30527
 42
0.04952
 10
157.523297
 20
76.58506
 42
0.049257
 10
158.047437
 20
75.955403
 42
0.048988
 10
158.684487
 20
75.439965
 42
0.048743
 10
159.409643
 20
75.057849
 42
0.048553
 10
160.195027
 20
74.82301
 42
0.048427
 10
161.010584
 20
74.743844
  0
LWPOLYLINE
  5
244
100
AcDbEntity
  8
0
  6
CONTINUOUS
 62
     7
100
AcDbPolyline
 90
       17
 70
     0
 43
0.0
 10
161.010584
 20
82.212293
 42
0.019741
 10
160.638272
 20
82.197592
 42
0.019892
 10
160.267297
 20
82.153351
 42
0.020049
 10
159.901751
 20
82.079805
 42
0.020341
 10
159.543351
 20
81.97702
 42
0.020731
 10
159.194586
 20
81.845186
 42
0.021217
 10
158.858071
 20
81.684593
 42
0.021794
 10
158.536565
 20
81.495677
 42
0.022454
 10
158.232976
 20
81.279075
 42
0.023185
 10
157.95036
 20
81.035689
 42
0.02397
 10
157.691893
 20
80.766756
 42
0.024784
 10
157.460817
 20
80.47393
 42
0.025593
 10
157.260359
 20
80.159345
 42
0.026358
 10
157.093613
 20
79.825678
 42
0.027033
 10
156.963388
 20
79.476165
 42
0.027571
 10
156.872047
 20
79.11458
 42
0.027932
 10
156.82134
 20
78.745158
  0
LWPOLYLINE
  5
257
100
AcDbEntity
  8
0
  6
CONTINUOUS
 62
     7
100
AcDbPolyline
 90
       17
 70
     0
 43
0.0
 10
164.510584
 20
83.062097
 42
-0.048369
 10
165.325172
 20
82.983121
 42
-0.048522
 10
166.110124
 20
82.748665
 42
-0.048718
 10
166.835064
 20
82.367041
 42
-0.048977
 10
167.472237
 20
81.852011
 42
-0.04927
 10
167.996822
 20
81.22243
 42
-0.049546
 10
168.387777
 20
80.501995
 42
-0.049752
 10
168.629033
 20
79.718595
 42
-0.049862
 10
168.710585
 20
78.902971
 42
-0.049822
 10
168.629163
 20
78.087989
 42
-0.049704
 10
168.388334
 20
77.30527
 42
-0.04952
 10
167.997872
 20
76.58506
 42
-0.049257
 10
167.473732
 20
75.955403
 42
-0.048988
 10
166.836681
 20
75.439965
 42
-0.048743
 10
166.111526
 20
75.057849
 42
-0.048553
 10
165.326141
 20
74.82301
 42
-0.048427
 10
164.510584
 20
74.743844
  0
LWPOLYLINE
  5
26A
100
AcDbEntity
  8
0
  6
CONTINUOUS
 62
     7
100
AcDbPolyline
 90
       17
 70
     0
 43
0.0
 10
164.510584
 20
82.212293
 42
-0.019741
 10
164.882897
 20
82.197592
 42
-0.019892
 10
165.253872
 20
82.153351
 42
-0.020049
 10
165.619417
 20
82.079805
 42
-0.020341
 10
165.977818
 20
81.97702
 42
-0.020731
 10
166.326583
 20
81.845186
 42
-0.021217
 10
166.663098
 20
81.684593
 42
-0.021794
 10
166.984604
 20
81.495677
 42
-0.022454
 10
167.288193
 20
81.279075
 42
-0.023185
 10
167.570809
 20
81.035689
 42
-0.02397
 10
167.829276
 20
80.766756
 42
-0.024784
 10
168.060352
 20
80.47393
 42
-0.025593
 10
168.260809
 20
80.159345
 42
-0.026358
 10
168.427556
 20
79.825678
 42
-0.027033
 10
168.557781
 20
79.476165
 42
-0.027571
 10
168.649121
 20
79.11458
 42
-0.027932
 10
168.699828
 20
78.745158
  0
LWPOLYLINE
  5
27D
100
AcDbEntity
  8
0
  6
CONTINUOUS
 62
     7
100
AcDbPolyline
 90
       17
 70
     0
 43
0.0
 10
164.510584
 20
85.587282
 42
-0.020581
 10
165.121561
 20
85.562128
 42
-0.020698
 10
165.729192
 20
85.486596
 42
-0.020877
 10
166.328479
 20
85.360875
 42
-0.021141
 10
166.915058
 20
85.185327
 42
-0.021493
 10
167.484556
 20
84.960483
 42
-0.021926
 10
168.032439
 20
84.687102
 42
-0.022437
 10
168.553989
 20
84.366243
 42
-0.023014
 10
169.044313
 20
83.999348
 42
-0.023645
 10
169.498368
 20
83.588338
 42
-0.024311
 10
169.911017
 20
83.135711
 42
-0.024989
 10
170.277132
 20
82.644644
 42
-0.025651
 10
170.591735
 20
82.119072
 42
-0.026261
 10
170.850172
 20
81.563739
 42
-0.026786
 10
171.048335
 20
80.984196
 42
-0.027191
 10
171.182884
 20
80.386737
 42
-0.027446
 10
171.251455
 20
79.778257
  0
LWPOLYLINE
  5
290
100
AcDbEntity
  8
0
  6
CONTINUOUS
 62
     7
100
AcDbPolyline
 90
       17
 70
     0
 43
0.0
 10
164.510584
 20
86.700666
 42
-0.048416
 10
165.821007
 20
86.573493
 42
-0.048522
 10
167.082466
 20
86.196448
 42
-0.048718
 10
168.247431
 20
85.582902
 42
-0.048977
 10
169.2713
 20
84.754981
 42
-0.049271
 10
170.114189
 20
83.74299
 42
-0.049546
 10
170.742285
 20
82.585028
 42
-0.049752
 10
171.129774
 20
81.325917
 42
-0.049813
 10
171.260584
 20
80.016355
 42
-0.049822
 10
171.129728
 20
78.706562
 42
-0.049704
 10
170.74268
 20
77.448622
 42
-0.04952
 10
170.115152
 20
76.291141
 42
-0.049257
 10
169.272785
 20
75.279194
 42
-0.048988
 10
168.248953
 20
74.450812
 42
-0.048743
 10
167.083525
 20
73.836697
 42
-0.048553
 10
165.821299
 20
73.459277
 42
-0.048427
 10
164.510584
 20
73.332048
  0
LWPOLYLINE
  5
2A3
100
AcDbEntity
  8
0
  6
CONTINUOUS
 62
     7
100
AcDbPolyline
 90
       16
 70
     1
 43
0.0
 10
171.260584
 20
133.313216
 42
0.13236
 10
169.244797
 20
133.920623
 42
0.015599
 10
167.08965
 20
134.121668
 42
0.008969
 10
164.926872
 20
134.221614
 42
0.007248
 10
162.760584
 20
134.252634
 42
0.007243
 10
160.595682
 20
134.221654
 42
0.00897
 10
158.432216
 20
134.121714
 42
0.015605
 10
156.276009
 20
133.920575
 42
0.132457
 10
154.260584
 20
133.313216
 42
0.13236
 10
156.276372
 20
132.705809
 42
0.015599
 10
158.431518
 20
132.504764
 42
0.008969
 10
160.594297
 20
132.404818
 42
0.007248
 10
162.760584
 20
132.373798
 42
0.007243
 10
164.925487
 20
132.404778
 42
0.00897
 10
167.088953
 20
132.504718
 42
0.015605
 10
169.245159
 20
132.705857
 42
0.132457
  0
LINE
  5
2B5
100
AcDbEntity
  8
0
  6
CONTINUOUS
 62
     7
100
AcDbLine
 10
225.572941
 20
69.511018
 30
0.0
 11
228.260582
 21
72.198669
 31
0.0
  0
LINE
  5
2B6
100
AcDbEntity
  8
0
  6
CONTINUOUS
 62
     7
100
AcDbLine
 10
223.327875
 20
69.511018
 30
0.0
 11
227.634572
 21
73.817719
 31
0.0
  0
LINE
  5
2B7
100
AcDbEntity
  8
0
  6
CONTINUOUS
 62
     7
100
AcDbLine
 10
221.082811
 20
69.511018
 30
0.0
 11
225.666152
 21
74.094363
 31
0.0
  0
LINE
  5
2B8
100
AcDbEntity
  8
0
  6
CONTINUOUS
 62
     7
100
AcDbLine
 10
218.837756
 20
69.511018
 30
0.0
 11
223.697732
 21
74.371007
 31
0.0
  0
LINE
  5
2B9
100
AcDbEntity
  8
0
  6
CONTINUOUS
 62
     7
100
AcDbLine
 10
216.592692
 20
69.511018
 30
0.0
 11
219.471562
 21
72.389896
 31
0.0
  0
LINE
  5
2BA
100
AcDbEntity
  8
0
  6
CONTINUOUS
 62
     7
100
AcDbLine
 10
220.917212
 20
73.835543
 30
0.0
 11
221.729312
 21
74.647651
 31
0.0
  0
LINE
  5
2BB
100
AcDbEntity
  8
0
  6
CONTINUOUS
 62
     7
100
AcDbLine
 10
214.34763
 20
69.511018
 30
0.0
 11
217.503145
 21
72.66654
 31
0.0
  0
LINE
  5
2BC
100
AcDbEntity
  8
0
  6
CONTINUOUS
 62
     7
100
AcDbLine
 10
213.02049
 20
70.428942
 30
0.0
 11
215.534727
 21
72.943184
 31
0.0
  0
LINE
  5
2BD
100
AcDbEntity
  8
0
  6
CONTINUOUS
 62
     7
100
AcDbLine
 10
212.618906
 20
72.272423
 30
0.0
 11
213.566309
 21
73.219828
 31
0.0
  0
LINE
  5
2BE
100
AcDbEntity
  8
0
  6
CONTINUOUS
 62
     7
100
AcDbLine
 10
227.198192
 20
82.361603
 30
0.0
 11
228.260582
 21
83.424
 31
0.0
  0
LINE
  5
2BF
100
AcDbEntity
  8
0
  6
CONTINUOUS
 62
     7
100
AcDbLine
 10
225.229772
 20
82.638246
 30
0.0
 11
228.260582
 21
85.669066
 31
0.0
  0
LINE
  5
2C0
100
AcDbEntity
  8
0
  6
CONTINUOUS
 62
     7
100
AcDbLine
 10
223.261352
 20
82.914889
 30
0.0
 11
227.309022
 21
86.962571
 31
0.0
  0
LINE
  5
2C1
100
AcDbEntity
  8
0
  6
CONTINUOUS
 62
     7
100
AcDbLine
 10
222.385682
 20
84.284284
 30
0.0
 11
225.612402
 21
87.511011
 31
0.0
  0
LINE
  5
2C2
100
AcDbEntity
  8
0
  6
CONTINUOUS
 62
     7
100
AcDbLine
 10
221.582262
 20
85.725931
 30
0.0
 11
223.367342
 21
87.511012
 31
0.0
  0
LINE
  5
2C3
100
AcDbEntity
  8
0
  6
CONTINUOUS
 62
     7
100
AcDbLine
 10
219.613842
 20
86.002574
 30
0.0
 11
221.122282
 21
87.511012
 31
0.0
  0
LINE
  5
2C4
100
AcDbEntity
  8
0
  6
CONTINUOUS
 62
     7
100
AcDbLine
 10
217.645425
 20
86.279217
 30
0.0
 11
218.877222
 21
87.511013
 31
0.0
  0
LINE
  5
2C5
100
AcDbEntity
  8
0
  6
CONTINUOUS
 62
     7
100
AcDbLine
 10
215.677006
 20
86.55586
 30
0.0
 11
216.632157
 21
87.511014
 31
0.0
  0
TEXT
  5
2C6
100
AcDbEntity
  8
0
  6
CONTINUOUS
100
AcDbText
 10
130.621335
 20
38.939254
 30
0.0
 40
6.0
  1
ＢＵ１１５Ｒ
100
AcDbText
  0
DIMENSION
  5
2D3
100
AcDbEntity
  8
寸法
100
AcDbDimension
  2
*D2
 10
162.760584
 20
100.0
 30
0.0
 11
173.760584
 21
102.5
 31
0.0
 70
    32
  3
STANDARD
100
AcDbAlignedDimension
 13
184.760584
 23
80.011014
 33
0.0
 14
162.760584
 24
90.505658
 34
0.0
100
AcDbRotatedDimension
  0
DIMENSION
  5
2E1
100
AcDbEntity
  8
寸法
100
AcDbDimension
  2
*D3
 10
200.0
 20
87.511014
 30
0.0
 11
197.5
 21
78.511012
 31
0.0
 70
    32
  3
STANDARD
100
AcDbAlignedDimension
 13
176.760584
 23
69.51101
 33
0.0
 14
176.760584
 24
87.511014
 34
0.0
 50
90.0
100
AcDbRotatedDimension
  0
DIMENSION
  5
2EE
100
AcDbEntity
  8
寸法
100
AcDbDimension
  2
*D4
 10
164.510584
 20
60.0
 30
0.0
 11
172.510584
 21
62.5
 31
0.0
 70
    32
  3
STANDARD
100
AcDbAlignedDimension
 13
161.010584
 23
66.505655
 33
0.0
 14
164.510584
 24
66.505655
 34
0.0
100
AcDbRotatedDimension
  0
DIMENSION
  5
2FD
100
AcDbEntity
  8
寸法
100
AcDbDimension
  2
*D5
 10
110.0
 20
85.511022
 30
0.0
 11
107.5
 21
77.511016
 31
0.0
 70
    32
  3
STANDARD
100
AcDbAlignedDimension
 13
122.642647
 23
69.51101
 33
0.0
 14
118.760615
 24
85.511022
 34
0.0
 50
90.0
100
AcDbRotatedDimension
  0
DIMENSION
  5
30A
100
AcDbEntity
  8
寸法
100
AcDbDimension
  2
*D6
 10
176.760584
 20
87.511014
 30
0.0
 11
103.196183
 21
95.516694
 31
0.0
 70
    34
  3
STANDARD
100
AcDb2LineAngularDimension
 13
118.760615
 23
85.511022
 33
0.0
 14
131.375493
 24
86.8369
 34
0.0
 15
134.93508
 25
87.511014
 35
0.0
 16
100.135188
 26
84.877983
 36
0.0
1001
ACAD
1000
DSTYLE
1002
{
1070
   271
1070
     0
1002
}
  0
LINE
  5
341
102
{ACAD_REACTORS
330
34B
102
}
100
AcDbEntity
  8
寸法
 62
     1
100
AcDbLine
 10
234.15522
 20
77.142582
 30
0.0
 11
250.930067
 21
74.785032
 31
0.0
  0
LINE
  5
342
102
{ACAD_REACTORS
330
34B
102
}
100
AcDbEntity
  8
寸法
 62
     1
100
AcDbLine
 10
228.260582
 20
77.971019
 30
0.0
 11
251.152853
 21
77.971019
 31
0.0
  0
ARC
  5
343
102
{ACAD_REACTORS
330
34B
102
}
100
AcDbEntity
  8
寸法
 62
     1
100
AcDbCircle
 10
228.260582
 20
77.971019
 30
0.0
 40
21.892271
100
AcDbArc
 50
341.516711
 51
352.000005
  0
LINE
  5
344
102
{ACAD_REACTORS
330
34B
102
}
100
AcDbEntity
  8
寸法
 62
     1
100
AcDbLine
 10
249.023566
 20
71.030555
 30
0.0
 11
246.297124
 21
62.874176
 31
0.0
  0
ARC
  5
345
102
{ACAD_REACTORS
330
34B
102
}
100
AcDbEntity
  8
寸法
 62
     1
100
AcDbCircle
 10
228.260582
 20
77.971019
 30
0.0
 40
21.892271
100
AcDbArc
 50
341.527684
 51
346.763845
  0
ARC
  5
346
100
AcDbEntity
  8
寸法
 62
     1
100
AcDbCircle
 10
228.260582
 20
77.971019
 30
0.0
 40
21.892271
100
AcDbArc
 50
5.236161
 51
10.472321
  0
ARC
  5
347
102
{ACAD_REACTORS
330
34B
102
}
100
AcDbEntity
  8
寸法
 62
     1
100
AcDbCircle
 10
228.260582
 20
77.971019
 30
0.0
 40
21.892271
100
AcDbArc
 50
352.000005
 51
360.0
  0
INSERT
  5
348
102
{ACAD_REACTORS
330
34B
102
}
100
AcDbEntity
  8
寸法
 62
     1
100
AcDbBlockReference
  2
_OPEN30
 10
249.939799
 20
74.924205
 30
0.0
 41
2.0
 42
2.0
 43
2.0
 50
79.381925
  0
INSERT
  5
349
102
{ACAD_REACTORS
330
34B
102
}
100
AcDbEntity
  8
寸法
 62
     1
100
AcDbBlockReference
  2
_OPEN30
 10
250.152853
 20
77.971019
 30
0.0
 41
2.0
 42
2.0
 43
2.0
 50
272.61808
  0
MTEXT
  5
34A
102
{ACAD_REACTORS
330
34B
102
}
100
AcDbEntity
  8
寸法
 62
     1
100
AcDbMText
 10
245.289305
 20
67.744935
 30
0.0
 40
3.0
 41
0.0
 71
     5
 72
     1
  1
\A1;8°
 11
0.317028
 21
0.948416
 31
0.0
1001
ACAD
1000
MTEXTBEGIN
1070
    73
1070
     1
1070
    44
1040
1.0
1070
    74
1070
     0
1000
MTEXTEND
  0
DIMENSION
  5
34D
100
AcDbEntity
  8
寸法
100
AcDbDimension
  2
*D7
 10
240.0
 20
69.511018
 30
0.0
 11
237.5
 21
62.011018
 31
0.0
 70
    32
  3
STANDARD
100
AcDbAlignedDimension
 13
228.260582
 23
77.971019
 33
0.0
 14
226.647956
 24
69.511018
 34
0.0
 50
90.0
100
AcDbRotatedDimension
  0
DIMENSION
  5
375
100
AcDbEntity
  8
寸法
100
AcDbDimension
  2
*D8
 10
118.760593
 20
110.0
 30
0.0
 11
151.760585
 21
112.5
 31
0.0
 70
    32
  3
STANDARD
100
AcDbAlignedDimension
 13
184.760577
 23
138.853566
 33
0.0
 14
118.760593
 24
132.166558
 34
0.0
100
AcDbRotatedDimension
  0
DIMENSION
  5
382
100
AcDbEntity
  8
寸法
100
AcDbDimension
  2
*D9
 10
176.760584
 20
120.0
 30
0.0
 11
180.760581
 21
122.5
 31
0.0
 70
    32
  3
STANDARD
100
AcDbAlignedDimension
 13
184.760577
 23
138.853566
 33
0.0
 14
176.760584
 24
132.149558
 34
0.0
100
AcDbRotatedDimension
1001
ACAD
1000
DSTYLE
1002
{
1070
   287
1070
     4
1070
   279
1070
     1
1002
}
  0
DIMENSION
  5
407
100
AcDbEntity
  8
寸法
100
AcDbDimension
  2
*D10
 10
133.76059
 20
129.866558
 30
0.0
 11
139.29341
 21
119.443
 31
0.0
 70
    34
  3
STANDARD
100
AcDb2LineAngularDimension
 13
118.760593
 23
132.166558
 33
0.0
 14
131.076358
 24
128.866558
 34
0.0
 15
131.344307
 25
129.866558
 35
0.0
 16
144.722544
 26
128.346159
 36
0.0
1001
ACAD
1000
DSTYLE
1002
{
1070
   271
1070
     0
1002
}
  0
DIMENSION
  5
418
100
AcDbEntity
  8
寸法
100
AcDbDimension
  2
*D11
 10
110.0
 20
128.866558
 30
0.0
 11
107.5
 21
138.366558
 31
0.0
 70
    32
  3
STANDARD
100
AcDbAlignedDimension
 13
122.967395
 23
147.866557
 33
0.0
 14
131.076358
 24
128.866558
 34
0.0
 50
90.0
100
AcDbRotatedDimension
  0
LINE
  5
425
100
AcDbEntity
  8
0
  6
CENTER
 62
     1
 48
0.5
100
AcDbLine
 10
81.044364
 20
132.166558
 30
0.0
 11
77.994628
 21
153.866558
 31
0.0
  0
ARC
  5
43C
100
AcDbEntity
  8
0
  6
CENTER
 62
     1
 48
0.5
100
AcDbCircle
 10
77.994628
 20
153.866558
 30
0.0
 40
24.0
100
AcDbArc
 50
180.0
 51
0.0
  0
ARC
  5
447
100
AcDbEntity
  8
0
  6
CENTER
 62
     1
 48
0.5
100
AcDbCircle
 10
77.994628
 20
156.249842
 30
0.0
 40
24.118044
100
AcDbArc
 50
185.67108
 51
354.32892
  0
INSERT
  5
44A
100
AcDbEntity
  8
寸法
100
AcDbBlockReference
  2
_OPEN30
 10
61.674563
 20
136.150035
 30
0.0
 41
2.0
 42
2.0
 43
2.0
 50
65.30224
1001
ACAD
1000
DSTYLE
1002
{
1070
   147
1040
1.0
1070
    77
1070
     0
1002
}
  0
LWPOLYLINE
  5
44B
102
{ACAD_REACTORS
330
44E
102
}
100
AcDbEntity
  8
寸法
100
AcDbPolyline
 90
        3
 70
     0
 43
0.0
 10
60.8389
 20
134.332986
 10
57.416976
 20
126.892423
 10
43.767656
 20
126.892423
1001
ACAD
1000
DSTYLE
1002
{
1070
   147
1040
1.0
1070
    77
1070
     0
1002
}
  0
TEXT
  5
44C
102
{ACAD_REACTORS
330
44E
102
}
100
AcDbEntity
  8
寸法
 62
     1
100
AcDbText
 10
44.894664
 20
128.393657
 30
0.0
 40
3.0
  1
\U+2205
100
AcDbText
  0
TEXT
  5
44D
102
{ACAD_REACTORS
330
44E
102
}
100
AcDbEntity
  8
寸法
 62
     1
100
AcDbText
 10
48.275687
 20
128.393657
 30
0.0
 40
3.0
  1
48
100
AcDbText
  0
LINE
  5
455
100
AcDbEntity
  8
0
  6
CENTER
 62
     1
 48
0.5
100
AcDbLine
 10
77.994628
 20
153.866558
 30
0.0
 11
77.994628
 21
128.866558
 31
0.0
  0
DIMENSION
  5
456
100
AcDbEntity
  8
0
  6
CENTER
 62
     1
 48
0.5
100
AcDbDimension
  2
*D12
 10
77.994628
 20
128.866558
 30
0.0
 11
71.825435
 21
116.583231
 31
0.0
 70
    34
  3
STANDARD
100
AcDb2LineAngularDimension
 13
81.473955
 23
129.109856
 33
0.0
 14
77.994628
 24
153.866558
 34
0.0
 15
77.994628
 25
153.866558
 35
0.0
 16
81.71679
 26
113.995076
 36
0.0
1001
ACAD
1000
DSTYLE
1002
{
1070
   271
1070
     0
1002
}
  0
ENDSEC
  0
SECTION
  2
OBJECTS
  0
DICTIONARY
  5
C
100
AcDbDictionary
  3
ACAD_GROUP
350
D
  3
ACAD_LAYOUT
350
2CB
  3
ACAD_MLINESTYLE
350
1B
  3
ACAD_PLOTSETTINGS
350
2CC
  3
ACAD_PLOTSTYLENAME
350
2C9
  3
ACDBHEADERROUNDTRIPXREC
350
471
  3
ACDBVARIABLEDICTIONARY
350
33
  3
CONTENTDICTIONARY
350
23
  0
DICTIONARY
  5
46D
100
AcDbDictionary
280
     1
  3
ACAD_XREC_ROUNDTRIP
360
46E
  0
DICTIONARY
  5
496
100
AcDbDictionary
280
     1
  3
ACAD_XREC_ROUNDTRIP
360
497
  0
DICTIONARY
  5
494
100
AcDbDictionary
280
     1
  3
ACAD_LAYOUTSELFREF
360
495
  0
DICTIONARY
  5
492
100
AcDbDictionary
280
     1
  3
ACAD_LAYOUTSELFREF
360
493
  0
DICTIONARY
  5
D
102
{ACAD_REACTORS
330
C
102
}
100
AcDbDictionary
  3
*A1
350
34B
  3
*A2
350
44E
  0
DICTIONARY
  5
2CB
102
{ACAD_XDICTIONARY
360
498
102
}
102
{ACAD_REACTORS
330
C
102
}
100
AcDbDictionary
  3
MODEL
350
2CD
  3
ﾚｲｱｳﾄ1
350
2CE
  0
DICTIONARY
  5
1B
102
{ACAD_REACTORS
330
C
102
}
100
AcDbDictionary
  3
STANDARD
350
1C
  0
DICTIONARY
  5
2CC
102
{ACAD_REACTORS
330
C
102
}
100
AcDbDictionary
  0
ACAD_PROXY_OBJECT
  5
2C9
102
{ACAD_REACTORS
330
C
102
}
100
AcDbProxyObject
 90
      499
 91
      502
 93
       86
310
405010041939BDC9B585B0
350
2CA
340
2CA
 94
        0
  0
DICTIONARY
  5
471
102
{ACAD_REACTORS
330
C
102
}
100
AcDbDictionary
  3
CEPSNTYPE
350
47B
  3
DIMSTYLEDATA
350
47F
  3
FINGERPRINTGUID
350
47C
  3
HYPERLINKBASE
350
474
  3
INSUNITS
350
47A
  3
LAYOUTDICT
350
476
  3
LWETCUNION
350
479
  3
PLOTSETDICT
350
477
  3
PLOTSTYLNAMDICT
350
478
  3
PSVPSCALE
350
47E
  3
PUCSBASE
350
482
  3
PUCSORGBACK
350
488
  3
PUCSORGBOTTOM
350
484
  3
PUCSORGFRONT
350
487
  3
PUCSORGLEFT
350
485
  3
PUCSORGRIGHT
350
486
  3
PUCSORGTOP
350
483
  3
PUCSORTHOREF
350
480
  3
PUCSORTHOVIEW
350
481
  3
STYLESHEET
350
475
  3
TSTACKALIGN
350
472
  3
TSTACKSIZE
350
473
  3
UCSBASE
350
48B
  3
UCSORGBACK
350
491
  3
UCSORGBOTTOM
350
48D
  3
UCSORGFRONT
350
490
  3
UCSORGLEFT
350
48E
  3
UCSORGRIGHT
350
48F
  3
UCSORGTOP
350
48C
  3
UCSORTHOREF
350
489
  3
UCSORTHOVIEW
350
48A
  3
VERSIONGUID
350
47D
  0
DICTIONARY
  5
33
102
{ACAD_REACTORS
330
C
102
}
100
AcDbDictionary
  3
DIMADEC
350
34
  0
DICTIONARY
  5
23
102
{ACAD_REACTORS
330
C
102
}
100
AcDbDictionary
  0
XRECORD
  5
46E
102
{ACAD_REACTORS
330
46D
102
}
100
AcDbXrecord
102
EXTNAMES
  1
DEFPOINTS
  2
Defpoints
102
PLOTBIT
280
     0
  0
XRECORD
  5
497
102
{ACAD_REACTORS
330
496
102
}
100
AcDbXrecord
102
ACADR14ROUNDTRIP
1000
DSTYLE
1002
{
1070
   341
340
37
1070
   343
340
37
1070
   344
340
37
1002
}
  0
XRECORD
  5
495
102
{ACAD_REACTORS
330
494
102
}
100
AcDbXrecord
340
18
  0
XRECORD
  5
493
102
{ACAD_REACTORS
330
492
102
}
100
AcDbXrecord
340
15
  0
GROUP
  5
34B
102
{ACAD_REACTORS
330
D
102
}
100
AcDbGroup
300

 70
     1
 71
     1
340
342
340
341
340
345
340
343
340
347
340
348
340
349
340
344
340
34A
  0
GROUP
  5
44E
102
{ACAD_REACTORS
330
D
102
}
100
AcDbGroup
300

 70
     1
 71
     1
340
44B
340
44C
340
44D
  0
DICTIONARY
  5
498
100
AcDbDictionary
280
     1
  3
ACAD_XREC_ROUNDTRIP
360
499
  0
ACAD_PROXY_OBJECT
  5
2CD
102
{ACAD_REACTORS
330
2CB
102
}
100
AcDbProxyObject
 90
      499
 91
      504
 93
      548
310
90E4550534F4E20504D2D32303030432C01AAAAAAAAA5A69054D6F64656C901A800000000000000000000000000000000000000000000A1000000000000008902A6A6AAAA0
330
18
330
0
340
0
340
0
 94
        0
  0
ACAD_PROXY_OBJECT
  5
2CE
102
{ACAD_REACTORS
330
2CB
102
}
100
AcDbProxyObject
 90
      499
 91
      504
 93
      964
310
90E4550534F4E20504D2D32303030432C00AAAAAA416AA59106906DAB2B1B3C43140501A800000000000000000000000000000000000000000101E900000000000241C902A6A6A10232D5E076BC5510408CB5781DAF154410232D5E076BC5510408CB5781DAF15C410232D5E076BC5710408CB5781DAF15C40
330
15
330
0
340
0
340
0
 94
        0
  0
MLINESTYLE
  5
1C
102
{ACAD_REACTORS
330
1B
102
}
100
AcDbMlineStyle
  2
STANDARD
 70
     0
  3

 62
   256
 51
90.0
 52
90.0
 71
     2
 49
0.5
 62
   256
  6
BYLAYER
 49
-0.5
 62
   256
  6
BYLAYER
  0
ACAD_PROXY_OBJECT
  5
2CA
102
{ACAD_REACTORS
330
2C9
102
}
100
AcDbProxyObject
 90
      499
 91
      503
 93
        0
 94
        0
  0
XRECORD
  5
47B
102
{ACAD_REACTORS
330
471
102
}
100
AcDbXrecord
 90
        0
  0
XRECORD
  5
47F
102
{ACAD_REACTORS
330
471
102
}
100
AcDbXrecord
1000
DSTYLE
1002
{
1070
   341
340
37
1070
   343
340
37
1070
   344
340
37
1002
}
  0
XRECORD
  5
47C
102
{ACAD_REACTORS
330
471
102
}
100
AcDbXrecord
  1
{CE357383-EF6D-41FD-933D-CDAC4712FA75}
  0
XRECORD
  5
474
102
{ACAD_REACTORS
330
471
102
}
100
AcDbXrecord
  1

  0
XRECORD
  5
47A
102
{ACAD_REACTORS
330
471
102
}
100
AcDbXrecord
 90
        0
  0
XRECORD
  5
476
102
{ACAD_REACTORS
330
471
102
}
100
AcDbXrecord
340
2CB
  0
XRECORD
  5
479
102
{ACAD_REACTORS
330
471
102
}
100
AcDbXrecord
 90
    14877
  0
XRECORD
  5
477
102
{ACAD_REACTORS
330
471
102
}
100
AcDbXrecord
340
2CC
  0
XRECORD
  5
478
102
{ACAD_REACTORS
330
471
102
}
100
AcDbXrecord
340
2C9
  0
XRECORD
  5
47E
102
{ACAD_REACTORS
330
471
102
}
100
AcDbXrecord
 40
0.0
  0
XRECORD
  5
482
102
{ACAD_REACTORS
330
471
102
}
100
AcDbXrecord
340
0
  0
XRECORD
  5
488
102
{ACAD_REACTORS
330
471
102
}
100
AcDbXrecord
 10
0.0
 20
0.0
 30
0.0
  0
XRECORD
  5
484
102
{ACAD_REACTORS
330
471
102
}
100
AcDbXrecord
 10
0.0
 20
0.0
 30
0.0
  0
XRECORD
  5
487
102
{ACAD_REACTORS
330
471
102
}
100
AcDbXrecord
 10
0.0
 20
0.0
 30
0.0
  0
XRECORD
  5
485
102
{ACAD_REACTORS
330
471
102
}
100
AcDbXrecord
 10
0.0
 20
0.0
 30
0.0
  0
XRECORD
  5
486
102
{ACAD_REACTORS
330
471
102
}
100
AcDbXrecord
 10
0.0
 20
0.0
 30
0.0
  0
XRECORD
  5
483
102
{ACAD_REACTORS
330
471
102
}
100
AcDbXrecord
 10
0.0
 20
0.0
 30
0.0
  0
XRECORD
  5
480
102
{ACAD_REACTORS
330
471
102
}
100
AcDbXrecord
340
0
  0
XRECORD
  5
481
102
{ACAD_REACTORS
330
471
102
}
100
AcDbXrecord
 70
     0
  0
XRECORD
  5
475
102
{ACAD_REACTORS
330
471
102
}
100
AcDbXrecord
  1

  0
XRECORD
  5
472
102
{ACAD_REACTORS
330
471
102
}
100
AcDbXrecord
 90
        1
  0
XRECORD
  5
473
102
{ACAD_REACTORS
330
471
102
}
100
AcDbXrecord
 90
       70
  0
XRECORD
  5
48B
102
{ACAD_REACTORS
330
471
102
}
100
AcDbXrecord
340
0
  0
XRECORD
  5
491
102
{ACAD_REACTORS
330
471
102
}
100
AcDbXrecord
 10
0.0
 20
0.0
 30
0.0
  0
XRECORD
  5
48D
102
{ACAD_REACTORS
330
471
102
}
100
AcDbXrecord
 10
0.0
 20
0.0
 30
0.0
  0
XRECORD
  5
490
102
{ACAD_REACTORS
330
471
102
}
100
AcDbXrecord
 10
0.0
 20
0.0
 30
0.0
  0
XRECORD
  5
48E
102
{ACAD_REACTORS
330
471
102
}
100
AcDbXrecord
 10
0.0
 20
0.0
 30
0.0
  0
XRECORD
  5
48F
102
{ACAD_REACTORS
330
471
102
}
100
AcDbXrecord
 10
0.0
 20
0.0
 30
0.0
  0
XRECORD
  5
48C
102
{ACAD_REACTORS
330
471
102
}
100
AcDbXrecord
 10
0.0
 20
0.0
 30
0.0
  0
XRECORD
  5
489
102
{ACAD_REACTORS
330
471
102
}
100
AcDbXrecord
340
0
  0
XRECORD
  5
48A
102
{ACAD_REACTORS
330
471
102
}
100
AcDbXrecord
 70
     0
  0
XRECORD
  5
47D
102
{ACAD_REACTORS
330
471
102
}
100
AcDbXrecord
  1
{B4EDC15C-ABBD-42E4-A6A1-447D8A4FACCE}
  0
DICTIONARYVAR
  5
34
102
{ACAD_REACTORS
330
33
102
}
100
DictionaryVariables
280
     0
  1
0
  0
XRECORD
  5
499
102
{ACAD_REACTORS
330
498
102
}
100
AcDbXrecord
102
EXTNAMES
  1
MODEL
  2
Model
  0
ENDSEC
  0
EOF
