  0
SECTION
  2
HEADER
  9
$ACADVER
  1
AC1014
  9
$ACADMAINTVER
 70
     0
  9
$DWGCODEPAGE
  3
ANSI_932
  9
$INSBASE
 10
0.0
 20
0.0
 30
0.0
  9
$EXTMIN
 10
59.37518
 20
55.980311
 30
0.0
  9
$EXTMAX
 10
221.029456
 20
153.017393
 30
0.0
  9
$LIMMIN
 10
0.0
 20
0.0
  9
$LIMMAX
 10
297.0
 20
210.0
  9
$ORTHOMODE
 70
     1
  9
$REGENMODE
 70
     1
  9
$FILLMODE
 70
     1
  9
$QTEXTMODE
 70
     0
  9
$MIRRTEXT
 70
     1
  9
$DRAGMODE
 70
     2
  9
$LTSCALE
 40
0.707071
  9
$OSMODE
 70
    33
  9
$ATTMODE
 70
     1
  9
$TEXTSIZE
 40
1.767677
  9
$TRACEWID
 40
1.0
  9
$TEXTSTYLE
  7
STANDARD
  9
$CLAYER
  8
寸法
  9
$CELTYPE
  6
BYLAYER
  9
$CECOLOR
 62
   256
  9
$CELTSCALE
 40
1.0
  9
$DELOBJ
 70
     1
  9
$DISPSILH
 70
     0
  9
$DIMSCALE
 40
1.0
  9
$DIMASZ
 40
2.0
  9
$DIMEXO
 40
1.0
  9
$DIMDLI
 40
10.0
  9
$DIMRND
 40
0.0
  9
$DIMDLE
 40
0.0
  9
$DIMEXE
 40
1.0
  9
$DIMTP
 40
0.0
  9
$DIMTM
 40
0.0
  9
$DIMTXT
 40
3.0
  9
$DIMCEN
 40
2.0
  9
$DIMTSZ
 40
0.0
  9
$DIMTOL
 70
     0
  9
$DIMLIM
 70
     0
  9
$DIMTIH
 70
     0
  9
$DIMTOH
 70
     0
  9
$DIMSE1
 70
     0
  9
$DIMSE2
 70
     0
  9
$DIMTAD
 70
     1
  9
$DIMZIN
 70
     8
  9
$DIMBLK
  1

  9
$DIMASO
 70
     1
  9
$DIMSHO
 70
     1
  9
$DIMPOST
  1

  9
$DIMAPOST
  1

  9
$DIMALT
 70
     0
  9
$DIMALTD
 70
     2
  9
$DIMALTF
 40
25.4
  9
$DIMLFAC
 40
1.0
  9
$DIMTOFL
 70
     1
  9
$DIMTVP
 40
0.0
  9
$DIMTIX
 70
     0
  9
$DIMSOXD
 70
     0
  9
$DIMSAH
 70
     1
  9
$DIMBLK1
  1
OPEN30
  9
$DIMBLK2
  1
OPEN30
  9
$DIMSTYLE
  2
STANDARD
  9
$DIMCLRD
 70
     1
  9
$DIMCLRE
 70
     1
  9
$DIMCLRT
 70
     1
  9
$DIMTFAC
 40
1.0
  9
$DIMGAP
 40
1.0
  9
$DIMJUST
 70
     0
  9
$DIMSD1
 70
     0
  9
$DIMSD2
 70
     0
  9
$DIMTOLJ
 70
     1
  9
$DIMTZIN
 70
     0
  9
$DIMALTZ
 70
     0
  9
$DIMALTTZ
 70
     0
  9
$DIMFIT
 70
     3
  9
$DIMUPT
 70
     0
  9
$DIMUNIT
 70
     2
  9
$DIMDEC
 70
     2
  9
$DIMTDEC
 70
     4
  9
$DIMALTU
 70
     2
  9
$DIMALTTD
 70
     2
  9
$DIMTXSTY
  7
STANDARD
  9
$DIMAUNIT
 70
     0
  9
$LUNITS
 70
     2
  9
$LUPREC
 70
     4
  9
$SKETCHINC
 40
1.0
  9
$FILLETRAD
 40
7.070707
  9
$AUNITS
 70
     0
  9
$AUPREC
 70
     0
  9
$MENU
  1
acad
  9
$ELEVATION
 40
0.0
  9
$PELEVATION
 40
0.0
  9
$THICKNESS
 40
0.0
  9
$LIMCHECK
 70
     0
  9
$BLIPMODE
 70
     0
  9
$CHAMFERA
 40
7.070707
  9
$CHAMFERB
 40
7.070707
  9
$CHAMFERC
 40
14.141414
  9
$CHAMFERD
 40
0.0
  9
$SKPOLY
 70
     0
  9
$TDCREATE
 40
2451930.603969907
  9
$TDUPDATE
 40
2451977.422210648
  9
$TDINDWG
 40
0.0485649306
  9
$TDUSRTIMER
 40
0.0485649306
  9
$USRTIMER
 70
     1
  9
$ANGBASE
 50
0.0
  9
$ANGDIR
 70
     0
  9
$PDMODE
 70
     0
  9
$PDSIZE
 40
0.0
  9
$PLINEWID
 40
0.0
  9
$COORDS
 70
     1
  9
$SPLFRAME
 70
     0
  9
$SPLINETYPE
 70
     6
  9
$SPLINESEGS
 70
     8
  9
$ATTDIA
 70
     0
  9
$ATTREQ
 70
     1
  9
$HANDLING
 70
     1
  9
$HANDSEED
  5
624
  9
$SURFTAB1
 70
     6
  9
$SURFTAB2
 70
     6
  9
$SURFTYPE
 70
     6
  9
$SURFU
 70
     6
  9
$SURFV
 70
     6
  9
$UCSNAME
  2

  9
$UCSORG
 10
0.0
 20
0.0
 30
0.0
  9
$UCSXDIR
 10
1.0
 20
0.0
 30
0.0
  9
$UCSYDIR
 10
0.0
 20
1.0
 30
0.0
  9
$PUCSNAME
  2

  9
$PUCSORG
 10
0.0
 20
0.0
 30
0.0
  9
$PUCSXDIR
 10
1.0
 20
0.0
 30
0.0
  9
$PUCSYDIR
 10
0.0
 20
1.0
 30
0.0
  9
$USERI1
 70
     0
  9
$USERI2
 70
     0
  9
$USERI3
 70
     0
  9
$USERI4
 70
     0
  9
$USERI5
 70
     0
  9
$USERR1
 40
0.0
  9
$USERR2
 40
0.0
  9
$USERR3
 40
0.0
  9
$USERR4
 40
0.0
  9
$USERR5
 40
0.0
  9
$WORLDVIEW
 70
     1
  9
$SHADEDGE
 70
     3
  9
$SHADEDIF
 70
    70
  9
$TILEMODE
 70
     1
  9
$MAXACTVP
 70
    48
  9
$PINSBASE
 10
0.0
 20
0.0
 30
0.0
  9
$PLIMCHECK
 70
     0
  9
$PEXTMIN
 10
1.000000E+20
 20
1.000000E+20
 30
1.000000E+20
  9
$PEXTMAX
 10
-1.000000E+20
 20
-1.000000E+20
 30
-1.000000E+20
  9
$PLIMMIN
 10
0.0
 20
0.0
  9
$PLIMMAX
 10
420.0
 20
297.0
  9
$UNITMODE
 70
     0
  9
$VISRETAIN
 70
     1
  9
$PLINEGEN
 70
     0
  9
$PSLTSCALE
 70
     1
  9
$TREEDEPTH
 70
  3020
  9
$PICKSTYLE
 70
     1
  9
$CMLSTYLE
  2
STANDARD
  9
$CMLJUST
 70
     0
  9
$CMLSCALE
 40
20.0
  9
$PROXYGRAPHICS
 70
     1
  9
$MEASUREMENT
 70
     1
  0
ENDSEC
  0
SECTION
  2
CLASSES
  0
CLASS
  1
DICTIONARYVAR
  2
AcDbDictionaryVar
  3
"AutoCAD"
 90
        0
280
     0
281
     0
  0
CLASS
  1
LWPOLYLINE
  2
AcDbPolyline
  3
"AutoCAD"
 90
        0
280
     0
281
     1
  0
CLASS
  1
ACDBDICTIONARYWDFLT
  2
AcDbDictionaryWithDefault
  3
AutoCAD 2000
 90
        0
280
     0
281
     0
  0
CLASS
  1
ACDBPLACEHOLDER
  2
AcDbPlaceHolder
  3
AutoCAD 2000
 90
        0
280
     0
281
     0
  0
CLASS
  1
LAYOUT
  2
AcDbLayout
  3
AutoCAD 2000
 90
        0
280
     0
281
     0
  0
CLASS
  1
LONG_TRANSACTION
  2
AcDbLongTransaction
  3
AutoCAD 2000
 90
        0
280
     0
281
     0
  0
CLASS
  1
LWPOLYLINE
  2
AcDbPolyline
  3
"AutoCAD"
 90
        0
280
     0
281
     1
  0
CLASS
  1
HATCH
  2
AcDbHatch
  3
"ACAD_SEDONA"
 90
        0
280
     0
281
     1
  0
CLASS
  1
XRECORD
  2
AcDbXrecord
  3
"<Built In>"
 90
        0
280
     0
281
     0
  0
CLASS
  1
LONG_TRANSACTION
  2
AcDbLongTransaction
  3
AutoCAD 2000
 90
        0
280
     0
281
     0
  0
CLASS
  1
LWPOLYLINE
  2
AcDbPolyline
  3
"AutoCAD"
 90
        0
280
     0
281
     1
  0
CLASS
  1
HATCH
  2
AcDbHatch
  3
"ACAD_SEDONA"
 90
        0
280
     0
281
     1
  0
CLASS
  1
XRECORD
  2
AcDbXrecord
  3
"<Built In>"
 90
        0
280
     0
281
     0
  0
ENDSEC
  0
SECTION
  2
TABLES
  0
TABLE
  2
VPORT
  5
8
100
AcDbSymbolTable
 70
     2
  0
VPORT
  5
623
100
AcDbSymbolTableRecord
100
AcDbViewportTableRecord
  2
*ACTIVE
 70
     0
 10
0.0
 20
0.0
 11
1.0
 21
1.0
 12
146.415605
 22
114.077955
 13
0.0
 23
0.0
 14
10.0
 24
10.0
 15
10.0
 25
10.0
 16
0.0
 26
0.0
 36
1.0
 17
0.0
 27
0.0
 37
0.0
 40
139.822359
 41
1.710425
 42
50.0
 43
0.0
 44
0.0
 50
0.0
 51
0.0
 71
     0
 72
   100
 73
     1
 74
     1
 75
     0
 76
     0
 77
     0
 78
     0
  0
ENDTAB
  0
TABLE
  2
LTYPE
  5
5
100
AcDbSymbolTable
 70
     5
  0
LTYPE
  5
12
100
AcDbSymbolTableRecord
100
AcDbLinetypeTableRecord
  2
BYBLOCK
 70
     0
  3

 72
    65
 73
     0
 40
0.0
  0
LTYPE
  5
13
100
AcDbSymbolTableRecord
100
AcDbLinetypeTableRecord
  2
BYLAYER
 70
     0
  3

 72
    65
 73
     0
 40
0.0
  0
LTYPE
  5
14
100
AcDbSymbolTableRecord
100
AcDbLinetypeTableRecord
  2
CONTINUOUS
 70
     0
  3
Solid line
 72
    65
 73
     0
 40
0.0
  0
LTYPE
  5
4E
100
AcDbSymbolTableRecord
100
AcDbLinetypeTableRecord
  2
DASHED
 70
     0
  3
__ __ __ __ __ __ __ __ __ __ __ __ __ __ __
 72
    65
 73
     2
 40
3.5
 49
2.0
 74
     0
 49
-1.5
 74
     0
  0
LTYPE
  5
4F
100
AcDbSymbolTableRecord
100
AcDbLinetypeTableRecord
  2
CENTER
 70
     0
  3
____ _ ____ _ ____ _ ____ _ ____ _ ____ _ ____
 72
    65
 73
     4
 40
17.5
 49
13.0
 74
     0
 49
-1.5
 74
     0
 49
1.5
 74
     0
 49
-1.5
 74
     0
  0
LTYPE
  5
50
100
AcDbSymbolTableRecord
100
AcDbLinetypeTableRecord
  2
PHANTOM
 70
     0
  3
_____ _ _ _____ _ _ _____ _ _ _____ _ _ ____  
 72
    65
 73
     6
 40
15.5
 49
8.0
 74
     0
 49
-1.5
 74
     0
 49
1.5
 74
     0
 49
-1.5
 74
     0
 49
1.5
 74
     0
 49
-1.5
 74
     0
  0
LTYPE
  5
51
100
AcDbSymbolTableRecord
100
AcDbLinetypeTableRecord
  2
DOT
 70
     0
  3
. . . . . . . . . . . . . . . . . . . . . . . .
 72
    65
 73
     2
 40
0.25
 49
0.0
 74
     0
 49
-0.25
 74
     0
  0
ENDTAB
  0
TABLE
  2
LAYER
  5
2
100
AcDbSymbolTable
 70
     3
  0
LAYER
  5
E
100
AcDbSymbolTableRecord
100
AcDbLayerTableRecord
  2
0
 70
     0
 62
     7
  6
CONTINUOUS
  0
LAYER
  5
18E
102
{ACAD_XDICTIONARY
360
5D1
102
}
100
AcDbSymbolTableRecord
100
AcDbLayerTableRecord
  2
DEFPOINTS
 70
     0
 62
     7
  6
CONTINUOUS
  0
LAYER
  5
2D4
100
AcDbSymbolTableRecord
100
AcDbLayerTableRecord
  2
寸法
 70
     0
 62
     1
  6
CONTINUOUS
  0
ENDTAB
  0
TABLE
  2
STYLE
  5
3
100
AcDbSymbolTable
 70
     1
  0
STYLE
  5
F
100
AcDbSymbolTableRecord
100
AcDbTextStyleTableRecord
  2
STANDARD
 70
     0
 40
0.0
 41
1.0
 50
0.0
 71
     0
 42
1.767677
  3
txt.shx
  4
bigfont.shx
  0
ENDTAB
  0
TABLE
  2
VIEW
  5
6
100
AcDbSymbolTable
 70
     0
  0
ENDTAB
  0
TABLE
  2
UCS
  5
7
100
AcDbSymbolTable
 70
     0
  0
ENDTAB
  0
TABLE
  2
APPID
  5
9
100
AcDbSymbolTable
 70
     3
  0
APPID
  5
10
100
AcDbSymbolTableRecord
100
AcDbRegAppTableRecord
  2
ACAD
 70
     0
  0
APPID
  5
24
100
AcDbSymbolTableRecord
100
AcDbRegAppTableRecord
  2
CONTENTTABDATA
 70
     0
  0
APPID
  5
25
100
AcDbSymbolTableRecord
100
AcDbRegAppTableRecord
  2
CONTENTCURRENTTAB
 70
     0
  0
ENDTAB
  0
TABLE
  2
DIMSTYLE
  5
A
100
AcDbSymbolTable
 70
     2
  0
DIMSTYLE
105
1D
102
{ACAD_XDICTIONARY
360
5CF
102
}
102
{ACAD_REACTORS
330
39C
330
3AB
330
3B8
330
3C7
330
3E1
330
3F4
330
401
330
417
330
428
330
467
330
531
102
}
100
AcDbSymbolTableRecord
100
AcDbDimStyleTableRecord
  2
STANDARD
 70
     0
  3

  4

  5

  6
OPEN30
  7
OPEN30
 40
1.0
 41
2.0
 42
1.0
 43
10.0
 44
1.0
 45
0.0
 46
0.0
 47
0.0
 48
0.0
140
3.0
141
2.0
142
0.0
143
25.4
144
1.0
145
0.0
146
1.0
147
1.0
 71
     0
 72
     0
 73
     0
 74
     0
 75
     0
 76
     0
 77
     1
 78
     8
170
     0
171
     2
172
     1
173
     1
174
     0
175
     0
176
     1
177
     1
178
     1
270
     2
271
     2
272
     4
273
     2
274
     2
340
F
275
     0
280
     0
281
     0
282
     0
283
     1
284
     0
285
     0
286
     0
287
     3
288
     0
  0
DIMSTYLE
105
35
100
AcDbSymbolTableRecord
100
AcDbDimStyleTableRecord
  2
STANDARD_WS
 70
     0
  3

  4

  5

  6

  7

 40
0.707071
 41
2.5
 42
0.625
 43
3.75
 44
1.25
 45
0.0
 46
0.0
 47
0.0
 48
0.0
140
2.5
141
2.5
142
0.0
143
0.0394
144
1.0
145
0.0
146
1.0
147
0.625
 71
     0
 72
     0
 73
     0
 74
     0
 75
     0
 76
     0
 77
     1
 78
     8
170
     0
171
     4
172
     1
173
     0
174
     0
175
     0
176
     0
177
     0
178
     0
270
     2
271
     4
272
     4
273
     8
274
     4
340
F
275
     0
280
     0
281
     0
282
     0
283
     1
284
     0
285
     0
286
     0
287
     3
288
     0
  0
ENDTAB
  0
TABLE
  2
BLOCK_RECORD
  5
1
100
AcDbSymbolTable
 70
    13
  0
BLOCK_RECORD
  5
18
102
{ACAD_XDICTIONARY
360
4EB
102
}
100
AcDbSymbolTableRecord
100
AcDbBlockTableRecord
  2
*MODEL_SPACE
  0
BLOCK_RECORD
  5
15
102
{ACAD_XDICTIONARY
360
4E9
102
}
100
AcDbSymbolTableRecord
100
AcDbBlockTableRecord
  2
*PAPER_SPACE
  0
BLOCK_RECORD
  5
37
100
AcDbSymbolTableRecord
100
AcDbBlockTableRecord
  2
_OPEN30
  0
BLOCK_RECORD
  5
52
100
AcDbSymbolTableRecord
100
AcDbBlockTableRecord
  2
BU133R
  0
BLOCK_RECORD
  5
39D
100
AcDbSymbolTableRecord
100
AcDbBlockTableRecord
  2
*D2
  0
BLOCK_RECORD
  5
3AC
100
AcDbSymbolTableRecord
100
AcDbBlockTableRecord
  2
*D3
  0
BLOCK_RECORD
  5
3B9
100
AcDbSymbolTableRecord
100
AcDbBlockTableRecord
  2
*D4
  0
BLOCK_RECORD
  5
3C8
100
AcDbSymbolTableRecord
100
AcDbBlockTableRecord
  2
*D5
  0
BLOCK_RECORD
  5
3E2
100
AcDbSymbolTableRecord
100
AcDbBlockTableRecord
  2
*D6
  0
BLOCK_RECORD
  5
3F5
100
AcDbSymbolTableRecord
100
AcDbBlockTableRecord
  2
*D7
  0
BLOCK_RECORD
  5
402
100
AcDbSymbolTableRecord
100
AcDbBlockTableRecord
  2
*D8
  0
BLOCK_RECORD
  5
418
100
AcDbSymbolTableRecord
100
AcDbBlockTableRecord
  2
*D9
  0
BLOCK_RECORD
  5
429
100
AcDbSymbolTableRecord
100
AcDbBlockTableRecord
  2
*D10
  0
BLOCK_RECORD
  5
468
100
AcDbSymbolTableRecord
100
AcDbBlockTableRecord
  2
*D11
  0
BLOCK_RECORD
  5
532
100
AcDbSymbolTableRecord
100
AcDbBlockTableRecord
  2
*D12
  0
ENDTAB
  0
ENDSEC
  0
SECTION
  2
BLOCKS
  0
BLOCK
  5
19
100
AcDbEntity
  8
0
100
AcDbBlockBegin
  2
*MODEL_SPACE
 70
     0
 10
0.0
 20
0.0
 30
0.0
  3
*MODEL_SPACE
  1

  0
ENDBLK
  5
1A
100
AcDbEntity
  8
0
100
AcDbBlockEnd
  0
BLOCK
  5
16
100
AcDbEntity
 67
     1
  8
0
100
AcDbBlockBegin
  2
*PAPER_SPACE
 70
     0
 10
0.0
 20
0.0
 30
0.0
  3
*PAPER_SPACE
  1

  0
ENDBLK
  5
17
100
AcDbEntity
 67
     1
  8
0
100
AcDbBlockEnd
  0
BLOCK
  5
38
100
AcDbEntity
  8
0
100
AcDbBlockBegin
  2
_OPEN30
 70
     0
 10
0.0
 20
0.0
 30
0.0
  3
_OPEN30
  1

  0
LINE
  5
39
100
AcDbEntity
  8
0
  6
BYBLOCK
 62
     0
100
AcDbLine
 10
-1.0
 20
0.267949
 30
0.0
 11
0.0
 21
0.0
 31
0.0
  0
LINE
  5
3A
100
AcDbEntity
  8
0
  6
BYBLOCK
 62
     0
100
AcDbLine
 10
0.0
 20
0.0
 30
0.0
 11
-1.0
 21
-0.267949
 31
0.0
  0
LINE
  5
3B
100
AcDbEntity
  8
0
  6
BYBLOCK
 62
     0
100
AcDbLine
 10
0.0
 20
0.0
 30
0.0
 11
-1.0
 21
0.0
 31
0.0
  0
ENDBLK
  5
3C
100
AcDbEntity
  8
0
100
AcDbBlockEnd
  0
BLOCK
  5
183
100
AcDbEntity
  8
0
100
AcDbBlockBegin
  2
BU133R
 70
     0
 10
0.0
 20
0.0
 30
0.0
  3
BU133R
  1

  0
POINT
  5
53
100
AcDbEntity
  8
0
  6
CONTINUOUS
 62
     7
100
AcDbPoint
 10
-22.349979
 20
0.0
 30
0.0
  0
POINT
  5
54
100
AcDbEntity
  8
0
  6
CONTINUOUS
 62
     7
100
AcDbPoint
 10
0.0
 20
0.0
 30
0.0
  0
POINT
  5
55
100
AcDbEntity
  8
0
  6
CONTINUOUS
 62
     7
100
AcDbPoint
 10
0.000003
 20
-23.4
 30
0.0
  0
POINT
  5
56
100
AcDbEntity
  8
0
  6
CONTINUOUS
 62
     7
100
AcDbPoint
 10
72.985847
 20
-33.400002
 30
0.0
  0
LINE
  5
57
100
AcDbEntity
  8
0
  6
CENTER
 62
     7
100
AcDbLine
 10
31.0
 20
9.309743
 30
0.0
 11
31.0
 21
-4.695631
 31
0.0
  0
LINE
  5
58
100
AcDbEntity
  8
0
  6
CONTINUOUS
 62
     7
100
AcDbLine
 10
42.0
 20
8.1
 30
0.0
 11
42.0
 21
-2.116179
 31
0.0
  0
LINE
  5
59
100
AcDbEntity
  8
0
  6
CONTINUOUS
 62
     7
100
AcDbLine
 10
4.676537
 20
8.1
 30
0.0
 11
42.0
 21
8.1
 31
0.0
  0
LINE
  5
5A
100
AcDbEntity
  8
0
  6
CONTINUOUS
 62
     7
100
AcDbLine
 10
72.985847
 20
-33.400002
 30
0.0
 11
73.985847
 21
-33.400002
 31
0.0
  0
LINE
  5
5B
100
AcDbEntity
  8
0
  6
CONTINUOUS
 62
     7
100
AcDbLine
 10
82.165993
 20
-22.9
 30
0.0
 11
82.165993
 21
-32.400002
 31
0.0
  0
LINE
  5
5C
100
AcDbEntity
  8
0
  6
CONTINUOUS
 62
     7
100
AcDbLine
 10
73.165993
 20
-21.9
 30
0.0
 11
81.165993
 21
-21.9
 31
0.0
  0
LINE
  5
5D
100
AcDbEntity
  8
0
  6
CONTINUOUS
 62
     7
100
AcDbLine
 10
81.165993
 20
-21.9
 30
0.0
 11
82.165993
 21
-22.900002
 31
0.0
  0
LINE
  5
5E
100
AcDbEntity
  8
0
  6
CONTINUOUS
 62
     7
100
AcDbLine
 10
82.165993
 20
-32.400002
 30
0.0
 11
81.229202
 21
-33.336792
 31
0.0
  0
LINE
  5
5F
100
AcDbEntity
  8
0
  6
CONTINUOUS
 62
     7
100
AcDbLine
 10
73.165985
 20
-21.9
 30
0.0
 11
71.949814
 21
-30.55352
 31
0.0
  0
LINE
  5
60
100
AcDbEntity
  8
0
  6
CONTINUOUS
 62
     7
100
AcDbLine
 10
78.083855
 20
-22.834036
 30
0.0
 11
76.886963
 21
-31.350342
 31
0.0
  0
LINE
  5
61
100
AcDbEntity
  8
0
  6
CONTINUOUS
 62
     7
100
AcDbLine
 10
15.799999
 20
-0.9
 30
0.0
 11
42.0
 21
-0.9
 31
0.0
  0
LINE
  5
62
100
AcDbEntity
  8
0
  6
CONTINUOUS
 62
     7
100
AcDbLine
 10
11.417254
 20
7.152822
 30
0.0
 11
42.0
 21
7.152822
 31
0.0
  0
LINE
  5
63
100
AcDbEntity
  8
0
  6
CONTINUOUS
 62
     7
100
AcDbLine
 10
7.332347
 20
-2.9
 30
0.0
 11
10.0
 21
-2.9
 31
0.0
  0
LINE
  5
64
100
AcDbEntity
  8
0
  6
CONTINUOUS
 62
     7
100
AcDbLine
 10
0.0
 20
0.0
 30
0.0
 11
4.676537
 21
8.099999
 31
0.0
  0
LINE
  5
65
100
AcDbEntity
  8
0
  6
CONTINUOUS
 62
     7
100
AcDbLine
 10
0.0
 20
0.0
 30
0.0
 11
6.754998
 21
-3.9
 31
0.0
  0
LINE
  5
66
100
AcDbEntity
  8
0
  6
CONTINUOUS
 62
     7
100
AcDbLine
 10
3.97
 20
6.876242
 30
0.0
 11
10.724998
 21
2.976242
 31
0.0
  0
LINE
  5
67
100
AcDbEntity
  8
0
  6
CONTINUOUS
 62
     7
100
AcDbLine
 10
15.0
 20
-1.699999
 30
0.0
 11
15.0
 21
-2.462557
 31
0.0
  0
LINE
  5
68
100
AcDbEntity
  8
0
  6
CONTINUOUS
 62
     7
100
AcDbLine
 10
-31.349977
 20
8.1
 30
0.0
 11
-21.849977
 21
8.1
 31
0.0
  0
LINE
  5
69
100
AcDbEntity
  8
0
  6
CONTINUOUS
 62
     7
100
AcDbLine
 10
42.0
 20
-21.9
 30
0.0
 11
42.0
 21
-33.400002
 31
0.0
  0
LINE
  5
6A
100
AcDbEntity
  8
0
  6
CENTER
 62
     7
100
AcDbLine
 10
32.25
 20
-20.511436
 30
0.0
 11
32.25
 21
-35.479179
 31
0.0
  0
LINE
  5
6B
100
AcDbEntity
  8
0
  6
CENTER
 62
     7
100
AcDbLine
 10
29.75
 20
-20.681524
 30
0.0
 11
29.75
 21
-34.883873
 31
0.0
  0
LINE
  5
6C
100
AcDbEntity
  8
0
  6
CENTER
 62
     7
100
AcDbLine
 10
31.0
 20
-20.22368
 30
0.0
 11
31.0
 21
-37.265102
 31
0.0
  0
LINE
  5
6D
100
AcDbEntity
  8
0
  6
CONTINUOUS
 62
     7
100
AcDbLine
 10
-32.349979
 20
7.1
 30
0.0
 11
-32.349979
 21
-1.080148
 31
0.0
  0
LINE
  5
6E
100
AcDbEntity
  8
0
  6
CONTINUOUS
 62
     7
100
AcDbLine
 10
-27.349977
 20
0.000008
 30
0.0
 11
-27.349977
 21
-2.9
 31
0.0
  0
LINE
  5
6F
100
AcDbEntity
  8
0
  6
CONTINUOUS
 62
     7
100
AcDbLine
 10
-32.349979
 20
-1.080148
 30
0.0
 11
-27.349979
 21
-2.899999
 31
0.0
  0
LINE
  5
70
100
AcDbEntity
  8
0
  6
CONTINUOUS
 62
     7
100
AcDbLine
 10
-31.349979
 20
8.100001
 30
0.0
 11
-32.349979
 21
7.100001
 31
0.0
  0
LINE
  5
71
100
AcDbEntity
  8
0
  6
CONTINUOUS
 62
     7
100
AcDbLine
 10
-20.849977
 20
7.1
 30
0.0
 11
-20.849977
 21
-2.9
 31
0.0
  0
LINE
  5
72
100
AcDbEntity
  8
0
  6
CONTINUOUS
 62
     7
100
AcDbLine
 10
-21.849979
 20
8.1
 30
0.0
 11
-20.849979
 21
7.100001
 31
0.0
  0
LINE
  5
73
100
AcDbEntity
  8
0
  6
CONTINUOUS
 62
     7
100
AcDbLine
 10
-21.383587
 20
-2.9
 30
0.0
 11
-20.849977
 21
-2.9
 31
0.0
  0
LINE
  5
74
100
AcDbEntity
  8
0
  6
CONTINUOUS
 62
     7
100
AcDbLine
 10
-32.349979
 20
1.819859
 30
0.0
 11
-27.349979
 21
0.000008
 31
0.0
  0
LINE
  5
75
100
AcDbEntity
  8
0
  6
CONTINUOUS
 62
     7
100
AcDbLine
 10
-27.349977
 20
-2.9
 30
0.0
 11
-24.668053
 21
-2.9
 31
0.0
  0
LINE
  5
76
100
AcDbEntity
  8
0
  6
CONTINUOUS
 62
     7
100
AcDbLine
 10
10.0
 20
-2.9
 30
0.0
 11
15.0
 21
-2.462557
 31
0.0
  0
LINE
  5
77
100
AcDbEntity
  8
0
  6
CONTINUOUS
 62
     7
100
AcDbLine
 10
2.228636
 20
-33.400002
 30
0.0
 11
42.0
 21
-33.400002
 31
0.0
  0
LINE
  5
78
100
AcDbEntity
  8
0
  6
CONTINUOUS
 62
     7
100
AcDbLine
 10
0.292683
 20
-26.18466
 30
0.0
 11
7.656213
 21
-25.410723
 31
0.0
  0
LINE
  5
79
100
AcDbEntity
  8
0
  6
CONTINUOUS
 62
     7
100
AcDbLine
 10
0.408784
 20
-28.4
 30
0.0
 11
10.0
 21
-28.4
 31
0.0
  0
LINE
  5
7A
100
AcDbEntity
  8
0
  6
CENTER
 62
     7
100
AcDbLine
 10
10.0
 20
-28.4
 30
0.0
 11
15.531586
 21
-28.4
 31
0.0
  0
LINE
  5
7B
100
AcDbEntity
  8
0
  6
CENTER
 62
     7
100
AcDbLine
 10
12.0
 20
-24.987667
 30
0.0
 11
12.0
 21
-32.325333
 31
0.0
  0
LINE
  5
7C
100
AcDbEntity
  8
0
  6
CONTINUOUS
 62
     7
100
AcDbLine
 10
10.0
 20
-22.04896
 30
0.0
 11
10.0
 21
-28.4
 31
0.0
  0
LINE
  5
7D
100
AcDbEntity
  8
0
  6
CONTINUOUS
 62
     7
100
AcDbLine
 10
0.000003
 20
-23.4
 30
0.0
 11
7.363534
 21
-22.626062
 31
0.0
  0
LINE
  5
7E
100
AcDbEntity
  8
0
  6
CONTINUOUS
 62
     7
100
AcDbLine
 10
11.417254
 20
-21.9
 30
0.0
 11
42.0
 21
-21.9
 31
0.0
  0
LINE
  5
7F
100
AcDbEntity
  8
0
  6
CONTINUOUS
 62
     7
100
AcDbLine
 10
-24.778702
 20
6.876241
 30
0.0
 11
-21.93268
 21
6.876241
 31
0.0
  0
LINE
  5
80
100
AcDbEntity
  8
0
  6
CONTINUOUS
 62
     7
100
AcDbLine
 10
-27.349977
 20
0.0
 30
0.0
 11
-22.349979
 21
0.0
 31
0.0
  0
LINE
  5
81
100
AcDbEntity
  8
0
  6
CONTINUOUS
 62
     7
100
AcDbLine
 10
50.0
 20
5.1
 30
0.0
 11
50.0
 21
1.1
 31
0.0
  0
LINE
  5
82
100
AcDbEntity
  8
0
  6
CONTINUOUS
 62
     7
100
AcDbLine
 10
45.0
 20
7.1
 30
0.0
 11
45.0
 21
-0.9
 31
0.0
  0
LINE
  5
83
100
AcDbEntity
  8
0
  6
CONTINUOUS
 62
     7
100
AcDbLine
 10
42.0
 20
0.6
 30
0.0
 11
45.0
 21
0.6
 31
0.0
  0
LINE
  5
84
100
AcDbEntity
  8
0
  6
CONTINUOUS
 62
     7
100
AcDbLine
 10
42.0
 20
5.6
 30
0.0
 11
45.0
 21
5.6
 31
0.0
  0
LINE
  5
85
100
AcDbEntity
  8
0
  6
CONTINUOUS
 62
     7
100
AcDbLine
 10
47.500004
 20
7.600003
 30
0.0
 11
50.000004
 21
5.100003
 31
0.0
  0
LINE
  5
86
100
AcDbEntity
  8
0
  6
CONTINUOUS
 62
     7
100
AcDbLine
 10
47.500004
 20
-1.4
 30
0.0
 11
50.000004
 21
1.1
 31
0.0
  0
LINE
  5
87
100
AcDbEntity
  8
0
  6
CONTINUOUS
 62
     7
100
AcDbLine
 10
45.5
 20
-1.4
 30
0.0
 11
47.5
 21
-1.4
 31
0.0
  0
LINE
  5
88
100
AcDbEntity
  8
0
  6
CONTINUOUS
 62
     7
100
AcDbLine
 10
45.5
 20
7.6
 30
0.0
 11
47.5
 21
7.6
 31
0.0
  0
LINE
  5
89
100
AcDbEntity
  8
0
  6
CONTINUOUS
 62
     7
100
AcDbLine
 10
45.499996
 20
7.599998
 30
0.0
 11
45.0
 21
7.099999
 31
0.0
  0
LINE
  5
8A
100
AcDbEntity
  8
0
  6
CONTINUOUS
 62
     7
100
AcDbLine
 10
45.000004
 20
-0.899997
 30
0.0
 11
45.500004
 21
-1.399998
 31
0.0
  0
LINE
  5
8B
100
AcDbEntity
  8
0
  6
CONTINUOUS
 62
     7
100
AcDbLine
 10
45.5
 20
7.6
 30
0.0
 11
45.5
 21
-1.400001
 31
0.0
  0
LINE
  5
8C
100
AcDbEntity
  8
0
  6
CONTINUOUS
 62
     7
100
AcDbLine
 10
47.5
 20
7.6
 30
0.0
 11
47.5
 21
-1.4
 31
0.0
  0
LINE
  5
8D
100
AcDbEntity
  8
0
  6
CONTINUOUS
 62
     7
100
AcDbLine
 10
42.0
 20
1.1
 30
0.0
 11
45.0
 21
1.1
 31
0.0
  0
LINE
  5
8E
100
AcDbEntity
  8
0
  6
CONTINUOUS
 62
     7
100
AcDbLine
 10
42.0
 20
5.1
 30
0.0
 11
45.0
 21
5.1
 31
0.0
  0
LINE
  5
8F
100
AcDbEntity
  8
0
  6
CENTER
 62
     7
100
AcDbLine
 10
39.532192
 20
3.1
 30
0.0
 11
51.930676
 21
3.1
 31
0.0
  0
LINE
  5
90
100
AcDbEntity
  8
0
  6
CONTINUOUS
 62
     7
100
AcDbLine
 10
50.0
 20
-25.9
 30
0.0
 11
50.0
 21
-29.9
 31
0.0
  0
LINE
  5
91
100
AcDbEntity
  8
0
  6
CONTINUOUS
 62
     7
100
AcDbLine
 10
45.0
 20
-23.9
 30
0.0
 11
45.0
 21
-31.9
 31
0.0
  0
LINE
  5
92
100
AcDbEntity
  8
0
  6
CONTINUOUS
 62
     7
100
AcDbLine
 10
42.0
 20
-30.4
 30
0.0
 11
45.0
 21
-30.4
 31
0.0
  0
LINE
  5
93
100
AcDbEntity
  8
0
  6
CONTINUOUS
 62
     7
100
AcDbLine
 10
42.0
 20
-25.4
 30
0.0
 11
45.0
 21
-25.4
 31
0.0
  0
LINE
  5
94
100
AcDbEntity
  8
0
  6
CONTINUOUS
 62
     7
100
AcDbLine
 10
47.500004
 20
-23.4
 30
0.0
 11
50.000004
 21
-25.9
 31
0.0
  0
LINE
  5
95
100
AcDbEntity
  8
0
  6
CONTINUOUS
 62
     7
100
AcDbLine
 10
47.5
 20
-32.400002
 30
0.0
 11
50.0
 21
-29.900002
 31
0.0
  0
LINE
  5
96
100
AcDbEntity
  8
0
  6
CONTINUOUS
 62
     7
100
AcDbLine
 10
45.5
 20
-32.400002
 30
0.0
 11
47.5
 21
-32.400002
 31
0.0
  0
LINE
  5
97
100
AcDbEntity
  8
0
  6
CONTINUOUS
 62
     7
100
AcDbLine
 10
45.5
 20
-23.4
 30
0.0
 11
47.5
 21
-23.4
 31
0.0
  0
LINE
  5
98
100
AcDbEntity
  8
0
  6
CONTINUOUS
 62
     7
100
AcDbLine
 10
45.5
 20
-23.400002
 30
0.0
 11
45.0
 21
-23.9
 31
0.0
  0
LINE
  5
99
100
AcDbEntity
  8
0
  6
CONTINUOUS
 62
     7
100
AcDbLine
 10
45.000008
 20
-31.9
 30
0.0
 11
45.500004
 21
-32.399998
 31
0.0
  0
LINE
  5
9A
100
AcDbEntity
  8
0
  6
CONTINUOUS
 62
     7
100
AcDbLine
 10
45.5
 20
-23.4
 30
0.0
 11
45.5
 21
-32.400002
 31
0.0
  0
LINE
  5
9B
100
AcDbEntity
  8
0
  6
CONTINUOUS
 62
     7
100
AcDbLine
 10
47.5
 20
-23.4
 30
0.0
 11
47.5
 21
-32.400002
 31
0.0
  0
LINE
  5
9C
100
AcDbEntity
  8
0
  6
CONTINUOUS
 62
     7
100
AcDbLine
 10
42.0
 20
-29.9
 30
0.0
 11
45.0
 21
-29.9
 31
0.0
  0
LINE
  5
9D
100
AcDbEntity
  8
0
  6
CONTINUOUS
 62
     7
100
AcDbLine
 10
42.0
 20
-25.9
 30
0.0
 11
45.0
 21
-25.9
 31
0.0
  0
LINE
  5
9E
100
AcDbEntity
  8
0
  6
CENTER
 62
     7
100
AcDbLine
 10
39.532192
 20
-27.9
 30
0.0
 11
51.930676
 21
-27.9
 31
0.0
  0
LINE
  5
9F
100
AcDbEntity
  8
0
  6
CENTER
 62
     7
100
AcDbLine
 10
12.0
 20
11.118802
 30
0.0
 11
12.0
 21
-5.129246
 31
0.0
  0
LINE
  5
A0
100
AcDbEntity
  8
0
  6
CENTER
 62
     7
100
AcDbLine
 10
2.32708
 20
3.240621
 30
0.0
 11
8.519162
 21
-0.334379
 31
0.0
  0
LINE
  5
A1
100
AcDbEntity
  8
0
  6
CENTER
 62
     7
100
AcDbLine
 10
3.635621
 20
-1.64292
 30
0.0
 11
7.210621
 21
4.549161
 31
0.0
  0
LINE
  5
A2
100
AcDbEntity
  8
0
  6
CONTINUOUS
 62
     7
100
AcDbLine
 10
6.754998
 20
-3.9
 30
0.0
 11
10.724998
 21
2.976242
 31
0.0
  0
LINE
  5
A3
100
AcDbEntity
  8
0
  6
CONTINUOUS
 62
     7
100
AcDbLine
 10
-24.486
 20
-3.9
 30
0.0
 11
-21.63998
 21
-3.9
 31
0.0
  0
LINE
  5
A4
100
AcDbEntity
  8
0
  6
CONTINUOUS
 62
     7
100
AcDbLine
 10
73.98584
 20
-33.400002
 30
0.0
 11
81.229202
 21
-33.336788
 31
0.0
  0
LINE
  5
A5
100
AcDbEntity
  8
0
  6
CONTINUOUS
 62
     7
100
AcDbLine
 10
72.985847
 20
-33.400002
 30
0.0
 11
71.949814
 21
-30.553518
 31
0.0
  0
LINE
  5
A6
100
AcDbEntity
  8
0
  6
CONTINUOUS
 62
     7
100
AcDbLine
 10
15.0
 20
-2.116179
 30
0.0
 11
42.0
 21
-2.116179
 31
0.0
  0
LINE
  5
A7
100
AcDbEntity
  8
0
  6
CONTINUOUS
 62
     7
100
AcDbLine
 10
0.292683
 20
-26.18466
 30
0.0
 11
0.000003
 21
-23.4
 31
0.0
  0
LINE
  5
A8
100
AcDbEntity
  8
0
  6
CONTINUOUS
 62
     7
100
AcDbLine
 10
7.047677
 20
-25.474682
 30
0.0
 11
6.754997
 21
-22.690022
 31
0.0
  0
LINE
  5
A9
100
AcDbEntity
  8
0
  6
CONTINUOUS
 62
     7
100
AcDbLine
 10
15.0
 20
-21.9
 30
0.0
 11
15.0
 21
-30.553518
 31
0.0
  0
LINE
  5
AA
100
AcDbEntity
  8
0
  6
CONTINUOUS
 62
     7
100
AcDbLine
 10
3.97
 20
-22.682737
 30
0.0
 11
11.417254
 21
-21.9
 31
0.0
  0
LINE
  5
AB
100
AcDbEntity
  8
0
  6
CONTINUOUS
 62
     7
100
AcDbLine
 10
3.97
 20
-22.682737
 30
0.0
 11
4.001187
 21
-22.979458
 31
0.0
  0
LINE
  5
AC
100
AcDbEntity
  8
0
  6
CONTINUOUS
 62
     7
100
AcDbLine
 10
7.656213
 20
-25.410723
 30
0.0
 11
7.332347
 21
-22.32934
 31
0.0
  0
LINE
  5
AD
100
AcDbEntity
  8
0
  6
PHANTOM
 62
     7
100
AcDbLine
 10
3.97
 20
-22.682737
 30
0.0
 11
0.0
 21
-23.100002
 31
0.0
  0
LINE
  5
AE
100
AcDbEntity
  8
0
  6
CONTINUOUS
 62
     7
100
AcDbLine
 10
11.417254
 20
7.152822
 30
0.0
 11
11.417254
 21
2.310149
 31
0.0
  0
LINE
  5
AF
100
AcDbEntity
  8
0
  6
CONTINUOUS
 62
     7
100
AcDbLine
 10
11.417254
 20
7.152822
 30
0.0
 11
4.676537
 21
8.099999
 31
0.0
  0
LINE
  5
B0
100
AcDbEntity
  8
0
  6
CONTINUOUS
 62
     7
100
AcDbLine
 10
11.417254
 20
0.178234
 30
0.0
 11
11.417254
 21
-2.776006
 31
0.0
  0
LINE
  5
B1
100
AcDbEntity
  8
0
  6
CONTINUOUS
 62
     7
100
AcDbLine
 10
76.886963
 20
-31.350342
 30
0.0
 11
71.989304
 21
-30.66202
 31
0.0
  0
LINE
  5
B2
100
AcDbEntity
  8
0
  6
CONTINUOUS
 62
     7
100
AcDbLine
 10
78.083855
 20
-22.834036
 30
0.0
 11
73.132515
 21
-22.13817
 31
0.0
  0
LINE
  5
B3
100
AcDbEntity
  8
0
  6
CONTINUOUS
 62
     7
100
AcDbLine
 10
82.165993
 20
-30.426044
 30
0.0
 11
77.1166
 21
-29.716398
 31
0.0
  0
LINE
  5
B4
100
AcDbEntity
  8
0
  6
CONTINUOUS
 62
     7
100
AcDbLine
 10
82.165993
 20
-25.073959
 30
0.0
 11
77.854218
 21
-24.467978
 31
0.0
  0
LINE
  5
B5
100
AcDbEntity
  8
0
  6
CENTER
 62
     7
100
AcDbLine
 10
86.73526
 20
-28.39217
 30
0.0
 11
68.136223
 21
-25.778244
 31
0.0
  0
LINE
  5
B6
100
AcDbEntity
  8
0
  6
CONTINUOUS
 62
     7
100
AcDbLine
 10
29.75
 20
-22.13817
 30
0.0
 11
32.25
 21
-22.13817
 31
0.0
  0
LINE
  5
B7
100
AcDbEntity
  8
0
  6
CONTINUOUS
 62
     7
100
AcDbLine
 10
29.75
 20
-22.834036
 30
0.0
 11
32.25
 21
-22.834036
 31
0.0
  0
LINE
  5
B8
100
AcDbEntity
  8
0
  6
CONTINUOUS
 62
     7
100
AcDbLine
 10
29.75
 20
-24.467978
 30
0.0
 11
32.25
 21
-24.467978
 31
0.0
  0
LINE
  5
B9
100
AcDbEntity
  8
0
  6
CONTINUOUS
 62
     7
100
AcDbLine
 10
29.75
 20
-25.073959
 30
0.0
 11
32.25
 21
-25.073959
 31
0.0
  0
LINE
  5
BA
100
AcDbEntity
  8
0
  6
CONTINUOUS
 62
     7
100
AcDbLine
 10
29.75
 20
-29.716398
 30
0.0
 11
32.25
 21
-29.716398
 31
0.0
  0
LINE
  5
BB
100
AcDbEntity
  8
0
  6
CONTINUOUS
 62
     7
100
AcDbLine
 10
29.75
 20
-30.66202
 30
0.0
 11
32.25
 21
-30.66202
 31
0.0
  0
LINE
  5
BC
100
AcDbEntity
  8
0
  6
CONTINUOUS
 62
     7
100
AcDbLine
 10
15.0
 20
-30.553518
 30
0.0
 11
28.784918
 21
-30.553518
 31
0.0
  0
LINE
  5
BD
100
AcDbEntity
  8
0
  6
CONTINUOUS
 62
     7
100
AcDbLine
 10
33.215084
 20
-30.553518
 30
0.0
 11
42.0
 21
-30.553518
 31
0.0
  0
LINE
  5
BE
100
AcDbEntity
  8
0
  6
CONTINUOUS
 62
     7
100
AcDbLine
 10
15.0
 20
-30.553518
 30
0.0
 11
13.374087
 21
-29.853231
 31
0.0
  0
LINE
  5
BF
100
AcDbEntity
  8
0
  6
CONTINUOUS
 62
     7
100
AcDbLine
 10
-22.349979
 20
0.0
 30
0.0
 11
-21.639978
 21
-3.9
 31
0.0
  0
LINE
  5
C0
100
AcDbEntity
  8
0
  6
CONTINUOUS
 62
     7
100
AcDbLine
 10
-25.196001
 20
0.0
 30
0.0
 11
-24.486002
 21
-3.9
 31
0.0
  0
LINE
  5
C1
100
AcDbEntity
  8
0
  6
CONTINUOUS
 62
     7
100
AcDbLine
 10
-21.932678
 20
6.876241
 30
0.0
 11
-22.349979
 21
0.0
 31
0.0
  0
LINE
  5
C2
100
AcDbEntity
  8
0
  6
CONTINUOUS
 62
     7
100
AcDbLine
 10
-24.7787
 20
6.876241
 30
0.0
 11
-25.196001
 21
0.0
 31
0.0
  0
LINE
  5
C3
100
AcDbEntity
  8
0
  6
CONTINUOUS
 62
     7
100
AcDbLine
 10
-21.93268
 20
6.876241
 30
0.0
 11
-21.222679
 21
2.976242
 31
0.0
  0
LINE
  5
C4
100
AcDbEntity
  8
0
  6
CONTINUOUS
 62
     7
100
AcDbLine
 10
-21.222679
 20
2.976242
 30
0.0
 11
-21.63998
 21
-3.9
 31
0.0
  0
LINE
  5
C5
100
AcDbEntity
  8
0
  6
CONTINUOUS
 62
     7
100
AcDbLine
 10
0.292683
 20
-26.18466
 30
0.0
 11
0.408784
 21
-28.4
 31
0.0
  0
LINE
  5
C6
100
AcDbEntity
  8
0
  6
CONTINUOUS
 62
     7
100
AcDbLine
 10
0.408784
 20
-28.4
 30
0.0
 11
2.228636
 21
-33.400002
 31
0.0
  0
ARC
  5
C7
100
AcDbEntity
  8
0
  6
CONTINUOUS
 62
     7
100
AcDbCircle
 10
15.799999
 20
-1.699999
 30
0.0
 40
0.8
100
AcDbArc
 50
90.000003
 51
180.00001
  0
ARC
  5
C8
100
AcDbEntity
  8
0
  6
CONTINUOUS
 62
     7
100
AcDbCircle
 10
9.724998
 20
1.244191
 30
0.0
 40
2.0
100
AcDbArc
 50
240.0
 51
60.000002
  0
CIRCLE
  5
C9
100
AcDbEntity
  8
0
  6
CONTINUOUS
 62
     7
100
AcDbCircle
 10
12.0
 20
-28.4
 30
0.0
 40
2.0
  0
CIRCLE
  5
CA
100
AcDbEntity
  8
0
  6
CONTINUOUS
 62
     7
100
AcDbCircle
 10
12.0
 20
-28.4
 30
0.0
 40
1.75
  0
CIRCLE
  5
CB
100
AcDbEntity
  8
0
  6
CONTINUOUS
 62
     7
100
AcDbCircle
 10
5.423121
 20
1.453121
 30
0.0
 40
1.575
  0
LWPOLYLINE
  5
CC
100
AcDbEntity
  8
0
  6
CONTINUOUS
 62
     7
100
AcDbPolyline
 90
       17
 70
     0
 43
0.0
 10
29.75
 20
-22.13817
 42
0.048431
 10
28.915683
 20
-22.219163
 42
0.048575
 10
28.111784
 20
-22.459591
 42
0.048755
 10
27.369468
 20
-22.850872
 42
0.048991
 10
26.717177
 20
-23.378812
 42
0.049259
 10
26.180281
 20
-24.024011
 42
0.04951
 10
25.780245
 20
-24.762141
 42
0.049697
 10
25.533428
 20
-25.564638
 42
0.049799
 10
25.450001
 20
-26.400095
 42
0.049757
 10
25.53329
 20
-27.234867
 42
0.049651
 10
25.779671
 20
-28.036681
 42
0.049484
 10
26.1792
 20
-28.774583
 42
0.049246
 10
26.71564
 20
-29.419862
 42
0.049001
 10
27.367807
 20
-29.948223
 42
0.04878
 10
28.110343
 20
-30.34001
 42
0.048607
 10
28.914694
 20
-30.580833
 42
0.048489
 10
29.75
 20
-30.66202
  0
LWPOLYLINE
  5
DF
100
AcDbEntity
  8
0
  6
CONTINUOUS
 62
     7
100
AcDbPolyline
 90
       17
 70
     0
 43
0.0
 10
29.75
 20
-22.834036
 42
0.02067
 10
29.360161
 20
-22.850154
 42
0.020786
 10
28.972453
 20
-22.898557
 42
0.020963
 10
28.590104
 20
-22.979119
 42
0.021222
 10
28.215929
 20
-23.091593
 42
0.021566
 10
27.852737
 20
-23.235623
 42
0.021991
 10
27.503436
 20
-23.410701
 42
0.02249
 10
27.171041
 20
-23.616124
 42
0.023054
 10
26.858677
 20
-23.850941
 42
0.023669
 10
26.569554
 20
-24.113895
 42
0.024318
 10
26.306933
 20
-24.403359
 42
0.024977
 10
26.074062
 20
-24.717279
 42
0.025618
 10
25.874085
 20
-25.053121
 42
0.026209
 10
25.709931
 20
-25.407843
 42
0.026716
 10
25.58418
 20
-25.777902
 42
0.027105
 10
25.498925
 20
-26.15929
 42
0.02735
 10
25.455641
 20
-26.547629
  0
LWPOLYLINE
  5
F2
100
AcDbEntity
  8
0
  6
CONTINUOUS
 62
     7
100
AcDbPolyline
 90
       17
 70
     0
 43
0.0
 10
29.75
 20
-24.467978
 42
0.048369
 10
29.236034
 20
-24.517807
 42
0.048522
 10
28.740767
 20
-24.665738
 42
0.048718
 10
28.283364
 20
-24.906525
 42
0.048977
 10
27.881339
 20
-25.231484
 42
0.04927
 10
27.550351
 20
-25.62872
 42
0.049546
 10
27.303677
 20
-26.08328
 42
0.049752
 10
27.151456
 20
-26.577568
 42
0.049862
 10
27.1
 20
-27.092188
 42
0.049751
 10
27.151229
 20
-27.605684
 42
0.049704
 10
27.303041
 20
-28.099584
 42
0.04952
 10
27.549277
 20
-28.554071
 42
0.049258
 10
27.879873
 20
-28.951447
 42
0.048988
 10
28.281731
 20
-29.276775
 42
0.048744
 10
28.739202
 20
-29.517999
 42
0.048553
 10
29.234702
 20
-29.666307
 42
0.048496
 10
29.75
 20
-29.716398
  0
LWPOLYLINE
  5
105
100
AcDbEntity
  8
0
  6
CONTINUOUS
 62
     7
100
AcDbPolyline
 90
       17
 70
     0
 43
0.0
 10
29.75
 20
-25.073959
 42
0.019231
 10
29.517722
 20
-25.082893
 42
0.019313
 10
29.287077
 20
-25.109651
 42
0.019548
 10
29.058869
 20
-25.154293
 42
0.019858
 10
28.834894
 20
-25.216752
 42
0.020275
 10
28.61664
 20
-25.296962
 42
0.020795
 10
28.405686
 20
-25.394807
 42
0.021417
 10
28.20371
 20
-25.510095
 42
0.022135
 10
28.012504
 20
-25.642525
 42
0.022938
 10
27.833974
 20
-25.791638
 42
0.023809
 10
27.670126
 20
-25.956776
 42
0.024721
 10
27.52304
 20
-26.137018
 42
0.02564
 10
27.39482
 20
-26.331137
 42
0.026521
 10
27.287514
 20
-26.537543
 42
0.027311
 10
27.203016
 20
-26.754266
 42
0.027952
 10
27.14295
 20
-26.978961
 42
0.028393
 10
27.108543
 20
-27.208948
  0
LWPOLYLINE
  5
118
100
AcDbEntity
  8
0
  6
CONTINUOUS
 62
     7
100
AcDbPolyline
 90
       17
 70
     0
 43
0.0
 10
32.25
 20
-24.467978
 42
-0.048369
 10
32.763966
 20
-24.517807
 42
-0.048521
 10
33.259233
 20
-24.665738
 42
-0.048718
 10
33.716636
 20
-24.906525
 42
-0.048977
 10
34.118662
 20
-25.231484
 42
-0.04927
 10
34.44965
 20
-25.62872
 42
-0.049546
 10
34.696325
 20
-26.083279
 42
-0.049752
 10
34.848546
 20
-26.577568
 42
-0.049862
 10
34.900002
 20
-27.092188
 42
-0.049751
 10
34.848773
 20
-27.605684
 42
-0.049705
 10
34.69696
 20
-28.099584
 42
-0.04952
 10
34.450725
 20
-28.554072
 42
-0.049258
 10
34.120128
 20
-28.951447
 42
-0.048988
 10
33.71827
 20
-29.276775
 42
-0.048744
 10
33.260798
 20
-29.517999
 42
-0.048553
 10
32.765298
 20
-29.666307
 42
-0.048496
 10
32.25
 20
-29.716398
  0
LWPOLYLINE
  5
12B
100
AcDbEntity
  8
0
  6
CONTINUOUS
 62
     7
100
AcDbPolyline
 90
       17
 70
     0
 43
0.0
 10
32.25
 20
-25.073959
 42
-0.019231
 10
32.482278
 20
-25.082893
 42
-0.019313
 10
32.712923
 20
-25.109651
 42
-0.019548
 10
32.941131
 20
-25.154293
 42
-0.019858
 10
33.165107
 20
-25.216752
 42
-0.020274
 10
33.383361
 20
-25.296962
 42
-0.020795
 10
33.594315
 20
-25.394807
 42
-0.021417
 10
33.796291
 20
-25.510095
 42
-0.022135
 10
33.987496
 20
-25.642524
 42
-0.022938
 10
34.166027
 20
-25.791638
 42
-0.023809
 10
34.329875
 20
-25.956775
 42
-0.024721
 10
34.476961
 20
-26.137018
 42
-0.02564
 10
34.605181
 20
-26.331137
 42
-0.026521
 10
34.712488
 20
-26.537543
 42
-0.027311
 10
34.796986
 20
-26.754266
 42
-0.027952
 10
34.857052
 20
-26.978961
 42
-0.028393
 10
34.891459
 20
-27.208948
  0
LWPOLYLINE
  5
13E
100
AcDbEntity
  8
0
  6
CONTINUOUS
 62
     7
100
AcDbPolyline
 90
       17
 70
     0
 43
0.0
 10
32.25
 20
-22.834036
 42
-0.02067
 10
32.639839
 20
-22.850154
 42
-0.020786
 10
33.027547
 20
-22.898557
 42
-0.020963
 10
33.409896
 20
-22.979119
 42
-0.021222
 10
33.784071
 20
-23.091593
 42
-0.021566
 10
34.147263
 20
-23.235623
 42
-0.021991
 10
34.496564
 20
-23.410701
 42
-0.02249
 10
34.828959
 20
-23.616124
 42
-0.023054
 10
35.141323
 20
-23.850941
 42
-0.023669
 10
35.430446
 20
-24.113895
 42
-0.024318
 10
35.693067
 20
-24.403359
 42
-0.024977
 10
35.925938
 20
-24.717279
 42
-0.025618
 10
36.125915
 20
-25.053121
 42
-0.026209
 10
36.290069
 20
-25.407843
 42
-0.026716
 10
36.41582
 20
-25.777902
 42
-0.027105
 10
36.501075
 20
-26.15929
 42
-0.02735
 10
36.544359
 20
-26.547629
  0
LWPOLYLINE
  5
151
100
AcDbEntity
  8
0
  6
CONTINUOUS
 62
     7
100
AcDbPolyline
 90
       17
 70
     0
 43
0.0
 10
32.25
 20
-22.13817
 42
-0.048431
 10
33.084317
 20
-22.219163
 42
-0.048575
 10
33.888216
 20
-22.459591
 42
-0.048755
 10
34.630532
 20
-22.850872
 42
-0.048991
 10
35.282823
 20
-23.378812
 42
-0.049259
 10
35.819719
 20
-24.024011
 42
-0.04951
 10
36.219755
 20
-24.762141
 42
-0.049697
 10
36.466572
 20
-25.564638
 42
-0.049799
 10
36.549999
 20
-26.400095
 42
-0.049757
 10
36.46671
 20
-27.234867
 42
-0.049651
 10
36.220329
 20
-28.036681
 42
-0.049484
 10
35.8208
 20
-28.774583
 42
-0.049246
 10
35.28436
 20
-29.419862
 42
-0.049001
 10
34.632193
 20
-29.948223
 42
-0.04878
 10
33.889657
 20
-30.34001
 42
-0.048607
 10
33.085306
 20
-30.580833
 42
-0.048489
 10
32.25
 20
-30.66202
  0
LWPOLYLINE
  5
164
100
AcDbEntity
  8
0
  6
CONTINUOUS
 62
     7
100
AcDbPolyline
 90
       16
 70
     1
 43
0.0
 10
36.549999
 20
-1.505083
 42
0.123941
 10
35.226584
 20
-1.134621
 42
0.014475
 10
33.821467
 20
-1.012853
 42
0.008336
 10
32.412029
 20
-0.952288
 42
0.006742
 10
31.0
 20
-0.933479
 42
0.006735
 10
29.589367
 20
-0.95225
 42
0.008336
 10
28.179482
 20
-1.012795
 42
0.014477
 10
26.773675
 20
-1.134589
 42
0.124044
 10
25.450001
 20
-1.505083
 42
0.123941
 10
26.773416
 20
-1.875546
 42
0.014475
 10
28.178533
 20
-1.997313
 42
0.008336
 10
29.587971
 20
-2.057878
 42
0.006742
 10
31.0
 20
-2.076688
 42
0.006735
 10
32.410633
 20
-2.057916
 42
0.008336
 10
33.820518
 20
-1.997371
 42
0.014477
 10
35.226325
 20
-1.875577
 42
0.124044
  0
LINE
  5
176
100
AcDbEntity
  8
0
  6
CONTINUOUS
 62
     7
100
AcDbLine
 10
81.158163
 20
-33.337412
 30
0.0
 11
82.165993
 21
-32.32958
 31
0.0
  0
LINE
  5
177
100
AcDbEntity
  8
0
  6
CONTINUOUS
 62
     7
100
AcDbLine
 10
78.893337
 20
-33.357176
 30
0.0
 11
81.866547
 21
-30.38396
 31
0.0
  0
LINE
  5
178
100
AcDbEntity
  8
0
  6
CONTINUOUS
 62
     7
100
AcDbLine
 10
76.628511
 20
-33.37694
 30
0.0
 11
79.898128
 21
-30.107317
 31
0.0
  0
LINE
  5
179
100
AcDbEntity
  8
0
  6
CONTINUOUS
 62
     7
100
AcDbLine
 10
74.363685
 20
-33.396704
 30
0.0
 11
76.468811
 21
-31.291574
 31
0.0
  0
LINE
  5
17A
100
AcDbEntity
  8
0
  6
CONTINUOUS
 62
     7
100
AcDbLine
 10
76.964951
 20
-30.795434
 30
0.0
 11
77.929709
 21
-29.830673
 31
0.0
  0
LINE
  5
17B
100
AcDbEntity
  8
0
  6
CONTINUOUS
 62
     7
100
AcDbLine
 10
72.753552
 20
-32.761775
 30
0.0
 11
74.500392
 21
-31.014931
 31
0.0
  0
LINE
  5
17C
100
AcDbEntity
  8
0
  6
CONTINUOUS
 62
     7
100
AcDbLine
 10
72.154465
 20
-31.115797
 30
0.0
 11
72.531974
 21
-30.738287
 31
0.0
  0
LINE
  5
17D
100
AcDbEntity
  8
0
  6
CONTINUOUS
 62
     7
100
AcDbLine
 10
80.653867
 20
-24.861443
 30
0.0
 11
82.165993
 21
-23.349315
 31
0.0
  0
LINE
  5
17E
100
AcDbEntity
  8
0
  6
CONTINUOUS
 62
     7
100
AcDbLine
 10
78.685449
 20
-24.5848
 30
0.0
 11
81.268118
 21
-22.002125
 31
0.0
  0
LINE
  5
17F
100
AcDbEntity
  8
0
  6
CONTINUOUS
 62
     7
100
AcDbLine
 10
78.06631
 20
-22.958874
 30
0.0
 11
79.125182
 21
-21.9
 31
0.0
  0
LINE
  5
180
100
AcDbEntity
  8
0
  6
CONTINUOUS
 62
     7
100
AcDbLine
 10
76.209507
 20
-22.570613
 30
0.0
 11
76.88012
 21
-21.9
 31
0.0
  0
LINE
  5
181
100
AcDbEntity
  8
0
  6
CONTINUOUS
 62
     7
100
AcDbLine
 10
74.241088
 20
-22.29397
 30
0.0
 11
74.635058
 21
-21.9
 31
0.0
  0
TEXT
  5
182
100
AcDbEntity
  8
0
  6
CONTINUOUS
100
AcDbText
 10
12.121897
 20
-63.581305
 30
0.0
 40
6.0
  1
ＢＵ１３３Ｒ
100
AcDbText
  0
ENDBLK
  5
184
100
AcDbEntity
  8
0
100
AcDbBlockEnd
  0
BLOCK
  5
3A9
100
AcDbEntity
  8
0
100
AcDbBlockBegin
  2
*D2
 70
     1
 10
0.0
 20
0.0
 30
0.0
  3
*D2
  1

  0
LINE
  5
4A9
100
AcDbEntity
  8
寸法
 62
     1
100
AcDbLine
 10
201.926585
 20
91.411616
 30
0.0
 11
211.0
 21
91.411616
 31
0.0
1001
ACAD
1000
RTLwPs
1070
   158
  0
LINE
  5
4AA
100
AcDbEntity
  8
寸法
 62
     1
100
AcDbLine
 10
200.856166
 20
85.761615
 30
0.0
 11
211.0
 21
85.761615
 31
0.0
1001
ACAD
1000
RTLwPs
1070
   158
  0
LINE
  5
4AB
100
AcDbEntity
  8
寸法
 62
     1
100
AcDbLine
 10
210.0
 20
93.411616
 30
0.0
 11
210.0
 21
95.411616
 31
0.0
1001
ACAD
1000
RTLwPs
1070
   158
  0
LINE
  5
4AC
100
AcDbEntity
  8
寸法
 62
     1
100
AcDbLine
 10
210.0
 20
83.761615
 30
0.0
 11
210.0
 21
70.761615
 31
0.0
1001
ACAD
1000
RTLwPs
1070
   158
  0
LINE
  5
4AD
100
AcDbEntity
  8
寸法
 62
     1
100
AcDbLine
 10
210.0
 20
91.411616
 30
0.0
 11
210.0
 21
85.761615
 31
0.0
1001
ACAD
1000
RTLwPs
1070
   158
  0
INSERT
  5
4AE
100
AcDbEntity
  8
寸法
 62
     1
100
AcDbBlockReference
  2
_OPEN30
 10
210.0
 20
91.411616
 30
0.0
 41
2.0
 42
2.0
 43
2.0
 50
270.0
1001
ACAD
1000
RTLwPs
1070
   158
  0
INSERT
  5
4AF
100
AcDbEntity
  8
寸法
 62
     1
100
AcDbBlockReference
  2
_OPEN30
 10
210.0
 20
85.761615
 30
0.0
 41
2.0
 42
2.0
 43
2.0
 50
90.0
1001
ACAD
1000
RTLwPs
1070
   158
  0
MTEXT
  5
4B0
100
AcDbEntity
  8
寸法
 62
     1
100
AcDbMText
 10
207.5
 20
76.261615
 30
0.0
 40
3.0
 41
0.0
 71
     5
 72
     1
  1
\A1;5.65
 11
0.0
 21
1.0
 31
0.0
1001
ACAD
1000
MTEXTBEGIN
1070
    73
1070
     1
1070
    44
1040
1.0
1070
    74
1070
     0
1000
MTEXTEND
1000
MTEXTBEGIN
1070
    73
1070
     1
1070
    44
1040
1.0
1070
    74
1070
     0
1000
MTEXTEND
  0
POINT
  5
4B1
100
AcDbEntity
  8
DEFPOINTS
 62
     0
100
AcDbPoint
 10
200.926585
 20
91.411616
 30
0.0
  0
POINT
  5
4B2
100
AcDbEntity
  8
DEFPOINTS
 62
     0
100
AcDbPoint
 10
199.856166
 20
85.761615
 30
0.0
  0
POINT
  5
4B3
100
AcDbEntity
  8
DEFPOINTS
 62
     0
100
AcDbPoint
 10
210.0
 20
85.761615
 30
0.0
  0
ENDBLK
  5
3AA
100
AcDbEntity
  8
0
100
AcDbBlockEnd
  0
BLOCK
  5
3B6
100
AcDbEntity
  8
0
100
AcDbBlockBegin
  2
*D3
 70
     1
 10
0.0
 20
0.0
 30
0.0
  3
*D3
  1

  0
LINE
  5
4A0
100
AcDbEntity
  8
寸法
 62
     1
100
AcDbLine
 10
161.760592
 20
97.261617
 30
0.0
 11
181.0
 21
97.261617
 31
0.0
1001
ACAD
1000
RTLwPs
1070
   158
  0
LINE
  5
4A1
100
AcDbEntity
  8
寸法
 62
     1
100
AcDbLine
 10
161.760592
 20
85.761615
 30
0.0
 11
181.0
 21
85.761615
 31
0.0
1001
ACAD
1000
RTLwPs
1070
   158
  0
LINE
  5
4A2
100
AcDbEntity
  8
寸法
 62
     1
100
AcDbLine
 10
180.0
 20
95.261617
 30
0.0
 11
180.0
 21
87.761615
 31
0.0
1001
ACAD
1000
RTLwPs
1070
   158
  0
INSERT
  5
4A3
100
AcDbEntity
  8
寸法
 62
     1
100
AcDbBlockReference
  2
_OPEN30
 10
180.0
 20
97.261617
 30
0.0
 41
2.0
 42
2.0
 43
2.0
 50
90.0
1001
ACAD
1000
RTLwPs
1070
   158
  0
INSERT
  5
4A4
100
AcDbEntity
  8
寸法
 62
     1
100
AcDbBlockReference
  2
_OPEN30
 10
180.0
 20
85.761615
 30
0.0
 41
2.0
 42
2.0
 43
2.0
 50
270.0
1001
ACAD
1000
RTLwPs
1070
   158
  0
MTEXT
  5
4A5
100
AcDbEntity
  8
寸法
 62
     1
100
AcDbMText
 10
177.5
 20
91.511616
 30
0.0
 40
3.0
 41
0.0
 71
     5
 72
     1
  1
\A1;11.5
 11
0.0
 21
1.0
 31
0.0
1001
ACAD
1000
MTEXTBEGIN
1070
    73
1070
     1
1070
    44
1040
1.0
1070
    74
1070
     0
1000
MTEXTEND
1000
MTEXTBEGIN
1070
    73
1070
     1
1070
    44
1040
1.0
1070
    74
1070
     0
1000
MTEXTEND
  0
POINT
  5
4A6
100
AcDbEntity
  8
DEFPOINTS
 62
     0
100
AcDbPoint
 10
160.760592
 20
97.261617
 30
0.0
  0
POINT
  5
4A7
100
AcDbEntity
  8
DEFPOINTS
 62
     0
100
AcDbPoint
 10
160.760592
 20
85.761615
 30
0.0
  0
POINT
  5
4A8
100
AcDbEntity
  8
DEFPOINTS
 62
     0
100
AcDbPoint
 10
180.0
 20
85.761615
 30
0.0
  0
ENDBLK
  5
3B7
100
AcDbEntity
  8
0
100
AcDbBlockEnd
  0
BLOCK
  5
3C5
100
AcDbEntity
  8
0
100
AcDbBlockBegin
  2
*D4
 70
     1
 10
0.0
 20
0.0
 30
0.0
  3
*D4
  1

  0
LINE
  5
483
100
AcDbEntity
  8
寸法
 62
     1
100
AcDbLine
 10
148.510592
 20
83.277744
 30
0.0
 11
148.510592
 21
70.874911
 31
0.0
1001
ACAD
1000
RTLwPs
1070
   158
  0
LINE
  5
484
100
AcDbEntity
  8
寸法
 62
     1
100
AcDbLine
 10
151.010592
 20
82.682438
 30
0.0
 11
151.010592
 21
70.874911
 31
0.0
1001
ACAD
1000
RTLwPs
1070
   158
  0
LINE
  5
485
100
AcDbEntity
  8
寸法
 62
     1
100
AcDbLine
 10
146.510592
 20
71.874911
 30
0.0
 11
144.510592
 21
71.874911
 31
0.0
1001
ACAD
1000
RTLwPs
1070
   158
  0
LINE
  5
486
100
AcDbEntity
  8
寸法
 62
     1
100
AcDbLine
 10
153.010592
 20
71.874911
 30
0.0
 11
163.010592
 21
71.874911
 31
0.0
1001
ACAD
1000
RTLwPs
1070
   158
  0
LINE
  5
487
100
AcDbEntity
  8
寸法
 62
     1
100
AcDbLine
 10
148.510592
 20
71.874911
 30
0.0
 11
151.010592
 21
71.874911
 31
0.0
1001
ACAD
1000
RTLwPs
1070
   158
  0
INSERT
  5
488
100
AcDbEntity
  8
寸法
 62
     1
100
AcDbBlockReference
  2
_OPEN30
 10
148.510592
 20
71.874911
 30
0.0
 41
2.0
 42
2.0
 43
2.0
1001
ACAD
1000
RTLwPs
1070
   158
  0
INSERT
  5
489
100
AcDbEntity
  8
寸法
 62
     1
100
AcDbBlockReference
  2
_OPEN30
 10
151.010592
 20
71.874911
 30
0.0
 41
2.0
 42
2.0
 43
2.0
 50
180.0
1001
ACAD
1000
RTLwPs
1070
   158
  0
MTEXT
  5
48A
100
AcDbEntity
  8
寸法
 62
     1
100
AcDbMText
 10
159.010592
 20
74.374911
 30
0.0
 40
3.0
 41
0.0
 71
     5
 72
     1
  1
\A1;2.5
1001
ACAD
1000
MTEXTBEGIN
1070
    73
1070
     1
1070
    44
1040
1.0
1070
    74
1070
     0
1000
MTEXTEND
1000
MTEXTBEGIN
1070
    73
1070
     1
1070
    44
1040
1.0
1070
    74
1070
     0
1000
MTEXTEND
  0
POINT
  5
48B
100
AcDbEntity
  8
DEFPOINTS
 62
     0
100
AcDbPoint
 10
148.510592
 20
84.277744
 30
0.0
  0
POINT
  5
48C
100
AcDbEntity
  8
DEFPOINTS
 62
     0
100
AcDbPoint
 10
151.010592
 20
83.682438
 30
0.0
  0
POINT
  5
48D
100
AcDbEntity
  8
DEFPOINTS
 62
     0
100
AcDbPoint
 10
151.010592
 20
71.874911
 30
0.0
  0
ENDBLK
  5
3C6
100
AcDbEntity
  8
0
100
AcDbBlockEnd
  0
BLOCK
  5
3D2
100
AcDbEntity
  8
0
100
AcDbBlockBegin
  2
*D5
 70
     1
 10
0.0
 20
0.0
 30
0.0
  3
*D5
  1

  0
LINE
  5
48E
100
AcDbEntity
  8
寸法
 62
     1
100
AcDbLine
 10
117.760596
 20
95.761617
 30
0.0
 11
109.0
 21
95.761617
 31
0.0
1001
ACAD
1000
RTLwPs
1070
   158
  0
LINE
  5
48F
100
AcDbEntity
  8
寸法
 62
     1
100
AcDbLine
 10
119.989228
 20
85.761615
 30
0.0
 11
109.0
 21
85.761615
 31
0.0
1001
ACAD
1000
RTLwPs
1070
   158
  0
LINE
  5
490
100
AcDbEntity
  8
寸法
 62
     1
100
AcDbLine
 10
110.0
 20
93.761617
 30
0.0
 11
110.0
 21
87.761615
 31
0.0
1001
ACAD
1000
RTLwPs
1070
   158
  0
INSERT
  5
491
100
AcDbEntity
  8
寸法
 62
     1
100
AcDbBlockReference
  2
_OPEN30
 10
110.0
 20
95.761617
 30
0.0
 41
2.0
 42
2.0
 43
2.0
 50
90.0
1001
ACAD
1000
RTLwPs
1070
   158
  0
INSERT
  5
492
100
AcDbEntity
  8
寸法
 62
     1
100
AcDbBlockReference
  2
_OPEN30
 10
110.0
 20
85.761615
 30
0.0
 41
2.0
 42
2.0
 43
2.0
 50
270.0
1001
ACAD
1000
RTLwPs
1070
   158
  0
MTEXT
  5
493
100
AcDbEntity
  8
寸法
 62
     1
100
AcDbMText
 10
107.5
 20
90.761616
 30
0.0
 40
3.0
 41
0.0
 71
     5
 72
     1
  1
\A1;10
 11
0.0
 21
1.0
 31
0.0
1001
ACAD
1000
MTEXTBEGIN
1070
    73
1070
     1
1070
    44
1040
1.0
1070
    74
1070
     0
1000
MTEXTEND
1000
MTEXTBEGIN
1070
    73
1070
     1
1070
    44
1040
1.0
1070
    74
1070
     0
1000
MTEXTEND
  0
POINT
  5
494
100
AcDbEntity
  8
DEFPOINTS
 62
     0
100
AcDbPoint
 10
118.760596
 20
95.761617
 30
0.0
  0
POINT
  5
495
100
AcDbEntity
  8
DEFPOINTS
 62
     0
100
AcDbPoint
 10
120.989228
 20
85.761615
 30
0.0
  0
POINT
  5
496
100
AcDbEntity
  8
DEFPOINTS
 62
     0
100
AcDbPoint
 10
110.0
 20
85.761615
 30
0.0
  0
ENDBLK
  5
3D3
100
AcDbEntity
  8
0
100
AcDbBlockEnd
  0
BLOCK
  5
3F2
100
AcDbEntity
  8
0
100
AcDbBlockBegin
  2
*D6
 70
     1
 10
0.0
 20
0.0
 30
0.0
  3
*D6
  1

  0
LINE
  5
5D5
100
AcDbEntity
  8
寸法
 62
     1
100
AcDbLine
 10
129.177846
 20
97.261617
 30
0.0
 11
99.27696
 21
97.261617
 31
0.0
  0
LINE
  5
5D6
100
AcDbEntity
  8
寸法
 62
     1
100
AcDbLine
 10
117.766074
 20
95.657088
 30
0.0
 11
99.461874
 21
93.73324
 31
0.0
  0
ARC
  5
5D7
100
AcDbEntity
  8
寸法
 62
     1
100
AcDbCircle
 10
133.032147
 20
97.261617
 30
0.0
 40
32.755187
100
AcDbArc
 50
172.998796
 51
180.0
  0
LINE
  5
5D8
100
AcDbEntity
  8
寸法
 62
     1
100
AcDbLine
 10
100.521196
 20
101.254153
 30
0.0
 11
101.569452
 21
109.790028
 31
0.0
  0
ARC
  5
5D9
100
AcDbEntity
  8
寸法
 62
     1
100
AcDbCircle
 10
133.032147
 20
97.261617
 30
0.0
 40
32.755187
100
AcDbArc
 50
173.002063
 51
176.501032
  0
ARC
  5
5DA
100
AcDbEntity
  8
寸法
 62
     1
100
AcDbCircle
 10
133.032147
 20
97.261617
 30
0.0
 40
32.755187
100
AcDbArc
 50
189.498966
 51
192.997935
  0
ARC
  5
5DB
100
AcDbEntity
  8
寸法
 62
     1
100
AcDbCircle
 10
133.032147
 20
97.261617
 30
0.0
 40
32.755187
100
AcDbArc
 50
180.0
 51
185.999998
  0
INSERT
  5
5DC
100
AcDbEntity
  8
寸法
 62
     1
100
AcDbBlockReference
  2
_OPEN30
 10
100.27696
 20
97.261617
 30
0.0
 41
2.0
 42
2.0
 43
2.0
 50
268.250516
  0
INSERT
  5
5DD
100
AcDbEntity
  8
寸法
 62
     1
100
AcDbBlockReference
  2
_OPEN30
 10
100.456396
 20
93.837768
 30
0.0
 41
2.0
 42
2.0
 43
2.0
 50
97.749482
  0
MTEXT
  5
5DE
100
AcDbEntity
  8
寸法
 62
     1
100
AcDbMText
 10
103.526683
 20
105.217365
 30
0.0
 40
3.0
 41
0.0
 71
     5
 72
     1
  1
\A1;6°
 11
-0.12189
 21
-0.992544
 31
0.0
  0
POINT
  5
5DF
100
AcDbEntity
  8
DEFPOINTS
 62
     0
100
AcDbPoint
 10
100.35675
 20
94.976731
 30
0.0
  0
POINT
  5
5E0
100
AcDbEntity
  8
DEFPOINTS
 62
     0
100
AcDbPoint
 10
130.177846
 20
97.261617
 30
0.0
  0
POINT
  5
5E1
100
AcDbEntity
  8
DEFPOINTS
 62
     0
100
AcDbPoint
 10
118.760596
 20
95.761617
 30
0.0
  0
POINT
  5
5E2
100
AcDbEntity
  8
DEFPOINTS
 62
     0
100
AcDbPoint
 10
126.124126
 20
96.535555
 30
0.0
  0
POINT
  5
5E3
100
AcDbEntity
  8
DEFPOINTS
 62
     0
100
AcDbPoint
 10
160.760592
 20
97.261617
 30
0.0
  0
ENDBLK
  5
3F3
100
AcDbEntity
  8
0
100
AcDbBlockEnd
  0
BLOCK
  5
3FF
100
AcDbEntity
  8
0
100
AcDbBlockBegin
  2
*D7
 70
     1
 10
0.0
 20
0.0
 30
0.0
  3
*D7
  1

  0
LINE
  5
3F6
100
AcDbEntity
  8
寸法
 62
     1
100
AcDbLine
 10
168.760596
 20
141.017392
 30
0.0
 11
168.760596
 21
119.0
 31
0.0
1001
ACAD
1000
RTLwPs
1070
   158
  0
LINE
  5
3F7
100
AcDbEntity
  8
寸法
 62
     1
100
AcDbLine
 10
118.760592
 20
139.917393
 30
0.0
 11
118.760592
 21
119.0
 31
0.0
1001
ACAD
1000
RTLwPs
1070
   158
  0
LINE
  5
3F8
100
AcDbEntity
  8
寸法
 62
     1
100
AcDbLine
 10
166.760596
 20
120.0
 30
0.0
 11
120.760592
 21
120.0
 31
0.0
1001
ACAD
1000
RTLwPs
1070
   158
  0
INSERT
  5
3F9
100
AcDbEntity
  8
寸法
 62
     1
100
AcDbBlockReference
  2
_OPEN30
 10
168.760596
 20
120.0
 30
0.0
 41
2.0
 42
2.0
 43
2.0
1001
ACAD
1000
RTLwPs
1070
   158
  0
INSERT
  5
3FA
100
AcDbEntity
  8
寸法
 62
     1
100
AcDbBlockReference
  2
_OPEN30
 10
118.760592
 20
120.0
 30
0.0
 41
2.0
 42
2.0
 43
2.0
 50
180.0
1001
ACAD
1000
RTLwPs
1070
   158
  0
MTEXT
  5
3FB
100
AcDbEntity
  8
寸法
 62
     1
100
AcDbMText
 10
143.760594
 20
122.5
 30
0.0
 40
3.0
 41
0.0
 71
     5
 72
     1
  1
\A1;50
1001
ACAD
1000
MTEXTBEGIN
1070
    73
1070
     1
1070
    44
1040
1.0
1070
    74
1070
     0
1000
MTEXTEND
1000
MTEXTBEGIN
1070
    73
1070
     1
1070
    44
1040
1.0
1070
    74
1070
     0
1000
MTEXTEND
  0
POINT
  5
3FC
100
AcDbEntity
  8
DEFPOINTS
 62
     0
100
AcDbPoint
 10
168.760596
 20
142.017392
 30
0.0
  0
POINT
  5
3FD
100
AcDbEntity
  8
DEFPOINTS
 62
     0
100
AcDbPoint
 10
118.760592
 20
140.917393
 30
0.0
  0
POINT
  5
3FE
100
AcDbEntity
  8
DEFPOINTS
 62
     0
100
AcDbPoint
 10
118.760592
 20
120.0
 30
0.0
  0
ENDBLK
  5
400
100
AcDbEntity
  8
0
100
AcDbBlockEnd
  0
BLOCK
  5
40C
100
AcDbEntity
  8
0
100
AcDbBlockBegin
  2
*D8
 70
     1
 10
0.0
 20
0.0
 30
0.0
  3
*D8
  1

  0
LINE
  5
5E4
100
AcDbEntity
  8
寸法
 62
     1
100
AcDbLine
 10
168.760596
 20
141.017392
 30
0.0
 11
168.760596
 21
129.0
 31
0.0
  0
LINE
  5
5E5
100
AcDbEntity
  8
寸法
 62
     1
100
AcDbLine
 10
160.760592
 20
137.801214
 30
0.0
 11
160.760592
 21
129.0
 31
0.0
  0
LINE
  5
5E6
100
AcDbEntity
  8
寸法
 62
     1
100
AcDbLine
 10
166.760596
 20
130.0
 30
0.0
 11
162.760592
 21
130.0
 31
0.0
  0
INSERT
  5
5E7
100
AcDbEntity
  8
寸法
 62
     1
100
AcDbBlockReference
  2
_OPEN30
 10
168.760596
 20
130.0
 30
0.0
 41
2.0
 42
2.0
 43
2.0
  0
INSERT
  5
5E8
100
AcDbEntity
  8
寸法
 62
     1
100
AcDbBlockReference
  2
_OPEN30
 10
160.760592
 20
130.0
 30
0.0
 41
2.0
 42
2.0
 43
2.0
 50
180.0
  0
MTEXT
  5
5E9
100
AcDbEntity
  8
寸法
 62
     1
100
AcDbMText
 10
164.760594
 20
132.5
 30
0.0
 40
3.0
 41
0.0
 71
     5
 72
     1
  1
\A1;8
  0
POINT
  5
5EA
100
AcDbEntity
  8
DEFPOINTS
 62
     0
100
AcDbPoint
 10
168.760596
 20
142.017392
 30
0.0
  0
POINT
  5
5EB
100
AcDbEntity
  8
DEFPOINTS
 62
     0
100
AcDbPoint
 10
160.760592
 20
138.801214
 30
0.0
  0
POINT
  5
5EC
100
AcDbEntity
  8
DEFPOINTS
 62
     0
100
AcDbPoint
 10
160.760592
 20
130.0
 30
0.0
  0
ENDBLK
  5
40D
100
AcDbEntity
  8
0
100
AcDbBlockEnd
  0
BLOCK
  5
426
100
AcDbEntity
  8
0
100
AcDbBlockBegin
  2
*D9
 70
     1
 10
0.0
 20
0.0
 30
0.0
  3
*D9
  1

  0
LINE
  5
5ED
100
AcDbEntity
  8
寸法
 62
     1
100
AcDbLine
 10
126.381616
 20
136.517393
 30
0.0
 11
135.083373
 21
131.493431
 31
0.0
  0
LINE
  5
5EE
100
AcDbEntity
  8
寸法
 62
     1
100
AcDbLine
 10
129.760592
 20
138.017392
 30
0.0
 11
136.831463
 21
138.017392
 31
0.0
  0
ARC
  5
5EF
100
AcDbEntity
  8
寸法
 62
     1
100
AcDbCircle
 10
123.78354
 20
138.017392
 30
0.0
 40
12.047923
100
AcDbArc
 50
320.477733
 51
330.0
  0
LINE
  5
5F0
100
AcDbEntity
  8
寸法
 62
     1
100
AcDbLine
 10
133.077035
 20
130.350359
 30
0.0
 11
126.013238
 21
121.78807
 31
0.0
  0
ARC
  5
5F1
100
AcDbEntity
  8
寸法
 62
     1
100
AcDbCircle
 10
123.78354
 20
138.017392
 30
0.0
 40
12.047923
100
AcDbArc
 50
339.522268
 51
350.477732
  0
INSERT
  5
5F2
100
AcDbEntity
  8
寸法
 62
     1
100
AcDbBlockReference
  2
_OPEN30
 10
134.217347
 20
131.993431
 30
0.0
 41
2.0
 42
2.0
 43
2.0
 50
244.761134
  0
INSERT
  5
5F3
100
AcDbEntity
  8
寸法
 62
     1
100
AcDbBlockReference
  2
_OPEN30
 10
135.831463
 20
138.017392
 30
0.0
 41
2.0
 42
2.0
 43
2.0
 50
85.238866
  0
MTEXT
  5
5F4
100
AcDbEntity
  8
寸法
 62
     1
100
AcDbMText
 10
127.616693
 20
127.66016
 30
0.0
 40
3.0
 41
0.0
 71
     5
 72
     1
  1
\A1;30°
 11
0.636378
 21
0.771377
 31
0.0
  0
POINT
  5
5F5
100
AcDbEntity
  8
DEFPOINTS
 62
     0
100
AcDbPoint
 10
135.648428
 20
135.925293
 30
0.0
  0
POINT
  5
5F6
100
AcDbEntity
  8
DEFPOINTS
 62
     0
100
AcDbPoint
 10
126.09294
 20
138.017392
 30
0.0
  0
POINT
  5
5F7
100
AcDbEntity
  8
DEFPOINTS
 62
     0
100
AcDbPoint
 10
118.760592
 20
140.917393
 30
0.0
  0
POINT
  5
5F8
100
AcDbEntity
  8
DEFPOINTS
 62
     0
100
AcDbPoint
 10
125.51559
 20
137.017393
 30
0.0
  0
POINT
  5
5F9
100
AcDbEntity
  8
DEFPOINTS
 62
     0
100
AcDbPoint
 10
128.760592
 20
138.017392
 30
0.0
  0
ENDBLK
  5
427
100
AcDbEntity
  8
0
100
AcDbBlockEnd
  0
BLOCK
  5
433
100
AcDbEntity
  8
0
100
AcDbBlockBegin
  2
*D10
 70
     1
 10
0.0
 20
0.0
 30
0.0
  3
*D10
  1

  0
LINE
  5
42A
100
AcDbEntity
  8
寸法
 62
     1
100
AcDbLine
 10
122.437129
 20
149.017393
 30
0.0
 11
109.0
 21
149.017393
 31
0.0
1001
ACAD
1000
RTLwPs
1070
   158
  0
LINE
  5
42B
100
AcDbEntity
  8
寸法
 62
     1
100
AcDbLine
 10
124.51559
 20
137.017393
 30
0.0
 11
109.0
 21
137.017393
 31
0.0
1001
ACAD
1000
RTLwPs
1070
   158
  0
LINE
  5
42C
100
AcDbEntity
  8
寸法
 62
     1
100
AcDbLine
 10
110.0
 20
147.017393
 30
0.0
 11
110.0
 21
139.017393
 31
0.0
1001
ACAD
1000
RTLwPs
1070
   158
  0
INSERT
  5
42D
100
AcDbEntity
  8
寸法
 62
     1
100
AcDbBlockReference
  2
_OPEN30
 10
110.0
 20
149.017393
 30
0.0
 41
2.0
 42
2.0
 43
2.0
 50
90.0
1001
ACAD
1000
RTLwPs
1070
   158
  0
INSERT
  5
42E
100
AcDbEntity
  8
寸法
 62
     1
100
AcDbBlockReference
  2
_OPEN30
 10
110.0
 20
137.017393
 30
0.0
 41
2.0
 42
2.0
 43
2.0
 50
270.0
1001
ACAD
1000
RTLwPs
1070
   158
  0
MTEXT
  5
42F
100
AcDbEntity
  8
寸法
 62
     1
100
AcDbMText
 10
107.5
 20
143.017393
 30
0.0
 40
3.0
 41
0.0
 71
     5
 72
     1
  1
\A1;12
 11
0.0
 21
1.0
 31
0.0
1001
ACAD
1000
MTEXTBEGIN
1070
    73
1070
     1
1070
    44
1040
1.0
1070
    74
1070
     0
1000
MTEXTEND
1000
MTEXTBEGIN
1070
    73
1070
     1
1070
    44
1040
1.0
1070
    74
1070
     0
1000
MTEXTEND
  0
POINT
  5
430
100
AcDbEntity
  8
DEFPOINTS
 62
     0
100
AcDbPoint
 10
123.437129
 20
149.017393
 30
0.0
  0
POINT
  5
431
100
AcDbEntity
  8
DEFPOINTS
 62
     0
100
AcDbPoint
 10
125.51559
 20
137.017393
 30
0.0
  0
POINT
  5
432
100
AcDbEntity
  8
DEFPOINTS
 62
     0
100
AcDbPoint
 10
110.0
 20
137.017393
 30
0.0
  0
ENDBLK
  5
434
100
AcDbEntity
  8
0
100
AcDbBlockEnd
  0
BLOCK
  5
472
100
AcDbEntity
  8
0
100
AcDbBlockBegin
  2
*D11
 70
     1
 10
0.0
 20
0.0
 30
0.0
  3
*D11
  1

  0
LINE
  5
4B4
100
AcDbEntity
  8
寸法
 62
     1
100
AcDbLine
 10
168.760592
 20
92.261617
 30
0.0
 11
168.760592
 21
111.0
 31
0.0
1001
ACAD
1000
RTLwPs
1070
   158
  0
LINE
  5
4B5
100
AcDbEntity
  8
寸法
 62
     1
100
AcDbLine
 10
149.760592
 20
99.937937
 30
0.0
 11
149.760592
 21
111.0
 31
0.0
1001
ACAD
1000
RTLwPs
1070
   158
  0
LINE
  5
4B6
100
AcDbEntity
  8
寸法
 62
     1
100
AcDbLine
 10
166.760592
 20
110.0
 30
0.0
 11
151.760592
 21
110.0
 31
0.0
1001
ACAD
1000
RTLwPs
1070
   158
  0
INSERT
  5
4B7
100
AcDbEntity
  8
寸法
 62
     1
100
AcDbBlockReference
  2
_OPEN30
 10
168.760592
 20
110.0
 30
0.0
 41
2.0
 42
2.0
 43
2.0
1001
ACAD
1000
RTLwPs
1070
   158
  0
INSERT
  5
4B8
100
AcDbEntity
  8
寸法
 62
     1
100
AcDbBlockReference
  2
_OPEN30
 10
149.760592
 20
110.0
 30
0.0
 41
2.0
 42
2.0
 43
2.0
 50
180.0
1001
ACAD
1000
RTLwPs
1070
   158
  0
MTEXT
  5
4B9
100
AcDbEntity
  8
寸法
 62
     1
100
AcDbMText
 10
159.260592
 20
112.5
 30
0.0
 40
3.0
 41
0.0
 71
     5
 72
     1
  1
\A1;19
1001
ACAD
1000
MTEXTBEGIN
1070
    73
1070
     1
1070
    44
1040
1.0
1070
    74
1070
     0
1000
MTEXTEND
1000
MTEXTBEGIN
1070
    73
1070
     1
1070
    44
1040
1.0
1070
    74
1070
     0
1000
MTEXTEND
  0
POINT
  5
4BA
100
AcDbEntity
  8
DEFPOINTS
 62
     0
100
AcDbPoint
 10
168.760592
 20
91.261617
 30
0.0
  0
POINT
  5
4BB
100
AcDbEntity
  8
DEFPOINTS
 62
     0
100
AcDbPoint
 10
149.760592
 20
98.937937
 30
0.0
  0
POINT
  5
4BC
100
AcDbEntity
  8
DEFPOINTS
 62
     0
100
AcDbPoint
 10
149.760592
 20
110.0
 30
0.0
  0
ENDBLK
  5
473
100
AcDbEntity
  8
0
100
AcDbBlockEnd
  0
BLOCK
  5
60D
100
AcDbEntity
  8
0
100
AcDbBlockBegin
  2
*D12
 70
     1
 10
0.0
 20
0.0
 30
0.0
  3
*D12
  1

  0
LINE
  5
60E
100
AcDbEntity
  8
0
  6
BYBLOCK
 62
     1
100
AcDbLine
 10
83.544577
 20
139.908308
 30
0.0
 11
83.546164
 21
128.289408
 31
0.0
  0
LINE
  5
60F
100
AcDbEntity
  8
0
  6
BYBLOCK
 62
     1
100
AcDbLine
 10
85.365955
 20
140.044881
 30
0.0
 11
86.984257
 21
128.530059
 31
0.0
  0
ARC
  5
610
100
AcDbEntity
  8
0
  6
BYBLOCK
 62
     1
100
AcDbCircle
 10
83.542787
 20
153.017393
 30
0.0
 40
23.727985
100
AcDbArc
 50
260.337583
 51
270.007825
  0
LINE
  5
611
100
AcDbEntity
  8
0
  6
BYBLOCK
 62
     1
100
AcDbLine
 10
79.560216
 20
129.626019
 30
0.0
 11
71.082218
 21
131.069466
 31
0.0
  0
ARC
  5
612
100
AcDbEntity
  8
0
  6
BYBLOCK
 62
     1
100
AcDbCircle
 10
83.542787
 20
153.017393
 30
0.0
 40
23.727985
100
AcDbArc
 50
260.346195
 51
265.17701
  0
ARC
  5
613
100
AcDbEntity
  8
0
  6
BYBLOCK
 62
     1
100
AcDbCircle
 10
83.542787
 20
153.017393
 30
0.0
 40
23.727985
100
AcDbArc
 50
282.830815
 51
287.66163
  0
ARC
  5
614
100
AcDbEntity
  8
0
  6
BYBLOCK
 62
     1
100
AcDbCircle
 10
83.542787
 20
153.017393
 30
0.0
 40
23.727985
100
AcDbArc
 50
270.007825
 51
278.0
  0
INSERT
  5
615
100
AcDbEntity
  8
0
  6
BYBLOCK
 62
     1
100
AcDbBlockReference
  2
_OPEN30
 10
83.546028
 20
129.289408
 30
0.0
 41
2.0
 42
2.0
 43
2.0
 50
357.592418
  0
INSERT
  5
616
100
AcDbEntity
  8
0
  6
BYBLOCK
 62
     1
100
AcDbBlockReference
  2
_OPEN30
 10
86.845084
 20
129.520327
 30
0.0
 41
2.0
 42
2.0
 43
2.0
 50
190.415408
  0
MTEXT
  5
617
100
AcDbEntity
  8
0
  6
BYBLOCK
 62
     1
100
AcDbMText
 10
75.740824
 20
132.812277
 30
0.0
 40
3.0
 41
0.0
 71
     5
 72
     1
  1
\A1;8°
 11
0.985814
 21
-0.167843
 31
0.0
  0
POINT
  5
618
100
AcDbEntity
  8
DEFPOINTS
  6
BYBLOCK
 62
     0
100
AcDbPoint
 10
85.749375
 20
129.392232
 30
0.0
  0
POINT
  5
619
100
AcDbEntity
  8
DEFPOINTS
  6
BYBLOCK
 62
     0
100
AcDbPoint
 10
83.542787
 20
153.017393
 30
0.0
  0
POINT
  5
61A
100
AcDbEntity
  8
DEFPOINTS
  6
BYBLOCK
 62
     0
100
AcDbPoint
 10
85.226782
 20
141.035149
 30
0.0
  0
POINT
  5
61B
100
AcDbEntity
  8
DEFPOINTS
  6
BYBLOCK
 62
     0
100
AcDbPoint
 10
83.542787
 20
153.017393
 30
0.0
  0
POINT
  5
61C
100
AcDbEntity
  8
DEFPOINTS
  6
BYBLOCK
 62
     0
100
AcDbPoint
 10
83.544441
 20
140.908308
 30
0.0
  0
ENDBLK
  5
61D
100
AcDbEntity
  8
0
100
AcDbBlockEnd
  0
ENDSEC
  0
SECTION
  2
ENTITIES
  0
POINT
  5
199
100
AcDbEntity
  8
0
  6
CONTINUOUS
 62
     7
100
AcDbPoint
 10
86.388809
 20
140.917393
 30
0.0
  0
POINT
  5
19A
100
AcDbEntity
  8
0
  6
CONTINUOUS
 62
     7
100
AcDbPoint
 10
118.760592
 20
140.917393
 30
0.0
  0
POINT
  5
19B
100
AcDbEntity
  8
0
  6
CONTINUOUS
 62
     7
100
AcDbPoint
 10
118.760596
 20
95.761617
 30
0.0
  0
POINT
  5
19C
100
AcDbEntity
  8
0
  6
CONTINUOUS
 62
     7
100
AcDbPoint
 10
191.746439
 20
85.761615
 30
0.0
  0
LINE
  5
19D
100
AcDbEntity
  8
0
  6
CENTER
 62
     1
 48
0.5
100
AcDbLine
 10
149.760592
 20
150.227135
 30
0.0
 11
149.760592
 21
136.221762
 31
0.0
  0
LINE
  5
19E
100
AcDbEntity
  8
0
  6
CONTINUOUS
 62
     7
100
AcDbLine
 10
160.760592
 20
149.017393
 30
0.0
 11
160.760592
 21
138.801214
 31
0.0
  0
LINE
  5
19F
100
AcDbEntity
  8
0
  6
CONTINUOUS
 62
     7
100
AcDbLine
 10
123.437129
 20
149.017393
 30
0.0
 11
160.760592
 21
149.017393
 31
0.0
  0
LINE
  5
1A0
100
AcDbEntity
  8
0
  6
CONTINUOUS
 62
     7
100
AcDbLine
 10
191.746439
 20
85.761615
 30
0.0
 11
199.856166
 21
85.761615
 31
0.0
  0
LINE
  5
1A1
100
AcDbEntity
  8
0
  6
CONTINUOUS
 62
     7
100
AcDbLine
 10
200.926585
 20
96.261617
 30
0.0
 11
200.926585
 21
86.761615
 31
0.0
  0
LINE
  5
1A2
100
AcDbEntity
  8
0
  6
CONTINUOUS
 62
     7
100
AcDbLine
 10
191.926585
 20
97.261617
 30
0.0
 11
199.926585
 21
97.261617
 31
0.0
  0
LINE
  5
1A3
100
AcDbEntity
  8
0
  6
CONTINUOUS
 62
     7
100
AcDbLine
 10
199.926585
 20
97.261617
 30
0.0
 11
200.926585
 21
96.261615
 31
0.0
  0
LINE
  5
1A4
100
AcDbEntity
  8
0
  6
CONTINUOUS
 62
     7
100
AcDbLine
 10
200.926585
 20
86.761615
 30
0.0
 11
199.989794
 21
85.824825
 31
0.0
  0
LINE
  5
1A5
100
AcDbEntity
  8
0
  6
CONTINUOUS
 62
     7
100
AcDbLine
 10
191.926577
 20
97.261617
 30
0.0
 11
190.710406
 21
88.608097
 31
0.0
  0
LINE
  5
1A6
100
AcDbEntity
  8
0
  6
CONTINUOUS
 62
     7
100
AcDbLine
 10
196.844447
 20
96.327581
 30
0.0
 11
195.647555
 21
87.811275
 31
0.0
  0
LINE
  5
1A7
100
AcDbEntity
  8
0
  6
CONTINUOUS
 62
     7
100
AcDbLine
 10
134.560591
 20
140.017393
 30
0.0
 11
160.760592
 21
140.017393
 31
0.0
  0
LINE
  5
1A8
100
AcDbEntity
  8
0
  6
CONTINUOUS
 62
     7
100
AcDbLine
 10
130.177846
 20
148.070215
 30
0.0
 11
160.760592
 21
148.070215
 31
0.0
  0
LINE
  5
1A9
100
AcDbEntity
  8
0
  6
CONTINUOUS
 62
     7
100
AcDbLine
 10
126.09294
 20
138.017392
 30
0.0
 11
128.760592
 21
138.017392
 31
0.0
  0
LINE
  5
1AA
100
AcDbEntity
  8
0
  6
CONTINUOUS
 62
     7
100
AcDbLine
 10
118.760592
 20
140.917393
 30
0.0
 11
123.437129
 21
149.017392
 31
0.0
  0
LINE
  5
1AB
100
AcDbEntity
  8
0
  6
CONTINUOUS
 62
     7
100
AcDbLine
 10
118.760592
 20
140.917393
 30
0.0
 11
125.51559
 21
137.017393
 31
0.0
  0
LINE
  5
1AC
100
AcDbEntity
  8
0
  6
CONTINUOUS
 62
     7
100
AcDbLine
 10
122.730592
 20
147.793634
 30
0.0
 11
129.48559
 21
143.893635
 31
0.0
  0
LINE
  5
1AD
100
AcDbEntity
  8
0
  6
CONTINUOUS
 62
     7
100
AcDbLine
 10
133.760592
 20
139.217393
 30
0.0
 11
133.760592
 21
138.454836
 31
0.0
  0
LINE
  5
1AE
100
AcDbEntity
  8
0
  6
CONTINUOUS
 62
     7
100
AcDbLine
 10
77.388811
 20
149.017393
 30
0.0
 11
86.888811
 21
149.017393
 31
0.0
  0
LINE
  5
1AF
100
AcDbEntity
  8
0
  6
CONTINUOUS
 62
     7
100
AcDbLine
 10
160.760592
 20
97.261617
 30
0.0
 11
160.760592
 21
85.761615
 31
0.0
  0
LINE
  5
1B0
100
AcDbEntity
  8
0
  6
CENTER
 62
     1
 48
0.5
100
AcDbLine
 10
151.010592
 20
98.650181
 30
0.0
 11
151.010592
 21
83.682438
 31
0.0
  0
LINE
  5
1B1
100
AcDbEntity
  8
0
  6
CENTER
 62
     1
 48
0.5
100
AcDbLine
 10
148.510592
 20
98.480093
 30
0.0
 11
148.510592
 21
84.277744
 31
0.0
  0
LINE
  5
1B2
100
AcDbEntity
  8
0
  6
CENTER
 62
     7
100
AcDbLine
 10
149.760592
 20
98.937937
 30
0.0
 11
149.760592
 21
81.896515
 31
0.0
  0
LINE
  5
1B3
100
AcDbEntity
  8
0
  6
CONTINUOUS
 62
     7
100
AcDbLine
 10
76.388809
 20
148.017392
 30
0.0
 11
76.388809
 21
139.837245
 31
0.0
  0
LINE
  5
1B4
100
AcDbEntity
  8
0
  6
CONTINUOUS
 62
     7
100
AcDbLine
 10
81.388811
 20
140.9174
 30
0.0
 11
81.388811
 21
138.017393
 31
0.0
  0
LINE
  5
1B5
100
AcDbEntity
  8
0
  6
CONTINUOUS
 62
     7
100
AcDbLine
 10
76.388809
 20
139.837245
 30
0.0
 11
81.388809
 21
138.017394
 31
0.0
  0
LINE
  5
1B6
100
AcDbEntity
  8
0
  6
CONTINUOUS
 62
     7
100
AcDbLine
 10
77.388809
 20
149.017394
 30
0.0
 11
76.388809
 21
148.017394
 31
0.0
  0
LINE
  5
1B7
100
AcDbEntity
  8
0
  6
CONTINUOUS
 62
     7
100
AcDbLine
 10
87.888811
 20
148.017392
 30
0.0
 11
87.888811
 21
138.017392
 31
0.0
  0
LINE
  5
1B8
100
AcDbEntity
  8
0
  6
CONTINUOUS
 62
     7
100
AcDbLine
 10
86.888809
 20
149.017393
 30
0.0
 11
87.888809
 21
148.017393
 31
0.0
  0
LINE
  5
1B9
100
AcDbEntity
  8
0
  6
CONTINUOUS
 62
     7
100
AcDbLine
 10
87.355201
 20
138.017392
 30
0.0
 11
87.888811
 21
138.017392
 31
0.0
  0
LINE
  5
1BA
100
AcDbEntity
  8
0
  6
CONTINUOUS
 62
     7
100
AcDbLine
 10
76.388809
 20
142.737252
 30
0.0
 11
81.388809
 21
140.917401
 31
0.0
  0
LINE
  5
1BB
100
AcDbEntity
  8
0
  6
CONTINUOUS
 62
     7
100
AcDbLine
 10
81.388811
 20
138.017393
 30
0.0
 11
84.070735
 21
138.017393
 31
0.0
  0
LINE
  5
1BC
100
AcDbEntity
  8
0
  6
CONTINUOUS
 62
     7
100
AcDbLine
 10
128.760592
 20
138.017393
 30
0.0
 11
133.760592
 21
138.454836
 31
0.0
  0
LINE
  5
1BD
100
AcDbEntity
  8
0
  6
CONTINUOUS
 62
     7
100
AcDbLine
 10
120.989228
 20
85.761615
 30
0.0
 11
160.760592
 21
85.761615
 31
0.0
  0
LINE
  5
1BE
100
AcDbEntity
  8
0
  6
CONTINUOUS
 62
     7
100
AcDbLine
 10
119.053275
 20
92.976957
 30
0.0
 11
126.416806
 21
93.750894
 31
0.0
  0
LINE
  5
1BF
100
AcDbEntity
  8
0
  6
CONTINUOUS
 62
     7
100
AcDbLine
 10
119.169376
 20
90.761617
 30
0.0
 11
128.760592
 21
90.761617
 31
0.0
  0
LINE
  5
1C0
100
AcDbEntity
  8
0
  6
CENTER
 62
     1
 48
0.5
100
AcDbLine
 10
128.760592
 20
90.761617
 30
0.0
 11
134.292178
 21
90.761617
 31
0.0
  0
LINE
  5
1C1
100
AcDbEntity
  8
0
  6
CENTER
 62
     1
 48
0.5
100
AcDbLine
 10
130.760592
 20
94.17395
 30
0.0
 11
130.760592
 21
86.836284
 31
0.0
  0
LINE
  5
1C2
100
AcDbEntity
  8
0
  6
CONTINUOUS
 62
     7
100
AcDbLine
 10
128.760592
 20
97.112657
 30
0.0
 11
128.760592
 21
90.761617
 31
0.0
  0
LINE
  5
1C3
100
AcDbEntity
  8
0
  6
CONTINUOUS
 62
     7
100
AcDbLine
 10
118.760596
 20
95.761617
 30
0.0
 11
126.124126
 21
96.535555
 31
0.0
  0
LINE
  5
1C4
100
AcDbEntity
  8
0
  6
CONTINUOUS
 62
     7
100
AcDbLine
 10
130.177846
 20
97.261617
 30
0.0
 11
160.760592
 21
97.261617
 31
0.0
  0
LINE
  5
1C5
100
AcDbEntity
  8
0
  6
CONTINUOUS
 62
     7
100
AcDbLine
 10
83.960086
 20
147.793634
 30
0.0
 11
86.806108
 21
147.793634
 31
0.0
  0
LINE
  5
1C6
100
AcDbEntity
  8
0
  6
CONTINUOUS
 62
     7
100
AcDbLine
 10
81.388811
 20
140.917393
 30
0.0
 11
86.388809
 21
140.917393
 31
0.0
  0
LINE
  5
1C7
100
AcDbEntity
  8
0
  6
CONTINUOUS
 62
     7
100
AcDbLine
 10
168.760592
 20
146.017392
 30
0.0
 11
168.760592
 21
142.017393
 31
0.0
  0
LINE
  5
1C8
100
AcDbEntity
  8
0
  6
CONTINUOUS
 62
     7
100
AcDbLine
 10
163.760592
 20
148.017392
 30
0.0
 11
163.760592
 21
140.017393
 31
0.0
  0
LINE
  5
1C9
100
AcDbEntity
  8
0
  6
CONTINUOUS
 62
     7
100
AcDbLine
 10
160.760592
 20
141.517393
 30
0.0
 11
163.760592
 21
141.517393
 31
0.0
  0
LINE
  5
1CA
100
AcDbEntity
  8
0
  6
CONTINUOUS
 62
     7
100
AcDbLine
 10
160.760592
 20
146.517392
 30
0.0
 11
163.760592
 21
146.517392
 31
0.0
  0
LINE
  5
1CB
100
AcDbEntity
  8
0
  6
CONTINUOUS
 62
     7
100
AcDbLine
 10
166.260596
 20
148.517395
 30
0.0
 11
168.760596
 21
146.017395
 31
0.0
  0
LINE
  5
1CC
100
AcDbEntity
  8
0
  6
CONTINUOUS
 62
     7
100
AcDbLine
 10
166.260596
 20
139.517392
 30
0.0
 11
168.760596
 21
142.017392
 31
0.0
  0
LINE
  5
1CD
100
AcDbEntity
  8
0
  6
CONTINUOUS
 62
     7
100
AcDbLine
 10
164.260592
 20
139.517393
 30
0.0
 11
166.260592
 21
139.517393
 31
0.0
  0
LINE
  5
1CE
100
AcDbEntity
  8
0
  6
CONTINUOUS
 62
     7
100
AcDbLine
 10
164.260592
 20
148.517392
 30
0.0
 11
166.260592
 21
148.517392
 31
0.0
  0
LINE
  5
1CF
100
AcDbEntity
  8
0
  6
CONTINUOUS
 62
     7
100
AcDbLine
 10
164.260588
 20
148.51739
 30
0.0
 11
163.760592
 21
148.017392
 31
0.0
  0
LINE
  5
1D0
100
AcDbEntity
  8
0
  6
CONTINUOUS
 62
     7
100
AcDbLine
 10
163.760596
 20
140.017396
 30
0.0
 11
164.260596
 21
139.517395
 31
0.0
  0
LINE
  5
1D1
100
AcDbEntity
  8
0
  6
CONTINUOUS
 62
     7
100
AcDbLine
 10
164.260592
 20
148.517392
 30
0.0
 11
164.260592
 21
139.517392
 31
0.0
  0
LINE
  5
1D2
100
AcDbEntity
  8
0
  6
CONTINUOUS
 62
     7
100
AcDbLine
 10
166.260592
 20
148.517392
 30
0.0
 11
166.260592
 21
139.517393
 31
0.0
  0
LINE
  5
1D3
100
AcDbEntity
  8
0
  6
CONTINUOUS
 62
     7
100
AcDbLine
 10
160.760592
 20
142.017393
 30
0.0
 11
163.760592
 21
142.017393
 31
0.0
  0
LINE
  5
1D4
100
AcDbEntity
  8
0
  6
CONTINUOUS
 62
     7
100
AcDbLine
 10
160.760592
 20
146.017392
 30
0.0
 11
163.760592
 21
146.017392
 31
0.0
  0
LINE
  5
1D5
100
AcDbEntity
  8
0
  6
CENTER
 62
     1
 48
0.5
100
AcDbLine
 10
158.292784
 20
144.017392
 30
0.0
 11
170.691268
 21
144.017392
 31
0.0
  0
LINE
  5
1D6
100
AcDbEntity
  8
0
  6
CONTINUOUS
 62
     7
100
AcDbLine
 10
168.760592
 20
93.261617
 30
0.0
 11
168.760592
 21
89.261617
 31
0.0
  0
LINE
  5
1D7
100
AcDbEntity
  8
0
  6
CONTINUOUS
 62
     7
100
AcDbLine
 10
163.760592
 20
95.261617
 30
0.0
 11
163.760592
 21
87.261617
 31
0.0
  0
LINE
  5
1D8
100
AcDbEntity
  8
0
  6
CONTINUOUS
 62
     7
100
AcDbLine
 10
160.760592
 20
88.761617
 30
0.0
 11
163.760592
 21
88.761617
 31
0.0
  0
LINE
  5
1D9
100
AcDbEntity
  8
0
  6
CONTINUOUS
 62
     7
100
AcDbLine
 10
160.760592
 20
93.761617
 30
0.0
 11
163.760592
 21
93.761617
 31
0.0
  0
LINE
  5
1DA
100
AcDbEntity
  8
0
  6
CONTINUOUS
 62
     7
100
AcDbLine
 10
166.260596
 20
95.761617
 30
0.0
 11
168.760596
 21
93.261617
 31
0.0
  0
LINE
  5
1DB
100
AcDbEntity
  8
0
  6
CONTINUOUS
 62
     7
100
AcDbLine
 10
166.260592
 20
86.761615
 30
0.0
 11
168.760592
 21
89.261615
 31
0.0
  0
LINE
  5
1DC
100
AcDbEntity
  8
0
  6
CONTINUOUS
 62
     7
100
AcDbLine
 10
164.260592
 20
86.761615
 30
0.0
 11
166.260592
 21
86.761615
 31
0.0
  0
LINE
  5
1DD
100
AcDbEntity
  8
0
  6
CONTINUOUS
 62
     7
100
AcDbLine
 10
164.260592
 20
95.761617
 30
0.0
 11
166.260592
 21
95.761617
 31
0.0
  0
LINE
  5
1DE
100
AcDbEntity
  8
0
  6
CONTINUOUS
 62
     7
100
AcDbLine
 10
164.260592
 20
95.761615
 30
0.0
 11
163.760592
 21
95.261617
 31
0.0
  0
LINE
  5
1DF
100
AcDbEntity
  8
0
  6
CONTINUOUS
 62
     7
100
AcDbLine
 10
163.7606
 20
87.261617
 30
0.0
 11
164.260596
 21
86.761619
 31
0.0
  0
LINE
  5
1E0
100
AcDbEntity
  8
0
  6
CONTINUOUS
 62
     7
100
AcDbLine
 10
164.260592
 20
95.761617
 30
0.0
 11
164.260592
 21
86.761615
 31
0.0
  0
LINE
  5
1E1
100
AcDbEntity
  8
0
  6
CONTINUOUS
 62
     7
100
AcDbLine
 10
166.260592
 20
95.761617
 30
0.0
 11
166.260592
 21
86.761615
 31
0.0
  0
LINE
  5
1E2
100
AcDbEntity
  8
0
  6
CONTINUOUS
 62
     7
100
AcDbLine
 10
160.760592
 20
89.261617
 30
0.0
 11
163.760592
 21
89.261617
 31
0.0
  0
LINE
  5
1E3
100
AcDbEntity
  8
0
  6
CONTINUOUS
 62
     7
100
AcDbLine
 10
160.760592
 20
93.261617
 30
0.0
 11
163.760592
 21
93.261617
 31
0.0
  0
LINE
  5
1E4
100
AcDbEntity
  8
0
  6
CENTER
 62
     1
 48
0.5
100
AcDbLine
 10
158.292784
 20
91.261617
 30
0.0
 11
170.691268
 21
91.261617
 31
0.0
  0
LINE
  5
1E6
100
AcDbEntity
  8
0
  6
CENTER
 62
     1
 48
0.5
100
AcDbLine
 10
121.087673
 20
144.158014
 30
0.0
 11
127.279755
 21
140.583013
 31
0.0
  0
LINE
  5
1E7
100
AcDbEntity
  8
0
  6
CENTER
 62
     1
 48
0.5
100
AcDbLine
 10
122.396214
 20
139.274473
 30
0.0
 11
125.971214
 21
145.466554
 31
0.0
  0
LINE
  5
1E8
100
AcDbEntity
  8
0
  6
CONTINUOUS
 62
     7
100
AcDbLine
 10
125.51559
 20
137.017393
 30
0.0
 11
129.48559
 21
143.893635
 31
0.0
  0
LINE
  5
1E9
100
AcDbEntity
  8
0
  6
CONTINUOUS
 62
     7
100
AcDbLine
 10
84.252788
 20
137.017393
 30
0.0
 11
87.098808
 21
137.017393
 31
0.0
  0
LINE
  5
1EB
100
AcDbEntity
  8
0
  6
CONTINUOUS
 62
     7
100
AcDbLine
 10
191.746439
 20
85.761615
 30
0.0
 11
190.710406
 21
88.608099
 31
0.0
  0
LINE
  5
1EC
100
AcDbEntity
  8
0
  6
CONTINUOUS
 62
     7
100
AcDbLine
 10
133.760592
 20
138.801214
 30
0.0
 11
160.760592
 21
138.801214
 31
0.0
  0
LINE
  5
1ED
100
AcDbEntity
  8
0
  6
CONTINUOUS
 62
     7
100
AcDbLine
 10
119.053275
 20
92.976957
 30
0.0
 11
118.760596
 21
95.761617
 31
0.0
  0
LINE
  5
1EE
100
AcDbEntity
  8
0
  6
CONTINUOUS
 62
     7
100
AcDbLine
 10
125.808269
 20
93.686935
 30
0.0
 11
125.51559
 21
96.471595
 31
0.0
  0
LINE
  5
1EF
100
AcDbEntity
  8
0
  6
CONTINUOUS
 62
     7
100
AcDbLine
 10
133.760592
 20
97.261617
 30
0.0
 11
133.760592
 21
88.608099
 31
0.0
  0
LINE
  5
1F0
100
AcDbEntity
  8
0
  6
CONTINUOUS
 62
     7
100
AcDbLine
 10
122.730592
 20
96.47888
 30
0.0
 11
130.177846
 21
97.261617
 31
0.0
  0
LINE
  5
1F1
100
AcDbEntity
  8
0
  6
CONTINUOUS
 62
     7
100
AcDbLine
 10
122.730592
 20
96.47888
 30
0.0
 11
122.761779
 21
96.182159
 31
0.0
  0
LINE
  5
1F2
100
AcDbEntity
  8
0
  6
CONTINUOUS
 62
     7
100
AcDbLine
 10
126.416806
 20
93.750894
 30
0.0
 11
126.09294
 21
96.832277
 31
0.0
  0
LINE
  5
1F3
100
AcDbEntity
  8
0
  6
PHANTOM
 62
     7
100
AcDbLine
 10
122.730592
 20
96.47888
 30
0.0
 11
118.760592
 21
96.061615
 31
0.0
  0
LINE
  5
1F4
100
AcDbEntity
  8
0
  6
CONTINUOUS
 62
     7
100
AcDbLine
 10
130.177846
 20
148.070215
 30
0.0
 11
130.177846
 21
143.227541
 31
0.0
  0
LINE
  5
1F5
100
AcDbEntity
  8
0
  6
CONTINUOUS
 62
     7
100
AcDbLine
 10
130.177846
 20
148.070214
 30
0.0
 11
123.437129
 21
149.017392
 31
0.0
  0
LINE
  5
1F6
100
AcDbEntity
  8
0
  6
CONTINUOUS
 62
     7
100
AcDbLine
 10
130.177846
 20
141.095626
 30
0.0
 11
130.177846
 21
138.141386
 31
0.0
  0
LINE
  5
1F7
100
AcDbEntity
  8
0
  6
CONTINUOUS
 62
     7
100
AcDbLine
 10
195.647555
 20
87.811275
 30
0.0
 11
190.749896
 21
88.499597
 31
0.0
  0
LINE
  5
1F8
100
AcDbEntity
  8
0
  6
CONTINUOUS
 62
     7
100
AcDbLine
 10
196.844447
 20
96.327581
 30
0.0
 11
191.893107
 21
97.023447
 31
0.0
  0
LINE
  5
1F9
100
AcDbEntity
  8
0
  6
CONTINUOUS
 62
     7
100
AcDbLine
 10
200.926585
 20
88.735573
 30
0.0
 11
195.877192
 21
89.445219
 31
0.0
  0
LINE
  5
1FA
100
AcDbEntity
  8
0
  6
CONTINUOUS
 62
     7
100
AcDbLine
 10
200.926585
 20
94.087658
 30
0.0
 11
196.61481
 21
94.693639
 31
0.0
  0
LINE
  5
1FB
100
AcDbEntity
  8
0
  6
CENTER
 62
     1
 48
0.5
100
AcDbLine
 10
205.495852
 20
90.769447
 30
0.0
 11
186.896815
 21
93.383373
 31
0.0
  0
LINE
  5
1FC
100
AcDbEntity
  8
0
  6
CONTINUOUS
 62
     7
100
AcDbLine
 10
148.510592
 20
97.023447
 30
0.0
 11
151.010592
 21
97.023447
 31
0.0
  0
LINE
  5
1FD
100
AcDbEntity
  8
0
  6
CONTINUOUS
 62
     7
100
AcDbLine
 10
148.510592
 20
96.327581
 30
0.0
 11
151.010592
 21
96.327581
 31
0.0
  0
LINE
  5
1FE
100
AcDbEntity
  8
0
  6
CONTINUOUS
 62
     7
100
AcDbLine
 10
148.510592
 20
94.693639
 30
0.0
 11
151.010592
 21
94.693639
 31
0.0
  0
LINE
  5
1FF
100
AcDbEntity
  8
0
  6
CONTINUOUS
 62
     7
100
AcDbLine
 10
148.510592
 20
94.087658
 30
0.0
 11
151.010592
 21
94.087658
 31
0.0
  0
LINE
  5
200
100
AcDbEntity
  8
0
  6
CONTINUOUS
 62
     7
100
AcDbLine
 10
148.510592
 20
89.445219
 30
0.0
 11
151.010592
 21
89.445219
 31
0.0
  0
LINE
  5
201
100
AcDbEntity
  8
0
  6
CONTINUOUS
 62
     7
100
AcDbLine
 10
148.510592
 20
88.499597
 30
0.0
 11
151.010592
 21
88.499597
 31
0.0
  0
LINE
  5
202
100
AcDbEntity
  8
0
  6
CONTINUOUS
 62
     7
100
AcDbLine
 10
133.760592
 20
88.608099
 30
0.0
 11
147.54551
 21
88.608099
 31
0.0
  0
LINE
  5
203
100
AcDbEntity
  8
0
  6
CONTINUOUS
 62
     7
100
AcDbLine
 10
151.975676
 20
88.608099
 30
0.0
 11
160.760592
 21
88.608099
 31
0.0
  0
LINE
  5
204
100
AcDbEntity
  8
0
  6
CONTINUOUS
 62
     7
100
AcDbLine
 10
133.760592
 20
88.608099
 30
0.0
 11
132.134679
 21
89.308386
 31
0.0
  0
LINE
  5
205
100
AcDbEntity
  8
0
  6
CONTINUOUS
 62
     7
100
AcDbLine
 10
86.388809
 20
140.917392
 30
0.0
 11
87.09881
 21
137.017393
 31
0.0
  0
LINE
  5
206
100
AcDbEntity
  8
0
  6
CONTINUOUS
 62
     7
100
AcDbLine
 10
83.542787
 20
140.917392
 30
0.0
 11
84.252786
 21
137.017393
 31
0.0
  0
LINE
  5
207
100
AcDbEntity
  8
0
  6
CONTINUOUS
 62
     7
100
AcDbLine
 10
86.80611
 20
147.793634
 30
0.0
 11
86.388809
 21
140.917393
 31
0.0
  0
LINE
  5
208
100
AcDbEntity
  8
0
  6
CONTINUOUS
 62
     7
100
AcDbLine
 10
83.960088
 20
147.793634
 30
0.0
 11
83.542787
 21
140.917393
 31
0.0
  0
LINE
  5
209
100
AcDbEntity
  8
0
  6
CONTINUOUS
 62
     7
100
AcDbLine
 10
86.806108
 20
147.793634
 30
0.0
 11
87.516109
 21
143.893634
 31
0.0
  0
LINE
  5
20A
100
AcDbEntity
  8
0
  6
CONTINUOUS
 62
     7
100
AcDbLine
 10
87.516109
 20
143.893634
 30
0.0
 11
87.098808
 21
137.017393
 31
0.0
  0
LINE
  5
20B
100
AcDbEntity
  8
0
  6
CONTINUOUS
 62
     7
100
AcDbLine
 10
119.053275
 20
92.976957
 30
0.0
 11
119.169376
 21
90.761617
 31
0.0
  0
LINE
  5
20C
100
AcDbEntity
  8
0
  6
CONTINUOUS
 62
     7
100
AcDbLine
 10
119.169376
 20
90.761617
 30
0.0
 11
120.989228
 21
85.761615
 31
0.0
  0
ARC
  5
20D
100
AcDbEntity
  8
0
  6
CONTINUOUS
 62
     7
100
AcDbCircle
 10
134.560591
 20
139.217393
 30
0.0
 40
0.8
100
AcDbArc
 50
90.000003
 51
180.00001
  0
ARC
  5
20E
100
AcDbEntity
  8
0
  6
CONTINUOUS
 62
     7
100
AcDbCircle
 10
128.48559
 20
142.161584
 30
0.0
 40
2.0
100
AcDbArc
 50
240.0
 51
60.000002
  0
CIRCLE
  5
20F
100
AcDbEntity
  8
0
  6
CONTINUOUS
 62
     7
100
AcDbCircle
 10
130.760592
 20
90.761617
 30
0.0
 40
2.0
  0
CIRCLE
  5
210
100
AcDbEntity
  8
0
  6
CONTINUOUS
 62
     7
100
AcDbCircle
 10
130.760592
 20
90.761617
 30
0.0
 40
1.75
  0
CIRCLE
  5
211
100
AcDbEntity
  8
0
  6
CONTINUOUS
 62
     7
100
AcDbCircle
 10
124.183713
 20
142.370513
 30
0.0
 40
1.575
  0
LWPOLYLINE
  5
212
100
AcDbEntity
  8
0
  6
CONTINUOUS
 62
     7
100
AcDbPolyline
 90
       17
 70
     0
 43
0.0
 10
148.510592
 20
97.023447
 42
0.048431
 10
147.676275
 20
96.942454
 42
0.048575
 10
146.872376
 20
96.702026
 42
0.048755
 10
146.13006
 20
96.310745
 42
0.048991
 10
145.477769
 20
95.782805
 42
0.049259
 10
144.940873
 20
95.137606
 42
0.04951
 10
144.540837
 20
94.399476
 42
0.049697
 10
144.29402
 20
93.596979
 42
0.049799
 10
144.210593
 20
92.761522
 42
0.049757
 10
144.293882
 20
91.92675
 42
0.049651
 10
144.540263
 20
91.124936
 42
0.049484
 10
144.939792
 20
90.387034
 42
0.049246
 10
145.476232
 20
89.741755
 42
0.049001
 10
146.128399
 20
89.213394
 42
0.04878
 10
146.870935
 20
88.821607
 42
0.048607
 10
147.675286
 20
88.580784
 42
0.048489
 10
148.510592
 20
88.499597
  0
LWPOLYLINE
  5
225
100
AcDbEntity
  8
0
  6
CONTINUOUS
 62
     7
100
AcDbPolyline
 90
       17
 70
     0
 43
0.0
 10
148.510592
 20
96.327581
 42
0.02067
 10
148.120753
 20
96.311463
 42
0.020786
 10
147.733045
 20
96.26306
 42
0.020963
 10
147.350696
 20
96.182498
 42
0.021222
 10
146.976521
 20
96.070024
 42
0.021566
 10
146.613329
 20
95.925994
 42
0.021991
 10
146.264028
 20
95.750916
 42
0.02249
 10
145.931633
 20
95.545493
 42
0.023054
 10
145.619269
 20
95.310676
 42
0.023669
 10
145.330146
 20
95.047722
 42
0.024318
 10
145.067525
 20
94.758258
 42
0.024977
 10
144.834654
 20
94.444338
 42
0.025618
 10
144.634677
 20
94.108496
 42
0.026209
 10
144.470523
 20
93.753774
 42
0.026716
 10
144.344772
 20
93.383715
 42
0.027105
 10
144.259517
 20
93.002327
 42
0.02735
 10
144.216233
 20
92.613988
  0
LWPOLYLINE
  5
238
100
AcDbEntity
  8
0
  6
CONTINUOUS
 62
     7
100
AcDbPolyline
 90
       17
 70
     0
 43
0.0
 10
148.510592
 20
94.693639
 42
0.048369
 10
147.996626
 20
94.64381
 42
0.048522
 10
147.501359
 20
94.495879
 42
0.048718
 10
147.043956
 20
94.255092
 42
0.048977
 10
146.641931
 20
93.930133
 42
0.04927
 10
146.310943
 20
93.532897
 42
0.049546
 10
146.064269
 20
93.078337
 42
0.049752
 10
145.912048
 20
92.584049
 42
0.049862
 10
145.860592
 20
92.069429
 42
0.049751
 10
145.911821
 20
91.555933
 42
0.049704
 10
146.063633
 20
91.062033
 42
0.04952
 10
146.309869
 20
90.607546
 42
0.049258
 10
146.640465
 20
90.21017
 42
0.048988
 10
147.042323
 20
89.884842
 42
0.048744
 10
147.499794
 20
89.643618
 42
0.048553
 10
147.995294
 20
89.49531
 42
0.048496
 10
148.510592
 20
89.445219
  0
LWPOLYLINE
  5
24B
100
AcDbEntity
  8
0
  6
CONTINUOUS
 62
     7
100
AcDbPolyline
 90
       17
 70
     0
 43
0.0
 10
148.510592
 20
94.087658
 42
0.019231
 10
148.278314
 20
94.078724
 42
0.019313
 10
148.047669
 20
94.051966
 42
0.019548
 10
147.819461
 20
94.007324
 42
0.019858
 10
147.595486
 20
93.944865
 42
0.020275
 10
147.377232
 20
93.864655
 42
0.020795
 10
147.166278
 20
93.76681
 42
0.021417
 10
146.964302
 20
93.651522
 42
0.022135
 10
146.773096
 20
93.519092
 42
0.022938
 10
146.594566
 20
93.369979
 42
0.023809
 10
146.430718
 20
93.204841
 42
0.024721
 10
146.283632
 20
93.024599
 42
0.02564
 10
146.155412
 20
92.83048
 42
0.026521
 10
146.048106
 20
92.624074
 42
0.027311
 10
145.963608
 20
92.407351
 42
0.027952
 10
145.903542
 20
92.182656
 42
0.028393
 10
145.869135
 20
91.952669
  0
LWPOLYLINE
  5
25E
100
AcDbEntity
  8
0
  6
CONTINUOUS
 62
     7
100
AcDbPolyline
 90
       17
 70
     0
 43
0.0
 10
151.010592
 20
94.693639
 42
-0.048369
 10
151.524558
 20
94.64381
 42
-0.048521
 10
152.019825
 20
94.495879
 42
-0.048718
 10
152.477228
 20
94.255092
 42
-0.048977
 10
152.879254
 20
93.930133
 42
-0.04927
 10
153.210242
 20
93.532897
 42
-0.049546
 10
153.456917
 20
93.078338
 42
-0.049752
 10
153.609138
 20
92.584049
 42
-0.049862
 10
153.660594
 20
92.069429
 42
-0.049751
 10
153.609365
 20
91.555933
 42
-0.049705
 10
153.457552
 20
91.062033
 42
-0.04952
 10
153.211317
 20
90.607545
 42
-0.049258
 10
152.88072
 20
90.21017
 42
-0.048988
 10
152.478862
 20
89.884842
 42
-0.048744
 10
152.02139
 20
89.643618
 42
-0.048553
 10
151.52589
 20
89.49531
 42
-0.048496
 10
151.010592
 20
89.445219
  0
LWPOLYLINE
  5
271
100
AcDbEntity
  8
0
  6
CONTINUOUS
 62
     7
100
AcDbPolyline
 90
       17
 70
     0
 43
0.0
 10
151.010592
 20
94.087658
 42
-0.019231
 10
151.24287
 20
94.078724
 42
-0.019313
 10
151.473515
 20
94.051966
 42
-0.019548
 10
151.701723
 20
94.007324
 42
-0.019858
 10
151.925699
 20
93.944865
 42
-0.020274
 10
152.143953
 20
93.864655
 42
-0.020795
 10
152.354907
 20
93.76681
 42
-0.021417
 10
152.556883
 20
93.651522
 42
-0.022135
 10
152.748088
 20
93.519093
 42
-0.022938
 10
152.926619
 20
93.369979
 42
-0.023809
 10
153.090467
 20
93.204842
 42
-0.024721
 10
153.237553
 20
93.024599
 42
-0.02564
 10
153.365773
 20
92.83048
 42
-0.026521
 10
153.47308
 20
92.624074
 42
-0.027311
 10
153.557578
 20
92.407351
 42
-0.027952
 10
153.617644
 20
92.182656
 42
-0.028393
 10
153.652051
 20
91.952669
  0
LWPOLYLINE
  5
284
100
AcDbEntity
  8
0
  6
CONTINUOUS
 62
     7
100
AcDbPolyline
 90
       17
 70
     0
 43
0.0
 10
151.010592
 20
96.327581
 42
-0.02067
 10
151.400431
 20
96.311463
 42
-0.020786
 10
151.788139
 20
96.26306
 42
-0.020963
 10
152.170488
 20
96.182498
 42
-0.021222
 10
152.544663
 20
96.070024
 42
-0.021566
 10
152.907855
 20
95.925994
 42
-0.021991
 10
153.257156
 20
95.750916
 42
-0.02249
 10
153.589551
 20
95.545493
 42
-0.023054
 10
153.901915
 20
95.310676
 42
-0.023669
 10
154.191038
 20
95.047722
 42
-0.024318
 10
154.453659
 20
94.758258
 42
-0.024977
 10
154.68653
 20
94.444338
 42
-0.025618
 10
154.886507
 20
94.108496
 42
-0.026209
 10
155.050661
 20
93.753774
 42
-0.026716
 10
155.176412
 20
93.383715
 42
-0.027105
 10
155.261667
 20
93.002327
 42
-0.02735
 10
155.304951
 20
92.613988
  0
LWPOLYLINE
  5
297
100
AcDbEntity
  8
0
  6
CONTINUOUS
 62
     7
100
AcDbPolyline
 90
       17
 70
     0
 43
0.0
 10
151.010592
 20
97.023447
 42
-0.048431
 10
151.844909
 20
96.942454
 42
-0.048575
 10
152.648808
 20
96.702026
 42
-0.048755
 10
153.391124
 20
96.310745
 42
-0.048991
 10
154.043415
 20
95.782805
 42
-0.049259
 10
154.580311
 20
95.137606
 42
-0.04951
 10
154.980347
 20
94.399476
 42
-0.049697
 10
155.227164
 20
93.596979
 42
-0.049799
 10
155.310591
 20
92.761522
 42
-0.049757
 10
155.227302
 20
91.92675
 42
-0.049651
 10
154.980921
 20
91.124936
 42
-0.049484
 10
154.581392
 20
90.387034
 42
-0.049246
 10
154.044952
 20
89.741755
 42
-0.049001
 10
153.392785
 20
89.213394
 42
-0.04878
 10
152.650249
 20
88.821607
 42
-0.048607
 10
151.845898
 20
88.580784
 42
-0.048489
 10
151.010592
 20
88.499597
  0
LWPOLYLINE
  5
2AA
100
AcDbEntity
  8
0
  6
CONTINUOUS
 62
     7
100
AcDbPolyline
 90
       16
 70
     1
 43
0.0
 10
155.310591
 20
139.412309
 42
0.123941
 10
153.987176
 20
139.782772
 42
0.014475
 10
152.582059
 20
139.904539
 42
0.008336
 10
151.172621
 20
139.965105
 42
0.006742
 10
149.760592
 20
139.983914
 42
0.006735
 10
148.349959
 20
139.965142
 42
0.008336
 10
146.940074
 20
139.904597
 42
0.014477
 10
145.534267
 20
139.782803
 42
0.124044
 10
144.210593
 20
139.412309
 42
0.123941
 10
145.534008
 20
139.041847
 42
0.014475
 10
146.939125
 20
138.92008
 42
0.008336
 10
148.348563
 20
138.859514
 42
0.006742
 10
149.760592
 20
138.840705
 42
0.006735
 10
151.171225
 20
138.859476
 42
0.008336
 10
152.58111
 20
138.920022
 42
0.014477
 10
153.986917
 20
139.041816
 42
0.124044
  0
LINE
  5
2BC
100
AcDbEntity
  8
0
  6
CONTINUOUS
 62
     7
100
AcDbLine
 10
199.856166
 20
85.761615
 30
0.0
 11
200.926585
 21
86.832037
 31
0.0
  0
LINE
  5
2BD
100
AcDbEntity
  8
0
  6
CONTINUOUS
 62
     7
100
AcDbLine
 10
197.611103
 20
85.761615
 30
0.0
 11
200.627139
 21
88.777657
 31
0.0
  0
LINE
  5
2BE
100
AcDbEntity
  8
0
  6
CONTINUOUS
 62
     7
100
AcDbLine
 10
195.366041
 20
85.761615
 30
0.0
 11
198.65872
 21
89.0543
 31
0.0
  0
LINE
  5
2BF
100
AcDbEntity
  8
0
  6
CONTINUOUS
 62
     7
100
AcDbLine
 10
193.120979
 20
85.761615
 30
0.0
 11
195.229403
 21
87.870043
 31
0.0
  0
LINE
  5
2C0
100
AcDbEntity
  8
0
  6
CONTINUOUS
 62
     7
100
AcDbLine
 10
195.725543
 20
88.366183
 30
0.0
 11
196.690301
 21
89.330944
 31
0.0
  0
LINE
  5
2C1
100
AcDbEntity
  8
0
  6
CONTINUOUS
 62
     7
100
AcDbLine
 10
191.514144
 20
86.399842
 30
0.0
 11
193.260984
 21
88.146686
 31
0.0
  0
LINE
  5
2C2
100
AcDbEntity
  8
0
  6
CONTINUOUS
 62
     7
100
AcDbLine
 10
190.915057
 20
88.04582
 30
0.0
 11
191.292566
 21
88.42333
 31
0.0
  0
LINE
  5
2C3
100
AcDbEntity
  8
0
  6
CONTINUOUS
 62
     7
100
AcDbLine
 10
199.414459
 20
94.300174
 30
0.0
 11
200.926585
 21
95.812302
 31
0.0
  0
LINE
  5
2C4
100
AcDbEntity
  8
0
  6
CONTINUOUS
 62
     7
100
AcDbLine
 10
197.446041
 20
94.576817
 30
0.0
 11
200.02871
 21
97.159492
 31
0.0
  0
LINE
  5
2C5
100
AcDbEntity
  8
0
  6
CONTINUOUS
 62
     7
100
AcDbLine
 10
196.826902
 20
96.202743
 30
0.0
 11
197.885774
 21
97.261617
 31
0.0
  0
LINE
  5
2C6
100
AcDbEntity
  8
0
  6
CONTINUOUS
 62
     7
100
AcDbLine
 10
194.970099
 20
96.591004
 30
0.0
 11
195.640712
 21
97.261617
 31
0.0
  0
LINE
  5
2C7
100
AcDbEntity
  8
0
  6
CONTINUOUS
 62
     7
100
AcDbLine
 10
193.00168
 20
96.867647
 30
0.0
 11
193.39565
 21
97.261617
 31
0.0
  0
TEXT
  5
2C8
100
AcDbEntity
  8
0
  6
CONTINUOUS
100
AcDbText
 10
130.882489
 20
55.580311
 30
0.0
 40
6.0
  1
ＢＵ１３３Ｒ
100
AcDbText
  0
LINE
  5
381
102
{ACAD_REACTORS
330
38B
102
}
100
AcDbEntity
  8
寸法
 62
     1
100
AcDbLine
 10
206.48612
 20
90.630273
 30
0.0
 11
220.833816
 21
88.613835
 31
0.0
  0
LINE
  5
382
102
{ACAD_REACTORS
330
38B
102
}
100
AcDbEntity
  8
寸法
 62
     1
100
AcDbLine
 10
200.926585
 20
91.411616
 30
0.0
 11
221.029456
 21
91.411616
 31
0.0
  0
ARC
  5
383
102
{ACAD_REACTORS
330
38B
102
}
100
AcDbEntity
  8
寸法
 62
     1
100
AcDbCircle
 10
200.926585
 20
91.411616
 30
0.0
 40
19.102871
100
AcDbArc
 50
339.980655
 51
351.999995
  0
LINE
  5
384
102
{ACAD_REACTORS
330
38B
102
}
100
AcDbEntity
  8
寸法
 62
     1
100
AcDbLine
 10
218.875205
 20
84.871989
 30
0.0
 11
215.931103
 21
76.791626
 31
0.0
  0
ARC
  5
385
102
{ACAD_REACTORS
330
38B
102
}
100
AcDbEntity
  8
寸法
 62
     1
100
AcDbCircle
 10
200.926585
 20
91.411616
 30
0.0
 40
19.102871
100
AcDbArc
 50
339.997195
 51
345.998595
  0
ARC
  5
386
100
AcDbEntity
  8
寸法
 62
     1
100
AcDbCircle
 10
200.926585
 20
91.411616
 30
0.0
 40
19.102871
100
AcDbArc
 50
6.0014
 51
12.002799
  0
ARC
  5
387
102
{ACAD_REACTORS
330
38B
102
}
100
AcDbEntity
  8
寸法
 62
     1
100
AcDbCircle
 10
200.926585
 20
91.411616
 30
0.0
 40
19.102871
100
AcDbArc
 50
351.999995
 51
360.0
  0
INSERT
  5
388
102
{ACAD_REACTORS
330
38B
102
}
100
AcDbEntity
  8
寸法
 62
     1
100
AcDbBlockReference
  2
_OPEN30
 10
219.843548
 20
88.753008
 30
0.0
 41
2.0
 42
2.0
 43
2.0
 50
78.999295
  0
INSERT
  5
389
102
{ACAD_REACTORS
330
38B
102
}
100
AcDbEntity
  8
寸法
 62
     1
100
AcDbBlockReference
  2
_OPEN30
 10
220.029456
 20
91.411616
 30
0.0
 41
2.0
 42
2.0
 43
2.0
 50
273.0007
  0
MTEXT
  5
38A
102
{ACAD_REACTORS
330
38B
102
}
100
AcDbEntity
  8
寸法
 62
     1
100
AcDbMText
 10
215.054211
 20
81.687651
 30
0.0
 40
3.0
 41
0.0
 71
     5
 72
     1
  1
\A1;8°
 11
0.342337
 21
0.939577
 31
0.0
1001
ACAD
1000
MTEXTBEGIN
1070
    73
1070
     1
1070
    44
1040
1.0
1070
    74
1070
     0
1000
MTEXTEND
1000
MTEXTBEGIN
1070
    73
1070
     1
1070
    44
1040
1.0
1070
    74
1070
     0
1000
MTEXTEND
  0
DIMENSION
  5
39C
100
AcDbEntity
  8
寸法
100
AcDbDimension
  2
*D2
 10
210.0
 20
85.761615
 30
0.0
 11
207.5
 21
76.261615
 31
0.0
 70
    32
  3
STANDARD
100
AcDbAlignedDimension
 13
200.926585
 23
91.411616
 33
0.0
 14
199.856166
 24
85.761615
 34
0.0
 50
90.0
100
AcDbRotatedDimension
  0
DIMENSION
  5
3AB
100
AcDbEntity
  8
寸法
100
AcDbDimension
  2
*D3
 10
180.0
 20
85.761615
 30
0.0
 11
177.5
 21
91.511616
 31
0.0
 70
    32
  3
STANDARD
100
AcDbAlignedDimension
 13
160.760592
 23
97.261617
 33
0.0
 14
160.760592
 24
85.761615
 34
0.0
 50
90.0
100
AcDbRotatedDimension
  0
DIMENSION
  5
3B8
100
AcDbEntity
  8
寸法
100
AcDbDimension
  2
*D4
 10
151.010592
 20
71.874911
 30
0.0
 11
159.010592
 21
74.374911
 31
0.0
 70
    32
  3
STANDARD
100
AcDbAlignedDimension
 13
148.510592
 23
84.277744
 33
0.0
 14
151.010592
 24
83.682438
 34
0.0
100
AcDbRotatedDimension
  0
DIMENSION
  5
3C7
100
AcDbEntity
  8
寸法
100
AcDbDimension
  2
*D5
 10
110.0
 20
85.761615
 30
0.0
 11
107.5
 21
90.761616
 31
0.0
 70
    32
  3
STANDARD
100
AcDbAlignedDimension
 13
118.760596
 23
95.761617
 33
0.0
 14
120.989228
 24
85.761615
 34
0.0
 50
90.0
100
AcDbRotatedDimension
  0
DIMENSION
  5
3E1
100
AcDbEntity
  8
寸法
100
AcDbDimension
  2
*D6
 10
160.760592
 20
97.261617
 30
0.0
 11
103.526683
 21
105.217365
 31
0.0
 70
    34
  3
STANDARD
100
AcDb2LineAngularDimension
 13
118.760596
 23
95.761617
 33
0.0
 14
126.124126
 24
96.535555
 34
0.0
 15
130.177846
 25
97.261617
 35
0.0
 16
100.35675
 26
94.976731
 36
0.0
1001
ACAD
1000
DSTYLE
1002
{
1070
   271
1070
     0
1070
    79
1070
     2
1070
   271
1070
     0
1002
}
  0
DIMENSION
  5
3F4
100
AcDbEntity
  8
寸法
100
AcDbDimension
  2
*D7
 10
118.760592
 20
120.0
 30
0.0
 11
143.760594
 21
122.5
 31
0.0
 70
    32
  3
STANDARD
100
AcDbAlignedDimension
 13
168.760596
 23
142.017392
 33
0.0
 14
118.760592
 24
140.917393
 34
0.0
100
AcDbRotatedDimension
  0
DIMENSION
  5
401
100
AcDbEntity
  8
寸法
100
AcDbDimension
  2
*D8
 10
160.760592
 20
130.0
 30
0.0
 11
164.760594
 21
132.5
 31
0.0
 70
    32
  3
STANDARD
100
AcDbAlignedDimension
 13
168.760596
 23
142.017392
 33
0.0
 14
160.760592
 24
138.801214
 34
0.0
100
AcDbRotatedDimension
1001
ACAD
1000
DSTYLE
1002
{
1070
   287
1070
     4
1070
   287
1070
     4
1070
   279
1070
     1
1002
}
  0
DIMENSION
  5
417
100
AcDbEntity
  8
寸法
100
AcDbDimension
  2
*D9
 10
128.760592
 20
138.017392
 30
0.0
 11
127.616693
 21
127.66016
 31
0.0
 70
    34
  3
STANDARD
100
AcDb2LineAngularDimension
 13
118.760592
 23
140.917393
 33
0.0
 14
125.51559
 24
137.017393
 34
0.0
 15
126.09294
 25
138.017392
 35
0.0
 16
135.648428
 26
135.925293
 36
0.0
1001
ACAD
1000
DSTYLE
1002
{
1070
   271
1070
     0
1070
    79
1070
     2
1070
   271
1070
     0
1002
}
  0
DIMENSION
  5
428
100
AcDbEntity
  8
寸法
100
AcDbDimension
  2
*D10
 10
110.0
 20
137.017393
 30
0.0
 11
107.5
 21
143.017393
 31
0.0
 70
    32
  3
STANDARD
100
AcDbAlignedDimension
 13
123.437129
 23
149.017393
 33
0.0
 14
125.51559
 24
137.017393
 34
0.0
 50
90.0
100
AcDbRotatedDimension
  0
ARC
  5
438
100
AcDbEntity
  8
0
  6
CENTER
 62
     1
 48
0.5
100
AcDbCircle
 10
83.542787
 20
153.017393
 30
0.0
 40
15.0
100
AcDbArc
 50
180.0
 51
0.0
  0
ARC
  5
439
100
AcDbEntity
  8
0
  6
CENTER
 62
     1
 48
0.5
100
AcDbCircle
 10
83.542787
 20
156.253395
 30
0.0
 40
15.345087
100
AcDbArc
 50
192.174042
 51
347.825958
  0
TEXT
  5
462
102
{ACAD_REACTORS
330
466
102
}
100
AcDbEntity
  8
寸法
 62
     1
100
AcDbText
 10
59.538095
 20
137.445671
 30
0.0
 40
3.0
  1
\U+2205
100
AcDbText
  0
TEXT
  5
463
102
{ACAD_REACTORS
330
466
102
}
100
AcDbEntity
  8
寸法
 62
     1
100
AcDbText
 10
62.538095
 20
137.445671
 30
0.0
 40
3.0
  1
30
100
AcDbText
  0
INSERT
  5
464
102
{ACAD_REACTORS
330
466
102
}
100
AcDbEntity
  8
寸法
100
AcDbBlockReference
  2
_OPEN30
 10
72.709275
 20
143.272968
 30
0.0
 41
2.0
 42
2.0
 43
2.0
 50
56.796262
1001
ACAD
1000
DSTYLE
1002
{
1070
   147
1040
1.0
1070
    77
1070
     0
1002
}
  0
LWPOLYLINE
  5
465
102
{ACAD_REACTORS
330
466
102
}
100
AcDbEntity
  8
寸法
100
AcDbPolyline
 90
        3
 70
     0
 43
0.0
 10
71.614039
 20
141.59951
 10
68.377817
 20
136.654748
 10
59.37518
 20
136.654748
1001
ACAD
1000
DSTYLE
1002
{
1070
   147
1040
1.0
1070
    77
1070
     0
1002
}
  0
DIMENSION
  5
467
100
AcDbEntity
  8
寸法
100
AcDbDimension
  2
*D11
 10
149.760592
 20
110.0
 30
0.0
 11
159.260592
 21
112.5
 31
0.0
 70
    32
  3
STANDARD
100
AcDbAlignedDimension
 13
168.760592
 23
91.261617
 33
0.0
 14
149.760592
 24
98.937937
 34
0.0
100
AcDbRotatedDimension
  0
LINE
  5
52E
100
AcDbEntity
  8
0
  6
CENTER
 62
     1
 48
0.5
100
AcDbLine
 10
85.243331
 20
140.917393
 30
0.0
 11
83.542787
 21
153.017393
 31
0.0
  0
LINE
  5
530
100
AcDbEntity
  8
0
  6
CENTER
 62
     1
 48
0.5
100
AcDbLine
 10
83.542787
 20
153.017393
 30
0.0
 11
83.544441
 21
140.908308
 31
0.0
  0
DIMENSION
  5
531
100
AcDbEntity
  8
0
  6
CENTER
 62
     1
 48
0.5
100
AcDbDimension
  2
*D12
 10
83.544441
 20
140.908308
 30
0.0
 11
75.740824
 21
132.812277
 31
0.0
 70
    34
  3
STANDARD
100
AcDb2LineAngularDimension
 13
85.226782
 23
141.035149
 33
0.0
 14
83.542787
 24
153.017393
 34
0.0
 15
83.542787
 25
153.017393
 35
0.0
 16
85.749375
 26
129.392232
 36
0.0
1001
ACAD
1000
DSTYLE
1002
{
1070
   271
1070
     0
1002
}
  0
ENDSEC
  0
SECTION
  2
OBJECTS
  0
DICTIONARY
  5
C
100
AcDbDictionary
  3
ACAD_GROUP
350
D
  3
ACAD_LAYOUT
350
2CD
  3
ACAD_MLINESTYLE
350
1B
  3
ACAD_PLOTSETTINGS
350
2CE
  3
ACAD_PLOTSTYLENAME
350
2CB
  3
ACDBHEADERROUNDTRIPXREC
350
5AC
  3
ACDBVARIABLEDICTIONARY
350
33
  3
CONTENTDICTIONARY
350
23
  0
DICTIONARY
  5
5D1
100
AcDbDictionary
280
     1
  3
ACAD_XREC_ROUNDTRIP
360
5D2
  0
DICTIONARY
  5
5CF
100
AcDbDictionary
280
     1
  3
ACAD_XREC_ROUNDTRIP
360
5D0
  0
DICTIONARY
  5
4EB
100
AcDbDictionary
280
     1
  3
ACAD_LAYOUTSELFREF
360
5CE
  0
DICTIONARY
  5
4E9
100
AcDbDictionary
280
     1
  3
ACAD_LAYOUTSELFREF
360
5CD
  0
DICTIONARY
  5
D
102
{ACAD_REACTORS
330
C
102
}
100
AcDbDictionary
  3
*A1
350
38B
  3
*A2
350
466
  0
DICTIONARY
  5
2CD
102
{ACAD_XDICTIONARY
360
5D3
102
}
102
{ACAD_REACTORS
330
C
102
}
100
AcDbDictionary
  3
MODEL
350
2CF
  3
ﾚｲｱｳﾄ1
350
2D0
  0
DICTIONARY
  5
1B
102
{ACAD_REACTORS
330
C
102
}
100
AcDbDictionary
  3
STANDARD
350
1C
  0
DICTIONARY
  5
2CE
102
{ACAD_REACTORS
330
C
102
}
100
AcDbDictionary
  0
ACAD_PROXY_OBJECT
  5
2CB
102
{ACAD_REACTORS
330
C
102
}
100
AcDbProxyObject
 90
      499
 91
      502
 93
       86
310
405010041939BDC9B585B2
350
2CC
340
2CC
 94
        0
  0
DICTIONARY
  5
5AC
102
{ACAD_REACTORS
330
C
102
}
100
AcDbDictionary
  3
CEPSNTYPE
350
5B6
  3
DIMSTYLEDATA
350
5BA
  3
FINGERPRINTGUID
350
5B7
  3
HYPERLINKBASE
350
5AF
  3
INSUNITS
350
5B5
  3
LAYOUTDICT
350
5B1
  3
LWETCUNION
350
5B4
  3
PLOTSETDICT
350
5B2
  3
PLOTSTYLNAMDICT
350
5B3
  3
PSVPSCALE
350
5B9
  3
PUCSBASE
350
5BD
  3
PUCSORGBACK
350
5C3
  3
PUCSORGBOTTOM
350
5BF
  3
PUCSORGFRONT
350
5C2
  3
PUCSORGLEFT
350
5C0
  3
PUCSORGRIGHT
350
5C1
  3
PUCSORGTOP
350
5BE
  3
PUCSORTHOREF
350
5BB
  3
PUCSORTHOVIEW
350
5BC
  3
STYLESHEET
350
5B0
  3
TSTACKALIGN
350
5AD
  3
TSTACKSIZE
350
5AE
  3
UCSBASE
350
5C6
  3
UCSORGBACK
350
5CC
  3
UCSORGBOTTOM
350
5C8
  3
UCSORGFRONT
350
5CB
  3
UCSORGLEFT
350
5C9
  3
UCSORGRIGHT
350
5CA
  3
UCSORGTOP
350
5C7
  3
UCSORTHOREF
350
5C4
  3
UCSORTHOVIEW
350
5C5
  3
VERSIONGUID
350
5B8
  0
DICTIONARY
  5
33
102
{ACAD_REACTORS
330
C
102
}
100
AcDbDictionary
  3
DIMADEC
350
34
  0
DICTIONARY
  5
23
102
{ACAD_REACTORS
330
C
102
}
100
AcDbDictionary
  0
XRECORD
  5
5D2
102
{ACAD_REACTORS
330
5D1
102
}
100
AcDbXrecord
102
PLOTBIT
280
     0
  0
XRECORD
  5
5D0
102
{ACAD_REACTORS
330
5CF
102
}
100
AcDbXrecord
102
ACADR14ROUNDTRIP
1000
DSTYLE
1002
{
1070
   341
340
37
1070
   343
340
37
1070
   344
340
37
1002
}
  0
XRECORD
  5
5CE
102
{ACAD_REACTORS
330
4EB
102
}
100
AcDbXrecord
340
18
  0
XRECORD
  5
5CD
102
{ACAD_REACTORS
330
4E9
102
}
100
AcDbXrecord
340
15
  0
GROUP
  5
38B
102
{ACAD_REACTORS
330
D
102
}
100
AcDbGroup
300

 70
     1
 71
     1
340
382
340
384
340
381
340
38A
340
385
340
383
340
387
340
388
340
389
  0
GROUP
  5
466
102
{ACAD_REACTORS
330
D
102
}
100
AcDbGroup
300

 70
     1
 71
     1
340
465
340
462
340
463
340
464
  0
DICTIONARY
  5
5D3
100
AcDbDictionary
280
     1
  3
ACAD_XREC_ROUNDTRIP
360
5D4
  0
ACAD_PROXY_OBJECT
  5
2CF
102
{ACAD_REACTORS
330
2CD
102
}
100
AcDbProxyObject
 90
      499
 91
      504
 93
      548
310
90E4550534F4E20504D2D32303030432C01AAAAAAAAA5A69054D6F64656C901A800000000000000000000000000000000000000000000A1000000000000008902A6A6AAAA0
330
18
330
0
340
0
340
0
 94
        0
  0
ACAD_PROXY_OBJECT
  5
2D0
102
{ACAD_REACTORS
330
2CD
102
}
100
AcDbProxyObject
 90
      499
 91
      504
 93
      964
310
90E4550534F4E20504D2D32303030432C00AAAAAA416AA59106906DAB2B1B3C43140501A800000000000000000000000000000000000000000101E900000000000241C902A6A6A10232D5E076BC5510408CB5781DAF154410232D5E076BC5510408CB5781DAF15C410232D5E076BC5710408CB5781DAF15C40
330
15
330
0
340
0
340
0
 94
        0
  0
MLINESTYLE
  5
1C
102
{ACAD_REACTORS
330
1B
102
}
100
AcDbMlineStyle
  2
STANDARD
 70
     0
  3

 62
   256
 51
90.0
 52
90.0
 71
     2
 49
0.5
 62
   256
  6
BYLAYER
 49
-0.5
 62
   256
  6
BYLAYER
  0
ACAD_PROXY_OBJECT
  5
2CC
102
{ACAD_REACTORS
330
2CB
102
}
100
AcDbProxyObject
 90
      499
 91
      503
 93
        0
 94
        0
  0
XRECORD
  5
5B6
102
{ACAD_REACTORS
330
5AC
102
}
100
AcDbXrecord
 90
        0
  0
XRECORD
  5
5BA
102
{ACAD_REACTORS
330
5AC
102
}
100
AcDbXrecord
1000
DSTYLE
1002
{
1070
   341
340
37
1070
   343
340
37
1070
   344
340
37
1002
}
  0
XRECORD
  5
5B7
102
{ACAD_REACTORS
330
5AC
102
}
100
AcDbXrecord
  1
{8D8D8288-B3AE-404D-A85B-9AC890C52B1F}
  0
XRECORD
  5
5AF
102
{ACAD_REACTORS
330
5AC
102
}
100
AcDbXrecord
  1

  0
XRECORD
  5
5B5
102
{ACAD_REACTORS
330
5AC
102
}
100
AcDbXrecord
 90
        0
  0
XRECORD
  5
5B1
102
{ACAD_REACTORS
330
5AC
102
}
100
AcDbXrecord
340
2CD
  0
XRECORD
  5
5B4
102
{ACAD_REACTORS
330
5AC
102
}
100
AcDbXrecord
 90
    14877
  0
XRECORD
  5
5B2
102
{ACAD_REACTORS
330
5AC
102
}
100
AcDbXrecord
340
2CE
  0
XRECORD
  5
5B3
102
{ACAD_REACTORS
330
5AC
102
}
100
AcDbXrecord
340
2CB
  0
XRECORD
  5
5B9
102
{ACAD_REACTORS
330
5AC
102
}
100
AcDbXrecord
 40
0.0
  0
XRECORD
  5
5BD
102
{ACAD_REACTORS
330
5AC
102
}
100
AcDbXrecord
340
0
  0
XRECORD
  5
5C3
102
{ACAD_REACTORS
330
5AC
102
}
100
AcDbXrecord
 10
0.0
 20
0.0
 30
0.0
  0
XRECORD
  5
5BF
102
{ACAD_REACTORS
330
5AC
102
}
100
AcDbXrecord
 10
0.0
 20
0.0
 30
0.0
  0
XRECORD
  5
5C2
102
{ACAD_REACTORS
330
5AC
102
}
100
AcDbXrecord
 10
0.0
 20
0.0
 30
0.0
  0
XRECORD
  5
5C0
102
{ACAD_REACTORS
330
5AC
102
}
100
AcDbXrecord
 10
0.0
 20
0.0
 30
0.0
  0
XRECORD
  5
5C1
102
{ACAD_REACTORS
330
5AC
102
}
100
AcDbXrecord
 10
0.0
 20
0.0
 30
0.0
  0
XRECORD
  5
5BE
102
{ACAD_REACTORS
330
5AC
102
}
100
AcDbXrecord
 10
0.0
 20
0.0
 30
0.0
  0
XRECORD
  5
5BB
102
{ACAD_REACTORS
330
5AC
102
}
100
AcDbXrecord
340
0
  0
XRECORD
  5
5BC
102
{ACAD_REACTORS
330
5AC
102
}
100
AcDbXrecord
 70
     0
  0
XRECORD
  5
5B0
102
{ACAD_REACTORS
330
5AC
102
}
100
AcDbXrecord
  1

  0
XRECORD
  5
5AD
102
{ACAD_REACTORS
330
5AC
102
}
100
AcDbXrecord
 90
        1
  0
XRECORD
  5
5AE
102
{ACAD_REACTORS
330
5AC
102
}
100
AcDbXrecord
 90
       70
  0
XRECORD
  5
5C6
102
{ACAD_REACTORS
330
5AC
102
}
100
AcDbXrecord
340
0
  0
XRECORD
  5
5CC
102
{ACAD_REACTORS
330
5AC
102
}
100
AcDbXrecord
 10
0.0
 20
0.0
 30
0.0
  0
XRECORD
  5
5C8
102
{ACAD_REACTORS
330
5AC
102
}
100
AcDbXrecord
 10
0.0
 20
0.0
 30
0.0
  0
XRECORD
  5
5CB
102
{ACAD_REACTORS
330
5AC
102
}
100
AcDbXrecord
 10
0.0
 20
0.0
 30
0.0
  0
XRECORD
  5
5C9
102
{ACAD_REACTORS
330
5AC
102
}
100
AcDbXrecord
 10
0.0
 20
0.0
 30
0.0
  0
XRECORD
  5
5CA
102
{ACAD_REACTORS
330
5AC
102
}
100
AcDbXrecord
 10
0.0
 20
0.0
 30
0.0
  0
XRECORD
  5
5C7
102
{ACAD_REACTORS
330
5AC
102
}
100
AcDbXrecord
 10
0.0
 20
0.0
 30
0.0
  0
XRECORD
  5
5C4
102
{ACAD_REACTORS
330
5AC
102
}
100
AcDbXrecord
340
0
  0
XRECORD
  5
5C5
102
{ACAD_REACTORS
330
5AC
102
}
100
AcDbXrecord
 70
     0
  0
XRECORD
  5
5B8
102
{ACAD_REACTORS
330
5AC
102
}
100
AcDbXrecord
  1
{B1519B48-E5AB-410E-A9D5-45AC5810542B}
  0
DICTIONARYVAR
  5
34
102
{ACAD_REACTORS
330
33
102
}
100
DictionaryVariables
280
     0
  1
0
  0
XRECORD
  5
5D4
102
{ACAD_REACTORS
330
5D3
102
}
100
AcDbXrecord
102
EXTNAMES
  1
MODEL
  2
Model
  0
ENDSEC
  0
EOF
