  0
SECTION
  2
HEADER
  9
$ACADVER
  1
AC1014
  9
$ACADMAINTVER
 70
     0
  9
$DWGCODEPAGE
  3
ANSI_932
  9
$INSBASE
 10
0.0
 20
0.0
 30
0.0
  9
$EXTMIN
 10
66.93886
 20
22.235387
 30
0.0
  9
$EXTMAX
 10
236.677286
 20
158.826162
 30
0.0
  9
$LIMMIN
 10
0.0
 20
0.0
  9
$LIMMAX
 10
297.0
 20
210.0
  9
$ORTHOMODE
 70
     1
  9
$REGENMODE
 70
     1
  9
$FILLMODE
 70
     1
  9
$QTEXTMODE
 70
     0
  9
$MIRRTEXT
 70
     1
  9
$DRAGMODE
 70
     2
  9
$LTSCALE
 40
0.707071
  9
$OSMODE
 70
    33
  9
$ATTMODE
 70
     1
  9
$TEXTSIZE
 40
1.767677
  9
$TRACEWID
 40
1.0
  9
$TEXTSTYLE
  7
STANDARD
  9
$CLAYER
  8
寸法
  9
$CELTYPE
  6
BYLAYER
  9
$CECOLOR
 62
   256
  9
$CELTSCALE
 40
1.0
  9
$DELOBJ
 70
     1
  9
$DISPSILH
 70
     0
  9
$DIMSCALE
 40
1.0
  9
$DIMASZ
 40
2.0
  9
$DIMEXO
 40
1.0
  9
$DIMDLI
 40
10.0
  9
$DIMRND
 40
0.0
  9
$DIMDLE
 40
0.0
  9
$DIMEXE
 40
1.0
  9
$DIMTP
 40
0.0
  9
$DIMTM
 40
0.0
  9
$DIMTXT
 40
3.0
  9
$DIMCEN
 40
2.0
  9
$DIMTSZ
 40
0.0
  9
$DIMTOL
 70
     0
  9
$DIMLIM
 70
     0
  9
$DIMTIH
 70
     0
  9
$DIMTOH
 70
     0
  9
$DIMSE1
 70
     0
  9
$DIMSE2
 70
     0
  9
$DIMTAD
 70
     1
  9
$DIMZIN
 70
     8
  9
$DIMBLK
  1

  9
$DIMASO
 70
     1
  9
$DIMSHO
 70
     1
  9
$DIMPOST
  1

  9
$DIMAPOST
  1

  9
$DIMALT
 70
     0
  9
$DIMALTD
 70
     2
  9
$DIMALTF
 40
25.4
  9
$DIMLFAC
 40
1.0
  9
$DIMTOFL
 70
     1
  9
$DIMTVP
 40
0.0
  9
$DIMTIX
 70
     0
  9
$DIMSOXD
 70
     0
  9
$DIMSAH
 70
     1
  9
$DIMBLK1
  1
OPEN30
  9
$DIMBLK2
  1
OPEN30
  9
$DIMSTYLE
  2
STANDARD
  9
$DIMCLRD
 70
     1
  9
$DIMCLRE
 70
     1
  9
$DIMCLRT
 70
     1
  9
$DIMTFAC
 40
1.0
  9
$DIMGAP
 40
1.0
  9
$DIMJUST
 70
     0
  9
$DIMSD1
 70
     0
  9
$DIMSD2
 70
     0
  9
$DIMTOLJ
 70
     1
  9
$DIMTZIN
 70
     0
  9
$DIMALTZ
 70
     0
  9
$DIMALTTZ
 70
     0
  9
$DIMFIT
 70
     3
  9
$DIMUPT
 70
     0
  9
$DIMUNIT
 70
     2
  9
$DIMDEC
 70
     2
  9
$DIMTDEC
 70
     4
  9
$DIMALTU
 70
     2
  9
$DIMALTTD
 70
     2
  9
$DIMTXSTY
  7
STANDARD
  9
$DIMAUNIT
 70
     0
  9
$LUNITS
 70
     2
  9
$LUPREC
 70
     4
  9
$SKETCHINC
 40
1.0
  9
$FILLETRAD
 40
7.070707
  9
$AUNITS
 70
     0
  9
$AUPREC
 70
     0
  9
$MENU
  1
acad
  9
$ELEVATION
 40
0.0
  9
$PELEVATION
 40
0.0
  9
$THICKNESS
 40
0.0
  9
$LIMCHECK
 70
     0
  9
$BLIPMODE
 70
     0
  9
$CHAMFERA
 40
7.070707
  9
$CHAMFERB
 40
7.070707
  9
$CHAMFERC
 40
14.141414
  9
$CHAMFERD
 40
0.0
  9
$SKPOLY
 70
     0
  9
$TDCREATE
 40
2451930.604895833
  9
$TDUPDATE
 40
2451977.422418981
  9
$TDINDWG
 40
0.0222093750
  9
$TDUSRTIMER
 40
0.0222093750
  9
$USRTIMER
 70
     1
  9
$ANGBASE
 50
0.0
  9
$ANGDIR
 70
     0
  9
$PDMODE
 70
     0
  9
$PDSIZE
 40
0.0
  9
$PLINEWID
 40
0.0
  9
$COORDS
 70
     1
  9
$SPLFRAME
 70
     0
  9
$SPLINETYPE
 70
     6
  9
$SPLINESEGS
 70
     8
  9
$ATTDIA
 70
     0
  9
$ATTREQ
 70
     1
  9
$HANDLING
 70
     1
  9
$HANDSEED
  5
4A5
  9
$SURFTAB1
 70
     6
  9
$SURFTAB2
 70
     6
  9
$SURFTYPE
 70
     6
  9
$SURFU
 70
     6
  9
$SURFV
 70
     6
  9
$UCSNAME
  2

  9
$UCSORG
 10
0.0
 20
0.0
 30
0.0
  9
$UCSXDIR
 10
1.0
 20
0.0
 30
0.0
  9
$UCSYDIR
 10
0.0
 20
1.0
 30
0.0
  9
$PUCSNAME
  2

  9
$PUCSORG
 10
0.0
 20
0.0
 30
0.0
  9
$PUCSXDIR
 10
1.0
 20
0.0
 30
0.0
  9
$PUCSYDIR
 10
0.0
 20
1.0
 30
0.0
  9
$USERI1
 70
     0
  9
$USERI2
 70
     0
  9
$USERI3
 70
     0
  9
$USERI4
 70
     0
  9
$USERI5
 70
     0
  9
$USERR1
 40
0.0
  9
$USERR2
 40
0.0
  9
$USERR3
 40
0.0
  9
$USERR4
 40
0.0
  9
$USERR5
 40
0.0
  9
$WORLDVIEW
 70
     1
  9
$SHADEDGE
 70
     3
  9
$SHADEDIF
 70
    70
  9
$TILEMODE
 70
     1
  9
$MAXACTVP
 70
    48
  9
$PINSBASE
 10
0.0
 20
0.0
 30
0.0
  9
$PLIMCHECK
 70
     0
  9
$PEXTMIN
 10
1.000000E+20
 20
1.000000E+20
 30
1.000000E+20
  9
$PEXTMAX
 10
-1.000000E+20
 20
-1.000000E+20
 30
-1.000000E+20
  9
$PLIMMIN
 10
0.0
 20
0.0
  9
$PLIMMAX
 10
420.0
 20
297.0
  9
$UNITMODE
 70
     0
  9
$VISRETAIN
 70
     1
  9
$PLINEGEN
 70
     0
  9
$PSLTSCALE
 70
     1
  9
$TREEDEPTH
 70
  3020
  9
$PICKSTYLE
 70
     1
  9
$CMLSTYLE
  2
STANDARD
  9
$CMLJUST
 70
     0
  9
$CMLSCALE
 40
20.0
  9
$PROXYGRAPHICS
 70
     1
  9
$MEASUREMENT
 70
     1
  0
ENDSEC
  0
SECTION
  2
CLASSES
  0
CLASS
  1
DICTIONARYVAR
  2
AcDbDictionaryVar
  3
"AutoCAD"
 90
        0
280
     0
281
     0
  0
CLASS
  1
LWPOLYLINE
  2
AcDbPolyline
  3
"AutoCAD"
 90
        0
280
     0
281
     1
  0
CLASS
  1
ACDBDICTIONARYWDFLT
  2
AcDbDictionaryWithDefault
  3
AutoCAD 2000
 90
        0
280
     0
281
     0
  0
CLASS
  1
ACDBPLACEHOLDER
  2
AcDbPlaceHolder
  3
AutoCAD 2000
 90
        0
280
     0
281
     0
  0
CLASS
  1
LAYOUT
  2
AcDbLayout
  3
AutoCAD 2000
 90
        0
280
     0
281
     0
  0
CLASS
  1
LONG_TRANSACTION
  2
AcDbLongTransaction
  3
AutoCAD 2000
 90
        0
280
     0
281
     0
  0
CLASS
  1
LWPOLYLINE
  2
AcDbPolyline
  3
"AutoCAD"
 90
        0
280
     0
281
     1
  0
CLASS
  1
HATCH
  2
AcDbHatch
  3
"ACAD_SEDONA"
 90
        0
280
     0
281
     1
  0
CLASS
  1
XRECORD
  2
AcDbXrecord
  3
"<Built In>"
 90
        0
280
     0
281
     0
  0
CLASS
  1
LONG_TRANSACTION
  2
AcDbLongTransaction
  3
AutoCAD 2000
 90
        0
280
     0
281
     0
  0
CLASS
  1
LWPOLYLINE
  2
AcDbPolyline
  3
"AutoCAD"
 90
        0
280
     0
281
     1
  0
CLASS
  1
HATCH
  2
AcDbHatch
  3
"ACAD_SEDONA"
 90
        0
280
     0
281
     1
  0
CLASS
  1
XRECORD
  2
AcDbXrecord
  3
"<Built In>"
 90
        0
280
     0
281
     0
  0
ENDSEC
  0
SECTION
  2
TABLES
  0
TABLE
  2
VPORT
  5
8
100
AcDbSymbolTable
 70
     2
  0
VPORT
  5
4A4
100
AcDbSymbolTableRecord
100
AcDbViewportTableRecord
  2
*ACTIVE
 70
     0
 10
0.0
 20
0.0
 11
1.0
 21
1.0
 12
146.551924
 22
98.415233
 13
0.0
 23
0.0
 14
10.0
 24
10.0
 15
10.0
 25
10.0
 16
0.0
 26
0.0
 36
1.0
 17
0.0
 27
0.0
 37
0.0
 40
177.830924
 41
1.710425
 42
50.0
 43
0.0
 44
0.0
 50
0.0
 51
0.0
 71
     0
 72
   100
 73
     1
 74
     1
 75
     0
 76
     0
 77
     0
 78
     0
  0
ENDTAB
  0
TABLE
  2
LTYPE
  5
5
100
AcDbSymbolTable
 70
     5
  0
LTYPE
  5
12
100
AcDbSymbolTableRecord
100
AcDbLinetypeTableRecord
  2
BYBLOCK
 70
     0
  3

 72
    65
 73
     0
 40
0.0
  0
LTYPE
  5
13
100
AcDbSymbolTableRecord
100
AcDbLinetypeTableRecord
  2
BYLAYER
 70
     0
  3

 72
    65
 73
     0
 40
0.0
  0
LTYPE
  5
14
100
AcDbSymbolTableRecord
100
AcDbLinetypeTableRecord
  2
CONTINUOUS
 70
     0
  3
Solid line
 72
    65
 73
     0
 40
0.0
  0
LTYPE
  5
4E
100
AcDbSymbolTableRecord
100
AcDbLinetypeTableRecord
  2
DASHED
 70
     0
  3
__ __ __ __ __ __ __ __ __ __ __ __ __ __ __
 72
    65
 73
     2
 40
3.5
 49
2.0
 74
     0
 49
-1.5
 74
     0
  0
LTYPE
  5
4F
100
AcDbSymbolTableRecord
100
AcDbLinetypeTableRecord
  2
CENTER
 70
     0
  3
____ _ ____ _ ____ _ ____ _ ____ _ ____ _ ____
 72
    65
 73
     4
 40
17.5
 49
13.0
 74
     0
 49
-1.5
 74
     0
 49
1.5
 74
     0
 49
-1.5
 74
     0
  0
LTYPE
  5
50
100
AcDbSymbolTableRecord
100
AcDbLinetypeTableRecord
  2
PHANTOM
 70
     0
  3
_____ _ _ _____ _ _ _____ _ _ _____ _ _ ____  
 72
    65
 73
     6
 40
15.5
 49
8.0
 74
     0
 49
-1.5
 74
     0
 49
1.5
 74
     0
 49
-1.5
 74
     0
 49
1.5
 74
     0
 49
-1.5
 74
     0
  0
LTYPE
  5
51
100
AcDbSymbolTableRecord
100
AcDbLinetypeTableRecord
  2
DOT
 70
     0
  3
. . . . . . . . . . . . . . . . . . . . . . . .
 72
    65
 73
     2
 40
0.25
 49
0.0
 74
     0
 49
-0.25
 74
     0
  0
ENDTAB
  0
TABLE
  2
LAYER
  5
2
100
AcDbSymbolTable
 70
     3
  0
LAYER
  5
E
100
AcDbSymbolTableRecord
100
AcDbLayerTableRecord
  2
0
 70
     0
 62
     7
  6
CONTINUOUS
  0
LAYER
  5
2C0
100
AcDbSymbolTableRecord
100
AcDbLayerTableRecord
  2
寸法
 70
     0
 62
     1
  6
CONTINUOUS
  0
LAYER
  5
2C3
102
{ACAD_XDICTIONARY
360
435
102
}
100
AcDbSymbolTableRecord
100
AcDbLayerTableRecord
  2
DEFPOINTS
 70
     0
 62
     7
  6
CONTINUOUS
  0
ENDTAB
  0
TABLE
  2
STYLE
  5
3
100
AcDbSymbolTable
 70
     1
  0
STYLE
  5
F
100
AcDbSymbolTableRecord
100
AcDbTextStyleTableRecord
  2
STANDARD
 70
     0
 40
0.0
 41
1.0
 50
0.0
 71
     0
 42
1.767677
  3
txt.shx
  4
bigfont.shx
  0
ENDTAB
  0
TABLE
  2
VIEW
  5
6
100
AcDbSymbolTable
 70
     0
  0
ENDTAB
  0
TABLE
  2
UCS
  5
7
100
AcDbSymbolTable
 70
     0
  0
ENDTAB
  0
TABLE
  2
APPID
  5
9
100
AcDbSymbolTable
 70
     3
  0
APPID
  5
10
100
AcDbSymbolTableRecord
100
AcDbRegAppTableRecord
  2
ACAD
 70
     0
  0
APPID
  5
24
100
AcDbSymbolTableRecord
100
AcDbRegAppTableRecord
  2
CONTENTTABDATA
 70
     0
  0
APPID
  5
25
100
AcDbSymbolTableRecord
100
AcDbRegAppTableRecord
  2
CONTENTCURRENTTAB
 70
     0
  0
ENDTAB
  0
TABLE
  2
DIMSTYLE
  5
A
100
AcDbSymbolTable
 70
     2
  0
DIMSTYLE
105
1D
102
{ACAD_XDICTIONARY
360
45C
102
}
102
{ACAD_REACTORS
330
2F1
330
300
330
30F
330
31C
330
32B
330
33F
330
34C
330
359
330
36F
330
3C7
330
40E
330
41C
102
}
100
AcDbSymbolTableRecord
100
AcDbDimStyleTableRecord
  2
STANDARD
 70
     0
  3

  4

  5

  6
OPEN30
  7
OPEN30
 40
1.0
 41
2.0
 42
1.0
 43
10.0
 44
1.0
 45
0.0
 46
0.0
 47
0.0
 48
0.0
140
3.0
141
2.0
142
0.0
143
25.4
144
1.0
145
0.0
146
1.0
147
1.0
 71
     0
 72
     0
 73
     0
 74
     0
 75
     0
 76
     0
 77
     1
 78
     8
170
     0
171
     2
172
     1
173
     1
174
     0
175
     0
176
     1
177
     1
178
     1
270
     2
271
     2
272
     4
273
     2
274
     2
340
F
275
     0
280
     0
281
     0
282
     0
283
     1
284
     0
285
     0
286
     0
287
     3
288
     0
  0
DIMSTYLE
105
35
100
AcDbSymbolTableRecord
100
AcDbDimStyleTableRecord
  2
STANDARD_WS
 70
     0
  3

  4

  5

  6

  7

 40
0.707071
 41
2.5
 42
0.625
 43
3.75
 44
1.25
 45
0.0
 46
0.0
 47
0.0
 48
0.0
140
2.5
141
2.5
142
0.0
143
0.0394
144
1.0
145
0.0
146
1.0
147
0.625
 71
     0
 72
     0
 73
     0
 74
     0
 75
     0
 76
     0
 77
     1
 78
     8
170
     0
171
     4
172
     1
173
     0
174
     0
175
     0
176
     0
177
     0
178
     0
270
     2
271
     4
272
     4
273
     8
274
     4
340
F
275
     0
280
     0
281
     0
282
     0
283
     1
284
     0
285
     0
286
     0
287
     3
288
     0
  0
ENDTAB
  0
TABLE
  2
BLOCK_RECORD
  5
1
100
AcDbSymbolTable
 70
    15
  0
BLOCK_RECORD
  5
18
102
{ACAD_XDICTIONARY
360
3A4
102
}
100
AcDbSymbolTableRecord
100
AcDbBlockTableRecord
  2
*MODEL_SPACE
  0
BLOCK_RECORD
  5
15
102
{ACAD_XDICTIONARY
360
3A2
102
}
100
AcDbSymbolTableRecord
100
AcDbBlockTableRecord
  2
*PAPER_SPACE
  0
BLOCK_RECORD
  5
37
100
AcDbSymbolTableRecord
100
AcDbBlockTableRecord
  2
_OPEN30
  0
BLOCK_RECORD
  5
52
100
AcDbSymbolTableRecord
100
AcDbBlockTableRecord
  2
BU134ER
  0
BLOCK_RECORD
  5
2F2
100
AcDbSymbolTableRecord
100
AcDbBlockTableRecord
  2
*D2
  0
BLOCK_RECORD
  5
301
100
AcDbSymbolTableRecord
100
AcDbBlockTableRecord
  2
*D3
  0
BLOCK_RECORD
  5
310
100
AcDbSymbolTableRecord
100
AcDbBlockTableRecord
  2
*D4
  0
BLOCK_RECORD
  5
31D
100
AcDbSymbolTableRecord
100
AcDbBlockTableRecord
  2
*D5
  0
BLOCK_RECORD
  5
32C
100
AcDbSymbolTableRecord
100
AcDbBlockTableRecord
  2
*D6
  0
BLOCK_RECORD
  5
340
100
AcDbSymbolTableRecord
100
AcDbBlockTableRecord
  2
*D7
  0
BLOCK_RECORD
  5
34D
100
AcDbSymbolTableRecord
100
AcDbBlockTableRecord
  2
*D8
  0
BLOCK_RECORD
  5
35A
100
AcDbSymbolTableRecord
100
AcDbBlockTableRecord
  2
*D9
  0
BLOCK_RECORD
  5
370
100
AcDbSymbolTableRecord
100
AcDbBlockTableRecord
  2
*D10
  0
BLOCK_RECORD
  5
3C8
100
AcDbSymbolTableRecord
100
AcDbBlockTableRecord
  2
*D11
  0
BLOCK_RECORD
  5
40F
100
AcDbSymbolTableRecord
100
AcDbBlockTableRecord
  2
*D12
  0
BLOCK_RECORD
  5
41D
100
AcDbSymbolTableRecord
100
AcDbBlockTableRecord
  2
*D13
  0
BLOCK_RECORD
  5
49A
100
AcDbSymbolTableRecord
100
AcDbBlockTableRecord
  2
A$C776226A5
  0
ENDTAB
  0
ENDSEC
  0
SECTION
  2
BLOCKS
  0
BLOCK
  5
19
100
AcDbEntity
  8
0
100
AcDbBlockBegin
  2
*MODEL_SPACE
 70
     0
 10
0.0
 20
0.0
 30
0.0
  3
*MODEL_SPACE
  1

  0
ENDBLK
  5
1A
100
AcDbEntity
  8
0
100
AcDbBlockEnd
  0
BLOCK
  5
16
100
AcDbEntity
 67
     1
  8
0
100
AcDbBlockBegin
  2
*PAPER_SPACE
 70
     0
 10
0.0
 20
0.0
 30
0.0
  3
*PAPER_SPACE
  1

  0
ENDBLK
  5
17
100
AcDbEntity
 67
     1
  8
0
100
AcDbBlockEnd
  0
BLOCK
  5
38
100
AcDbEntity
  8
0
100
AcDbBlockBegin
  2
_OPEN30
 70
     0
 10
0.0
 20
0.0
 30
0.0
  3
_OPEN30
  1

  0
LINE
  5
39
100
AcDbEntity
  8
0
  6
BYBLOCK
 62
     0
100
AcDbLine
 10
-1.0
 20
0.267949
 30
0.0
 11
0.0
 21
0.0
 31
0.0
  0
LINE
  5
3A
100
AcDbEntity
  8
0
  6
BYBLOCK
 62
     0
100
AcDbLine
 10
0.0
 20
0.0
 30
0.0
 11
-1.0
 21
-0.267949
 31
0.0
  0
LINE
  5
3B
100
AcDbEntity
  8
0
  6
BYBLOCK
 62
     0
100
AcDbLine
 10
0.0
 20
0.0
 30
0.0
 11
-1.0
 21
0.0
 31
0.0
  0
ENDBLK
  5
3C
100
AcDbEntity
  8
0
100
AcDbBlockEnd
  0
BLOCK
  5
180
100
AcDbEntity
  8
0
100
AcDbBlockBegin
  2
BU134ER
 70
     0
 10
0.0
 20
0.0
 30
0.0
  3
BU134ER
  1

  0
POINT
  5
53
100
AcDbEntity
  8
0
  6
CONTINUOUS
 62
     7
100
AcDbPoint
 10
0.0
 20
-59.709129
 30
0.0
  0
POINT
  5
54
100
AcDbEntity
  8
0
  6
CONTINUOUS
 62
     7
100
AcDbPoint
 10
0.0
 20
0.0
 30
0.0
  0
POINT
  5
55
100
AcDbEntity
  8
0
  6
CONTINUOUS
 62
     7
100
AcDbPoint
 10
-28.388847
 20
0.0
 30
0.0
  0
POINT
  5
56
100
AcDbEntity
  8
0
  6
CONTINUOUS
 62
     7
100
AcDbPoint
 10
91.910728
 20
-71.709129
 30
0.0
  0
LINE
  5
57
100
AcDbEntity
  8
0
  6
CONTINUOUS
 62
     7
100
AcDbLine
 10
56.0
 20
-63.209129
 30
0.0
 11
56.0
 21
-67.209129
 31
0.0
  0
LINE
  5
58
100
AcDbEntity
  8
0
  6
CENTER
 62
     7
100
AcDbLine
 10
43.987526
 20
-65.209129
 30
0.0
 11
57.930676
 21
-65.209129
 31
0.0
  0
LINE
  5
59
100
AcDbEntity
  8
0
  6
CONTINUOUS
 62
     7
100
AcDbLine
 10
51.0
 20
-61.209129
 30
0.0
 11
51.0
 21
-69.209129
 31
0.0
  0
LINE
  5
5A
100
AcDbEntity
  8
0
  6
CONTINUOUS
 62
     7
100
AcDbLine
 10
48.0
 20
-67.709129
 30
0.0
 11
51.0
 21
-67.709129
 31
0.0
  0
LINE
  5
5B
100
AcDbEntity
  8
0
  6
CONTINUOUS
 62
     7
100
AcDbLine
 10
48.0
 20
-62.709129
 30
0.0
 11
51.0
 21
-62.709129
 31
0.0
  0
LINE
  5
5C
100
AcDbEntity
  8
0
  6
CONTINUOUS
 62
     7
100
AcDbLine
 10
53.5
 20
-60.709129
 30
0.0
 11
56.000004
 21
-63.209129
 31
0.0
  0
LINE
  5
5D
100
AcDbEntity
  8
0
  6
CONTINUOUS
 62
     7
100
AcDbLine
 10
53.499996
 20
-69.709129
 30
0.0
 11
55.999996
 21
-67.209129
 31
0.0
  0
LINE
  5
5E
100
AcDbEntity
  8
0
  6
CONTINUOUS
 62
     7
100
AcDbLine
 10
51.5
 20
-69.709129
 30
0.0
 11
53.5
 21
-69.709129
 31
0.0
  0
LINE
  5
5F
100
AcDbEntity
  8
0
  6
CONTINUOUS
 62
     7
100
AcDbLine
 10
51.5
 20
-60.709129
 30
0.0
 11
53.5
 21
-60.709129
 31
0.0
  0
LINE
  5
60
100
AcDbEntity
  8
0
  6
CONTINUOUS
 62
     7
100
AcDbLine
 10
51.5
 20
-60.709137
 30
0.0
 11
51.000004
 21
-61.209137
 31
0.0
  0
LINE
  5
61
100
AcDbEntity
  8
0
  6
CONTINUOUS
 62
     7
100
AcDbLine
 10
51.000008
 20
-69.209129
 30
0.0
 11
51.5
 21
-69.709129
 31
0.0
  0
LINE
  5
62
100
AcDbEntity
  8
0
  6
CONTINUOUS
 62
     7
100
AcDbLine
 10
51.5
 20
-60.709129
 30
0.0
 11
51.5
 21
-69.709129
 31
0.0
  0
LINE
  5
63
100
AcDbEntity
  8
0
  6
CONTINUOUS
 62
     7
100
AcDbLine
 10
53.5
 20
-60.709129
 30
0.0
 11
53.5
 21
-69.709129
 31
0.0
  0
LINE
  5
64
100
AcDbEntity
  8
0
  6
CONTINUOUS
 62
     7
100
AcDbLine
 10
48.0
 20
-67.209129
 30
0.0
 11
51.0
 21
-67.209129
 31
0.0
  0
LINE
  5
65
100
AcDbEntity
  8
0
  6
CONTINUOUS
 62
     7
100
AcDbLine
 10
48.0
 20
-63.209129
 30
0.0
 11
51.0
 21
-63.209129
 31
0.0
  0
LINE
  5
66
100
AcDbEntity
  8
0
  6
CONTINUOUS
 62
     7
100
AcDbLine
 10
48.0
 20
-58.209129
 30
0.0
 11
48.0
 21
-71.709129
 31
0.0
  0
LINE
  5
67
100
AcDbEntity
  8
0
  6
CENTER
 62
     7
100
AcDbLine
 10
36.0
 20
-53.495754
 30
0.0
 11
36.0
 21
-76.553078
 31
0.0
  0
LINE
  5
68
100
AcDbEntity
  8
0
  6
CENTER
 62
     7
100
AcDbLine
 10
37.75
 20
-53.128143
 30
0.0
 11
37.75
 21
-76.553078
 31
0.0
  0
LINE
  5
69
100
AcDbEntity
  8
0
  6
CENTER
 62
     7
100
AcDbLine
 10
34.25
 20
-53.495754
 30
0.0
 11
34.25
 21
-76.553078
 31
0.0
  0
LINE
  5
6A
100
AcDbEntity
  8
0
  6
CONTINUOUS
 62
     7
100
AcDbLine
 10
48.0
 20
-3.0
 30
0.0
 11
51.0
 21
-3.0
 31
0.0
  0
LINE
  5
6B
100
AcDbEntity
  8
0
  6
CONTINUOUS
 62
     7
100
AcDbLine
 10
48.0
 20
1.0
 30
0.0
 11
51.0
 21
1.0
 31
0.0
  0
LINE
  5
6C
100
AcDbEntity
  8
0
  6
CONTINUOUS
 62
     7
100
AcDbLine
 10
56.0
 20
1.0
 30
0.0
 11
56.0
 21
-3.0
 31
0.0
  0
LINE
  5
6D
100
AcDbEntity
  8
0
  6
CENTER
 62
     7
100
AcDbLine
 10
43.987526
 20
-1.0
 30
0.0
 11
57.930676
 21
-1.0
 31
0.0
  0
LINE
  5
6E
100
AcDbEntity
  8
0
  6
CONTINUOUS
 62
     7
100
AcDbLine
 10
51.0
 20
3.0
 30
0.0
 11
51.0
 21
-5.0
 31
0.0
  0
LINE
  5
6F
100
AcDbEntity
  8
0
  6
CONTINUOUS
 62
     7
100
AcDbLine
 10
48.0
 20
-3.5
 30
0.0
 11
51.0
 21
-3.5
 31
0.0
  0
LINE
  5
70
100
AcDbEntity
  8
0
  6
CONTINUOUS
 62
     7
100
AcDbLine
 10
48.0
 20
1.5
 30
0.0
 11
51.0
 21
1.5
 31
0.0
  0
LINE
  5
71
100
AcDbEntity
  8
0
  6
CONTINUOUS
 62
     7
100
AcDbLine
 10
53.5
 20
3.499998
 30
0.0
 11
56.0
 21
0.999998
 31
0.0
  0
LINE
  5
72
100
AcDbEntity
  8
0
  6
CONTINUOUS
 62
     7
100
AcDbLine
 10
53.5
 20
-5.500003
 30
0.0
 11
56.0
 21
-3.000003
 31
0.0
  0
LINE
  5
73
100
AcDbEntity
  8
0
  6
CONTINUOUS
 62
     7
100
AcDbLine
 10
51.5
 20
-5.5
 30
0.0
 11
53.5
 21
-5.5
 31
0.0
  0
LINE
  5
74
100
AcDbEntity
  8
0
  6
CONTINUOUS
 62
     7
100
AcDbLine
 10
51.5
 20
3.5
 30
0.0
 11
53.5
 21
3.5
 31
0.0
  0
LINE
  5
75
100
AcDbEntity
  8
0
  6
CONTINUOUS
 62
     7
100
AcDbLine
 10
51.499996
 20
3.499998
 30
0.0
 11
51.0
 21
3.0
 31
0.0
  0
LINE
  5
76
100
AcDbEntity
  8
0
  6
CONTINUOUS
 62
     7
100
AcDbLine
 10
51.000004
 20
-4.999997
 30
0.0
 11
51.5
 21
-5.499995
 31
0.0
  0
LINE
  5
77
100
AcDbEntity
  8
0
  6
CONTINUOUS
 62
     7
100
AcDbLine
 10
51.5
 20
3.5
 30
0.0
 11
51.5
 21
-5.500001
 31
0.0
  0
LINE
  5
78
100
AcDbEntity
  8
0
  6
CONTINUOUS
 62
     7
100
AcDbLine
 10
53.5
 20
3.5
 30
0.0
 11
53.5
 21
-5.5
 31
0.0
  0
LINE
  5
79
100
AcDbEntity
  8
0
  6
CONTINUOUS
 62
     7
100
AcDbLine
 10
-26.888847
 20
4.0
 30
0.0
 11
-26.888847
 21
-8.0
 31
0.0
  0
LINE
  5
7A
100
AcDbEntity
  8
0
  6
CONTINUOUS
 62
     7
100
AcDbLine
 10
-40.388847
 20
4.0
 30
0.0
 11
-40.388847
 21
-6.816179
 31
0.0
  0
LINE
  5
7B
100
AcDbEntity
  8
0
  6
CONTINUOUS
 62
     7
100
AcDbLine
 10
48.0
 20
5.0
 30
0.0
 11
48.0
 21
-6.867867
 31
0.0
  0
LINE
  5
7C
100
AcDbEntity
  8
0
  6
CONTINUOUS
 62
     7
100
AcDbLine
 10
-39.388847
 20
5.0
 30
0.0
 11
-27.888847
 21
5.0
 31
0.0
  0
LINE
  5
7D
100
AcDbEntity
  8
0
  6
CONTINUOUS
 62
     7
100
AcDbLine
 10
-40.388847
 20
3.999999
 30
0.0
 11
-39.388847
 21
5.000001
 31
0.0
  0
LINE
  5
7E
100
AcDbEntity
  8
0
  6
CONTINUOUS
 62
     7
100
AcDbLine
 10
-27.888847
 20
5.0
 30
0.0
 11
-27.653847
 21
4.765
 31
0.0
  0
LINE
  5
7F
100
AcDbEntity
  8
0
  6
CONTINUOUS
 62
     7
100
AcDbLine
 10
0.0
 20
0.0
 30
0.0
 11
5.196152
 21
-9.0
 31
0.0
  0
LINE
  5
80
100
AcDbEntity
  8
0
  6
CONTINUOUS
 62
     7
100
AcDbLine
 10
0.0
 20
0.0
 30
0.0
 11
8.660254
 21
5.0
 31
0.0
  0
LINE
  5
81
100
AcDbEntity
  8
0
  6
CONTINUOUS
 62
     7
100
AcDbLine
 10
8.253222
 20
4.765
 30
0.0
 11
13.018222
 21
-3.488222
 31
0.0
  0
LINE
  5
82
100
AcDbEntity
  8
0
  6
CONTINUOUS
 62
     7
100
AcDbLine
 10
4.765
 20
-8.253222
 30
0.0
 11
13.018222
 21
-3.488222
 31
0.0
  0
LINE
  5
83
100
AcDbEntity
  8
0
  6
CONTINUOUS
 62
     7
100
AcDbLine
 10
8.660255
 20
5.0
 30
0.0
 11
48.0
 21
5.0
 31
0.0
  0
LINE
  5
84
100
AcDbEntity
  8
0
  6
CONTINUOUS
 62
     7
100
AcDbLine
 10
5.196152
 20
-9.0
 30
0.0
 11
10.0
 21
-9.0
 31
0.0
  0
LINE
  5
85
100
AcDbEntity
  8
0
  6
CONTINUOUS
 62
     7
100
AcDbLine
 10
16.0
 20
-6.0
 30
0.0
 11
16.0
 21
-8.475068
 31
0.0
  0
LINE
  5
86
100
AcDbEntity
  8
0
  6
CONTINUOUS
 62
     7
100
AcDbLine
 10
10.0
 20
-9.0
 30
0.0
 11
16.0
 21
-8.475068
 31
0.0
  0
LINE
  5
87
100
AcDbEntity
  8
0
  6
CONTINUOUS
 62
     7
100
AcDbLine
 10
91.910728
 20
-71.709129
 30
0.0
 11
93.410728
 21
-71.709129
 31
0.0
  0
LINE
  5
88
100
AcDbEntity
  8
0
  6
CONTINUOUS
 62
     7
100
AcDbLine
 10
93.726906
 20
-58.276539
 30
0.0
 11
102.72691
 21
-58.276539
 31
0.0
  0
LINE
  5
89
100
AcDbEntity
  8
0
  6
CONTINUOUS
 62
     7
100
AcDbLine
 10
103.72691
 20
-59.276539
 30
0.0
 11
103.72691
 21
-70.613998
 31
0.0
  0
LINE
  5
8A
100
AcDbEntity
  8
0
  6
CONTINUOUS
 62
     7
100
AcDbLine
 10
91.859039
 20
-71.567116
 30
0.0
 11
93.726906
 21
-58.276543
 31
0.0
  0
LINE
  5
8B
100
AcDbEntity
  8
0
  6
CONTINUOUS
 62
     7
100
AcDbLine
 10
102.72691
 20
-58.276543
 30
0.0
 11
103.72691
 21
-59.276543
 31
0.0
  0
LINE
  5
8C
100
AcDbEntity
  8
0
  6
CONTINUOUS
 62
     7
100
AcDbLine
 10
102.73065
 20
-71.6278
 30
0.0
 11
103.7269
 21
-70.614006
 31
0.0
  0
LINE
  5
8D
100
AcDbEntity
  8
0
  6
CONTINUOUS
 62
     7
100
AcDbLine
 10
98.104446
 20
-70.240532
 30
0.0
 11
99.565765
 21
-59.84272
 31
0.0
  0
LINE
  5
8E
100
AcDbEntity
  8
0
  6
CONTINUOUS
 62
     7
100
AcDbLine
 10
17.0
 20
-5.0
 30
0.0
 11
48.0
 21
-5.0
 31
0.0
  0
LINE
  5
8F
100
AcDbEntity
  8
0
  6
CENTER
 62
     7
100
AcDbLine
 10
36.0
 20
7.506227
 30
0.0
 11
36.0
 21
-12.940991
 31
0.0
  0
LINE
  5
90
100
AcDbEntity
  8
0
  6
CONTINUOUS
 62
     7
100
AcDbLine
 10
11.417237
 20
4.0
 30
0.0
 11
48.0
 21
4.0
 31
0.0
  0
LINE
  5
91
100
AcDbEntity
  8
0
  6
CONTINUOUS
 62
     7
100
AcDbLine
 10
-34.388847
 20
-9.0
 30
0.0
 11
-27.888847
 21
-9.0
 31
0.0
  0
LINE
  5
92
100
AcDbEntity
  8
0
  6
CONTINUOUS
 62
     7
100
AcDbLine
 10
-40.388847
 20
-6.816179
 30
0.0
 11
-34.388847
 21
-9.0
 31
0.0
  0
LINE
  5
93
100
AcDbEntity
  8
0
  6
CONTINUOUS
 62
     7
100
AcDbLine
 10
-31.093933
 20
-8.253223
 30
0.0
 11
-27.888048
 21
-8.253223
 31
0.0
  0
LINE
  5
94
100
AcDbEntity
  8
0
  6
CONTINUOUS
 62
     7
100
AcDbLine
 10
-40.388847
 20
0.0
 30
0.0
 11
-28.388847
 21
0.0
 31
0.0
  0
LINE
  5
95
100
AcDbEntity
  8
0
  6
CONTINUOUS
 62
     7
100
AcDbLine
 10
-30.727333
 20
4.765
 30
0.0
 11
-27.521448
 21
4.765
 31
0.0
  0
LINE
  5
96
100
AcDbEntity
  8
0
  6
CONTINUOUS
 62
     7
100
AcDbLine
 10
11.417237
 20
-58.209129
 30
0.0
 11
48.0
 21
-58.209129
 31
0.0
  0
LINE
  5
97
100
AcDbEntity
  8
0
  6
CONTINUOUS
 62
     7
100
AcDbLine
 10
1.261251
 20
-71.709129
 30
0.0
 11
48.0
 21
-71.709129
 31
0.0
  0
LINE
  5
98
100
AcDbEntity
  8
0
  6
CENTER
 62
     7
100
AcDbLine
 10
13.0
 20
-61.709129
 30
0.0
 11
13.0
 21
-69.709129
 31
0.0
  0
LINE
  5
99
100
AcDbEntity
  8
0
  6
CONTINUOUS
 62
     7
100
AcDbLine
 10
5.479795
 20
-65.709129
 30
0.0
 11
10.0
 21
-65.709129
 31
0.0
  0
LINE
  5
9A
100
AcDbEntity
  8
0
  6
CONTINUOUS
 62
     7
100
AcDbLine
 10
0.0
 20
-59.709129
 30
0.0
 11
4.796187
 21
-59.205032
 31
0.0
  0
LINE
  5
9B
100
AcDbEntity
  8
0
  6
CONTINUOUS
 62
     7
100
AcDbLine
 10
0.334491
 20
-62.891598
 30
0.0
 11
5.130678
 21
-62.387497
 31
0.0
  0
LINE
  5
9C
100
AcDbEntity
  8
0
  6
CONTINUOUS
 62
     7
100
AcDbLine
 10
0.0
 20
-59.709129
 30
0.0
 11
1.261251
 21
-71.709129
 31
0.0
  0
LINE
  5
9D
100
AcDbEntity
  8
0
  6
CENTER
 62
     7
100
AcDbLine
 10
10.793222
 20
-65.709129
 30
0.0
 11
17.0
 21
-65.709129
 31
0.0
  0
LINE
  5
9E
100
AcDbEntity
  8
0
  6
CENTER
 62
     7
100
AcDbLine
 10
2.655298
 20
-3.969111
 30
0.0
 11
10.908521
 21
0.795889
 31
0.0
  0
LINE
  5
9F
100
AcDbEntity
  8
0
  6
CENTER
 62
     7
100
AcDbLine
 10
3.969111
 20
2.655298
 30
0.0
 11
8.734111
 21
-5.597924
 31
0.0
  0
LINE
  5
A0
100
AcDbEntity
  8
0
  6
CONTINUOUS
 62
     7
100
AcDbLine
 10
93.410728
 20
-71.709129
 30
0.0
 11
102.73065
 21
-71.6278
 31
0.0
  0
LINE
  5
A1
100
AcDbEntity
  8
0
  6
CONTINUOUS
 62
     7
100
AcDbLine
 10
91.910728
 20
-71.709129
 30
0.0
 11
91.859039
 21
-71.567116
 31
0.0
  0
LINE
  5
A2
100
AcDbEntity
  8
0
  6
CONTINUOUS
 62
     7
100
AcDbLine
 10
17.0
 20
-6.867867
 30
0.0
 11
48.0
 21
-6.867867
 31
0.0
  0
LINE
  5
A3
100
AcDbEntity
  8
0
  6
CONTINUOUS
 62
     7
100
AcDbLine
 10
10.0
 20
-58.358086
 30
0.0
 11
10.0
 21
-65.709129
 31
0.0
  0
LINE
  5
A4
100
AcDbEntity
  8
0
  6
CONTINUOUS
 62
     7
100
AcDbLine
 10
10.0
 20
-65.709129
 30
0.0
 11
11.027693
 21
-66.040794
 31
0.0
  0
LINE
  5
A5
100
AcDbEntity
  8
0
  6
CONTINUOUS
 62
     7
100
AcDbLine
 10
14.406343
 20
-67.131172
 30
0.0
 11
16.0
 21
-67.645485
 31
0.0
  0
LINE
  5
A6
100
AcDbEntity
  8
0
  6
PHANTOM
 62
     7
100
AcDbLine
 10
0.0
 20
-59.40913
 30
0.0
 11
4.765
 21
-58.908306
 31
0.0
  0
LINE
  5
A7
100
AcDbEntity
  8
0
  6
CONTINUOUS
 62
     7
100
AcDbLine
 10
11.417237
 20
4.0
 30
0.0
 11
11.417237
 21
0.6094
 31
0.0
  0
LINE
  5
A8
100
AcDbEntity
  8
0
  6
CONTINUOUS
 62
     7
100
AcDbLine
 10
11.417237
 20
-4.41255
 30
0.0
 11
11.417237
 21
-9.0
 31
0.0
  0
LINE
  5
A9
100
AcDbEntity
  8
0
  6
CONTINUOUS
 62
     7
100
AcDbLine
 10
11.417238
 20
4.0
 30
0.0
 11
8.660255
 21
5.0
 31
0.0
  0
LINE
  5
AA
100
AcDbEntity
  8
0
  6
CONTINUOUS
 62
     7
100
AcDbLine
 10
16.0
 20
-58.209129
 30
0.0
 11
16.0
 21
-71.567116
 31
0.0
  0
LINE
  5
AB
100
AcDbEntity
  8
0
  6
CONTINUOUS
 62
     7
100
AcDbLine
 10
4.765
 20
-58.908306
 30
0.0
 11
5.479795
 21
-65.709129
 31
0.0
  0
LINE
  5
AC
100
AcDbEntity
  8
0
  6
CONTINUOUS
 62
     7
100
AcDbLine
 10
4.765
 20
-58.908306
 30
0.0
 11
11.417237
 21
-58.209129
 31
0.0
  0
LINE
  5
AD
100
AcDbEntity
  8
0
  6
CONTINUOUS
 62
     7
100
AcDbLine
 10
4.421835
 20
-71.709129
 30
0.0
 11
5.479796
 21
-65.709129
 31
0.0
  0
LINE
  5
AE
100
AcDbEntity
  8
0
  6
CENTER
 62
     7
100
AcDbLine
 10
86.036903
 20
-63.242958
 30
0.0
 11
112.38363
 21
-66.945747
 31
0.0
  0
LINE
  5
AF
100
AcDbEntity
  8
0
  6
CONTINUOUS
 62
     7
100
AcDbLine
 10
92.162834
 20
-69.405495
 30
0.0
 11
98.104446
 21
-70.240532
 31
0.0
  0
LINE
  5
B0
100
AcDbEntity
  8
0
  6
CONTINUOUS
 62
     7
100
AcDbLine
 10
93.624153
 20
-59.007683
 30
0.0
 11
99.565765
 21
-59.84272
 31
0.0
  0
LINE
  5
B1
100
AcDbEntity
  8
0
  6
CONTINUOUS
 62
     7
100
AcDbLine
 10
99.280457
 20
-61.872772
 30
0.0
 11
103.72691
 21
-62.497681
 31
0.0
  0
LINE
  5
B2
100
AcDbEntity
  8
0
  6
CONTINUOUS
 62
     7
100
AcDbLine
 10
98.389748
 20
-68.210487
 30
0.0
 11
103.72691
 21
-68.960571
 31
0.0
  0
LINE
  5
B3
100
AcDbEntity
  8
0
  6
CONTINUOUS
 62
     7
100
AcDbLine
 10
34.25
 20
-69.405495
 30
0.0
 11
37.75
 21
-69.405495
 31
0.0
  0
LINE
  5
B4
100
AcDbEntity
  8
0
  6
CONTINUOUS
 62
     7
100
AcDbLine
 10
34.25
 20
-68.210487
 30
0.0
 11
37.75
 21
-68.210487
 31
0.0
  0
LINE
  5
B5
100
AcDbEntity
  8
0
  6
CONTINUOUS
 62
     7
100
AcDbLine
 10
34.25
 20
-61.872768
 30
0.0
 11
37.75
 21
-61.872768
 31
0.0
  0
LINE
  5
B6
100
AcDbEntity
  8
0
  6
CONTINUOUS
 62
     7
100
AcDbLine
 10
34.25
 20
-62.497677
 30
0.0
 11
37.75
 21
-62.497677
 31
0.0
  0
LINE
  5
B7
100
AcDbEntity
  8
0
  6
CONTINUOUS
 62
     7
100
AcDbLine
 10
34.25
 20
-59.84272
 30
0.0
 11
37.75
 21
-59.84272
 31
0.0
  0
LINE
  5
B8
100
AcDbEntity
  8
0
  6
CONTINUOUS
 62
     7
100
AcDbLine
 10
34.25
 20
-59.007683
 30
0.0
 11
37.75
 21
-59.007683
 31
0.0
  0
LINE
  5
B9
100
AcDbEntity
  8
0
  6
CONTINUOUS
 62
     7
100
AcDbLine
 10
16.0
 20
-71.567116
 30
0.0
 11
48.0
 21
-71.567116
 31
0.0
  0
LINE
  5
BA
100
AcDbEntity
  8
0
  6
CONTINUOUS
 62
     7
100
AcDbLine
 10
-28.388847
 20
0.0
 30
0.0
 11
-27.845371
 21
-8.956524
 31
0.0
  0
LINE
  5
BB
100
AcDbEntity
  8
0
  6
CONTINUOUS
 62
     7
100
AcDbLine
 10
-31.594734
 20
0.0
 30
0.0
 11
-31.093933
 21
-8.253223
 31
0.0
  0
LINE
  5
BC
100
AcDbEntity
  8
0
  6
CONTINUOUS
 62
     7
100
AcDbLine
 10
-28.388847
 20
0.0
 30
0.0
 11
-27.521448
 21
4.765
 31
0.0
  0
LINE
  5
BD
100
AcDbEntity
  8
0
  6
CONTINUOUS
 62
     7
100
AcDbLine
 10
-31.594732
 20
0.0
 30
0.0
 11
-30.727333
 21
4.765
 31
0.0
  0
LINE
  5
BE
100
AcDbEntity
  8
0
  6
CONTINUOUS
 62
     7
100
AcDbLine
 10
-27.521448
 20
4.765
 30
0.0
 11
-27.020647
 21
-3.488223
 31
0.0
  0
LINE
  5
BF
100
AcDbEntity
  8
0
  6
CONTINUOUS
 62
     7
100
AcDbLine
 10
-27.888046
 20
-8.253223
 30
0.0
 11
-27.020647
 21
-3.488223
 31
0.0
  0
LINE
  5
C0
100
AcDbEntity
  8
0
  6
CONTINUOUS
 62
     7
100
AcDbLine
 10
-27.512896
 20
4.624047
 30
0.0
 11
-26.888847
 21
4.0
 31
0.0
  0
LINE
  5
C1
100
AcDbEntity
  8
0
  6
CONTINUOUS
 62
     7
100
AcDbLine
 10
-27.888847
 20
-9.000001
 30
0.0
 11
-26.888847
 21
-8.0
 31
0.0
  0
ARC
  5
C2
100
AcDbEntity
  8
0
  6
CONTINUOUS
 62
     7
100
AcDbCircle
 10
17.0
 20
-6.0
 30
0.0
 40
1.0
100
AcDbArc
 50
90.000003
 51
180.00001
  0
ARC
  5
C3
100
AcDbEntity
  8
0
  6
CONTINUOUS
 62
     7
100
AcDbCircle
 10
11.905722
 20
-1.561316
 30
0.0
 40
2.225
100
AcDbArc
 50
300.0
 51
120.0
  0
CIRCLE
  5
C4
100
AcDbEntity
  8
0
  6
CONTINUOUS
 62
     7
100
AcDbCircle
 10
13.0
 20
-65.709129
 30
0.0
 40
2.0
  0
CIRCLE
  5
C5
100
AcDbEntity
  8
0
  6
CONTINUOUS
 62
     7
100
AcDbCircle
 10
13.0
 20
-65.709129
 30
0.0
 40
1.8
  0
CIRCLE
  5
C6
100
AcDbEntity
  8
0
  6
CONTINUOUS
 62
     7
100
AcDbCircle
 10
6.509111
 20
-1.744111
 30
0.0
 40
1.975
  0
ARC
  5
C7
100
AcDbEntity
  8
0
  6
CONTINUOUS
 62
     7
100
AcDbCircle
 10
17.0
 20
-7.867867
 30
0.0
 40
1.0
100
AcDbArc
 50
90.000003
 51
180.00001
  0
LWPOLYLINE
  5
C8
100
AcDbEntity
  8
0
  6
CONTINUOUS
 62
     7
100
AcDbPolyline
 90
       17
 70
     0
 43
0.0
 10
34.25
 20
-59.007683
 42
0.048416
 10
33.230783
 20
-59.106595
 42
0.048522
 10
32.249648
 20
-59.399852
 42
0.048718
 10
31.343563
 20
-59.877054
 42
0.048977
 10
30.547221
 20
-60.520992
 42
0.049271
 10
29.891641
 20
-61.308096
 42
0.049546
 10
29.403121
 20
-62.208733
 42
0.049752
 10
29.101741
 20
-63.188042
 42
0.049813
 10
29.0
 20
-64.206589
 42
0.049822
 10
29.101777
 20
-65.225316
 42
0.049704
 10
29.402814
 20
-66.203714
 42
0.04952
 10
29.890891
 20
-67.103977
 42
0.049257
 10
30.546066
 20
-67.891047
 42
0.048988
 10
31.342379
 20
-68.535344
 42
0.048743
 10
32.248823
 20
-69.012989
 42
0.048553
 10
33.230554
 20
-69.306538
 42
0.048427
 10
34.25
 20
-69.405495
  0
LWPOLYLINE
  5
DB
100
AcDbEntity
  8
0
  6
CONTINUOUS
 62
     7
100
AcDbPolyline
 90
       17
 70
     0
 43
0.0
 10
34.25
 20
-59.84272
 42
0.020693
 10
33.773765
 20
-59.862433
 42
0.02081
 10
33.300133
 20
-59.921629
 42
0.020986
 10
32.833059
 20
-60.020156
 42
0.021244
 10
32.375994
 20
-60.157707
 42
0.021587
 10
31.932374
 20
-60.333842
 42
0.02201
 10
31.505755
 20
-60.547934
 42
0.022507
 10
31.099827
 20
-60.799115
 42
0.023069
 10
30.718408
 20
-61.086217
 42
0.023681
 10
30.36542
 20
-61.407693
 42
0.024326
 10
30.044844
 20
-61.761546
 42
0.024981
 10
29.760643
 20
-62.145257
 42
0.025619
 10
29.516652
 20
-62.555721
 42
0.026205
 10
29.316438
 20
-62.989216
 42
0.026708
 10
29.163144
 20
-63.441409
 42
0.027095
 10
29.059315
 20
-63.907402
 42
0.027337
 10
29.006743
 20
-64.381849
  0
LWPOLYLINE
  5
EE
100
AcDbEntity
  8
0
  6
CONTINUOUS
 62
     7
100
AcDbPolyline
 90
       17
 70
     0
 43
0.0
 10
34.25
 20
-61.872768
 42
0.048369
 10
33.629362
 20
-61.93294
 42
0.048521
 10
33.031303
 20
-62.111574
 42
0.048718
 10
32.478968
 20
-62.402335
 42
0.048977
 10
31.993503
 20
-62.794738
 42
0.04927
 10
31.593819
 20
-63.27442
 42
0.049546
 10
31.295948
 20
-63.823322
 42
0.049752
 10
31.112134
 20
-64.420199
 42
0.049862
 10
31.049999
 20
-65.041626
 42
0.049751
 10
31.11186
 20
-65.661697
 42
0.049704
 10
31.295181
 20
-66.258105
 42
0.04952
 10
31.592521
 20
-66.80692
 42
0.049258
 10
31.991732
 20
-67.28677
 42
0.048988
 10
32.476994
 20
-67.67962
 42
0.048744
 10
33.029413
 20
-67.970909
 42
0.048553
 10
33.627752
 20
-68.15
 42
0.048496
 10
34.25
 20
-68.210487
  0
LWPOLYLINE
  5
101
100
AcDbEntity
  8
0
  6
CONTINUOUS
 62
     7
100
AcDbPolyline
 90
       17
 70
     0
 43
0.0
 10
34.25
 20
-62.497677
 42
0.019889
 10
33.96534
 20
-62.509001
 42
0.020023
 10
33.681952
 20
-62.543042
 42
0.020194
 10
33.402511
 20
-62.599672
 42
0.020481
 10
33.128611
 20
-62.678809
 42
0.020864
 10
32.862178
 20
-62.780289
 42
0.02134
 10
32.605233
 20
-62.903868
 42
0.021904
 10
32.359898
 20
-63.049183
 42
0.022549
 10
32.128407
 20
-63.215716
 42
0.023261
 10
31.913097
 20
-63.40274
 42
0.024024
 10
31.71639
 20
-63.609271
 42
0.024812
 10
31.540746
 20
-63.834006
 42
0.025592
 10
31.388606
 20
-64.075278
 42
0.026327
 10
31.262295
 20
-64.331011
 42
0.026973
 10
31.163918
 20
-64.598714
 42
0.027486
 10
31.095235
 20
-64.875494
 42
0.027826
 10
31.057538
 20
-65.158122
  0
LWPOLYLINE
  5
114
100
AcDbEntity
  8
0
  6
CONTINUOUS
 62
     7
100
AcDbPolyline
 90
       17
 70
     0
 43
0.0
 10
37.75
 20
-61.872768
 42
-0.048369
 10
38.370638
 20
-61.93294
 42
-0.048521
 10
38.968697
 20
-62.111574
 42
-0.048718
 10
39.521032
 20
-62.402335
 42
-0.048977
 10
40.006497
 20
-62.794738
 42
-0.04927
 10
40.406181
 20
-63.27442
 42
-0.049546
 10
40.704052
 20
-63.823322
 42
-0.049752
 10
40.887866
 20
-64.420199
 42
-0.049862
 10
40.950001
 20
-65.041626
 42
-0.049751
 10
40.88814
 20
-65.661697
 42
-0.049704
 10
40.704819
 20
-66.258105
 42
-0.04952
 10
40.407479
 20
-66.80692
 42
-0.049258
 10
40.008268
 20
-67.28677
 42
-0.048988
 10
39.523006
 20
-67.67962
 42
-0.048744
 10
38.970587
 20
-67.970909
 42
-0.048553
 10
38.372248
 20
-68.15
 42
-0.048496
 10
37.75
 20
-68.210487
  0
LWPOLYLINE
  5
127
100
AcDbEntity
  8
0
  6
CONTINUOUS
 62
     7
100
AcDbPolyline
 90
       17
 70
     0
 43
0.0
 10
37.75
 20
-62.497677
 42
-0.019889
 10
38.03466
 20
-62.509001
 42
-0.020023
 10
38.318048
 20
-62.543042
 42
-0.020194
 10
38.597489
 20
-62.599672
 42
-0.020481
 10
38.871389
 20
-62.678809
 42
-0.020864
 10
39.137822
 20
-62.780289
 42
-0.02134
 10
39.394767
 20
-62.903868
 42
-0.021904
 10
39.640102
 20
-63.049183
 42
-0.022549
 10
39.871593
 20
-63.215716
 42
-0.023261
 10
40.086903
 20
-63.40274
 42
-0.024024
 10
40.28361
 20
-63.609271
 42
-0.024812
 10
40.459254
 20
-63.834006
 42
-0.025592
 10
40.611394
 20
-64.075278
 42
-0.026327
 10
40.737705
 20
-64.331011
 42
-0.026973
 10
40.836082
 20
-64.598714
 42
-0.027486
 10
40.904765
 20
-64.875494
 42
-0.027826
 10
40.942462
 20
-65.158122
  0
LWPOLYLINE
  5
13A
100
AcDbEntity
  8
0
  6
CONTINUOUS
 62
     7
100
AcDbPolyline
 90
       17
 70
     0
 43
0.0
 10
37.75
 20
-59.84272
 42
-0.020693
 10
38.226235
 20
-59.862433
 42
-0.02081
 10
38.699867
 20
-59.921629
 42
-0.020986
 10
39.166941
 20
-60.020156
 42
-0.021244
 10
39.624006
 20
-60.157707
 42
-0.021587
 10
40.067626
 20
-60.333842
 42
-0.02201
 10
40.494245
 20
-60.547934
 42
-0.022507
 10
40.900173
 20
-60.799115
 42
-0.023069
 10
41.281592
 20
-61.086217
 42
-0.023681
 10
41.63458
 20
-61.407693
 42
-0.024326
 10
41.955156
 20
-61.761546
 42
-0.024981
 10
42.239357
 20
-62.145257
 42
-0.025619
 10
42.483348
 20
-62.555721
 42
-0.026205
 10
42.683562
 20
-62.989216
 42
-0.026708
 10
42.836856
 20
-63.441409
 42
-0.027095
 10
42.940685
 20
-63.907402
 42
-0.027337
 10
42.993257
 20
-64.381849
  0
LWPOLYLINE
  5
14D
100
AcDbEntity
  8
0
  6
CONTINUOUS
 62
     7
100
AcDbPolyline
 90
       17
 70
     0
 43
0.0
 10
37.75
 20
-59.007683
 42
-0.048416
 10
38.769217
 20
-59.106595
 42
-0.048522
 10
39.750352
 20
-59.399852
 42
-0.048718
 10
40.656437
 20
-59.877054
 42
-0.048977
 10
41.452779
 20
-60.520992
 42
-0.049271
 10
42.108359
 20
-61.308096
 42
-0.049546
 10
42.596879
 20
-62.208733
 42
-0.049752
 10
42.898259
 20
-63.188042
 42
-0.049813
 10
43.0
 20
-64.206589
 42
-0.049822
 10
42.898223
 20
-65.225316
 42
-0.049704
 10
42.597186
 20
-66.203714
 42
-0.04952
 10
42.109109
 20
-67.103977
 42
-0.049257
 10
41.453934
 20
-67.891047
 42
-0.048988
 10
40.657621
 20
-68.535344
 42
-0.048743
 10
39.751177
 20
-69.012989
 42
-0.048553
 10
38.769446
 20
-69.306538
 42
-0.048427
 10
37.75
 20
-69.405495
  0
LWPOLYLINE
  5
160
100
AcDbEntity
  8
0
  6
CONTINUOUS
 62
     7
100
AcDbPolyline
 90
       16
 70
     1
 43
0.0
 10
43.0
 20
-5.833412
 42
0.125503
 10
41.332598
 20
-5.360082
 42
0.014682
 10
39.559904
 20
-5.204294
 42
0.008453
 10
37.781611
 20
-5.126815
 42
0.006836
 10
36.0
 20
-5.102753
 42
0.006828
 10
34.220156
 20
-5.126766
 42
0.008453
 10
32.441299
 20
-5.20422
 42
0.014684
 10
30.667733
 20
-5.360042
 42
0.125607
 10
29.0
 20
-5.833412
 42
0.125503
 10
30.667402
 20
-6.306742
 42
0.014682
 10
32.440096
 20
-6.46253
 42
0.008453
 10
34.218389
 20
-6.540009
 42
0.006836
 10
36.0
 20
-6.564071
 42
0.006828
 10
37.779844
 20
-6.540058
 42
0.008453
 10
39.558701
 20
-6.462604
 42
0.014684
 10
41.332267
 20
-6.306783
 42
0.125607
  0
LINE
  5
172
100
AcDbEntity
  8
0
  6
CONTINUOUS
 62
     7
100
AcDbLine
 10
101.22634
 20
-71.640921
 30
0.0
 11
103.72691
 21
-69.140346
 31
0.0
  0
LINE
  5
173
100
AcDbEntity
  8
0
  6
CONTINUOUS
 62
     7
100
AcDbLine
 10
98.961509
 20
-71.660686
 30
0.0
 11
101.91611
 21
-68.706082
 31
0.0
  0
LINE
  5
174
100
AcDbEntity
  8
0
  6
CONTINUOUS
 62
     7
100
AcDbLine
 10
96.696681
 20
-71.680452
 30
0.0
 11
99.947687
 21
-68.42944
 31
0.0
  0
LINE
  5
175
100
AcDbEntity
  8
0
  6
CONTINUOUS
 62
     7
100
AcDbLine
 10
94.431854
 20
-71.700218
 30
0.0
 11
96.164217
 21
-69.967851
 31
0.0
  0
LINE
  5
176
100
AcDbEntity
  8
0
  6
CONTINUOUS
 62
     7
100
AcDbLine
 10
92.177881
 20
-71.709129
 30
0.0
 11
94.195797
 21
-69.691208
 31
0.0
  0
LINE
  5
177
100
AcDbEntity
  8
0
  6
CONTINUOUS
 62
     7
100
AcDbLine
 10
92.150797
 20
-69.491147
 30
0.0
 11
92.227378
 21
-69.414566
 31
0.0
  0
LINE
  5
178
100
AcDbEntity
  8
0
  6
CONTINUOUS
 62
     7
100
AcDbLine
 10
103.64578
 20
-62.486275
 30
0.0
 11
103.72691
 21
-62.405147
 31
0.0
  0
LINE
  5
179
100
AcDbEntity
  8
0
  6
CONTINUOUS
 62
     7
100
AcDbLine
 10
101.67736
 20
-62.209632
 30
0.0
 11
103.72691
 21
-60.160081
 31
0.0
  0
LINE
  5
17A
100
AcDbEntity
  8
0
  6
CONTINUOUS
 62
     7
100
AcDbLine
 10
99.708941
 20
-61.932988
 30
0.0
 11
103.04614
 21
-58.59578
 31
0.0
  0
LINE
  5
17B
100
AcDbEntity
  8
0
  6
CONTINUOUS
 62
     7
100
AcDbLine
 10
99.555574
 20
-59.841289
 30
0.0
 11
101.12032
 21
-58.276539
 31
0.0
  0
LINE
  5
17C
100
AcDbEntity
  8
0
  6
CONTINUOUS
 62
     7
100
AcDbLine
 10
97.587155
 20
-59.564646
 30
0.0
 11
98.875259
 21
-58.276539
 31
0.0
  0
LINE
  5
17D
100
AcDbEntity
  8
0
  6
CONTINUOUS
 62
     7
100
AcDbLine
 10
95.618735
 20
-59.288003
 30
0.0
 11
96.630197
 21
-58.276539
 31
0.0
  0
LINE
  5
17E
100
AcDbEntity
  8
0
  6
CONTINUOUS
 62
     7
100
AcDbLine
 10
93.650316
 20
-59.01136
 30
0.0
 11
94.385135
 21
-58.276539
 31
0.0
  0
TEXT
  5
17F
100
AcDbEntity
  8
0
  6
CONTINUOUS
100
AcDbText
 10
5.955986
 20
-104.40689
 30
0.0
 40
6.0
  1
ＢＵ１３４ＥＲ
100
AcDbText
  0
ENDBLK
  5
181
100
AcDbEntity
  8
0
100
AcDbBlockEnd
  0
BLOCK
  5
2FE
100
AcDbEntity
  8
0
100
AcDbBlockBegin
  2
*D2
 70
     1
 10
0.0
 20
0.0
 30
0.0
  3
*D2
  1

  0
LINE
  5
2F3
100
AcDbEntity
  8
寸法
 62
     1
100
AcDbLine
 10
216.052651
 20
73.320008
 30
0.0
 11
221.0
 21
73.320008
 31
0.0
1001
ACAD
1000
RTLwPs
1070
   158
  0
LINE
  5
2F4
100
AcDbEntity
  8
寸法
 62
     1
100
AcDbLine
 10
214.976469
 20
67.340004
 30
0.0
 11
221.0
 21
67.340004
 31
0.0
1001
ACAD
1000
RTLwPs
1070
   158
  0
LINE
  5
2F5
100
AcDbEntity
  8
寸法
 62
     1
100
AcDbLine
 10
220.0
 20
75.320008
 30
0.0
 11
220.0
 21
77.320008
 31
0.0
1001
ACAD
1000
RTLwPs
1070
   158
  0
LINE
  5
2F6
100
AcDbEntity
  8
寸法
 62
     1
100
AcDbLine
 10
220.0
 20
65.340004
 30
0.0
 11
220.0
 21
52.340004
 31
0.0
1001
ACAD
1000
RTLwPs
1070
   158
  0
LINE
  5
2F7
100
AcDbEntity
  8
寸法
 62
     1
100
AcDbLine
 10
220.0
 20
73.320008
 30
0.0
 11
220.0
 21
67.340004
 31
0.0
1001
ACAD
1000
RTLwPs
1070
   158
  0
INSERT
  5
2F8
100
AcDbEntity
  8
寸法
 62
     1
100
AcDbBlockReference
  2
_OPEN30
 10
220.0
 20
73.320008
 30
0.0
 41
2.0
 42
2.0
 43
2.0
 50
270.0
1001
ACAD
1000
RTLwPs
1070
   158
  0
INSERT
  5
2F9
100
AcDbEntity
  8
寸法
 62
     1
100
AcDbBlockReference
  2
_OPEN30
 10
220.0
 20
67.340004
 30
0.0
 41
2.0
 42
2.0
 43
2.0
 50
90.0
1001
ACAD
1000
RTLwPs
1070
   158
  0
MTEXT
  5
2FA
100
AcDbEntity
  8
寸法
 62
     1
100
AcDbMText
 10
217.5
 20
57.840004
 30
0.0
 40
3.0
 41
0.0
 71
     5
 72
     1
  1
\A1;5.98
 11
0.0
 21
1.0
 31
0.0
1001
ACAD
1000
MTEXTBEGIN
1070
    73
1070
     1
1070
    44
1040
1.0
1070
    74
1070
     0
1000
MTEXTEND
1000
MTEXTBEGIN
1070
    73
1070
     1
1070
    44
1040
1.0
1070
    74
1070
     0
1000
MTEXTEND
  0
POINT
  5
2FB
100
AcDbEntity
  8
DEFPOINTS
 62
     0
100
AcDbPoint
 10
215.052651
 20
73.320008
 30
0.0
  0
POINT
  5
2FC
100
AcDbEntity
  8
DEFPOINTS
 62
     0
100
AcDbPoint
 10
213.976469
 20
67.340004
 30
0.0
  0
POINT
  5
2FD
100
AcDbEntity
  8
DEFPOINTS
 62
     0
100
AcDbPoint
 10
220.0
 20
67.340004
 30
0.0
  0
ENDBLK
  5
2FF
100
AcDbEntity
  8
0
100
AcDbBlockEnd
  0
BLOCK
  5
30D
100
AcDbEntity
  8
0
100
AcDbBlockBegin
  2
*D3
 70
     1
 10
0.0
 20
0.0
 30
0.0
  3
*D3
  1

  0
LINE
  5
302
100
AcDbEntity
  8
寸法
 62
     1
100
AcDbLine
 10
149.075741
 20
61.496055
 30
0.0
 11
149.075741
 21
49.0
 31
0.0
1001
ACAD
1000
RTLwPs
1070
   158
  0
LINE
  5
303
100
AcDbEntity
  8
寸法
 62
     1
100
AcDbLine
 10
145.575741
 20
61.496055
 30
0.0
 11
145.575741
 21
49.0
 31
0.0
1001
ACAD
1000
RTLwPs
1070
   158
  0
LINE
  5
304
100
AcDbEntity
  8
寸法
 62
     1
100
AcDbLine
 10
151.075741
 20
50.0
 30
0.0
 11
153.075741
 21
50.0
 31
0.0
1001
ACAD
1000
RTLwPs
1070
   158
  0
LINE
  5
305
100
AcDbEntity
  8
寸法
 62
     1
100
AcDbLine
 10
143.575741
 20
50.0
 30
0.0
 11
133.575741
 21
50.0
 31
0.0
1001
ACAD
1000
RTLwPs
1070
   158
  0
LINE
  5
306
100
AcDbEntity
  8
寸法
 62
     1
100
AcDbLine
 10
149.075741
 20
50.0
 30
0.0
 11
145.575741
 21
50.0
 31
0.0
1001
ACAD
1000
RTLwPs
1070
   158
  0
INSERT
  5
307
100
AcDbEntity
  8
寸法
 62
     1
100
AcDbBlockReference
  2
_OPEN30
 10
149.075741
 20
50.0
 30
0.0
 41
2.0
 42
2.0
 43
2.0
 50
180.0
1001
ACAD
1000
RTLwPs
1070
   158
  0
INSERT
  5
308
100
AcDbEntity
  8
寸法
 62
     1
100
AcDbBlockReference
  2
_OPEN30
 10
145.575741
 20
50.0
 30
0.0
 41
2.0
 42
2.0
 43
2.0
1001
ACAD
1000
RTLwPs
1070
   158
  0
MTEXT
  5
309
100
AcDbEntity
  8
寸法
 62
     1
100
AcDbMText
 10
137.575741
 20
52.5
 30
0.0
 40
3.0
 41
0.0
 71
     5
 72
     1
  1
\A1;3.5
1001
ACAD
1000
MTEXTBEGIN
1070
    73
1070
     1
1070
    44
1040
1.0
1070
    74
1070
     0
1000
MTEXTEND
1000
MTEXTBEGIN
1070
    73
1070
     1
1070
    44
1040
1.0
1070
    74
1070
     0
1000
MTEXTEND
  0
POINT
  5
30A
100
AcDbEntity
  8
DEFPOINTS
 62
     0
100
AcDbPoint
 10
149.075741
 20
62.496055
 30
0.0
  0
POINT
  5
30B
100
AcDbEntity
  8
DEFPOINTS
 62
     0
100
AcDbPoint
 10
145.575741
 20
62.496055
 30
0.0
  0
POINT
  5
30C
100
AcDbEntity
  8
DEFPOINTS
 62
     0
100
AcDbPoint
 10
145.575741
 20
50.0
 30
0.0
  0
ENDBLK
  5
30E
100
AcDbEntity
  8
0
100
AcDbBlockEnd
  0
BLOCK
  5
31A
100
AcDbEntity
  8
0
100
AcDbBlockBegin
  2
*D4
 70
     1
 10
0.0
 20
0.0
 30
0.0
  3
*D4
  1

  0
LINE
  5
311
100
AcDbEntity
  8
寸法
 62
     1
100
AcDbLine
 10
167.325745
 20
76.840004
 30
0.0
 11
167.325745
 21
91.0
 31
0.0
1001
ACAD
1000
RTLwPs
1070
   158
  0
LINE
  5
312
100
AcDbEntity
  8
寸法
 62
     1
100
AcDbLine
 10
147.325741
 20
86.553379
 30
0.0
 11
147.325741
 21
91.0
 31
0.0
1001
ACAD
1000
RTLwPs
1070
   158
  0
LINE
  5
313
100
AcDbEntity
  8
寸法
 62
     1
100
AcDbLine
 10
165.325745
 20
90.0
 30
0.0
 11
149.325741
 21
90.0
 31
0.0
1001
ACAD
1000
RTLwPs
1070
   158
  0
INSERT
  5
314
100
AcDbEntity
  8
寸法
 62
     1
100
AcDbBlockReference
  2
_OPEN30
 10
167.325745
 20
90.0
 30
0.0
 41
2.0
 42
2.0
 43
2.0
1001
ACAD
1000
RTLwPs
1070
   158
  0
INSERT
  5
315
100
AcDbEntity
  8
寸法
 62
     1
100
AcDbBlockReference
  2
_OPEN30
 10
147.325741
 20
90.0
 30
0.0
 41
2.0
 42
2.0
 43
2.0
 50
180.0
1001
ACAD
1000
RTLwPs
1070
   158
  0
MTEXT
  5
316
100
AcDbEntity
  8
寸法
 62
     1
100
AcDbMText
 10
157.325743
 20
92.5
 30
0.0
 40
3.0
 41
0.0
 71
     5
 72
     1
  1
\A1;20
1001
ACAD
1000
MTEXTBEGIN
1070
    73
1070
     1
1070
    44
1040
1.0
1070
    74
1070
     0
1000
MTEXTEND
1000
MTEXTBEGIN
1070
    73
1070
     1
1070
    44
1040
1.0
1070
    74
1070
     0
1000
MTEXTEND
  0
POINT
  5
317
100
AcDbEntity
  8
DEFPOINTS
 62
     0
100
AcDbPoint
 10
167.325745
 20
75.840004
 30
0.0
  0
POINT
  5
318
100
AcDbEntity
  8
DEFPOINTS
 62
     0
100
AcDbPoint
 10
147.325741
 20
85.553379
 30
0.0
  0
POINT
  5
319
100
AcDbEntity
  8
DEFPOINTS
 62
     0
100
AcDbPoint
 10
147.325741
 20
90.0
 30
0.0
  0
ENDBLK
  5
31B
100
AcDbEntity
  8
0
100
AcDbBlockEnd
  0
BLOCK
  5
327
100
AcDbEntity
  8
0
100
AcDbBlockBegin
  2
*D5
 70
     1
 10
0.0
 20
0.0
 30
0.0
  3
*D5
  1

  0
LINE
  5
31E
100
AcDbEntity
  8
寸法
 62
     1
100
AcDbLine
 10
110.325741
 20
79.340004
 30
0.0
 11
99.0
 21
79.340004
 31
0.0
1001
ACAD
1000
RTLwPs
1070
   158
  0
LINE
  5
31F
100
AcDbEntity
  8
寸法
 62
     1
100
AcDbLine
 10
111.586992
 20
67.340004
 30
0.0
 11
99.0
 21
67.340004
 31
0.0
1001
ACAD
1000
RTLwPs
1070
   158
  0
LINE
  5
320
100
AcDbEntity
  8
寸法
 62
     1
100
AcDbLine
 10
100.0
 20
77.340004
 30
0.0
 11
100.0
 21
69.340004
 31
0.0
1001
ACAD
1000
RTLwPs
1070
   158
  0
INSERT
  5
321
100
AcDbEntity
  8
寸法
 62
     1
100
AcDbBlockReference
  2
_OPEN30
 10
100.0
 20
79.340004
 30
0.0
 41
2.0
 42
2.0
 43
2.0
 50
90.0
1001
ACAD
1000
RTLwPs
1070
   158
  0
INSERT
  5
322
100
AcDbEntity
  8
寸法
 62
     1
100
AcDbBlockReference
  2
_OPEN30
 10
100.0
 20
67.340004
 30
0.0
 41
2.0
 42
2.0
 43
2.0
 50
270.0
1001
ACAD
1000
RTLwPs
1070
   158
  0
MTEXT
  5
323
100
AcDbEntity
  8
寸法
 62
     1
100
AcDbMText
 10
97.5
 20
73.340004
 30
0.0
 40
3.0
 41
0.0
 71
     5
 72
     1
  1
\A1;12
 11
0.0
 21
1.0
 31
0.0
1001
ACAD
1000
MTEXTBEGIN
1070
    73
1070
     1
1070
    44
1040
1.0
1070
    74
1070
     0
1000
MTEXTEND
1000
MTEXTBEGIN
1070
    73
1070
     1
1070
    44
1040
1.0
1070
    74
1070
     0
1000
MTEXTEND
  0
POINT
  5
324
100
AcDbEntity
  8
DEFPOINTS
 62
     0
100
AcDbPoint
 10
111.325741
 20
79.340004
 30
0.0
  0
POINT
  5
325
100
AcDbEntity
  8
DEFPOINTS
 62
     0
100
AcDbPoint
 10
112.586992
 20
67.340004
 30
0.0
  0
POINT
  5
326
100
AcDbEntity
  8
DEFPOINTS
 62
     0
100
AcDbPoint
 10
100.0
 20
67.340004
 30
0.0
  0
ENDBLK
  5
328
100
AcDbEntity
  8
0
100
AcDbBlockEnd
  0
BLOCK
  5
33C
100
AcDbEntity
  8
0
100
AcDbBlockBegin
  2
*D6
 70
     1
 10
0.0
 20
0.0
 30
0.0
  3
*D6
  1

  0
LINE
  5
460
100
AcDbEntity
  8
寸法
 62
     1
100
AcDbLine
 10
121.742935
 20
80.840004
 30
0.0
 11
88.884961
 21
80.840004
 31
0.0
  0
LINE
  5
461
100
AcDbEntity
  8
寸法
 62
     1
100
AcDbLine
 10
110.331219
 20
79.535474
 30
0.0
 11
89.070441
 21
77.300866
 31
0.0
  0
ARC
  5
462
100
AcDbEntity
  8
寸法
 62
     1
100
AcDbCircle
 10
122.742935
 20
80.840004
 30
0.0
 40
32.857974
100
AcDbArc
 50
173.020724
 51
180.0
  0
LINE
  5
463
100
AcDbEntity
  8
寸法
 62
     1
100
AcDbLine
 10
90.128434
 20
84.832587
 30
0.0
 11
91.173422
 21
93.368863
 31
0.0
  0
ARC
  5
464
100
AcDbEntity
  8
寸法
 62
     1
100
AcDbCircle
 10
122.742935
 20
80.840004
 30
0.0
 40
32.857974
100
AcDbArc
 50
173.023961
 51
176.51198
  0
ARC
  5
465
100
AcDbEntity
  8
寸法
 62
     1
100
AcDbCircle
 10
122.742935
 20
80.840004
 30
0.0
 40
32.857974
100
AcDbArc
 50
189.488047
 51
192.976066
  0
ARC
  5
466
100
AcDbEntity
  8
寸法
 62
     1
100
AcDbCircle
 10
122.742935
 20
80.840004
 30
0.0
 40
32.857974
100
AcDbArc
 50
180.0
 51
186.000027
  0
INSERT
  5
467
100
AcDbEntity
  8
寸法
 62
     1
100
AcDbBlockReference
  2
_OPEN30
 10
89.884961
 20
80.840004
 30
0.0
 41
2.0
 42
2.0
 43
2.0
 50
268.25599
  0
INSERT
  5
468
100
AcDbEntity
  8
寸法
 62
     1
100
AcDbBlockReference
  2
_OPEN30
 10
90.064963
 20
77.405395
 30
0.0
 41
2.0
 42
2.0
 43
2.0
 50
97.744037
  0
MTEXT
  5
469
100
AcDbEntity
  8
寸法
 62
     1
100
AcDbMText
 10
93.132403
 20
88.796949
 30
0.0
 40
3.0
 41
0.0
 71
     5
 72
     1
  1
\A1;6°
 11
-0.12151
 21
-0.99259
 31
0.0
  0
POINT
  5
46A
100
AcDbEntity
  8
DEFPOINTS
 62
     0
100
AcDbPoint
 10
89.965003
 20
78.547937
 30
0.0
  0
POINT
  5
46B
100
AcDbEntity
  8
DEFPOINTS
 62
     0
100
AcDbPoint
 10
122.742978
 20
80.840004
 30
0.0
  0
POINT
  5
46C
100
AcDbEntity
  8
DEFPOINTS
 62
     0
100
AcDbPoint
 10
111.325741
 20
79.640003
 30
0.0
  0
POINT
  5
46D
100
AcDbEntity
  8
DEFPOINTS
 62
     0
100
AcDbPoint
 10
116.090741
 20
80.140827
 30
0.0
  0
POINT
  5
46E
100
AcDbEntity
  8
DEFPOINTS
 62
     0
100
AcDbPoint
 10
159.325741
 20
80.840004
 30
0.0
  0
ENDBLK
  5
33D
100
AcDbEntity
  8
0
100
AcDbBlockEnd
  0
BLOCK
  5
34A
100
AcDbEntity
  8
0
100
AcDbBlockBegin
  2
*D7
 70
     1
 10
0.0
 20
0.0
 30
0.0
  3
*D7
  1

  0
LINE
  5
341
100
AcDbEntity
  8
寸法
 62
     1
100
AcDbLine
 10
160.325741
 20
80.840004
 30
0.0
 11
181.0
 21
80.840004
 31
0.0
1001
ACAD
1000
RTLwPs
1070
   158
  0
LINE
  5
342
100
AcDbEntity
  8
寸法
 62
     1
100
AcDbLine
 10
160.325741
 20
67.340004
 30
0.0
 11
181.0
 21
67.340004
 31
0.0
1001
ACAD
1000
RTLwPs
1070
   158
  0
LINE
  5
343
100
AcDbEntity
  8
寸法
 62
     1
100
AcDbLine
 10
180.0
 20
78.840004
 30
0.0
 11
180.0
 21
69.340004
 31
0.0
1001
ACAD
1000
RTLwPs
1070
   158
  0
INSERT
  5
344
100
AcDbEntity
  8
寸法
 62
     1
100
AcDbBlockReference
  2
_OPEN30
 10
180.0
 20
80.840004
 30
0.0
 41
2.0
 42
2.0
 43
2.0
 50
90.0
1001
ACAD
1000
RTLwPs
1070
   158
  0
INSERT
  5
345
100
AcDbEntity
  8
寸法
 62
     1
100
AcDbBlockReference
  2
_OPEN30
 10
180.0
 20
67.340004
 30
0.0
 41
2.0
 42
2.0
 43
2.0
 50
270.0
1001
ACAD
1000
RTLwPs
1070
   158
  0
MTEXT
  5
346
100
AcDbEntity
  8
寸法
 62
     1
100
AcDbMText
 10
177.5
 20
74.090004
 30
0.0
 40
3.0
 41
0.0
 71
     5
 72
     1
  1
\A1;13.5
 11
0.0
 21
1.0
 31
0.0
1001
ACAD
1000
MTEXTBEGIN
1070
    73
1070
     1
1070
    44
1040
1.0
1070
    74
1070
     0
1000
MTEXTEND
1000
MTEXTBEGIN
1070
    73
1070
     1
1070
    44
1040
1.0
1070
    74
1070
     0
1000
MTEXTEND
  0
POINT
  5
347
100
AcDbEntity
  8
DEFPOINTS
 62
     0
100
AcDbPoint
 10
159.325741
 20
80.840004
 30
0.0
  0
POINT
  5
348
100
AcDbEntity
  8
DEFPOINTS
 62
     0
100
AcDbPoint
 10
159.325741
 20
67.340004
 30
0.0
  0
POINT
  5
349
100
AcDbEntity
  8
DEFPOINTS
 62
     0
100
AcDbPoint
 10
180.0
 20
67.340004
 30
0.0
  0
ENDBLK
  5
34B
100
AcDbEntity
  8
0
100
AcDbBlockEnd
  0
BLOCK
  5
357
100
AcDbEntity
  8
0
100
AcDbBlockBegin
  2
*D8
 70
     1
 10
0.0
 20
0.0
 30
0.0
  3
*D8
  1

  0
LINE
  5
34E
100
AcDbEntity
  8
寸法
 62
     1
100
AcDbLine
 10
167.325741
 20
135.049133
 30
0.0
 11
167.325741
 21
109.0
 31
0.0
1001
ACAD
1000
RTLwPs
1070
   158
  0
LINE
  5
34F
100
AcDbEntity
  8
寸法
 62
     1
100
AcDbLine
 10
111.325741
 20
138.049133
 30
0.0
 11
111.325741
 21
109.0
 31
0.0
1001
ACAD
1000
RTLwPs
1070
   158
  0
LINE
  5
350
100
AcDbEntity
  8
寸法
 62
     1
100
AcDbLine
 10
165.325741
 20
110.0
 30
0.0
 11
113.325741
 21
110.0
 31
0.0
1001
ACAD
1000
RTLwPs
1070
   158
  0
INSERT
  5
351
100
AcDbEntity
  8
寸法
 62
     1
100
AcDbBlockReference
  2
_OPEN30
 10
167.325741
 20
110.0
 30
0.0
 41
2.0
 42
2.0
 43
2.0
1001
ACAD
1000
RTLwPs
1070
   158
  0
INSERT
  5
352
100
AcDbEntity
  8
寸法
 62
     1
100
AcDbBlockReference
  2
_OPEN30
 10
111.325741
 20
110.0
 30
0.0
 41
2.0
 42
2.0
 43
2.0
 50
180.0
1001
ACAD
1000
RTLwPs
1070
   158
  0
MTEXT
  5
353
100
AcDbEntity
  8
寸法
 62
     1
100
AcDbMText
 10
139.325741
 20
112.5
 30
0.0
 40
3.0
 41
0.0
 71
     5
 72
     1
  1
\A1;56
1001
ACAD
1000
MTEXTBEGIN
1070
    73
1070
     1
1070
    44
1040
1.0
1070
    74
1070
     0
1000
MTEXTEND
1000
MTEXTBEGIN
1070
    73
1070
     1
1070
    44
1040
1.0
1070
    74
1070
     0
1000
MTEXTEND
  0
POINT
  5
354
100
AcDbEntity
  8
DEFPOINTS
 62
     0
100
AcDbPoint
 10
167.325741
 20
136.049133
 30
0.0
  0
POINT
  5
355
100
AcDbEntity
  8
DEFPOINTS
 62
     0
100
AcDbPoint
 10
111.325741
 20
139.049133
 30
0.0
  0
POINT
  5
356
100
AcDbEntity
  8
DEFPOINTS
 62
     0
100
AcDbPoint
 10
111.325741
 20
110.0
 30
0.0
  0
ENDBLK
  5
358
100
AcDbEntity
  8
0
100
AcDbBlockEnd
  0
BLOCK
  5
364
100
AcDbEntity
  8
0
100
AcDbBlockBegin
  2
*D9
 70
     1
 10
0.0
 20
0.0
 30
0.0
  3
*D9
  1

  0
LINE
  5
46F
100
AcDbEntity
  8
寸法
 62
     1
100
AcDbLine
 10
167.325741
 20
135.049133
 30
0.0
 11
167.325741
 21
119.0
 31
0.0
  0
LINE
  5
470
100
AcDbEntity
  8
寸法
 62
     1
100
AcDbLine
 10
159.325741
 20
131.181266
 30
0.0
 11
159.325741
 21
119.0
 31
0.0
  0
LINE
  5
471
100
AcDbEntity
  8
寸法
 62
     1
100
AcDbLine
 10
165.325741
 20
120.0
 30
0.0
 11
161.325741
 21
120.0
 31
0.0
  0
INSERT
  5
472
100
AcDbEntity
  8
寸法
 62
     1
100
AcDbBlockReference
  2
_OPEN30
 10
167.325741
 20
120.0
 30
0.0
 41
2.0
 42
2.0
 43
2.0
  0
INSERT
  5
473
100
AcDbEntity
  8
寸法
 62
     1
100
AcDbBlockReference
  2
_OPEN30
 10
159.325741
 20
120.0
 30
0.0
 41
2.0
 42
2.0
 43
2.0
 50
180.0
  0
MTEXT
  5
474
100
AcDbEntity
  8
寸法
 62
     1
100
AcDbMText
 10
163.325741
 20
122.5
 30
0.0
 40
3.0
 41
0.0
 71
     5
 72
     1
  1
\A1;8
  0
POINT
  5
475
100
AcDbEntity
  8
DEFPOINTS
 62
     0
100
AcDbPoint
 10
167.325741
 20
136.049133
 30
0.0
  0
POINT
  5
476
100
AcDbEntity
  8
DEFPOINTS
 62
     0
100
AcDbPoint
 10
159.325741
 20
132.181266
 30
0.0
  0
POINT
  5
477
100
AcDbEntity
  8
DEFPOINTS
 62
     0
100
AcDbPoint
 10
159.325741
 20
120.0
 30
0.0
  0
ENDBLK
  5
365
100
AcDbEntity
  8
0
100
AcDbBlockEnd
  0
BLOCK
  5
37A
100
AcDbEntity
  8
0
100
AcDbBlockBegin
  2
*D10
 70
     1
 10
0.0
 20
0.0
 30
0.0
  3
*D10
  1

  0
LINE
  5
371
100
AcDbEntity
  8
寸法
 62
     1
100
AcDbLine
 10
115.521893
 20
130.049133
 30
0.0
 11
99.0
 21
130.049133
 31
0.0
1001
ACAD
1000
RTLwPs
1070
   158
  0
LINE
  5
372
100
AcDbEntity
  8
寸法
 62
     1
100
AcDbLine
 10
118.985995
 20
144.049133
 30
0.0
 11
99.0
 21
144.049133
 31
0.0
1001
ACAD
1000
RTLwPs
1070
   158
  0
LINE
  5
373
100
AcDbEntity
  8
寸法
 62
     1
100
AcDbLine
 10
100.0
 20
132.049133
 30
0.0
 11
100.0
 21
142.049133
 31
0.0
1001
ACAD
1000
RTLwPs
1070
   158
  0
INSERT
  5
374
100
AcDbEntity
  8
寸法
 62
     1
100
AcDbBlockReference
  2
_OPEN30
 10
100.0
 20
130.049133
 30
0.0
 41
2.0
 42
2.0
 43
2.0
 50
270.0
1001
ACAD
1000
RTLwPs
1070
   158
  0
INSERT
  5
375
100
AcDbEntity
  8
寸法
 62
     1
100
AcDbBlockReference
  2
_OPEN30
 10
100.0
 20
144.049133
 30
0.0
 41
2.0
 42
2.0
 43
2.0
 50
90.0
1001
ACAD
1000
RTLwPs
1070
   158
  0
MTEXT
  5
376
100
AcDbEntity
  8
寸法
 62
     1
100
AcDbMText
 10
97.5
 20
137.049133
 30
0.0
 40
3.0
 41
0.0
 71
     5
 72
     1
  1
\A1;14
 11
0.0
 21
1.0
 31
0.0
1001
ACAD
1000
MTEXTBEGIN
1070
    73
1070
     1
1070
    44
1040
1.0
1070
    74
1070
     0
1000
MTEXTEND
1000
MTEXTBEGIN
1070
    73
1070
     1
1070
    44
1040
1.0
1070
    74
1070
     0
1000
MTEXTEND
  0
POINT
  5
377
100
AcDbEntity
  8
DEFPOINTS
 62
     0
100
AcDbPoint
 10
116.521893
 20
130.049133
 30
0.0
  0
POINT
  5
378
100
AcDbEntity
  8
DEFPOINTS
 62
     0
100
AcDbPoint
 10
119.985995
 20
144.049133
 30
0.0
  0
POINT
  5
379
100
AcDbEntity
  8
DEFPOINTS
 62
     0
100
AcDbPoint
 10
100.0
 20
144.049133
 30
0.0
  0
ENDBLK
  5
37B
100
AcDbEntity
  8
0
100
AcDbBlockEnd
  0
BLOCK
  5
3D5
100
AcDbEntity
  8
0
100
AcDbBlockBegin
  2
*D11
 70
     1
 10
0.0
 20
0.0
 30
0.0
  3
*D11
  1

  0
LINE
  5
478
100
AcDbEntity
  8
寸法
 62
     1
100
AcDbLine
 10
120.85202
 20
144.549133
 30
0.0
 11
132.709915
 21
151.395292
 31
0.0
  0
ARC
  5
479
100
AcDbEntity
  8
寸法
 62
     1
100
AcDbCircle
 10
119.985994
 20
144.049133
 30
0.0
 40
13.692318
100
AcDbArc
 50
8.376498
 51
21.623503
  0
INSERT
  5
47A
100
AcDbEntity
  8
寸法
 62
     1
100
AcDbBlockReference
  2
_OPEN30
 10
133.678312
 20
144.049133
 30
0.0
 41
2.0
 42
2.0
 43
2.0
 50
274.188249
  0
INSERT
  5
47B
100
AcDbEntity
  8
寸法
 62
     1
100
AcDbBlockReference
  2
_OPEN30
 10
131.843889
 20
150.895292
 30
0.0
 41
2.0
 42
2.0
 43
2.0
 50
115.811752
  0
MTEXT
  5
47C
100
AcDbEntity
  8
寸法
 62
     1
100
AcDbMText
 10
135.951704
 20
146.748628
 30
0.0
 40
3.0
 41
0.0
 71
     5
 72
     1
  1
\A1;30°
 11
0.166715
 21
-0.986005
 31
0.0
  0
POINT
  5
47D
100
AcDbEntity
  8
DEFPOINTS
 62
     0
100
AcDbPoint
 10
132.852564
 20
148.732181
 30
0.0
  0
POINT
  5
47E
100
AcDbEntity
  8
DEFPOINTS
 62
     0
100
AcDbPoint
 10
111.325741
 20
139.049133
 30
0.0
  0
POINT
  5
47F
100
AcDbEntity
  8
DEFPOINTS
 62
     0
100
AcDbPoint
 10
119.985995
 20
144.049133
 30
0.0
  0
POINT
  5
480
100
AcDbEntity
  8
DEFPOINTS
 62
     0
100
AcDbPoint
 10
159.325741
 20
144.049133
 30
0.0
  0
POINT
  5
481
100
AcDbEntity
  8
DEFPOINTS
 62
     0
100
AcDbPoint
 10
119.985994
 20
144.049133
 30
0.0
  0
ENDBLK
  5
3D6
100
AcDbEntity
  8
0
100
AcDbBlockEnd
  0
BLOCK
  5
415
100
AcDbEntity
  8
0
100
AcDbBlockBegin
  2
*D12
 70
     1
 10
0.0
 20
0.0
 30
0.0
  3
*D12
  1

  0
LINE
  5
417
100
AcDbEntity
  8
寸法
 62
     1
100
AcDbLine
 10
83.103301
 20
155.956596
 30
0.0
 11
72.879092
 21
150.692042
 31
0.0
1001
ACAD
1000
RTLwPs
1070
   158
  0
MTEXT
  5
418
100
AcDbEntity
  8
寸法
 62
     1
100
AcDbMText
 10
77.73579
 20
156.004761
 30
0.0
 40
3.0
 41
0.0
 71
     5
 72
     1
  1
\A1;%%c30
 11
0.889062
 21
0.457787
 31
0.0
1001
ACAD
1000
MTEXTBEGIN
1070
    73
1070
     1
1070
    44
1040
1.0
1070
    74
1070
     0
1000
MTEXTEND
  0
INSERT
  5
419
100
AcDbEntity
  8
寸法
 62
     1
100
AcDbBlockReference
  2
_OPEN30
 10
71.100968
 20
149.776467
 30
0.0
 41
2.0
 42
2.0
 43
2.0
 50
207.244421
1001
ACAD
1000
RTLwPs
1070
   158
  0
POINT
  5
41A
100
AcDbEntity
  8
DEFPOINTS
 62
     0
100
AcDbPoint
 10
71.100968
 20
149.776467
 30
0.0
  0
POINT
  5
41B
100
AcDbEntity
  8
DEFPOINTS
 62
     0
100
AcDbPoint
 10
84.436894
 20
156.643277
 30
0.0
  0
ENDBLK
  5
416
100
AcDbEntity
  8
0
100
AcDbBlockEnd
  0
BLOCK
  5
42D
100
AcDbEntity
  8
0
100
AcDbBlockBegin
  2
*D13
 70
     1
 10
0.0
 20
0.0
 30
0.0
  3
*D13
  1

  0
LINE
  5
482
100
AcDbEntity
  8
寸法
 62
     1
100
AcDbLine
 10
82.088387
 20
129.799716
 30
0.0
 11
81.144127
 21
119.006777
 31
0.0
  0
LINE
  5
483
100
AcDbEntity
  8
寸法
 62
     1
100
AcDbLine
 10
84.436894
 20
130.049133
 30
0.0
 11
84.436894
 21
118.863011
 31
0.0
  0
ARC
  5
484
100
AcDbEntity
  8
寸法
 62
     1
100
AcDbCircle
 10
84.436894
 20
156.643277
 30
0.0
 40
36.780266
100
AcDbArc
 50
258.765782
 51
265.0
  0
LINE
  5
485
100
AcDbEntity
  8
寸法
 62
     1
100
AcDbLine
 10
77.271356
 20
120.567759
 30
0.0
 11
68.836141
 21
122.243212
 31
0.0
  0
ARC
  5
486
100
AcDbEntity
  8
寸法
 62
     1
100
AcDbCircle
 10
84.436894
 20
156.643277
 30
0.0
 40
36.780266
100
AcDbArc
 50
258.768088
 51
261.884044
  0
ARC
  5
487
100
AcDbEntity
  8
寸法
 62
     1
100
AcDbCircle
 10
84.436894
 20
156.643277
 30
0.0
 40
36.780266
100
AcDbArc
 50
273.115956
 51
276.231912
  0
ARC
  5
488
100
AcDbEntity
  8
寸法
 62
     1
100
AcDbCircle
 10
84.436894
 20
156.643277
 30
0.0
 40
36.780266
100
AcDbArc
 50
265.0
 51
270.0
  0
INSERT
  5
489
100
AcDbEntity
  8
寸法
 62
     1
100
AcDbBlockReference
  2
_OPEN30
 10
81.231283
 20
120.002971
 30
0.0
 41
2.0
 42
2.0
 43
2.0
 50
353.442022
  0
INSERT
  5
48A
100
AcDbEntity
  8
寸法
 62
     1
100
AcDbBlockReference
  2
_OPEN30
 10
84.436894
 20
119.863011
 30
0.0
 41
2.0
 42
2.0
 43
2.0
 50
181.557978
  0
MTEXT
  5
48B
100
AcDbEntity
  8
寸法
 62
     1
100
AcDbMText
 10
73.540799
 20
123.857583
 30
0.0
 40
3.0
 41
0.0
 71
     5
 72
     1
  1
\A1;5°
 11
0.980839
 21
-0.19482
 31
0.0
  0
POINT
  5
48C
100
AcDbEntity
  8
DEFPOINTS
 62
     0
100
AcDbPoint
 10
83.36715
 20
119.878571
 30
0.0
  0
POINT
  5
48D
100
AcDbEntity
  8
DEFPOINTS
 62
     0
100
AcDbPoint
 10
84.436894
 20
143.049133
 30
0.0
  0
POINT
  5
48E
100
AcDbEntity
  8
DEFPOINTS
 62
     0
100
AcDbPoint
 10
82.175542
 20
130.79591
 30
0.0
  0
POINT
  5
48F
100
AcDbEntity
  8
DEFPOINTS
 62
     0
100
AcDbPoint
 10
84.436894
 20
156.643277
 30
0.0
  0
POINT
  5
490
100
AcDbEntity
  8
DEFPOINTS
 62
     0
100
AcDbPoint
 10
84.436894
 20
131.049133
 30
0.0
  0
ENDBLK
  5
42E
100
AcDbEntity
  8
0
100
AcDbBlockEnd
  0
BLOCK
  5
49C
100
AcDbEntity
  8
0
100
AcDbBlockBegin
  2
A$C776226A5
 70
     0
 10
0.0
 20
0.0
 30
0.0
  3
A$C776226A5
  1

  0
TEXT
  5
49B
100
AcDbEntity
  8
0
  6
CONTINUOUS
100
AcDbText
 10
0.0
 20
0.0
 30
0.0
 40
6.0
  1
本図は左勝手（Ｌ）を示す
100
AcDbText
  0
ENDBLK
  5
49D
100
AcDbEntity
  8
0
100
AcDbBlockEnd
  0
ENDSEC
  0
SECTION
  2
ENTITIES
  0
POINT
  5
188
100
AcDbEntity
  8
0
  6
CONTINUOUS
 62
     7
100
AcDbPoint
 10
111.325741
 20
79.340004
 30
0.0
  0
POINT
  5
189
100
AcDbEntity
  8
0
  6
CONTINUOUS
 62
     7
100
AcDbPoint
 10
111.325741
 20
139.049133
 30
0.0
  0
POINT
  5
18A
100
AcDbEntity
  8
0
  6
CONTINUOUS
 62
     7
100
AcDbPoint
 10
82.936894
 20
139.049133
 30
0.0
  0
POINT
  5
18B
100
AcDbEntity
  8
0
  6
CONTINUOUS
 62
     7
100
AcDbPoint
 10
203.236469
 20
67.340004
 30
0.0
  0
LINE
  5
18C
100
AcDbEntity
  8
0
  6
CONTINUOUS
 62
     7
100
AcDbLine
 10
167.325741
 20
75.840004
 30
0.0
 11
167.325741
 21
71.840004
 31
0.0
  0
LINE
  5
18D
100
AcDbEntity
  8
0
  6
CENTER
 62
     1
 48
0.5
100
AcDbLine
 10
155.313267
 20
73.840004
 30
0.0
 11
169.256417
 21
73.840004
 31
0.0
  0
LINE
  5
18E
100
AcDbEntity
  8
0
  6
CONTINUOUS
 62
     7
100
AcDbLine
 10
162.325741
 20
77.840004
 30
0.0
 11
162.325741
 21
69.840004
 31
0.0
  0
LINE
  5
18F
100
AcDbEntity
  8
0
  6
CONTINUOUS
 62
     7
100
AcDbLine
 10
159.325741
 20
71.340004
 30
0.0
 11
162.325741
 21
71.340004
 31
0.0
  0
LINE
  5
190
100
AcDbEntity
  8
0
  6
CONTINUOUS
 62
     7
100
AcDbLine
 10
159.325741
 20
76.340004
 30
0.0
 11
162.325741
 21
76.340004
 31
0.0
  0
LINE
  5
191
100
AcDbEntity
  8
0
  6
CONTINUOUS
 62
     7
100
AcDbLine
 10
164.825741
 20
78.340004
 30
0.0
 11
167.325745
 21
75.840004
 31
0.0
  0
LINE
  5
192
100
AcDbEntity
  8
0
  6
CONTINUOUS
 62
     7
100
AcDbLine
 10
164.825737
 20
69.340004
 30
0.0
 11
167.325737
 21
71.840004
 31
0.0
  0
LINE
  5
193
100
AcDbEntity
  8
0
  6
CONTINUOUS
 62
     7
100
AcDbLine
 10
162.825741
 20
69.340004
 30
0.0
 11
164.825741
 21
69.340004
 31
0.0
  0
LINE
  5
194
100
AcDbEntity
  8
0
  6
CONTINUOUS
 62
     7
100
AcDbLine
 10
162.825741
 20
78.340004
 30
0.0
 11
164.825741
 21
78.340004
 31
0.0
  0
LINE
  5
195
100
AcDbEntity
  8
0
  6
CONTINUOUS
 62
     7
100
AcDbLine
 10
162.825741
 20
78.339996
 30
0.0
 11
162.325745
 21
77.839996
 31
0.0
  0
LINE
  5
196
100
AcDbEntity
  8
0
  6
CONTINUOUS
 62
     7
100
AcDbLine
 10
162.325749
 20
69.840004
 30
0.0
 11
162.825741
 21
69.340004
 31
0.0
  0
LINE
  5
197
100
AcDbEntity
  8
0
  6
CONTINUOUS
 62
     7
100
AcDbLine
 10
162.825741
 20
78.340004
 30
0.0
 11
162.825741
 21
69.340004
 31
0.0
  0
LINE
  5
198
100
AcDbEntity
  8
0
  6
CONTINUOUS
 62
     7
100
AcDbLine
 10
164.825741
 20
78.340004
 30
0.0
 11
164.825741
 21
69.340004
 31
0.0
  0
LINE
  5
199
100
AcDbEntity
  8
0
  6
CONTINUOUS
 62
     7
100
AcDbLine
 10
159.325741
 20
71.840004
 30
0.0
 11
162.325741
 21
71.840004
 31
0.0
  0
LINE
  5
19A
100
AcDbEntity
  8
0
  6
CONTINUOUS
 62
     7
100
AcDbLine
 10
159.325741
 20
75.840004
 30
0.0
 11
162.325741
 21
75.840004
 31
0.0
  0
LINE
  5
19B
100
AcDbEntity
  8
0
  6
CONTINUOUS
 62
     7
100
AcDbLine
 10
159.325741
 20
80.840004
 30
0.0
 11
159.325741
 21
67.340004
 31
0.0
  0
LINE
  5
19C
100
AcDbEntity
  8
0
  6
CENTER
 62
     1
 48
0.5
100
AcDbLine
 10
147.325741
 20
85.553379
 30
0.0
 11
147.325741
 21
62.496055
 31
0.0
  0
LINE
  5
19D
100
AcDbEntity
  8
0
  6
CENTER
 62
     1
 48
0.5
100
AcDbLine
 10
149.075741
 20
85.92099
 30
0.0
 11
149.075741
 21
62.496055
 31
0.0
  0
LINE
  5
19E
100
AcDbEntity
  8
0
  6
CENTER
 62
     1
 48
0.5
100
AcDbLine
 10
145.575741
 20
85.553379
 30
0.0
 11
145.575741
 21
62.496055
 31
0.0
  0
LINE
  5
19F
100
AcDbEntity
  8
0
  6
CONTINUOUS
 62
     7
100
AcDbLine
 10
159.325741
 20
136.049133
 30
0.0
 11
162.325741
 21
136.049133
 31
0.0
  0
LINE
  5
1A0
100
AcDbEntity
  8
0
  6
CONTINUOUS
 62
     7
100
AcDbLine
 10
159.325741
 20
140.049133
 30
0.0
 11
162.325741
 21
140.049133
 31
0.0
  0
LINE
  5
1A1
100
AcDbEntity
  8
0
  6
CONTINUOUS
 62
     7
100
AcDbLine
 10
167.325741
 20
140.049133
 30
0.0
 11
167.325741
 21
136.049133
 31
0.0
  0
LINE
  5
1A2
100
AcDbEntity
  8
0
  6
CENTER
 62
     1
 48
0.5
100
AcDbLine
 10
155.313267
 20
138.049133
 30
0.0
 11
169.256417
 21
138.049133
 31
0.0
  0
LINE
  5
1A3
100
AcDbEntity
  8
0
  6
CONTINUOUS
 62
     7
100
AcDbLine
 10
162.325741
 20
142.049133
 30
0.0
 11
162.325741
 21
134.049133
 31
0.0
  0
LINE
  5
1A4
100
AcDbEntity
  8
0
  6
CONTINUOUS
 62
     7
100
AcDbLine
 10
159.325741
 20
135.549133
 30
0.0
 11
162.325741
 21
135.549133
 31
0.0
  0
LINE
  5
1A5
100
AcDbEntity
  8
0
  6
CONTINUOUS
 62
     7
100
AcDbLine
 10
159.325741
 20
140.549133
 30
0.0
 11
162.325741
 21
140.549133
 31
0.0
  0
LINE
  5
1A6
100
AcDbEntity
  8
0
  6
CONTINUOUS
 62
     7
100
AcDbLine
 10
164.825741
 20
142.549131
 30
0.0
 11
167.325741
 21
140.049131
 31
0.0
  0
LINE
  5
1A7
100
AcDbEntity
  8
0
  6
CONTINUOUS
 62
     7
100
AcDbLine
 10
164.825741
 20
133.54913
 30
0.0
 11
167.325741
 21
136.04913
 31
0.0
  0
LINE
  5
1A8
100
AcDbEntity
  8
0
  6
CONTINUOUS
 62
     7
100
AcDbLine
 10
162.825741
 20
133.549133
 30
0.0
 11
164.825741
 21
133.549133
 31
0.0
  0
LINE
  5
1A9
100
AcDbEntity
  8
0
  6
CONTINUOUS
 62
     7
100
AcDbLine
 10
162.825741
 20
142.549133
 30
0.0
 11
164.825741
 21
142.549133
 31
0.0
  0
LINE
  5
1AA
100
AcDbEntity
  8
0
  6
CONTINUOUS
 62
     7
100
AcDbLine
 10
162.825737
 20
142.549131
 30
0.0
 11
162.325741
 21
142.049133
 31
0.0
  0
LINE
  5
1AB
100
AcDbEntity
  8
0
  6
CONTINUOUS
 62
     7
100
AcDbLine
 10
162.325745
 20
134.049136
 30
0.0
 11
162.825741
 21
133.549138
 31
0.0
  0
LINE
  5
1AC
100
AcDbEntity
  8
0
  6
CONTINUOUS
 62
     7
100
AcDbLine
 10
162.825741
 20
142.549133
 30
0.0
 11
162.825741
 21
133.549132
 31
0.0
  0
LINE
  5
1AD
100
AcDbEntity
  8
0
  6
CONTINUOUS
 62
     7
100
AcDbLine
 10
164.825741
 20
142.549133
 30
0.0
 11
164.825741
 21
133.549133
 31
0.0
  0
LINE
  5
1AE
100
AcDbEntity
  8
0
  6
CONTINUOUS
 62
     7
100
AcDbLine
 10
84.436894
 20
143.049133
 30
0.0
 11
84.436894
 21
131.049133
 31
0.0
  0
LINE
  5
1AF
100
AcDbEntity
  8
0
  6
CONTINUOUS
 62
     7
100
AcDbLine
 10
70.936894
 20
143.049133
 30
0.0
 11
70.936894
 21
132.232954
 31
0.0
  0
LINE
  5
1B0
100
AcDbEntity
  8
0
  6
CONTINUOUS
 62
     7
100
AcDbLine
 10
159.325741
 20
144.049133
 30
0.0
 11
159.325741
 21
132.181266
 31
0.0
  0
LINE
  5
1B1
100
AcDbEntity
  8
0
  6
CONTINUOUS
 62
     7
100
AcDbLine
 10
71.936894
 20
144.049133
 30
0.0
 11
80.641186
 21
144.049133
 31
0.0
  0
LINE
  5
1B2
100
AcDbEntity
  8
0
  6
CONTINUOUS
 62
     7
100
AcDbLine
 10
70.936894
 20
143.049132
 30
0.0
 11
71.936894
 21
144.049133
 31
0.0
  0
LINE
  5
1B3
100
AcDbEntity
  8
0
  6
CONTINUOUS
 62
     7
100
AcDbLine
 10
83.436894
 20
144.049133
 30
0.0
 11
83.671894
 21
143.814133
 31
0.0
  0
LINE
  5
1B4
100
AcDbEntity
  8
0
  6
CONTINUOUS
 62
     7
100
AcDbLine
 10
111.325741
 20
139.049133
 30
0.0
 11
116.521893
 21
130.049133
 31
0.0
  0
LINE
  5
1B5
100
AcDbEntity
  8
0
  6
CONTINUOUS
 62
     7
100
AcDbLine
 10
111.325741
 20
139.049133
 30
0.0
 11
119.985994
 21
144.049133
 31
0.0
  0
LINE
  5
1B6
100
AcDbEntity
  8
0
  6
CONTINUOUS
 62
     7
100
AcDbLine
 10
119.578962
 20
143.814133
 30
0.0
 11
124.343963
 21
135.560911
 31
0.0
  0
LINE
  5
1B7
100
AcDbEntity
  8
0
  6
CONTINUOUS
 62
     7
100
AcDbLine
 10
116.090741
 20
130.795911
 30
0.0
 11
124.343963
 21
135.560911
 31
0.0
  0
LINE
  5
1B8
100
AcDbEntity
  8
0
  6
CONTINUOUS
 62
     7
100
AcDbLine
 10
119.985995
 20
144.049133
 30
0.0
 11
159.325741
 21
144.049133
 31
0.0
  0
LINE
  5
1B9
100
AcDbEntity
  8
0
  6
CONTINUOUS
 62
     7
100
AcDbLine
 10
116.521893
 20
130.049133
 30
0.0
 11
121.325741
 21
130.049133
 31
0.0
  0
LINE
  5
1BA
100
AcDbEntity
  8
0
  6
CONTINUOUS
 62
     7
100
AcDbLine
 10
127.325741
 20
133.049133
 30
0.0
 11
127.325741
 21
130.574065
 31
0.0
  0
LINE
  5
1BB
100
AcDbEntity
  8
0
  6
CONTINUOUS
 62
     7
100
AcDbLine
 10
121.325741
 20
130.049133
 30
0.0
 11
127.325741
 21
130.574065
 31
0.0
  0
LINE
  5
1BC
100
AcDbEntity
  8
0
  6
CONTINUOUS
 62
     7
100
AcDbLine
 10
203.236469
 20
67.340004
 30
0.0
 11
213.976469
 21
67.340004
 31
0.0
  0
LINE
  5
1BD
100
AcDbEntity
  8
0
  6
CONTINUOUS
 62
     7
100
AcDbLine
 10
205.052647
 20
80.772594
 30
0.0
 11
214.052651
 21
80.772594
 31
0.0
  0
LINE
  5
1BE
100
AcDbEntity
  8
0
  6
CONTINUOUS
 62
     7
100
AcDbLine
 10
215.052651
 20
79.772594
 30
0.0
 11
215.052651
 21
68.435135
 31
0.0
  0
LINE
  5
1BF
100
AcDbEntity
  8
0
  6
CONTINUOUS
 62
     7
100
AcDbLine
 10
203.18478
 20
67.482017
 30
0.0
 11
205.052647
 21
80.77259
 31
0.0
  0
LINE
  5
1C0
100
AcDbEntity
  8
0
  6
CONTINUOUS
 62
     7
100
AcDbLine
 10
214.052651
 20
80.77259
 30
0.0
 11
215.052651
 21
79.77259
 31
0.0
  0
LINE
  5
1C1
100
AcDbEntity
  8
0
  6
CONTINUOUS
 62
     7
100
AcDbLine
 10
213.976469
 20
67.340004
 30
0.0
 11
215.052641
 21
68.435127
 31
0.0
  0
LINE
  5
1C2
100
AcDbEntity
  8
0
  6
CONTINUOUS
 62
     7
100
AcDbLine
 10
209.430187
 20
68.808601
 30
0.0
 11
210.891506
 21
79.206413
 31
0.0
  0
LINE
  5
1C3
100
AcDbEntity
  8
0
  6
CONTINUOUS
 62
     7
100
AcDbLine
 10
128.325741
 20
134.049133
 30
0.0
 11
159.325741
 21
134.049133
 31
0.0
  0
LINE
  5
1C4
100
AcDbEntity
  8
0
  6
CENTER
 62
     1
 48
0.5
100
AcDbLine
 10
147.325741
 20
146.55536
 30
0.0
 11
147.325741
 21
126.108142
 31
0.0
  0
LINE
  5
1C5
100
AcDbEntity
  8
0
  6
CONTINUOUS
 62
     7
100
AcDbLine
 10
122.742978
 20
143.049133
 30
0.0
 11
159.325741
 21
143.049133
 31
0.0
  0
LINE
  5
1C6
100
AcDbEntity
  8
0
  6
CONTINUOUS
 62
     7
100
AcDbLine
 10
76.936894
 20
130.049133
 30
0.0
 11
83.436894
 21
130.049133
 31
0.0
  0
LINE
  5
1C7
100
AcDbEntity
  8
0
  6
CONTINUOUS
 62
     7
100
AcDbLine
 10
70.936894
 20
132.232954
 30
0.0
 11
76.936894
 21
130.049133
 31
0.0
  0
LINE
  5
1C8
100
AcDbEntity
  8
0
  6
CONTINUOUS
 62
     7
100
AcDbLine
 10
80.231808
 20
130.79591
 30
0.0
 11
83.437693
 21
130.79591
 31
0.0
  0
LINE
  5
1C9
100
AcDbEntity
  8
0
  6
CONTINUOUS
 62
     7
100
AcDbLine
 10
70.936894
 20
139.049133
 30
0.0
 11
82.936894
 21
139.049133
 31
0.0
  0
LINE
  5
1CA
100
AcDbEntity
  8
0
  6
CONTINUOUS
 62
     7
100
AcDbLine
 10
80.598408
 20
143.814133
 30
0.0
 11
83.804293
 21
143.814133
 31
0.0
  0
LINE
  5
1CB
100
AcDbEntity
  8
0
  6
CONTINUOUS
 62
     7
100
AcDbLine
 10
122.742978
 20
80.840004
 30
0.0
 11
159.325741
 21
80.840004
 31
0.0
  0
LINE
  5
1CC
100
AcDbEntity
  8
0
  6
CONTINUOUS
 62
     7
100
AcDbLine
 10
112.586992
 20
67.340004
 30
0.0
 11
159.325741
 21
67.340004
 31
0.0
  0
LINE
  5
1CD
100
AcDbEntity
  8
0
  6
CENTER
 62
     1
 48
0.5
100
AcDbLine
 10
124.325741
 20
77.340004
 30
0.0
 11
124.325741
 21
69.340004
 31
0.0
  0
LINE
  5
1CE
100
AcDbEntity
  8
0
  6
CONTINUOUS
 62
     7
100
AcDbLine
 10
116.805536
 20
73.340004
 30
0.0
 11
121.325741
 21
73.340004
 31
0.0
  0
LINE
  5
1CF
100
AcDbEntity
  8
0
  6
CONTINUOUS
 62
     7
100
AcDbLine
 10
111.325741
 20
79.340004
 30
0.0
 11
116.121928
 21
79.844101
 31
0.0
  0
LINE
  5
1D0
100
AcDbEntity
  8
0
  6
CONTINUOUS
 62
     7
100
AcDbLine
 10
111.660232
 20
76.157535
 30
0.0
 11
116.456419
 21
76.661636
 31
0.0
  0
LINE
  5
1D1
100
AcDbEntity
  8
0
  6
CONTINUOUS
 62
     7
100
AcDbLine
 10
111.325741
 20
79.340004
 30
0.0
 11
112.586992
 21
67.340004
 31
0.0
  0
LINE
  5
1D2
100
AcDbEntity
  8
0
  6
CENTER
 62
     1
 48
0.5
100
AcDbLine
 10
122.118963
 20
73.340004
 30
0.0
 11
128.325741
 21
73.340004
 31
0.0
  0
LINE
  5
1D3
100
AcDbEntity
  8
0
  6
CENTER
 62
     1
 48
0.5
100
AcDbLine
 10
113.981039
 20
135.080022
 30
0.0
 11
122.234262
 21
139.845022
 31
0.0
  0
LINE
  5
1D4
100
AcDbEntity
  8
0
  6
CENTER
 62
     1
 48
0.5
100
AcDbLine
 10
115.294852
 20
141.704431
 30
0.0
 11
120.059852
 21
133.451209
 31
0.0
  0
LINE
  5
1D6
100
AcDbEntity
  8
0
  6
CONTINUOUS
 62
     7
100
AcDbLine
 10
203.236469
 20
67.340004
 30
0.0
 11
203.18478
 21
67.482017
 31
0.0
  0
LINE
  5
1D7
100
AcDbEntity
  8
0
  6
CONTINUOUS
 62
     7
100
AcDbLine
 10
128.325741
 20
132.181266
 30
0.0
 11
159.325741
 21
132.181266
 31
0.0
  0
LINE
  5
1D8
100
AcDbEntity
  8
0
  6
CONTINUOUS
 62
     7
100
AcDbLine
 10
121.325741
 20
80.691047
 30
0.0
 11
121.325741
 21
73.340004
 31
0.0
  0
LINE
  5
1D9
100
AcDbEntity
  8
0
  6
CONTINUOUS
 62
     7
100
AcDbLine
 10
121.325741
 20
73.340004
 30
0.0
 11
122.353434
 21
73.008339
 31
0.0
  0
LINE
  5
1DA
100
AcDbEntity
  8
0
  6
CONTINUOUS
 62
     7
100
AcDbLine
 10
125.732084
 20
71.917961
 30
0.0
 11
127.325741
 21
71.403648
 31
0.0
  0
LINE
  5
1DB
100
AcDbEntity
  8
0
  6
PHANTOM
 62
     7
100
AcDbLine
 10
111.325741
 20
79.640003
 30
0.0
 11
116.090741
 21
80.140827
 31
0.0
  0
LINE
  5
1DC
100
AcDbEntity
  8
0
  6
CONTINUOUS
 62
     7
100
AcDbLine
 10
122.742978
 20
143.049133
 30
0.0
 11
122.742978
 21
139.658533
 31
0.0
  0
LINE
  5
1DD
100
AcDbEntity
  8
0
  6
CONTINUOUS
 62
     7
100
AcDbLine
 10
122.742978
 20
134.636582
 30
0.0
 11
122.742978
 21
130.049133
 31
0.0
  0
LINE
  5
1DE
100
AcDbEntity
  8
0
  6
CONTINUOUS
 62
     7
100
AcDbLine
 10
122.742979
 20
143.049133
 30
0.0
 11
119.985995
 21
144.049133
 31
0.0
  0
LINE
  5
1DF
100
AcDbEntity
  8
0
  6
CONTINUOUS
 62
     7
100
AcDbLine
 10
127.325741
 20
80.840004
 30
0.0
 11
127.325741
 21
67.482017
 31
0.0
  0
LINE
  5
1E0
100
AcDbEntity
  8
0
  6
CONTINUOUS
 62
     7
100
AcDbLine
 10
116.090741
 20
80.140827
 30
0.0
 11
116.805535
 21
73.340004
 31
0.0
  0
LINE
  5
1E1
100
AcDbEntity
  8
0
  6
CONTINUOUS
 62
     7
100
AcDbLine
 10
116.090741
 20
80.140827
 30
0.0
 11
122.742978
 21
80.840004
 31
0.0
  0
LINE
  5
1E2
100
AcDbEntity
  8
0
  6
CONTINUOUS
 62
     7
100
AcDbLine
 10
115.747575
 20
67.340004
 30
0.0
 11
116.805536
 21
73.340004
 31
0.0
  0
LINE
  5
1E3
100
AcDbEntity
  8
0
  6
CENTER
 62
     1
 48
0.5
100
AcDbLine
 10
197.362644
 20
75.806175
 30
0.0
 11
223.709371
 21
72.103386
 31
0.0
  0
LINE
  5
1E4
100
AcDbEntity
  8
0
  6
CONTINUOUS
 62
     7
100
AcDbLine
 10
203.488575
 20
69.643638
 30
0.0
 11
209.430187
 21
68.808601
 31
0.0
  0
LINE
  5
1E5
100
AcDbEntity
  8
0
  6
CONTINUOUS
 62
     7
100
AcDbLine
 10
204.949894
 20
80.04145
 30
0.0
 11
210.891506
 21
79.206413
 31
0.0
  0
LINE
  5
1E6
100
AcDbEntity
  8
0
  6
CONTINUOUS
 62
     7
100
AcDbLine
 10
210.606198
 20
77.176361
 30
0.0
 11
215.052651
 21
76.551452
 31
0.0
  0
LINE
  5
1E7
100
AcDbEntity
  8
0
  6
CONTINUOUS
 62
     7
100
AcDbLine
 10
209.715489
 20
70.838646
 30
0.0
 11
215.052651
 21
70.088562
 31
0.0
  0
LINE
  5
1E8
100
AcDbEntity
  8
0
  6
CONTINUOUS
 62
     7
100
AcDbLine
 10
145.575741
 20
69.643638
 30
0.0
 11
149.075741
 21
69.643638
 31
0.0
  0
LINE
  5
1E9
100
AcDbEntity
  8
0
  6
CONTINUOUS
 62
     7
100
AcDbLine
 10
145.575741
 20
70.838646
 30
0.0
 11
149.075741
 21
70.838646
 31
0.0
  0
LINE
  5
1EA
100
AcDbEntity
  8
0
  6
CONTINUOUS
 62
     7
100
AcDbLine
 10
145.575741
 20
77.176365
 30
0.0
 11
149.075741
 21
77.176365
 31
0.0
  0
LINE
  5
1EB
100
AcDbEntity
  8
0
  6
CONTINUOUS
 62
     7
100
AcDbLine
 10
145.575741
 20
76.551456
 30
0.0
 11
149.075741
 21
76.551456
 31
0.0
  0
LINE
  5
1EC
100
AcDbEntity
  8
0
  6
CONTINUOUS
 62
     7
100
AcDbLine
 10
145.575741
 20
79.206413
 30
0.0
 11
149.075741
 21
79.206413
 31
0.0
  0
LINE
  5
1ED
100
AcDbEntity
  8
0
  6
CONTINUOUS
 62
     7
100
AcDbLine
 10
145.575741
 20
80.04145
 30
0.0
 11
149.075741
 21
80.04145
 31
0.0
  0
LINE
  5
1EE
100
AcDbEntity
  8
0
  6
CONTINUOUS
 62
     7
100
AcDbLine
 10
127.325741
 20
67.482017
 30
0.0
 11
159.325741
 21
67.482017
 31
0.0
  0
LINE
  5
1EF
100
AcDbEntity
  8
0
  6
CONTINUOUS
 62
     7
100
AcDbLine
 10
82.936894
 20
139.049133
 30
0.0
 11
83.48037
 21
130.092609
 31
0.0
  0
LINE
  5
1F0
100
AcDbEntity
  8
0
  6
CONTINUOUS
 62
     7
100
AcDbLine
 10
79.731007
 20
139.049133
 30
0.0
 11
80.231808
 21
130.79591
 31
0.0
  0
LINE
  5
1F1
100
AcDbEntity
  8
0
  6
CONTINUOUS
 62
     7
100
AcDbLine
 10
82.936894
 20
139.049133
 30
0.0
 11
83.804293
 21
143.814133
 31
0.0
  0
LINE
  5
1F2
100
AcDbEntity
  8
0
  6
CONTINUOUS
 62
     7
100
AcDbLine
 10
79.731009
 20
139.049133
 30
0.0
 11
80.641186
 21
144.049133
 31
0.0
  0
LINE
  5
1F3
100
AcDbEntity
  8
0
  6
CONTINUOUS
 62
     7
100
AcDbLine
 10
83.804293
 20
143.814133
 30
0.0
 11
84.305094
 21
135.56091
 31
0.0
  0
LINE
  5
1F4
100
AcDbEntity
  8
0
  6
CONTINUOUS
 62
     7
100
AcDbLine
 10
83.437695
 20
130.79591
 30
0.0
 11
84.305094
 21
135.56091
 31
0.0
  0
LINE
  5
1F5
100
AcDbEntity
  8
0
  6
CONTINUOUS
 62
     7
100
AcDbLine
 10
83.812845
 20
143.67318
 30
0.0
 11
84.436894
 21
143.049133
 31
0.0
  0
LINE
  5
1F6
100
AcDbEntity
  8
0
  6
CONTINUOUS
 62
     7
100
AcDbLine
 10
83.436894
 20
130.049132
 30
0.0
 11
84.436894
 21
131.049133
 31
0.0
  0
ARC
  5
1F7
100
AcDbEntity
  8
0
  6
CONTINUOUS
 62
     7
100
AcDbCircle
 10
128.325741
 20
133.049133
 30
0.0
 40
1.0
100
AcDbArc
 50
90.000003
 51
180.00001
  0
ARC
  5
1F8
100
AcDbEntity
  8
0
  6
CONTINUOUS
 62
     7
100
AcDbCircle
 10
123.231463
 20
137.487817
 30
0.0
 40
2.225
100
AcDbArc
 50
300.0
 51
120.0
  0
CIRCLE
  5
1F9
100
AcDbEntity
  8
0
  6
CONTINUOUS
 62
     7
100
AcDbCircle
 10
124.325741
 20
73.340004
 30
0.0
 40
2.0
  0
CIRCLE
  5
1FA
100
AcDbEntity
  8
0
  6
CONTINUOUS
 62
     7
100
AcDbCircle
 10
124.325741
 20
73.340004
 30
0.0
 40
1.8
  0
CIRCLE
  5
1FB
100
AcDbEntity
  8
0
  6
CONTINUOUS
 62
     7
100
AcDbCircle
 10
117.834852
 20
137.305022
 30
0.0
 40
1.975
  0
ARC
  5
1FC
100
AcDbEntity
  8
0
  6
CONTINUOUS
 62
     7
100
AcDbCircle
 10
128.325741
 20
131.181266
 30
0.0
 40
1.0
100
AcDbArc
 50
90.000003
 51
180.00001
  0
LWPOLYLINE
  5
1FD
100
AcDbEntity
  8
0
  6
CONTINUOUS
 62
     7
100
AcDbPolyline
 90
       17
 70
     0
 43
0.0
 10
145.575741
 20
80.04145
 42
0.048416
 10
144.556524
 20
79.942538
 42
0.048522
 10
143.575389
 20
79.649281
 42
0.048718
 10
142.669304
 20
79.172079
 42
0.048977
 10
141.872962
 20
78.528141
 42
0.049271
 10
141.217382
 20
77.741037
 42
0.049546
 10
140.728862
 20
76.8404
 42
0.049752
 10
140.427482
 20
75.861091
 42
0.049813
 10
140.325741
 20
74.842544
 42
0.049822
 10
140.427518
 20
73.823817
 42
0.049704
 10
140.728555
 20
72.845419
 42
0.04952
 10
141.216632
 20
71.945156
 42
0.049257
 10
141.871807
 20
71.158086
 42
0.048988
 10
142.66812
 20
70.513789
 42
0.048743
 10
143.574564
 20
70.036144
 42
0.048553
 10
144.556295
 20
69.742595
 42
0.048427
 10
145.575741
 20
69.643638
  0
LWPOLYLINE
  5
210
100
AcDbEntity
  8
0
  6
CONTINUOUS
 62
     7
100
AcDbPolyline
 90
       17
 70
     0
 43
0.0
 10
145.575741
 20
79.206413
 42
0.020693
 10
145.099506
 20
79.1867
 42
0.02081
 10
144.625874
 20
79.127504
 42
0.020986
 10
144.1588
 20
79.028977
 42
0.021244
 10
143.701735
 20
78.891426
 42
0.021587
 10
143.258115
 20
78.715291
 42
0.02201
 10
142.831496
 20
78.501199
 42
0.022507
 10
142.425568
 20
78.250018
 42
0.023069
 10
142.044149
 20
77.962916
 42
0.023681
 10
141.691161
 20
77.64144
 42
0.024326
 10
141.370585
 20
77.287587
 42
0.024981
 10
141.086384
 20
76.903876
 42
0.025619
 10
140.842393
 20
76.493412
 42
0.026205
 10
140.642179
 20
76.059917
 42
0.026708
 10
140.488885
 20
75.607724
 42
0.027095
 10
140.385056
 20
75.141731
 42
0.027337
 10
140.332484
 20
74.667284
  0
LWPOLYLINE
  5
223
100
AcDbEntity
  8
0
  6
CONTINUOUS
 62
     7
100
AcDbPolyline
 90
       17
 70
     0
 43
0.0
 10
145.575741
 20
77.176365
 42
0.048369
 10
144.955103
 20
77.116193
 42
0.048521
 10
144.357044
 20
76.937559
 42
0.048718
 10
143.804709
 20
76.646798
 42
0.048977
 10
143.319244
 20
76.254395
 42
0.04927
 10
142.91956
 20
75.774713
 42
0.049546
 10
142.621689
 20
75.225811
 42
0.049752
 10
142.437875
 20
74.628934
 42
0.049862
 10
142.37574
 20
74.007507
 42
0.049751
 10
142.437601
 20
73.387436
 42
0.049704
 10
142.620922
 20
72.791028
 42
0.04952
 10
142.918262
 20
72.242213
 42
0.049258
 10
143.317473
 20
71.762363
 42
0.048988
 10
143.802735
 20
71.369513
 42
0.048744
 10
144.355154
 20
71.078224
 42
0.048553
 10
144.953493
 20
70.899133
 42
0.048496
 10
145.575741
 20
70.838646
  0
LWPOLYLINE
  5
236
100
AcDbEntity
  8
0
  6
CONTINUOUS
 62
     7
100
AcDbPolyline
 90
       17
 70
     0
 43
0.0
 10
145.575741
 20
76.551456
 42
0.019889
 10
145.291081
 20
76.540132
 42
0.020023
 10
145.007693
 20
76.506091
 42
0.020194
 10
144.728252
 20
76.449461
 42
0.020481
 10
144.454352
 20
76.370324
 42
0.020864
 10
144.187919
 20
76.268844
 42
0.02134
 10
143.930974
 20
76.145265
 42
0.021904
 10
143.685639
 20
75.99995
 42
0.022549
 10
143.454148
 20
75.833417
 42
0.023261
 10
143.238838
 20
75.646393
 42
0.024024
 10
143.042131
 20
75.439862
 42
0.024812
 10
142.866487
 20
75.215127
 42
0.025592
 10
142.714347
 20
74.973855
 42
0.026327
 10
142.588036
 20
74.718122
 42
0.026973
 10
142.489659
 20
74.450419
 42
0.027486
 10
142.420976
 20
74.173639
 42
0.027826
 10
142.383279
 20
73.891011
  0
LWPOLYLINE
  5
249
100
AcDbEntity
  8
0
  6
CONTINUOUS
 62
     7
100
AcDbPolyline
 90
       17
 70
     0
 43
0.0
 10
149.075741
 20
77.176365
 42
-0.048369
 10
149.696379
 20
77.116193
 42
-0.048521
 10
150.294438
 20
76.937559
 42
-0.048718
 10
150.846773
 20
76.646798
 42
-0.048977
 10
151.332238
 20
76.254395
 42
-0.04927
 10
151.731922
 20
75.774713
 42
-0.049546
 10
152.029793
 20
75.225811
 42
-0.049752
 10
152.213607
 20
74.628934
 42
-0.049862
 10
152.275742
 20
74.007507
 42
-0.049751
 10
152.213881
 20
73.387436
 42
-0.049704
 10
152.03056
 20
72.791028
 42
-0.04952
 10
151.73322
 20
72.242213
 42
-0.049258
 10
151.334009
 20
71.762363
 42
-0.048988
 10
150.848747
 20
71.369513
 42
-0.048744
 10
150.296328
 20
71.078224
 42
-0.048553
 10
149.697989
 20
70.899133
 42
-0.048496
 10
149.075741
 20
70.838646
  0
LWPOLYLINE
  5
25C
100
AcDbEntity
  8
0
  6
CONTINUOUS
 62
     7
100
AcDbPolyline
 90
       17
 70
     0
 43
0.0
 10
149.075741
 20
76.551456
 42
-0.019889
 10
149.360401
 20
76.540132
 42
-0.020023
 10
149.643789
 20
76.506091
 42
-0.020194
 10
149.92323
 20
76.449461
 42
-0.020481
 10
150.19713
 20
76.370324
 42
-0.020864
 10
150.463563
 20
76.268844
 42
-0.02134
 10
150.720508
 20
76.145265
 42
-0.021904
 10
150.965843
 20
75.99995
 42
-0.022549
 10
151.197334
 20
75.833417
 42
-0.023261
 10
151.412644
 20
75.646393
 42
-0.024024
 10
151.609351
 20
75.439862
 42
-0.024812
 10
151.784995
 20
75.215127
 42
-0.025592
 10
151.937135
 20
74.973855
 42
-0.026327
 10
152.063446
 20
74.718122
 42
-0.026973
 10
152.161823
 20
74.450419
 42
-0.027486
 10
152.230506
 20
74.173639
 42
-0.027826
 10
152.268203
 20
73.891011
  0
LWPOLYLINE
  5
26F
100
AcDbEntity
  8
0
  6
CONTINUOUS
 62
     7
100
AcDbPolyline
 90
       17
 70
     0
 43
0.0
 10
149.075741
 20
79.206413
 42
-0.020693
 10
149.551976
 20
79.1867
 42
-0.02081
 10
150.025608
 20
79.127504
 42
-0.020986
 10
150.492682
 20
79.028977
 42
-0.021244
 10
150.949747
 20
78.891426
 42
-0.021587
 10
151.393367
 20
78.715291
 42
-0.02201
 10
151.819986
 20
78.501199
 42
-0.022507
 10
152.225914
 20
78.250018
 42
-0.023069
 10
152.607333
 20
77.962916
 42
-0.023681
 10
152.960321
 20
77.64144
 42
-0.024326
 10
153.280897
 20
77.287587
 42
-0.024981
 10
153.565098
 20
76.903876
 42
-0.025619
 10
153.809089
 20
76.493412
 42
-0.026205
 10
154.009303
 20
76.059917
 42
-0.026708
 10
154.162597
 20
75.607724
 42
-0.027095
 10
154.266426
 20
75.141731
 42
-0.027337
 10
154.318998
 20
74.667284
  0
LWPOLYLINE
  5
282
100
AcDbEntity
  8
0
  6
CONTINUOUS
 62
     7
100
AcDbPolyline
 90
       17
 70
     0
 43
0.0
 10
149.075741
 20
80.04145
 42
-0.048416
 10
150.094958
 20
79.942538
 42
-0.048522
 10
151.076093
 20
79.649281
 42
-0.048718
 10
151.982178
 20
79.172079
 42
-0.048977
 10
152.77852
 20
78.528141
 42
-0.049271
 10
153.4341
 20
77.741037
 42
-0.049546
 10
153.92262
 20
76.8404
 42
-0.049752
 10
154.224
 20
75.861091
 42
-0.049813
 10
154.325741
 20
74.842544
 42
-0.049822
 10
154.223964
 20
73.823817
 42
-0.049704
 10
153.922927
 20
72.845419
 42
-0.04952
 10
153.43485
 20
71.945156
 42
-0.049257
 10
152.779675
 20
71.158086
 42
-0.048988
 10
151.983362
 20
70.513789
 42
-0.048743
 10
151.076918
 20
70.036144
 42
-0.048553
 10
150.095187
 20
69.742595
 42
-0.048427
 10
149.075741
 20
69.643638
  0
LWPOLYLINE
  5
295
100
AcDbEntity
  8
0
  6
CONTINUOUS
 62
     7
100
AcDbPolyline
 90
       16
 70
     1
 43
0.0
 10
154.325741
 20
133.215721
 42
0.125503
 10
152.658339
 20
133.689051
 42
0.014682
 10
150.885645
 20
133.844838
 42
0.008453
 10
149.107352
 20
133.922318
 42
0.006836
 10
147.325741
 20
133.94638
 42
0.006828
 10
145.545897
 20
133.922367
 42
0.008453
 10
143.76704
 20
133.844913
 42
0.014684
 10
141.993474
 20
133.689091
 42
0.125607
 10
140.325741
 20
133.215721
 42
0.125503
 10
141.993143
 20
132.742391
 42
0.014682
 10
143.765837
 20
132.586603
 42
0.008453
 10
145.54413
 20
132.509124
 42
0.006836
 10
147.325741
 20
132.485062
 42
0.006828
 10
149.105585
 20
132.509075
 42
0.008453
 10
150.884442
 20
132.586529
 42
0.014684
 10
152.658008
 20
132.74235
 42
0.125607
  0
LINE
  5
2A7
100
AcDbEntity
  8
0
  6
CONTINUOUS
 62
     7
100
AcDbLine
 10
212.483873
 20
67.340004
 30
0.0
 11
215.052651
 21
69.908787
 31
0.0
  0
LINE
  5
2A8
100
AcDbEntity
  8
0
  6
CONTINUOUS
 62
     7
100
AcDbLine
 10
210.238807
 20
67.340004
 30
0.0
 11
213.241851
 21
70.343051
 31
0.0
  0
LINE
  5
2A9
100
AcDbEntity
  8
0
  6
CONTINUOUS
 62
     7
100
AcDbLine
 10
207.993745
 20
67.340004
 30
0.0
 11
211.273428
 21
70.619693
 31
0.0
  0
LINE
  5
2AA
100
AcDbEntity
  8
0
  6
CONTINUOUS
 62
     7
100
AcDbLine
 10
205.748684
 20
67.340004
 30
0.0
 11
207.489958
 21
69.081282
 31
0.0
  0
LINE
  5
2AB
100
AcDbEntity
  8
0
  6
CONTINUOUS
 62
     7
100
AcDbLine
 10
203.503622
 20
67.340004
 30
0.0
 11
205.521538
 21
69.357925
 31
0.0
  0
LINE
  5
2AC
100
AcDbEntity
  8
0
  6
CONTINUOUS
 62
     7
100
AcDbLine
 10
203.476538
 20
69.557986
 30
0.0
 11
203.553119
 21
69.634567
 31
0.0
  0
LINE
  5
2AD
100
AcDbEntity
  8
0
  6
CONTINUOUS
 62
     7
100
AcDbLine
 10
214.971521
 20
76.562858
 30
0.0
 11
215.052651
 21
76.643986
 31
0.0
  0
LINE
  5
2AE
100
AcDbEntity
  8
0
  6
CONTINUOUS
 62
     7
100
AcDbLine
 10
213.003101
 20
76.839501
 30
0.0
 11
215.052651
 21
78.889052
 31
0.0
  0
LINE
  5
2AF
100
AcDbEntity
  8
0
  6
CONTINUOUS
 62
     7
100
AcDbLine
 10
211.034682
 20
77.116145
 30
0.0
 11
214.371881
 21
80.453353
 31
0.0
  0
LINE
  5
2B0
100
AcDbEntity
  8
0
  6
CONTINUOUS
 62
     7
100
AcDbLine
 10
210.881315
 20
79.207844
 30
0.0
 11
212.446061
 21
80.772594
 31
0.0
  0
LINE
  5
2B1
100
AcDbEntity
  8
0
  6
CONTINUOUS
 62
     7
100
AcDbLine
 10
208.912896
 20
79.484487
 30
0.0
 11
210.201
 21
80.772594
 31
0.0
  0
LINE
  5
2B2
100
AcDbEntity
  8
0
  6
CONTINUOUS
 62
     7
100
AcDbLine
 10
206.944476
 20
79.76113
 30
0.0
 11
207.955938
 21
80.772594
 31
0.0
  0
LINE
  5
2B3
100
AcDbEntity
  8
0
  6
CONTINUOUS
 62
     7
100
AcDbLine
 10
204.976057
 20
80.037773
 30
0.0
 11
205.710876
 21
80.772594
 31
0.0
  0
TEXT
  5
2B4
100
AcDbEntity
  8
0
  6
CONTINUOUS
100
AcDbText
 10
117.281727
 20
34.642243
 30
0.0
 40
6.0
  1
ＢＵ１３４ＥＬ
100
AcDbText
  0
LINE
  5
2D6
102
{ACAD_REACTORS
330
2E0
102
}
100
AcDbEntity
  8
寸法
 62
     1
100
AcDbLine
 10
224.699639
 20
71.964213
 30
0.0
 11
236.466837
 21
70.310442
 31
0.0
  0
LINE
  5
2D7
102
{ACAD_REACTORS
330
2E0
102
}
100
AcDbEntity
  8
寸法
 62
     1
100
AcDbLine
 10
215.052651
 20
73.320008
 30
0.0
 11
236.677286
 21
73.320008
 31
0.0
  0
ARC
  5
2D8
102
{ACAD_REACTORS
330
2E0
102
}
100
AcDbEntity
  8
寸法
 62
     1
100
AcDbCircle
 10
215.052651
 20
73.320008
 30
0.0
 40
20.624635
100
AcDbArc
 50
340.87041
 51
352.000004
  0
LINE
  5
2D9
102
{ACAD_REACTORS
330
2E0
102
}
100
AcDbEntity
  8
寸法
 62
     1
100
AcDbLine
 10
234.53839
 20
66.561194
 30
0.0
 11
231.720119
 21
58.436087
 31
0.0
  0
ARC
  5
2DA
102
{ACAD_REACTORS
330
2E0
102
}
100
AcDbEntity
  8
寸法
 62
     1
100
AcDbCircle
 10
215.052651
 20
73.320008
 30
0.0
 40
20.624635
100
AcDbArc
 50
340.883541
 51
346.441772
  0
ARC
  5
2DB
102
{ACAD_REACTORS
330
2E0
102
}
100
AcDbEntity
  8
寸法
 62
     1
100
AcDbCircle
 10
215.052651
 20
73.320008
 30
0.0
 40
20.624635
100
AcDbArc
 50
5.558232
 51
11.116464
  0
ARC
  5
2DC
102
{ACAD_REACTORS
330
2E0
102
}
100
AcDbEntity
  8
寸法
 62
     1
100
AcDbCircle
 10
215.052651
 20
73.320008
 30
0.0
 40
20.624635
100
AcDbArc
 50
352.000004
 51
0.0
  0
INSERT
  5
2DD
102
{ACAD_REACTORS
330
2E0
102
}
100
AcDbEntity
  8
寸法
 62
     1
100
AcDbBlockReference
  2
_OPEN30
 10
235.476569
 20
70.449615
 30
0.0
 41
2.0
 42
2.0
 43
2.0
 50
79.220888
  0
INSERT
  5
2DE
102
{ACAD_REACTORS
330
2E0
102
}
100
AcDbEntity
  8
寸法
 62
     1
100
AcDbBlockReference
  2
_OPEN30
 10
235.677286
 20
73.320008
 30
0.0
 41
2.0
 42
2.0
 43
2.0
 50
272.779116
  0
MTEXT
  5
2DF
102
{ACAD_REACTORS
330
2E0
102
}
100
AcDbEntity
  8
寸法
 62
     1
100
AcDbMText
 10
230.767305
 20
63.317905
 30
0.0
 40
3.0
 41
0.0
 71
     5
 72
     1
  1
\A1;8°
 11
0.327706
 21
0.94478
 31
0.0
1001
ACAD
1000
MTEXTBEGIN
1070
    73
1070
     1
1070
    44
1040
1.0
1070
    74
1070
     0
1000
MTEXTEND
1000
MTEXTBEGIN
1070
    73
1070
     1
1070
    44
1040
1.0
1070
    74
1070
     0
1000
MTEXTEND
  0
DIMENSION
  5
2F1
100
AcDbEntity
  8
寸法
100
AcDbDimension
  2
*D2
 10
220.0
 20
67.340004
 30
0.0
 11
217.5
 21
57.840004
 31
0.0
 70
    32
  3
STANDARD
100
AcDbAlignedDimension
 13
215.052651
 23
73.320008
 33
0.0
 14
213.976469
 24
67.340004
 34
0.0
 50
90.0
100
AcDbRotatedDimension
  0
DIMENSION
  5
300
100
AcDbEntity
  8
寸法
100
AcDbDimension
  2
*D3
 10
145.575741
 20
50.0
 30
0.0
 11
137.575741
 21
52.5
 31
0.0
 70
    32
  3
STANDARD
100
AcDbAlignedDimension
 13
149.075741
 23
62.496055
 33
0.0
 14
145.575741
 24
62.496055
 34
0.0
100
AcDbRotatedDimension
  0
DIMENSION
  5
30F
100
AcDbEntity
  8
寸法
100
AcDbDimension
  2
*D4
 10
147.325741
 20
90.0
 30
0.0
 11
157.325743
 21
92.5
 31
0.0
 70
    32
  3
STANDARD
100
AcDbAlignedDimension
 13
167.325745
 23
75.840004
 33
0.0
 14
147.325741
 24
85.553379
 34
0.0
100
AcDbRotatedDimension
  0
DIMENSION
  5
31C
100
AcDbEntity
  8
寸法
100
AcDbDimension
  2
*D5
 10
100.0
 20
67.340004
 30
0.0
 11
97.5
 21
73.340004
 31
0.0
 70
    32
  3
STANDARD
100
AcDbAlignedDimension
 13
111.325741
 23
79.340004
 33
0.0
 14
112.586992
 24
67.340004
 34
0.0
 50
90.0
100
AcDbRotatedDimension
  0
DIMENSION
  5
32B
100
AcDbEntity
  8
寸法
100
AcDbDimension
  2
*D6
 10
159.325741
 20
80.840004
 30
0.0
 11
93.132403
 21
88.796949
 31
0.0
 70
    34
  3
STANDARD
100
AcDb2LineAngularDimension
 13
111.325741
 23
79.640003
 33
0.0
 14
116.090741
 24
80.140827
 34
0.0
 15
122.742978
 25
80.840004
 35
0.0
 16
89.965003
 26
78.547937
 36
0.0
1001
ACAD
1000
DSTYLE
1002
{
1070
   271
1070
     0
1070
    79
1070
     2
1070
   271
1070
     0
1002
}
  0
DIMENSION
  5
33F
100
AcDbEntity
  8
寸法
100
AcDbDimension
  2
*D7
 10
180.0
 20
67.340004
 30
0.0
 11
177.5
 21
74.090004
 31
0.0
 70
    32
  3
STANDARD
100
AcDbAlignedDimension
 13
159.325741
 23
80.840004
 33
0.0
 14
159.325741
 24
67.340004
 34
0.0
 50
90.0
100
AcDbRotatedDimension
  0
DIMENSION
  5
34C
100
AcDbEntity
  8
寸法
100
AcDbDimension
  2
*D8
 10
111.325741
 20
110.0
 30
0.0
 11
139.325741
 21
112.5
 31
0.0
 70
    32
  3
STANDARD
100
AcDbAlignedDimension
 13
167.325741
 23
136.049133
 33
0.0
 14
111.325741
 24
139.049133
 34
0.0
100
AcDbRotatedDimension
  0
DIMENSION
  5
359
100
AcDbEntity
  8
寸法
100
AcDbDimension
  2
*D9
 10
159.325741
 20
120.0
 30
0.0
 11
163.325741
 21
122.5
 31
0.0
 70
    32
  3
STANDARD
100
AcDbAlignedDimension
 13
167.325741
 23
136.049133
 33
0.0
 14
159.325741
 24
132.181266
 34
0.0
100
AcDbRotatedDimension
1001
ACAD
1000
DSTYLE
1002
{
1070
   287
1070
     4
1070
   287
1070
     4
1070
   279
1070
     1
1002
}
  0
DIMENSION
  5
36F
100
AcDbEntity
  8
寸法
100
AcDbDimension
  2
*D10
 10
100.0
 20
144.049133
 30
0.0
 11
97.5
 21
137.049133
 31
0.0
 70
    32
  3
STANDARD
100
AcDbAlignedDimension
 13
116.521893
 23
130.049133
 33
0.0
 14
119.985995
 24
144.049133
 34
0.0
 50
90.0
100
AcDbRotatedDimension
  0
LINE
  5
3C6
100
AcDbEntity
  8
0
  6
CENTER
 62
     1
 48
0.5
100
AcDbLine
 10
82.175542
 20
130.79591
 30
0.0
 11
84.436894
 21
156.643277
 31
0.0
  0
DIMENSION
  5
3C7
100
AcDbEntity
  8
寸法
100
AcDbDimension
  2
*D11
 10
119.985994
 20
144.049133
 30
0.0
 11
133.486691
 21
146.331842
 31
0.0
 70
   162
  3
STANDARD
100
AcDb2LineAngularDimension
 13
119.985995
 23
144.049133
 33
0.0
 14
159.325741
 24
144.049133
 34
0.0
 15
111.325741
 25
139.049133
 35
0.0
 16
132.852564
 26
148.732181
 36
0.0
1001
ACAD
1000
DSTYLE
1002
{
1070
   271
1070
     0
1002
}
  0
ARC
  5
3FA
100
AcDbEntity
  8
0
  6
CENTER
 62
     1
 48
0.5
100
AcDbCircle
 10
84.436894
 20
156.643277
 30
0.0
 40
15.0
100
AcDbArc
 50
188.0
 51
278.0
  0
LINE
  5
3FC
100
AcDbEntity
  8
0
  6
CENTER
 62
     1
 48
0.5
100
AcDbLine
 10
84.436894
 20
156.643277
 30
0.0
 11
84.436894
 21
143.049133
 31
0.0
  0
DIMENSION
  5
40E
100
AcDbEntity
  8
寸法
100
AcDbDimension
  2
*D12
 10
84.436894
 20
156.643277
 30
0.0
 11
78.880258
 21
153.782107
 31
0.0
 70
   164
  1
%%c30
  3
STANDARD
100
AcDbRadialDimension
 15
71.100968
 25
149.776467
 35
0.0
 40
0.0
1001
ACAD
1000
DSTYLE
1002
{
1070
   288
1070
     1
1002
}
  0
DIMENSION
  5
41C
100
AcDbEntity
  8
寸法
100
AcDbDimension
  2
*D13
 10
84.436894
 20
131.049133
 30
0.0
 11
73.540799
 21
123.857583
 31
0.0
 70
    34
  3
STANDARD
100
AcDb2LineAngularDimension
 13
82.175542
 23
130.79591
 33
0.0
 14
84.436894
 24
156.643277
 34
0.0
 15
84.436894
 25
143.049133
 35
0.0
 16
83.36715
 26
119.878571
 36
0.0
1001
ACAD
1000
DSTYLE
1002
{
1070
   271
1070
     0
1002
}
  0
INSERT
  5
49E
100
AcDbEntity
  8
0
  6
CONTINUOUS
100
AcDbBlockReference
  2
A$C776226A5
 10
117.463991
 20
22.235387
 30
0.0
  0
ENDSEC
  0
SECTION
  2
OBJECTS
  0
DICTIONARY
  5
C
100
AcDbDictionary
  3
ACAD_GROUP
350
D
  3
ACAD_LAYOUT
350
2B9
  3
ACAD_MLINESTYLE
350
1B
  3
ACAD_PLOTSETTINGS
350
2BA
  3
ACAD_PLOTSTYLENAME
350
2B7
  3
ACDBHEADERROUNDTRIPXREC
350
439
  3
ACDBVARIABLEDICTIONARY
350
33
  3
CONTENTDICTIONARY
350
23
  0
DICTIONARY
  5
435
100
AcDbDictionary
280
     1
  3
ACAD_XREC_ROUNDTRIP
360
436
  0
DICTIONARY
  5
45C
100
AcDbDictionary
280
     1
  3
ACAD_XREC_ROUNDTRIP
360
45D
  0
DICTIONARY
  5
3A4
100
AcDbDictionary
280
     1
  3
ACAD_LAYOUTSELFREF
360
45B
  0
DICTIONARY
  5
3A2
100
AcDbDictionary
280
     1
  3
ACAD_LAYOUTSELFREF
360
45A
  0
DICTIONARY
  5
D
102
{ACAD_REACTORS
330
C
102
}
100
AcDbDictionary
  3
*A1
350
2E0
  0
DICTIONARY
  5
2B9
102
{ACAD_XDICTIONARY
360
45E
102
}
102
{ACAD_REACTORS
330
C
102
}
100
AcDbDictionary
  3
MODEL
350
2BB
  3
ﾚｲｱｳﾄ1
350
2BC
  0
DICTIONARY
  5
1B
102
{ACAD_REACTORS
330
C
102
}
100
AcDbDictionary
  3
STANDARD
350
1C
  0
DICTIONARY
  5
2BA
102
{ACAD_REACTORS
330
C
102
}
100
AcDbDictionary
  0
ACAD_PROXY_OBJECT
  5
2B7
102
{ACAD_REACTORS
330
C
102
}
100
AcDbProxyObject
 90
      499
 91
      502
 93
       86
310
405010041939BDC9B585B0
350
2B8
340
2B8
 94
        0
  0
DICTIONARY
  5
439
102
{ACAD_REACTORS
330
C
102
}
100
AcDbDictionary
  3
CEPSNTYPE
350
443
  3
DIMSTYLEDATA
350
447
  3
FINGERPRINTGUID
350
444
  3
HYPERLINKBASE
350
43C
  3
INSUNITS
350
442
  3
LAYOUTDICT
350
43E
  3
LWETCUNION
350
441
  3
PLOTSETDICT
350
43F
  3
PLOTSTYLNAMDICT
350
440
  3
PSVPSCALE
350
446
  3
PUCSBASE
350
44A
  3
PUCSORGBACK
350
450
  3
PUCSORGBOTTOM
350
44C
  3
PUCSORGFRONT
350
44F
  3
PUCSORGLEFT
350
44D
  3
PUCSORGRIGHT
350
44E
  3
PUCSORGTOP
350
44B
  3
PUCSORTHOREF
350
448
  3
PUCSORTHOVIEW
350
449
  3
STYLESHEET
350
43D
  3
TSTACKALIGN
350
43A
  3
TSTACKSIZE
350
43B
  3
UCSBASE
350
453
  3
UCSORGBACK
350
459
  3
UCSORGBOTTOM
350
455
  3
UCSORGFRONT
350
458
  3
UCSORGLEFT
350
456
  3
UCSORGRIGHT
350
457
  3
UCSORGTOP
350
454
  3
UCSORTHOREF
350
451
  3
UCSORTHOVIEW
350
452
  3
VERSIONGUID
350
445
  0
DICTIONARY
  5
33
102
{ACAD_REACTORS
330
C
102
}
100
AcDbDictionary
  3
DIMADEC
350
34
  0
DICTIONARY
  5
23
102
{ACAD_REACTORS
330
C
102
}
100
AcDbDictionary
  0
XRECORD
  5
436
102
{ACAD_REACTORS
330
435
102
}
100
AcDbXrecord
102
EXTNAMES
  1
DEFPOINTS
  2
Defpoints
102
PLOTBIT
280
     0
  0
XRECORD
  5
45D
102
{ACAD_REACTORS
330
45C
102
}
100
AcDbXrecord
102
ACADR14ROUNDTRIP
1000
DSTYLE
1002
{
1070
   341
340
37
1070
   343
340
37
1070
   344
340
37
1002
}
  0
XRECORD
  5
45B
102
{ACAD_REACTORS
330
3A4
102
}
100
AcDbXrecord
340
18
  0
XRECORD
  5
45A
102
{ACAD_REACTORS
330
3A2
102
}
100
AcDbXrecord
340
15
  0
GROUP
  5
2E0
102
{ACAD_REACTORS
330
D
102
}
100
AcDbGroup
300

 70
     1
 71
     1
340
2D7
340
2DC
340
2DF
340
2D6
340
2D9
340
2DD
340
2D8
340
2DA
340
2DE
340
2DB
  0
DICTIONARY
  5
45E
100
AcDbDictionary
280
     1
  3
ACAD_XREC_ROUNDTRIP
360
45F
  0
ACAD_PROXY_OBJECT
  5
2BB
102
{ACAD_REACTORS
330
2B9
102
}
100
AcDbProxyObject
 90
      499
 91
      504
 93
      548
310
90E4550534F4E20504D2D32303030432C01AAAAAAAAA5A69054D6F64656C901A800000000000000000000000000000000000000000000A1000000000000008902A6A6AAAAF
330
18
330
0
340
0
340
0
 94
        0
  0
ACAD_PROXY_OBJECT
  5
2BC
102
{ACAD_REACTORS
330
2B9
102
}
100
AcDbProxyObject
 90
      499
 91
      504
 93
      964
310
90E4550534F4E20504D2D32303030432C00AAAAAA416AA59106906DAB2B1B3C43140501A800000000000000000000000000000000000000000101E900000000000241C902A6A6A10232D5E076BC5510408CB5781DAF154410232D5E076BC5510408CB5781DAF15C410232D5E076BC5710408CB5781DAF15C40
330
15
330
0
340
0
340
0
 94
        0
  0
MLINESTYLE
  5
1C
102
{ACAD_REACTORS
330
1B
102
}
100
AcDbMlineStyle
  2
STANDARD
 70
     0
  3

 62
   256
 51
90.0
 52
90.0
 71
     2
 49
0.5
 62
   256
  6
BYLAYER
 49
-0.5
 62
   256
  6
BYLAYER
  0
ACAD_PROXY_OBJECT
  5
2B8
102
{ACAD_REACTORS
330
2B7
102
}
100
AcDbProxyObject
 90
      499
 91
      503
 93
        0
 94
        0
  0
XRECORD
  5
443
102
{ACAD_REACTORS
330
439
102
}
100
AcDbXrecord
 90
        0
  0
XRECORD
  5
447
102
{ACAD_REACTORS
330
439
102
}
100
AcDbXrecord
1000
DSTYLE
1002
{
1070
   341
340
37
1070
   343
340
37
1070
   344
340
37
1002
}
  0
XRECORD
  5
444
102
{ACAD_REACTORS
330
439
102
}
100
AcDbXrecord
  1
{34073256-F476-4C57-826A-03D4B44D3AFF}
  0
XRECORD
  5
43C
102
{ACAD_REACTORS
330
439
102
}
100
AcDbXrecord
  1

  0
XRECORD
  5
442
102
{ACAD_REACTORS
330
439
102
}
100
AcDbXrecord
 90
        0
  0
XRECORD
  5
43E
102
{ACAD_REACTORS
330
439
102
}
100
AcDbXrecord
340
2B9
  0
XRECORD
  5
441
102
{ACAD_REACTORS
330
439
102
}
100
AcDbXrecord
 90
    14877
  0
XRECORD
  5
43F
102
{ACAD_REACTORS
330
439
102
}
100
AcDbXrecord
340
2BA
  0
XRECORD
  5
440
102
{ACAD_REACTORS
330
439
102
}
100
AcDbXrecord
340
2B7
  0
XRECORD
  5
446
102
{ACAD_REACTORS
330
439
102
}
100
AcDbXrecord
 40
0.0
  0
XRECORD
  5
44A
102
{ACAD_REACTORS
330
439
102
}
100
AcDbXrecord
340
0
  0
XRECORD
  5
450
102
{ACAD_REACTORS
330
439
102
}
100
AcDbXrecord
 10
0.0
 20
0.0
 30
0.0
  0
XRECORD
  5
44C
102
{ACAD_REACTORS
330
439
102
}
100
AcDbXrecord
 10
0.0
 20
0.0
 30
0.0
  0
XRECORD
  5
44F
102
{ACAD_REACTORS
330
439
102
}
100
AcDbXrecord
 10
0.0
 20
0.0
 30
0.0
  0
XRECORD
  5
44D
102
{ACAD_REACTORS
330
439
102
}
100
AcDbXrecord
 10
0.0
 20
0.0
 30
0.0
  0
XRECORD
  5
44E
102
{ACAD_REACTORS
330
439
102
}
100
AcDbXrecord
 10
0.0
 20
0.0
 30
0.0
  0
XRECORD
  5
44B
102
{ACAD_REACTORS
330
439
102
}
100
AcDbXrecord
 10
0.0
 20
0.0
 30
0.0
  0
XRECORD
  5
448
102
{ACAD_REACTORS
330
439
102
}
100
AcDbXrecord
340
0
  0
XRECORD
  5
449
102
{ACAD_REACTORS
330
439
102
}
100
AcDbXrecord
 70
     0
  0
XRECORD
  5
43D
102
{ACAD_REACTORS
330
439
102
}
100
AcDbXrecord
  1

  0
XRECORD
  5
43A
102
{ACAD_REACTORS
330
439
102
}
100
AcDbXrecord
 90
        1
  0
XRECORD
  5
43B
102
{ACAD_REACTORS
330
439
102
}
100
AcDbXrecord
 90
       70
  0
XRECORD
  5
453
102
{ACAD_REACTORS
330
439
102
}
100
AcDbXrecord
340
0
  0
XRECORD
  5
459
102
{ACAD_REACTORS
330
439
102
}
100
AcDbXrecord
 10
0.0
 20
0.0
 30
0.0
  0
XRECORD
  5
455
102
{ACAD_REACTORS
330
439
102
}
100
AcDbXrecord
 10
0.0
 20
0.0
 30
0.0
  0
XRECORD
  5
458
102
{ACAD_REACTORS
330
439
102
}
100
AcDbXrecord
 10
0.0
 20
0.0
 30
0.0
  0
XRECORD
  5
456
102
{ACAD_REACTORS
330
439
102
}
100
AcDbXrecord
 10
0.0
 20
0.0
 30
0.0
  0
XRECORD
  5
457
102
{ACAD_REACTORS
330
439
102
}
100
AcDbXrecord
 10
0.0
 20
0.0
 30
0.0
  0
XRECORD
  5
454
102
{ACAD_REACTORS
330
439
102
}
100
AcDbXrecord
 10
0.0
 20
0.0
 30
0.0
  0
XRECORD
  5
451
102
{ACAD_REACTORS
330
439
102
}
100
AcDbXrecord
340
0
  0
XRECORD
  5
452
102
{ACAD_REACTORS
330
439
102
}
100
AcDbXrecord
 70
     0
  0
XRECORD
  5
445
102
{ACAD_REACTORS
330
439
102
}
100
AcDbXrecord
  1
{7E756BDE-D421-4DD1-A2D9-E70A5686299D}
  0
DICTIONARYVAR
  5
34
102
{ACAD_REACTORS
330
33
102
}
100
DictionaryVariables
280
     0
  1
0
  0
XRECORD
  5
45F
102
{ACAD_REACTORS
330
45E
102
}
100
AcDbXrecord
102
EXTNAMES
  1
MODEL
  2
Model
  0
ENDSEC
  0
EOF
