  0
SECTION
  2
HEADER
  9
$ACADVER
  1
AC1014
  9
$ACADMAINTVER
 70
     0
  9
$DWGCODEPAGE
  3
ANSI_932
  9
$INSBASE
 10
0.0
 20
0.0
 30
0.0
  9
$EXTMIN
 10
61.056186
 20
24.0426
 30
0.0
  9
$EXTMAX
 10
241.823317
 20
175.31313
 30
0.0
  9
$LIMMIN
 10
0.0
 20
0.0
  9
$LIMMAX
 10
297.0
 20
210.0
  9
$ORTHOMODE
 70
     1
  9
$REGENMODE
 70
     1
  9
$FILLMODE
 70
     1
  9
$QTEXTMODE
 70
     0
  9
$MIRRTEXT
 70
     1
  9
$DRAGMODE
 70
     2
  9
$LTSCALE
 40
0.707071
  9
$OSMODE
 70
    33
  9
$ATTMODE
 70
     1
  9
$TEXTSIZE
 40
1.767677
  9
$TRACEWID
 40
1.0
  9
$TEXTSTYLE
  7
STANDARD
  9
$CLAYER
  8
寸法
  9
$CELTYPE
  6
BYLAYER
  9
$CECOLOR
 62
   256
  9
$CELTSCALE
 40
1.0
  9
$DELOBJ
 70
     1
  9
$DISPSILH
 70
     0
  9
$DIMSCALE
 40
1.0
  9
$DIMASZ
 40
2.0
  9
$DIMEXO
 40
1.0
  9
$DIMDLI
 40
10.0
  9
$DIMRND
 40
0.0
  9
$DIMDLE
 40
0.0
  9
$DIMEXE
 40
1.0
  9
$DIMTP
 40
0.0
  9
$DIMTM
 40
0.0
  9
$DIMTXT
 40
3.0
  9
$DIMCEN
 40
2.0
  9
$DIMTSZ
 40
0.0
  9
$DIMTOL
 70
     0
  9
$DIMLIM
 70
     0
  9
$DIMTIH
 70
     0
  9
$DIMTOH
 70
     0
  9
$DIMSE1
 70
     0
  9
$DIMSE2
 70
     0
  9
$DIMTAD
 70
     1
  9
$DIMZIN
 70
     8
  9
$DIMBLK
  1

  9
$DIMASO
 70
     1
  9
$DIMSHO
 70
     1
  9
$DIMPOST
  1

  9
$DIMAPOST
  1

  9
$DIMALT
 70
     0
  9
$DIMALTD
 70
     2
  9
$DIMALTF
 40
25.4
  9
$DIMLFAC
 40
1.0
  9
$DIMTOFL
 70
     1
  9
$DIMTVP
 40
0.0
  9
$DIMTIX
 70
     0
  9
$DIMSOXD
 70
     0
  9
$DIMSAH
 70
     1
  9
$DIMBLK1
  1
OPEN30
  9
$DIMBLK2
  1
OPEN30
  9
$DIMSTYLE
  2
STANDARD
  9
$DIMCLRD
 70
     1
  9
$DIMCLRE
 70
     1
  9
$DIMCLRT
 70
     1
  9
$DIMTFAC
 40
1.0
  9
$DIMGAP
 40
1.0
  9
$DIMJUST
 70
     0
  9
$DIMSD1
 70
     0
  9
$DIMSD2
 70
     0
  9
$DIMTOLJ
 70
     1
  9
$DIMTZIN
 70
     0
  9
$DIMALTZ
 70
     0
  9
$DIMALTTZ
 70
     0
  9
$DIMFIT
 70
     3
  9
$DIMUPT
 70
     0
  9
$DIMUNIT
 70
     2
  9
$DIMDEC
 70
     2
  9
$DIMTDEC
 70
     4
  9
$DIMALTU
 70
     2
  9
$DIMALTTD
 70
     2
  9
$DIMTXSTY
  7
STANDARD
  9
$DIMAUNIT
 70
     0
  9
$LUNITS
 70
     2
  9
$LUPREC
 70
     4
  9
$SKETCHINC
 40
1.0
  9
$FILLETRAD
 40
7.070707
  9
$AUNITS
 70
     0
  9
$AUPREC
 70
     0
  9
$MENU
  1
acad
  9
$ELEVATION
 40
0.0
  9
$PELEVATION
 40
0.0
  9
$THICKNESS
 40
0.0
  9
$LIMCHECK
 70
     0
  9
$BLIPMODE
 70
     0
  9
$CHAMFERA
 40
7.070707
  9
$CHAMFERB
 40
7.070707
  9
$CHAMFERC
 40
14.141414
  9
$CHAMFERD
 40
0.0
  9
$SKPOLY
 70
     0
  9
$TDCREATE
 40
2451930.607465278
  9
$TDUPDATE
 40
2451977.422685185
  9
$TDINDWG
 40
0.0125892361
  9
$TDUSRTIMER
 40
0.0125892361
  9
$USRTIMER
 70
     1
  9
$ANGBASE
 50
0.0
  9
$ANGDIR
 70
     0
  9
$PDMODE
 70
     0
  9
$PDSIZE
 40
0.0
  9
$PLINEWID
 40
0.0
  9
$COORDS
 70
     1
  9
$SPLFRAME
 70
     0
  9
$SPLINETYPE
 70
     6
  9
$SPLINESEGS
 70
     8
  9
$ATTDIA
 70
     0
  9
$ATTREQ
 70
     1
  9
$HANDLING
 70
     1
  9
$HANDSEED
  5
432
  9
$SURFTAB1
 70
     6
  9
$SURFTAB2
 70
     6
  9
$SURFTYPE
 70
     6
  9
$SURFU
 70
     6
  9
$SURFV
 70
     6
  9
$UCSNAME
  2

  9
$UCSORG
 10
0.0
 20
0.0
 30
0.0
  9
$UCSXDIR
 10
1.0
 20
0.0
 30
0.0
  9
$UCSYDIR
 10
0.0
 20
1.0
 30
0.0
  9
$PUCSNAME
  2

  9
$PUCSORG
 10
0.0
 20
0.0
 30
0.0
  9
$PUCSXDIR
 10
1.0
 20
0.0
 30
0.0
  9
$PUCSYDIR
 10
0.0
 20
1.0
 30
0.0
  9
$USERI1
 70
     0
  9
$USERI2
 70
     0
  9
$USERI3
 70
     0
  9
$USERI4
 70
     0
  9
$USERI5
 70
     0
  9
$USERR1
 40
0.0
  9
$USERR2
 40
0.0
  9
$USERR3
 40
0.0
  9
$USERR4
 40
0.0
  9
$USERR5
 40
0.0
  9
$WORLDVIEW
 70
     1
  9
$SHADEDGE
 70
     3
  9
$SHADEDIF
 70
    70
  9
$TILEMODE
 70
     1
  9
$MAXACTVP
 70
    48
  9
$PINSBASE
 10
0.0
 20
0.0
 30
0.0
  9
$PLIMCHECK
 70
     0
  9
$PEXTMIN
 10
1.000000E+20
 20
1.000000E+20
 30
1.000000E+20
  9
$PEXTMAX
 10
-1.000000E+20
 20
-1.000000E+20
 30
-1.000000E+20
  9
$PLIMMIN
 10
0.0
 20
0.0
  9
$PLIMMAX
 10
420.0
 20
297.0
  9
$UNITMODE
 70
     0
  9
$VISRETAIN
 70
     1
  9
$PLINEGEN
 70
     0
  9
$PSLTSCALE
 70
     1
  9
$TREEDEPTH
 70
  3020
  9
$PICKSTYLE
 70
     1
  9
$CMLSTYLE
  2
STANDARD
  9
$CMLJUST
 70
     0
  9
$CMLSCALE
 40
20.0
  9
$PROXYGRAPHICS
 70
     1
  9
$MEASUREMENT
 70
     1
  0
ENDSEC
  0
SECTION
  2
CLASSES
  0
CLASS
  1
DICTIONARYVAR
  2
AcDbDictionaryVar
  3
"AutoCAD"
 90
        0
280
     0
281
     0
  0
CLASS
  1
LWPOLYLINE
  2
AcDbPolyline
  3
"AutoCAD"
 90
        0
280
     0
281
     1
  0
CLASS
  1
ACDBDICTIONARYWDFLT
  2
AcDbDictionaryWithDefault
  3
AutoCAD 2000
 90
        0
280
     0
281
     0
  0
CLASS
  1
ACDBPLACEHOLDER
  2
AcDbPlaceHolder
  3
AutoCAD 2000
 90
        0
280
     0
281
     0
  0
CLASS
  1
LAYOUT
  2
AcDbLayout
  3
AutoCAD 2000
 90
        0
280
     0
281
     0
  0
CLASS
  1
LONG_TRANSACTION
  2
AcDbLongTransaction
  3
AutoCAD 2000
 90
        0
280
     0
281
     0
  0
CLASS
  1
LWPOLYLINE
  2
AcDbPolyline
  3
"AutoCAD"
 90
        0
280
     0
281
     1
  0
CLASS
  1
HATCH
  2
AcDbHatch
  3
"ACAD_SEDONA"
 90
        0
280
     0
281
     1
  0
CLASS
  1
XRECORD
  2
AcDbXrecord
  3
"<Built In>"
 90
        0
280
     0
281
     0
  0
ENDSEC
  0
SECTION
  2
TABLES
  0
TABLE
  2
VPORT
  5
8
100
AcDbSymbolTable
 70
     3
  0
VPORT
  5
431
100
AcDbSymbolTableRecord
100
AcDbViewportTableRecord
  2
*ACTIVE
 70
     0
 10
0.0
 20
0.0
 11
1.0
 21
1.0
 12
175.020166
 22
101.139313
 13
0.0
 23
0.0
 14
10.0
 24
10.0
 15
10.0
 25
10.0
 16
0.0
 26
0.0
 36
1.0
 17
0.0
 27
0.0
 37
0.0
 40
215.488885
 41
1.710425
 42
50.0
 43
0.0
 44
0.0
 50
0.0
 51
0.0
 71
     0
 72
   100
 73
     1
 74
     1
 75
     0
 76
     0
 77
     0
 78
     0
  0
ENDTAB
  0
TABLE
  2
LTYPE
  5
5
100
AcDbSymbolTable
 70
     5
  0
LTYPE
  5
12
100
AcDbSymbolTableRecord
100
AcDbLinetypeTableRecord
  2
BYBLOCK
 70
     0
  3

 72
    65
 73
     0
 40
0.0
  0
LTYPE
  5
13
100
AcDbSymbolTableRecord
100
AcDbLinetypeTableRecord
  2
BYLAYER
 70
     0
  3

 72
    65
 73
     0
 40
0.0
  0
LTYPE
  5
14
100
AcDbSymbolTableRecord
100
AcDbLinetypeTableRecord
  2
CONTINUOUS
 70
     0
  3
Solid line
 72
    65
 73
     0
 40
0.0
  0
LTYPE
  5
4E
100
AcDbSymbolTableRecord
100
AcDbLinetypeTableRecord
  2
DASHED
 70
     0
  3
__ __ __ __ __ __ __ __ __ __ __ __ __ __ __
 72
    65
 73
     2
 40
3.5
 49
2.0
 74
     0
 49
-1.5
 74
     0
  0
LTYPE
  5
4F
100
AcDbSymbolTableRecord
100
AcDbLinetypeTableRecord
  2
CENTER
 70
     0
  3
____ _ ____ _ ____ _ ____ _ ____ _ ____ _ ____
 72
    65
 73
     4
 40
17.5
 49
13.0
 74
     0
 49
-1.5
 74
     0
 49
1.5
 74
     0
 49
-1.5
 74
     0
  0
LTYPE
  5
50
100
AcDbSymbolTableRecord
100
AcDbLinetypeTableRecord
  2
PHANTOM
 70
     0
  3
_____ _ _ _____ _ _ _____ _ _ _____ _ _ ____  
 72
    65
 73
     6
 40
15.5
 49
8.0
 74
     0
 49
-1.5
 74
     0
 49
1.5
 74
     0
 49
-1.5
 74
     0
 49
1.5
 74
     0
 49
-1.5
 74
     0
  0
LTYPE
  5
51
100
AcDbSymbolTableRecord
100
AcDbLinetypeTableRecord
  2
DOT
 70
     0
  3
. . . . . . . . . . . . . . . . . . . . . . . .
 72
    65
 73
     2
 40
0.25
 49
0.0
 74
     0
 49
-0.25
 74
     0
  0
ENDTAB
  0
TABLE
  2
LAYER
  5
2
100
AcDbSymbolTable
 70
     3
  0
LAYER
  5
E
100
AcDbSymbolTableRecord
100
AcDbLayerTableRecord
  2
0
 70
     0
 62
     7
  6
CONTINUOUS
  0
LAYER
  5
2CB
100
AcDbSymbolTableRecord
100
AcDbLayerTableRecord
  2
寸法
 70
     0
 62
     1
  6
CONTINUOUS
  0
LAYER
  5
2CE
102
{ACAD_XDICTIONARY
360
3C3
102
}
100
AcDbSymbolTableRecord
100
AcDbLayerTableRecord
  2
DEFPOINTS
 70
     0
 62
     7
  6
CONTINUOUS
  0
ENDTAB
  0
TABLE
  2
STYLE
  5
3
100
AcDbSymbolTable
 70
     1
  0
STYLE
  5
F
100
AcDbSymbolTableRecord
100
AcDbTextStyleTableRecord
  2
STANDARD
 70
     0
 40
0.0
 41
1.0
 50
0.0
 71
     0
 42
1.767677
  3
txt.shx
  4
bigfont.shx
  0
ENDTAB
  0
TABLE
  2
VIEW
  5
6
100
AcDbSymbolTable
 70
     0
  0
ENDTAB
  0
TABLE
  2
UCS
  5
7
100
AcDbSymbolTable
 70
     0
  0
ENDTAB
  0
TABLE
  2
APPID
  5
9
100
AcDbSymbolTable
 70
     3
  0
APPID
  5
10
100
AcDbSymbolTableRecord
100
AcDbRegAppTableRecord
  2
ACAD
 70
     0
  0
APPID
  5
24
100
AcDbSymbolTableRecord
100
AcDbRegAppTableRecord
  2
CONTENTTABDATA
 70
     0
  0
APPID
  5
25
100
AcDbSymbolTableRecord
100
AcDbRegAppTableRecord
  2
CONTENTCURRENTTAB
 70
     0
  0
ENDTAB
  0
TABLE
  2
DIMSTYLE
  5
A
100
AcDbSymbolTable
 70
     2
  0
DIMSTYLE
105
1D
102
{ACAD_XDICTIONARY
360
3EC
102
}
102
{ACAD_REACTORS
330
2EC
330
2FA
330
307
330
314
330
323
330
334
330
341
330
34E
330
36D
330
37A
330
39E
330
3AF
102
}
100
AcDbSymbolTableRecord
100
AcDbDimStyleTableRecord
  2
STANDARD
 70
     0
  3

  4

  5

  6
OPEN30
  7
OPEN30
 40
1.0
 41
2.0
 42
1.0
 43
10.0
 44
1.0
 45
0.0
 46
0.0
 47
0.0
 48
0.0
140
3.0
141
2.0
142
0.0
143
25.4
144
1.0
145
0.0
146
1.0
147
1.0
 71
     0
 72
     0
 73
     0
 74
     0
 75
     0
 76
     0
 77
     1
 78
     8
170
     0
171
     2
172
     1
173
     1
174
     0
175
     0
176
     1
177
     1
178
     1
270
     2
271
     2
272
     4
273
     2
274
     2
340
F
275
     0
280
     0
281
     0
282
     0
283
     1
284
     0
285
     0
286
     0
287
     3
288
     0
  0
DIMSTYLE
105
35
100
AcDbSymbolTableRecord
100
AcDbDimStyleTableRecord
  2
STANDARD_WS
 70
     0
  3

  4

  5

  6

  7

 40
0.707071
 41
2.5
 42
0.625
 43
3.75
 44
1.25
 45
0.0
 46
0.0
 47
0.0
 48
0.0
140
2.5
141
2.5
142
0.0
143
0.0394
144
1.0
145
0.0
146
1.0
147
0.625
 71
     0
 72
     0
 73
     0
 74
     0
 75
     0
 76
     0
 77
     1
 78
     8
170
     0
171
     4
172
     1
173
     0
174
     0
175
     0
176
     0
177
     0
178
     0
270
     2
271
     4
272
     4
273
     8
274
     4
340
F
275
     0
280
     0
281
     0
282
     0
283
     1
284
     0
285
     0
286
     0
287
     3
288
     0
  0
ENDTAB
  0
TABLE
  2
BLOCK_RECORD
  5
1
100
AcDbSymbolTable
 70
    15
  0
BLOCK_RECORD
  5
18
102
{ACAD_XDICTIONARY
360
3EA
102
}
100
AcDbSymbolTableRecord
100
AcDbBlockTableRecord
  2
*MODEL_SPACE
  0
BLOCK_RECORD
  5
15
102
{ACAD_XDICTIONARY
360
3E8
102
}
100
AcDbSymbolTableRecord
100
AcDbBlockTableRecord
  2
*PAPER_SPACE
  0
BLOCK_RECORD
  5
37
100
AcDbSymbolTableRecord
100
AcDbBlockTableRecord
  2
_OPEN30
  0
BLOCK_RECORD
  5
52
100
AcDbSymbolTableRecord
100
AcDbBlockTableRecord
  2
BU135ER
  0
BLOCK_RECORD
  5
2ED
100
AcDbSymbolTableRecord
100
AcDbBlockTableRecord
  2
*D2
  0
BLOCK_RECORD
  5
2FB
100
AcDbSymbolTableRecord
100
AcDbBlockTableRecord
  2
*D3
  0
BLOCK_RECORD
  5
308
100
AcDbSymbolTableRecord
100
AcDbBlockTableRecord
  2
*D4
  0
BLOCK_RECORD
  5
315
100
AcDbSymbolTableRecord
100
AcDbBlockTableRecord
  2
*D5
  0
BLOCK_RECORD
  5
324
100
AcDbSymbolTableRecord
100
AcDbBlockTableRecord
  2
*D6
  0
BLOCK_RECORD
  5
335
100
AcDbSymbolTableRecord
100
AcDbBlockTableRecord
  2
*D7
  0
BLOCK_RECORD
  5
342
100
AcDbSymbolTableRecord
100
AcDbBlockTableRecord
  2
*D8
  0
BLOCK_RECORD
  5
34F
100
AcDbSymbolTableRecord
100
AcDbBlockTableRecord
  2
*D9
  0
BLOCK_RECORD
  5
36E
100
AcDbSymbolTableRecord
100
AcDbBlockTableRecord
  2
*D10
  0
BLOCK_RECORD
  5
37B
100
AcDbSymbolTableRecord
100
AcDbBlockTableRecord
  2
*D11
  0
BLOCK_RECORD
  5
39F
100
AcDbSymbolTableRecord
100
AcDbBlockTableRecord
  2
*D12
  0
BLOCK_RECORD
  5
3B0
100
AcDbSymbolTableRecord
100
AcDbBlockTableRecord
  2
*D13
  0
BLOCK_RECORD
  5
426
100
AcDbSymbolTableRecord
100
AcDbBlockTableRecord
  2
A$C776226A5
  0
ENDTAB
  0
ENDSEC
  0
SECTION
  2
BLOCKS
  0
BLOCK
  5
19
100
AcDbEntity
  8
0
100
AcDbBlockBegin
  2
*MODEL_SPACE
 70
     0
 10
0.0
 20
0.0
 30
0.0
  3
*MODEL_SPACE
  1

  0
ENDBLK
  5
1A
100
AcDbEntity
  8
0
100
AcDbBlockEnd
  0
BLOCK
  5
16
100
AcDbEntity
 67
     1
  8
0
100
AcDbBlockBegin
  2
*PAPER_SPACE
 70
     0
 10
0.0
 20
0.0
 30
0.0
  3
*PAPER_SPACE
  1

  0
ENDBLK
  5
17
100
AcDbEntity
 67
     1
  8
0
100
AcDbBlockEnd
  0
BLOCK
  5
38
100
AcDbEntity
  8
0
100
AcDbBlockBegin
  2
_OPEN30
 70
     0
 10
0.0
 20
0.0
 30
0.0
  3
_OPEN30
  1

  0
LINE
  5
39
100
AcDbEntity
  8
0
  6
BYBLOCK
 62
     0
100
AcDbLine
 10
-1.0
 20
0.267949
 30
0.0
 11
0.0
 21
0.0
 31
0.0
  0
LINE
  5
3A
100
AcDbEntity
  8
0
  6
BYBLOCK
 62
     0
100
AcDbLine
 10
0.0
 20
0.0
 30
0.0
 11
-1.0
 21
-0.267949
 31
0.0
  0
LINE
  5
3B
100
AcDbEntity
  8
0
  6
BYBLOCK
 62
     0
100
AcDbLine
 10
0.0
 20
0.0
 30
0.0
 11
-1.0
 21
0.0
 31
0.0
  0
ENDBLK
  5
3C
100
AcDbEntity
  8
0
100
AcDbBlockEnd
  0
BLOCK
  5
185
100
AcDbEntity
  8
0
100
AcDbBlockBegin
  2
BU135ER
 70
     0
 10
0.0
 20
0.0
 30
0.0
  3
BU135ER
  1

  0
POINT
  5
53
100
AcDbEntity
  8
0
  6
CONTINUOUS
 62
     7
100
AcDbPoint
 10
-35.254349
 20
10.99852
 30
0.0
  0
POINT
  5
54
100
AcDbEntity
  8
0
  6
CONTINUOUS
 62
     7
100
AcDbPoint
 10
-6.349999
 20
10.99852
 30
0.0
  0
POINT
  5
55
100
AcDbEntity
  8
0
  6
CONTINUOUS
 62
     7
100
AcDbPoint
 10
-6.349998
 20
-50.001465
 30
0.0
  0
POINT
  5
56
100
AcDbEntity
  8
0
  6
CONTINUOUS
 62
     7
100
AcDbPoint
 10
88.153992
 20
-66.00148
 30
0.0
  0
LINE
  5
57
100
AcDbEntity
  8
0
  6
CONTINUOUS
 62
     7
100
AcDbLine
 10
-40.254333
 20
-1.00148
 30
0.0
 11
-33.254349
 21
-1.00148
 31
0.0
  0
LINE
  5
58
100
AcDbEntity
  8
0
  6
CONTINUOUS
 62
     7
100
AcDbLine
 10
0.0
 20
0.0
 30
0.0
 11
10.998517
 21
6.349998
 31
0.0
  0
LINE
  5
59
100
AcDbEntity
  8
0
  6
CONTINUOUS
 62
     7
100
AcDbLine
 10
-6.375108
 20
11.042011
 30
0.0
 11
0.578205
 21
-1.00148
 31
0.0
  0
LINE
  5
5A
100
AcDbEntity
  8
0
  6
CONTINUOUS
 62
     7
100
AcDbLine
 10
-6.349999
 20
10.99852
 30
0.0
 11
5.774355
 21
17.998518
 31
0.0
  0
LINE
  5
5B
100
AcDbEntity
  8
0
  6
CONTINUOUS
 62
     7
100
AcDbLine
 10
4.64852
 20
17.348518
 30
0.0
 11
10.998518
 21
6.349998
 31
0.0
  0
LINE
  5
5C
100
AcDbEntity
  8
0
  6
CONTINUOUS
 62
     7
100
AcDbLine
 10
51.649994
 20
17.99852
 30
0.0
 11
51.649994
 21
2.365875
 31
0.0
  0
LINE
  5
5D
100
AcDbEntity
  8
0
  6
CONTINUOUS
 62
     7
100
AcDbLine
 10
5.774354
 20
17.99852
 30
0.0
 11
51.649994
 21
17.99852
 31
0.0
  0
LINE
  5
5E
100
AcDbEntity
  8
0
  6
CONTINUOUS
 62
     7
100
AcDbLine
 10
9.824418
 20
-48.00148
 30
0.0
 11
51.649994
 21
-48.00148
 31
0.0
  0
LINE
  5
5F
100
AcDbEntity
  8
0
  6
CONTINUOUS
 62
     7
100
AcDbLine
 10
-4.668329
 20
-66.00148
 30
0.0
 11
51.649994
 21
-66.00148
 31
0.0
  0
LINE
  5
60
100
AcDbEntity
  8
0
  6
CONTINUOUS
 62
     7
100
AcDbLine
 10
51.649994
 20
-48.00148
 30
0.0
 11
51.649994
 21
-66.00148
 31
0.0
  0
LINE
  5
61
100
AcDbEntity
  8
0
  6
CENTER
 62
     7
100
AcDbLine
 10
10.649994
 20
-54.00148
 30
0.0
 11
10.649994
 21
-62.00148
 31
0.0
  0
LINE
  5
62
100
AcDbEntity
  8
0
  6
CONTINUOUS
 62
     7
100
AcDbLine
 10
-6.349997
 20
-50.001465
 30
0.0
 11
0.031185
 21
-49.330776
 31
0.0
  0
LINE
  5
63
100
AcDbEntity
  8
0
  6
CONTINUOUS
 62
     7
100
AcDbLine
 10
-5.848261
 20
-54.775158
 30
0.0
 11
0.53292
 21
-54.104469
 31
0.0
  0
LINE
  5
64
100
AcDbEntity
  8
0
  6
CENTER
 62
     7
100
AcDbLine
 10
6.649994
 20
-58.00148
 30
0.0
 11
14.649994
 21
-58.00148
 31
0.0
  0
LINE
  5
65
100
AcDbEntity
  8
0
  6
CONTINUOUS
 62
     7
100
AcDbLine
 10
103.14999
 20
-49.50148
 30
0.0
 11
103.14999
 21
-64.391472
 31
0.0
  0
LINE
  5
66
100
AcDbEntity
  8
0
  6
CONTINUOUS
 62
     7
100
AcDbLine
 10
89.649979
 20
-48.00148
 30
0.0
 11
101.64999
 21
-48.00148
 31
0.0
  0
LINE
  5
67
100
AcDbEntity
  8
0
  6
CONTINUOUS
 62
     7
100
AcDbLine
 10
89.649979
 20
-48.00148
 30
0.0
 11
87.408211
 21
-63.952461
 31
0.0
  0
LINE
  5
68
100
AcDbEntity
  8
0
  6
CONTINUOUS
 62
     7
100
AcDbLine
 10
-49.754349
 20
17.99852
 30
0.0
 11
-34.754349
 21
17.99852
 31
0.0
  0
LINE
  5
69
100
AcDbEntity
  8
0
  6
CONTINUOUS
 62
     7
100
AcDbLine
 10
-51.254349
 20
16.49852
 30
0.0
 11
-51.254349
 21
3.002193
 31
0.0
  0
LINE
  5
6A
100
AcDbEntity
  8
0
  6
CONTINUOUS
 62
     7
100
AcDbLine
 10
9.824418
 20
16.49852
 30
0.0
 11
51.649994
 21
16.49852
 31
0.0
  0
LINE
  5
6B
100
AcDbEntity
  8
0
  6
CONTINUOUS
 62
     7
100
AcDbLine
 10
16.149994
 20
4.49852
 30
0.0
 11
51.649994
 21
4.49852
 31
0.0
  0
LINE
  5
6C
100
AcDbEntity
  8
0
  6
CENTER
 62
     7
100
AcDbLine
 10
-1.659456
 20
6.374257
 30
0.0
 11
6.307975
 21
10.974256
 31
0.0
  0
LINE
  5
6D
100
AcDbEntity
  8
0
  6
CENTER
 62
     7
100
AcDbLine
 10
0.02426
 20
12.657973
 30
0.0
 11
4.62426
 21
4.69054
 31
0.0
  0
LINE
  5
6E
100
AcDbEntity
  8
0
  6
CENTER
 62
     7
100
AcDbLine
 10
37.649994
 20
-45.006836
 30
0.0
 11
37.649994
 21
-64.853088
 31
0.0
  0
LINE
  5
6F
100
AcDbEntity
  8
0
  6
CENTER
 62
     7
100
AcDbLine
 10
39.399994
 20
-45.006836
 30
0.0
 11
39.399994
 21
-65.062675
 31
0.0
  0
LINE
  5
70
100
AcDbEntity
  8
0
  6
CENTER
 62
     7
100
AcDbLine
 10
35.899994
 20
-45.006836
 30
0.0
 11
35.899994
 21
-64.957886
 31
0.0
  0
LINE
  5
71
100
AcDbEntity
  8
0
  6
CENTER
 62
     7
100
AcDbLine
 10
37.649994
 20
20.94754
 30
0.0
 11
37.649994
 21
-0.376465
 31
0.0
  0
LINE
  5
72
100
AcDbEntity
  8
0
  6
CONTINUOUS
 62
     7
100
AcDbLine
 10
0.578205
 20
-1.00148
 30
0.0
 11
6.150001
 21
-1.00148
 31
0.0
  0
LINE
  5
73
100
AcDbEntity
  8
0
  6
CONTINUOUS
 62
     7
100
AcDbLine
 10
15.650001
 20
3.99852
 30
0.0
 11
15.650001
 21
-0.170338
 31
0.0
  0
LINE
  5
74
100
AcDbEntity
  8
0
  6
CONTINUOUS
 62
     7
100
AcDbLine
 10
6.150001
 20
-48.386032
 30
0.0
 11
6.150001
 21
-55.00148
 31
0.0
  0
LINE
  5
75
100
AcDbEntity
  8
0
  6
CONTINUOUS
 62
     7
100
AcDbLine
 10
6.150003
 20
-1.001479
 30
0.0
 11
15.649998
 21
-0.170338
 31
0.0
  0
LINE
  5
76
100
AcDbEntity
  8
0
  6
CONTINUOUS
 62
     7
100
AcDbLine
 10
-6.349999
 20
-50.00145
 30
0.0
 11
-4.668332
 21
-66.00145
 31
0.0
  0
LINE
  5
77
100
AcDbEntity
  8
0
  6
CONTINUOUS
 62
     7
100
AcDbLine
 10
-51.254345
 20
3.00219
 30
0.0
 11
-40.254337
 21
-1.001485
 31
0.0
  0
LINE
  5
78
100
AcDbEntity
  8
0
  6
CONTINUOUS
 62
     7
100
AcDbLine
 10
-33.254349
 20
16.49852
 30
0.0
 11
-33.254349
 21
-1.00148
 31
0.0
  0
LINE
  5
79
100
AcDbEntity
  8
0
  6
CONTINUOUS
 62
     7
100
AcDbLine
 10
0.6272
 20
-55.00148
 30
0.0
 11
6.150001
 21
-55.00148
 31
0.0
  0
LINE
  5
7A
100
AcDbEntity
  8
0
  6
CONTINUOUS
 62
     7
100
AcDbLine
 10
6.149999
 20
-55.001453
 30
0.0
 11
8.852215
 21
-55.599815
 31
0.0
  0
LINE
  5
7B
100
AcDbEntity
  8
0
  6
CONTINUOUS
 62
     7
100
AcDbLine
 10
13.293616
 20
-56.583294
 30
0.0
 11
15.649982
 21
-57.105072
 31
0.0
  0
LINE
  5
7C
100
AcDbEntity
  8
0
  6
CONTINUOUS
 62
     7
100
AcDbLine
 10
15.650001
 20
-48.00148
 30
0.0
 11
15.650001
 21
-63.952461
 31
0.0
  0
LINE
  5
7D
100
AcDbEntity
  8
0
  6
CENTER
 62
     7
100
AcDbLine
 10
2.043898
 20
-46.422298
 30
0.0
 11
4.282554
 21
-67.721695
 31
0.0
  0
LINE
  5
7E
100
AcDbEntity
  8
0
  6
CONTINUOUS
 62
     7
100
AcDbLine
 10
59.649994
 20
12.99852
 30
0.0
 11
59.649994
 21
8.99852
 31
0.0
  0
LINE
  5
7F
100
AcDbEntity
  8
0
  6
CENTER
 62
     7
100
AcDbLine
 10
47.589848
 20
10.99852
 30
0.0
 11
71.508018
 21
10.99852
 31
0.0
  0
LINE
  5
80
100
AcDbEntity
  8
0
  6
CONTINUOUS
 62
     7
100
AcDbLine
 10
54.649994
 20
14.99852
 30
0.0
 11
54.649994
 21
6.99852
 31
0.0
  0
LINE
  5
81
100
AcDbEntity
  8
0
  6
CONTINUOUS
 62
     7
100
AcDbLine
 10
51.649994
 20
8.49852
 30
0.0
 11
54.649994
 21
8.49852
 31
0.0
  0
LINE
  5
82
100
AcDbEntity
  8
0
  6
CONTINUOUS
 62
     7
100
AcDbLine
 10
51.649994
 20
13.49852
 30
0.0
 11
54.649994
 21
13.49852
 31
0.0
  0
LINE
  5
83
100
AcDbEntity
  8
0
  6
CONTINUOUS
 62
     7
100
AcDbLine
 10
57.149994
 20
15.498518
 30
0.0
 11
59.649994
 21
12.99852
 31
0.0
  0
LINE
  5
84
100
AcDbEntity
  8
0
  6
CONTINUOUS
 62
     7
100
AcDbLine
 10
57.14999
 20
6.498519
 30
0.0
 11
59.64999
 21
8.998518
 31
0.0
  0
LINE
  5
85
100
AcDbEntity
  8
0
  6
CONTINUOUS
 62
     7
100
AcDbLine
 10
55.149994
 20
6.49852
 30
0.0
 11
57.149994
 21
6.49852
 31
0.0
  0
LINE
  5
86
100
AcDbEntity
  8
0
  6
CONTINUOUS
 62
     7
100
AcDbLine
 10
55.149994
 20
15.49852
 30
0.0
 11
57.149994
 21
15.49852
 31
0.0
  0
LINE
  5
87
100
AcDbEntity
  8
0
  6
CONTINUOUS
 62
     7
100
AcDbLine
 10
55.14999
 20
15.498516
 30
0.0
 11
54.649994
 21
14.998518
 31
0.0
  0
LINE
  5
88
100
AcDbEntity
  8
0
  6
CONTINUOUS
 62
     7
100
AcDbLine
 10
54.649998
 20
6.998523
 30
0.0
 11
55.149998
 21
6.498522
 31
0.0
  0
LINE
  5
89
100
AcDbEntity
  8
0
  6
CONTINUOUS
 62
     7
100
AcDbLine
 10
55.149994
 20
15.49852
 30
0.0
 11
55.149994
 21
6.498519
 31
0.0
  0
LINE
  5
8A
100
AcDbEntity
  8
0
  6
CONTINUOUS
 62
     7
100
AcDbLine
 10
57.149994
 20
15.49852
 30
0.0
 11
57.149994
 21
6.49852
 31
0.0
  0
LINE
  5
8B
100
AcDbEntity
  8
0
  6
CONTINUOUS
 62
     7
100
AcDbLine
 10
51.649994
 20
8.99852
 30
0.0
 11
54.649994
 21
8.99852
 31
0.0
  0
LINE
  5
8C
100
AcDbEntity
  8
0
  6
CONTINUOUS
 62
     7
100
AcDbLine
 10
51.649994
 20
12.99852
 30
0.0
 11
54.649994
 21
12.99852
 31
0.0
  0
LINE
  5
8D
100
AcDbEntity
  8
0
  6
CONTINUOUS
 62
     7
100
AcDbLine
 10
59.649994
 20
-55.50148
 30
0.0
 11
59.649994
 21
-59.50148
 31
0.0
  0
LINE
  5
8E
100
AcDbEntity
  8
0
  6
CENTER
 62
     7
100
AcDbLine
 10
49.082561
 20
-57.50148
 30
0.0
 11
61.580669
 21
-57.50148
 31
0.0
  0
LINE
  5
8F
100
AcDbEntity
  8
0
  6
CONTINUOUS
 62
     7
100
AcDbLine
 10
54.649994
 20
-53.50148
 30
0.0
 11
54.649994
 21
-61.50148
 31
0.0
  0
LINE
  5
90
100
AcDbEntity
  8
0
  6
CONTINUOUS
 62
     7
100
AcDbLine
 10
51.649994
 20
-60.00148
 30
0.0
 11
54.649994
 21
-60.00148
 31
0.0
  0
LINE
  5
91
100
AcDbEntity
  8
0
  6
CONTINUOUS
 62
     7
100
AcDbLine
 10
51.649994
 20
-55.00148
 30
0.0
 11
54.649994
 21
-55.00148
 31
0.0
  0
LINE
  5
92
100
AcDbEntity
  8
0
  6
CONTINUOUS
 62
     7
100
AcDbLine
 10
57.149994
 20
-53.00148
 30
0.0
 11
59.64999
 21
-55.501476
 31
0.0
  0
LINE
  5
93
100
AcDbEntity
  8
0
  6
CONTINUOUS
 62
     7
100
AcDbLine
 10
57.149994
 20
-62.00148
 30
0.0
 11
59.649994
 21
-59.50148
 31
0.0
  0
LINE
  5
94
100
AcDbEntity
  8
0
  6
CONTINUOUS
 62
     7
100
AcDbLine
 10
55.149994
 20
-62.00148
 30
0.0
 11
57.149994
 21
-62.00148
 31
0.0
  0
LINE
  5
95
100
AcDbEntity
  8
0
  6
CONTINUOUS
 62
     7
100
AcDbLine
 10
55.149994
 20
-53.00148
 30
0.0
 11
57.149994
 21
-53.00148
 31
0.0
  0
LINE
  5
96
100
AcDbEntity
  8
0
  6
CONTINUOUS
 62
     7
100
AcDbLine
 10
55.14999
 20
-53.001484
 30
0.0
 11
54.649994
 21
-53.50148
 31
0.0
  0
LINE
  5
97
100
AcDbEntity
  8
0
  6
CONTINUOUS
 62
     7
100
AcDbLine
 10
54.649998
 20
-61.50148
 30
0.0
 11
55.149998
 21
-62.00148
 31
0.0
  0
LINE
  5
98
100
AcDbEntity
  8
0
  6
CONTINUOUS
 62
     7
100
AcDbLine
 10
55.149994
 20
-53.00148
 30
0.0
 11
55.149994
 21
-62.00148
 31
0.0
  0
LINE
  5
99
100
AcDbEntity
  8
0
  6
CONTINUOUS
 62
     7
100
AcDbLine
 10
57.149994
 20
-53.00148
 30
0.0
 11
57.149994
 21
-62.00148
 31
0.0
  0
LINE
  5
9A
100
AcDbEntity
  8
0
  6
CONTINUOUS
 62
     7
100
AcDbLine
 10
51.649994
 20
-59.50148
 30
0.0
 11
54.649994
 21
-59.50148
 31
0.0
  0
LINE
  5
9B
100
AcDbEntity
  8
0
  6
CONTINUOUS
 62
     7
100
AcDbLine
 10
51.649994
 20
-55.50148
 30
0.0
 11
54.649994
 21
-55.50148
 31
0.0
  0
LINE
  5
9C
100
AcDbEntity
  8
0
  6
CONTINUOUS
 62
     7
100
AcDbLine
 10
88.153992
 20
-66.00148
 30
0.0
 11
90.153992
 21
-66.00148
 31
0.0
  0
LINE
  5
9D
100
AcDbEntity
  8
0
  6
CONTINUOUS
 62
     7
100
AcDbLine
 10
88.153992
 20
-66.00148
 30
0.0
 11
87.408211
 21
-63.952465
 31
0.0
  0
LINE
  5
9E
100
AcDbEntity
  8
0
  6
CONTINUOUS
 62
     7
100
AcDbLine
 10
90.153999
 20
-66.00489
 30
0.0
 11
101.63679
 21
-65.904678
 31
0.0
  0
LINE
  5
9F
100
AcDbEntity
  8
0
  6
CONTINUOUS
 62
     7
100
AcDbLine
 10
103.14999
 20
-64.391472
 30
0.0
 11
101.63679
 21
-65.904678
 31
0.0
  0
LINE
  5
A0
100
AcDbEntity
  8
0
  6
CONTINUOUS
 62
     7
100
AcDbLine
 10
15.650001
 20
-63.952461
 30
0.0
 11
51.649994
 21
-63.952461
 31
0.0
  0
LINE
  5
A1
100
AcDbEntity
  8
0
  6
CONTINUOUS
 62
     7
100
AcDbLine
 10
101.64999
 20
-48.001484
 30
0.0
 11
103.14999
 21
-49.50148
 31
0.0
  0
LINE
  5
A2
100
AcDbEntity
  8
0
  6
CONTINUOUS
 62
     7
100
AcDbLine
 10
16.150002
 20
2.25652
 30
0.0
 11
51.649994
 21
2.25652
 31
0.0
  0
LINE
  5
A3
100
AcDbEntity
  8
0
  6
CENTER
 62
     7
100
AcDbLine
 10
10.649994
 20
21.046036
 30
0.0
 11
10.649994
 21
-2.366298
 31
0.0
  0
LINE
  5
A4
100
AcDbEntity
  8
0
  6
CONTINUOUS
 62
     7
100
AcDbLine
 10
-34.586922
 20
0.0
 30
0.0
 11
-35.254349
 21
10.99852
 31
0.0
  0
LINE
  5
A5
100
AcDbEntity
  8
0
  6
CONTINUOUS
 62
     7
100
AcDbLine
 10
-39.395752
 20
0.0
 30
0.0
 11
-34.586922
 21
0.0
 31
0.0
  0
LINE
  5
A6
100
AcDbEntity
  8
0
  6
CONTINUOUS
 62
     7
100
AcDbLine
 10
-39.395752
 20
0.0
 30
0.0
 11
-40.063179
 21
10.99852
 31
0.0
  0
LINE
  5
A7
100
AcDbEntity
  8
0
  6
CONTINUOUS
 62
     7
100
AcDbLine
 10
-51.254349
 20
10.99852
 30
0.0
 11
-35.254349
 21
10.99852
 31
0.0
  0
LINE
  5
A8
100
AcDbEntity
  8
0
  6
CONTINUOUS
 62
     7
100
AcDbLine
 10
-34.586922
 20
0.0
 30
0.0
 11
-33.430931
 21
6.349998
 31
0.0
  0
LINE
  5
A9
100
AcDbEntity
  8
0
  6
CONTINUOUS
 62
     7
100
AcDbLine
 10
-35.254349
 20
10.99852
 30
0.0
 11
-34.098358
 21
17.348516
 31
0.0
  0
LINE
  5
AA
100
AcDbEntity
  8
0
  6
CONTINUOUS
 62
     7
100
AcDbLine
 10
-40.063179
 20
10.99852
 30
0.0
 11
-38.907188
 21
17.348516
 31
0.0
  0
LINE
  5
AB
100
AcDbEntity
  8
0
  6
CONTINUOUS
 62
     7
100
AcDbLine
 10
-33.430931
 20
6.349997
 30
0.0
 11
-34.098358
 21
17.348516
 31
0.0
  0
LINE
  5
AC
100
AcDbEntity
  8
0
  6
CONTINUOUS
 62
     7
100
AcDbLine
 10
-38.907188
 20
17.348518
 30
0.0
 11
-34.098358
 21
17.348518
 31
0.0
  0
LINE
  5
AD
100
AcDbEntity
  8
0
  6
CONTINUOUS
 62
     7
100
AcDbLine
 10
35.899994
 20
-62.185745
 30
0.0
 11
39.399994
 21
-62.185745
 31
0.0
  0
LINE
  5
AE
100
AcDbEntity
  8
0
  6
CONTINUOUS
 62
     7
100
AcDbLine
 10
35.899994
 20
-60.771065
 30
0.0
 11
39.399994
 21
-60.771065
 31
0.0
  0
LINE
  5
AF
100
AcDbEntity
  8
0
  6
CONTINUOUS
 62
     7
100
AcDbLine
 10
35.899994
 20
-53.300419
 30
0.0
 11
39.399994
 21
-53.300419
 31
0.0
  0
LINE
  5
B0
100
AcDbEntity
  8
0
  6
CONTINUOUS
 62
     7
100
AcDbLine
 10
35.899994
 20
-52.452812
 30
0.0
 11
39.399994
 21
-52.452812
 31
0.0
  0
LINE
  5
B1
100
AcDbEntity
  8
0
  6
CONTINUOUS
 62
     7
100
AcDbLine
 10
35.899994
 20
-49.927628
 30
0.0
 11
39.399994
 21
-49.927628
 31
0.0
  0
LINE
  5
B2
100
AcDbEntity
  8
0
  6
CONTINUOUS
 62
     7
100
AcDbLine
 10
35.899994
 20
-48.817123
 30
0.0
 11
39.399994
 21
-48.817123
 31
0.0
  0
LINE
  5
B3
100
AcDbEntity
  8
0
  6
CONTINUOUS
 62
     7
100
AcDbLine
 10
-34.754349
 20
17.99852
 30
0.0
 11
-34.104347
 21
17.34852
 31
0.0
  0
LINE
  5
B4
100
AcDbEntity
  8
0
  6
CONTINUOUS
 62
     7
100
AcDbLine
 10
-34.097973
 20
17.342146
 30
0.0
 11
-33.254349
 21
16.49852
 31
0.0
  0
LINE
  5
B5
100
AcDbEntity
  8
0
  6
CONTINUOUS
 62
     7
100
AcDbLine
 10
-51.254349
 20
16.49852
 30
0.0
 11
-49.754349
 21
17.99852
 31
0.0
  0
LINE
  5
B6
100
AcDbEntity
  8
0
  6
CONTINUOUS
 62
     7
100
AcDbLine
 10
97.458229
 20
-49.925217
 30
0.0
 11
95.579399
 21
-63.293839
 31
0.0
  0
LINE
  5
B7
100
AcDbEntity
  8
0
  6
CENTER
 62
     7
100
AcDbLine
 10
107.74022
 20
-58.186592
 30
0.0
 11
81.110931
 21
-54.444092
 31
0.0
  0
LINE
  5
B8
100
AcDbEntity
  8
0
  6
CONTINUOUS
 62
     7
100
AcDbLine
 10
97.458229
 20
-49.925217
 30
0.0
 11
89.536087
 21
-48.811832
 31
0.0
  0
LINE
  5
B9
100
AcDbEntity
  8
0
  6
CONTINUOUS
 62
     7
100
AcDbLine
 10
95.579399
 20
-63.293839
 30
0.0
 11
87.657249
 21
-62.180454
 31
0.0
  0
LINE
  5
BA
100
AcDbEntity
  8
0
  6
CONTINUOUS
 62
     7
100
AcDbLine
 10
103.14999
 20
-61.782757
 30
0.0
 11
95.934288
 21
-60.768654
 31
0.0
  0
LINE
  5
BB
100
AcDbEntity
  8
0
  6
CONTINUOUS
 62
     7
100
AcDbLine
 10
103.14999
 20
-53.300205
 30
0.0
 11
97.10334
 21
-52.450405
 31
0.0
  0
LINE
  5
BC
100
AcDbEntity
  8
0
  6
PHANTOM
 62
     7
100
AcDbLine
 10
-6.349998
 20
-49.701477
 30
0.0
 11
0.0
 21
-49.034065
 31
0.0
  0
LINE
  5
BD
100
AcDbEntity
  8
0
  6
CONTINUOUS
 62
     7
100
AcDbLine
 10
0.0
 20
-49.034065
 30
0.0
 11
0.6272
 21
-55.00148
 31
0.0
  0
LINE
  5
BE
100
AcDbEntity
  8
0
  6
CONTINUOUS
 62
     7
100
AcDbLine
 10
0.0
 20
-49.034065
 30
0.0
 11
9.824418
 21
-48.00148
 31
0.0
  0
LINE
  5
BF
100
AcDbEntity
  8
0
  6
CONTINUOUS
 62
     7
100
AcDbLine
 10
0.6272
 20
-55.00148
 30
0.0
 11
0.6272
 21
-66.00148
 31
0.0
  0
LINE
  5
C0
100
AcDbEntity
  8
0
  6
CONTINUOUS
 62
     7
100
AcDbLine
 10
9.824418
 20
16.49852
 30
0.0
 11
9.824418
 21
10.454009
 31
0.0
  0
LINE
  5
C1
100
AcDbEntity
  8
0
  6
CONTINUOUS
 62
     7
100
AcDbLine
 10
9.824418
 20
5.672131
 30
0.0
 11
9.824418
 21
-0.68001
 31
0.0
  0
LINE
  5
C2
100
AcDbEntity
  8
0
  6
CONTINUOUS
 62
     7
100
AcDbLine
 10
9.824418
 20
16.49852
 30
0.0
 11
5.774354
 21
17.99852
 31
0.0
  0
CIRCLE
  5
C3
100
AcDbEntity
  8
0
  6
CONTINUOUS
 62
     7
100
AcDbCircle
 10
2.324261
 20
8.674259
 30
0.0
 40
2.599999
  0
CIRCLE
  5
C4
100
AcDbEntity
  8
0
  6
CONTINUOUS
 62
     7
100
AcDbCircle
 10
10.649994
 20
-58.00148
 30
0.0
 40
3.0
  0
CIRCLE
  5
C5
100
AcDbEntity
  8
0
  6
CONTINUOUS
 62
     7
100
AcDbCircle
 10
10.649994
 20
-58.00148
 30
0.0
 40
2.5
  0
ARC
  5
C6
100
AcDbEntity
  8
0
  6
CONTINUOUS
 62
     7
100
AcDbCircle
 10
9.89851
 20
8.255258
 30
0.0
 40
2.2
100
AcDbArc
 50
300.00012
 51
119.99992
  0
ARC
  5
C7
100
AcDbEntity
  8
0
  6
CONTINUOUS
 62
     7
100
AcDbCircle
 10
16.149994
 20
3.99852
 30
0.0
 40
0.5
100
AcDbArc
 50
89.999982
 51
179.99996
  0
ARC
  5
C8
100
AcDbEntity
  8
0
  6
CONTINUOUS
 62
     7
100
AcDbCircle
 10
16.150002
 20
1.75652
 30
0.0
 40
0.5
100
AcDbArc
 50
90.000003
 51
180.00001
  0
LWPOLYLINE
  5
C9
100
AcDbEntity
  8
0
  6
CONTINUOUS
 62
     7
100
AcDbPolyline
 90
       17
 70
     0
 43
0.0
 10
35.899994
 20
-49.927628
 42
0.020592
 10
35.288855
 20
-49.9528
 42
0.020708
 10
34.681064
 20
-50.02839
 42
0.020887
 10
34.081626
 20
-50.154208
 42
0.021151
 10
33.494912
 20
-50.329888
 42
0.021502
 10
32.925298
 20
-50.554897
 42
0.021935
 10
32.377326
 20
-50.828471
 42
0.022445
 10
31.855713
 20
-51.149549
 42
0.023021
 10
31.365358
 20
-51.516681
 42
0.02365
 10
30.911306
 20
-51.927943
 42
0.024315
 10
30.498692
 20
-52.380828
 42
0.024992
 10
30.132644
 20
-52.872154
 42
0.025652
 10
29.81814
 20
-53.39798
 42
0.026261
 10
29.559827
 20
-53.953556
 42
0.026784
 10
29.36181
 20
-54.533326
 42
0.027187
 10
29.227425
 20
-55.130994
 42
0.027441
 10
29.15903
 20
-55.739662
  0
LWPOLYLINE
  5
DC
100
AcDbEntity
  8
0
  6
CONTINUOUS
 62
     7
100
AcDbPolyline
 90
       17
 70
     0
 43
0.0
 10
35.899994
 20
-52.452812
 42
0.048369
 10
35.085406
 20
-52.531788
 42
0.048522
 10
34.300455
 20
-52.766245
 42
0.048718
 10
33.575514
 20
-53.147868
 42
0.048977
 10
32.938342
 20
-53.662898
 42
0.04927
 10
32.413756
 20
-54.292479
 42
0.049546
 10
32.022801
 20
-55.012914
 42
0.049752
 10
31.781545
 20
-55.796314
 42
0.049862
 10
31.699993
 20
-56.611938
 42
0.049822
 10
31.781415
 20
-57.426921
 42
0.049704
 10
32.022245
 20
-58.209639
 42
0.04952
 10
32.412707
 20
-58.929849
 42
0.049257
 10
32.936846
 20
-59.559506
 42
0.048988
 10
33.573897
 20
-60.074944
 42
0.048743
 10
34.299052
 20
-60.45706
 42
0.048553
 10
35.084437
 20
-60.691899
 42
0.048427
 10
35.899994
 20
-60.771065
  0
LWPOLYLINE
  5
EF
100
AcDbEntity
  8
0
  6
CONTINUOUS
 62
     7
100
AcDbPolyline
 90
       17
 70
     0
 43
0.0
 10
35.899994
 20
-53.300419
 42
0.019749
 10
35.527638
 20
-53.315128
 42
0.019899
 10
35.156643
 20
-53.359389
 42
0.020057
 10
34.791057
 20
-53.432972
 42
0.020349
 10
34.432621
 20
-53.535807
 42
0.020738
 10
34.08383
 20
-53.667705
 42
0.021223
 10
33.747298
 20
-53.828372
 42
0.021798
 10
33.425785
 20
-54.017369
 42
0.022457
 10
33.1222
 20
-54.234058
 42
0.023187
 10
32.839599
 20
-54.477533
 42
0.02397
 10
32.581155
 20
-54.746553
 42
0.024781
 10
32.350109
 20
-55.039462
 42
0.025588
 10
32.149684
 20
-55.354124
 42
0.026351
 10
31.98297
 20
-55.68786
 42
0.027023
 10
31.852773
 20
-56.037434
 42
0.02756
 10
31.761452
 20
-56.399072
 42
0.02792
 10
31.710753
 20
-56.768543
  0
LWPOLYLINE
  5
102
100
AcDbEntity
  8
0
  6
CONTINUOUS
 62
     7
100
AcDbPolyline
 90
       17
 70
     0
 43
0.0
 10
35.899994
 20
-48.817123
 42
0.048416
 10
34.589571
 20
-48.944296
 42
0.048522
 10
33.328112
 20
-49.321341
 42
0.048718
 10
32.163147
 20
-49.934887
 42
0.048977
 10
31.139278
 20
-50.762809
 42
0.049271
 10
30.296389
 20
-51.774799
 42
0.049546
 10
29.668292
 20
-52.932762
 42
0.049752
 10
29.280804
 20
-54.191874
 42
0.049813
 10
29.149994
 20
-55.501434
 42
0.049822
 10
29.280851
 20
-56.811227
 42
0.049704
 10
29.667898
 20
-58.069167
 42
0.04952
 10
30.295426
 20
-59.226648
 42
0.049257
 10
31.137793
 20
-60.238597
 42
0.048988
 10
32.161624
 20
-61.066979
 42
0.048743
 10
33.327052
 20
-61.681095
 42
0.048553
 10
34.589278
 20
-62.058515
 42
0.048427
 10
35.899994
 20
-62.185745
  0
LWPOLYLINE
  5
115
100
AcDbEntity
  8
0
  6
CONTINUOUS
 62
     7
100
AcDbPolyline
 90
       17
 70
     0
 43
0.0
 10
39.399994
 20
-52.452812
 42
-0.048369
 10
40.214582
 20
-52.531788
 42
-0.048522
 10
40.999533
 20
-52.766245
 42
-0.048718
 10
41.724474
 20
-53.147868
 42
-0.048977
 10
42.361646
 20
-53.662898
 42
-0.04927
 10
42.886231
 20
-54.292479
 42
-0.049546
 10
43.277187
 20
-55.012914
 42
-0.049752
 10
43.518443
 20
-55.796314
 42
-0.049862
 10
43.599995
 20
-56.611938
 42
-0.049822
 10
43.518573
 20
-57.426921
 42
-0.049704
 10
43.277743
 20
-58.209639
 42
-0.04952
 10
42.887281
 20
-58.929849
 42
-0.049257
 10
42.363142
 20
-59.559506
 42
-0.048988
 10
41.726091
 20
-60.074944
 42
-0.048743
 10
41.000936
 20
-60.45706
 42
-0.048553
 10
40.215551
 20
-60.691899
 42
-0.048427
 10
39.399994
 20
-60.771065
  0
LWPOLYLINE
  5
128
100
AcDbEntity
  8
0
  6
CONTINUOUS
 62
     7
100
AcDbPolyline
 90
       17
 70
     0
 43
0.0
 10
39.399994
 20
-48.817123
 42
-0.048416
 10
40.710417
 20
-48.944296
 42
-0.048522
 10
41.971876
 20
-49.321341
 42
-0.048718
 10
43.136841
 20
-49.934887
 42
-0.048977
 10
44.16071
 20
-50.762809
 42
-0.049271
 10
45.003599
 20
-51.774799
 42
-0.049546
 10
45.631695
 20
-52.932762
 42
-0.049752
 10
46.019184
 20
-54.191874
 42
-0.049813
 10
46.149994
 20
-55.501434
 42
-0.049822
 10
46.019137
 20
-56.811227
 42
-0.049704
 10
45.63209
 20
-58.069167
 42
-0.04952
 10
45.004562
 20
-59.226648
 42
-0.049257
 10
44.162195
 20
-60.238597
 42
-0.048988
 10
43.138364
 20
-61.066979
 42
-0.048743
 10
41.972936
 20
-61.681095
 42
-0.048553
 10
40.71071
 20
-62.058515
 42
-0.048427
 10
39.399994
 20
-62.185745
  0
LWPOLYLINE
  5
13B
100
AcDbEntity
  8
0
  6
CONTINUOUS
 62
     7
100
AcDbPolyline
 90
       17
 70
     0
 43
0.0
 10
39.399994
 20
-49.927628
 42
-0.020592
 10
40.011132
 20
-49.9528
 42
-0.020708
 10
40.618924
 20
-50.02839
 42
-0.020887
 10
41.218362
 20
-50.154208
 42
-0.021151
 10
41.805076
 20
-50.329888
 42
-0.021502
 10
42.37469
 20
-50.554897
 42
-0.021935
 10
42.922662
 20
-50.828471
 42
-0.022445
 10
43.444274
 20
-51.149549
 42
-0.023021
 10
43.93463
 20
-51.516681
 42
-0.02365
 10
44.388682
 20
-51.927943
 42
-0.024315
 10
44.801296
 20
-52.380828
 42
-0.024992
 10
45.167344
 20
-52.872154
 42
-0.025652
 10
45.481848
 20
-53.39798
 42
-0.026261
 10
45.740161
 20
-53.953556
 42
-0.026784
 10
45.938177
 20
-54.533326
 42
-0.027187
 10
46.072562
 20
-55.130994
 42
-0.027441
 10
46.140958
 20
-55.739662
  0
LWPOLYLINE
  5
14E
100
AcDbEntity
  8
0
  6
CONTINUOUS
 62
     7
100
AcDbPolyline
 90
       17
 70
     0
 43
0.0
 10
39.399994
 20
-53.300419
 42
-0.019749
 10
39.77235
 20
-53.315128
 42
-0.019899
 10
40.143344
 20
-53.359389
 42
-0.020057
 10
40.508931
 20
-53.432972
 42
-0.020349
 10
40.867366
 20
-53.535807
 42
-0.020738
 10
41.216158
 20
-53.667705
 42
-0.021223
 10
41.552689
 20
-53.828372
 42
-0.021798
 10
41.874203
 20
-54.017369
 42
-0.022457
 10
42.177787
 20
-54.234058
 42
-0.023187
 10
42.460389
 20
-54.477533
 42
-0.02397
 10
42.718833
 20
-54.746553
 42
-0.024781
 10
42.949879
 20
-55.039462
 42
-0.025588
 10
43.150304
 20
-55.354124
 42
-0.026351
 10
43.317018
 20
-55.68786
 42
-0.027023
 10
43.447215
 20
-56.037434
 42
-0.02756
 10
43.538536
 20
-56.399072
 42
-0.02792
 10
43.589235
 20
-56.768543
  0
LWPOLYLINE
  5
161
100
AcDbEntity
  8
0
  6
CONTINUOUS
 62
     7
100
AcDbPolyline
 90
       16
 70
     1
 43
0.0
 10
46.149994
 20
3.444452
 42
0.13236
 10
44.134207
 20
4.051859
 42
0.015599
 10
41.97906
 20
4.252904
 42
0.008969
 10
39.816282
 20
4.35285
 42
0.007248
 10
37.649994
 20
4.383871
 42
0.007243
 10
35.485091
 20
4.35289
 42
0.00897
 10
33.321626
 20
4.25295
 42
0.015605
 10
31.165419
 20
4.051811
 42
0.132457
 10
29.149994
 20
3.444452
 42
0.13236
 10
31.165781
 20
2.837046
 42
0.015599
 10
33.320928
 20
2.636
 42
0.008969
 10
35.483706
 20
2.536055
 42
0.007248
 10
37.649994
 20
2.505034
 42
0.007243
 10
39.814896
 20
2.536014
 42
0.00897
 10
41.978362
 20
2.635954
 42
0.015605
 10
44.134569
 20
2.837093
 42
0.132457
  0
LINE
  5
173
100
AcDbEntity
  8
0
  6
CONTINUOUS
 62
     7
100
AcDbLine
 10
100.21497
 20
-65.917087
 30
0.0
 11
103.14999
 21
-62.98206
 31
0.0
  0
LINE
  5
174
100
AcDbEntity
  8
0
  6
CONTINUOUS
 62
     7
100
AcDbLine
 10
97.950146
 20
-65.936852
 30
0.0
 11
102.23309
 21
-61.653895
 31
0.0
  0
LINE
  5
175
100
AcDbEntity
  8
0
  6
CONTINUOUS
 62
     7
100
AcDbLine
 10
95.685319
 20
-65.956618
 30
0.0
 11
100.26468
 21
-61.377251
 31
0.0
  0
LINE
  5
176
100
AcDbEntity
  8
0
  6
CONTINUOUS
 62
     7
100
AcDbLine
 10
93.420492
 20
-65.976383
 30
0.0
 11
98.296258
 21
-61.100608
 31
0.0
  0
LINE
  5
177
100
AcDbEntity
  8
0
  6
CONTINUOUS
 62
     7
100
AcDbLine
 10
91.155664
 20
-65.996149
 30
0.0
 11
94.070088
 21
-63.081719
 31
0.0
  0
LINE
  5
178
100
AcDbEntity
  8
0
  6
CONTINUOUS
 62
     7
100
AcDbLine
 10
95.86089
 20
-61.290914
 30
0.0
 11
96.327839
 21
-60.823964
 31
0.0
  0
LINE
  5
179
100
AcDbEntity
  8
0
  6
CONTINUOUS
 62
     7
100
AcDbLine
 10
88.903992
 20
-66.002759
 30
0.0
 11
92.101669
 21
-62.805076
 31
0.0
  0
LINE
  5
17A
100
AcDbEntity
  8
0
  6
CONTINUOUS
 62
     7
100
AcDbLine
 10
87.755381
 20
-64.906306
 30
0.0
 11
90.13325
 21
-62.528433
 31
0.0
  0
LINE
  5
17B
100
AcDbEntity
  8
0
  6
CONTINUOUS
 62
     7
100
AcDbLine
 10
87.562584
 20
-62.854038
 30
0.0
 11
88.16483
 21
-62.25179
 31
0.0
  0
LINE
  5
17C
100
AcDbEntity
  8
0
  6
CONTINUOUS
 62
     7
100
AcDbLine
 10
101.79671
 20
-53.110014
 30
0.0
 11
103.14999
 21
-51.756729
 31
0.0
  0
LINE
  5
17D
100
AcDbEntity
  8
0
  6
CONTINUOUS
 62
     7
100
AcDbLine
 10
99.828292
 20
-52.833371
 30
0.0
 11
103.14999
 21
-49.511663
 31
0.0
  0
LINE
  5
17E
100
AcDbEntity
  8
0
  6
CONTINUOUS
 62
     7
100
AcDbLine
 10
97.859872
 20
-52.556729
 30
0.0
 11
102.03255
 21
-48.384041
 31
0.0
  0
LINE
  5
17F
100
AcDbEntity
  8
0
  6
CONTINUOUS
 62
     7
100
AcDbLine
 10
97.32936
 20
-50.842175
 30
0.0
 11
100.17005
 21
-48.001483
 31
0.0
  0
LINE
  5
180
100
AcDbEntity
  8
0
  6
CONTINUOUS
 62
     7
100
AcDbLine
 10
96.180785
 20
-49.745687
 30
0.0
 11
97.924986
 21
-48.001483
 31
0.0
  0
LINE
  5
181
100
AcDbEntity
  8
0
  6
CONTINUOUS
 62
     7
100
AcDbLine
 10
94.212365
 20
-49.469044
 30
0.0
 11
95.679925
 21
-48.001482
 31
0.0
  0
LINE
  5
182
100
AcDbEntity
  8
0
  6
CONTINUOUS
 62
     7
100
AcDbLine
 10
92.243946
 20
-49.192401
 30
0.0
 11
93.434864
 21
-48.001481
 31
0.0
  0
LINE
  5
183
100
AcDbEntity
  8
0
  6
CONTINUOUS
 62
     7
100
AcDbLine
 10
90.275527
 20
-48.915758
 30
0.0
 11
91.189803
 21
-48.001481
 31
0.0
  0
TEXT
  5
184
100
AcDbEntity
  8
0
  6
CONTINUOUS
100
AcDbText
 10
11.775839
 20
-105.266472
 30
0.0
 40
6.0
  1
ＢＵ１３５ＥＲ
100
AcDbText
  0
ENDBLK
  5
186
100
AcDbEntity
  8
0
100
AcDbBlockEnd
  0
BLOCK
  5
2F8
100
AcDbEntity
  8
0
100
AcDbBlockBegin
  2
*D2
 70
     1
 10
0.0
 20
0.0
 30
0.0
  3
*D2
  1

  0
LINE
  5
2EE
100
AcDbEntity
  8
寸法
 62
     1
100
AcDbLine
 10
220.745367
 20
83.912335
 30
0.0
 11
231.0
 21
83.912335
 31
0.0
1001
ACAD
1000
RTLwPs
1070
   158
  0
LINE
  5
2EF
100
AcDbEntity
  8
寸法
 62
     1
100
AcDbLine
 10
219.135365
 20
75.452333
 30
0.0
 11
231.0
 21
75.452333
 31
0.0
1001
ACAD
1000
RTLwPs
1070
   158
  0
LINE
  5
2F0
100
AcDbEntity
  8
寸法
 62
     1
100
AcDbLine
 10
230.0
 20
81.912335
 30
0.0
 11
230.0
 21
77.452333
 31
0.0
1001
ACAD
1000
RTLwPs
1070
   158
  0
LINE
  5
2F1
100
AcDbEntity
  8
寸法
 62
     1
100
AcDbLine
 10
230.0
 20
75.452333
 30
0.0
 11
230.0
 21
62.452333
 31
0.0
1001
ACAD
1000
RTLwPs
1070
   158
  0
INSERT
  5
2F2
100
AcDbEntity
  8
寸法
 62
     1
100
AcDbBlockReference
  2
_OPEN30
 10
230.0
 20
83.912335
 30
0.0
 41
2.0
 42
2.0
 43
2.0
 50
90.0
1001
ACAD
1000
RTLwPs
1070
   158
  0
INSERT
  5
2F3
100
AcDbEntity
  8
寸法
 62
     1
100
AcDbBlockReference
  2
_OPEN30
 10
230.0
 20
75.452333
 30
0.0
 41
2.0
 42
2.0
 43
2.0
 50
270.0
1001
ACAD
1000
RTLwPs
1070
   158
  0
MTEXT
  5
2F4
100
AcDbEntity
  8
寸法
 62
     1
100
AcDbMText
 10
227.5
 20
67.952333
 30
0.0
 40
3.0
 41
0.0
 71
     5
 72
     1
  1
\A1;8.46
 11
0.0
 21
1.0
 31
0.0
1001
ACAD
1000
MTEXTBEGIN
1070
    73
1070
     1
1070
    44
1040
1.0
1070
    74
1070
     0
1000
MTEXTEND
  0
POINT
  5
2F5
100
AcDbEntity
  8
DEFPOINTS
 62
     0
100
AcDbPoint
 10
219.745367
 20
83.912335
 30
0.0
  0
POINT
  5
2F6
100
AcDbEntity
  8
DEFPOINTS
 62
     0
100
AcDbPoint
 10
218.135365
 20
75.452333
 30
0.0
  0
POINT
  5
2F7
100
AcDbEntity
  8
DEFPOINTS
 62
     0
100
AcDbPoint
 10
230.0
 20
75.452333
 30
0.0
  0
ENDBLK
  5
2F9
100
AcDbEntity
  8
0
100
AcDbBlockEnd
  0
BLOCK
  5
305
100
AcDbEntity
  8
0
100
AcDbBlockBegin
  2
*D3
 70
     1
 10
0.0
 20
0.0
 30
0.0
  3
*D3
  1

  0
LINE
  5
2FC
100
AcDbEntity
  8
寸法
 62
     1
100
AcDbLine
 10
169.245371
 20
93.452333
 30
0.0
 11
191.0
 21
93.452333
 31
0.0
1001
ACAD
1000
RTLwPs
1070
   158
  0
LINE
  5
2FD
100
AcDbEntity
  8
寸法
 62
     1
100
AcDbLine
 10
169.245371
 20
75.452333
 30
0.0
 11
191.0
 21
75.452333
 31
0.0
1001
ACAD
1000
RTLwPs
1070
   158
  0
LINE
  5
2FE
100
AcDbEntity
  8
寸法
 62
     1
100
AcDbLine
 10
190.0
 20
91.452333
 30
0.0
 11
190.0
 21
77.452333
 31
0.0
1001
ACAD
1000
RTLwPs
1070
   158
  0
INSERT
  5
2FF
100
AcDbEntity
  8
寸法
 62
     1
100
AcDbBlockReference
  2
_OPEN30
 10
190.0
 20
93.452333
 30
0.0
 41
2.0
 42
2.0
 43
2.0
 50
90.0
1001
ACAD
1000
RTLwPs
1070
   158
  0
INSERT
  5
300
100
AcDbEntity
  8
寸法
 62
     1
100
AcDbBlockReference
  2
_OPEN30
 10
190.0
 20
75.452333
 30
0.0
 41
2.0
 42
2.0
 43
2.0
 50
270.0
1001
ACAD
1000
RTLwPs
1070
   158
  0
MTEXT
  5
301
100
AcDbEntity
  8
寸法
 62
     1
100
AcDbMText
 10
187.5
 20
84.452333
 30
0.0
 40
3.0
 41
0.0
 71
     5
 72
     1
  1
\A1;18
 11
0.0
 21
1.0
 31
0.0
1001
ACAD
1000
MTEXTBEGIN
1070
    73
1070
     1
1070
    44
1040
1.0
1070
    74
1070
     0
1000
MTEXTEND
  0
POINT
  5
302
100
AcDbEntity
  8
DEFPOINTS
 62
     0
100
AcDbPoint
 10
168.245371
 20
93.452333
 30
0.0
  0
POINT
  5
303
100
AcDbEntity
  8
DEFPOINTS
 62
     0
100
AcDbPoint
 10
168.245371
 20
75.452333
 30
0.0
  0
POINT
  5
304
100
AcDbEntity
  8
DEFPOINTS
 62
     0
100
AcDbPoint
 10
190.0
 20
75.452333
 30
0.0
  0
ENDBLK
  5
306
100
AcDbEntity
  8
0
100
AcDbBlockEnd
  0
BLOCK
  5
312
100
AcDbEntity
  8
0
100
AcDbBlockBegin
  2
*D4
 70
     1
 10
0.0
 20
0.0
 30
0.0
  3
*D4
  1

  0
LINE
  5
309
100
AcDbEntity
  8
寸法
 62
     1
100
AcDbLine
 10
176.245371
 20
86.952333
 30
0.0
 11
176.245371
 21
111.0
 31
0.0
1001
ACAD
1000
RTLwPs
1070
   158
  0
LINE
  5
30A
100
AcDbEntity
  8
寸法
 62
     1
100
AcDbLine
 10
154.245371
 20
97.446977
 30
0.0
 11
154.245371
 21
111.0
 31
0.0
1001
ACAD
1000
RTLwPs
1070
   158
  0
LINE
  5
30B
100
AcDbEntity
  8
寸法
 62
     1
100
AcDbLine
 10
174.245371
 20
110.0
 30
0.0
 11
156.245371
 21
110.0
 31
0.0
1001
ACAD
1000
RTLwPs
1070
   158
  0
INSERT
  5
30C
100
AcDbEntity
  8
寸法
 62
     1
100
AcDbBlockReference
  2
_OPEN30
 10
176.245371
 20
110.0
 30
0.0
 41
2.0
 42
2.0
 43
2.0
1001
ACAD
1000
RTLwPs
1070
   158
  0
INSERT
  5
30D
100
AcDbEntity
  8
寸法
 62
     1
100
AcDbBlockReference
  2
_OPEN30
 10
154.245371
 20
110.0
 30
0.0
 41
2.0
 42
2.0
 43
2.0
 50
180.0
1001
ACAD
1000
RTLwPs
1070
   158
  0
MTEXT
  5
30E
100
AcDbEntity
  8
寸法
 62
     1
100
AcDbMText
 10
165.245371
 20
112.5
 30
0.0
 40
3.0
 41
0.0
 71
     5
 72
     1
  1
\A1;22
1001
ACAD
1000
MTEXTBEGIN
1070
    73
1070
     1
1070
    44
1040
1.0
1070
    74
1070
     0
1000
MTEXTEND
  0
POINT
  5
30F
100
AcDbEntity
  8
DEFPOINTS
 62
     0
100
AcDbPoint
 10
176.245371
 20
85.952333
 30
0.0
  0
POINT
  5
310
100
AcDbEntity
  8
DEFPOINTS
 62
     0
100
AcDbPoint
 10
154.245371
 20
96.446977
 30
0.0
  0
POINT
  5
311
100
AcDbEntity
  8
DEFPOINTS
 62
     0
100
AcDbPoint
 10
154.245371
 20
110.0
 30
0.0
  0
ENDBLK
  5
313
100
AcDbEntity
  8
0
100
AcDbBlockEnd
  0
BLOCK
  5
321
100
AcDbEntity
  8
0
100
AcDbBlockBegin
  2
*D5
 70
     1
 10
0.0
 20
0.0
 30
0.0
  3
*D5
  1

  0
LINE
  5
316
100
AcDbEntity
  8
寸法
 62
     1
100
AcDbLine
 10
152.495371
 20
75.495927
 30
0.0
 11
152.495371
 21
59.0
 31
0.0
1001
ACAD
1000
RTLwPs
1070
   158
  0
LINE
  5
317
100
AcDbEntity
  8
寸法
 62
     1
100
AcDbLine
 10
155.995371
 20
75.391138
 30
0.0
 11
155.995371
 21
59.0
 31
0.0
1001
ACAD
1000
RTLwPs
1070
   158
  0
LINE
  5
318
100
AcDbEntity
  8
寸法
 62
     1
100
AcDbLine
 10
150.495371
 20
60.0
 30
0.0
 11
148.495371
 21
60.0
 31
0.0
1001
ACAD
1000
RTLwPs
1070
   158
  0
LINE
  5
319
100
AcDbEntity
  8
寸法
 62
     1
100
AcDbLine
 10
157.995371
 20
60.0
 30
0.0
 11
167.995371
 21
60.0
 31
0.0
1001
ACAD
1000
RTLwPs
1070
   158
  0
LINE
  5
31A
100
AcDbEntity
  8
寸法
 62
     1
100
AcDbLine
 10
152.495371
 20
60.0
 30
0.0
 11
155.995371
 21
60.0
 31
0.0
1001
ACAD
1000
RTLwPs
1070
   158
  0
INSERT
  5
31B
100
AcDbEntity
  8
寸法
 62
     1
100
AcDbBlockReference
  2
_OPEN30
 10
152.495371
 20
60.0
 30
0.0
 41
2.0
 42
2.0
 43
2.0
1001
ACAD
1000
RTLwPs
1070
   158
  0
INSERT
  5
31C
100
AcDbEntity
  8
寸法
 62
     1
100
AcDbBlockReference
  2
_OPEN30
 10
155.995371
 20
60.0
 30
0.0
 41
2.0
 42
2.0
 43
2.0
 50
180.0
1001
ACAD
1000
RTLwPs
1070
   158
  0
MTEXT
  5
31D
100
AcDbEntity
  8
寸法
 62
     1
100
AcDbMText
 10
163.995371
 20
62.5
 30
0.0
 40
3.0
 41
0.0
 71
     5
 72
     1
  1
\A1;3.5
1001
ACAD
1000
MTEXTBEGIN
1070
    73
1070
     1
1070
    44
1040
1.0
1070
    74
1070
     0
1000
MTEXTEND
  0
POINT
  5
31E
100
AcDbEntity
  8
DEFPOINTS
 62
     0
100
AcDbPoint
 10
152.495371
 20
76.495927
 30
0.0
  0
POINT
  5
31F
100
AcDbEntity
  8
DEFPOINTS
 62
     0
100
AcDbPoint
 10
155.995371
 20
76.391138
 30
0.0
  0
POINT
  5
320
100
AcDbEntity
  8
DEFPOINTS
 62
     0
100
AcDbPoint
 10
155.995371
 20
60.0
 30
0.0
  0
ENDBLK
  5
322
100
AcDbEntity
  8
0
100
AcDbBlockEnd
  0
BLOCK
  5
332
100
AcDbEntity
  8
0
100
AcDbBlockBegin
  2
*D6
 70
     1
 10
0.0
 20
0.0
 30
0.0
  3
*D6
  1

  0
LINE
  5
3F0
100
AcDbEntity
  8
寸法
 62
     1
100
AcDbLine
 10
125.419795
 20
93.452333
 30
0.0
 11
89.38443
 21
93.452333
 31
0.0
  0
LINE
  5
3F1
100
AcDbEntity
  8
寸法
 62
     1
100
AcDbLine
 10
109.250858
 20
91.34782
 30
0.0
 11
89.602949
 21
89.282742
 31
0.0
  0
ARC
  5
3F2
100
AcDbEntity
  8
寸法
 62
     1
100
AcDbCircle
 10
129.273973
 20
93.452333
 30
0.0
 40
38.889543
100
AcDbArc
 50
177.053085
 51
180.0
  0
LINE
  5
3F3
100
AcDbEntity
  8
寸法
 62
     1
100
AcDbLine
 10
90.435858
 20
95.451672
 30
0.0
 11
90.87799
 21
104.040299
 31
0.0
  0
ARC
  5
3F4
100
AcDbEntity
  8
寸法
 62
     1
100
AcDbCircle
 10
129.273973
 20
93.452333
 30
0.0
 40
38.889543
100
AcDbArc
 50
182.946915
 51
183.053083
  0
INSERT
  5
3F5
100
AcDbEntity
  8
寸法
 62
     1
100
AcDbBlockReference
  2
_OPEN30
 10
90.38443
 20
93.452333
 30
0.0
 41
2.0
 42
2.0
 43
2.0
 50
91.473458
  0
INSERT
  5
3F6
100
AcDbEntity
  8
寸法
 62
     1
100
AcDbBlockReference
  2
_OPEN30
 10
90.597471
 20
89.38727
 30
0.0
 41
2.0
 42
2.0
 43
2.0
 50
274.52654
  0
MTEXT
  5
3F7
100
AcDbEntity
  8
寸法
 62
     1
100
AcDbMText
 10
93.153618
 20
99.617459
 30
0.0
 40
3.0
 41
0.0
 71
     5
 72
     1
  1
\A1;6°
 11
-0.051411
 21
-0.998678
 31
0.0
  0
POINT
  5
3F8
100
AcDbEntity
  8
DEFPOINTS
 62
     0
100
AcDbPoint
 10
90.479163
 20
90.739537
 30
0.0
  0
POINT
  5
3F9
100
AcDbEntity
  8
DEFPOINTS
 62
     0
100
AcDbPoint
 10
126.419795
 20
93.452333
 30
0.0
  0
POINT
  5
3FA
100
AcDbEntity
  8
DEFPOINTS
 62
     0
100
AcDbPoint
 10
110.24538
 20
91.452348
 30
0.0
  0
POINT
  5
3FB
100
AcDbEntity
  8
DEFPOINTS
 62
     0
100
AcDbPoint
 10
116.626562
 20
92.123037
 30
0.0
  0
POINT
  5
3FC
100
AcDbEntity
  8
DEFPOINTS
 62
     0
100
AcDbPoint
 10
168.245371
 20
93.452333
 30
0.0
  0
ENDBLK
  5
333
100
AcDbEntity
  8
0
100
AcDbBlockEnd
  0
BLOCK
  5
33F
100
AcDbEntity
  8
0
100
AcDbBlockBegin
  2
*D7
 70
     1
 10
0.0
 20
0.0
 30
0.0
  3
*D7
  1

  0
LINE
  5
336
100
AcDbEntity
  8
寸法
 62
     1
100
AcDbLine
 10
109.245379
 20
91.452348
 30
0.0
 11
99.0
 21
91.452348
 31
0.0
1001
ACAD
1000
RTLwPs
1070
   158
  0
LINE
  5
337
100
AcDbEntity
  8
寸法
 62
     1
100
AcDbLine
 10
110.927048
 20
75.452333
 30
0.0
 11
99.0
 21
75.452333
 31
0.0
1001
ACAD
1000
RTLwPs
1070
   158
  0
LINE
  5
338
100
AcDbEntity
  8
寸法
 62
     1
100
AcDbLine
 10
100.0
 20
89.452348
 30
0.0
 11
100.0
 21
77.452333
 31
0.0
1001
ACAD
1000
RTLwPs
1070
   158
  0
INSERT
  5
339
100
AcDbEntity
  8
寸法
 62
     1
100
AcDbBlockReference
  2
_OPEN30
 10
100.0
 20
91.452348
 30
0.0
 41
2.0
 42
2.0
 43
2.0
 50
90.0
1001
ACAD
1000
RTLwPs
1070
   158
  0
INSERT
  5
33A
100
AcDbEntity
  8
寸法
 62
     1
100
AcDbBlockReference
  2
_OPEN30
 10
100.0
 20
75.452333
 30
0.0
 41
2.0
 42
2.0
 43
2.0
 50
270.0
1001
ACAD
1000
RTLwPs
1070
   158
  0
MTEXT
  5
33B
100
AcDbEntity
  8
寸法
 62
     1
100
AcDbMText
 10
97.5
 20
83.452341
 30
0.0
 40
3.0
 41
0.0
 71
     5
 72
     1
  1
\A1;16
 11
0.0
 21
1.0
 31
0.0
1001
ACAD
1000
MTEXTBEGIN
1070
    73
1070
     1
1070
    44
1040
1.0
1070
    74
1070
     0
1000
MTEXTEND
  0
POINT
  5
33C
100
AcDbEntity
  8
DEFPOINTS
 62
     0
100
AcDbPoint
 10
110.245379
 20
91.452348
 30
0.0
  0
POINT
  5
33D
100
AcDbEntity
  8
DEFPOINTS
 62
     0
100
AcDbPoint
 10
111.927048
 20
75.452333
 30
0.0
  0
POINT
  5
33E
100
AcDbEntity
  8
DEFPOINTS
 62
     0
100
AcDbPoint
 10
100.0
 20
75.452333
 30
0.0
  0
ENDBLK
  5
340
100
AcDbEntity
  8
0
100
AcDbBlockEnd
  0
BLOCK
  5
34C
100
AcDbEntity
  8
0
100
AcDbBlockBegin
  2
*D8
 70
     1
 10
0.0
 20
0.0
 30
0.0
  3
*D8
  1

  0
LINE
  5
343
100
AcDbEntity
  8
寸法
 62
     1
100
AcDbLine
 10
176.245367
 20
149.452331
 30
0.0
 11
176.245367
 21
119.0
 31
0.0
1001
ACAD
1000
RTLwPs
1070
   158
  0
LINE
  5
344
100
AcDbEntity
  8
寸法
 62
     1
100
AcDbLine
 10
110.245378
 20
151.452333
 30
0.0
 11
110.245378
 21
119.0
 31
0.0
1001
ACAD
1000
RTLwPs
1070
   158
  0
LINE
  5
345
100
AcDbEntity
  8
寸法
 62
     1
100
AcDbLine
 10
174.245367
 20
120.0
 30
0.0
 11
112.245378
 21
120.0
 31
0.0
1001
ACAD
1000
RTLwPs
1070
   158
  0
INSERT
  5
346
100
AcDbEntity
  8
寸法
 62
     1
100
AcDbBlockReference
  2
_OPEN30
 10
176.245367
 20
120.0
 30
0.0
 41
2.0
 42
2.0
 43
2.0
1001
ACAD
1000
RTLwPs
1070
   158
  0
INSERT
  5
347
100
AcDbEntity
  8
寸法
 62
     1
100
AcDbBlockReference
  2
_OPEN30
 10
110.245378
 20
120.0
 30
0.0
 41
2.0
 42
2.0
 43
2.0
 50
180.0
1001
ACAD
1000
RTLwPs
1070
   158
  0
MTEXT
  5
348
100
AcDbEntity
  8
寸法
 62
     1
100
AcDbMText
 10
143.245372
 20
122.5
 30
0.0
 40
3.0
 41
0.0
 71
     5
 72
     1
  1
\A1;66
1001
ACAD
1000
MTEXTBEGIN
1070
    73
1070
     1
1070
    44
1040
1.0
1070
    74
1070
     0
1000
MTEXTEND
  0
POINT
  5
349
100
AcDbEntity
  8
DEFPOINTS
 62
     0
100
AcDbPoint
 10
176.245367
 20
150.452331
 30
0.0
  0
POINT
  5
34A
100
AcDbEntity
  8
DEFPOINTS
 62
     0
100
AcDbPoint
 10
110.245378
 20
152.452333
 30
0.0
  0
POINT
  5
34B
100
AcDbEntity
  8
DEFPOINTS
 62
     0
100
AcDbPoint
 10
110.245378
 20
120.0
 30
0.0
  0
ENDBLK
  5
34D
100
AcDbEntity
  8
0
100
AcDbBlockEnd
  0
BLOCK
  5
359
100
AcDbEntity
  8
0
100
AcDbBlockBegin
  2
*D9
 70
     1
 10
0.0
 20
0.0
 30
0.0
  3
*D9
  1

  0
LINE
  5
3FD
100
AcDbEntity
  8
寸法
 62
     1
100
AcDbLine
 10
176.245367
 20
149.452331
 30
0.0
 11
176.245367
 21
129.0
 31
0.0
  0
LINE
  5
3FE
100
AcDbEntity
  8
寸法
 62
     1
100
AcDbLine
 10
168.245371
 20
142.710333
 30
0.0
 11
168.245371
 21
129.0
 31
0.0
  0
LINE
  5
3FF
100
AcDbEntity
  8
寸法
 62
     1
100
AcDbLine
 10
174.245367
 20
130.0
 30
0.0
 11
170.245371
 21
130.0
 31
0.0
  0
INSERT
  5
400
100
AcDbEntity
  8
寸法
 62
     1
100
AcDbBlockReference
  2
_OPEN30
 10
176.245367
 20
130.0
 30
0.0
 41
2.0
 42
2.0
 43
2.0
  0
INSERT
  5
401
100
AcDbEntity
  8
寸法
 62
     1
100
AcDbBlockReference
  2
_OPEN30
 10
168.245371
 20
130.0
 30
0.0
 41
2.0
 42
2.0
 43
2.0
 50
180.0
  0
MTEXT
  5
402
100
AcDbEntity
  8
寸法
 62
     1
100
AcDbMText
 10
172.245369
 20
132.5
 30
0.0
 40
3.0
 41
0.0
 71
     5
 72
     1
  1
\A1;8
  0
POINT
  5
403
100
AcDbEntity
  8
DEFPOINTS
 62
     0
100
AcDbPoint
 10
176.245367
 20
150.452331
 30
0.0
  0
POINT
  5
404
100
AcDbEntity
  8
DEFPOINTS
 62
     0
100
AcDbPoint
 10
168.245371
 20
143.710333
 30
0.0
  0
POINT
  5
405
100
AcDbEntity
  8
DEFPOINTS
 62
     0
100
AcDbPoint
 10
168.245371
 20
130.0
 30
0.0
  0
ENDBLK
  5
35A
100
AcDbEntity
  8
0
100
AcDbBlockEnd
  0
BLOCK
  5
378
100
AcDbEntity
  8
0
100
AcDbBlockBegin
  2
*D10
 70
     1
 10
0.0
 20
0.0
 30
0.0
  3
*D10
  1

  0
LINE
  5
36F
100
AcDbEntity
  8
寸法
 62
     1
100
AcDbLine
 10
116.173582
 20
140.452333
 30
0.0
 11
99.0
 21
140.452333
 31
0.0
1001
ACAD
1000
RTLwPs
1070
   158
  0
LINE
  5
370
100
AcDbEntity
  8
寸法
 62
     1
100
AcDbLine
 10
121.36973
 20
159.452333
 30
0.0
 11
99.0
 21
159.452333
 31
0.0
1001
ACAD
1000
RTLwPs
1070
   158
  0
LINE
  5
371
100
AcDbEntity
  8
寸法
 62
     1
100
AcDbLine
 10
100.0
 20
142.452333
 30
0.0
 11
100.0
 21
157.452333
 31
0.0
1001
ACAD
1000
RTLwPs
1070
   158
  0
INSERT
  5
372
100
AcDbEntity
  8
寸法
 62
     1
100
AcDbBlockReference
  2
_OPEN30
 10
100.0
 20
140.452333
 30
0.0
 41
2.0
 42
2.0
 43
2.0
 50
270.0
1001
ACAD
1000
RTLwPs
1070
   158
  0
INSERT
  5
373
100
AcDbEntity
  8
寸法
 62
     1
100
AcDbBlockReference
  2
_OPEN30
 10
100.0
 20
159.452333
 30
0.0
 41
2.0
 42
2.0
 43
2.0
 50
90.0
1001
ACAD
1000
RTLwPs
1070
   158
  0
MTEXT
  5
374
100
AcDbEntity
  8
寸法
 62
     1
100
AcDbMText
 10
97.5
 20
149.952333
 30
0.0
 40
3.0
 41
0.0
 71
     5
 72
     1
  1
\A1;19
 11
0.0
 21
1.0
 31
0.0
1001
ACAD
1000
MTEXTBEGIN
1070
    73
1070
     1
1070
    44
1040
1.0
1070
    74
1070
     0
1000
MTEXTEND
  0
POINT
  5
375
100
AcDbEntity
  8
DEFPOINTS
 62
     0
100
AcDbPoint
 10
117.173582
 20
140.452333
 30
0.0
  0
POINT
  5
376
100
AcDbEntity
  8
DEFPOINTS
 62
     0
100
AcDbPoint
 10
122.36973
 20
159.452333
 30
0.0
  0
POINT
  5
377
100
AcDbEntity
  8
DEFPOINTS
 62
     0
100
AcDbPoint
 10
100.0
 20
159.452333
 30
0.0
  0
ENDBLK
  5
379
100
AcDbEntity
  8
0
100
AcDbBlockEnd
  0
BLOCK
  5
388
100
AcDbEntity
  8
0
100
AcDbBlockBegin
  2
*D11
 70
     1
 10
0.0
 20
0.0
 30
0.0
  3
*D11
  1

  0
LINE
  5
406
100
AcDbEntity
  8
寸法
 62
     1
100
AcDbLine
 10
123.23576
 20
159.952333
 30
0.0
 11
139.798503
 21
169.514837
 31
0.0
  0
ARC
  5
407
100
AcDbEntity
  8
寸法
 62
     1
100
AcDbCircle
 10
122.369735
 20
159.452333
 30
0.0
 40
19.125008
100
AcDbArc
 50
5.994446
 51
24.005552
  0
INSERT
  5
408
100
AcDbEntity
  8
寸法
 62
     1
100
AcDbBlockReference
  2
_OPEN30
 10
141.494743
 20
159.452333
 30
0.0
 41
2.0
 42
2.0
 43
2.0
 50
272.997223
  0
INSERT
  5
409
100
AcDbEntity
  8
寸法
 62
     1
100
AcDbBlockReference
  2
_OPEN30
 10
138.932478
 20
169.014837
 30
0.0
 41
2.0
 42
2.0
 43
2.0
 50
117.002775
  0
MTEXT
  5
40A
100
AcDbEntity
  8
寸法
 62
     1
100
AcDbMText
 10
143.537488
 20
163.875816
 30
0.0
 40
3.0
 41
0.0
 71
     5
 72
     1
  1
\A1;30°
 11
0.204554
 21
-0.978855
 31
0.0
  0
POINT
  5
40B
100
AcDbEntity
  8
DEFPOINTS
 62
     0
100
AcDbPoint
 10
140.341364
 20
165.993471
 30
0.0
  0
POINT
  5
40C
100
AcDbEntity
  8
DEFPOINTS
 62
     0
100
AcDbPoint
 10
122.369731
 20
159.452333
 30
0.0
  0
POINT
  5
40D
100
AcDbEntity
  8
DEFPOINTS
 62
     0
100
AcDbPoint
 10
110.245378
 20
152.452333
 30
0.0
  0
POINT
  5
40E
100
AcDbEntity
  8
DEFPOINTS
 62
     0
100
AcDbPoint
 10
122.369731
 20
159.452331
 30
0.0
  0
POINT
  5
40F
100
AcDbEntity
  8
DEFPOINTS
 62
     0
100
AcDbPoint
 10
168.245371
 20
159.452333
 30
0.0
  0
ENDBLK
  5
389
100
AcDbEntity
  8
0
100
AcDbBlockEnd
  0
BLOCK
  5
3AD
100
AcDbEntity
  8
0
100
AcDbBlockBegin
  2
*D12
 70
     1
 10
0.0
 20
0.0
 30
0.0
  3
*D12
  1

  0
LINE
  5
410
100
AcDbEntity
  8
寸法
 62
     1
100
AcDbLine
 10
80.32491
 20
140.457619
 30
0.0
 11
79.069967
 21
126.113554
 31
0.0
  0
LINE
  5
411
100
AcDbEntity
  8
寸法
 62
     1
100
AcDbLine
 10
83.341028
 20
139.452333
 30
0.0
 11
83.341028
 21
125.927076
 31
0.0
  0
ARC
  5
412
100
AcDbEntity
  8
寸法
 62
     1
100
AcDbCircle
 10
83.341028
 20
174.932001
 30
0.0
 40
48.004925
100
AcDbArc
 50
262.612748
 51
265.0
  0
LINE
  5
413
100
AcDbEntity
  8
寸法
 62
     1
100
AcDbLine
 10
77.168797
 20
127.325526
 30
0.0
 11
68.640179
 21
128.431271
 31
0.0
  0
ARC
  5
414
100
AcDbEntity
  8
寸法
 62
     1
100
AcDbCircle
 10
83.341028
 20
174.932001
 30
0.0
 40
48.004925
100
AcDbArc
 50
267.387252
 51
267.612748
  0
INSERT
  5
415
100
AcDbEntity
  8
寸法
 62
     1
100
AcDbBlockReference
  2
_OPEN30
 10
79.157123
 20
127.109749
 30
0.0
 41
2.0
 42
2.0
 43
2.0
 50
176.193626
  0
INSERT
  5
416
100
AcDbEntity
  8
寸法
 62
     1
100
AcDbBlockReference
  2
_OPEN30
 10
83.341028
 20
126.927076
 30
0.0
 41
2.0
 42
2.0
 43
2.0
 50
358.806374
  0
MTEXT
  5
417
100
AcDbEntity
  8
寸法
 62
     1
100
AcDbMText
 10
73.225925
 20
130.357648
 30
0.0
 40
3.0
 41
0.0
 71
     5
 72
     1
  1
\A1;5°
 11
0.9917
 21
-0.128575
 31
0.0
  0
POINT
  5
418
100
AcDbEntity
  8
DEFPOINTS
 62
     0
100
AcDbPoint
 10
81.944818
 20
126.947384
 30
0.0
  0
POINT
  5
419
100
AcDbEntity
  8
DEFPOINTS
 62
     0
100
AcDbPoint
 10
83.341028
 20
157.952333
 30
0.0
  0
POINT
  5
41A
100
AcDbEntity
  8
DEFPOINTS
 62
     0
100
AcDbPoint
 10
83.341028
 20
174.932001
 30
0.0
  0
POINT
  5
41B
100
AcDbEntity
  8
DEFPOINTS
 62
     0
100
AcDbPoint
 10
80.412066
 20
141.453814
 30
0.0
  0
POINT
  5
41C
100
AcDbEntity
  8
DEFPOINTS
 62
     0
100
AcDbPoint
 10
83.341028
 20
140.452333
 30
0.0
  0
ENDBLK
  5
3AE
100
AcDbEntity
  8
0
100
AcDbBlockEnd
  0
BLOCK
  5
3B6
100
AcDbEntity
  8
0
100
AcDbBlockBegin
  2
*D13
 70
     1
 10
0.0
 20
0.0
 30
0.0
  3
*D13
  1

  0
LINE
  5
3B8
100
AcDbEntity
  8
寸法
 62
     1
100
AcDbLine
 10
78.957189
 20
172.52743
 30
0.0
 11
68.435976
 21
166.756462
 31
0.0
1001
ACAD
1000
RTLwPs
1070
   158
  0
MTEXT
  5
3B9
100
AcDbEntity
  8
寸法
 62
     1
100
AcDbMText
 10
73.371065
 20
172.31478
 30
0.0
 40
3.0
 41
0.0
 71
     5
 72
     1
  1
\A1;%%c38
 11
0.876768
 21
0.480914
 31
0.0
1001
ACAD
1000
MTEXTBEGIN
1070
    73
1070
     1
1070
    44
1040
1.0
1070
    74
1070
     0
1000
MTEXTEND
  0
INSERT
  5
3BA
100
AcDbEntity
  8
寸法
 62
     1
100
AcDbBlockReference
  2
_OPEN30
 10
66.682441
 20
165.794634
 30
0.0
 41
2.0
 42
2.0
 43
2.0
 50
208.745118
1001
ACAD
1000
RTLwPs
1070
   158
  0
POINT
  5
3BB
100
AcDbEntity
  8
DEFPOINTS
 62
     0
100
AcDbPoint
 10
66.682441
 20
165.794634
 30
0.0
  0
POINT
  5
3BC
100
AcDbEntity
  8
DEFPOINTS
 62
     0
100
AcDbPoint
 10
83.341028
 20
174.932001
 30
0.0
  0
ENDBLK
  5
3B7
100
AcDbEntity
  8
0
100
AcDbBlockEnd
  0
BLOCK
  5
428
100
AcDbEntity
  8
0
100
AcDbBlockBegin
  2
A$C776226A5
 70
     0
 10
0.0
 20
0.0
 30
0.0
  3
A$C776226A5
  1

  0
TEXT
  5
427
100
AcDbEntity
  8
0
  6
CONTINUOUS
100
AcDbText
 10
0.0
 20
0.0
 30
0.0
 40
6.0
  1
本図は左勝手（Ｌ）を示す
100
AcDbText
  0
ENDBLK
  5
429
100
AcDbEntity
  8
0
100
AcDbBlockEnd
  0
ENDSEC
  0
SECTION
  2
ENTITIES
  0
POINT
  5
18D
100
AcDbEntity
  8
0
  6
CONTINUOUS
 62
     7
100
AcDbPoint
 10
81.341028
 20
152.452333
 30
0.0
  0
POINT
  5
18E
100
AcDbEntity
  8
0
  6
CONTINUOUS
 62
     7
100
AcDbPoint
 10
110.245378
 20
152.452333
 30
0.0
  0
POINT
  5
18F
100
AcDbEntity
  8
0
  6
CONTINUOUS
 62
     7
100
AcDbPoint
 10
110.245379
 20
91.452348
 30
0.0
  0
POINT
  5
190
100
AcDbEntity
  8
0
  6
CONTINUOUS
 62
     7
100
AcDbPoint
 10
204.749369
 20
75.452333
 30
0.0
  0
LINE
  5
191
100
AcDbEntity
  8
0
  6
CONTINUOUS
 62
     7
100
AcDbLine
 10
76.341044
 20
140.452333
 30
0.0
 11
83.341028
 21
140.452333
 31
0.0
  0
LINE
  5
192
100
AcDbEntity
  8
0
  6
CONTINUOUS
 62
     7
100
AcDbLine
 10
116.595377
 20
141.453814
 30
0.0
 11
127.593894
 21
147.803811
 31
0.0
  0
LINE
  5
193
100
AcDbEntity
  8
0
  6
CONTINUOUS
 62
     7
100
AcDbLine
 10
110.220269
 20
152.495824
 30
0.0
 11
117.173582
 21
140.452333
 31
0.0
  0
LINE
  5
194
100
AcDbEntity
  8
0
  6
CONTINUOUS
 62
     7
100
AcDbLine
 10
110.245378
 20
152.452333
 30
0.0
 11
122.369731
 21
159.452331
 31
0.0
  0
LINE
  5
195
100
AcDbEntity
  8
0
  6
CONTINUOUS
 62
     7
100
AcDbLine
 10
121.243896
 20
158.802331
 30
0.0
 11
127.593895
 21
147.803811
 31
0.0
  0
LINE
  5
196
100
AcDbEntity
  8
0
  6
CONTINUOUS
 62
     7
100
AcDbLine
 10
168.245371
 20
159.452333
 30
0.0
 11
168.245371
 21
143.819688
 31
0.0
  0
LINE
  5
197
100
AcDbEntity
  8
0
  6
CONTINUOUS
 62
     7
100
AcDbLine
 10
122.369731
 20
159.452333
 30
0.0
 11
168.245371
 21
159.452333
 31
0.0
  0
LINE
  5
198
100
AcDbEntity
  8
0
  6
CONTINUOUS
 62
     7
100
AcDbLine
 10
126.419795
 20
93.452333
 30
0.0
 11
168.245371
 21
93.452333
 31
0.0
  0
LINE
  5
199
100
AcDbEntity
  8
0
  6
CONTINUOUS
 62
     7
100
AcDbLine
 10
111.927048
 20
75.452333
 30
0.0
 11
168.245371
 21
75.452333
 31
0.0
  0
LINE
  5
19A
100
AcDbEntity
  8
0
  6
CONTINUOUS
 62
     7
100
AcDbLine
 10
168.245371
 20
93.452333
 30
0.0
 11
168.245371
 21
75.452333
 31
0.0
  0
LINE
  5
19B
100
AcDbEntity
  8
0
  6
CENTER
 62
     1
 48
0.5
100
AcDbLine
 10
127.245371
 20
87.452333
 30
0.0
 11
127.245371
 21
79.452333
 31
0.0
  0
LINE
  5
19C
100
AcDbEntity
  8
0
  6
CONTINUOUS
 62
     7
100
AcDbLine
 10
110.24538
 20
91.452348
 30
0.0
 11
116.626562
 21
92.123037
 31
0.0
  0
LINE
  5
19D
100
AcDbEntity
  8
0
  6
CONTINUOUS
 62
     7
100
AcDbLine
 10
110.747115
 20
86.678655
 30
0.0
 11
117.128297
 21
87.349344
 31
0.0
  0
LINE
  5
19E
100
AcDbEntity
  8
0
  6
CENTER
 62
     1
 48
0.5
100
AcDbLine
 10
123.245371
 20
83.452333
 30
0.0
 11
131.245371
 21
83.452333
 31
0.0
  0
LINE
  5
19F
100
AcDbEntity
  8
0
  6
CONTINUOUS
 62
     7
100
AcDbLine
 10
219.745367
 20
91.952333
 30
0.0
 11
219.745367
 21
77.062341
 31
0.0
  0
LINE
  5
1A0
100
AcDbEntity
  8
0
  6
CONTINUOUS
 62
     7
100
AcDbLine
 10
206.245356
 20
93.452333
 30
0.0
 11
218.245367
 21
93.452333
 31
0.0
  0
LINE
  5
1A1
100
AcDbEntity
  8
0
  6
CONTINUOUS
 62
     7
100
AcDbLine
 10
206.245356
 20
93.452333
 30
0.0
 11
204.003588
 21
77.501352
 31
0.0
  0
LINE
  5
1A2
100
AcDbEntity
  8
0
  6
CONTINUOUS
 62
     7
100
AcDbLine
 10
66.841028
 20
159.452333
 30
0.0
 11
81.841028
 21
159.452333
 31
0.0
  0
LINE
  5
1A3
100
AcDbEntity
  8
0
  6
CONTINUOUS
 62
     7
100
AcDbLine
 10
65.341028
 20
157.952333
 30
0.0
 11
65.341028
 21
144.456006
 31
0.0
  0
LINE
  5
1A4
100
AcDbEntity
  8
0
  6
CONTINUOUS
 62
     7
100
AcDbLine
 10
126.419795
 20
157.952333
 30
0.0
 11
168.245371
 21
157.952333
 31
0.0
  0
LINE
  5
1A5
100
AcDbEntity
  8
0
  6
CONTINUOUS
 62
     7
100
AcDbLine
 10
132.745371
 20
145.952333
 30
0.0
 11
168.245371
 21
145.952333
 31
0.0
  0
LINE
  5
1A6
100
AcDbEntity
  8
0
  6
CENTER
 62
     1
 48
0.5
100
AcDbLine
 10
114.935921
 20
147.82807
 30
0.0
 11
122.903352
 21
152.428069
 31
0.0
  0
LINE
  5
1A7
100
AcDbEntity
  8
0
  6
CENTER
 62
     1
 48
0.5
100
AcDbLine
 10
116.619637
 20
154.111786
 30
0.0
 11
121.219637
 21
146.144353
 31
0.0
  0
LINE
  5
1A8
100
AcDbEntity
  8
0
  6
CENTER
 62
     1
 48
0.5
100
AcDbLine
 10
154.245371
 20
96.446977
 30
0.0
 11
154.245371
 21
76.600725
 31
0.0
  0
LINE
  5
1A9
100
AcDbEntity
  8
0
  6
CENTER
 62
     1
 48
0.5
100
AcDbLine
 10
155.995371
 20
96.446977
 30
0.0
 11
155.995371
 21
76.391138
 31
0.0
  0
LINE
  5
1AA
100
AcDbEntity
  8
0
  6
CENTER
 62
     1
 48
0.5
100
AcDbLine
 10
152.495371
 20
96.446977
 30
0.0
 11
152.495371
 21
76.495927
 31
0.0
  0
LINE
  5
1AB
100
AcDbEntity
  8
0
  6
CENTER
 62
     1
 48
0.5
100
AcDbLine
 10
154.245371
 20
162.401353
 30
0.0
 11
154.245371
 21
141.077348
 31
0.0
  0
LINE
  5
1AC
100
AcDbEntity
  8
0
  6
CONTINUOUS
 62
     7
100
AcDbLine
 10
117.173582
 20
140.452333
 30
0.0
 11
122.745377
 21
140.452333
 31
0.0
  0
LINE
  5
1AD
100
AcDbEntity
  8
0
  6
CONTINUOUS
 62
     7
100
AcDbLine
 10
132.245378
 20
145.452333
 30
0.0
 11
132.245378
 21
141.283475
 31
0.0
  0
LINE
  5
1AE
100
AcDbEntity
  8
0
  6
CONTINUOUS
 62
     7
100
AcDbLine
 10
122.745377
 20
93.067781
 30
0.0
 11
122.745377
 21
86.452333
 31
0.0
  0
LINE
  5
1AF
100
AcDbEntity
  8
0
  6
CONTINUOUS
 62
     7
100
AcDbLine
 10
122.745379
 20
140.452334
 30
0.0
 11
132.245375
 21
141.283475
 31
0.0
  0
LINE
  5
1B0
100
AcDbEntity
  8
0
  6
CONTINUOUS
 62
     7
100
AcDbLine
 10
110.245378
 20
91.452363
 30
0.0
 11
111.927045
 21
75.452363
 31
0.0
  0
LINE
  5
1B1
100
AcDbEntity
  8
0
  6
CONTINUOUS
 62
     7
100
AcDbLine
 10
65.341032
 20
144.456003
 30
0.0
 11
76.34104
 21
140.452328
 31
0.0
  0
LINE
  5
1B2
100
AcDbEntity
  8
0
  6
CONTINUOUS
 62
     7
100
AcDbLine
 10
83.341028
 20
157.952333
 30
0.0
 11
83.341028
 21
140.452333
 31
0.0
  0
LINE
  5
1B3
100
AcDbEntity
  8
0
  6
CONTINUOUS
 62
     7
100
AcDbLine
 10
117.222577
 20
86.452333
 30
0.0
 11
122.745377
 21
86.452333
 31
0.0
  0
LINE
  5
1B4
100
AcDbEntity
  8
0
  6
CONTINUOUS
 62
     7
100
AcDbLine
 10
122.745376
 20
86.45236
 30
0.0
 11
125.447592
 21
85.853998
 31
0.0
  0
LINE
  5
1B5
100
AcDbEntity
  8
0
  6
CONTINUOUS
 62
     7
100
AcDbLine
 10
129.888993
 20
84.870519
 30
0.0
 11
132.245359
 21
84.348741
 31
0.0
  0
LINE
  5
1B6
100
AcDbEntity
  8
0
  6
CONTINUOUS
 62
     7
100
AcDbLine
 10
132.245378
 20
93.452333
 30
0.0
 11
132.245378
 21
77.501352
 31
0.0
  0
LINE
  5
1B7
100
AcDbEntity
  8
0
  6
CENTER
 62
     1
 48
0.5
100
AcDbLine
 10
118.639275
 20
95.031515
 30
0.0
 11
120.877931
 21
73.732118
 31
0.0
  0
LINE
  5
1B8
100
AcDbEntity
  8
0
  6
CONTINUOUS
 62
     7
100
AcDbLine
 10
176.245371
 20
154.452333
 30
0.0
 11
176.245371
 21
150.452333
 31
0.0
  0
LINE
  5
1B9
100
AcDbEntity
  8
0
  6
CENTER
 62
     1
 48
0.5
100
AcDbLine
 10
164.185225
 20
152.452333
 30
0.0
 11
188.103395
 21
152.452333
 31
0.0
  0
LINE
  5
1BA
100
AcDbEntity
  8
0
  6
CONTINUOUS
 62
     7
100
AcDbLine
 10
171.245371
 20
156.452333
 30
0.0
 11
171.245371
 21
148.452333
 31
0.0
  0
LINE
  5
1BB
100
AcDbEntity
  8
0
  6
CONTINUOUS
 62
     7
100
AcDbLine
 10
168.245371
 20
149.952333
 30
0.0
 11
171.245371
 21
149.952333
 31
0.0
  0
LINE
  5
1BC
100
AcDbEntity
  8
0
  6
CONTINUOUS
 62
     7
100
AcDbLine
 10
168.245371
 20
154.952333
 30
0.0
 11
171.245371
 21
154.952333
 31
0.0
  0
LINE
  5
1BD
100
AcDbEntity
  8
0
  6
CONTINUOUS
 62
     7
100
AcDbLine
 10
173.745371
 20
156.952331
 30
0.0
 11
176.245371
 21
154.452333
 31
0.0
  0
LINE
  5
1BE
100
AcDbEntity
  8
0
  6
CONTINUOUS
 62
     7
100
AcDbLine
 10
173.745367
 20
147.952332
 30
0.0
 11
176.245367
 21
150.452331
 31
0.0
  0
LINE
  5
1BF
100
AcDbEntity
  8
0
  6
CONTINUOUS
 62
     7
100
AcDbLine
 10
171.745371
 20
147.952333
 30
0.0
 11
173.745371
 21
147.952333
 31
0.0
  0
LINE
  5
1C0
100
AcDbEntity
  8
0
  6
CONTINUOUS
 62
     7
100
AcDbLine
 10
171.745371
 20
156.952333
 30
0.0
 11
173.745371
 21
156.952333
 31
0.0
  0
LINE
  5
1C1
100
AcDbEntity
  8
0
  6
CONTINUOUS
 62
     7
100
AcDbLine
 10
171.745367
 20
156.952329
 30
0.0
 11
171.245371
 21
156.452331
 31
0.0
  0
LINE
  5
1C2
100
AcDbEntity
  8
0
  6
CONTINUOUS
 62
     7
100
AcDbLine
 10
171.245375
 20
148.452336
 30
0.0
 11
171.745375
 21
147.952335
 31
0.0
  0
LINE
  5
1C3
100
AcDbEntity
  8
0
  6
CONTINUOUS
 62
     7
100
AcDbLine
 10
171.745371
 20
156.952333
 30
0.0
 11
171.745371
 21
147.952333
 31
0.0
  0
LINE
  5
1C4
100
AcDbEntity
  8
0
  6
CONTINUOUS
 62
     7
100
AcDbLine
 10
173.745371
 20
156.952333
 30
0.0
 11
173.745371
 21
147.952333
 31
0.0
  0
LINE
  5
1C5
100
AcDbEntity
  8
0
  6
CONTINUOUS
 62
     7
100
AcDbLine
 10
168.245371
 20
150.452333
 30
0.0
 11
171.245371
 21
150.452333
 31
0.0
  0
LINE
  5
1C6
100
AcDbEntity
  8
0
  6
CONTINUOUS
 62
     7
100
AcDbLine
 10
168.245371
 20
154.452333
 30
0.0
 11
171.245371
 21
154.452333
 31
0.0
  0
LINE
  5
1C7
100
AcDbEntity
  8
0
  6
CONTINUOUS
 62
     7
100
AcDbLine
 10
176.245371
 20
85.952333
 30
0.0
 11
176.245371
 21
81.952333
 31
0.0
  0
LINE
  5
1C8
100
AcDbEntity
  8
0
  6
CENTER
 62
     1
 48
0.5
100
AcDbLine
 10
165.677938
 20
83.952333
 30
0.0
 11
178.176046
 21
83.952333
 31
0.0
  0
LINE
  5
1C9
100
AcDbEntity
  8
0
  6
CONTINUOUS
 62
     7
100
AcDbLine
 10
171.245371
 20
87.952333
 30
0.0
 11
171.245371
 21
79.952333
 31
0.0
  0
LINE
  5
1CA
100
AcDbEntity
  8
0
  6
CONTINUOUS
 62
     7
100
AcDbLine
 10
168.245371
 20
81.452333
 30
0.0
 11
171.245371
 21
81.452333
 31
0.0
  0
LINE
  5
1CB
100
AcDbEntity
  8
0
  6
CONTINUOUS
 62
     7
100
AcDbLine
 10
168.245371
 20
86.452333
 30
0.0
 11
171.245371
 21
86.452333
 31
0.0
  0
LINE
  5
1CC
100
AcDbEntity
  8
0
  6
CONTINUOUS
 62
     7
100
AcDbLine
 10
173.745371
 20
88.452333
 30
0.0
 11
176.245367
 21
85.952337
 31
0.0
  0
LINE
  5
1CD
100
AcDbEntity
  8
0
  6
CONTINUOUS
 62
     7
100
AcDbLine
 10
173.745371
 20
79.452333
 30
0.0
 11
176.245371
 21
81.952333
 31
0.0
  0
LINE
  5
1CE
100
AcDbEntity
  8
0
  6
CONTINUOUS
 62
     7
100
AcDbLine
 10
171.745371
 20
79.452333
 30
0.0
 11
173.745371
 21
79.452333
 31
0.0
  0
LINE
  5
1CF
100
AcDbEntity
  8
0
  6
CONTINUOUS
 62
     7
100
AcDbLine
 10
171.745371
 20
88.452333
 30
0.0
 11
173.745371
 21
88.452333
 31
0.0
  0
LINE
  5
1D0
100
AcDbEntity
  8
0
  6
CONTINUOUS
 62
     7
100
AcDbLine
 10
171.745367
 20
88.452329
 30
0.0
 11
171.245371
 21
87.952333
 31
0.0
  0
LINE
  5
1D1
100
AcDbEntity
  8
0
  6
CONTINUOUS
 62
     7
100
AcDbLine
 10
171.245375
 20
79.952333
 30
0.0
 11
171.745375
 21
79.452333
 31
0.0
  0
LINE
  5
1D2
100
AcDbEntity
  8
0
  6
CONTINUOUS
 62
     7
100
AcDbLine
 10
171.745371
 20
88.452333
 30
0.0
 11
171.745371
 21
79.452333
 31
0.0
  0
LINE
  5
1D3
100
AcDbEntity
  8
0
  6
CONTINUOUS
 62
     7
100
AcDbLine
 10
173.745371
 20
88.452333
 30
0.0
 11
173.745371
 21
79.452333
 31
0.0
  0
LINE
  5
1D4
100
AcDbEntity
  8
0
  6
CONTINUOUS
 62
     7
100
AcDbLine
 10
168.245371
 20
81.952333
 30
0.0
 11
171.245371
 21
81.952333
 31
0.0
  0
LINE
  5
1D5
100
AcDbEntity
  8
0
  6
CONTINUOUS
 62
     7
100
AcDbLine
 10
168.245371
 20
85.952333
 30
0.0
 11
171.245371
 21
85.952333
 31
0.0
  0
LINE
  5
1D6
100
AcDbEntity
  8
0
  6
CONTINUOUS
 62
     7
100
AcDbLine
 10
204.749369
 20
75.452333
 30
0.0
 11
218.135365
 21
75.452333
 31
0.0
  0
LINE
  5
1D7
100
AcDbEntity
  8
0
  6
CONTINUOUS
 62
     7
100
AcDbLine
 10
204.749369
 20
75.452333
 30
0.0
 11
204.003588
 21
77.501348
 31
0.0
  0
LINE
  5
1D9
100
AcDbEntity
  8
0
  6
CONTINUOUS
 62
     7
100
AcDbLine
 10
219.745367
 20
77.062341
 30
0.0
 11
218.135365
 21
75.452333
 31
0.0
  0
LINE
  5
1DA
100
AcDbEntity
  8
0
  6
CONTINUOUS
 62
     7
100
AcDbLine
 10
132.245378
 20
77.501352
 30
0.0
 11
168.245371
 21
77.501352
 31
0.0
  0
LINE
  5
1DB
100
AcDbEntity
  8
0
  6
CONTINUOUS
 62
     7
100
AcDbLine
 10
218.245367
 20
93.452329
 30
0.0
 11
219.745367
 21
91.952333
 31
0.0
  0
LINE
  5
1DC
100
AcDbEntity
  8
0
  6
CONTINUOUS
 62
     7
100
AcDbLine
 10
132.745379
 20
143.710333
 30
0.0
 11
168.245371
 21
143.710333
 31
0.0
  0
LINE
  5
1DE
100
AcDbEntity
  8
0
  6
CONTINUOUS
 62
     7
100
AcDbLine
 10
82.008455
 20
141.453814
 30
0.0
 11
81.341028
 21
152.452333
 31
0.0
  0
LINE
  5
1DF
100
AcDbEntity
  8
0
  6
CONTINUOUS
 62
     7
100
AcDbLine
 10
77.199625
 20
141.453814
 30
0.0
 11
82.008455
 21
141.453814
 31
0.0
  0
LINE
  5
1E0
100
AcDbEntity
  8
0
  6
CONTINUOUS
 62
     7
100
AcDbLine
 10
77.199625
 20
141.453814
 30
0.0
 11
76.532198
 21
152.452333
 31
0.0
  0
LINE
  5
1E1
100
AcDbEntity
  8
0
  6
CONTINUOUS
 62
     7
100
AcDbLine
 10
65.341028
 20
152.452333
 30
0.0
 11
81.341028
 21
152.452333
 31
0.0
  0
LINE
  5
1E2
100
AcDbEntity
  8
0
  6
CONTINUOUS
 62
     7
100
AcDbLine
 10
82.008455
 20
141.453813
 30
0.0
 11
83.164446
 21
147.803811
 31
0.0
  0
LINE
  5
1E3
100
AcDbEntity
  8
0
  6
CONTINUOUS
 62
     7
100
AcDbLine
 10
81.341028
 20
152.452333
 30
0.0
 11
82.497019
 21
158.802329
 31
0.0
  0
LINE
  5
1E4
100
AcDbEntity
  8
0
  6
CONTINUOUS
 62
     7
100
AcDbLine
 10
76.532198
 20
152.452333
 30
0.0
 11
77.688189
 21
158.802331
 31
0.0
  0
LINE
  5
1E5
100
AcDbEntity
  8
0
  6
CONTINUOUS
 62
     7
100
AcDbLine
 10
83.164446
 20
147.80381
 30
0.0
 11
82.497019
 21
158.802329
 31
0.0
  0
LINE
  5
1E6
100
AcDbEntity
  8
0
  6
CONTINUOUS
 62
     7
100
AcDbLine
 10
77.688189
 20
158.802331
 30
0.0
 11
82.497019
 21
158.802331
 31
0.0
  0
LINE
  5
1E7
100
AcDbEntity
  8
0
  6
CONTINUOUS
 62
     7
100
AcDbLine
 10
152.495371
 20
79.268068
 30
0.0
 11
155.995371
 21
79.268068
 31
0.0
  0
LINE
  5
1E8
100
AcDbEntity
  8
0
  6
CONTINUOUS
 62
     7
100
AcDbLine
 10
152.495371
 20
80.682748
 30
0.0
 11
155.995371
 21
80.682748
 31
0.0
  0
LINE
  5
1E9
100
AcDbEntity
  8
0
  6
CONTINUOUS
 62
     7
100
AcDbLine
 10
152.495371
 20
88.153394
 30
0.0
 11
155.995371
 21
88.153394
 31
0.0
  0
LINE
  5
1EA
100
AcDbEntity
  8
0
  6
CONTINUOUS
 62
     7
100
AcDbLine
 10
152.495371
 20
89.001001
 30
0.0
 11
155.995371
 21
89.001001
 31
0.0
  0
LINE
  5
1EB
100
AcDbEntity
  8
0
  6
CONTINUOUS
 62
     7
100
AcDbLine
 10
152.495371
 20
91.526185
 30
0.0
 11
155.995371
 21
91.526185
 31
0.0
  0
LINE
  5
1EC
100
AcDbEntity
  8
0
  6
CONTINUOUS
 62
     7
100
AcDbLine
 10
152.495371
 20
92.63669
 30
0.0
 11
155.995371
 21
92.63669
 31
0.0
  0
LINE
  5
1ED
100
AcDbEntity
  8
0
  6
CONTINUOUS
 62
     7
100
AcDbLine
 10
81.841028
 20
159.452333
 30
0.0
 11
82.49103
 21
158.802333
 31
0.0
  0
LINE
  5
1EE
100
AcDbEntity
  8
0
  6
CONTINUOUS
 62
     7
100
AcDbLine
 10
82.497404
 20
158.795959
 30
0.0
 11
83.341028
 21
157.952333
 31
0.0
  0
LINE
  5
1EF
100
AcDbEntity
  8
0
  6
CONTINUOUS
 62
     7
100
AcDbLine
 10
65.341028
 20
157.952333
 30
0.0
 11
66.841028
 21
159.452333
 31
0.0
  0
LINE
  5
1F0
100
AcDbEntity
  8
0
  6
CONTINUOUS
 62
     7
100
AcDbLine
 10
214.053606
 20
91.528596
 30
0.0
 11
212.174776
 21
78.159974
 31
0.0
  0
LINE
  5
1F1
100
AcDbEntity
  8
0
  6
CENTER
 62
     1
 48
0.5
100
AcDbLine
 10
224.335597
 20
83.267221
 30
0.0
 11
197.706308
 21
87.009721
 31
0.0
  0
LINE
  5
1F2
100
AcDbEntity
  8
0
  6
CONTINUOUS
 62
     7
100
AcDbLine
 10
214.053606
 20
91.528596
 30
0.0
 11
206.131464
 21
92.641981
 31
0.0
  0
LINE
  5
1F3
100
AcDbEntity
  8
0
  6
CONTINUOUS
 62
     7
100
AcDbLine
 10
212.174776
 20
78.159974
 30
0.0
 11
204.252626
 21
79.273359
 31
0.0
  0
LINE
  5
1F4
100
AcDbEntity
  8
0
  6
CONTINUOUS
 62
     7
100
AcDbLine
 10
219.745367
 20
79.671056
 30
0.0
 11
212.529665
 21
80.685159
 31
0.0
  0
LINE
  5
1F5
100
AcDbEntity
  8
0
  6
CONTINUOUS
 62
     7
100
AcDbLine
 10
219.745367
 20
88.153608
 30
0.0
 11
213.698717
 21
89.003408
 31
0.0
  0
LINE
  5
1F6
100
AcDbEntity
  8
0
  6
PHANTOM
 62
     7
100
AcDbLine
 10
110.245379
 20
91.752336
 30
0.0
 11
116.595377
 21
92.419748
 31
0.0
  0
LINE
  5
1F7
100
AcDbEntity
  8
0
  6
CONTINUOUS
 62
     7
100
AcDbLine
 10
116.595377
 20
92.419748
 30
0.0
 11
117.222577
 21
86.452333
 31
0.0
  0
LINE
  5
1F8
100
AcDbEntity
  8
0
  6
CONTINUOUS
 62
     7
100
AcDbLine
 10
116.595377
 20
92.419748
 30
0.0
 11
126.419795
 21
93.452333
 31
0.0
  0
LINE
  5
1F9
100
AcDbEntity
  8
0
  6
CONTINUOUS
 62
     7
100
AcDbLine
 10
117.222577
 20
86.452333
 30
0.0
 11
117.222577
 21
75.452333
 31
0.0
  0
LINE
  5
1FA
100
AcDbEntity
  8
0
  6
CONTINUOUS
 62
     7
100
AcDbLine
 10
126.419795
 20
157.952333
 30
0.0
 11
126.419795
 21
151.907822
 31
0.0
  0
LINE
  5
1FB
100
AcDbEntity
  8
0
  6
CONTINUOUS
 62
     7
100
AcDbLine
 10
126.419795
 20
147.125944
 30
0.0
 11
126.419795
 21
140.773803
 31
0.0
  0
LINE
  5
1FC
100
AcDbEntity
  8
0
  6
CONTINUOUS
 62
     7
100
AcDbLine
 10
126.419795
 20
157.952333
 30
0.0
 11
122.36973
 21
159.452333
 31
0.0
  0
CIRCLE
  5
1FD
100
AcDbEntity
  8
0
  6
CONTINUOUS
 62
     7
100
AcDbCircle
 10
118.919638
 20
150.128072
 30
0.0
 40
2.599999
  0
CIRCLE
  5
1FE
100
AcDbEntity
  8
0
  6
CONTINUOUS
 62
     7
100
AcDbCircle
 10
127.245371
 20
83.452333
 30
0.0
 40
3.0
  0
CIRCLE
  5
1FF
100
AcDbEntity
  8
0
  6
CONTINUOUS
 62
     7
100
AcDbCircle
 10
127.245371
 20
83.452333
 30
0.0
 40
2.5
  0
ARC
  5
200
100
AcDbEntity
  8
0
  6
CONTINUOUS
 62
     7
100
AcDbCircle
 10
126.493887
 20
149.709071
 30
0.0
 40
2.2
100
AcDbArc
 50
300.00012
 51
119.99992
  0
ARC
  5
201
100
AcDbEntity
  8
0
  6
CONTINUOUS
 62
     7
100
AcDbCircle
 10
132.745371
 20
145.452333
 30
0.0
 40
0.5
100
AcDbArc
 50
89.999982
 51
179.99996
  0
ARC
  5
202
100
AcDbEntity
  8
0
  6
CONTINUOUS
 62
     7
100
AcDbCircle
 10
132.745379
 20
143.210333
 30
0.0
 40
0.5
100
AcDbArc
 50
90.000003
 51
180.00001
  0
LWPOLYLINE
  5
203
100
AcDbEntity
  8
0
  6
CONTINUOUS
 62
     7
100
AcDbPolyline
 90
       17
 70
     0
 43
0.0
 10
152.495371
 20
91.526185
 42
0.020592
 10
151.884232
 20
91.501013
 42
0.020708
 10
151.276441
 20
91.425423
 42
0.020887
 10
150.677003
 20
91.299605
 42
0.021151
 10
150.090289
 20
91.123925
 42
0.021502
 10
149.520675
 20
90.898916
 42
0.021935
 10
148.972703
 20
90.625342
 42
0.022445
 10
148.45109
 20
90.304264
 42
0.023021
 10
147.960735
 20
89.937132
 42
0.02365
 10
147.506683
 20
89.52587
 42
0.024315
 10
147.094069
 20
89.072985
 42
0.024992
 10
146.728021
 20
88.581659
 42
0.025652
 10
146.413517
 20
88.055833
 42
0.026261
 10
146.155204
 20
87.500257
 42
0.026784
 10
145.957187
 20
86.920487
 42
0.027187
 10
145.822802
 20
86.322819
 42
0.027441
 10
145.754407
 20
85.714151
  0
LWPOLYLINE
  5
216
100
AcDbEntity
  8
0
  6
CONTINUOUS
 62
     7
100
AcDbPolyline
 90
       17
 70
     0
 43
0.0
 10
152.495371
 20
89.001001
 42
0.048369
 10
151.680783
 20
88.922025
 42
0.048522
 10
150.895832
 20
88.687568
 42
0.048718
 10
150.170891
 20
88.305945
 42
0.048977
 10
149.533719
 20
87.790915
 42
0.04927
 10
149.009133
 20
87.161334
 42
0.049546
 10
148.618178
 20
86.440899
 42
0.049752
 10
148.376922
 20
85.657499
 42
0.049862
 10
148.29537
 20
84.841875
 42
0.049822
 10
148.376792
 20
84.026892
 42
0.049704
 10
148.617622
 20
83.244174
 42
0.04952
 10
149.008084
 20
82.523964
 42
0.049257
 10
149.532223
 20
81.894307
 42
0.048988
 10
150.169274
 20
81.378869
 42
0.048743
 10
150.894429
 20
80.996753
 42
0.048553
 10
151.679814
 20
80.761914
 42
0.048427
 10
152.495371
 20
80.682748
  0
LWPOLYLINE
  5
229
100
AcDbEntity
  8
0
  6
CONTINUOUS
 62
     7
100
AcDbPolyline
 90
       17
 70
     0
 43
0.0
 10
152.495371
 20
88.153394
 42
0.019749
 10
152.123015
 20
88.138685
 42
0.019899
 10
151.75202
 20
88.094424
 42
0.020057
 10
151.386434
 20
88.020841
 42
0.020349
 10
151.027998
 20
87.918006
 42
0.020738
 10
150.679207
 20
87.786108
 42
0.021223
 10
150.342675
 20
87.625441
 42
0.021798
 10
150.021162
 20
87.436444
 42
0.022457
 10
149.717577
 20
87.219755
 42
0.023187
 10
149.434976
 20
86.97628
 42
0.02397
 10
149.176532
 20
86.70726
 42
0.024781
 10
148.945486
 20
86.414351
 42
0.025588
 10
148.745061
 20
86.099689
 42
0.026351
 10
148.578347
 20
85.765953
 42
0.027023
 10
148.44815
 20
85.416379
 42
0.02756
 10
148.356829
 20
85.054741
 42
0.02792
 10
148.30613
 20
84.68527
  0
LWPOLYLINE
  5
23C
100
AcDbEntity
  8
0
  6
CONTINUOUS
 62
     7
100
AcDbPolyline
 90
       17
 70
     0
 43
0.0
 10
152.495371
 20
92.63669
 42
0.048416
 10
151.184948
 20
92.509517
 42
0.048522
 10
149.923489
 20
92.132472
 42
0.048718
 10
148.758524
 20
91.518926
 42
0.048977
 10
147.734655
 20
90.691004
 42
0.049271
 10
146.891766
 20
89.679014
 42
0.049546
 10
146.263669
 20
88.521051
 42
0.049752
 10
145.876181
 20
87.261939
 42
0.049813
 10
145.745371
 20
85.952379
 42
0.049822
 10
145.876228
 20
84.642586
 42
0.049704
 10
146.263275
 20
83.384646
 42
0.04952
 10
146.890803
 20
82.227165
 42
0.049257
 10
147.73317
 20
81.215216
 42
0.048988
 10
148.757001
 20
80.386834
 42
0.048743
 10
149.922429
 20
79.772718
 42
0.048553
 10
151.184655
 20
79.395298
 42
0.048427
 10
152.495371
 20
79.268068
  0
LWPOLYLINE
  5
24F
100
AcDbEntity
  8
0
  6
CONTINUOUS
 62
     7
100
AcDbPolyline
 90
       17
 70
     0
 43
0.0
 10
155.995371
 20
89.001001
 42
-0.048369
 10
156.809959
 20
88.922025
 42
-0.048522
 10
157.59491
 20
88.687568
 42
-0.048718
 10
158.319851
 20
88.305945
 42
-0.048977
 10
158.957023
 20
87.790915
 42
-0.04927
 10
159.481608
 20
87.161334
 42
-0.049546
 10
159.872564
 20
86.440899
 42
-0.049752
 10
160.11382
 20
85.657499
 42
-0.049862
 10
160.195372
 20
84.841875
 42
-0.049822
 10
160.11395
 20
84.026892
 42
-0.049704
 10
159.87312
 20
83.244174
 42
-0.04952
 10
159.482658
 20
82.523964
 42
-0.049257
 10
158.958519
 20
81.894307
 42
-0.048988
 10
158.321468
 20
81.378869
 42
-0.048743
 10
157.596313
 20
80.996753
 42
-0.048553
 10
156.810928
 20
80.761914
 42
-0.048427
 10
155.995371
 20
80.682748
  0
LWPOLYLINE
  5
262
100
AcDbEntity
  8
0
  6
CONTINUOUS
 62
     7
100
AcDbPolyline
 90
       17
 70
     0
 43
0.0
 10
155.995371
 20
92.63669
 42
-0.048416
 10
157.305794
 20
92.509517
 42
-0.048522
 10
158.567253
 20
92.132472
 42
-0.048718
 10
159.732218
 20
91.518926
 42
-0.048977
 10
160.756087
 20
90.691004
 42
-0.049271
 10
161.598976
 20
89.679014
 42
-0.049546
 10
162.227072
 20
88.521051
 42
-0.049752
 10
162.614561
 20
87.261939
 42
-0.049813
 10
162.745371
 20
85.952379
 42
-0.049822
 10
162.614514
 20
84.642586
 42
-0.049704
 10
162.227467
 20
83.384646
 42
-0.04952
 10
161.599939
 20
82.227165
 42
-0.049257
 10
160.757572
 20
81.215216
 42
-0.048988
 10
159.733741
 20
80.386834
 42
-0.048743
 10
158.568313
 20
79.772718
 42
-0.048553
 10
157.306087
 20
79.395298
 42
-0.048427
 10
155.995371
 20
79.268068
  0
LWPOLYLINE
  5
275
100
AcDbEntity
  8
0
  6
CONTINUOUS
 62
     7
100
AcDbPolyline
 90
       17
 70
     0
 43
0.0
 10
155.995371
 20
91.526185
 42
-0.020592
 10
156.606509
 20
91.501013
 42
-0.020708
 10
157.214301
 20
91.425423
 42
-0.020887
 10
157.813739
 20
91.299605
 42
-0.021151
 10
158.400453
 20
91.123925
 42
-0.021502
 10
158.970067
 20
90.898916
 42
-0.021935
 10
159.518039
 20
90.625342
 42
-0.022445
 10
160.039651
 20
90.304264
 42
-0.023021
 10
160.530007
 20
89.937132
 42
-0.02365
 10
160.984059
 20
89.52587
 42
-0.024315
 10
161.396673
 20
89.072985
 42
-0.024992
 10
161.762721
 20
88.581659
 42
-0.025652
 10
162.077225
 20
88.055833
 42
-0.026261
 10
162.335538
 20
87.500257
 42
-0.026784
 10
162.533554
 20
86.920487
 42
-0.027187
 10
162.667939
 20
86.322819
 42
-0.027441
 10
162.736335
 20
85.714151
  0
LWPOLYLINE
  5
288
100
AcDbEntity
  8
0
  6
CONTINUOUS
 62
     7
100
AcDbPolyline
 90
       17
 70
     0
 43
0.0
 10
155.995371
 20
88.153394
 42
-0.019749
 10
156.367727
 20
88.138685
 42
-0.019899
 10
156.738721
 20
88.094424
 42
-0.020057
 10
157.104308
 20
88.020841
 42
-0.020349
 10
157.462743
 20
87.918006
 42
-0.020738
 10
157.811535
 20
87.786108
 42
-0.021223
 10
158.148066
 20
87.625441
 42
-0.021798
 10
158.46958
 20
87.436444
 42
-0.022457
 10
158.773164
 20
87.219755
 42
-0.023187
 10
159.055766
 20
86.97628
 42
-0.02397
 10
159.31421
 20
86.70726
 42
-0.024781
 10
159.545256
 20
86.414351
 42
-0.025588
 10
159.745681
 20
86.099689
 42
-0.026351
 10
159.912395
 20
85.765953
 42
-0.027023
 10
160.042592
 20
85.416379
 42
-0.02756
 10
160.133913
 20
85.054741
 42
-0.02792
 10
160.184612
 20
84.68527
  0
LWPOLYLINE
  5
29B
100
AcDbEntity
  8
0
  6
CONTINUOUS
 62
     7
100
AcDbPolyline
 90
       16
 70
     1
 43
0.0
 10
162.745371
 20
144.898265
 42
0.13236
 10
160.729584
 20
145.505672
 42
0.015599
 10
158.574437
 20
145.706717
 42
0.008969
 10
156.411659
 20
145.806663
 42
0.007248
 10
154.245371
 20
145.837684
 42
0.007243
 10
152.080468
 20
145.806703
 42
0.00897
 10
149.917003
 20
145.706763
 42
0.015605
 10
147.760796
 20
145.505625
 42
0.132457
 10
145.745371
 20
144.898265
 42
0.13236
 10
147.761158
 20
144.290859
 42
0.015599
 10
149.916305
 20
144.089813
 42
0.008969
 10
152.079083
 20
143.989868
 42
0.007248
 10
154.245371
 20
143.958847
 42
0.007243
 10
156.410273
 20
143.989827
 42
0.00897
 10
158.573739
 20
144.089767
 42
0.015605
 10
160.729946
 20
144.290906
 42
0.132457
  0
LINE
  5
2AD
100
AcDbEntity
  8
0
  6
CONTINUOUS
 62
     7
100
AcDbLine
 10
216.725954
 20
75.452333
 30
0.0
 11
219.745367
 21
78.471753
 31
0.0
  0
LINE
  5
2AE
100
AcDbEntity
  8
0
  6
CONTINUOUS
 62
     7
100
AcDbLine
 10
214.480895
 20
75.452333
 30
0.0
 11
218.828467
 21
79.799918
 31
0.0
  0
LINE
  5
2AF
100
AcDbEntity
  8
0
  6
CONTINUOUS
 62
     7
100
AcDbLine
 10
212.235834
 20
75.452333
 30
0.0
 11
216.860057
 21
80.076562
 31
0.0
  0
LINE
  5
2B0
100
AcDbEntity
  8
0
  6
CONTINUOUS
 62
     7
100
AcDbLine
 10
209.990772
 20
75.452333
 30
0.0
 11
214.891635
 21
80.353205
 31
0.0
  0
LINE
  5
2B1
100
AcDbEntity
  8
0
  6
CONTINUOUS
 62
     7
100
AcDbLine
 10
207.74571
 20
75.452333
 30
0.0
 11
210.665465
 21
78.372094
 31
0.0
  0
LINE
  5
2B2
100
AcDbEntity
  8
0
  6
CONTINUOUS
 62
     7
100
AcDbLine
 10
212.456267
 20
80.162899
 30
0.0
 11
212.923216
 21
80.629849
 31
0.0
  0
LINE
  5
2B3
100
AcDbEntity
  8
0
  6
CONTINUOUS
 62
     7
100
AcDbLine
 10
205.499369
 20
75.451054
 30
0.0
 11
208.697046
 21
78.648737
 31
0.0
  0
LINE
  5
2B4
100
AcDbEntity
  8
0
  6
CONTINUOUS
 62
     7
100
AcDbLine
 10
204.350758
 20
76.547507
 30
0.0
 11
206.728627
 21
78.92538
 31
0.0
  0
LINE
  5
2B5
100
AcDbEntity
  8
0
  6
CONTINUOUS
 62
     7
100
AcDbLine
 10
204.157961
 20
78.599775
 30
0.0
 11
204.760207
 21
79.202023
 31
0.0
  0
LINE
  5
2B6
100
AcDbEntity
  8
0
  6
CONTINUOUS
 62
     7
100
AcDbLine
 10
218.392087
 20
88.343799
 30
0.0
 11
219.745367
 21
89.697084
 31
0.0
  0
LINE
  5
2B7
100
AcDbEntity
  8
0
  6
CONTINUOUS
 62
     7
100
AcDbLine
 10
216.423669
 20
88.620442
 30
0.0
 11
219.745367
 21
91.94215
 31
0.0
  0
LINE
  5
2B8
100
AcDbEntity
  8
0
  6
CONTINUOUS
 62
     7
100
AcDbLine
 10
214.455249
 20
88.897084
 30
0.0
 11
218.627927
 21
93.069772
 31
0.0
  0
LINE
  5
2B9
100
AcDbEntity
  8
0
  6
CONTINUOUS
 62
     7
100
AcDbLine
 10
213.924737
 20
90.611638
 30
0.0
 11
216.765427
 21
93.45233
 31
0.0
  0
LINE
  5
2BA
100
AcDbEntity
  8
0
  6
CONTINUOUS
 62
     7
100
AcDbLine
 10
212.776162
 20
91.708126
 30
0.0
 11
214.520363
 21
93.45233
 31
0.0
  0
LINE
  5
2BB
100
AcDbEntity
  8
0
  6
CONTINUOUS
 62
     7
100
AcDbLine
 10
210.807742
 20
91.984769
 30
0.0
 11
212.275302
 21
93.452331
 31
0.0
  0
LINE
  5
2BC
100
AcDbEntity
  8
0
  6
CONTINUOUS
 62
     7
100
AcDbLine
 10
208.839323
 20
92.261412
 30
0.0
 11
210.030241
 21
93.452332
 31
0.0
  0
LINE
  5
2BD
100
AcDbEntity
  8
0
  6
CONTINUOUS
 62
     7
100
AcDbLine
 10
206.870904
 20
92.538055
 30
0.0
 11
207.78518
 21
93.452332
 31
0.0
  0
TEXT
  5
2BE
100
AcDbEntity
  8
0
  6
CONTINUOUS
100
AcDbText
 10
128.371215
 20
36.187341
 30
0.0
 40
6.0
  1
ＢＵ１３５ＥＬ
100
AcDbText
  0
LINE
  5
2E1
102
{ACAD_REACTORS
330
2EB
102
}
100
AcDbEntity
  8
寸法
 62
     1
100
AcDbLine
 10
225.325865
 20
83.128048
 30
0.0
 11
241.608456
 21
80.839681
 31
0.0
  0
LINE
  5
2E2
102
{ACAD_REACTORS
330
2EB
102
}
100
AcDbEntity
  8
寸法
 62
     1
100
AcDbLine
 10
219.745367
 20
83.912335
 30
0.0
 11
241.823317
 21
83.912335
 31
0.0
  0
ARC
  5
2E3
102
{ACAD_REACTORS
330
2EB
102
}
100
AcDbEntity
  8
寸法
 62
     1
100
AcDbCircle
 10
219.745367
 20
83.912335
 30
0.0
 40
21.07795
100
AcDbArc
 50
341.110501
 51
352.000005
  0
LINE
  5
2E4
102
{ACAD_REACTORS
330
2EB
102
}
100
AcDbEntity
  8
寸法
 62
     1
100
AcDbLine
 10
239.688158
 20
77.088475
 30
0.0
 11
236.903959
 21
68.951631
 31
0.0
  0
ARC
  5
2E5
102
{ACAD_REACTORS
330
2EB
102
}
100
AcDbEntity
  8
寸法
 62
     1
100
AcDbCircle
 10
219.745367
 20
83.912335
 30
0.0
 40
21.07795
100
AcDbArc
 50
341.1228
 51
346.561403
  0
ARC
  5
2E6
102
{ACAD_REACTORS
330
2EB
102
}
100
AcDbEntity
  8
寸法
 62
     1
100
AcDbCircle
 10
219.745367
 20
83.912335
 30
0.0
 40
21.07795
100
AcDbArc
 50
5.438602
 51
10.877205
  0
ARC
  5
2E7
102
{ACAD_REACTORS
330
2EB
102
}
100
AcDbEntity
  8
寸法
 62
     1
100
AcDbCircle
 10
219.745367
 20
83.912335
 30
0.0
 40
21.07795
100
AcDbArc
 50
352.000005
 51
0.0
  0
INSERT
  5
2E8
102
{ACAD_REACTORS
330
2EB
102
}
100
AcDbEntity
  8
寸法
 62
     1
100
AcDbBlockReference
  2
_OPEN30
 10
240.618188
 20
80.978854
 30
0.0
 41
2.0
 42
2.0
 43
2.0
 50
79.280704
  0
INSERT
  5
2E9
102
{ACAD_REACTORS
330
2EB
102
}
100
AcDbEntity
  8
寸法
 62
     1
100
AcDbBlockReference
  2
_OPEN30
 10
240.823317
 20
83.912335
 30
0.0
 41
2.0
 42
2.0
 43
2.0
 50
272.719301
  0
MTEXT
  5
2EA
102
{ACAD_REACTORS
330
2EB
102
}
100
AcDbEntity
  8
寸法
 62
     1
100
AcDbMText
 10
235.930697
 20
73.829413
 30
0.0
 40
3.0
 41
0.0
 71
     5
 72
     1
  1
\A1;8°
 11
0.323744
 21
0.946145
 31
0.0
1001
ACAD
1000
MTEXTBEGIN
1070
    73
1070
     1
1070
    44
1040
1.0
1070
    74
1070
     0
1000
MTEXTEND
  0
DIMENSION
  5
2EC
100
AcDbEntity
  8
寸法
100
AcDbDimension
  2
*D2
 10
230.0
 20
75.452333
 30
0.0
 11
227.5
 21
67.952333
 31
0.0
 70
    32
  3
STANDARD
100
AcDbAlignedDimension
 13
219.745367
 23
83.912335
 33
0.0
 14
218.135365
 24
75.452333
 34
0.0
 50
90.0
100
AcDbRotatedDimension
  0
DIMENSION
  5
2FA
100
AcDbEntity
  8
寸法
100
AcDbDimension
  2
*D3
 10
190.0
 20
75.452333
 30
0.0
 11
187.5
 21
84.452333
 31
0.0
 70
    32
  3
STANDARD
100
AcDbAlignedDimension
 13
168.245371
 23
93.452333
 33
0.0
 14
168.245371
 24
75.452333
 34
0.0
 50
90.0
100
AcDbRotatedDimension
  0
DIMENSION
  5
307
100
AcDbEntity
  8
寸法
100
AcDbDimension
  2
*D4
 10
154.245371
 20
110.0
 30
0.0
 11
165.245371
 21
112.5
 31
0.0
 70
    32
  3
STANDARD
100
AcDbAlignedDimension
 13
176.245371
 23
85.952333
 33
0.0
 14
154.245371
 24
96.446977
 34
0.0
100
AcDbRotatedDimension
  0
DIMENSION
  5
314
100
AcDbEntity
  8
寸法
100
AcDbDimension
  2
*D5
 10
155.995371
 20
60.0
 30
0.0
 11
163.995371
 21
62.5
 31
0.0
 70
    32
  3
STANDARD
100
AcDbAlignedDimension
 13
152.495371
 23
76.495927
 33
0.0
 14
155.995371
 24
76.391138
 34
0.0
100
AcDbRotatedDimension
  0
DIMENSION
  5
323
100
AcDbEntity
  8
寸法
100
AcDbDimension
  2
*D6
 10
168.245371
 20
93.452333
 30
0.0
 11
93.153618
 21
99.617459
 31
0.0
 70
    34
  3
STANDARD
100
AcDb2LineAngularDimension
 13
110.24538
 23
91.452348
 33
0.0
 14
116.626562
 24
92.123037
 34
0.0
 15
126.419795
 25
93.452333
 35
0.0
 16
90.479163
 26
90.739537
 36
0.0
1001
ACAD
1000
DSTYLE
1002
{
1070
   271
1070
     0
1002
}
  0
DIMENSION
  5
334
100
AcDbEntity
  8
寸法
100
AcDbDimension
  2
*D7
 10
100.0
 20
75.452333
 30
0.0
 11
97.5
 21
83.452341
 31
0.0
 70
    32
  3
STANDARD
100
AcDbAlignedDimension
 13
110.245379
 23
91.452348
 33
0.0
 14
111.927048
 24
75.452333
 34
0.0
 50
90.0
100
AcDbRotatedDimension
  0
DIMENSION
  5
341
100
AcDbEntity
  8
寸法
100
AcDbDimension
  2
*D8
 10
110.245378
 20
120.0
 30
0.0
 11
143.245372
 21
122.5
 31
0.0
 70
    32
  3
STANDARD
100
AcDbAlignedDimension
 13
176.245367
 23
150.452331
 33
0.0
 14
110.245378
 24
152.452333
 34
0.0
100
AcDbRotatedDimension
  0
DIMENSION
  5
34E
100
AcDbEntity
  8
寸法
100
AcDbDimension
  2
*D9
 10
168.245371
 20
130.0
 30
0.0
 11
172.245369
 21
132.5
 31
0.0
 70
    32
  3
STANDARD
100
AcDbAlignedDimension
 13
176.245367
 23
150.452331
 33
0.0
 14
168.245371
 24
143.710333
 34
0.0
100
AcDbRotatedDimension
1001
ACAD
1000
DSTYLE
1002
{
1070
   287
1070
     4
1070
   279
1070
     1
1002
}
  0
DIMENSION
  5
36D
100
AcDbEntity
  8
寸法
100
AcDbDimension
  2
*D10
 10
100.0
 20
159.452333
 30
0.0
 11
97.5
 21
149.952333
 31
0.0
 70
    32
  3
STANDARD
100
AcDbAlignedDimension
 13
117.173582
 23
140.452333
 33
0.0
 14
122.36973
 24
159.452333
 34
0.0
 50
90.0
100
AcDbRotatedDimension
  0
DIMENSION
  5
37A
100
AcDbEntity
  8
寸法
100
AcDbDimension
  2
*D11
 10
168.245371
 20
159.452333
 30
0.0
 11
141.09035
 21
163.364431
 31
0.0
 70
   162
  3
STANDARD
100
AcDb2LineAngularDimension
 13
110.245378
 23
152.452333
 33
0.0
 14
122.369731
 24
159.452331
 34
0.0
 15
122.369731
 25
159.452333
 35
0.0
 16
140.341364
 26
165.993471
 36
0.0
1001
ACAD
1000
DSTYLE
1002
{
1070
   271
1070
     0
1002
}
  0
LINE
  5
395
100
AcDbEntity
  8
0
  6
CENTER
 62
     1
 48
0.5
100
AcDbLine
 10
83.341028
 20
156.078407
 30
0.0
 11
83.341028
 21
174.932001
 31
0.0
  0
ARC
  5
39A
100
AcDbEntity
  8
0
  6
CENTER
 62
     1
 48
0.5
100
AcDbCircle
 10
83.341028
 20
174.932001
 30
0.0
 40
19.0
100
AcDbArc
 50
188.0
 51
282.159329
  0
LINE
  5
39D
100
AcDbEntity
  8
0
  6
CENTER
 62
     1
 48
0.5
100
AcDbLine
 10
83.341028
 20
174.932001
 30
0.0
 11
80.412066
 21
141.453814
 31
0.0
  0
DIMENSION
  5
39E
100
AcDbEntity
  8
寸法
100
AcDbDimension
  2
*D12
 10
83.341028
 20
140.452333
 30
0.0
 11
73.225925
 21
130.357648
 31
0.0
 70
    34
  3
STANDARD
100
AcDb2LineAngularDimension
 13
83.341028
 23
174.932001
 33
0.0
 14
80.412066
 24
141.453814
 34
0.0
 15
83.341028
 25
157.952333
 35
0.0
 16
81.944818
 26
126.947384
 36
0.0
1001
ACAD
1000
DSTYLE
1002
{
1070
   271
1070
     0
1002
}
  0
DIMENSION
  5
3AF
100
AcDbEntity
  8
寸法
100
AcDbDimension
  2
*D13
 10
83.341028
 20
174.932001
 30
0.0
 11
74.57335
 21
170.12286
 31
0.0
 70
   164
  1
%%c38
  3
STANDARD
100
AcDbRadialDimension
 15
66.682441
 25
165.794634
 35
0.0
 40
0.0
1001
ACAD
1000
DSTYLE
1002
{
1070
   288
1070
     1
1002
}
  0
INSERT
  5
42A
100
AcDbEntity
  8
0
  6
CONTINUOUS
100
AcDbBlockReference
  2
A$C776226A5
 10
127.588113
 20
24.0426
 30
0.0
  0
ENDSEC
  0
SECTION
  2
OBJECTS
  0
DICTIONARY
  5
C
100
AcDbDictionary
  3
ACAD_GROUP
350
D
  3
ACAD_LAYOUT
350
2C3
  3
ACAD_MLINESTYLE
350
1B
  3
ACAD_PLOTSETTINGS
350
2C4
  3
ACAD_PLOTSTYLENAME
350
2C1
  3
ACDBHEADERROUNDTRIPXREC
350
3C7
  3
ACDBVARIABLEDICTIONARY
350
33
  3
CONTENTDICTIONARY
350
23
  0
DICTIONARY
  5
3C3
100
AcDbDictionary
280
     1
  3
ACAD_XREC_ROUNDTRIP
360
3C4
  0
DICTIONARY
  5
3EC
100
AcDbDictionary
280
     1
  3
ACAD_XREC_ROUNDTRIP
360
3ED
  0
DICTIONARY
  5
3EA
100
AcDbDictionary
280
     1
  3
ACAD_LAYOUTSELFREF
360
3EB
  0
DICTIONARY
  5
3E8
100
AcDbDictionary
280
     1
  3
ACAD_LAYOUTSELFREF
360
3E9
  0
DICTIONARY
  5
D
102
{ACAD_REACTORS
330
C
102
}
100
AcDbDictionary
  3
*A1
350
2EB
  0
DICTIONARY
  5
2C3
102
{ACAD_XDICTIONARY
360
3EE
102
}
102
{ACAD_REACTORS
330
C
102
}
100
AcDbDictionary
  3
MODEL
350
2C5
  3
ﾚｲｱｳﾄ1
350
2C6
  0
DICTIONARY
  5
1B
102
{ACAD_REACTORS
330
C
102
}
100
AcDbDictionary
  3
STANDARD
350
1C
  0
DICTIONARY
  5
2C4
102
{ACAD_REACTORS
330
C
102
}
100
AcDbDictionary
  0
ACAD_PROXY_OBJECT
  5
2C1
102
{ACAD_REACTORS
330
C
102
}
100
AcDbProxyObject
 90
      499
 91
      502
 93
       86
310
405010041939BDC9B585B1
350
2C2
340
2C2
 94
        0
  0
DICTIONARY
  5
3C7
102
{ACAD_REACTORS
330
C
102
}
100
AcDbDictionary
  3
CEPSNTYPE
350
3D1
  3
DIMSTYLEDATA
350
3D5
  3
FINGERPRINTGUID
350
3D2
  3
HYPERLINKBASE
350
3CA
  3
INSUNITS
350
3D0
  3
LAYOUTDICT
350
3CC
  3
LWETCUNION
350
3CF
  3
PLOTSETDICT
350
3CD
  3
PLOTSTYLNAMDICT
350
3CE
  3
PSVPSCALE
350
3D4
  3
PUCSBASE
350
3D8
  3
PUCSORGBACK
350
3DE
  3
PUCSORGBOTTOM
350
3DA
  3
PUCSORGFRONT
350
3DD
  3
PUCSORGLEFT
350
3DB
  3
PUCSORGRIGHT
350
3DC
  3
PUCSORGTOP
350
3D9
  3
PUCSORTHOREF
350
3D6
  3
PUCSORTHOVIEW
350
3D7
  3
STYLESHEET
350
3CB
  3
TSTACKALIGN
350
3C8
  3
TSTACKSIZE
350
3C9
  3
UCSBASE
350
3E1
  3
UCSORGBACK
350
3E7
  3
UCSORGBOTTOM
350
3E3
  3
UCSORGFRONT
350
3E6
  3
UCSORGLEFT
350
3E4
  3
UCSORGRIGHT
350
3E5
  3
UCSORGTOP
350
3E2
  3
UCSORTHOREF
350
3DF
  3
UCSORTHOVIEW
350
3E0
  3
VERSIONGUID
350
3D3
  0
DICTIONARY
  5
33
102
{ACAD_REACTORS
330
C
102
}
100
AcDbDictionary
  3
DIMADEC
350
34
  0
DICTIONARY
  5
23
102
{ACAD_REACTORS
330
C
102
}
100
AcDbDictionary
  0
XRECORD
  5
3C4
102
{ACAD_REACTORS
330
3C3
102
}
100
AcDbXrecord
102
EXTNAMES
  1
DEFPOINTS
  2
Defpoints
102
PLOTBIT
280
     0
  0
XRECORD
  5
3ED
102
{ACAD_REACTORS
330
3EC
102
}
100
AcDbXrecord
102
ACADR14ROUNDTRIP
1000
DSTYLE
1002
{
1070
   341
340
37
1070
   343
340
37
1070
   344
340
37
1002
}
  0
XRECORD
  5
3EB
102
{ACAD_REACTORS
330
3EA
102
}
100
AcDbXrecord
340
18
  0
XRECORD
  5
3E9
102
{ACAD_REACTORS
330
3E8
102
}
100
AcDbXrecord
340
15
  0
GROUP
  5
2EB
102
{ACAD_REACTORS
330
D
102
}
100
AcDbGroup
300

 70
     1
 71
     1
340
2E2
340
2E1
340
2E4
340
2E8
340
2E3
340
2E5
340
2E9
340
2E7
340
2E6
340
2EA
  0
DICTIONARY
  5
3EE
100
AcDbDictionary
280
     1
  3
ACAD_XREC_ROUNDTRIP
360
3EF
  0
ACAD_PROXY_OBJECT
  5
2C5
102
{ACAD_REACTORS
330
2C3
102
}
100
AcDbProxyObject
 90
      499
 91
      504
 93
      548
310
90E4550534F4E20504D2D32303030432C01AAAAAAAAA5A69054D6F64656C901A800000000000000000000000000000000000000000000A1000000000000008902A6A6AAAA0
330
18
330
0
340
0
340
0
 94
        0
  0
ACAD_PROXY_OBJECT
  5
2C6
102
{ACAD_REACTORS
330
2C3
102
}
100
AcDbProxyObject
 90
      499
 91
      504
 93
      964
310
90E4550534F4E20504D2D32303030432C00AAAAAA416AA59106906DAB2B1B3C43140501A800000000000000000000000000000000000000000101E900000000000241C902A6A6A10232D5E076BC5510408CB5781DAF154410232D5E076BC5510408CB5781DAF15C410232D5E076BC5710408CB5781DAF15C4F
330
15
330
0
340
0
340
0
 94
        0
  0
MLINESTYLE
  5
1C
102
{ACAD_REACTORS
330
1B
102
}
100
AcDbMlineStyle
  2
STANDARD
 70
     0
  3

 62
   256
 51
90.0
 52
90.0
 71
     2
 49
0.5
 62
   256
  6
BYLAYER
 49
-0.5
 62
   256
  6
BYLAYER
  0
ACAD_PROXY_OBJECT
  5
2C2
102
{ACAD_REACTORS
330
2C1
102
}
100
AcDbProxyObject
 90
      499
 91
      503
 93
        0
 94
        0
  0
XRECORD
  5
3D1
102
{ACAD_REACTORS
330
3C7
102
}
100
AcDbXrecord
 90
        0
  0
XRECORD
  5
3D5
102
{ACAD_REACTORS
330
3C7
102
}
100
AcDbXrecord
1000
DSTYLE
1002
{
1070
   341
340
37
1070
   343
340
37
1070
   344
340
37
1002
}
  0
XRECORD
  5
3D2
102
{ACAD_REACTORS
330
3C7
102
}
100
AcDbXrecord
  1
{0EB0CF05-8B66-466E-B832-7CF93AE56C08}
  0
XRECORD
  5
3CA
102
{ACAD_REACTORS
330
3C7
102
}
100
AcDbXrecord
  1

  0
XRECORD
  5
3D0
102
{ACAD_REACTORS
330
3C7
102
}
100
AcDbXrecord
 90
        0
  0
XRECORD
  5
3CC
102
{ACAD_REACTORS
330
3C7
102
}
100
AcDbXrecord
340
2C3
  0
XRECORD
  5
3CF
102
{ACAD_REACTORS
330
3C7
102
}
100
AcDbXrecord
 90
    14877
  0
XRECORD
  5
3CD
102
{ACAD_REACTORS
330
3C7
102
}
100
AcDbXrecord
340
2C4
  0
XRECORD
  5
3CE
102
{ACAD_REACTORS
330
3C7
102
}
100
AcDbXrecord
340
2C1
  0
XRECORD
  5
3D4
102
{ACAD_REACTORS
330
3C7
102
}
100
AcDbXrecord
 40
0.0
  0
XRECORD
  5
3D8
102
{ACAD_REACTORS
330
3C7
102
}
100
AcDbXrecord
340
0
  0
XRECORD
  5
3DE
102
{ACAD_REACTORS
330
3C7
102
}
100
AcDbXrecord
 10
0.0
 20
0.0
 30
0.0
  0
XRECORD
  5
3DA
102
{ACAD_REACTORS
330
3C7
102
}
100
AcDbXrecord
 10
0.0
 20
0.0
 30
0.0
  0
XRECORD
  5
3DD
102
{ACAD_REACTORS
330
3C7
102
}
100
AcDbXrecord
 10
0.0
 20
0.0
 30
0.0
  0
XRECORD
  5
3DB
102
{ACAD_REACTORS
330
3C7
102
}
100
AcDbXrecord
 10
0.0
 20
0.0
 30
0.0
  0
XRECORD
  5
3DC
102
{ACAD_REACTORS
330
3C7
102
}
100
AcDbXrecord
 10
0.0
 20
0.0
 30
0.0
  0
XRECORD
  5
3D9
102
{ACAD_REACTORS
330
3C7
102
}
100
AcDbXrecord
 10
0.0
 20
0.0
 30
0.0
  0
XRECORD
  5
3D6
102
{ACAD_REACTORS
330
3C7
102
}
100
AcDbXrecord
340
0
  0
XRECORD
  5
3D7
102
{ACAD_REACTORS
330
3C7
102
}
100
AcDbXrecord
 70
     0
  0
XRECORD
  5
3CB
102
{ACAD_REACTORS
330
3C7
102
}
100
AcDbXrecord
  1

  0
XRECORD
  5
3C8
102
{ACAD_REACTORS
330
3C7
102
}
100
AcDbXrecord
 90
        1
  0
XRECORD
  5
3C9
102
{ACAD_REACTORS
330
3C7
102
}
100
AcDbXrecord
 90
       70
  0
XRECORD
  5
3E1
102
{ACAD_REACTORS
330
3C7
102
}
100
AcDbXrecord
340
0
  0
XRECORD
  5
3E7
102
{ACAD_REACTORS
330
3C7
102
}
100
AcDbXrecord
 10
0.0
 20
0.0
 30
0.0
  0
XRECORD
  5
3E3
102
{ACAD_REACTORS
330
3C7
102
}
100
AcDbXrecord
 10
0.0
 20
0.0
 30
0.0
  0
XRECORD
  5
3E6
102
{ACAD_REACTORS
330
3C7
102
}
100
AcDbXrecord
 10
0.0
 20
0.0
 30
0.0
  0
XRECORD
  5
3E4
102
{ACAD_REACTORS
330
3C7
102
}
100
AcDbXrecord
 10
0.0
 20
0.0
 30
0.0
  0
XRECORD
  5
3E5
102
{ACAD_REACTORS
330
3C7
102
}
100
AcDbXrecord
 10
0.0
 20
0.0
 30
0.0
  0
XRECORD
  5
3E2
102
{ACAD_REACTORS
330
3C7
102
}
100
AcDbXrecord
 10
0.0
 20
0.0
 30
0.0
  0
XRECORD
  5
3DF
102
{ACAD_REACTORS
330
3C7
102
}
100
AcDbXrecord
340
0
  0
XRECORD
  5
3E0
102
{ACAD_REACTORS
330
3C7
102
}
100
AcDbXrecord
 70
     0
  0
XRECORD
  5
3D3
102
{ACAD_REACTORS
330
3C7
102
}
100
AcDbXrecord
  1
{6DC1E35F-1E50-4CA2-99A4-EA4777DF3306}
  0
DICTIONARYVAR
  5
34
102
{ACAD_REACTORS
330
33
102
}
100
DictionaryVariables
280
     0
  1
0
  0
XRECORD
  5
3EF
102
{ACAD_REACTORS
330
3EE
102
}
100
AcDbXrecord
102
EXTNAMES
  1
MODEL
  2
Model
  0
ENDSEC
  0
EOF
