  0
SECTION
  2
HEADER
  9
$ACADVER
  1
AC1014
  9
$ACADMAINTVER
 70
     0
  9
$DWGCODEPAGE
  3
ANSI_932
  9
$INSBASE
 10
0.0
 20
0.0
 30
0.0
  9
$EXTMIN
 10
73.02174
 20
40.171083
 30
0.0
  9
$EXTMAX
 10
232.723736
 20
161.296181
 30
0.0
  9
$LIMMIN
 10
0.0
 20
0.0
  9
$LIMMAX
 10
297.0
 20
210.0
  9
$ORTHOMODE
 70
     1
  9
$REGENMODE
 70
     1
  9
$FILLMODE
 70
     1
  9
$QTEXTMODE
 70
     0
  9
$MIRRTEXT
 70
     1
  9
$DRAGMODE
 70
     2
  9
$LTSCALE
 40
0.707071
  9
$OSMODE
 70
    33
  9
$ATTMODE
 70
     1
  9
$TEXTSIZE
 40
1.767677
  9
$TRACEWID
 40
1.0
  9
$TEXTSTYLE
  7
STANDARD
  9
$CLAYER
  8
寸法
  9
$CELTYPE
  6
BYLAYER
  9
$CECOLOR
 62
   256
  9
$CELTSCALE
 40
1.0
  9
$DELOBJ
 70
     1
  9
$DISPSILH
 70
     0
  9
$DIMSCALE
 40
1.0
  9
$DIMASZ
 40
2.0
  9
$DIMEXO
 40
1.0
  9
$DIMDLI
 40
10.0
  9
$DIMRND
 40
0.0
  9
$DIMDLE
 40
0.0
  9
$DIMEXE
 40
1.0
  9
$DIMTP
 40
0.0
  9
$DIMTM
 40
0.0
  9
$DIMTXT
 40
3.0
  9
$DIMCEN
 40
2.0
  9
$DIMTSZ
 40
0.0
  9
$DIMTOL
 70
     0
  9
$DIMLIM
 70
     0
  9
$DIMTIH
 70
     0
  9
$DIMTOH
 70
     0
  9
$DIMSE1
 70
     0
  9
$DIMSE2
 70
     0
  9
$DIMTAD
 70
     1
  9
$DIMZIN
 70
     8
  9
$DIMBLK
  1

  9
$DIMASO
 70
     1
  9
$DIMSHO
 70
     1
  9
$DIMPOST
  1

  9
$DIMAPOST
  1

  9
$DIMALT
 70
     0
  9
$DIMALTD
 70
     2
  9
$DIMALTF
 40
25.4
  9
$DIMLFAC
 40
1.0
  9
$DIMTOFL
 70
     1
  9
$DIMTVP
 40
0.0
  9
$DIMTIX
 70
     0
  9
$DIMSOXD
 70
     0
  9
$DIMSAH
 70
     1
  9
$DIMBLK1
  1
OPEN30
  9
$DIMBLK2
  1
OPEN30
  9
$DIMSTYLE
  2
STANDARD
  9
$DIMCLRD
 70
     1
  9
$DIMCLRE
 70
     1
  9
$DIMCLRT
 70
     1
  9
$DIMTFAC
 40
1.0
  9
$DIMGAP
 40
1.0
  9
$DIMJUST
 70
     0
  9
$DIMSD1
 70
     0
  9
$DIMSD2
 70
     0
  9
$DIMTOLJ
 70
     1
  9
$DIMTZIN
 70
     0
  9
$DIMALTZ
 70
     0
  9
$DIMALTTZ
 70
     0
  9
$DIMFIT
 70
     3
  9
$DIMUPT
 70
     0
  9
$DIMUNIT
 70
     2
  9
$DIMDEC
 70
     2
  9
$DIMTDEC
 70
     4
  9
$DIMALTU
 70
     2
  9
$DIMALTTD
 70
     2
  9
$DIMTXSTY
  7
STANDARD
  9
$DIMAUNIT
 70
     0
  9
$LUNITS
 70
     2
  9
$LUPREC
 70
     4
  9
$SKETCHINC
 40
1.0
  9
$FILLETRAD
 40
7.070707
  9
$AUNITS
 70
     0
  9
$AUPREC
 70
     0
  9
$MENU
  1
acad
  9
$ELEVATION
 40
0.0
  9
$PELEVATION
 40
0.0
  9
$THICKNESS
 40
0.0
  9
$LIMCHECK
 70
     0
  9
$BLIPMODE
 70
     0
  9
$CHAMFERA
 40
7.070707
  9
$CHAMFERB
 40
7.070707
  9
$CHAMFERC
 40
14.141414
  9
$CHAMFERD
 40
0.0
  9
$SKPOLY
 70
     0
  9
$TDCREATE
 40
2451930.608784722
  9
$TDUPDATE
 40
2451977.423506944
  9
$TDINDWG
 40
0.0188248843
  9
$TDUSRTIMER
 40
0.0188248843
  9
$USRTIMER
 70
     1
  9
$ANGBASE
 50
0.0
  9
$ANGDIR
 70
     0
  9
$PDMODE
 70
     0
  9
$PDSIZE
 40
0.0
  9
$PLINEWID
 40
0.0
  9
$COORDS
 70
     1
  9
$SPLFRAME
 70
     0
  9
$SPLINETYPE
 70
     6
  9
$SPLINESEGS
 70
     8
  9
$ATTDIA
 70
     0
  9
$ATTREQ
 70
     1
  9
$HANDLING
 70
     1
  9
$HANDSEED
  5
4D3
  9
$SURFTAB1
 70
     6
  9
$SURFTAB2
 70
     6
  9
$SURFTYPE
 70
     6
  9
$SURFU
 70
     6
  9
$SURFV
 70
     6
  9
$UCSNAME
  2

  9
$UCSORG
 10
0.0
 20
0.0
 30
0.0
  9
$UCSXDIR
 10
1.0
 20
0.0
 30
0.0
  9
$UCSYDIR
 10
0.0
 20
1.0
 30
0.0
  9
$PUCSNAME
  2

  9
$PUCSORG
 10
0.0
 20
0.0
 30
0.0
  9
$PUCSXDIR
 10
1.0
 20
0.0
 30
0.0
  9
$PUCSYDIR
 10
0.0
 20
1.0
 30
0.0
  9
$USERI1
 70
     0
  9
$USERI2
 70
     0
  9
$USERI3
 70
     0
  9
$USERI4
 70
     0
  9
$USERI5
 70
     0
  9
$USERR1
 40
0.0
  9
$USERR2
 40
0.0
  9
$USERR3
 40
0.0
  9
$USERR4
 40
0.0
  9
$USERR5
 40
0.0
  9
$WORLDVIEW
 70
     1
  9
$SHADEDGE
 70
     3
  9
$SHADEDIF
 70
    70
  9
$TILEMODE
 70
     1
  9
$MAXACTVP
 70
    48
  9
$PINSBASE
 10
0.0
 20
0.0
 30
0.0
  9
$PLIMCHECK
 70
     0
  9
$PEXTMIN
 10
1.000000E+20
 20
1.000000E+20
 30
1.000000E+20
  9
$PEXTMAX
 10
-1.000000E+20
 20
-1.000000E+20
 30
-1.000000E+20
  9
$PLIMMIN
 10
0.0
 20
0.0
  9
$PLIMMAX
 10
420.0
 20
297.0
  9
$UNITMODE
 70
     0
  9
$VISRETAIN
 70
     1
  9
$PLINEGEN
 70
     0
  9
$PSLTSCALE
 70
     1
  9
$TREEDEPTH
 70
  3020
  9
$PICKSTYLE
 70
     1
  9
$CMLSTYLE
  2
STANDARD
  9
$CMLJUST
 70
     0
  9
$CMLSCALE
 40
20.0
  9
$PROXYGRAPHICS
 70
     1
  9
$MEASUREMENT
 70
     1
  0
ENDSEC
  0
SECTION
  2
CLASSES
  0
CLASS
  1
DICTIONARYVAR
  2
AcDbDictionaryVar
  3
"AutoCAD"
 90
        0
280
     0
281
     0
  0
CLASS
  1
LWPOLYLINE
  2
AcDbPolyline
  3
"AutoCAD"
 90
        0
280
     0
281
     1
  0
CLASS
  1
ACDBDICTIONARYWDFLT
  2
AcDbDictionaryWithDefault
  3
AutoCAD 2000
 90
        0
280
     0
281
     0
  0
CLASS
  1
ACDBPLACEHOLDER
  2
AcDbPlaceHolder
  3
AutoCAD 2000
 90
        0
280
     0
281
     0
  0
CLASS
  1
LAYOUT
  2
AcDbLayout
  3
AutoCAD 2000
 90
        0
280
     0
281
     0
  0
CLASS
  1
LONG_TRANSACTION
  2
AcDbLongTransaction
  3
AutoCAD 2000
 90
        0
280
     0
281
     0
  0
CLASS
  1
LWPOLYLINE
  2
AcDbPolyline
  3
"AutoCAD"
 90
        0
280
     0
281
     1
  0
CLASS
  1
HATCH
  2
AcDbHatch
  3
"ACAD_SEDONA"
 90
        0
280
     0
281
     1
  0
CLASS
  1
XRECORD
  2
AcDbXrecord
  3
"<Built In>"
 90
        0
280
     0
281
     0
  0
CLASS
  1
LONG_TRANSACTION
  2
AcDbLongTransaction
  3
AutoCAD 2000
 90
        0
280
     0
281
     0
  0
CLASS
  1
LWPOLYLINE
  2
AcDbPolyline
  3
"AutoCAD"
 90
        0
280
     0
281
     1
  0
CLASS
  1
HATCH
  2
AcDbHatch
  3
"ACAD_SEDONA"
 90
        0
280
     0
281
     1
  0
CLASS
  1
XRECORD
  2
AcDbXrecord
  3
"<Built In>"
 90
        0
280
     0
281
     0
  0
ENDSEC
  0
SECTION
  2
TABLES
  0
TABLE
  2
VPORT
  5
8
100
AcDbSymbolTable
 70
     2
  0
VPORT
  5
4D2
100
AcDbSymbolTableRecord
100
AcDbViewportTableRecord
  2
*ACTIVE
 70
     0
 10
0.0
 20
0.0
 11
1.0
 21
1.0
 12
145.841298
 22
102.855001
 13
0.0
 23
0.0
 14
10.0
 24
10.0
 15
10.0
 25
10.0
 16
0.0
 26
0.0
 36
1.0
 17
0.0
 27
0.0
 37
0.0
 40
147.163143
 41
1.710425
 42
50.0
 43
0.0
 44
0.0
 50
0.0
 51
0.0
 71
     0
 72
   100
 73
     1
 74
     1
 75
     0
 76
     0
 77
     0
 78
     0
  0
ENDTAB
  0
TABLE
  2
LTYPE
  5
5
100
AcDbSymbolTable
 70
     5
  0
LTYPE
  5
12
100
AcDbSymbolTableRecord
100
AcDbLinetypeTableRecord
  2
BYBLOCK
 70
     0
  3

 72
    65
 73
     0
 40
0.0
  0
LTYPE
  5
13
100
AcDbSymbolTableRecord
100
AcDbLinetypeTableRecord
  2
BYLAYER
 70
     0
  3

 72
    65
 73
     0
 40
0.0
  0
LTYPE
  5
14
100
AcDbSymbolTableRecord
100
AcDbLinetypeTableRecord
  2
CONTINUOUS
 70
     0
  3
Solid line
 72
    65
 73
     0
 40
0.0
  0
LTYPE
  5
4E
100
AcDbSymbolTableRecord
100
AcDbLinetypeTableRecord
  2
DASHED
 70
     0
  3
__ __ __ __ __ __ __ __ __ __ __ __ __ __ __
 72
    65
 73
     2
 40
3.5
 49
2.0
 74
     0
 49
-1.5
 74
     0
  0
LTYPE
  5
4F
100
AcDbSymbolTableRecord
100
AcDbLinetypeTableRecord
  2
CENTER
 70
     0
  3
____ _ ____ _ ____ _ ____ _ ____ _ ____ _ ____
 72
    65
 73
     4
 40
17.5
 49
13.0
 74
     0
 49
-1.5
 74
     0
 49
1.5
 74
     0
 49
-1.5
 74
     0
  0
LTYPE
  5
50
100
AcDbSymbolTableRecord
100
AcDbLinetypeTableRecord
  2
PHANTOM
 70
     0
  3
_____ _ _ _____ _ _ _____ _ _ _____ _ _ ____  
 72
    65
 73
     6
 40
15.5
 49
8.0
 74
     0
 49
-1.5
 74
     0
 49
1.5
 74
     0
 49
-1.5
 74
     0
 49
1.5
 74
     0
 49
-1.5
 74
     0
  0
LTYPE
  5
51
100
AcDbSymbolTableRecord
100
AcDbLinetypeTableRecord
  2
DOT
 70
     0
  3
. . . . . . . . . . . . . . . . . . . . . . . .
 72
    65
 73
     2
 40
0.25
 49
0.0
 74
     0
 49
-0.25
 74
     0
  0
ENDTAB
  0
TABLE
  2
LAYER
  5
2
100
AcDbSymbolTable
 70
     3
  0
LAYER
  5
E
100
AcDbSymbolTableRecord
100
AcDbLayerTableRecord
  2
0
 70
     0
 62
     7
  6
CONTINUOUS
  0
LAYER
  5
2D2
100
AcDbSymbolTableRecord
100
AcDbLayerTableRecord
  2
寸法
 70
     0
 62
     1
  6
CONTINUOUS
  0
LAYER
  5
2D6
102
{ACAD_XDICTIONARY
360
46C
102
}
100
AcDbSymbolTableRecord
100
AcDbLayerTableRecord
  2
DEFPOINTS
 70
     0
 62
     7
  6
CONTINUOUS
  0
ENDTAB
  0
TABLE
  2
STYLE
  5
3
100
AcDbSymbolTable
 70
     1
  0
STYLE
  5
F
100
AcDbSymbolTableRecord
100
AcDbTextStyleTableRecord
  2
STANDARD
 70
     0
 40
0.0
 41
1.0
 50
0.0
 71
     0
 42
1.767677
  3
txt.shx
  4
bigfont.shx
  0
ENDTAB
  0
TABLE
  2
VIEW
  5
6
100
AcDbSymbolTable
 70
     0
  0
ENDTAB
  0
TABLE
  2
UCS
  5
7
100
AcDbSymbolTable
 70
     0
  0
ENDTAB
  0
TABLE
  2
APPID
  5
9
100
AcDbSymbolTable
 70
     3
  0
APPID
  5
10
100
AcDbSymbolTableRecord
100
AcDbRegAppTableRecord
  2
ACAD
 70
     0
  0
APPID
  5
24
100
AcDbSymbolTableRecord
100
AcDbRegAppTableRecord
  2
CONTENTTABDATA
 70
     0
  0
APPID
  5
25
100
AcDbSymbolTableRecord
100
AcDbRegAppTableRecord
  2
CONTENTCURRENTTAB
 70
     0
  0
ENDTAB
  0
TABLE
  2
DIMSTYLE
  5
A
100
AcDbSymbolTable
 70
     2
  0
DIMSTYLE
105
1D
102
{ACAD_XDICTIONARY
360
493
102
}
102
{ACAD_REACTORS
330
2F4
330
30E
330
31B
330
328
330
345
330
35C
330
37A
330
390
330
3A1
330
3CE
330
3DE
330
3F1
102
}
100
AcDbSymbolTableRecord
100
AcDbDimStyleTableRecord
  2
STANDARD
 70
     0
  3

  4

  5

  6
OPEN30
  7
OPEN30
 40
1.0
 41
2.0
 42
1.0
 43
10.0
 44
1.0
 45
0.0
 46
0.0
 47
0.0
 48
0.0
140
3.0
141
2.0
142
0.0
143
25.4
144
1.0
145
0.0
146
1.0
147
1.0
 71
     0
 72
     0
 73
     0
 74
     0
 75
     0
 76
     0
 77
     1
 78
     8
170
     0
171
     2
172
     1
173
     1
174
     0
175
     0
176
     1
177
     1
178
     1
270
     2
271
     2
272
     4
273
     2
274
     2
340
F
275
     0
280
     0
281
     0
282
     0
283
     1
284
     0
285
     0
286
     0
287
     3
288
     0
  0
DIMSTYLE
105
35
100
AcDbSymbolTableRecord
100
AcDbDimStyleTableRecord
  2
STANDARD_WS
 70
     0
  3

  4

  5

  6

  7

 40
0.707071
 41
2.5
 42
0.625
 43
3.75
 44
1.25
 45
0.0
 46
0.0
 47
0.0
 48
0.0
140
2.5
141
2.5
142
0.0
143
0.0394
144
1.0
145
0.0
146
1.0
147
0.625
 71
     0
 72
     0
 73
     0
 74
     0
 75
     0
 76
     0
 77
     1
 78
     8
170
     0
171
     4
172
     1
173
     0
174
     0
175
     0
176
     0
177
     0
178
     0
270
     2
271
     4
272
     4
273
     8
274
     4
340
F
275
     0
280
     0
281
     0
282
     0
283
     1
284
     0
285
     0
286
     0
287
     3
288
     0
  0
ENDTAB
  0
TABLE
  2
BLOCK_RECORD
  5
1
100
AcDbSymbolTable
 70
    14
  0
BLOCK_RECORD
  5
18
102
{ACAD_XDICTIONARY
360
42F
102
}
100
AcDbSymbolTableRecord
100
AcDbBlockTableRecord
  2
*MODEL_SPACE
  0
BLOCK_RECORD
  5
15
102
{ACAD_XDICTIONARY
360
42D
102
}
100
AcDbSymbolTableRecord
100
AcDbBlockTableRecord
  2
*PAPER_SPACE
  0
BLOCK_RECORD
  5
37
100
AcDbSymbolTableRecord
100
AcDbBlockTableRecord
  2
_OPEN30
  0
BLOCK_RECORD
  5
52
100
AcDbSymbolTableRecord
100
AcDbBlockTableRecord
  2
BU143R
  0
BLOCK_RECORD
  5
2F5
100
AcDbSymbolTableRecord
100
AcDbBlockTableRecord
  2
*D2
  0
BLOCK_RECORD
  5
30F
100
AcDbSymbolTableRecord
100
AcDbBlockTableRecord
  2
*D3
  0
BLOCK_RECORD
  5
31C
100
AcDbSymbolTableRecord
100
AcDbBlockTableRecord
  2
*D4
  0
BLOCK_RECORD
  5
329
100
AcDbSymbolTableRecord
100
AcDbBlockTableRecord
  2
*D5
  0
BLOCK_RECORD
  5
346
100
AcDbSymbolTableRecord
100
AcDbBlockTableRecord
  2
*D6
  0
BLOCK_RECORD
  5
35D
100
AcDbSymbolTableRecord
100
AcDbBlockTableRecord
  2
*D7
  0
BLOCK_RECORD
  5
37B
100
AcDbSymbolTableRecord
100
AcDbBlockTableRecord
  2
*D8
  0
BLOCK_RECORD
  5
391
100
AcDbSymbolTableRecord
100
AcDbBlockTableRecord
  2
*D9
  0
BLOCK_RECORD
  5
3A2
100
AcDbSymbolTableRecord
100
AcDbBlockTableRecord
  2
*D10
  0
BLOCK_RECORD
  5
3CF
100
AcDbSymbolTableRecord
100
AcDbBlockTableRecord
  2
*D11
  0
BLOCK_RECORD
  5
3DF
100
AcDbSymbolTableRecord
100
AcDbBlockTableRecord
  2
*D12
  0
BLOCK_RECORD
  5
3F2
100
AcDbSymbolTableRecord
100
AcDbBlockTableRecord
  2
*D13
  0
ENDTAB
  0
ENDSEC
  0
SECTION
  2
BLOCKS
  0
BLOCK
  5
19
100
AcDbEntity
  8
0
100
AcDbBlockBegin
  2
*MODEL_SPACE
 70
     0
 10
0.0
 20
0.0
 30
0.0
  3
*MODEL_SPACE
  1

  0
ENDBLK
  5
1A
100
AcDbEntity
  8
0
100
AcDbBlockEnd
  0
BLOCK
  5
16
100
AcDbEntity
 67
     1
  8
0
100
AcDbBlockBegin
  2
*PAPER_SPACE
 70
     0
 10
0.0
 20
0.0
 30
0.0
  3
*PAPER_SPACE
  1

  0
ENDBLK
  5
17
100
AcDbEntity
 67
     1
  8
0
100
AcDbBlockEnd
  0
BLOCK
  5
38
100
AcDbEntity
  8
0
100
AcDbBlockBegin
  2
_OPEN30
 70
     0
 10
0.0
 20
0.0
 30
0.0
  3
_OPEN30
  1

  0
LINE
  5
39
100
AcDbEntity
  8
0
  6
BYBLOCK
 62
     0
100
AcDbLine
 10
-1.0
 20
0.267949
 30
0.0
 11
0.0
 21
0.0
 31
0.0
  0
LINE
  5
3A
100
AcDbEntity
  8
0
  6
BYBLOCK
 62
     0
100
AcDbLine
 10
0.0
 20
0.0
 30
0.0
 11
-1.0
 21
-0.267949
 31
0.0
  0
LINE
  5
3B
100
AcDbEntity
  8
0
  6
BYBLOCK
 62
     0
100
AcDbLine
 10
0.0
 20
0.0
 30
0.0
 11
-1.0
 21
0.0
 31
0.0
  0
ENDBLK
  5
3C
100
AcDbEntity
  8
0
100
AcDbBlockEnd
  0
BLOCK
  5
189
100
AcDbEntity
  8
0
100
AcDbBlockBegin
  2
BU143R
 70
     0
 10
0.0
 20
0.0
 30
0.0
  3
BU143R
  1

  0
POINT
  5
53
100
AcDbEntity
  8
0
  6
CONTINUOUS
 62
     7
100
AcDbPoint
 10
-5.600001
 20
20.6
 30
0.0
  0
POINT
  5
54
100
AcDbEntity
  8
0
  6
CONTINUOUS
 62
     7
100
AcDbPoint
 10
-24.830812
 20
20.6
 30
0.0
  0
POINT
  5
55
100
AcDbEntity
  8
0
  6
CONTINUOUS
 62
     7
100
AcDbPoint
 10
-24.043812
 20
15.0
 30
0.0
  0
POINT
  5
56
100
AcDbEntity
  8
0
  6
CONTINUOUS
 62
     7
100
AcDbPoint
 10
0.0
 20
15.0
 30
0.0
  0
POINT
  5
57
100
AcDbEntity
  8
0
  6
CONTINUOUS
 62
     7
100
AcDbPoint
 10
70.985847
 20
-29.5
 30
0.0
  0
POINT
  5
58
100
AcDbEntity
  8
0
  6
CONTINUOUS
 62
     7
100
AcDbPoint
 10
0.0
 20
-19.5
 30
0.0
  0
POINT
  5
59
100
AcDbEntity
  8
0
  6
CONTINUOUS
 62
     7
100
AcDbPoint
 10
-5.600001
 20
-20.287027
 30
0.0
  0
LINE
  5
5A
100
AcDbEntity
  8
0
  6
CENTER
 62
     7
100
AcDbLine
 10
24.0
 20
30.325626
 30
0.0
 11
24.0
 21
14.843074
 31
0.0
  0
LINE
  5
5B
100
AcDbEntity
  8
0
  6
CONTINUOUS
 62
     7
100
AcDbLine
 10
35.0
 20
27.0
 30
0.0
 11
35.0
 21
16.783823
 31
0.0
  0
LINE
  5
5C
100
AcDbEntity
  8
0
  6
CONTINUOUS
 62
     7
100
AcDbLine
 10
0.799999
 20
27.0
 30
0.0
 11
35.0
 21
27.0
 31
0.0
  0
LINE
  5
5D
100
AcDbEntity
  8
0
  6
CONTINUOUS
 62
     7
100
AcDbLine
 10
9.799999
 20
18.0
 30
0.0
 11
35.0
 21
18.0
 31
0.0
  0
LINE
  5
5E
100
AcDbEntity
  8
0
  6
CONTINUOUS
 62
     7
100
AcDbLine
 10
8.630738
 20
26.052822
 30
0.0
 11
35.0
 21
26.052822
 31
0.0
  0
LINE
  5
5F
100
AcDbEntity
  8
0
  6
CONTINUOUS
 62
     7
100
AcDbLine
 10
9.0
 20
17.200001
 30
0.0
 11
9.0
 21
16.524933
 31
0.0
  0
LINE
  5
60
100
AcDbEntity
  8
0
  6
CONTINUOUS
 62
     7
100
AcDbLine
 10
-5.600001
 20
20.6
 30
0.0
 11
0.0
 21
15.0
 31
0.0
  0
LINE
  5
61
100
AcDbEntity
  8
0
  6
CONTINUOUS
 62
     7
100
AcDbLine
 10
0.0
 20
15.0
 30
0.0
 11
5.614428
 21
20.614428
 31
0.0
  0
LINE
  5
62
100
AcDbEntity
  8
0
  6
CONTINUOUS
 62
     7
100
AcDbLine
 10
1.062866
 20
16.0
 30
0.0
 11
3.0
 21
16.0
 31
0.0
  0
LINE
  5
63
100
AcDbEntity
  8
0
  6
CONTINUOUS
 62
     7
100
AcDbLine
 10
-33.043808
 20
27.0
 30
0.0
 11
-23.543808
 21
27.0
 31
0.0
  0
LINE
  5
64
100
AcDbEntity
  8
0
  6
CONTINUOUS
 62
     7
100
AcDbLine
 10
-34.043808
 20
26.0
 30
0.0
 11
-34.043808
 21
17.819851
 31
0.0
  0
LINE
  5
65
100
AcDbEntity
  8
0
  6
CONTINUOUS
 62
     7
100
AcDbLine
 10
-33.043808
 20
27.000002
 30
0.0
 11
-34.043808
 21
26.000002
 31
0.0
  0
LINE
  5
66
100
AcDbEntity
  8
0
  6
CONTINUOUS
 62
     7
100
AcDbLine
 10
-34.043808
 20
17.819851
 30
0.0
 11
-29.043806
 21
15.999999
 31
0.0
  0
LINE
  5
67
100
AcDbEntity
  8
0
  6
CONTINUOUS
 62
     7
100
AcDbLine
 10
-29.043808
 20
19.180149
 30
0.0
 11
-29.043808
 21
16.0
 31
0.0
  0
LINE
  5
68
100
AcDbEntity
  8
0
  6
CONTINUOUS
 62
     7
100
AcDbLine
 10
35.0
 20
-18.0
 30
0.0
 11
35.0
 21
-29.5
 31
0.0
  0
LINE
  5
69
100
AcDbEntity
  8
0
  6
CENTER
 62
     7
100
AcDbLine
 10
25.25
 20
-16.611437
 30
0.0
 11
25.25
 21
-31.579178
 31
0.0
  0
LINE
  5
6A
100
AcDbEntity
  8
0
  6
CENTER
 62
     7
100
AcDbLine
 10
22.75
 20
-16.781525
 30
0.0
 11
22.75
 21
-30.98387
 31
0.0
  0
LINE
  5
6B
100
AcDbEntity
  8
0
  6
CONTINUOUS
 62
     7
100
AcDbLine
 10
22.75
 20
-26.758152
 30
0.0
 11
25.25
 21
-26.758152
 31
0.0
  0
LINE
  5
6C
100
AcDbEntity
  8
0
  6
CENTER
 62
     7
100
AcDbLine
 10
24.0
 20
-15.784631
 30
0.0
 11
24.0
 21
-33.365101
 31
0.0
  0
LINE
  5
6D
100
AcDbEntity
  8
0
  6
CONTINUOUS
 62
     7
100
AcDbLine
 10
-34.043808
 20
21.0
 30
0.0
 11
-29.043812
 21
19.180151
 31
0.0
  0
LINE
  5
6E
100
AcDbEntity
  8
0
  6
CONTINUOUS
 62
     7
100
AcDbLine
 10
-29.043808
 20
19.180149
 30
0.0
 11
-27.458788
 21
19.180149
 31
0.0
  0
LINE
  5
6F
100
AcDbEntity
  8
0
  6
CONTINUOUS
 62
     7
100
AcDbLine
 10
-22.543808
 20
26.0
 30
0.0
 11
-22.543808
 21
17.0
 31
0.0
  0
LINE
  5
70
100
AcDbEntity
  8
0
  6
CONTINUOUS
 62
     7
100
AcDbLine
 10
-23.543806
 20
27.0
 30
0.0
 11
-22.543808
 21
26.000002
 31
0.0
  0
LINE
  5
71
100
AcDbEntity
  8
0
  6
CONTINUOUS
 62
     7
100
AcDbLine
 10
-23.903271
 20
16.0
 30
0.0
 11
-23.543808
 21
16.0
 31
0.0
  0
LINE
  5
72
100
AcDbEntity
  8
0
  6
CENTER
 62
     7
100
AcDbLine
 10
32.392857
 20
22.0
 30
0.0
 11
45.607143
 21
22.0
 31
0.0
  0
LINE
  5
73
100
AcDbEntity
  8
0
  6
CONTINUOUS
 62
     7
100
AcDbLine
 10
43.0
 20
23.5
 30
0.0
 11
43.0
 21
20.5
 31
0.0
  0
LINE
  5
74
100
AcDbEntity
  8
0
  6
CONTINUOUS
 62
     7
100
AcDbLine
 10
40.5
 20
26.000002
 30
0.0
 11
43.0
 21
23.500002
 31
0.0
  0
LINE
  5
75
100
AcDbEntity
  8
0
  6
CONTINUOUS
 62
     7
100
AcDbLine
 10
40.5
 20
18.000004
 30
0.0
 11
43.0
 21
20.500004
 31
0.0
  0
LINE
  5
76
100
AcDbEntity
  8
0
  6
CONTINUOUS
 62
     7
100
AcDbLine
 10
38.5
 20
26.0
 30
0.0
 11
40.5
 21
26.0
 31
0.0
  0
LINE
  5
77
100
AcDbEntity
  8
0
  6
CONTINUOUS
 62
     7
100
AcDbLine
 10
38.5
 20
18.0
 30
0.0
 11
40.5
 21
18.0
 31
0.0
  0
LINE
  5
78
100
AcDbEntity
  8
0
  6
CONTINUOUS
 62
     7
100
AcDbLine
 10
35.0
 20
20.0
 30
0.0
 11
38.0
 21
20.0
 31
0.0
  0
LINE
  5
79
100
AcDbEntity
  8
0
  6
CONTINUOUS
 62
     7
100
AcDbLine
 10
35.0
 20
24.0
 30
0.0
 11
38.0
 21
24.0
 31
0.0
  0
LINE
  5
7A
100
AcDbEntity
  8
0
  6
CONTINUOUS
 62
     7
100
AcDbLine
 10
38.0
 20
25.500002
 30
0.0
 11
38.500004
 21
26.000002
 31
0.0
  0
LINE
  5
7B
100
AcDbEntity
  8
0
  6
CONTINUOUS
 62
     7
100
AcDbLine
 10
38.0
 20
18.500002
 30
0.0
 11
38.5
 21
18.0
 31
0.0
  0
LINE
  5
7C
100
AcDbEntity
  8
0
  6
CONTINUOUS
 62
     7
100
AcDbLine
 10
38.0
 20
25.5
 30
0.0
 11
38.0
 21
18.5
 31
0.0
  0
LINE
  5
7D
100
AcDbEntity
  8
0
  6
CONTINUOUS
 62
     7
100
AcDbLine
 10
40.5
 20
26.0
 30
0.0
 11
40.5
 21
18.0
 31
0.0
  0
LINE
  5
7E
100
AcDbEntity
  8
0
  6
CONTINUOUS
 62
     7
100
AcDbLine
 10
38.5
 20
26.0
 30
0.0
 11
38.5
 21
18.0
 31
0.0
  0
LINE
  5
7F
100
AcDbEntity
  8
0
  6
CONTINUOUS
 62
     7
100
AcDbLine
 10
35.0
 20
23.5
 30
0.0
 11
38.0
 21
23.5
 31
0.0
  0
LINE
  5
80
100
AcDbEntity
  8
0
  6
CONTINUOUS
 62
     7
100
AcDbLine
 10
35.0
 20
20.5
 30
0.0
 11
38.0
 21
20.5
 31
0.0
  0
LINE
  5
81
100
AcDbEntity
  8
0
  6
CONTINUOUS
 62
     7
100
AcDbLine
 10
43.0
 20
-22.5
 30
0.0
 11
43.0
 21
-25.5
 31
0.0
  0
LINE
  5
82
100
AcDbEntity
  8
0
  6
CONTINUOUS
 62
     7
100
AcDbLine
 10
40.5
 20
-20.0
 30
0.0
 11
43.0
 21
-22.5
 31
0.0
  0
LINE
  5
83
100
AcDbEntity
  8
0
  6
CONTINUOUS
 62
     7
100
AcDbLine
 10
40.5
 20
-27.999998
 30
0.0
 11
43.0
 21
-25.499998
 31
0.0
  0
LINE
  5
84
100
AcDbEntity
  8
0
  6
CONTINUOUS
 62
     7
100
AcDbLine
 10
38.5
 20
-20.0
 30
0.0
 11
40.5
 21
-20.0
 31
0.0
  0
LINE
  5
85
100
AcDbEntity
  8
0
  6
CONTINUOUS
 62
     7
100
AcDbLine
 10
38.5
 20
-28.0
 30
0.0
 11
40.5
 21
-28.0
 31
0.0
  0
LINE
  5
86
100
AcDbEntity
  8
0
  6
CONTINUOUS
 62
     7
100
AcDbLine
 10
35.0
 20
-26.0
 30
0.0
 11
38.0
 21
-26.0
 31
0.0
  0
LINE
  5
87
100
AcDbEntity
  8
0
  6
CONTINUOUS
 62
     7
100
AcDbLine
 10
35.0
 20
-22.0
 30
0.0
 11
38.0
 21
-22.0
 31
0.0
  0
LINE
  5
88
100
AcDbEntity
  8
0
  6
CONTINUOUS
 62
     7
100
AcDbLine
 10
38.0
 20
-20.5
 30
0.0
 11
38.5
 21
-19.999998
 31
0.0
  0
LINE
  5
89
100
AcDbEntity
  8
0
  6
CONTINUOUS
 62
     7
100
AcDbLine
 10
38.0
 20
-27.5
 30
0.0
 11
38.5
 21
-28.0
 31
0.0
  0
LINE
  5
8A
100
AcDbEntity
  8
0
  6
CONTINUOUS
 62
     7
100
AcDbLine
 10
38.0
 20
-20.5
 30
0.0
 11
38.0
 21
-27.5
 31
0.0
  0
LINE
  5
8B
100
AcDbEntity
  8
0
  6
CONTINUOUS
 62
     7
100
AcDbLine
 10
40.5
 20
-20.0
 30
0.0
 11
40.5
 21
-28.0
 31
0.0
  0
LINE
  5
8C
100
AcDbEntity
  8
0
  6
CONTINUOUS
 62
     7
100
AcDbLine
 10
38.5
 20
-20.0
 30
0.0
 11
38.5
 21
-28.0
 31
0.0
  0
LINE
  5
8D
100
AcDbEntity
  8
0
  6
CONTINUOUS
 62
     7
100
AcDbLine
 10
35.0
 20
-22.5
 30
0.0
 11
38.0
 21
-22.5
 31
0.0
  0
LINE
  5
8E
100
AcDbEntity
  8
0
  6
CONTINUOUS
 62
     7
100
AcDbLine
 10
35.0
 20
-25.5
 30
0.0
 11
38.0
 21
-25.5
 31
0.0
  0
LINE
  5
8F
100
AcDbEntity
  8
0
  6
CENTER
 62
     7
100
AcDbLine
 10
32.630951
 20
-24.0
 30
0.0
 11
45.011906
 21
-24.0
 31
0.0
  0
LINE
  5
90
100
AcDbEntity
  8
0
  6
CONTINUOUS
 62
     7
100
AcDbLine
 10
70.98584
 20
-29.5
 30
0.0
 11
72.48584
 21
-29.5
 31
0.0
  0
LINE
  5
91
100
AcDbEntity
  8
0
  6
CONTINUOUS
 62
     7
100
AcDbLine
 10
80.165993
 20
-19.0
 30
0.0
 11
80.165993
 21
-28.5
 31
0.0
  0
LINE
  5
92
100
AcDbEntity
  8
0
  6
CONTINUOUS
 62
     7
100
AcDbLine
 10
71.165993
 20
-18.0
 30
0.0
 11
79.165993
 21
-18.0
 31
0.0
  0
LINE
  5
93
100
AcDbEntity
  8
0
  6
CONTINUOUS
 62
     7
100
AcDbLine
 10
79.165993
 20
-18.000002
 30
0.0
 11
80.165993
 21
-18.999996
 31
0.0
  0
LINE
  5
94
100
AcDbEntity
  8
0
  6
CONTINUOUS
 62
     7
100
AcDbLine
 10
80.165993
 20
-28.499996
 30
0.0
 11
79.2248
 21
-29.441189
 31
0.0
  0
LINE
  5
95
100
AcDbEntity
  8
0
  6
CONTINUOUS
 62
     7
100
AcDbLine
 10
71.165993
 20
-17.999998
 30
0.0
 11
69.949814
 21
-26.653536
 31
0.0
  0
LINE
  5
96
100
AcDbEntity
  8
0
  6
CONTINUOUS
 62
     7
100
AcDbLine
 10
76.083855
 20
-18.934034
 30
0.0
 11
74.886971
 21
-27.45034
 31
0.0
  0
LINE
  5
97
100
AcDbEntity
  8
0
  6
CONTINUOUS
 62
     7
100
AcDbLine
 10
-3.247135
 20
-29.5
 30
0.0
 11
35.0
 21
-29.5
 31
0.0
  0
LINE
  5
98
100
AcDbEntity
  8
0
  6
CONTINUOUS
 62
     7
100
AcDbLine
 10
8.630738
 20
-18.0
 30
0.0
 11
35.0
 21
-18.0
 31
0.0
  0
LINE
  5
99
100
AcDbEntity
  8
0
  6
CONTINUOUS
 62
     7
100
AcDbLine
 10
9.0
 20
-18.0
 30
0.0
 11
9.0
 21
-26.653536
 31
0.0
  0
LINE
  5
9A
100
AcDbEntity
  8
0
  6
CONTINUOUS
 62
     7
100
AcDbLine
 10
-5.600001
 20
-20.287027
 30
0.0
 11
1.102424
 21
-19.345064
 31
0.0
  0
LINE
  5
9B
100
AcDbEntity
  8
0
  6
CONTINUOUS
 62
     7
100
AcDbLine
 10
-5.210316
 20
-23.05978
 30
0.0
 11
1.492109
 21
-22.117815
 31
0.0
  0
LINE
  5
9C
100
AcDbEntity
  8
0
  6
CONTINUOUS
 62
     7
100
AcDbLine
 10
-5.066986
 20
-24.5
 30
0.0
 11
3.0
 21
-24.5
 31
0.0
  0
LINE
  5
9D
100
AcDbEntity
  8
0
  6
CONTINUOUS
 62
     7
100
AcDbLine
 10
3.0
 20
-18.791349
 30
0.0
 11
3.0
 21
-24.5
 31
0.0
  0
LINE
  5
9E
100
AcDbEntity
  8
0
  6
CENTER
 62
     7
100
AcDbLine
 10
3.574985
 20
-24.5
 30
0.0
 11
8.531586
 21
-24.5
 31
0.0
  0
LINE
  5
9F
100
AcDbEntity
  8
0
  6
CENTER
 62
     7
100
AcDbLine
 10
6.0
 20
-21.935129
 30
0.0
 11
6.0
 21
-27.470001
 31
0.0
  0
LINE
  5
A0
100
AcDbEntity
  8
0
  6
CENTER
 62
     7
100
AcDbLine
 10
-3.184381
 20
20.6
 30
0.0
 11
3.184381
 21
20.6
 31
0.0
  0
LINE
  5
A1
100
AcDbEntity
  8
0
  6
CENTER
 62
     7
100
AcDbLine
 10
0.0
 20
23.784382
 30
0.0
 11
0.0
 21
17.415619
 31
0.0
  0
LINE
  5
A2
100
AcDbEntity
  8
0
  6
CONTINUOUS
 62
     7
100
AcDbLine
 10
-26.871326
 20
15.0
 30
0.0
 11
-24.043812
 21
15.0
 31
0.0
  0
LINE
  5
A3
100
AcDbEntity
  8
0
  6
CONTINUOUS
 62
     7
100
AcDbLine
 10
-26.869226
 20
26.228859
 30
0.0
 11
-24.041712
 21
26.228859
 31
0.0
  0
LINE
  5
A4
100
AcDbEntity
  8
0
  6
CONTINUOUS
 62
     7
100
AcDbLine
 10
-29.043808
 20
16.0
 30
0.0
 11
-27.011862
 21
16.0
 31
0.0
  0
LINE
  5
A5
100
AcDbEntity
  8
0
  6
CONTINUOUS
 62
     7
100
AcDbLine
 10
70.985847
 20
-29.499998
 30
0.0
 11
69.949814
 21
-26.653534
 31
0.0
  0
LINE
  5
A6
100
AcDbEntity
  8
0
  6
CONTINUOUS
 62
     7
100
AcDbLine
 10
9.0
 20
-26.653536
 30
0.0
 11
21.765057
 21
-26.653536
 31
0.0
  0
LINE
  5
A7
100
AcDbEntity
  8
0
  6
CONTINUOUS
 62
     7
100
AcDbLine
 10
26.234943
 20
-26.653536
 30
0.0
 11
35.0
 21
-26.653536
 31
0.0
  0
LINE
  5
A8
100
AcDbEntity
  8
0
  6
CONTINUOUS
 62
     7
100
AcDbLine
 10
72.48584
 20
-29.5
 30
0.0
 11
79.224792
 21
-29.441191
 31
0.0
  0
LINE
  5
A9
100
AcDbEntity
  8
0
  6
CONTINUOUS
 62
     7
100
AcDbLine
 10
9.2
 20
16.769119
 30
0.0
 11
35.075203
 21
16.769119
 31
0.0
  0
LINE
  5
AA
100
AcDbEntity
  8
0
  6
CONTINUOUS
 62
     7
100
AcDbLine
 10
3.0
 20
16.0
 30
0.0
 11
8.999999
 21
16.524933
 31
0.0
  0
LINE
  5
AB
100
AcDbEntity
  8
0
  6
CENTER
 62
     7
100
AcDbLine
 10
6.0
 20
28.633488
 30
0.0
 11
6.0
 21
14.724867
 31
0.0
  0
LINE
  5
AC
100
AcDbEntity
  8
0
  6
CONTINUOUS
 62
     7
100
AcDbLine
 10
0.389685
 20
-22.272751
 30
0.0
 11
0.0
 21
-19.5
 31
0.0
  0
LINE
  5
AD
100
AcDbEntity
  8
0
  6
CONTINUOUS
 62
     7
100
AcDbLine
 10
2.999999
 20
-24.5
 30
0.0
 11
4.314831
 21
-24.971924
 31
0.0
  0
LINE
  5
AE
100
AcDbEntity
  8
0
  6
CONTINUOUS
 62
     7
100
AcDbLine
 10
7.000426
 20
-25.935844
 30
0.0
 11
9.0
 21
-26.653536
 31
0.0
  0
LINE
  5
AF
100
AcDbEntity
  8
0
  6
CONTINUOUS
 62
     7
100
AcDbLine
 10
-5.600001
 20
20.6
 30
0.0
 11
0.799998
 21
27.0
 31
0.0
  0
LINE
  5
B0
100
AcDbEntity
  8
0
  6
CONTINUOUS
 62
     7
100
AcDbLine
 10
0.014427
 20
26.21443
 30
0.0
 11
5.614428
 21
20.614428
 31
0.0
  0
LINE
  5
B1
100
AcDbEntity
  8
0
  6
CONTINUOUS
 62
     7
100
AcDbLine
 10
-5.210316
 20
-23.05978
 30
0.0
 11
-5.600001
 21
-20.287027
 31
0.0
  0
LINE
  5
B2
100
AcDbEntity
  8
0
  6
CONTINUOUS
 62
     7
100
AcDbLine
 10
0.014427
 20
-19.210943
 30
0.0
 11
8.630737
 21
-18.0
 31
0.0
  0
LINE
  5
B3
100
AcDbEntity
  8
0
  6
CONTINUOUS
 62
     7
100
AcDbLine
 10
0.014427
 20
-19.210943
 30
0.0
 11
0.053985
 21
-19.492413
 31
0.0
  0
LINE
  5
B4
100
AcDbEntity
  8
0
  6
CONTINUOUS
 62
     7
100
AcDbLine
 10
8.630738
 20
26.052822
 30
0.0
 11
8.630738
 21
16.492626
 31
0.0
  0
LINE
  5
B5
100
AcDbEntity
  8
0
  6
CONTINUOUS
 62
     7
100
AcDbLine
 10
1.492109
 20
-22.117815
 30
0.0
 11
1.062866
 21
-19.063595
 31
0.0
  0
LINE
  5
B6
100
AcDbEntity
  8
0
  6
CONTINUOUS
 62
     7
100
AcDbLine
 10
8.630737
 20
26.052822
 30
0.0
 11
0.799999
 21
27.0
 31
0.0
  0
LINE
  5
B7
100
AcDbEntity
  8
0
  6
CENTER
 62
     7
100
AcDbLine
 10
84.334244
 20
-24.43581
 30
0.0
 11
66.532417
 21
-21.933926
 31
0.0
  0
LINE
  5
B8
100
AcDbEntity
  8
0
  6
CONTINUOUS
 62
     7
100
AcDbLine
 10
76.083855
 20
-18.934034
 30
0.0
 11
71.132515
 21
-18.238169
 31
0.0
  0
LINE
  5
B9
100
AcDbEntity
  8
0
  6
CONTINUOUS
 62
     7
100
AcDbLine
 10
74.886971
 20
-27.45034
 30
0.0
 11
69.989304
 21
-26.762016
 31
0.0
  0
LINE
  5
BA
100
AcDbEntity
  8
0
  6
CONTINUOUS
 62
     7
100
AcDbLine
 10
80.165993
 20
-21.173956
 30
0.0
 11
75.854225
 21
-20.567976
 31
0.0
  0
LINE
  5
BB
100
AcDbEntity
  8
0
  6
CONTINUOUS
 62
     7
100
AcDbLine
 10
80.165993
 20
-26.526043
 30
0.0
 11
75.116608
 21
-25.816397
 31
0.0
  0
LINE
  5
BC
100
AcDbEntity
  8
0
  6
CONTINUOUS
 62
     7
100
AcDbLine
 10
22.75
 20
-26.762018
 30
0.0
 11
25.25
 21
-26.762018
 31
0.0
  0
LINE
  5
BD
100
AcDbEntity
  8
0
  6
CONTINUOUS
 62
     7
100
AcDbLine
 10
22.75
 20
-25.784983
 30
0.0
 11
25.25
 21
-25.784983
 31
0.0
  0
LINE
  5
BE
100
AcDbEntity
  8
0
  6
CONTINUOUS
 62
     7
100
AcDbLine
 10
22.75
 20
-21.173958
 30
0.0
 11
25.25
 21
-21.173958
 31
0.0
  0
LINE
  5
BF
100
AcDbEntity
  8
0
  6
CONTINUOUS
 62
     7
100
AcDbLine
 10
22.75
 20
-20.567978
 30
0.0
 11
25.25
 21
-20.567978
 31
0.0
  0
LINE
  5
C0
100
AcDbEntity
  8
0
  6
CONTINUOUS
 62
     7
100
AcDbLine
 10
22.75
 20
-18.934034
 30
0.0
 11
25.25
 21
-18.934034
 31
0.0
  0
LINE
  5
C1
100
AcDbEntity
  8
0
  6
CONTINUOUS
 62
     7
100
AcDbLine
 10
22.75
 20
-18.238169
 30
0.0
 11
25.25
 21
-18.238169
 31
0.0
  0
LINE
  5
C2
100
AcDbEntity
  8
0
  6
CONTINUOUS
 62
     7
100
AcDbLine
 10
-27.658327
 20
20.6
 30
0.0
 11
-24.830812
 21
20.6
 31
0.0
  0
LINE
  5
C3
100
AcDbEntity
  8
0
  6
CONTINUOUS
 62
     7
100
AcDbLine
 10
-24.830812
 20
20.6
 30
0.0
 11
-24.043812
 21
15.0
 31
0.0
  0
LINE
  5
C4
100
AcDbEntity
  8
0
  6
CONTINUOUS
 62
     7
100
AcDbLine
 10
-27.658327
 20
20.600002
 30
0.0
 11
-26.871326
 21
14.999999
 31
0.0
  0
LINE
  5
C5
100
AcDbEntity
  8
0
  6
CONTINUOUS
 62
     7
100
AcDbLine
 10
-24.041712
 20
26.228859
 30
0.0
 11
-23.254711
 21
20.628857
 31
0.0
  0
LINE
  5
C6
100
AcDbEntity
  8
0
  6
CONTINUOUS
 62
     7
100
AcDbLine
 10
-24.830811
 20
20.6
 30
0.0
 11
-23.933607
 21
27.0
 31
0.0
  0
LINE
  5
C7
100
AcDbEntity
  8
0
  6
CONTINUOUS
 62
     7
100
AcDbLine
 10
-27.658327
 20
20.600002
 30
0.0
 11
-26.869226
 21
26.228859
 31
0.0
  0
LINE
  5
C8
100
AcDbEntity
  8
0
  6
CONTINUOUS
 62
     7
100
AcDbLine
 10
-24.043812
 20
15.0
 30
0.0
 11
-23.254713
 21
20.628859
 31
0.0
  0
LINE
  5
C9
100
AcDbEntity
  8
0
  6
CONTINUOUS
 62
     7
100
AcDbLine
 10
-23.543808
 20
16.0
 30
0.0
 11
-22.543808
 21
17.0
 31
0.0
  0
LINE
  5
CA
100
AcDbEntity
  8
0
  6
CONTINUOUS
 62
     7
100
AcDbLine
 10
-5.210316
 20
-23.05978
 30
0.0
 11
-5.066986
 21
-24.5
 31
0.0
  0
LINE
  5
CB
100
AcDbEntity
  8
0
  6
CONTINUOUS
 62
     7
100
AcDbLine
 10
-5.066986
 20
-24.5
 30
0.0
 11
-3.247134
 21
-29.499998
 31
0.0
  0
ARC
  5
CC
100
AcDbEntity
  8
0
  6
CONTINUOUS
 62
     7
100
AcDbCircle
 10
9.799999
 20
17.200001
 30
0.0
 40
0.8
100
AcDbArc
 50
90.000003
 51
180.00001
  0
CIRCLE
  5
CD
100
AcDbEntity
  8
0
  6
CONTINUOUS
 62
     7
100
AcDbCircle
 10
0.0
 20
20.6
 30
0.0
 40
1.575
  0
CIRCLE
  5
CE
100
AcDbEntity
  8
0
  6
CONTINUOUS
 62
     7
100
AcDbCircle
 10
6.0
 20
-24.5
 30
0.0
 40
2.0
  0
CIRCLE
  5
CF
100
AcDbEntity
  8
0
  6
CONTINUOUS
 62
     7
100
AcDbCircle
 10
6.0
 20
-24.5
 30
0.0
 40
1.75
  0
ARC
  5
D0
100
AcDbEntity
  8
0
  6
CONTINUOUS
 62
     7
100
AcDbCircle
 10
9.2
 20
16.56912
 30
0.0
 40
0.2
100
AcDbArc
 50
90.000003
 51
180.00001
  0
ARC
  5
D1
100
AcDbEntity
  8
0
  6
CONTINUOUS
 62
     7
100
AcDbCircle
 10
4.200215
 20
22.028643
 30
0.0
 40
2.0
100
AcDbArc
 50
315.0
 51
135.0
  0
LWPOLYLINE
  5
D2
100
AcDbEntity
  8
0
  6
CONTINUOUS
 62
     7
100
AcDbPolyline
 90
       17
 70
     0
 43
0.0
 10
22.75
 20
-18.238169
 42
0.048431
 10
21.915683
 20
-18.319162
 42
0.048575
 10
21.111784
 20
-18.55959
 42
0.048755
 10
20.369468
 20
-18.950871
 42
0.048991
 10
19.717177
 20
-19.47881
 42
0.049259
 10
19.180281
 20
-20.124009
 42
0.04951
 10
18.780245
 20
-20.86214
 42
0.049697
 10
18.533428
 20
-21.664636
 42
0.049799
 10
18.450001
 20
-22.500093
 42
0.049757
 10
18.53329
 20
-23.334866
 42
0.049651
 10
18.779671
 20
-24.136679
 42
0.049484
 10
19.1792
 20
-24.874581
 42
0.049246
 10
19.71564
 20
-25.51986
 42
0.049001
 10
20.367807
 20
-26.048222
 42
0.04878
 10
21.110344
 20
-26.440008
 42
0.048607
 10
21.914694
 20
-26.680831
 42
0.048489
 10
22.75
 20
-26.762018
  0
LWPOLYLINE
  5
E5
100
AcDbEntity
  8
0
  6
CONTINUOUS
 62
     7
100
AcDbPolyline
 90
       17
 70
     0
 43
0.0
 10
22.75
 20
-18.934034
 42
0.02067
 10
22.360161
 20
-18.950153
 42
0.020786
 10
21.972453
 20
-18.998555
 42
0.020963
 10
21.590104
 20
-19.079117
 42
0.021222
 10
21.215929
 20
-19.191591
 42
0.021566
 10
20.852737
 20
-19.335621
 42
0.021991
 10
20.503436
 20
-19.510699
 42
0.02249
 10
20.171041
 20
-19.716122
 42
0.023054
 10
19.858677
 20
-19.950939
 42
0.023669
 10
19.569554
 20
-20.213893
 42
0.024318
 10
19.306933
 20
-20.503358
 42
0.024977
 10
19.074062
 20
-20.817278
 42
0.025618
 10
18.874085
 20
-21.153119
 42
0.026209
 10
18.709931
 20
-21.507842
 42
0.026716
 10
18.58418
 20
-21.8779
 42
0.027105
 10
18.498925
 20
-22.259288
 42
0.02735
 10
18.455641
 20
-22.647627
  0
LWPOLYLINE
  5
F8
100
AcDbEntity
  8
0
  6
CONTINUOUS
 62
     7
100
AcDbPolyline
 90
       17
 70
     0
 43
0.0
 10
22.75
 20
-20.567978
 42
0.047952
 10
22.237429
 20
-20.617238
 42
0.048126
 10
21.743587
 20
-20.763413
 42
0.048468
 10
21.286637
 20
-21.001763
 42
0.048882
 10
20.884354
 20
-21.323966
 42
0.049348
 10
20.552562
 20
-21.718537
 42
0.049788
 10
20.30487
 20
-22.170795
 42
0.050123
 10
20.151808
 20
-22.663209
 42
0.050328
 10
20.1
 20
-23.176479
 42
0.050183
 10
20.151511
 20
-23.688294
 42
0.05007
 10
20.304071
 20
-24.18028
 42
0.049845
 10
20.551736
 20
-24.633215
 42
0.049334
 10
20.883195
 20
-25.027862
 42
0.048892
 10
21.285355
 20
-25.350361
 42
0.048494
 10
21.742412
 20
-25.589072
 42
0.048189
 10
22.236844
 20
-25.735609
 42
0.048008
 10
22.75
 20
-25.784983
  0
LWPOLYLINE
  5
10B
100
AcDbEntity
  8
0
  6
CONTINUOUS
 62
     7
100
AcDbPolyline
 90
       17
 70
     0
 43
0.0
 10
22.75
 20
-21.173958
 42
0.019046
 10
22.518387
 20
-21.182781
 42
0.019158
 10
22.288051
 20
-21.209258
 42
0.01937
 10
22.060455
 20
-21.253375
 42
0.01969
 10
21.837003
 20
-21.315109
 42
0.02012
 10
21.619162
 20
-21.394415
 42
0.020659
 10
21.408486
 20
-21.491202
 42
0.021305
 10
21.20664
 20
-21.605313
 42
0.022052
 10
21.01541
 20
-21.736484
 42
0.022891
 10
20.836702
 20
-21.8843
 42
0.023805
 10
20.672539
 20
-22.048145
 42
0.024767
 10
20.52503
 20
-22.227144
 42
0.02574
 10
20.396319
 20
-22.420103
 42
0.026677
 10
20.288509
 20
-22.625462
 42
0.02752
 10
20.203557
 20
-22.841259
 42
0.028207
 10
20.143145
 20
-23.065137
 42
0.028681
 10
20.108553
 20
-23.294389
  0
LWPOLYLINE
  5
11E
100
AcDbEntity
  8
0
  6
CONTINUOUS
 62
     7
100
AcDbPolyline
 90
       17
 70
     0
 43
0.0
 10
25.25
 20
-21.173958
 42
-0.019046
 10
25.481613
 20
-21.182781
 42
-0.019158
 10
25.711949
 20
-21.209258
 42
-0.01937
 10
25.939545
 20
-21.253375
 42
-0.01969
 10
26.162997
 20
-21.315109
 42
-0.02012
 10
26.380838
 20
-21.394415
 42
-0.020659
 10
26.591514
 20
-21.491202
 42
-0.021305
 10
26.79336
 20
-21.605313
 42
-0.022052
 10
26.98459
 20
-21.736484
 42
-0.022891
 10
27.163298
 20
-21.8843
 42
-0.023805
 10
27.327461
 20
-22.048145
 42
-0.024767
 10
27.47497
 20
-22.227144
 42
-0.02574
 10
27.603681
 20
-22.420103
 42
-0.026677
 10
27.711491
 20
-22.625462
 42
-0.02752
 10
27.796443
 20
-22.841259
 42
-0.028207
 10
27.856855
 20
-23.065137
 42
-0.028681
 10
27.891447
 20
-23.294389
  0
LWPOLYLINE
  5
131
100
AcDbEntity
  8
0
  6
CONTINUOUS
 62
     7
100
AcDbPolyline
 90
       17
 70
     0
 43
0.0
 10
25.25
 20
-20.567978
 42
-0.047952
 10
25.762571
 20
-20.617238
 42
-0.048126
 10
26.256413
 20
-20.763413
 42
-0.048468
 10
26.713363
 20
-21.001763
 42
-0.048882
 10
27.115646
 20
-21.323966
 42
-0.049348
 10
27.447438
 20
-21.718537
 42
-0.049788
 10
27.69513
 20
-22.170795
 42
-0.050123
 10
27.848192
 20
-22.663209
 42
-0.050328
 10
27.9
 20
-23.176479
 42
-0.050183
 10
27.848489
 20
-23.688294
 42
-0.05007
 10
27.695929
 20
-24.18028
 42
-0.049845
 10
27.448264
 20
-24.633215
 42
-0.049334
 10
27.116805
 20
-25.027862
 42
-0.048892
 10
26.714645
 20
-25.350361
 42
-0.048494
 10
26.257588
 20
-25.589072
 42
-0.048189
 10
25.763156
 20
-25.735609
 42
-0.048008
 10
25.25
 20
-25.784983
  0
LWPOLYLINE
  5
144
100
AcDbEntity
  8
0
  6
CONTINUOUS
 62
     7
100
AcDbPolyline
 90
       17
 70
     0
 43
0.0
 10
25.25
 20
-18.934034
 42
-0.02067
 10
25.639839
 20
-18.950153
 42
-0.020786
 10
26.027547
 20
-18.998555
 42
-0.020963
 10
26.409896
 20
-19.079117
 42
-0.021222
 10
26.784071
 20
-19.191591
 42
-0.021566
 10
27.147263
 20
-19.335621
 42
-0.021991
 10
27.496564
 20
-19.510699
 42
-0.02249
 10
27.828959
 20
-19.716122
 42
-0.023054
 10
28.141323
 20
-19.950939
 42
-0.023669
 10
28.430446
 20
-20.213893
 42
-0.024318
 10
28.693067
 20
-20.503358
 42
-0.024977
 10
28.925938
 20
-20.817278
 42
-0.025618
 10
29.125915
 20
-21.153119
 42
-0.026209
 10
29.290069
 20
-21.507842
 42
-0.026716
 10
29.41582
 20
-21.8779
 42
-0.027105
 10
29.501075
 20
-22.259288
 42
-0.02735
 10
29.544359
 20
-22.647627
  0
LWPOLYLINE
  5
157
100
AcDbEntity
  8
0
  6
CONTINUOUS
 62
     7
100
AcDbPolyline
 90
       17
 70
     0
 43
0.0
 10
25.25
 20
-18.238169
 42
-0.048431
 10
26.084317
 20
-18.319162
 42
-0.048575
 10
26.888216
 20
-18.55959
 42
-0.048755
 10
27.630532
 20
-18.950871
 42
-0.048991
 10
28.282823
 20
-19.47881
 42
-0.049259
 10
28.819719
 20
-20.124009
 42
-0.04951
 10
29.219755
 20
-20.86214
 42
-0.049697
 10
29.466572
 20
-21.664636
 42
-0.049799
 10
29.549999
 20
-22.500093
 42
-0.049757
 10
29.46671
 20
-23.334866
 42
-0.049651
 10
29.220329
 20
-24.136679
 42
-0.049484
 10
28.8208
 20
-24.874581
 42
-0.049246
 10
28.28436
 20
-25.51986
 42
-0.049001
 10
27.632193
 20
-26.048222
 42
-0.04878
 10
26.889656
 20
-26.440008
 42
-0.048607
 10
26.085306
 20
-26.680831
 42
-0.048489
 10
25.25
 20
-26.762018
  0
LWPOLYLINE
  5
16A
100
AcDbEntity
  8
0
  6
CONTINUOUS
 62
     7
100
AcDbPolyline
 90
       16
 70
     1
 43
0.0
 10
24.0
 20
17.966526
 42
0.006735
 10
22.589367
 20
17.947754
 42
0.008336
 10
21.179482
 20
17.887209
 42
0.014477
 10
19.773674
 20
17.765414
 42
0.124045
 10
18.450001
 20
17.394918
 42
0.123941
 10
19.773415
 20
17.024453
 42
0.014475
 10
21.178533
 20
16.902684
 42
0.008336
 10
22.58797
 20
16.842118
 42
0.006742
 10
24.0
 20
16.823309
 42
0.006735
 10
25.410633
 20
16.842081
 42
0.008336
 10
26.820518
 20
16.902627
 42
0.014477
 10
28.226326
 20
17.024422
 42
0.124045
 10
29.549999
 20
17.394918
 42
0.123941
 10
28.226585
 20
17.765383
 42
0.014475
 10
26.821467
 20
17.887151
 42
0.008336
 10
25.41203
 20
17.947717
 42
0.006742
  0
LINE
  5
17C
100
AcDbEntity
  8
0
  6
CONTINUOUS
 62
     7
100
AcDbLine
 10
78.31122
 20
-29.449162
 30
0.0
 11
80.165993
 21
-27.594385
 31
0.0
  0
LINE
  5
17D
100
AcDbEntity
  8
0
  6
CONTINUOUS
 62
     7
100
AcDbLine
 10
76.046393
 20
-29.468927
 30
0.0
 11
79.13427
 21
-26.381044
 31
0.0
  0
LINE
  5
17E
100
AcDbEntity
  8
0
  6
CONTINUOUS
 62
     7
100
AcDbLine
 10
73.781566
 20
-29.488692
 30
0.0
 11
77.165851
 21
-26.104401
 31
0.0
  0
LINE
  5
17F
100
AcDbEntity
  8
0
  6
CONTINUOUS
 62
     7
100
AcDbLine
 10
71.525198
 20
-29.499999
 30
0.0
 11
73.736535
 21
-27.288657
 31
0.0
  0
LINE
  5
180
100
AcDbEntity
  8
0
  6
CONTINUOUS
 62
     7
100
AcDbLine
 10
75.101534
 20
-25.923656
 30
0.0
 11
75.197431
 21
-25.827758
 31
0.0
  0
LINE
  5
181
100
AcDbEntity
  8
0
  6
CONTINUOUS
 62
     7
100
AcDbLine
 10
70.530684
 20
-28.249448
 30
0.0
 11
71.768116
 21
-27.012014
 31
0.0
  0
LINE
  5
182
100
AcDbEntity
  8
0
  6
CONTINUOUS
 62
     7
100
AcDbLine
 10
79.890009
 20
-21.135171
 30
0.0
 11
80.165993
 21
-20.859186
 31
0.0
  0
LINE
  5
183
100
AcDbEntity
  8
0
  6
CONTINUOUS
 62
     7
100
AcDbLine
 10
77.92159
 20
-20.858527
 30
0.0
 11
79.973053
 21
-18.80706
 31
0.0
  0
LINE
  5
184
100
AcDbEntity
  8
0
  6
CONTINUOUS
 62
     7
100
AcDbLine
 10
75.953171
 20
-20.581884
 30
0.0
 11
78.535048
 21
-18.000002
 31
0.0
  0
LINE
  5
185
100
AcDbEntity
  8
0
  6
CONTINUOUS
 62
     7
100
AcDbLine
 10
75.445649
 20
-18.84434
 30
0.0
 11
76.289987
 21
-18.000001
 31
0.0
  0
LINE
  5
186
100
AcDbEntity
  8
0
  6
CONTINUOUS
 62
     7
100
AcDbLine
 10
73.47723
 20
-18.567697
 30
0.0
 11
74.044926
 21
-18.000001
 31
0.0
  0
LINE
  5
187
100
AcDbEntity
  8
0
  6
CONTINUOUS
 62
     7
100
AcDbLine
 10
71.508811
 20
-18.291054
 30
0.0
 11
71.799865
 21
-18.0
 31
0.0
  0
TEXT
  5
188
100
AcDbEntity
  8
0
  6
CONTINUOUS
100
AcDbText
 10
4.991075
 20
-58.441809
 30
0.0
 40
6.0
  1
ＢＵ１４３Ｒ
100
AcDbText
  0
ENDBLK
  5
18A
100
AcDbEntity
  8
0
100
AcDbBlockEnd
  0
BLOCK
  5
301
100
AcDbEntity
  8
0
100
AcDbBlockBegin
  2
*D2
 70
     1
 10
0.0
 20
0.0
 30
0.0
  3
*D2
  1

  0
LINE
  5
303
100
AcDbEntity
  8
寸法
 62
     1
100
AcDbLine
 10
214.176718
 20
77.30661
 30
0.0
 11
221.0
 21
77.30661
 31
0.0
1001
ACAD
1000
RTLwPs
1070
   158
  0
LINE
  5
304
100
AcDbEntity
  8
寸法
 62
     1
100
AcDbLine
 10
213.176714
 20
71.65661
 30
0.0
 11
221.0
 21
71.65661
 31
0.0
1001
ACAD
1000
RTLwPs
1070
   158
  0
LINE
  5
305
100
AcDbEntity
  8
寸法
 62
     1
100
AcDbLine
 10
220.0
 20
79.30661
 30
0.0
 11
220.0
 21
81.30661
 31
0.0
1001
ACAD
1000
RTLwPs
1070
   158
  0
LINE
  5
306
100
AcDbEntity
  8
寸法
 62
     1
100
AcDbLine
 10
220.0
 20
69.65661
 30
0.0
 11
220.0
 21
56.65661
 31
0.0
1001
ACAD
1000
RTLwPs
1070
   158
  0
LINE
  5
307
100
AcDbEntity
  8
寸法
 62
     1
100
AcDbLine
 10
220.0
 20
77.30661
 30
0.0
 11
220.0
 21
71.65661
 31
0.0
1001
ACAD
1000
RTLwPs
1070
   158
  0
INSERT
  5
308
100
AcDbEntity
  8
寸法
 62
     1
100
AcDbBlockReference
  2
_OPEN30
 10
220.0
 20
77.30661
 30
0.0
 41
2.0
 42
2.0
 43
2.0
 50
270.0
1001
ACAD
1000
RTLwPs
1070
   158
  0
INSERT
  5
309
100
AcDbEntity
  8
寸法
 62
     1
100
AcDbBlockReference
  2
_OPEN30
 10
220.0
 20
71.65661
 30
0.0
 41
2.0
 42
2.0
 43
2.0
 50
90.0
1001
ACAD
1000
RTLwPs
1070
   158
  0
MTEXT
  5
30A
100
AcDbEntity
  8
寸法
 62
     1
100
AcDbMText
 10
217.5
 20
62.15661
 30
0.0
 40
3.0
 41
0.0
 71
     5
 72
     1
  1
\A1;5.65
 11
0.0
 21
1.0
 31
0.0
1001
ACAD
1000
MTEXTBEGIN
1070
    73
1070
     1
1070
    44
1040
1.0
1070
    74
1070
     0
1000
MTEXTEND
1000
MTEXTBEGIN
1070
    73
1070
     1
1070
    44
1040
1.0
1070
    74
1070
     0
1000
MTEXTEND
  0
POINT
  5
30B
100
AcDbEntity
  8
DEFPOINTS
 62
     0
100
AcDbPoint
 10
213.176718
 20
77.30661
 30
0.0
  0
POINT
  5
30C
100
AcDbEntity
  8
DEFPOINTS
 62
     0
100
AcDbPoint
 10
212.176714
 20
71.65661
 30
0.0
  0
POINT
  5
30D
100
AcDbEntity
  8
DEFPOINTS
 62
     0
100
AcDbPoint
 10
220.0
 20
71.65661
 30
0.0
  0
ENDBLK
  5
302
100
AcDbEntity
  8
0
100
AcDbBlockEnd
  0
BLOCK
  5
319
100
AcDbEntity
  8
0
100
AcDbBlockBegin
  2
*D3
 70
     1
 10
0.0
 20
0.0
 30
0.0
  3
*D3
  1

  0
LINE
  5
310
100
AcDbEntity
  8
寸法
 62
     1
100
AcDbLine
 10
176.010725
 20
79.65661
 30
0.0
 11
176.010725
 21
91.0
 31
0.0
1001
ACAD
1000
RTLwPs
1070
   158
  0
LINE
  5
311
100
AcDbEntity
  8
寸法
 62
     1
100
AcDbLine
 10
157.010725
 20
86.371979
 30
0.0
 11
157.010725
 21
91.0
 31
0.0
1001
ACAD
1000
RTLwPs
1070
   158
  0
LINE
  5
312
100
AcDbEntity
  8
寸法
 62
     1
100
AcDbLine
 10
174.010725
 20
90.0
 30
0.0
 11
159.010725
 21
90.0
 31
0.0
1001
ACAD
1000
RTLwPs
1070
   158
  0
INSERT
  5
313
100
AcDbEntity
  8
寸法
 62
     1
100
AcDbBlockReference
  2
_OPEN30
 10
176.010725
 20
90.0
 30
0.0
 41
2.0
 42
2.0
 43
2.0
1001
ACAD
1000
RTLwPs
1070
   158
  0
INSERT
  5
314
100
AcDbEntity
  8
寸法
 62
     1
100
AcDbBlockReference
  2
_OPEN30
 10
157.010725
 20
90.0
 30
0.0
 41
2.0
 42
2.0
 43
2.0
 50
180.0
1001
ACAD
1000
RTLwPs
1070
   158
  0
MTEXT
  5
315
100
AcDbEntity
  8
寸法
 62
     1
100
AcDbMText
 10
166.510725
 20
92.5
 30
0.0
 40
3.0
 41
0.0
 71
     5
 72
     1
  1
\A1;19
1001
ACAD
1000
MTEXTBEGIN
1070
    73
1070
     1
1070
    44
1040
1.0
1070
    74
1070
     0
1000
MTEXTEND
1000
MTEXTBEGIN
1070
    73
1070
     1
1070
    44
1040
1.0
1070
    74
1070
     0
1000
MTEXTEND
  0
POINT
  5
316
100
AcDbEntity
  8
DEFPOINTS
 62
     0
100
AcDbPoint
 10
176.010725
 20
78.65661
 30
0.0
  0
POINT
  5
317
100
AcDbEntity
  8
DEFPOINTS
 62
     0
100
AcDbPoint
 10
157.010725
 20
85.371979
 30
0.0
  0
POINT
  5
318
100
AcDbEntity
  8
DEFPOINTS
 62
     0
100
AcDbPoint
 10
157.010725
 20
90.0
 30
0.0
  0
ENDBLK
  5
31A
100
AcDbEntity
  8
0
100
AcDbBlockEnd
  0
BLOCK
  5
326
100
AcDbEntity
  8
0
100
AcDbBlockBegin
  2
*D4
 70
     1
 10
0.0
 20
0.0
 30
0.0
  3
*D4
  1

  0
LINE
  5
31D
100
AcDbEntity
  8
寸法
 62
     1
100
AcDbLine
 10
169.010725
 20
83.15661
 30
0.0
 11
191.0
 21
83.15661
 31
0.0
1001
ACAD
1000
RTLwPs
1070
   158
  0
LINE
  5
31E
100
AcDbEntity
  8
寸法
 62
     1
100
AcDbLine
 10
169.010725
 20
71.65661
 30
0.0
 11
191.0
 21
71.65661
 31
0.0
1001
ACAD
1000
RTLwPs
1070
   158
  0
LINE
  5
31F
100
AcDbEntity
  8
寸法
 62
     1
100
AcDbLine
 10
190.0
 20
81.15661
 30
0.0
 11
190.0
 21
73.65661
 31
0.0
1001
ACAD
1000
RTLwPs
1070
   158
  0
INSERT
  5
320
100
AcDbEntity
  8
寸法
 62
     1
100
AcDbBlockReference
  2
_OPEN30
 10
190.0
 20
83.15661
 30
0.0
 41
2.0
 42
2.0
 43
2.0
 50
90.0
1001
ACAD
1000
RTLwPs
1070
   158
  0
INSERT
  5
321
100
AcDbEntity
  8
寸法
 62
     1
100
AcDbBlockReference
  2
_OPEN30
 10
190.0
 20
71.65661
 30
0.0
 41
2.0
 42
2.0
 43
2.0
 50
270.0
1001
ACAD
1000
RTLwPs
1070
   158
  0
MTEXT
  5
322
100
AcDbEntity
  8
寸法
 62
     1
100
AcDbMText
 10
187.5
 20
77.40661
 30
0.0
 40
3.0
 41
0.0
 71
     5
 72
     1
  1
\A1;11.5
 11
0.0
 21
1.0
 31
0.0
1001
ACAD
1000
MTEXTBEGIN
1070
    73
1070
     1
1070
    44
1040
1.0
1070
    74
1070
     0
1000
MTEXTEND
1000
MTEXTBEGIN
1070
    73
1070
     1
1070
    44
1040
1.0
1070
    74
1070
     0
1000
MTEXTEND
  0
POINT
  5
323
100
AcDbEntity
  8
DEFPOINTS
 62
     0
100
AcDbPoint
 10
168.010725
 20
83.15661
 30
0.0
  0
POINT
  5
324
100
AcDbEntity
  8
DEFPOINTS
 62
     0
100
AcDbPoint
 10
168.010725
 20
71.65661
 30
0.0
  0
POINT
  5
325
100
AcDbEntity
  8
DEFPOINTS
 62
     0
100
AcDbPoint
 10
190.0
 20
71.65661
 30
0.0
  0
ENDBLK
  5
327
100
AcDbEntity
  8
0
100
AcDbBlockEnd
  0
BLOCK
  5
335
100
AcDbEntity
  8
0
100
AcDbBlockBegin
  2
*D5
 70
     1
 10
0.0
 20
0.0
 30
0.0
  3
*D5
  1

  0
LINE
  5
32A
100
AcDbEntity
  8
寸法
 62
     1
100
AcDbLine
 10
158.260725
 20
68.577432
 30
0.0
 11
158.260725
 21
59.0
 31
0.0
1001
ACAD
1000
RTLwPs
1070
   158
  0
LINE
  5
32B
100
AcDbEntity
  8
寸法
 62
     1
100
AcDbLine
 10
155.760725
 20
69.17274
 30
0.0
 11
155.760725
 21
59.0
 31
0.0
1001
ACAD
1000
RTLwPs
1070
   158
  0
LINE
  5
32C
100
AcDbEntity
  8
寸法
 62
     1
100
AcDbLine
 10
160.260725
 20
60.0
 30
0.0
 11
162.260725
 21
60.0
 31
0.0
1001
ACAD
1000
RTLwPs
1070
   158
  0
LINE
  5
32D
100
AcDbEntity
  8
寸法
 62
     1
100
AcDbLine
 10
153.760725
 20
60.0
 30
0.0
 11
143.760725
 21
60.0
 31
0.0
1001
ACAD
1000
RTLwPs
1070
   158
  0
LINE
  5
32E
100
AcDbEntity
  8
寸法
 62
     1
100
AcDbLine
 10
158.260725
 20
60.0
 30
0.0
 11
155.760725
 21
60.0
 31
0.0
1001
ACAD
1000
RTLwPs
1070
   158
  0
INSERT
  5
32F
100
AcDbEntity
  8
寸法
 62
     1
100
AcDbBlockReference
  2
_OPEN30
 10
158.260725
 20
60.0
 30
0.0
 41
2.0
 42
2.0
 43
2.0
 50
180.0
1001
ACAD
1000
RTLwPs
1070
   158
  0
INSERT
  5
330
100
AcDbEntity
  8
寸法
 62
     1
100
AcDbBlockReference
  2
_OPEN30
 10
155.760725
 20
60.0
 30
0.0
 41
2.0
 42
2.0
 43
2.0
1001
ACAD
1000
RTLwPs
1070
   158
  0
MTEXT
  5
331
100
AcDbEntity
  8
寸法
 62
     1
100
AcDbMText
 10
147.760725
 20
62.5
 30
0.0
 40
3.0
 41
0.0
 71
     5
 72
     1
  1
\A1;2.5
1001
ACAD
1000
MTEXTBEGIN
1070
    73
1070
     1
1070
    44
1040
1.0
1070
    74
1070
     0
1000
MTEXTEND
1000
MTEXTBEGIN
1070
    73
1070
     1
1070
    44
1040
1.0
1070
    74
1070
     0
1000
MTEXTEND
  0
POINT
  5
332
100
AcDbEntity
  8
DEFPOINTS
 62
     0
100
AcDbPoint
 10
158.260725
 20
69.577432
 30
0.0
  0
POINT
  5
333
100
AcDbEntity
  8
DEFPOINTS
 62
     0
100
AcDbPoint
 10
155.760725
 20
70.17274
 30
0.0
  0
POINT
  5
334
100
AcDbEntity
  8
DEFPOINTS
 62
     0
100
AcDbPoint
 10
155.760725
 20
60.0
 30
0.0
  0
ENDBLK
  5
336
100
AcDbEntity
  8
0
100
AcDbBlockEnd
  0
BLOCK
  5
351
100
AcDbEntity
  8
0
100
AcDbBlockBegin
  2
*D6
 70
     1
 10
0.0
 20
0.0
 30
0.0
  3
*D6
  1

  0
LINE
  5
353
100
AcDbEntity
  8
寸法
 62
     1
100
AcDbLine
 10
128.763591
 20
71.656612
 30
0.0
 11
119.0
 21
71.656612
 31
0.0
1001
ACAD
1000
RTLwPs
1070
   158
  0
LINE
  5
354
100
AcDbEntity
  8
寸法
 62
     1
100
AcDbLine
 10
126.410724
 20
80.869583
 30
0.0
 11
119.0
 21
80.869583
 31
0.0
1001
ACAD
1000
RTLwPs
1070
   158
  0
LINE
  5
355
100
AcDbEntity
  8
寸法
 62
     1
100
AcDbLine
 10
120.0
 20
73.656612
 30
0.0
 11
120.0
 21
78.869583
 31
0.0
1001
ACAD
1000
RTLwPs
1070
   158
  0
INSERT
  5
356
100
AcDbEntity
  8
寸法
 62
     1
100
AcDbBlockReference
  2
_OPEN30
 10
120.0
 20
71.656612
 30
0.0
 41
2.0
 42
2.0
 43
2.0
 50
270.0
1001
ACAD
1000
RTLwPs
1070
   158
  0
INSERT
  5
357
100
AcDbEntity
  8
寸法
 62
     1
100
AcDbBlockReference
  2
_OPEN30
 10
120.0
 20
80.869583
 30
0.0
 41
2.0
 42
2.0
 43
2.0
 50
90.0
1001
ACAD
1000
RTLwPs
1070
   158
  0
MTEXT
  5
358
100
AcDbEntity
  8
寸法
 62
     1
100
AcDbMText
 10
117.5
 20
76.263098
 30
0.0
 40
3.0
 41
0.0
 71
     5
 72
     1
  1
\A1;9.2
 11
0.0
 21
1.0
 31
0.0
1001
ACAD
1000
MTEXTBEGIN
1070
    73
1070
     1
1070
    44
1040
1.0
1070
    74
1070
     0
1000
MTEXTEND
1000
MTEXTBEGIN
1070
    73
1070
     1
1070
    44
1040
1.0
1070
    74
1070
     0
1000
MTEXTEND
  0
POINT
  5
359
100
AcDbEntity
  8
DEFPOINTS
 62
     0
100
AcDbPoint
 10
129.763591
 20
71.656612
 30
0.0
  0
POINT
  5
35A
100
AcDbEntity
  8
DEFPOINTS
 62
     0
100
AcDbPoint
 10
127.410724
 20
80.869583
 30
0.0
  0
POINT
  5
35B
100
AcDbEntity
  8
DEFPOINTS
 62
     0
100
AcDbPoint
 10
120.0
 20
80.869583
 30
0.0
  0
ENDBLK
  5
352
100
AcDbEntity
  8
0
100
AcDbBlockEnd
  0
BLOCK
  5
36B
100
AcDbEntity
  8
0
100
AcDbBlockBegin
  2
*D7
 70
     1
 10
0.0
 20
0.0
 30
0.0
  3
*D7
  1

  0
LINE
  5
497
100
AcDbEntity
  8
寸法
 62
     1
100
AcDbLine
 10
140.641464
 20
83.15661
 30
0.0
 11
109.009262
 21
83.15661
 31
0.0
  0
LINE
  5
498
100
AcDbEntity
  8
寸法
 62
     1
100
AcDbLine
 10
126.420456
 20
80.730411
 30
0.0
 11
109.346711
 21
78.330856
 31
0.0
  0
ARC
  5
499
100
AcDbEntity
  8
寸法
 62
     1
100
AcDbCircle
 10
143.683791
 20
83.15661
 30
0.0
 40
33.674528
100
AcDbArc
 50
176.596585
 51
180.0
  0
LINE
  5
49A
100
AcDbEntity
  8
寸法
 62
     1
100
AcDbLine
 10
110.068654
 20
85.155728
 30
0.0
 11
110.579201
 21
93.74056
 31
0.0
  0
ARC
  5
49B
100
AcDbEntity
  8
寸法
 62
     1
100
AcDbCircle
 10
143.683791
 20
83.15661
 30
0.0
 40
33.674528
100
AcDbArc
 50
183.403415
 51
184.596573
  0
INSERT
  5
49C
100
AcDbEntity
  8
寸法
 62
     1
100
AcDbBlockReference
  2
_OPEN30
 10
110.009262
 20
83.15661
 30
0.0
 41
2.0
 42
2.0
 43
2.0
 50
91.701708
  0
INSERT
  5
49D
100
AcDbEntity
  8
寸法
 62
     1
100
AcDbBlockReference
  2
_OPEN30
 10
110.33698
 20
78.470029
 30
0.0
 41
2.0
 42
2.0
 43
2.0
 50
276.298281
  0
MTEXT
  5
49E
100
AcDbEntity
  8
寸法
 62
     1
100
AcDbMText
 10
112.819518
 20
89.29973
 30
0.0
 40
3.0
 41
0.0
 71
     5
 72
     1
  1
\A1;8°
 11
-0.059366
 21
-0.998236
 31
0.0
  0
POINT
  5
49F
100
AcDbEntity
  8
DEFPOINTS
 62
     0
100
AcDbPoint
 10
110.155046
 20
80.026572
 30
0.0
  0
POINT
  5
4A0
100
AcDbEntity
  8
DEFPOINTS
 62
     0
100
AcDbPoint
 10
141.641464
 20
83.15661
 30
0.0
  0
POINT
  5
4A1
100
AcDbEntity
  8
DEFPOINTS
 62
     0
100
AcDbPoint
 10
127.410724
 20
80.869583
 30
0.0
  0
POINT
  5
4A2
100
AcDbEntity
  8
DEFPOINTS
 62
     0
100
AcDbPoint
 10
134.113149
 20
81.811546
 30
0.0
  0
POINT
  5
4A3
100
AcDbEntity
  8
DEFPOINTS
 62
     0
100
AcDbPoint
 10
168.010725
 20
83.15661
 30
0.0
  0
ENDBLK
  5
36C
100
AcDbEntity
  8
0
100
AcDbBlockEnd
  0
BLOCK
  5
385
100
AcDbEntity
  8
0
100
AcDbBlockBegin
  2
*D8
 70
     1
 10
0.0
 20
0.0
 30
0.0
  3
*D8
  1

  0
LINE
  5
4A4
100
AcDbEntity
  8
寸法
 62
     1
100
AcDbLine
 10
176.010725
 20
133.038881
 30
0.0
 11
176.010725
 21
119.0
 31
0.0
  0
LINE
  5
4A5
100
AcDbEntity
  8
寸法
 62
     1
100
AcDbLine
 10
168.010725
 20
129.322704
 30
0.0
 11
168.010725
 21
119.0
 31
0.0
  0
LINE
  5
4A6
100
AcDbEntity
  8
寸法
 62
     1
100
AcDbLine
 10
174.010725
 20
120.0
 30
0.0
 11
170.010725
 21
120.0
 31
0.0
  0
INSERT
  5
4A7
100
AcDbEntity
  8
寸法
 62
     1
100
AcDbBlockReference
  2
_OPEN30
 10
176.010725
 20
120.0
 30
0.0
 41
2.0
 42
2.0
 43
2.0
  0
INSERT
  5
4A8
100
AcDbEntity
  8
寸法
 62
     1
100
AcDbBlockReference
  2
_OPEN30
 10
168.010725
 20
120.0
 30
0.0
 41
2.0
 42
2.0
 43
2.0
 50
180.0
  0
MTEXT
  5
4A9
100
AcDbEntity
  8
寸法
 62
     1
100
AcDbMText
 10
172.010725
 20
122.5
 30
0.0
 40
3.0
 41
0.0
 71
     5
 72
     1
  1
\A1;8
  0
POINT
  5
4AA
100
AcDbEntity
  8
DEFPOINTS
 62
     0
100
AcDbPoint
 10
176.010725
 20
134.038881
 30
0.0
  0
POINT
  5
4AB
100
AcDbEntity
  8
DEFPOINTS
 62
     0
100
AcDbPoint
 10
168.010725
 20
130.322704
 30
0.0
  0
POINT
  5
4AC
100
AcDbEntity
  8
DEFPOINTS
 62
     0
100
AcDbPoint
 10
168.010725
 20
120.0
 30
0.0
  0
ENDBLK
  5
386
100
AcDbEntity
  8
0
100
AcDbBlockEnd
  0
BLOCK
  5
39F
100
AcDbEntity
  8
0
100
AcDbBlockBegin
  2
*D9
 70
     1
 10
0.0
 20
0.0
 30
0.0
  3
*D9
  1

  0
LINE
  5
4AD
100
AcDbEntity
  8
寸法
 62
     1
100
AcDbLine
 10
133.717832
 20
127.831774
 30
0.0
 11
142.048888
 21
119.50072
 31
0.0
  0
LINE
  5
4AE
100
AcDbEntity
  8
寸法
 62
     1
100
AcDbLine
 10
137.010725
 20
129.538881
 30
0.0
 11
146.20683
 21
129.538881
 31
0.0
  0
ARC
  5
4AF
100
AcDbEntity
  8
寸法
 62
     1
100
AcDbCircle
 10
132.010725
 20
129.538881
 30
0.0
 40
13.196105
100
AcDbArc
 50
306.307933
 51
315.000007
  0
LINE
  5
4B0
100
AcDbEntity
  8
寸法
 62
     1
100
AcDbLine
 10
139.824465
 20
118.904849
 30
0.0
 11
130.476648
 21
112.036202
 31
0.0
  0
ARC
  5
4B1
100
AcDbEntity
  8
寸法
 62
     1
100
AcDbCircle
 10
132.010725
 20
129.538881
 30
0.0
 40
13.196105
100
AcDbArc
 50
323.692081
 51
351.307926
  0
INSERT
  5
4B2
100
AcDbEntity
  8
寸法
 62
     1
100
AcDbBlockReference
  2
_OPEN30
 10
141.341781
 20
120.207827
 30
0.0
 41
2.0
 42
2.0
 43
2.0
 50
229.346044
  0
INSERT
  5
4B3
100
AcDbEntity
  8
寸法
 62
     1
100
AcDbBlockReference
  2
_OPEN30
 10
145.20683
 20
129.538881
 30
0.0
 41
2.0
 42
2.0
 43
2.0
 50
85.653963
  0
MTEXT
  5
4B4
100
AcDbEntity
  8
寸法
 62
     1
100
AcDbMText
 10
133.670245
 20
117.485141
 30
0.0
 40
3.0
 41
0.0
 71
     5
 72
     1
  1
\A1;45°
 11
0.805846
 21
0.592125
 31
0.0
  0
POINT
  5
4B5
100
AcDbEntity
  8
DEFPOINTS
 62
     0
100
AcDbPoint
 10
144.757183
 20
126.123478
 30
0.0
  0
POINT
  5
4B6
100
AcDbEntity
  8
DEFPOINTS
 62
     0
100
AcDbPoint
 10
127.410724
 20
134.138881
 30
0.0
  0
POINT
  5
4B7
100
AcDbEntity
  8
DEFPOINTS
 62
     0
100
AcDbPoint
 10
134.073591
 20
129.538881
 30
0.0
  0
POINT
  5
4B8
100
AcDbEntity
  8
DEFPOINTS
 62
     0
100
AcDbPoint
 10
136.010725
 20
129.538881
 30
0.0
  0
POINT
  5
4B9
100
AcDbEntity
  8
DEFPOINTS
 62
     0
100
AcDbPoint
 10
133.010725
 20
128.538881
 30
0.0
  0
ENDBLK
  5
3A0
100
AcDbEntity
  8
0
100
AcDbBlockEnd
  0
BLOCK
  5
3AC
100
AcDbEntity
  8
0
100
AcDbBlockBegin
  2
*D10
 70
     1
 10
0.0
 20
0.0
 30
0.0
  3
*D10
  1

  0
LINE
  5
3A3
100
AcDbEntity
  8
寸法
 62
     1
100
AcDbLine
 10
132.010725
 20
128.538881
 30
0.0
 11
119.0
 21
128.538881
 31
0.0
1001
ACAD
1000
RTLwPs
1070
   158
  0
LINE
  5
3A4
100
AcDbEntity
  8
寸法
 62
     1
100
AcDbLine
 10
132.810724
 20
140.538881
 30
0.0
 11
119.0
 21
140.538881
 31
0.0
1001
ACAD
1000
RTLwPs
1070
   158
  0
LINE
  5
3A5
100
AcDbEntity
  8
寸法
 62
     1
100
AcDbLine
 10
120.0
 20
130.538881
 30
0.0
 11
120.0
 21
138.538881
 31
0.0
1001
ACAD
1000
RTLwPs
1070
   158
  0
INSERT
  5
3A6
100
AcDbEntity
  8
寸法
 62
     1
100
AcDbBlockReference
  2
_OPEN30
 10
120.0
 20
128.538881
 30
0.0
 41
2.0
 42
2.0
 43
2.0
 50
270.0
1001
ACAD
1000
RTLwPs
1070
   158
  0
INSERT
  5
3A7
100
AcDbEntity
  8
寸法
 62
     1
100
AcDbBlockReference
  2
_OPEN30
 10
120.0
 20
140.538881
 30
0.0
 41
2.0
 42
2.0
 43
2.0
 50
90.0
1001
ACAD
1000
RTLwPs
1070
   158
  0
MTEXT
  5
3A8
100
AcDbEntity
  8
寸法
 62
     1
100
AcDbMText
 10
117.5
 20
134.538881
 30
0.0
 40
3.0
 41
0.0
 71
     5
 72
     1
  1
\A1;12
 11
0.0
 21
1.0
 31
0.0
1001
ACAD
1000
MTEXTBEGIN
1070
    73
1070
     1
1070
    44
1040
1.0
1070
    74
1070
     0
1000
MTEXTEND
1000
MTEXTBEGIN
1070
    73
1070
     1
1070
    44
1040
1.0
1070
    74
1070
     0
1000
MTEXTEND
  0
POINT
  5
3A9
100
AcDbEntity
  8
DEFPOINTS
 62
     0
100
AcDbPoint
 10
133.010725
 20
128.538881
 30
0.0
  0
POINT
  5
3AA
100
AcDbEntity
  8
DEFPOINTS
 62
     0
100
AcDbPoint
 10
133.810724
 20
140.538881
 30
0.0
  0
POINT
  5
3AB
100
AcDbEntity
  8
DEFPOINTS
 62
     0
100
AcDbPoint
 10
120.0
 20
140.538881
 30
0.0
  0
ENDBLK
  5
3AD
100
AcDbEntity
  8
0
100
AcDbBlockEnd
  0
BLOCK
  5
3D5
100
AcDbEntity
  8
0
100
AcDbBlockBegin
  2
*D11
 70
     1
 10
0.0
 20
0.0
 30
0.0
  3
*D11
  1

  0
LINE
  5
3D7
100
AcDbEntity
  8
寸法
 62
     1
100
AcDbLine
 10
86.703637
 20
145.579458
 30
0.0
 11
76.597617
 21
140.091437
 31
0.0
1001
ACAD
1000
RTLwPs
1070
   158
  0
MTEXT
  5
3D8
100
AcDbEntity
  8
寸法
 62
     1
100
AcDbMText
 10
81.336363
 20
145.509628
 30
0.0
 40
3.0
 41
0.0
 71
     5
 72
     1
  1
\A1;%%c30
 11
0.878784
 21
0.477219
 31
0.0
1001
ACAD
1000
MTEXTBEGIN
1070
    73
1070
     1
1070
    44
1040
1.0
1070
    74
1070
     0
1000
MTEXTEND
1000
MTEXTBEGIN
1070
    73
1070
     1
1070
    44
1040
1.0
1070
    74
1070
     0
1000
MTEXTEND
  0
INSERT
  5
3D9
100
AcDbEntity
  8
寸法
 62
     1
100
AcDbBlockReference
  2
_OPEN30
 10
74.840049
 20
139.136999
 30
0.0
 41
2.0
 42
2.0
 43
2.0
 50
208.50394
1001
ACAD
1000
RTLwPs
1070
   158
  0
POINT
  5
3DA
100
AcDbEntity
  8
DEFPOINTS
 62
     0
100
AcDbPoint
 10
74.840049
 20
139.136999
 30
0.0
  0
POINT
  5
3DB
100
AcDbEntity
  8
DEFPOINTS
 62
     0
100
AcDbPoint
 10
88.022345
 20
146.295576
 30
0.0
  0
ENDBLK
  5
3D6
100
AcDbEntity
  8
0
100
AcDbBlockEnd
  0
BLOCK
  5
3EF
100
AcDbEntity
  8
0
100
AcDbBlockBegin
  2
*D12
 70
     1
 10
0.0
 20
0.0
 30
0.0
  3
*D12
  1

  0
LINE
  5
4BA
100
AcDbEntity
  8
寸法
 62
     1
100
AcDbLine
 10
88.022345
 20
127.53888
 30
0.0
 11
88.022345
 21
118.425509
 31
0.0
  0
LINE
  5
4BB
100
AcDbEntity
  8
寸法
 62
     1
100
AcDbLine
 10
89.66884
 20
127.610769
 30
0.0
 11
90.463123
 21
118.532076
 31
0.0
  0
ARC
  5
4BC
100
AcDbEntity
  8
寸法
 62
     1
100
AcDbCircle
 10
88.022345
 20
146.430294
 30
0.0
 40
27.004785
100
AcDbArc
 50
261.505463
 51
270.0
  0
LINE
  5
4BD
100
AcDbEntity
  8
寸法
 62
     1
100
AcDbLine
 10
84.03333
 20
119.721753
 30
0.0
 11
75.527672
 21
120.992103
 31
0.0
  0
ARC
  5
4BE
100
AcDbEntity
  8
寸法
 62
     1
100
AcDbCircle
 10
88.022345
 20
146.430294
 30
0.0
 40
27.004785
100
AcDbArc
 50
261.5113
 51
265.75565
  0
ARC
  5
4BF
100
AcDbEntity
  8
寸法
 62
     1
100
AcDbCircle
 10
88.022345
 20
146.430294
 30
0.0
 40
27.004785
100
AcDbArc
 50
279.24435
 51
283.4887
  0
ARC
  5
4C0
100
AcDbEntity
  8
寸法
 62
     1
100
AcDbCircle
 10
88.022345
 20
146.430294
 30
0.0
 40
27.004785
100
AcDbArc
 50
270.0
 51
275.0
  0
INSERT
  5
4C1
100
AcDbEntity
  8
寸法
 62
     1
100
AcDbBlockReference
  2
_OPEN30
 10
88.022345
 20
119.425509
 30
0.0
 41
2.0
 42
2.0
 43
2.0
 50
357.877825
  0
INSERT
  5
4C2
100
AcDbEntity
  8
寸法
 62
     1
100
AcDbBlockReference
  2
_OPEN30
 10
90.375967
 20
119.528271
 30
0.0
 41
2.0
 42
2.0
 43
2.0
 50
187.122175
  0
MTEXT
  5
4C3
100
AcDbEntity
  8
寸法
 62
     1
100
AcDbMText
 10
80.149789
 20
122.829503
 30
0.0
 40
3.0
 41
0.0
 71
     5
 72
     1
  1
\A1;5°
 11
0.98903
 21
-0.147715
 31
0.0
  0
POINT
  5
4C4
100
AcDbEntity
  8
DEFPOINTS
 62
     0
100
AcDbPoint
 10
89.592533
 20
119.471197
 30
0.0
  0
POINT
  5
4C5
100
AcDbEntity
  8
DEFPOINTS
 62
     0
100
AcDbPoint
 10
88.022345
 20
146.430294
 30
0.0
  0
POINT
  5
4C6
100
AcDbEntity
  8
DEFPOINTS
 62
     0
100
AcDbPoint
 10
88.022345
 20
146.430294
 30
0.0
  0
POINT
  5
4C7
100
AcDbEntity
  8
DEFPOINTS
 62
     0
100
AcDbPoint
 10
89.581684
 20
128.606963
 30
0.0
  0
POINT
  5
4C8
100
AcDbEntity
  8
DEFPOINTS
 62
     0
100
AcDbPoint
 10
88.022345
 20
128.53888
 30
0.0
  0
ENDBLK
  5
3F0
100
AcDbEntity
  8
0
100
AcDbBlockEnd
  0
BLOCK
  5
3FC
100
AcDbEntity
  8
0
100
AcDbBlockBegin
  2
*D13
 70
     1
 10
0.0
 20
0.0
 30
0.0
  3
*D13
  1

  0
LINE
  5
3FE
100
AcDbEntity
  8
寸法
 62
     1
100
AcDbLine
 10
127.410724
 20
133.138881
 30
0.0
 11
127.410724
 21
109.0
 31
0.0
1001
ACAD
1000
RTLwPs
1070
   158
  0
LINE
  5
3FF
100
AcDbEntity
  8
寸法
 62
     1
100
AcDbLine
 10
176.010725
 20
133.038885
 30
0.0
 11
176.010725
 21
109.0
 31
0.0
1001
ACAD
1000
RTLwPs
1070
   158
  0
LINE
  5
400
100
AcDbEntity
  8
寸法
 62
     1
100
AcDbLine
 10
129.410724
 20
110.0
 30
0.0
 11
174.010725
 21
110.0
 31
0.0
1001
ACAD
1000
RTLwPs
1070
   158
  0
INSERT
  5
401
100
AcDbEntity
  8
寸法
 62
     1
100
AcDbBlockReference
  2
_OPEN30
 10
127.410724
 20
110.0
 30
0.0
 41
2.0
 42
2.0
 43
2.0
 50
180.0
1001
ACAD
1000
RTLwPs
1070
   158
  0
INSERT
  5
402
100
AcDbEntity
  8
寸法
 62
     1
100
AcDbBlockReference
  2
_OPEN30
 10
176.010725
 20
110.0
 30
0.0
 41
2.0
 42
2.0
 43
2.0
1001
ACAD
1000
RTLwPs
1070
   158
  0
MTEXT
  5
403
100
AcDbEntity
  8
寸法
 62
     1
100
AcDbMText
 10
151.710725
 20
112.5
 30
0.0
 40
3.0
 41
0.0
 71
     5
 72
     1
  1
\A1;49
1001
ACAD
1000
MTEXTBEGIN
1070
    73
1070
     1
1070
    44
1040
1.0
1070
    74
1070
     0
1000
MTEXTEND
1000
MTEXTBEGIN
1070
    73
1070
     1
1070
    44
1040
1.0
1070
    74
1070
     0
1000
MTEXTEND
  0
POINT
  5
404
100
AcDbEntity
  8
DEFPOINTS
 62
     0
100
AcDbPoint
 10
127.410724
 20
134.138881
 30
0.0
  0
POINT
  5
405
100
AcDbEntity
  8
DEFPOINTS
 62
     0
100
AcDbPoint
 10
176.010725
 20
134.038885
 30
0.0
  0
POINT
  5
406
100
AcDbEntity
  8
DEFPOINTS
 62
     0
100
AcDbPoint
 10
176.010725
 20
110.0
 30
0.0
  0
ENDBLK
  5
3FD
100
AcDbEntity
  8
0
100
AcDbBlockEnd
  0
ENDSEC
  0
SECTION
  2
ENTITIES
  0
POINT
  5
191
100
AcDbEntity
  8
0
  6
CONTINUOUS
 62
     7
100
AcDbPoint
 10
127.410724
 20
134.138881
 30
0.0
  0
POINT
  5
192
100
AcDbEntity
  8
0
  6
CONTINUOUS
 62
     7
100
AcDbPoint
 10
90.062859
 20
134.138881
 30
0.0
  0
POINT
  5
193
100
AcDbEntity
  8
0
  6
CONTINUOUS
 62
     7
100
AcDbPoint
 10
90.849859
 20
128.538881
 30
0.0
  0
POINT
  5
194
100
AcDbEntity
  8
0
  6
CONTINUOUS
 62
     7
100
AcDbPoint
 10
133.010725
 20
128.538881
 30
0.0
  0
POINT
  5
195
100
AcDbEntity
  8
0
  6
CONTINUOUS
 62
     7
100
AcDbPoint
 10
203.996572
 20
71.65661
 30
0.0
  0
POINT
  5
196
100
AcDbEntity
  8
0
  6
CONTINUOUS
 62
     7
100
AcDbPoint
 10
133.010725
 20
81.65661
 30
0.0
  0
POINT
  5
197
100
AcDbEntity
  8
0
  6
CONTINUOUS
 62
     7
100
AcDbPoint
 10
127.410724
 20
80.869583
 30
0.0
  0
LINE
  5
198
100
AcDbEntity
  8
0
  6
CENTER
 62
     1
 48
0.5
100
AcDbLine
 10
157.010725
 20
143.864507
 30
0.0
 11
157.010725
 21
128.381955
 31
0.0
  0
LINE
  5
199
100
AcDbEntity
  8
0
  6
CONTINUOUS
 62
     7
100
AcDbLine
 10
168.010725
 20
140.538881
 30
0.0
 11
168.010725
 21
130.322704
 31
0.0
  0
LINE
  5
19A
100
AcDbEntity
  8
0
  6
CONTINUOUS
 62
     7
100
AcDbLine
 10
133.810724
 20
140.538881
 30
0.0
 11
168.010725
 21
140.538881
 31
0.0
  0
LINE
  5
19B
100
AcDbEntity
  8
0
  6
CONTINUOUS
 62
     7
100
AcDbLine
 10
142.810724
 20
131.538881
 30
0.0
 11
168.010725
 21
131.538881
 31
0.0
  0
LINE
  5
19C
100
AcDbEntity
  8
0
  6
CONTINUOUS
 62
     7
100
AcDbLine
 10
141.641464
 20
139.591703
 30
0.0
 11
168.010725
 21
139.591703
 31
0.0
  0
LINE
  5
19D
100
AcDbEntity
  8
0
  6
CONTINUOUS
 62
     7
100
AcDbLine
 10
142.010725
 20
130.738882
 30
0.0
 11
142.010725
 21
130.063814
 31
0.0
  0
LINE
  5
19E
100
AcDbEntity
  8
0
  6
CONTINUOUS
 62
     7
100
AcDbLine
 10
127.410724
 20
134.138881
 30
0.0
 11
133.010725
 21
128.538881
 31
0.0
  0
LINE
  5
19F
100
AcDbEntity
  8
0
  6
CONTINUOUS
 62
     7
100
AcDbLine
 10
133.010725
 20
128.538881
 30
0.0
 11
138.625153
 21
134.153309
 31
0.0
  0
LINE
  5
1A0
100
AcDbEntity
  8
0
  6
CONTINUOUS
 62
     7
100
AcDbLine
 10
134.073591
 20
129.538881
 30
0.0
 11
136.010725
 21
129.538881
 31
0.0
  0
LINE
  5
1A1
100
AcDbEntity
  8
0
  6
CONTINUOUS
 62
     7
100
AcDbLine
 10
81.849863
 20
140.538881
 30
0.0
 11
91.349863
 21
140.538881
 31
0.0
  0
LINE
  5
1A2
100
AcDbEntity
  8
0
  6
CONTINUOUS
 62
     7
100
AcDbLine
 10
80.849863
 20
139.538881
 30
0.0
 11
80.849863
 21
131.358732
 31
0.0
  0
LINE
  5
1A3
100
AcDbEntity
  8
0
  6
CONTINUOUS
 62
     7
100
AcDbLine
 10
81.849863
 20
140.538883
 30
0.0
 11
80.849863
 21
139.538883
 31
0.0
  0
LINE
  5
1A4
100
AcDbEntity
  8
0
  6
CONTINUOUS
 62
     7
100
AcDbLine
 10
80.849863
 20
131.358732
 30
0.0
 11
85.849865
 21
129.53888
 31
0.0
  0
LINE
  5
1A5
100
AcDbEntity
  8
0
  6
CONTINUOUS
 62
     7
100
AcDbLine
 10
85.849863
 20
132.71903
 30
0.0
 11
85.849863
 21
129.538881
 31
0.0
  0
LINE
  5
1A6
100
AcDbEntity
  8
0
  6
CONTINUOUS
 62
     7
100
AcDbLine
 10
168.010725
 20
83.15661
 30
0.0
 11
168.010725
 21
71.65661
 31
0.0
  0
LINE
  5
1A7
100
AcDbEntity
  8
0
  6
CENTER
 62
     1
 48
0.5
100
AcDbLine
 10
158.260725
 20
84.545173
 30
0.0
 11
158.260725
 21
69.577432
 31
0.0
  0
LINE
  5
1A8
100
AcDbEntity
  8
0
  6
CENTER
 62
     1
 48
0.5
100
AcDbLine
 10
155.760725
 20
84.375085
 30
0.0
 11
155.760725
 21
70.17274
 31
0.0
  0
LINE
  5
1A9
100
AcDbEntity
  8
0
  6
CONTINUOUS
 62
     7
100
AcDbLine
 10
155.760725
 20
74.398458
 30
0.0
 11
158.260725
 21
74.398458
 31
0.0
  0
LINE
  5
1AA
100
AcDbEntity
  8
0
  6
CENTER
 62
     1
 48
0.5
100
AcDbLine
 10
157.010725
 20
85.371979
 30
0.0
 11
157.010725
 21
67.791509
 31
0.0
  0
LINE
  5
1AB
100
AcDbEntity
  8
0
  6
CONTINUOUS
 62
     7
100
AcDbLine
 10
80.849863
 20
134.538881
 30
0.0
 11
85.849859
 21
132.719032
 31
0.0
  0
LINE
  5
1AC
100
AcDbEntity
  8
0
  6
CONTINUOUS
 62
     7
100
AcDbLine
 10
85.849863
 20
132.71903
 30
0.0
 11
87.434883
 21
132.71903
 31
0.0
  0
LINE
  5
1AD
100
AcDbEntity
  8
0
  6
CONTINUOUS
 62
     7
100
AcDbLine
 10
92.349863
 20
139.538881
 30
0.0
 11
92.349863
 21
130.538881
 31
0.0
  0
LINE
  5
1AE
100
AcDbEntity
  8
0
  6
CONTINUOUS
 62
     7
100
AcDbLine
 10
91.349865
 20
140.538881
 30
0.0
 11
92.349863
 21
139.538883
 31
0.0
  0
LINE
  5
1AF
100
AcDbEntity
  8
0
  6
CONTINUOUS
 62
     7
100
AcDbLine
 10
90.9904
 20
129.538881
 30
0.0
 11
91.349863
 21
129.538881
 31
0.0
  0
LINE
  5
1B0
100
AcDbEntity
  8
0
  6
CENTER
 62
     1
 48
0.5
100
AcDbLine
 10
165.403582
 20
135.538881
 30
0.0
 11
178.617868
 21
135.538881
 31
0.0
  0
LINE
  5
1B1
100
AcDbEntity
  8
0
  6
CONTINUOUS
 62
     7
100
AcDbLine
 10
176.010725
 20
137.038881
 30
0.0
 11
176.010725
 21
134.038881
 31
0.0
  0
LINE
  5
1B2
100
AcDbEntity
  8
0
  6
CONTINUOUS
 62
     7
100
AcDbLine
 10
173.510725
 20
139.538883
 30
0.0
 11
176.010725
 21
137.038883
 31
0.0
  0
LINE
  5
1B3
100
AcDbEntity
  8
0
  6
CONTINUOUS
 62
     7
100
AcDbLine
 10
173.510725
 20
131.538885
 30
0.0
 11
176.010725
 21
134.038885
 31
0.0
  0
LINE
  5
1B4
100
AcDbEntity
  8
0
  6
CONTINUOUS
 62
     7
100
AcDbLine
 10
171.510725
 20
139.538881
 30
0.0
 11
173.510725
 21
139.538881
 31
0.0
  0
LINE
  5
1B5
100
AcDbEntity
  8
0
  6
CONTINUOUS
 62
     7
100
AcDbLine
 10
171.510725
 20
131.538881
 30
0.0
 11
173.510725
 21
131.538881
 31
0.0
  0
LINE
  5
1B6
100
AcDbEntity
  8
0
  6
CONTINUOUS
 62
     7
100
AcDbLine
 10
168.010725
 20
133.538881
 30
0.0
 11
171.010725
 21
133.538881
 31
0.0
  0
LINE
  5
1B7
100
AcDbEntity
  8
0
  6
CONTINUOUS
 62
     7
100
AcDbLine
 10
168.010725
 20
137.538881
 30
0.0
 11
171.010725
 21
137.538881
 31
0.0
  0
LINE
  5
1B8
100
AcDbEntity
  8
0
  6
CONTINUOUS
 62
     7
100
AcDbLine
 10
171.010725
 20
139.038883
 30
0.0
 11
171.510729
 21
139.538883
 31
0.0
  0
LINE
  5
1B9
100
AcDbEntity
  8
0
  6
CONTINUOUS
 62
     7
100
AcDbLine
 10
171.010725
 20
132.038883
 30
0.0
 11
171.510725
 21
131.538881
 31
0.0
  0
LINE
  5
1BA
100
AcDbEntity
  8
0
  6
CONTINUOUS
 62
     7
100
AcDbLine
 10
171.010725
 20
139.038881
 30
0.0
 11
171.010725
 21
132.038881
 31
0.0
  0
LINE
  5
1BB
100
AcDbEntity
  8
0
  6
CONTINUOUS
 62
     7
100
AcDbLine
 10
173.510725
 20
139.538881
 30
0.0
 11
173.510725
 21
131.538881
 31
0.0
  0
LINE
  5
1BC
100
AcDbEntity
  8
0
  6
CONTINUOUS
 62
     7
100
AcDbLine
 10
171.510725
 20
139.538881
 30
0.0
 11
171.510725
 21
131.538881
 31
0.0
  0
LINE
  5
1BD
100
AcDbEntity
  8
0
  6
CONTINUOUS
 62
     7
100
AcDbLine
 10
168.010725
 20
137.038881
 30
0.0
 11
171.010725
 21
137.038881
 31
0.0
  0
LINE
  5
1BE
100
AcDbEntity
  8
0
  6
CONTINUOUS
 62
     7
100
AcDbLine
 10
168.010725
 20
134.038881
 30
0.0
 11
171.010725
 21
134.038881
 31
0.0
  0
LINE
  5
1BF
100
AcDbEntity
  8
0
  6
CONTINUOUS
 62
     7
100
AcDbLine
 10
176.010725
 20
78.65661
 30
0.0
 11
176.010725
 21
75.65661
 31
0.0
  0
LINE
  5
1C0
100
AcDbEntity
  8
0
  6
CONTINUOUS
 62
     7
100
AcDbLine
 10
173.510725
 20
81.15661
 30
0.0
 11
176.010725
 21
78.65661
 31
0.0
  0
LINE
  5
1C1
100
AcDbEntity
  8
0
  6
CONTINUOUS
 62
     7
100
AcDbLine
 10
173.510725
 20
73.156612
 30
0.0
 11
176.010725
 21
75.656612
 31
0.0
  0
LINE
  5
1C2
100
AcDbEntity
  8
0
  6
CONTINUOUS
 62
     7
100
AcDbLine
 10
171.510725
 20
81.15661
 30
0.0
 11
173.510725
 21
81.15661
 31
0.0
  0
LINE
  5
1C3
100
AcDbEntity
  8
0
  6
CONTINUOUS
 62
     7
100
AcDbLine
 10
171.510725
 20
73.15661
 30
0.0
 11
173.510725
 21
73.15661
 31
0.0
  0
LINE
  5
1C4
100
AcDbEntity
  8
0
  6
CONTINUOUS
 62
     7
100
AcDbLine
 10
168.010725
 20
75.15661
 30
0.0
 11
171.010725
 21
75.15661
 31
0.0
  0
LINE
  5
1C5
100
AcDbEntity
  8
0
  6
CONTINUOUS
 62
     7
100
AcDbLine
 10
168.010725
 20
79.15661
 30
0.0
 11
171.010725
 21
79.15661
 31
0.0
  0
LINE
  5
1C6
100
AcDbEntity
  8
0
  6
CONTINUOUS
 62
     7
100
AcDbLine
 10
171.010725
 20
80.65661
 30
0.0
 11
171.510725
 21
81.156612
 31
0.0
  0
LINE
  5
1C7
100
AcDbEntity
  8
0
  6
CONTINUOUS
 62
     7
100
AcDbLine
 10
171.010725
 20
73.65661
 30
0.0
 11
171.510725
 21
73.15661
 31
0.0
  0
LINE
  5
1C8
100
AcDbEntity
  8
0
  6
CONTINUOUS
 62
     7
100
AcDbLine
 10
171.010725
 20
80.65661
 30
0.0
 11
171.010725
 21
73.65661
 31
0.0
  0
LINE
  5
1C9
100
AcDbEntity
  8
0
  6
CONTINUOUS
 62
     7
100
AcDbLine
 10
173.510725
 20
81.15661
 30
0.0
 11
173.510725
 21
73.15661
 31
0.0
  0
LINE
  5
1CA
100
AcDbEntity
  8
0
  6
CONTINUOUS
 62
     7
100
AcDbLine
 10
171.510725
 20
81.15661
 30
0.0
 11
171.510725
 21
73.15661
 31
0.0
  0
LINE
  5
1CB
100
AcDbEntity
  8
0
  6
CONTINUOUS
 62
     7
100
AcDbLine
 10
168.010725
 20
78.65661
 30
0.0
 11
171.010725
 21
78.65661
 31
0.0
  0
LINE
  5
1CC
100
AcDbEntity
  8
0
  6
CONTINUOUS
 62
     7
100
AcDbLine
 10
168.010725
 20
75.65661
 30
0.0
 11
171.010725
 21
75.65661
 31
0.0
  0
LINE
  5
1CD
100
AcDbEntity
  8
0
  6
CENTER
 62
     1
 48
0.5
100
AcDbLine
 10
165.641676
 20
77.15661
 30
0.0
 11
178.022631
 21
77.15661
 31
0.0
  0
LINE
  5
1CE
100
AcDbEntity
  8
0
  6
CONTINUOUS
 62
     7
100
AcDbLine
 10
203.996565
 20
71.65661
 30
0.0
 11
212.176714
 21
71.65661
 31
0.0
  0
LINE
  5
1CF
100
AcDbEntity
  8
0
  6
CONTINUOUS
 62
     7
100
AcDbLine
 10
213.176718
 20
82.15661
 30
0.0
 11
213.176718
 21
72.65661
 31
0.0
  0
LINE
  5
1D0
100
AcDbEntity
  8
0
  6
CONTINUOUS
 62
     7
100
AcDbLine
 10
204.176718
 20
83.15661
 30
0.0
 11
212.176718
 21
83.15661
 31
0.0
  0
LINE
  5
1D1
100
AcDbEntity
  8
0
  6
CONTINUOUS
 62
     7
100
AcDbLine
 10
212.176718
 20
83.156608
 30
0.0
 11
213.176718
 21
82.156614
 31
0.0
  0
LINE
  5
1D2
100
AcDbEntity
  8
0
  6
CONTINUOUS
 62
     7
100
AcDbLine
 10
213.176718
 20
72.656614
 30
0.0
 11
212.176714
 21
71.65661
 31
0.0
  0
LINE
  5
1D3
100
AcDbEntity
  8
0
  6
CONTINUOUS
 62
     7
100
AcDbLine
 10
204.176718
 20
83.156612
 30
0.0
 11
202.960539
 21
74.503074
 31
0.0
  0
LINE
  5
1D4
100
AcDbEntity
  8
0
  6
CONTINUOUS
 62
     7
100
AcDbLine
 10
209.09458
 20
82.222576
 30
0.0
 11
207.897696
 21
73.70627
 31
0.0
  0
LINE
  5
1D5
100
AcDbEntity
  8
0
  6
CONTINUOUS
 62
     7
100
AcDbLine
 10
129.76359
 20
71.65661
 30
0.0
 11
168.010725
 21
71.65661
 31
0.0
  0
LINE
  5
1D6
100
AcDbEntity
  8
0
  6
CONTINUOUS
 62
     7
100
AcDbLine
 10
141.641464
 20
83.15661
 30
0.0
 11
168.010725
 21
83.15661
 31
0.0
  0
LINE
  5
1D7
100
AcDbEntity
  8
0
  6
CONTINUOUS
 62
     7
100
AcDbLine
 10
142.010725
 20
83.15661
 30
0.0
 11
142.010725
 21
74.503074
 31
0.0
  0
LINE
  5
1D8
100
AcDbEntity
  8
0
  6
CONTINUOUS
 62
     7
100
AcDbLine
 10
127.410724
 20
80.869583
 30
0.0
 11
134.113149
 21
81.811546
 31
0.0
  0
LINE
  5
1D9
100
AcDbEntity
  8
0
  6
CONTINUOUS
 62
     7
100
AcDbLine
 10
127.800409
 20
78.09683
 30
0.0
 11
134.502834
 21
79.038795
 31
0.0
  0
LINE
  5
1DA
100
AcDbEntity
  8
0
  6
CONTINUOUS
 62
     7
100
AcDbLine
 10
127.943739
 20
76.65661
 30
0.0
 11
136.010725
 21
76.65661
 31
0.0
  0
LINE
  5
1DB
100
AcDbEntity
  8
0
  6
CONTINUOUS
 62
     7
100
AcDbLine
 10
136.010725
 20
82.365261
 30
0.0
 11
136.010725
 21
76.65661
 31
0.0
  0
LINE
  5
1DC
100
AcDbEntity
  8
0
  6
CENTER
 62
     1
 48
0.5
100
AcDbLine
 10
136.585711
 20
76.65661
 30
0.0
 11
141.542311
 21
76.65661
 31
0.0
  0
LINE
  5
1DD
100
AcDbEntity
  8
0
  6
CENTER
 62
     1
 48
0.5
100
AcDbLine
 10
139.010725
 20
79.221481
 30
0.0
 11
139.010725
 21
73.686609
 31
0.0
  0
LINE
  5
1DE
100
AcDbEntity
  8
0
  6
CENTER
 62
     1
 48
0.5
100
AcDbLine
 10
129.826344
 20
134.138881
 30
0.0
 11
136.195106
 21
134.138881
 31
0.0
  0
LINE
  5
1DF
100
AcDbEntity
  8
0
  6
CENTER
 62
     1
 48
0.5
100
AcDbLine
 10
133.010725
 20
137.323263
 30
0.0
 11
133.010725
 21
130.9545
 31
0.0
  0
LINE
  5
1E0
100
AcDbEntity
  8
0
  6
CONTINUOUS
 62
     7
100
AcDbLine
 10
88.022345
 20
128.538881
 30
0.0
 11
90.849859
 21
128.538881
 31
0.0
  0
LINE
  5
1E1
100
AcDbEntity
  8
0
  6
CONTINUOUS
 62
     7
100
AcDbLine
 10
88.024445
 20
139.76774
 30
0.0
 11
90.851959
 21
139.76774
 31
0.0
  0
LINE
  5
1E2
100
AcDbEntity
  8
0
  6
CONTINUOUS
 62
     7
100
AcDbLine
 10
85.849863
 20
129.538881
 30
0.0
 11
87.881809
 21
129.538881
 31
0.0
  0
LINE
  5
1E3
100
AcDbEntity
  8
0
  6
CONTINUOUS
 62
     7
100
AcDbLine
 10
203.996572
 20
71.656612
 30
0.0
 11
202.960539
 21
74.503076
 31
0.0
  0
LINE
  5
1E4
100
AcDbEntity
  8
0
  6
CONTINUOUS
 62
     7
100
AcDbLine
 10
142.010725
 20
74.503074
 30
0.0
 11
154.775782
 21
74.503074
 31
0.0
  0
LINE
  5
1E5
100
AcDbEntity
  8
0
  6
CONTINUOUS
 62
     7
100
AcDbLine
 10
159.245668
 20
74.503074
 30
0.0
 11
168.010725
 21
74.503074
 31
0.0
  0
LINE
  5
1E7
100
AcDbEntity
  8
0
  6
CONTINUOUS
 62
     7
100
AcDbLine
 10
142.210725
 20
130.308
 30
0.0
 11
168.085928
 21
130.308
 31
0.0
  0
LINE
  5
1E8
100
AcDbEntity
  8
0
  6
CONTINUOUS
 62
     7
100
AcDbLine
 10
136.010725
 20
129.538881
 30
0.0
 11
142.010724
 21
130.063814
 31
0.0
  0
LINE
  5
1EA
100
AcDbEntity
  8
0
  6
CONTINUOUS
 62
     7
100
AcDbLine
 10
133.40041
 20
78.883859
 30
0.0
 11
133.010725
 21
81.65661
 31
0.0
  0
LINE
  5
1EB
100
AcDbEntity
  8
0
  6
CONTINUOUS
 62
     7
100
AcDbLine
 10
136.010724
 20
76.65661
 30
0.0
 11
137.325557
 21
76.184686
 31
0.0
  0
LINE
  5
1EC
100
AcDbEntity
  8
0
  6
CONTINUOUS
 62
     7
100
AcDbLine
 10
140.011151
 20
75.220766
 30
0.0
 11
142.010725
 21
74.503074
 31
0.0
  0
LINE
  5
1ED
100
AcDbEntity
  8
0
  6
CONTINUOUS
 62
     7
100
AcDbLine
 10
127.410724
 20
134.138881
 30
0.0
 11
133.810724
 21
140.538881
 31
0.0
  0
LINE
  5
1EE
100
AcDbEntity
  8
0
  6
CONTINUOUS
 62
     7
100
AcDbLine
 10
133.025152
 20
139.753311
 30
0.0
 11
138.625153
 21
134.153309
 31
0.0
  0
LINE
  5
1EF
100
AcDbEntity
  8
0
  6
CONTINUOUS
 62
     7
100
AcDbLine
 10
127.800409
 20
78.09683
 30
0.0
 11
127.410724
 21
80.869583
 31
0.0
  0
LINE
  5
1F0
100
AcDbEntity
  8
0
  6
CONTINUOUS
 62
     7
100
AcDbLine
 10
133.025152
 20
81.945667
 30
0.0
 11
141.641463
 21
83.15661
 31
0.0
  0
LINE
  5
1F1
100
AcDbEntity
  8
0
  6
CONTINUOUS
 62
     7
100
AcDbLine
 10
133.025152
 20
81.945667
 30
0.0
 11
133.06471
 21
81.664197
 31
0.0
  0
LINE
  5
1F2
100
AcDbEntity
  8
0
  6
CONTINUOUS
 62
     7
100
AcDbLine
 10
141.641464
 20
139.591703
 30
0.0
 11
141.641464
 21
130.031507
 31
0.0
  0
LINE
  5
1F3
100
AcDbEntity
  8
0
  6
CONTINUOUS
 62
     7
100
AcDbLine
 10
134.502834
 20
79.038795
 30
0.0
 11
134.073591
 21
82.093015
 31
0.0
  0
LINE
  5
1F4
100
AcDbEntity
  8
0
  6
CONTINUOUS
 62
     7
100
AcDbLine
 10
141.641463
 20
139.591703
 30
0.0
 11
133.810724
 21
140.538881
 31
0.0
  0
LINE
  5
1F5
100
AcDbEntity
  8
0
  6
CENTER
 62
     1
 48
0.5
100
AcDbLine
 10
217.344969
 20
76.7208
 30
0.0
 11
199.543142
 21
79.222684
 31
0.0
  0
LINE
  5
1F6
100
AcDbEntity
  8
0
  6
CONTINUOUS
 62
     7
100
AcDbLine
 10
209.09458
 20
82.222576
 30
0.0
 11
204.14324
 21
82.918441
 31
0.0
  0
LINE
  5
1F7
100
AcDbEntity
  8
0
  6
CONTINUOUS
 62
     7
100
AcDbLine
 10
207.897696
 20
73.70627
 30
0.0
 11
203.000029
 21
74.394594
 31
0.0
  0
LINE
  5
1F8
100
AcDbEntity
  8
0
  6
CONTINUOUS
 62
     7
100
AcDbLine
 10
213.176718
 20
79.982654
 30
0.0
 11
208.86495
 21
80.588634
 31
0.0
  0
LINE
  5
1F9
100
AcDbEntity
  8
0
  6
CONTINUOUS
 62
     7
100
AcDbLine
 10
213.176718
 20
74.630567
 30
0.0
 11
208.127333
 21
75.340213
 31
0.0
  0
LINE
  5
1FA
100
AcDbEntity
  8
0
  6
CONTINUOUS
 62
     7
100
AcDbLine
 10
155.760725
 20
74.394592
 30
0.0
 11
158.260725
 21
74.394592
 31
0.0
  0
LINE
  5
1FB
100
AcDbEntity
  8
0
  6
CONTINUOUS
 62
     7
100
AcDbLine
 10
155.760725
 20
75.371627
 30
0.0
 11
158.260725
 21
75.371627
 31
0.0
  0
LINE
  5
1FC
100
AcDbEntity
  8
0
  6
CONTINUOUS
 62
     7
100
AcDbLine
 10
155.760725
 20
79.982652
 30
0.0
 11
158.260725
 21
79.982652
 31
0.0
  0
LINE
  5
1FD
100
AcDbEntity
  8
0
  6
CONTINUOUS
 62
     7
100
AcDbLine
 10
155.760725
 20
80.588632
 30
0.0
 11
158.260725
 21
80.588632
 31
0.0
  0
LINE
  5
1FE
100
AcDbEntity
  8
0
  6
CONTINUOUS
 62
     7
100
AcDbLine
 10
155.760725
 20
82.222576
 30
0.0
 11
158.260725
 21
82.222576
 31
0.0
  0
LINE
  5
1FF
100
AcDbEntity
  8
0
  6
CONTINUOUS
 62
     7
100
AcDbLine
 10
155.760725
 20
82.918441
 30
0.0
 11
158.260725
 21
82.918441
 31
0.0
  0
LINE
  5
200
100
AcDbEntity
  8
0
  6
CONTINUOUS
 62
     7
100
AcDbLine
 10
87.235344
 20
134.138881
 30
0.0
 11
90.062859
 21
134.138881
 31
0.0
  0
LINE
  5
201
100
AcDbEntity
  8
0
  6
CONTINUOUS
 62
     7
100
AcDbLine
 10
90.062859
 20
134.138881
 30
0.0
 11
90.849859
 21
128.538881
 31
0.0
  0
LINE
  5
202
100
AcDbEntity
  8
0
  6
CONTINUOUS
 62
     7
100
AcDbLine
 10
87.235344
 20
134.138883
 30
0.0
 11
88.022345
 21
128.53888
 31
0.0
  0
LINE
  5
203
100
AcDbEntity
  8
0
  6
CONTINUOUS
 62
     7
100
AcDbLine
 10
90.851959
 20
139.76774
 30
0.0
 11
91.63896
 21
134.167738
 31
0.0
  0
LINE
  5
204
100
AcDbEntity
  8
0
  6
CONTINUOUS
 62
     7
100
AcDbLine
 10
90.06286
 20
134.138881
 30
0.0
 11
90.960064
 21
140.538881
 31
0.0
  0
LINE
  5
205
100
AcDbEntity
  8
0
  6
CONTINUOUS
 62
     7
100
AcDbLine
 10
87.235344
 20
134.138883
 30
0.0
 11
88.024445
 21
139.76774
 31
0.0
  0
LINE
  5
206
100
AcDbEntity
  8
0
  6
CONTINUOUS
 62
     7
100
AcDbLine
 10
90.849859
 20
128.538881
 30
0.0
 11
91.638958
 21
134.16774
 31
0.0
  0
LINE
  5
207
100
AcDbEntity
  8
0
  6
CONTINUOUS
 62
     7
100
AcDbLine
 10
91.349863
 20
129.538881
 30
0.0
 11
92.349863
 21
130.538881
 31
0.0
  0
LINE
  5
208
100
AcDbEntity
  8
0
  6
CONTINUOUS
 62
     7
100
AcDbLine
 10
127.800409
 20
78.09683
 30
0.0
 11
127.943739
 21
76.65661
 31
0.0
  0
LINE
  5
209
100
AcDbEntity
  8
0
  6
CONTINUOUS
 62
     7
100
AcDbLine
 10
127.94374
 20
76.65661
 30
0.0
 11
129.763591
 21
71.656612
 31
0.0
  0
ARC
  5
20A
100
AcDbEntity
  8
0
  6
CONTINUOUS
 62
     7
100
AcDbCircle
 10
142.810724
 20
130.738882
 30
0.0
 40
0.8
100
AcDbArc
 50
90.000003
 51
180.00001
  0
CIRCLE
  5
20B
100
AcDbEntity
  8
0
  6
CONTINUOUS
 62
     7
100
AcDbCircle
 10
133.010725
 20
134.138881
 30
0.0
 40
1.575
  0
CIRCLE
  5
20C
100
AcDbEntity
  8
0
  6
CONTINUOUS
 62
     7
100
AcDbCircle
 10
139.010725
 20
76.65661
 30
0.0
 40
2.0
  0
CIRCLE
  5
20D
100
AcDbEntity
  8
0
  6
CONTINUOUS
 62
     7
100
AcDbCircle
 10
139.010725
 20
76.65661
 30
0.0
 40
1.75
  0
ARC
  5
20E
100
AcDbEntity
  8
0
  6
CONTINUOUS
 62
     7
100
AcDbCircle
 10
142.210725
 20
130.108001
 30
0.0
 40
0.2
100
AcDbArc
 50
90.000003
 51
180.00001
  0
ARC
  5
20F
100
AcDbEntity
  8
0
  6
CONTINUOUS
 62
     7
100
AcDbCircle
 10
137.21094
 20
135.567524
 30
0.0
 40
2.0
100
AcDbArc
 50
315.0
 51
135.0
  0
LWPOLYLINE
  5
210
100
AcDbEntity
  8
0
  6
CONTINUOUS
 62
     7
100
AcDbPolyline
 90
       17
 70
     0
 43
0.0
 10
155.760725
 20
82.918441
 42
0.048431
 10
154.926408
 20
82.837448
 42
0.048575
 10
154.122509
 20
82.59702
 42
0.048755
 10
153.380193
 20
82.205739
 42
0.048991
 10
152.727902
 20
81.6778
 42
0.049259
 10
152.191006
 20
81.032601
 42
0.04951
 10
151.79097
 20
80.29447
 42
0.049697
 10
151.544153
 20
79.491974
 42
0.049799
 10
151.460726
 20
78.656517
 42
0.049757
 10
151.544015
 20
77.821744
 42
0.049651
 10
151.790396
 20
77.019931
 42
0.049484
 10
152.189925
 20
76.282029
 42
0.049246
 10
152.726365
 20
75.63675
 42
0.049001
 10
153.378532
 20
75.108388
 42
0.04878
 10
154.121069
 20
74.716602
 42
0.048607
 10
154.925419
 20
74.475779
 42
0.048489
 10
155.760725
 20
74.394592
  0
LWPOLYLINE
  5
223
100
AcDbEntity
  8
0
  6
CONTINUOUS
 62
     7
100
AcDbPolyline
 90
       17
 70
     0
 43
0.0
 10
155.760725
 20
82.222576
 42
0.02067
 10
155.370886
 20
82.206457
 42
0.020786
 10
154.983178
 20
82.158055
 42
0.020963
 10
154.600829
 20
82.077493
 42
0.021222
 10
154.226654
 20
81.965019
 42
0.021566
 10
153.863462
 20
81.820989
 42
0.021991
 10
153.514161
 20
81.645911
 42
0.02249
 10
153.181766
 20
81.440488
 42
0.023054
 10
152.869402
 20
81.205671
 42
0.023669
 10
152.580279
 20
80.942717
 42
0.024318
 10
152.317658
 20
80.653252
 42
0.024977
 10
152.084787
 20
80.339332
 42
0.025618
 10
151.88481
 20
80.003491
 42
0.026209
 10
151.720656
 20
79.648768
 42
0.026716
 10
151.594905
 20
79.27871
 42
0.027105
 10
151.50965
 20
78.897322
 42
0.02735
 10
151.466366
 20
78.508983
  0
LWPOLYLINE
  5
236
100
AcDbEntity
  8
0
  6
CONTINUOUS
 62
     7
100
AcDbPolyline
 90
       17
 70
     0
 43
0.0
 10
155.760725
 20
80.588632
 42
0.047952
 10
155.248154
 20
80.539372
 42
0.048126
 10
154.754312
 20
80.393197
 42
0.048468
 10
154.297362
 20
80.154847
 42
0.048882
 10
153.895079
 20
79.832644
 42
0.049348
 10
153.563287
 20
79.438073
 42
0.049788
 10
153.315595
 20
78.985815
 42
0.050123
 10
153.162533
 20
78.493401
 42
0.050328
 10
153.110725
 20
77.980131
 42
0.050183
 10
153.162236
 20
77.468316
 42
0.05007
 10
153.314796
 20
76.97633
 42
0.049845
 10
153.562461
 20
76.523395
 42
0.049334
 10
153.89392
 20
76.128748
 42
0.048892
 10
154.29608
 20
75.806249
 42
0.048494
 10
154.753137
 20
75.567538
 42
0.048189
 10
155.247569
 20
75.421001
 42
0.048008
 10
155.760725
 20
75.371627
  0
LWPOLYLINE
  5
249
100
AcDbEntity
  8
0
  6
CONTINUOUS
 62
     7
100
AcDbPolyline
 90
       17
 70
     0
 43
0.0
 10
155.760725
 20
79.982652
 42
0.019046
 10
155.529112
 20
79.973829
 42
0.019158
 10
155.298776
 20
79.947352
 42
0.01937
 10
155.07118
 20
79.903235
 42
0.01969
 10
154.847728
 20
79.841501
 42
0.02012
 10
154.629887
 20
79.762195
 42
0.020659
 10
154.419211
 20
79.665408
 42
0.021305
 10
154.217365
 20
79.551297
 42
0.022052
 10
154.026135
 20
79.420126
 42
0.022891
 10
153.847427
 20
79.27231
 42
0.023805
 10
153.683264
 20
79.108465
 42
0.024767
 10
153.535755
 20
78.929466
 42
0.02574
 10
153.407044
 20
78.736507
 42
0.026677
 10
153.299234
 20
78.531148
 42
0.02752
 10
153.214282
 20
78.315351
 42
0.028207
 10
153.15387
 20
78.091473
 42
0.028681
 10
153.119278
 20
77.862221
  0
LWPOLYLINE
  5
25C
100
AcDbEntity
  8
0
  6
CONTINUOUS
 62
     7
100
AcDbPolyline
 90
       17
 70
     0
 43
0.0
 10
158.260725
 20
79.982652
 42
-0.019046
 10
158.492338
 20
79.973829
 42
-0.019158
 10
158.722674
 20
79.947352
 42
-0.01937
 10
158.95027
 20
79.903235
 42
-0.01969
 10
159.173722
 20
79.841501
 42
-0.02012
 10
159.391563
 20
79.762195
 42
-0.020659
 10
159.602239
 20
79.665408
 42
-0.021305
 10
159.804085
 20
79.551297
 42
-0.022052
 10
159.995315
 20
79.420126
 42
-0.022891
 10
160.174023
 20
79.27231
 42
-0.023805
 10
160.338186
 20
79.108465
 42
-0.024767
 10
160.485695
 20
78.929466
 42
-0.02574
 10
160.614406
 20
78.736507
 42
-0.026677
 10
160.722216
 20
78.531148
 42
-0.02752
 10
160.807168
 20
78.315351
 42
-0.028207
 10
160.86758
 20
78.091473
 42
-0.028681
 10
160.902172
 20
77.862221
  0
LWPOLYLINE
  5
26F
100
AcDbEntity
  8
0
  6
CONTINUOUS
 62
     7
100
AcDbPolyline
 90
       17
 70
     0
 43
0.0
 10
158.260725
 20
80.588632
 42
-0.047952
 10
158.773296
 20
80.539372
 42
-0.048126
 10
159.267138
 20
80.393197
 42
-0.048468
 10
159.724088
 20
80.154847
 42
-0.048882
 10
160.126371
 20
79.832644
 42
-0.049348
 10
160.458163
 20
79.438073
 42
-0.049788
 10
160.705855
 20
78.985815
 42
-0.050123
 10
160.858917
 20
78.493401
 42
-0.050328
 10
160.910725
 20
77.980131
 42
-0.050183
 10
160.859214
 20
77.468316
 42
-0.05007
 10
160.706654
 20
76.97633
 42
-0.049845
 10
160.458989
 20
76.523395
 42
-0.049334
 10
160.12753
 20
76.128748
 42
-0.048892
 10
159.72537
 20
75.806249
 42
-0.048494
 10
159.268313
 20
75.567538
 42
-0.048189
 10
158.773881
 20
75.421001
 42
-0.048008
 10
158.260725
 20
75.371627
  0
LWPOLYLINE
  5
282
100
AcDbEntity
  8
0
  6
CONTINUOUS
 62
     7
100
AcDbPolyline
 90
       17
 70
     0
 43
0.0
 10
158.260725
 20
82.222576
 42
-0.02067
 10
158.650564
 20
82.206457
 42
-0.020786
 10
159.038272
 20
82.158055
 42
-0.020963
 10
159.420621
 20
82.077493
 42
-0.021222
 10
159.794796
 20
81.965019
 42
-0.021566
 10
160.157988
 20
81.820989
 42
-0.021991
 10
160.507289
 20
81.645911
 42
-0.02249
 10
160.839684
 20
81.440488
 42
-0.023054
 10
161.152048
 20
81.205671
 42
-0.023669
 10
161.441171
 20
80.942717
 42
-0.024318
 10
161.703792
 20
80.653252
 42
-0.024977
 10
161.936663
 20
80.339332
 42
-0.025618
 10
162.13664
 20
80.003491
 42
-0.026209
 10
162.300794
 20
79.648768
 42
-0.026716
 10
162.426545
 20
79.27871
 42
-0.027105
 10
162.5118
 20
78.897322
 42
-0.02735
 10
162.555084
 20
78.508983
  0
LWPOLYLINE
  5
295
100
AcDbEntity
  8
0
  6
CONTINUOUS
 62
     7
100
AcDbPolyline
 90
       17
 70
     0
 43
0.0
 10
158.260725
 20
82.918441
 42
-0.048431
 10
159.095042
 20
82.837448
 42
-0.048575
 10
159.898941
 20
82.59702
 42
-0.048755
 10
160.641257
 20
82.205739
 42
-0.048991
 10
161.293548
 20
81.6778
 42
-0.049259
 10
161.830444
 20
81.032601
 42
-0.04951
 10
162.23048
 20
80.29447
 42
-0.049697
 10
162.477297
 20
79.491974
 42
-0.049799
 10
162.560724
 20
78.656517
 42
-0.049757
 10
162.477435
 20
77.821744
 42
-0.049651
 10
162.231054
 20
77.019931
 42
-0.049484
 10
161.831525
 20
76.282029
 42
-0.049246
 10
161.295085
 20
75.63675
 42
-0.049001
 10
160.642918
 20
75.108388
 42
-0.04878
 10
159.900381
 20
74.716602
 42
-0.048607
 10
159.096031
 20
74.475779
 42
-0.048489
 10
158.260725
 20
74.394592
  0
LWPOLYLINE
  5
2A8
100
AcDbEntity
  8
0
  6
CONTINUOUS
 62
     7
100
AcDbPolyline
 90
       16
 70
     1
 43
0.0
 10
157.010725
 20
131.505407
 42
0.006735
 10
155.600092
 20
131.486635
 42
0.008336
 10
154.190207
 20
131.42609
 42
0.014477
 10
152.784399
 20
131.304295
 42
0.124045
 10
151.460726
 20
130.933799
 42
0.123941
 10
152.78414
 20
130.563334
 42
0.014475
 10
154.189258
 20
130.441565
 42
0.008336
 10
155.598695
 20
130.380999
 42
0.006742
 10
157.010725
 20
130.36219
 42
0.006735
 10
158.421358
 20
130.380962
 42
0.008336
 10
159.831243
 20
130.441508
 42
0.014477
 10
161.237051
 20
130.563303
 42
0.124045
 10
162.560724
 20
130.933799
 42
0.123941
 10
161.23731
 20
131.304264
 42
0.014475
 10
159.832192
 20
131.426032
 42
0.008336
 10
158.422755
 20
131.486598
 42
0.006742
  0
LINE
  5
2BA
100
AcDbEntity
  8
0
  6
CONTINUOUS
 62
     7
100
AcDbLine
 10
211.271107
 20
71.65661
 30
0.0
 11
213.176718
 21
73.562225
 31
0.0
  0
LINE
  5
2BB
100
AcDbEntity
  8
0
  6
CONTINUOUS
 62
     7
100
AcDbLine
 10
209.026045
 20
71.65661
 30
0.0
 11
212.144995
 21
74.775566
 31
0.0
  0
LINE
  5
2BC
100
AcDbEntity
  8
0
  6
CONTINUOUS
 62
     7
100
AcDbLine
 10
206.780983
 20
71.65661
 30
0.0
 11
210.176576
 21
75.052209
 31
0.0
  0
LINE
  5
2BD
100
AcDbEntity
  8
0
  6
CONTINUOUS
 62
     7
100
AcDbLine
 10
204.535923
 20
71.656611
 30
0.0
 11
206.74726
 21
73.867953
 31
0.0
  0
LINE
  5
2BE
100
AcDbEntity
  8
0
  6
CONTINUOUS
 62
     7
100
AcDbLine
 10
208.112259
 20
75.232954
 30
0.0
 11
208.208156
 21
75.328852
 31
0.0
  0
LINE
  5
2BF
100
AcDbEntity
  8
0
  6
CONTINUOUS
 62
     7
100
AcDbLine
 10
203.541409
 20
72.907162
 30
0.0
 11
204.778841
 21
74.144596
 31
0.0
  0
LINE
  5
2C0
100
AcDbEntity
  8
0
  6
CONTINUOUS
 62
     7
100
AcDbLine
 10
212.900734
 20
80.021439
 30
0.0
 11
213.176718
 21
80.297424
 31
0.0
  0
LINE
  5
2C1
100
AcDbEntity
  8
0
  6
CONTINUOUS
 62
     7
100
AcDbLine
 10
210.932315
 20
80.298083
 30
0.0
 11
212.983778
 21
82.34955
 31
0.0
  0
LINE
  5
2C2
100
AcDbEntity
  8
0
  6
CONTINUOUS
 62
     7
100
AcDbLine
 10
208.963896
 20
80.574726
 30
0.0
 11
211.545773
 21
83.156608
 31
0.0
  0
LINE
  5
2C3
100
AcDbEntity
  8
0
  6
CONTINUOUS
 62
     7
100
AcDbLine
 10
208.456374
 20
82.31227
 30
0.0
 11
209.300712
 21
83.156609
 31
0.0
  0
LINE
  5
2C4
100
AcDbEntity
  8
0
  6
CONTINUOUS
 62
     7
100
AcDbLine
 10
206.487955
 20
82.588913
 30
0.0
 11
207.055651
 21
83.156609
 31
0.0
  0
LINE
  5
2C5
100
AcDbEntity
  8
0
  6
CONTINUOUS
 62
     7
100
AcDbLine
 10
204.519536
 20
82.865556
 30
0.0
 11
204.81059
 21
83.15661
 31
0.0
  0
TEXT
  5
2C6
100
AcDbEntity
  8
0
  6
CONTINUOUS
100
AcDbText
 10
138.0018
 20
39.771083
 30
0.0
 40
6.0
  1
ＢＵ１４３Ｒ
100
AcDbText
  0
LINE
  5
2E9
102
{ACAD_REACTORS
330
2F3
102
}
100
AcDbEntity
  8
寸法
 62
     1
100
AcDbLine
 10
218.335237
 20
76.581627
 30
0.0
 11
232.533506
 21
74.586191
 31
0.0
  0
LINE
  5
2EA
102
{ACAD_REACTORS
330
2F3
102
}
100
AcDbEntity
  8
寸法
 62
     1
100
AcDbLine
 10
213.176718
 20
77.30661
 30
0.0
 11
232.723736
 21
77.30661
 31
0.0
  0
ARC
  5
2EB
102
{ACAD_REACTORS
330
2F3
102
}
100
AcDbEntity
  8
寸法
 62
     1
100
AcDbCircle
 10
213.176718
 20
77.30661
 30
0.0
 40
18.547018
100
AcDbArc
 50
339.619053
 51
351.999999
  0
LINE
  5
2EC
102
{ACAD_REACTORS
330
2F3
102
}
100
AcDbEntity
  8
寸法
 62
     1
100
AcDbLine
 10
230.562653
 20
70.847419
 30
0.0
 11
227.567614
 21
62.785798
 31
0.0
  0
ARC
  5
2ED
102
{ACAD_REACTORS
330
2F3
102
}
100
AcDbEntity
  8
寸法
 62
     1
100
AcDbCircle
 10
213.176718
 20
77.30661
 30
0.0
 40
18.547018
100
AcDbArc
 50
339.637132
 51
345.818566
  0
ARC
  5
2EE
102
{ACAD_REACTORS
330
2F3
102
}
100
AcDbEntity
  8
寸法
 62
     1
100
AcDbCircle
 10
213.176718
 20
77.30661
 30
0.0
 40
18.547018
100
AcDbArc
 50
6.181433
 51
12.362867
  0
ARC
  5
2EF
102
{ACAD_REACTORS
330
2F3
102
}
100
AcDbEntity
  8
寸法
 62
     1
100
AcDbCircle
 10
213.176718
 20
77.30661
 30
0.0
 40
18.547018
100
AcDbArc
 50
351.999999
 51
0.0
  0
INSERT
  5
2F0
102
{ACAD_REACTORS
330
2F3
102
}
100
AcDbEntity
  8
寸法
 62
     1
100
AcDbBlockReference
  2
_OPEN30
 10
231.543238
 20
74.725364
 30
0.0
 41
2.0
 42
2.0
 43
2.0
 50
78.909282
  0
INSERT
  5
2F1
102
{ACAD_REACTORS
330
2F3
102
}
100
AcDbEntity
  8
寸法
 62
     1
100
AcDbBlockReference
  2
_OPEN30
 10
231.723736
 20
77.30661
 30
0.0
 41
2.0
 42
2.0
 43
2.0
 50
273.090717
  0
MTEXT
  5
2F2
102
{ACAD_REACTORS
330
2F3
102
}
100
AcDbEntity
  8
寸法
 62
     1
100
AcDbMText
 10
226.721639
 20
67.687259
 30
0.0
 40
3.0
 41
0.0
 71
     5
 72
     1
  1
\A1;8°
 11
0.34826
 21
0.937398
 31
0.0
1001
ACAD
1000
MTEXTBEGIN
1070
    73
1070
     1
1070
    44
1040
1.0
1070
    74
1070
     0
1000
MTEXTEND
1000
MTEXTBEGIN
1070
    73
1070
     1
1070
    44
1040
1.0
1070
    74
1070
     0
1000
MTEXTEND
  0
DIMENSION
  5
2F4
100
AcDbEntity
  8
寸法
100
AcDbDimension
  2
*D2
 10
220.0
 20
71.65661
 30
0.0
 11
217.5
 21
62.15661
 31
0.0
 70
    32
  3
STANDARD
100
AcDbAlignedDimension
 13
213.176718
 23
77.30661
 33
0.0
 14
212.176714
 24
71.65661
 34
0.0
 50
90.0
100
AcDbRotatedDimension
  0
DIMENSION
  5
30E
100
AcDbEntity
  8
寸法
100
AcDbDimension
  2
*D3
 10
157.010725
 20
90.0
 30
0.0
 11
166.510725
 21
92.5
 31
0.0
 70
    32
  3
STANDARD
100
AcDbAlignedDimension
 13
176.010725
 23
78.65661
 33
0.0
 14
157.010725
 24
85.371979
 34
0.0
100
AcDbRotatedDimension
  0
DIMENSION
  5
31B
100
AcDbEntity
  8
寸法
100
AcDbDimension
  2
*D4
 10
190.0
 20
71.65661
 30
0.0
 11
187.5
 21
77.40661
 31
0.0
 70
    32
  3
STANDARD
100
AcDbAlignedDimension
 13
168.010725
 23
83.15661
 33
0.0
 14
168.010725
 24
71.65661
 34
0.0
 50
90.0
100
AcDbRotatedDimension
  0
DIMENSION
  5
328
100
AcDbEntity
  8
寸法
100
AcDbDimension
  2
*D5
 10
155.760725
 20
60.0
 30
0.0
 11
147.760725
 21
62.5
 31
0.0
 70
    32
  3
STANDARD
100
AcDbAlignedDimension
 13
158.260725
 23
69.577432
 33
0.0
 14
155.760725
 24
70.17274
 34
0.0
100
AcDbRotatedDimension
  0
DIMENSION
  5
345
100
AcDbEntity
  8
寸法
100
AcDbDimension
  2
*D6
 10
120.0
 20
80.869583
 30
0.0
 11
117.5
 21
76.263098
 31
0.0
 70
    32
  1
9.2
  3
STANDARD
100
AcDbAlignedDimension
 13
129.763591
 23
71.656612
 33
0.0
 14
127.410724
 24
80.869583
 34
0.0
 50
90.0
100
AcDbRotatedDimension
  0
DIMENSION
  5
35C
100
AcDbEntity
  8
寸法
100
AcDbDimension
  2
*D7
 10
168.010725
 20
83.15661
 30
0.0
 11
112.819518
 21
89.29973
 31
0.0
 70
    34
  3
STANDARD
100
AcDb2LineAngularDimension
 13
127.410724
 23
80.869583
 33
0.0
 14
134.113149
 24
81.811546
 34
0.0
 15
141.641464
 25
83.15661
 35
0.0
 16
110.155046
 26
80.026572
 36
0.0
1001
ACAD
1000
DSTYLE
1002
{
1070
   271
1070
     0
1070
   271
1070
     0
1002
}
  0
DIMENSION
  5
37A
100
AcDbEntity
  8
寸法
100
AcDbDimension
  2
*D8
 10
168.010725
 20
120.0
 30
0.0
 11
172.010725
 21
122.5
 31
0.0
 70
    32
  3
STANDARD
100
AcDbAlignedDimension
 13
176.010725
 23
134.038881
 33
0.0
 14
168.010725
 24
130.322704
 34
0.0
100
AcDbRotatedDimension
1001
ACAD
1000
DSTYLE
1002
{
1070
   287
1070
     4
1070
   287
1070
     4
1070
   279
1070
     1
1002
}
  0
DIMENSION
  5
390
100
AcDbEntity
  8
寸法
100
AcDbDimension
  2
*D9
 10
133.010725
 20
128.538881
 30
0.0
 11
133.670245
 21
117.485141
 31
0.0
 70
    34
  3
STANDARD
100
AcDb2LineAngularDimension
 13
134.073591
 23
129.538881
 33
0.0
 14
136.010725
 24
129.538881
 34
0.0
 15
127.410724
 25
134.138881
 35
0.0
 16
144.757183
 26
126.123478
 36
0.0
1001
ACAD
1000
DSTYLE
1002
{
1070
   271
1070
     0
1070
   271
1070
     0
1002
}
  0
DIMENSION
  5
3A1
100
AcDbEntity
  8
寸法
100
AcDbDimension
  2
*D10
 10
120.0
 20
140.538881
 30
0.0
 11
117.5
 21
134.538881
 31
0.0
 70
    32
  3
STANDARD
100
AcDbAlignedDimension
 13
133.010725
 23
128.538881
 33
0.0
 14
133.810724
 24
140.538881
 34
0.0
 50
90.0
100
AcDbRotatedDimension
  0
ARC
  5
3B6
100
AcDbEntity
  8
0
  6
CENTER
 62
     1
 48
0.5
100
AcDbCircle
 10
88.022345
 20
146.295576
 30
0.0
 40
15.000605
100
AcDbArc
 50
179.485427
 51
0.514573
  0
LINE
  5
3BC
100
AcDbEntity
  8
0
  6
CENTER
 62
     1
 48
0.5
100
AcDbLine
 10
88.022345
 20
146.430294
 30
0.0
 11
89.581684
 21
128.606963
 31
0.0
  0
DIMENSION
  5
3CE
100
AcDbEntity
  8
寸法
100
AcDbDimension
  2
*D11
 10
88.022345
 20
146.295576
 30
0.0
 11
82.529411
 21
143.312667
 31
0.0
 70
   164
  1
%%c30
  3
STANDARD
100
AcDbRadialDimension
 15
74.840049
 25
139.136999
 35
0.0
 40
0.0
1001
ACAD
1000
DSTYLE
1002
{
1070
   288
1070
     1
1002
}
  0
LINE
  5
3DD
100
AcDbEntity
  8
0
  6
CENTER
 62
     1
 48
0.5
100
AcDbLine
 10
88.022345
 20
146.430294
 30
0.0
 11
88.022345
 21
128.53888
 31
0.0
  0
DIMENSION
  5
3DE
100
AcDbEntity
  8
寸法
100
AcDbDimension
  2
*D12
 10
88.022345
 20
128.53888
 30
0.0
 11
80.149789
 21
122.829503
 31
0.0
 70
    34
  3
STANDARD
100
AcDb2LineAngularDimension
 13
88.022345
 23
146.430294
 33
0.0
 14
89.581684
 24
128.606963
 34
0.0
 15
88.022345
 25
146.430294
 35
0.0
 16
89.592533
 26
119.471197
 36
0.0
1001
ACAD
1000
DSTYLE
1002
{
1070
   271
1070
     0
1070
   271
1070
     0
1002
}
  0
DIMENSION
  5
3F1
100
AcDbEntity
  8
寸法
100
AcDbDimension
  2
*D13
 10
176.010725
 20
110.0
 30
0.0
 11
151.710725
 21
112.5
 31
0.0
 70
    32
  1
49
  3
STANDARD
100
AcDbAlignedDimension
 13
127.410724
 23
134.138881
 33
0.0
 14
176.010725
 24
134.038885
 34
0.0
100
AcDbRotatedDimension
  0
ENDSEC
  0
SECTION
  2
OBJECTS
  0
DICTIONARY
  5
C
100
AcDbDictionary
  3
ACAD_GROUP
350
D
  3
ACAD_LAYOUT
350
2CB
  3
ACAD_MLINESTYLE
350
1B
  3
ACAD_PLOTSETTINGS
350
2CC
  3
ACAD_PLOTSTYLENAME
350
2C9
  3
ACDBHEADERROUNDTRIPXREC
350
470
  3
ACDBVARIABLEDICTIONARY
350
33
  3
CONTENTDICTIONARY
350
23
  0
DICTIONARY
  5
46C
100
AcDbDictionary
280
     1
  3
ACAD_XREC_ROUNDTRIP
360
46D
  0
DICTIONARY
  5
493
100
AcDbDictionary
280
     1
  3
ACAD_XREC_ROUNDTRIP
360
494
  0
DICTIONARY
  5
42F
100
AcDbDictionary
280
     1
  3
ACAD_LAYOUTSELFREF
360
492
  0
DICTIONARY
  5
42D
100
AcDbDictionary
280
     1
  3
ACAD_LAYOUTSELFREF
360
491
  0
DICTIONARY
  5
D
102
{ACAD_REACTORS
330
C
102
}
100
AcDbDictionary
  3
*A1
350
2F3
  0
DICTIONARY
  5
2CB
102
{ACAD_XDICTIONARY
360
495
102
}
102
{ACAD_REACTORS
330
C
102
}
100
AcDbDictionary
  3
MODEL
350
2CD
  3
ﾚｲｱｳﾄ1
350
2CE
  0
DICTIONARY
  5
1B
102
{ACAD_REACTORS
330
C
102
}
100
AcDbDictionary
  3
STANDARD
350
1C
  0
DICTIONARY
  5
2CC
102
{ACAD_REACTORS
330
C
102
}
100
AcDbDictionary
  0
ACAD_PROXY_OBJECT
  5
2C9
102
{ACAD_REACTORS
330
C
102
}
100
AcDbProxyObject
 90
      499
 91
      502
 93
       86
310
405010041939BDC9B585B2
350
2CA
340
2CA
 94
        0
  0
DICTIONARY
  5
470
102
{ACAD_REACTORS
330
C
102
}
100
AcDbDictionary
  3
CEPSNTYPE
350
47A
  3
DIMSTYLEDATA
350
47E
  3
FINGERPRINTGUID
350
47B
  3
HYPERLINKBASE
350
473
  3
INSUNITS
350
479
  3
LAYOUTDICT
350
475
  3
LWETCUNION
350
478
  3
PLOTSETDICT
350
476
  3
PLOTSTYLNAMDICT
350
477
  3
PSVPSCALE
350
47D
  3
PUCSBASE
350
481
  3
PUCSORGBACK
350
487
  3
PUCSORGBOTTOM
350
483
  3
PUCSORGFRONT
350
486
  3
PUCSORGLEFT
350
484
  3
PUCSORGRIGHT
350
485
  3
PUCSORGTOP
350
482
  3
PUCSORTHOREF
350
47F
  3
PUCSORTHOVIEW
350
480
  3
STYLESHEET
350
474
  3
TSTACKALIGN
350
471
  3
TSTACKSIZE
350
472
  3
UCSBASE
350
48A
  3
UCSORGBACK
350
490
  3
UCSORGBOTTOM
350
48C
  3
UCSORGFRONT
350
48F
  3
UCSORGLEFT
350
48D
  3
UCSORGRIGHT
350
48E
  3
UCSORGTOP
350
48B
  3
UCSORTHOREF
350
488
  3
UCSORTHOVIEW
350
489
  3
VERSIONGUID
350
47C
  0
DICTIONARY
  5
33
102
{ACAD_REACTORS
330
C
102
}
100
AcDbDictionary
  3
DIMADEC
350
34
  0
DICTIONARY
  5
23
102
{ACAD_REACTORS
330
C
102
}
100
AcDbDictionary
  0
XRECORD
  5
46D
102
{ACAD_REACTORS
330
46C
102
}
100
AcDbXrecord
102
EXTNAMES
  1
DEFPOINTS
  2
Defpoints
102
PLOTBIT
280
     0
  0
XRECORD
  5
494
102
{ACAD_REACTORS
330
493
102
}
100
AcDbXrecord
102
ACADR14ROUNDTRIP
1000
DSTYLE
1002
{
1070
   341
340
37
1070
   343
340
37
1070
   344
340
37
1002
}
  0
XRECORD
  5
492
102
{ACAD_REACTORS
330
42F
102
}
100
AcDbXrecord
340
18
  0
XRECORD
  5
491
102
{ACAD_REACTORS
330
42D
102
}
100
AcDbXrecord
340
15
  0
GROUP
  5
2F3
102
{ACAD_REACTORS
330
D
102
}
100
AcDbGroup
300

 70
     1
 71
     1
340
2F2
340
2EC
340
2EA
340
2E9
340
2F0
340
2EB
340
2ED
340
2F1
340
2EF
340
2EE
  0
DICTIONARY
  5
495
100
AcDbDictionary
280
     1
  3
ACAD_XREC_ROUNDTRIP
360
496
  0
ACAD_PROXY_OBJECT
  5
2CD
102
{ACAD_REACTORS
330
2CB
102
}
100
AcDbProxyObject
 90
      499
 91
      504
 93
      548
310
90E4550534F4E20504D2D32303030432C01AAAAAAAAA5A69054D6F64656C901A800000000000000000000000000000000000000000000A1000000000000008902A6A6AAAA0
330
18
330
0
340
0
340
0
 94
        0
  0
ACAD_PROXY_OBJECT
  5
2CE
102
{ACAD_REACTORS
330
2CB
102
}
100
AcDbProxyObject
 90
      499
 91
      504
 93
      964
310
90E4550534F4E20504D2D32303030432C00AAAAAA416AA59106906DAB2B1B3C43140501A800000000000000000000000000000000000000000101E900000000000241C902A6A6A10232D5E076BC5510408CB5781DAF154410232D5E076BC5510408CB5781DAF15C410232D5E076BC5710408CB5781DAF15C40
330
15
330
0
340
0
340
0
 94
        0
  0
MLINESTYLE
  5
1C
102
{ACAD_REACTORS
330
1B
102
}
100
AcDbMlineStyle
  2
STANDARD
 70
     0
  3

 62
   256
 51
90.0
 52
90.0
 71
     2
 49
0.5
 62
   256
  6
BYLAYER
 49
-0.5
 62
   256
  6
BYLAYER
  0
ACAD_PROXY_OBJECT
  5
2CA
102
{ACAD_REACTORS
330
2C9
102
}
100
AcDbProxyObject
 90
      499
 91
      503
 93
        0
 94
        0
  0
XRECORD
  5
47A
102
{ACAD_REACTORS
330
470
102
}
100
AcDbXrecord
 90
        0
  0
XRECORD
  5
47E
102
{ACAD_REACTORS
330
470
102
}
100
AcDbXrecord
1000
DSTYLE
1002
{
1070
   341
340
37
1070
   343
340
37
1070
   344
340
37
1002
}
  0
XRECORD
  5
47B
102
{ACAD_REACTORS
330
470
102
}
100
AcDbXrecord
  1
{B693C4DE-7094-4C71-BC11-82EF600DC4FB}
  0
XRECORD
  5
473
102
{ACAD_REACTORS
330
470
102
}
100
AcDbXrecord
  1

  0
XRECORD
  5
479
102
{ACAD_REACTORS
330
470
102
}
100
AcDbXrecord
 90
        0
  0
XRECORD
  5
475
102
{ACAD_REACTORS
330
470
102
}
100
AcDbXrecord
340
2CB
  0
XRECORD
  5
478
102
{ACAD_REACTORS
330
470
102
}
100
AcDbXrecord
 90
    14877
  0
XRECORD
  5
476
102
{ACAD_REACTORS
330
470
102
}
100
AcDbXrecord
340
2CC
  0
XRECORD
  5
477
102
{ACAD_REACTORS
330
470
102
}
100
AcDbXrecord
340
2C9
  0
XRECORD
  5
47D
102
{ACAD_REACTORS
330
470
102
}
100
AcDbXrecord
 40
0.0
  0
XRECORD
  5
481
102
{ACAD_REACTORS
330
470
102
}
100
AcDbXrecord
340
0
  0
XRECORD
  5
487
102
{ACAD_REACTORS
330
470
102
}
100
AcDbXrecord
 10
0.0
 20
0.0
 30
0.0
  0
XRECORD
  5
483
102
{ACAD_REACTORS
330
470
102
}
100
AcDbXrecord
 10
0.0
 20
0.0
 30
0.0
  0
XRECORD
  5
486
102
{ACAD_REACTORS
330
470
102
}
100
AcDbXrecord
 10
0.0
 20
0.0
 30
0.0
  0
XRECORD
  5
484
102
{ACAD_REACTORS
330
470
102
}
100
AcDbXrecord
 10
0.0
 20
0.0
 30
0.0
  0
XRECORD
  5
485
102
{ACAD_REACTORS
330
470
102
}
100
AcDbXrecord
 10
0.0
 20
0.0
 30
0.0
  0
XRECORD
  5
482
102
{ACAD_REACTORS
330
470
102
}
100
AcDbXrecord
 10
0.0
 20
0.0
 30
0.0
  0
XRECORD
  5
47F
102
{ACAD_REACTORS
330
470
102
}
100
AcDbXrecord
340
0
  0
XRECORD
  5
480
102
{ACAD_REACTORS
330
470
102
}
100
AcDbXrecord
 70
     0
  0
XRECORD
  5
474
102
{ACAD_REACTORS
330
470
102
}
100
AcDbXrecord
  1

  0
XRECORD
  5
471
102
{ACAD_REACTORS
330
470
102
}
100
AcDbXrecord
 90
        1
  0
XRECORD
  5
472
102
{ACAD_REACTORS
330
470
102
}
100
AcDbXrecord
 90
       70
  0
XRECORD
  5
48A
102
{ACAD_REACTORS
330
470
102
}
100
AcDbXrecord
340
0
  0
XRECORD
  5
490
102
{ACAD_REACTORS
330
470
102
}
100
AcDbXrecord
 10
0.0
 20
0.0
 30
0.0
  0
XRECORD
  5
48C
102
{ACAD_REACTORS
330
470
102
}
100
AcDbXrecord
 10
0.0
 20
0.0
 30
0.0
  0
XRECORD
  5
48F
102
{ACAD_REACTORS
330
470
102
}
100
AcDbXrecord
 10
0.0
 20
0.0
 30
0.0
  0
XRECORD
  5
48D
102
{ACAD_REACTORS
330
470
102
}
100
AcDbXrecord
 10
0.0
 20
0.0
 30
0.0
  0
XRECORD
  5
48E
102
{ACAD_REACTORS
330
470
102
}
100
AcDbXrecord
 10
0.0
 20
0.0
 30
0.0
  0
XRECORD
  5
48B
102
{ACAD_REACTORS
330
470
102
}
100
AcDbXrecord
 10
0.0
 20
0.0
 30
0.0
  0
XRECORD
  5
488
102
{ACAD_REACTORS
330
470
102
}
100
AcDbXrecord
340
0
  0
XRECORD
  5
489
102
{ACAD_REACTORS
330
470
102
}
100
AcDbXrecord
 70
     0
  0
XRECORD
  5
47C
102
{ACAD_REACTORS
330
470
102
}
100
AcDbXrecord
  1
{42F33AA1-D1E2-4BBA-8749-8296AE66A373}
  0
DICTIONARYVAR
  5
34
102
{ACAD_REACTORS
330
33
102
}
100
DictionaryVariables
280
     0
  1
0
  0
XRECORD
  5
496
102
{ACAD_REACTORS
330
495
102
}
100
AcDbXrecord
102
EXTNAMES
  1
MODEL
  2
Model
  0
ENDSEC
  0
EOF
