  0
SECTION
  2
HEADER
  9
$ACADVER
  1
AC1014
  9
$ACADMAINTVER
 70
     0
  9
$DWGCODEPAGE
  3
ANSI_932
  9
$INSBASE
 10
0.0
 20
0.0
 30
0.0
  9
$EXTMIN
 10
37.785331
 20
24.902018
 30
0.0
  9
$EXTMAX
 10
245.63221
 20
152.969921
 30
0.0
  9
$LIMMIN
 10
0.0
 20
0.0
  9
$LIMMAX
 10
297.0
 20
210.0
  9
$ORTHOMODE
 70
     1
  9
$REGENMODE
 70
     1
  9
$FILLMODE
 70
     1
  9
$QTEXTMODE
 70
     0
  9
$MIRRTEXT
 70
     1
  9
$DRAGMODE
 70
     2
  9
$LTSCALE
 40
0.707071
  9
$OSMODE
 70
    33
  9
$ATTMODE
 70
     1
  9
$TEXTSIZE
 40
1.767677
  9
$TRACEWID
 40
1.0
  9
$TEXTSTYLE
  7
STANDARD
  9
$CLAYER
  8
寸法
  9
$CELTYPE
  6
BYLAYER
  9
$CECOLOR
 62
   256
  9
$CELTSCALE
 40
1.0
  9
$DELOBJ
 70
     1
  9
$DISPSILH
 70
     0
  9
$DIMSCALE
 40
1.0
  9
$DIMASZ
 40
2.0
  9
$DIMEXO
 40
1.0
  9
$DIMDLI
 40
10.0
  9
$DIMRND
 40
0.0
  9
$DIMDLE
 40
0.0
  9
$DIMEXE
 40
1.0
  9
$DIMTP
 40
0.0
  9
$DIMTM
 40
0.0
  9
$DIMTXT
 40
3.0
  9
$DIMCEN
 40
2.0
  9
$DIMTSZ
 40
0.0
  9
$DIMTOL
 70
     0
  9
$DIMLIM
 70
     0
  9
$DIMTIH
 70
     0
  9
$DIMTOH
 70
     0
  9
$DIMSE1
 70
     0
  9
$DIMSE2
 70
     0
  9
$DIMTAD
 70
     1
  9
$DIMZIN
 70
     8
  9
$DIMBLK
  1

  9
$DIMASO
 70
     1
  9
$DIMSHO
 70
     1
  9
$DIMPOST
  1

  9
$DIMAPOST
  1

  9
$DIMALT
 70
     0
  9
$DIMALTD
 70
     2
  9
$DIMALTF
 40
25.4
  9
$DIMLFAC
 40
1.0
  9
$DIMTOFL
 70
     1
  9
$DIMTVP
 40
0.0
  9
$DIMTIX
 70
     0
  9
$DIMSOXD
 70
     0
  9
$DIMSAH
 70
     1
  9
$DIMBLK1
  1
OPEN30
  9
$DIMBLK2
  1
OPEN30
  9
$DIMSTYLE
  2
STANDARD
  9
$DIMCLRD
 70
     1
  9
$DIMCLRE
 70
     1
  9
$DIMCLRT
 70
     1
  9
$DIMTFAC
 40
1.0
  9
$DIMGAP
 40
1.0
  9
$DIMJUST
 70
     0
  9
$DIMSD1
 70
     0
  9
$DIMSD2
 70
     0
  9
$DIMTOLJ
 70
     1
  9
$DIMTZIN
 70
     0
  9
$DIMALTZ
 70
     0
  9
$DIMALTTZ
 70
     0
  9
$DIMFIT
 70
     3
  9
$DIMUPT
 70
     0
  9
$DIMUNIT
 70
     2
  9
$DIMDEC
 70
     2
  9
$DIMTDEC
 70
     4
  9
$DIMALTU
 70
     2
  9
$DIMALTTD
 70
     2
  9
$DIMTXSTY
  7
STANDARD
  9
$DIMAUNIT
 70
     0
  9
$LUNITS
 70
     2
  9
$LUPREC
 70
     4
  9
$SKETCHINC
 40
1.0
  9
$FILLETRAD
 40
7.070707
  9
$AUNITS
 70
     0
  9
$AUPREC
 70
     0
  9
$MENU
  1
acad
  9
$ELEVATION
 40
0.0
  9
$PELEVATION
 40
0.0
  9
$THICKNESS
 40
0.0
  9
$LIMCHECK
 70
     0
  9
$BLIPMODE
 70
     0
  9
$CHAMFERA
 40
7.070707
  9
$CHAMFERB
 40
7.070707
  9
$CHAMFERC
 40
14.141414
  9
$CHAMFERD
 40
0.0
  9
$SKPOLY
 70
     0
  9
$TDCREATE
 40
2451930.609560185
  9
$TDUPDATE
 40
2451977.423831019
  9
$TDINDWG
 40
0.0069998843
  9
$TDUSRTIMER
 40
0.0069998843
  9
$USRTIMER
 70
     1
  9
$ANGBASE
 50
0.0
  9
$ANGDIR
 70
     0
  9
$PDMODE
 70
     0
  9
$PDSIZE
 40
0.0
  9
$PLINEWID
 40
0.0
  9
$COORDS
 70
     1
  9
$SPLFRAME
 70
     0
  9
$SPLINETYPE
 70
     6
  9
$SPLINESEGS
 70
     8
  9
$ATTDIA
 70
     0
  9
$ATTREQ
 70
     1
  9
$HANDLING
 70
     1
  9
$HANDSEED
  5
48D
  9
$SURFTAB1
 70
     6
  9
$SURFTAB2
 70
     6
  9
$SURFTYPE
 70
     6
  9
$SURFU
 70
     6
  9
$SURFV
 70
     6
  9
$UCSNAME
  2

  9
$UCSORG
 10
0.0
 20
0.0
 30
0.0
  9
$UCSXDIR
 10
1.0
 20
0.0
 30
0.0
  9
$UCSYDIR
 10
0.0
 20
1.0
 30
0.0
  9
$PUCSNAME
  2

  9
$PUCSORG
 10
0.0
 20
0.0
 30
0.0
  9
$PUCSXDIR
 10
1.0
 20
0.0
 30
0.0
  9
$PUCSYDIR
 10
0.0
 20
1.0
 30
0.0
  9
$USERI1
 70
     0
  9
$USERI2
 70
     0
  9
$USERI3
 70
     0
  9
$USERI4
 70
     0
  9
$USERI5
 70
     0
  9
$USERR1
 40
0.0
  9
$USERR2
 40
0.0
  9
$USERR3
 40
0.0
  9
$USERR4
 40
0.0
  9
$USERR5
 40
0.0
  9
$WORLDVIEW
 70
     1
  9
$SHADEDGE
 70
     3
  9
$SHADEDIF
 70
    70
  9
$TILEMODE
 70
     1
  9
$MAXACTVP
 70
    48
  9
$PINSBASE
 10
0.0
 20
0.0
 30
0.0
  9
$PLIMCHECK
 70
     0
  9
$PEXTMIN
 10
1.000000E+20
 20
1.000000E+20
 30
1.000000E+20
  9
$PEXTMAX
 10
-1.000000E+20
 20
-1.000000E+20
 30
-1.000000E+20
  9
$PLIMMIN
 10
0.0
 20
0.0
  9
$PLIMMAX
 10
420.0
 20
297.0
  9
$UNITMODE
 70
     0
  9
$VISRETAIN
 70
     1
  9
$PLINEGEN
 70
     0
  9
$PSLTSCALE
 70
     1
  9
$TREEDEPTH
 70
  3020
  9
$PICKSTYLE
 70
     1
  9
$CMLSTYLE
  2
STANDARD
  9
$CMLJUST
 70
     0
  9
$CMLSCALE
 40
20.0
  9
$PROXYGRAPHICS
 70
     1
  9
$MEASUREMENT
 70
     1
  0
ENDSEC
  0
SECTION
  2
CLASSES
  0
CLASS
  1
DICTIONARYVAR
  2
AcDbDictionaryVar
  3
"AutoCAD"
 90
        0
280
     0
281
     0
  0
CLASS
  1
LWPOLYLINE
  2
AcDbPolyline
  3
"AutoCAD"
 90
        0
280
     0
281
     1
  0
CLASS
  1
ACDBDICTIONARYWDFLT
  2
AcDbDictionaryWithDefault
  3
AutoCAD 2000
 90
        0
280
     0
281
     0
  0
CLASS
  1
ACDBPLACEHOLDER
  2
AcDbPlaceHolder
  3
AutoCAD 2000
 90
        0
280
     0
281
     0
  0
CLASS
  1
LAYOUT
  2
AcDbLayout
  3
AutoCAD 2000
 90
        0
280
     0
281
     0
  0
CLASS
  1
LONG_TRANSACTION
  2
AcDbLongTransaction
  3
AutoCAD 2000
 90
        0
280
     0
281
     0
  0
CLASS
  1
LWPOLYLINE
  2
AcDbPolyline
  3
"AutoCAD"
 90
        0
280
     0
281
     1
  0
CLASS
  1
HATCH
  2
AcDbHatch
  3
"ACAD_SEDONA"
 90
        0
280
     0
281
     1
  0
CLASS
  1
XRECORD
  2
AcDbXrecord
  3
"<Built In>"
 90
        0
280
     0
281
     0
  0
CLASS
  1
LONG_TRANSACTION
  2
AcDbLongTransaction
  3
AutoCAD 2000
 90
        0
280
     0
281
     0
  0
CLASS
  1
LWPOLYLINE
  2
AcDbPolyline
  3
"AutoCAD"
 90
        0
280
     0
281
     1
  0
CLASS
  1
HATCH
  2
AcDbHatch
  3
"ACAD_SEDONA"
 90
        0
280
     0
281
     1
  0
CLASS
  1
XRECORD
  2
AcDbXrecord
  3
"<Built In>"
 90
        0
280
     0
281
     0
  0
ENDSEC
  0
SECTION
  2
TABLES
  0
TABLE
  2
VPORT
  5
8
100
AcDbSymbolTable
 70
     2
  0
VPORT
  5
48C
100
AcDbSymbolTableRecord
100
AcDbViewportTableRecord
  2
*ACTIVE
 70
     0
 10
0.0
 20
0.0
 11
1.0
 21
1.0
 12
138.321074
 22
108.150686
 13
0.0
 23
0.0
 14
10.0
 24
10.0
 15
10.0
 25
10.0
 16
0.0
 26
0.0
 36
1.0
 17
0.0
 27
0.0
 37
0.0
 40
195.049561
 41
1.710425
 42
50.0
 43
0.0
 44
0.0
 50
0.0
 51
0.0
 71
     0
 72
   100
 73
     1
 74
     1
 75
     0
 76
     0
 77
     0
 78
     0
  0
ENDTAB
  0
TABLE
  2
LTYPE
  5
5
100
AcDbSymbolTable
 70
     5
  0
LTYPE
  5
12
100
AcDbSymbolTableRecord
100
AcDbLinetypeTableRecord
  2
BYBLOCK
 70
     0
  3

 72
    65
 73
     0
 40
0.0
  0
LTYPE
  5
13
100
AcDbSymbolTableRecord
100
AcDbLinetypeTableRecord
  2
BYLAYER
 70
     0
  3

 72
    65
 73
     0
 40
0.0
  0
LTYPE
  5
14
100
AcDbSymbolTableRecord
100
AcDbLinetypeTableRecord
  2
CONTINUOUS
 70
     0
  3
Solid line
 72
    65
 73
     0
 40
0.0
  0
LTYPE
  5
4E
100
AcDbSymbolTableRecord
100
AcDbLinetypeTableRecord
  2
DASHED
 70
     0
  3
__ __ __ __ __ __ __ __ __ __ __ __ __ __ __
 72
    65
 73
     2
 40
3.5
 49
2.0
 74
     0
 49
-1.5
 74
     0
  0
LTYPE
  5
4F
100
AcDbSymbolTableRecord
100
AcDbLinetypeTableRecord
  2
CENTER
 70
     0
  3
____ _ ____ _ ____ _ ____ _ ____ _ ____ _ ____
 72
    65
 73
     4
 40
17.5
 49
13.0
 74
     0
 49
-1.5
 74
     0
 49
1.5
 74
     0
 49
-1.5
 74
     0
  0
LTYPE
  5
50
100
AcDbSymbolTableRecord
100
AcDbLinetypeTableRecord
  2
PHANTOM
 70
     0
  3
_____ _ _ _____ _ _ _____ _ _ _____ _ _ ____  
 72
    65
 73
     6
 40
15.5
 49
8.0
 74
     0
 49
-1.5
 74
     0
 49
1.5
 74
     0
 49
-1.5
 74
     0
 49
1.5
 74
     0
 49
-1.5
 74
     0
  0
LTYPE
  5
51
100
AcDbSymbolTableRecord
100
AcDbLinetypeTableRecord
  2
DOT
 70
     0
  3
. . . . . . . . . . . . . . . . . . . . . . . .
 72
    65
 73
     2
 40
0.25
 49
0.0
 74
     0
 49
-0.25
 74
     0
  0
ENDTAB
  0
TABLE
  2
LAYER
  5
2
100
AcDbSymbolTable
 70
     3
  0
LAYER
  5
E
100
AcDbSymbolTableRecord
100
AcDbLayerTableRecord
  2
0
 70
     0
 62
     7
  6
CONTINUOUS
  0
LAYER
  5
2D8
100
AcDbSymbolTableRecord
100
AcDbLayerTableRecord
  2
寸法
 70
     0
 62
     1
  6
CONTINUOUS
  0
LAYER
  5
2DC
102
{ACAD_XDICTIONARY
360
426
102
}
100
AcDbSymbolTableRecord
100
AcDbLayerTableRecord
  2
DEFPOINTS
 70
     0
 62
     7
  6
CONTINUOUS
  0
ENDTAB
  0
TABLE
  2
STYLE
  5
3
100
AcDbSymbolTable
 70
     1
  0
STYLE
  5
F
100
AcDbSymbolTableRecord
100
AcDbTextStyleTableRecord
  2
STANDARD
 70
     0
 40
0.0
 41
1.0
 50
0.0
 71
     0
 42
1.767677
  3
txt.shx
  4
bigfont.shx
  0
ENDTAB
  0
TABLE
  2
VIEW
  5
6
100
AcDbSymbolTable
 70
     0
  0
ENDTAB
  0
TABLE
  2
UCS
  5
7
100
AcDbSymbolTable
 70
     0
  0
ENDTAB
  0
TABLE
  2
APPID
  5
9
100
AcDbSymbolTable
 70
     3
  0
APPID
  5
10
100
AcDbSymbolTableRecord
100
AcDbRegAppTableRecord
  2
ACAD
 70
     0
  0
APPID
  5
24
100
AcDbSymbolTableRecord
100
AcDbRegAppTableRecord
  2
CONTENTTABDATA
 70
     0
  0
APPID
  5
25
100
AcDbSymbolTableRecord
100
AcDbRegAppTableRecord
  2
CONTENTCURRENTTAB
 70
     0
  0
ENDTAB
  0
TABLE
  2
DIMSTYLE
  5
A
100
AcDbSymbolTable
 70
     2
  0
DIMSTYLE
105
1D
102
{ACAD_XDICTIONARY
360
44D
102
}
102
{ACAD_REACTORS
330
2FA
330
308
330
315
330
322
330
331
330
33E
330
358
330
365
330
37B
330
388
330
3A0
330
3B3
102
}
100
AcDbSymbolTableRecord
100
AcDbDimStyleTableRecord
  2
STANDARD
 70
     0
  3

  4

  5

  6
OPEN30
  7
OPEN30
 40
1.0
 41
2.0
 42
1.0
 43
10.0
 44
1.0
 45
0.0
 46
0.0
 47
0.0
 48
0.0
140
3.0
141
2.0
142
0.0
143
25.4
144
1.0
145
0.0
146
1.0
147
1.0
 71
     0
 72
     0
 73
     0
 74
     0
 75
     0
 76
     0
 77
     1
 78
     8
170
     0
171
     2
172
     1
173
     1
174
     0
175
     0
176
     1
177
     1
178
     1
270
     2
271
     2
272
     4
273
     2
274
     2
340
F
275
     0
280
     0
281
     0
282
     0
283
     1
284
     0
285
     0
286
     0
287
     3
288
     0
  0
DIMSTYLE
105
35
100
AcDbSymbolTableRecord
100
AcDbDimStyleTableRecord
  2
STANDARD_WS
 70
     0
  3

  4

  5

  6

  7

 40
0.707071
 41
2.5
 42
0.625
 43
3.75
 44
1.25
 45
0.0
 46
0.0
 47
0.0
 48
0.0
140
2.5
141
2.5
142
0.0
143
0.0394
144
1.0
145
0.0
146
1.0
147
0.625
 71
     0
 72
     0
 73
     0
 74
     0
 75
     0
 76
     0
 77
     1
 78
     8
170
     0
171
     4
172
     1
173
     0
174
     0
175
     0
176
     0
177
     0
178
     0
270
     2
271
     4
272
     4
273
     8
274
     4
340
F
275
     0
280
     0
281
     0
282
     0
283
     1
284
     0
285
     0
286
     0
287
     3
288
     0
  0
ENDTAB
  0
TABLE
  2
BLOCK_RECORD
  5
1
100
AcDbSymbolTable
 70
    14
  0
BLOCK_RECORD
  5
18
102
{ACAD_XDICTIONARY
360
3E9
102
}
100
AcDbSymbolTableRecord
100
AcDbBlockTableRecord
  2
*MODEL_SPACE
  0
BLOCK_RECORD
  5
15
102
{ACAD_XDICTIONARY
360
3E7
102
}
100
AcDbSymbolTableRecord
100
AcDbBlockTableRecord
  2
*PAPER_SPACE
  0
BLOCK_RECORD
  5
37
100
AcDbSymbolTableRecord
100
AcDbBlockTableRecord
  2
_OPEN30
  0
BLOCK_RECORD
  5
52
100
AcDbSymbolTableRecord
100
AcDbBlockTableRecord
  2
BU145R
  0
BLOCK_RECORD
  5
2FB
100
AcDbSymbolTableRecord
100
AcDbBlockTableRecord
  2
*D2
  0
BLOCK_RECORD
  5
309
100
AcDbSymbolTableRecord
100
AcDbBlockTableRecord
  2
*D3
  0
BLOCK_RECORD
  5
316
100
AcDbSymbolTableRecord
100
AcDbBlockTableRecord
  2
*D4
  0
BLOCK_RECORD
  5
323
100
AcDbSymbolTableRecord
100
AcDbBlockTableRecord
  2
*D5
  0
BLOCK_RECORD
  5
332
100
AcDbSymbolTableRecord
100
AcDbBlockTableRecord
  2
*D6
  0
BLOCK_RECORD
  5
33F
100
AcDbSymbolTableRecord
100
AcDbBlockTableRecord
  2
*D7
  0
BLOCK_RECORD
  5
359
100
AcDbSymbolTableRecord
100
AcDbBlockTableRecord
  2
*D8
  0
BLOCK_RECORD
  5
366
100
AcDbSymbolTableRecord
100
AcDbBlockTableRecord
  2
*D9
  0
BLOCK_RECORD
  5
37C
100
AcDbSymbolTableRecord
100
AcDbBlockTableRecord
  2
*D10
  0
BLOCK_RECORD
  5
389
100
AcDbSymbolTableRecord
100
AcDbBlockTableRecord
  2
*D11
  0
BLOCK_RECORD
  5
3A1
100
AcDbSymbolTableRecord
100
AcDbBlockTableRecord
  2
*D12
  0
BLOCK_RECORD
  5
3B4
100
AcDbSymbolTableRecord
100
AcDbBlockTableRecord
  2
*D13
  0
ENDTAB
  0
ENDSEC
  0
SECTION
  2
BLOCKS
  0
BLOCK
  5
19
100
AcDbEntity
  8
0
100
AcDbBlockBegin
  2
*MODEL_SPACE
 70
     0
 10
0.0
 20
0.0
 30
0.0
  3
*MODEL_SPACE
  1

  0
ENDBLK
  5
1A
100
AcDbEntity
  8
0
100
AcDbBlockEnd
  0
BLOCK
  5
16
100
AcDbEntity
 67
     1
  8
0
100
AcDbBlockBegin
  2
*PAPER_SPACE
 70
     0
 10
0.0
 20
0.0
 30
0.0
  3
*PAPER_SPACE
  1

  0
ENDBLK
  5
17
100
AcDbEntity
 67
     1
  8
0
100
AcDbBlockEnd
  0
BLOCK
  5
38
100
AcDbEntity
  8
0
100
AcDbBlockBegin
  2
_OPEN30
 70
     0
 10
0.0
 20
0.0
 30
0.0
  3
_OPEN30
  1

  0
LINE
  5
39
100
AcDbEntity
  8
0
  6
BYBLOCK
 62
     0
100
AcDbLine
 10
-1.0
 20
0.267949
 30
0.0
 11
0.0
 21
0.0
 31
0.0
  0
LINE
  5
3A
100
AcDbEntity
  8
0
  6
BYBLOCK
 62
     0
100
AcDbLine
 10
0.0
 20
0.0
 30
0.0
 11
-1.0
 21
-0.267949
 31
0.0
  0
LINE
  5
3B
100
AcDbEntity
  8
0
  6
BYBLOCK
 62
     0
100
AcDbLine
 10
0.0
 20
0.0
 30
0.0
 11
-1.0
 21
0.0
 31
0.0
  0
ENDBLK
  5
3C
100
AcDbEntity
  8
0
100
AcDbBlockEnd
  0
BLOCK
  5
18C
100
AcDbEntity
  8
0
100
AcDbBlockBegin
  2
BU145R
 70
     0
 10
0.0
 20
0.0
 30
0.0
  3
BU145R
  1

  0
POINT
  5
53
100
AcDbEntity
  8
0
  6
CONTINUOUS
 62
     7
100
AcDbPoint
 10
-37.364861
 20
9.0
 30
0.0
  0
POINT
  5
54
100
AcDbEntity
  8
0
  6
CONTINUOUS
 62
     7
100
AcDbPoint
 10
-36.09996
 20
0.0
 30
0.0
  0
POINT
  5
55
100
AcDbEntity
  8
0
  6
CONTINUOUS
 62
     7
100
AcDbPoint
 10
-8.999999
 20
9.0
 30
0.0
  0
POINT
  5
56
100
AcDbEntity
  8
0
  6
CONTINUOUS
 62
     7
100
AcDbPoint
 10
0.000001
 20
0.0
 30
0.0
  0
POINT
  5
57
100
AcDbEntity
  8
0
  6
CONTINUOUS
 62
     7
100
AcDbPoint
 10
84.594002
 20
-65.02121
 30
0.0
  0
POINT
  5
58
100
AcDbEntity
  8
0
  6
CONTINUOUS
 62
     7
100
AcDbPoint
 10
-8.999999
 20
-50.284618
 30
0.0
  0
POINT
  5
59
100
AcDbEntity
  8
0
  6
CONTINUOUS
 62
     7
100
AcDbPoint
 10
0.000003
 20
-49.019749
 30
0.0
  0
LINE
  5
5A
100
AcDbEntity
  8
0
  6
CONTINUOUS
 62
     7
100
AcDbLine
 10
0.000001
 20
0.0
 30
0.0
 11
8.980254
 21
8.980253
 31
0.0
  0
LINE
  5
5B
100
AcDbEntity
  8
0
  6
CONTINUOUS
 62
     7
100
AcDbLine
 10
-8.999999
 20
9.0
 30
0.0
 11
0.000001
 21
0.0
 31
0.0
  0
LINE
  5
5C
100
AcDbEntity
  8
0
  6
CONTINUOUS
 62
     7
100
AcDbLine
 10
-0.019746
 20
17.980253
 30
0.0
 11
8.980254
 21
8.980253
 31
0.0
  0
LINE
  5
5D
100
AcDbEntity
  8
0
  6
CONTINUOUS
 62
     7
100
AcDbLine
 10
48.0
 20
19.0
 30
0.0
 11
48.0
 21
3.283
 31
0.0
  0
LINE
  5
5E
100
AcDbEntity
  8
0
  6
CONTINUOUS
 62
     7
100
AcDbLine
 10
12.346111
 20
-47.019745
 30
0.0
 11
48.0
 21
-47.019745
 31
0.0
  0
LINE
  5
5F
100
AcDbEntity
  8
0
  6
CONTINUOUS
 62
     7
100
AcDbLine
 10
-5.09075
 20
-65.019745
 30
0.0
 11
48.0
 21
-65.019745
 31
0.0
  0
LINE
  5
60
100
AcDbEntity
  8
0
  6
CONTINUOUS
 62
     7
100
AcDbLine
 10
48.0
 20
-47.019745
 30
0.0
 11
48.0
 21
-65.019745
 31
0.0
  0
LINE
  5
61
100
AcDbEntity
  8
0
  6
CENTER
 62
     7
100
AcDbLine
 10
9.000001
 20
-53.019745
 30
0.0
 11
9.000001
 21
-61.019745
 31
0.0
  0
LINE
  5
62
100
AcDbEntity
  8
0
  6
CENTER
 62
     7
100
AcDbLine
 10
5.000001
 20
-57.019745
 30
0.0
 11
13.000001
 21
-57.019745
 31
0.0
  0
LINE
  5
63
100
AcDbEntity
  8
0
  6
CONTINUOUS
 62
     7
100
AcDbLine
 10
99.5
 20
-48.019745
 30
0.0
 11
99.5
 21
-63.408581
 31
0.0
  0
LINE
  5
64
100
AcDbEntity
  8
0
  6
CONTINUOUS
 62
     7
100
AcDbLine
 10
86.0
 20
-47.019745
 30
0.0
 11
98.499985
 21
-47.019745
 31
0.0
  0
LINE
  5
65
100
AcDbEntity
  8
0
  6
CONTINUOUS
 62
     7
100
AcDbLine
 10
85.999977
 20
-47.019707
 30
0.0
 11
83.783134
 21
-62.793369
 31
0.0
  0
LINE
  5
66
100
AcDbEntity
  8
0
  6
CONTINUOUS
 62
     7
100
AcDbLine
 10
99.499916
 20
-48.019756
 30
0.0
 11
98.499901
 21
-47.019753
 31
0.0
  0
LINE
  5
67
100
AcDbEntity
  8
0
  6
CONTINUOUS
 62
     7
100
AcDbLine
 10
93.808029
 20
-48.94492
 30
0.0
 11
91.929192
 21
-62.313538
 31
0.0
  0
LINE
  5
68
100
AcDbEntity
  8
0
  6
CENTER
 62
     7
100
AcDbLine
 10
-3.252689
 20
5.747307
 30
0.0
 11
3.252692
 21
12.252688
 31
0.0
  0
LINE
  5
69
100
AcDbEntity
  8
0
  6
CENTER
 62
     7
100
AcDbLine
 10
-3.252689
 20
12.252688
 30
0.0
 11
3.252691
 21
5.747308
 31
0.0
  0
LINE
  5
6A
100
AcDbEntity
  8
0
  6
CENTER
 62
     7
100
AcDbLine
 10
9.000001
 20
21.425888
 30
0.0
 11
9.000001
 21
0.564324
 31
0.0
  0
LINE
  5
6B
100
AcDbEntity
  8
0
  6
CENTER
 62
     7
100
AcDbLine
 10
34.0
 20
-44.025101
 30
0.0
 11
34.0
 21
-68.025101
 31
0.0
  0
LINE
  5
6C
100
AcDbEntity
  8
0
  6
CENTER
 62
     7
100
AcDbLine
 10
35.75
 20
-44.025101
 30
0.0
 11
35.75
 21
-68.025101
 31
0.0
  0
LINE
  5
6D
100
AcDbEntity
  8
0
  6
CENTER
 62
     7
100
AcDbLine
 10
32.25
 20
-44.025101
 30
0.0
 11
32.25
 21
-68.025101
 31
0.0
  0
LINE
  5
6E
100
AcDbEntity
  8
0
  6
CENTER
 62
     7
100
AcDbLine
 10
34.0
 20
21.92926
 30
0.0
 11
34.0
 21
0.605267
 31
0.0
  0
LINE
  5
6F
100
AcDbEntity
  8
0
  6
CONTINUOUS
 62
     7
100
AcDbLine
 10
13.000001
 20
5.0
 30
0.0
 11
13.000001
 21
1.874886
 31
0.0
  0
LINE
  5
70
100
AcDbEntity
  8
0
  6
CONTINUOUS
 62
     7
100
AcDbLine
 10
3.000001
 20
-48.295181
 30
0.0
 11
3.000001
 21
-56.519745
 31
0.0
  0
LINE
  5
71
100
AcDbEntity
  8
0
  6
CONTINUOUS
 62
     7
100
AcDbLine
 10
-8.999999
 20
-50.284618
 30
0.0
 11
1.036505
 21
-48.874081
 31
0.0
  0
LINE
  5
72
100
AcDbEntity
  8
0
  6
CONTINUOUS
 62
     7
100
AcDbLine
 10
-8.33197
 20
-55.037891
 30
0.0
 11
1.704534
 21
-53.627354
 31
0.0
  0
LINE
  5
73
100
AcDbEntity
  8
0
  6
CONTINUOUS
 62
     7
100
AcDbLine
 10
0.000003
 20
-49.019749
 30
0.0
 11
0.668032
 21
-53.773026
 31
0.0
  0
LINE
  5
74
100
AcDbEntity
  8
0
  6
CONTINUOUS
 62
     7
100
AcDbLine
 10
1.011486
 20
-56.519745
 30
0.0
 11
2.206082
 21
-65.019737
 31
0.0
  0
LINE
  5
75
100
AcDbEntity
  8
0
  6
CONTINUOUS
 62
     7
100
AcDbLine
 10
1.0
 20
1.0
 30
0.0
 11
3.0
 21
1.0
 31
0.0
  0
LINE
  5
76
100
AcDbEntity
  8
0
  6
CONTINUOUS
 62
     7
100
AcDbLine
 10
2.999999
 20
1.0
 30
0.0
 11
13.015192
 21
1.876215
 31
0.0
  0
LINE
  5
77
100
AcDbEntity
  8
0
  6
CONTINUOUS
 62
     7
100
AcDbLine
 10
-40.949936
 20
17.960495
 30
0.0
 11
-36.10276
 21
17.960495
 31
0.0
  0
LINE
  5
78
100
AcDbEntity
  8
0
  6
CONTINUOUS
 62
     7
100
AcDbLine
 10
-34.09996
 20
17.5
 30
0.0
 11
-34.09996
 21
2.5
 31
0.0
  0
LINE
  5
79
100
AcDbEntity
  8
0
  6
CONTINUOUS
 62
     7
100
AcDbLine
 10
3.000001
 20
-56.519745
 30
0.0
 11
6.065131
 21
-57.060211
 31
0.0
  0
LINE
  5
7A
100
AcDbEntity
  8
0
  6
CONTINUOUS
 62
     7
100
AcDbLine
 10
11.809026
 20
-58.073013
 30
0.0
 11
12.999992
 21
-58.283012
 31
0.0
  0
LINE
  5
7B
100
AcDbEntity
  8
0
  6
CONTINUOUS
 62
     7
100
AcDbLine
 10
13.000001
 20
-47.019745
 30
0.0
 11
13.000001
 21
-62.793369
 31
0.0
  0
LINE
  5
7C
100
AcDbEntity
  8
0
  6
CONTINUOUS
 62
     7
100
AcDbLine
 10
-40.947136
 20
0.0
 30
0.0
 11
-36.09996
 21
0.0
 31
0.0
  0
LINE
  5
7D
100
AcDbEntity
  8
0
  6
CONTINUOUS
 62
     7
100
AcDbLine
 10
1.000001
 20
19.0
 30
0.0
 11
48.0
 21
19.0
 31
0.0
  0
LINE
  5
7E
100
AcDbEntity
  8
0
  6
CONTINUOUS
 62
     7
100
AcDbLine
 10
12.346111
 20
17.5
 30
0.0
 11
48.0
 21
17.5
 31
0.0
  0
LINE
  5
7F
100
AcDbEntity
  8
0
  6
CONTINUOUS
 62
     7
100
AcDbLine
 10
-50.487328
 20
19.0
 30
0.0
 11
-35.59996
 21
19.0
 31
0.0
  0
LINE
  5
80
100
AcDbEntity
  8
0
  6
CONTINUOUS
 62
     7
100
AcDbLine
 10
-35.59996
 20
19.0
 30
0.0
 11
-34.09996
 21
17.500002
 31
0.0
  0
LINE
  5
81
100
AcDbEntity
  8
0
  6
CONTINUOUS
 62
     7
100
AcDbLine
 10
-52.09996
 20
17.387371
 30
0.0
 11
-52.09996
 21
4.093748
 31
0.0
  0
LINE
  5
82
100
AcDbEntity
  8
0
  6
CONTINUOUS
 62
     7
100
AcDbLine
 10
-43.59996
 20
9.0
 30
0.0
 11
-43.59996
 21
1.0
 31
0.0
  0
LINE
  5
83
100
AcDbEntity
  8
0
  6
CONTINUOUS
 62
     7
100
AcDbLine
 10
-43.59996
 20
1.0
 30
0.0
 11
-41.087681
 21
1.0
 31
0.0
  0
LINE
  5
84
100
AcDbEntity
  8
0
  6
CONTINUOUS
 62
     7
100
AcDbLine
 10
-43.59996
 20
1.0
 30
0.0
 11
-52.09996
 21
4.093748
 31
0.0
  0
LINE
  5
85
100
AcDbEntity
  8
0
  6
CONTINUOUS
 62
     7
100
AcDbLine
 10
-50.487331
 20
19.0
 30
0.0
 11
-52.09996
 21
17.387371
 31
0.0
  0
LINE
  5
86
100
AcDbEntity
  8
0
  6
CONTINUOUS
 62
     7
100
AcDbLine
 10
84.594002
 20
-65.02121
 30
0.0
 11
86.594002
 21
-65.02121
 31
0.0
  0
LINE
  5
87
100
AcDbEntity
  8
0
  6
CONTINUOUS
 62
     7
100
AcDbLine
 10
86.594002
 20
-65.02121
 30
0.0
 11
97.986794
 21
-64.921783
 31
0.0
  0
LINE
  5
88
100
AcDbEntity
  8
0
  6
CONTINUOUS
 62
     7
100
AcDbLine
 10
99.5
 20
-63.408585
 30
0.0
 11
97.986794
 21
-64.921791
 31
0.0
  0
LINE
  5
89
100
AcDbEntity
  8
0
  6
CONTINUOUS
 62
     7
100
AcDbLine
 10
84.594002
 20
-65.02121
 30
0.0
 11
83.783134
 21
-62.793369
 31
0.0
  0
LINE
  5
8A
100
AcDbEntity
  8
0
  6
CONTINUOUS
 62
     7
100
AcDbLine
 10
13.000001
 20
-62.793369
 30
0.0
 11
48.0
 21
-62.793369
 31
0.0
  0
LINE
  5
8B
100
AcDbEntity
  8
0
  6
CONTINUOUS
 62
     7
100
AcDbLine
 10
56.0
 20
14.0
 30
0.0
 11
56.0
 21
10.0
 31
0.0
  0
LINE
  5
8C
100
AcDbEntity
  8
0
  6
CENTER
 62
     7
100
AcDbLine
 10
43.837933
 20
12.0
 30
0.0
 11
57.930676
 21
12.0
 31
0.0
  0
LINE
  5
8D
100
AcDbEntity
  8
0
  6
CONTINUOUS
 62
     7
100
AcDbLine
 10
51.0
 20
16.0
 30
0.0
 11
51.0
 21
8.0
 31
0.0
  0
LINE
  5
8E
100
AcDbEntity
  8
0
  6
CONTINUOUS
 62
     7
100
AcDbLine
 10
48.0
 20
9.5
 30
0.0
 11
51.0
 21
9.5
 31
0.0
  0
LINE
  5
8F
100
AcDbEntity
  8
0
  6
CONTINUOUS
 62
     7
100
AcDbLine
 10
48.0
 20
14.5
 30
0.0
 11
51.0
 21
14.5
 31
0.0
  0
LINE
  5
90
100
AcDbEntity
  8
0
  6
CONTINUOUS
 62
     7
100
AcDbLine
 10
53.5
 20
16.5
 30
0.0
 11
56.0
 21
14.0
 31
0.0
  0
LINE
  5
91
100
AcDbEntity
  8
0
  6
CONTINUOUS
 62
     7
100
AcDbLine
 10
53.5
 20
7.500001
 30
0.0
 11
56.0
 21
10.0
 31
0.0
  0
LINE
  5
92
100
AcDbEntity
  8
0
  6
CONTINUOUS
 62
     7
100
AcDbLine
 10
51.5
 20
7.5
 30
0.0
 11
53.5
 21
7.5
 31
0.0
  0
LINE
  5
93
100
AcDbEntity
  8
0
  6
CONTINUOUS
 62
     7
100
AcDbLine
 10
51.5
 20
16.5
 30
0.0
 11
53.5
 21
16.5
 31
0.0
  0
LINE
  5
94
100
AcDbEntity
  8
0
  6
CONTINUOUS
 62
     7
100
AcDbLine
 10
51.5
 20
16.499996
 30
0.0
 11
51.0
 21
15.999999
 31
0.0
  0
LINE
  5
95
100
AcDbEntity
  8
0
  6
CONTINUOUS
 62
     7
100
AcDbLine
 10
51.000004
 20
8.000003
 30
0.0
 11
51.500004
 21
7.500003
 31
0.0
  0
LINE
  5
96
100
AcDbEntity
  8
0
  6
CONTINUOUS
 62
     7
100
AcDbLine
 10
51.5
 20
16.5
 30
0.0
 11
51.5
 21
7.5
 31
0.0
  0
LINE
  5
97
100
AcDbEntity
  8
0
  6
CONTINUOUS
 62
     7
100
AcDbLine
 10
53.5
 20
16.5
 30
0.0
 11
53.5
 21
7.5
 31
0.0
  0
LINE
  5
98
100
AcDbEntity
  8
0
  6
CONTINUOUS
 62
     7
100
AcDbLine
 10
48.0
 20
10.0
 30
0.0
 11
51.0
 21
10.0
 31
0.0
  0
LINE
  5
99
100
AcDbEntity
  8
0
  6
CONTINUOUS
 62
     7
100
AcDbLine
 10
48.0
 20
14.0
 30
0.0
 11
51.0
 21
14.0
 31
0.0
  0
LINE
  5
9A
100
AcDbEntity
  8
0
  6
CONTINUOUS
 62
     7
100
AcDbLine
 10
56.0
 20
-54.519745
 30
0.0
 11
56.0
 21
-58.519745
 31
0.0
  0
LINE
  5
9B
100
AcDbEntity
  8
0
  6
CENTER
 62
     7
100
AcDbLine
 10
44.314377
 20
-56.519745
 30
0.0
 11
57.930676
 21
-56.519745
 31
0.0
  0
LINE
  5
9C
100
AcDbEntity
  8
0
  6
CONTINUOUS
 62
     7
100
AcDbLine
 10
51.0
 20
-52.519745
 30
0.0
 11
51.0
 21
-60.519745
 31
0.0
  0
LINE
  5
9D
100
AcDbEntity
  8
0
  6
CONTINUOUS
 62
     7
100
AcDbLine
 10
48.0
 20
-59.019745
 30
0.0
 11
51.0
 21
-59.019745
 31
0.0
  0
LINE
  5
9E
100
AcDbEntity
  8
0
  6
CONTINUOUS
 62
     7
100
AcDbLine
 10
48.0
 20
-54.019745
 30
0.0
 11
51.0
 21
-54.019745
 31
0.0
  0
LINE
  5
9F
100
AcDbEntity
  8
0
  6
CONTINUOUS
 62
     7
100
AcDbLine
 10
53.500004
 20
-52.019749
 30
0.0
 11
56.0
 21
-54.519745
 31
0.0
  0
LINE
  5
A0
100
AcDbEntity
  8
0
  6
CONTINUOUS
 62
     7
100
AcDbLine
 10
53.5
 20
-61.019749
 30
0.0
 11
56.0
 21
-58.519749
 31
0.0
  0
LINE
  5
A1
100
AcDbEntity
  8
0
  6
CONTINUOUS
 62
     7
100
AcDbLine
 10
51.5
 20
-61.019745
 30
0.0
 11
53.5
 21
-61.019745
 31
0.0
  0
LINE
  5
A2
100
AcDbEntity
  8
0
  6
CONTINUOUS
 62
     7
100
AcDbLine
 10
51.5
 20
-52.019745
 30
0.0
 11
53.5
 21
-52.019745
 31
0.0
  0
LINE
  5
A3
100
AcDbEntity
  8
0
  6
CONTINUOUS
 62
     7
100
AcDbLine
 10
51.5
 20
-52.019749
 30
0.0
 11
51.0
 21
-52.519749
 31
0.0
  0
LINE
  5
A4
100
AcDbEntity
  8
0
  6
CONTINUOUS
 62
     7
100
AcDbLine
 10
51.0
 20
-60.519741
 30
0.0
 11
51.5
 21
-61.019741
 31
0.0
  0
LINE
  5
A5
100
AcDbEntity
  8
0
  6
CONTINUOUS
 62
     7
100
AcDbLine
 10
51.5
 20
-52.019745
 30
0.0
 11
51.5
 21
-61.019745
 31
0.0
  0
LINE
  5
A6
100
AcDbEntity
  8
0
  6
CONTINUOUS
 62
     7
100
AcDbLine
 10
53.5
 20
-52.019745
 30
0.0
 11
53.5
 21
-61.019745
 31
0.0
  0
LINE
  5
A7
100
AcDbEntity
  8
0
  6
CONTINUOUS
 62
     7
100
AcDbLine
 10
48.0
 20
-58.519745
 30
0.0
 11
51.0
 21
-58.519745
 31
0.0
  0
LINE
  5
A8
100
AcDbEntity
  8
0
  6
CONTINUOUS
 62
     7
100
AcDbLine
 10
48.0
 20
-54.519745
 30
0.0
 11
51.0
 21
-54.519745
 31
0.0
  0
LINE
  5
A9
100
AcDbEntity
  8
0
  6
CONTINUOUS
 62
     7
100
AcDbLine
 10
13.500001
 20
3.283
 30
0.0
 11
48.0
 21
3.283
 31
0.0
  0
LINE
  5
AA
100
AcDbEntity
  8
0
  6
CONTINUOUS
 62
     7
100
AcDbLine
 10
13.500001
 20
5.5
 30
0.0
 11
48.0
 21
5.5
 31
0.0
  0
LINE
  5
AB
100
AcDbEntity
  8
0
  6
CONTINUOUS
 62
     7
100
AcDbLine
 10
-8.999999
 20
9.0
 30
0.0
 11
1.0
 21
19.0
 31
0.0
  0
LINE
  5
AC
100
AcDbEntity
  8
0
  6
CONTINUOUS
 62
     7
100
AcDbLine
 10
-43.59996
 20
9.0
 30
0.0
 11
-37.364861
 21
9.0
 31
0.0
  0
LINE
  5
AD
100
AcDbEntity
  8
0
  6
CONTINUOUS
 62
     7
100
AcDbLine
 10
-8.999999
 20
-50.284618
 30
0.0
 11
-8.33197
 21
-55.037891
 31
0.0
  0
LINE
  5
AE
100
AcDbEntity
  8
0
  6
CONTINUOUS
 62
     7
100
AcDbLine
 10
-43.59996
 20
8.999999
 30
0.0
 11
-52.041592
 21
12.072503
 31
0.0
  0
LINE
  5
AF
100
AcDbEntity
  8
0
  6
CONTINUOUS
 62
     7
100
AcDbLine
 10
-8.184497
 20
-56.519745
 30
0.0
 11
3.000001
 21
-56.519745
 31
0.0
  0
LINE
  5
B0
100
AcDbEntity
  8
0
  6
CONTINUOUS
 62
     7
100
AcDbLine
 10
-0.019746
 20
-48.757652
 30
0.0
 11
0.016759
 21
-49.017395
 31
0.0
  0
LINE
  5
B1
100
AcDbEntity
  8
0
  6
CONTINUOUS
 62
     7
100
AcDbLine
 10
1.0
 20
-48.614338
 30
0.0
 11
1.704534
 21
-53.627354
 31
0.0
  0
LINE
  5
B2
100
AcDbEntity
  8
0
  6
CONTINUOUS
 62
     7
100
AcDbLine
 10
12.346111
 20
17.5
 30
0.0
 11
12.346111
 21
1.817678
 31
0.0
  0
LINE
  5
B3
100
AcDbEntity
  8
0
  6
CONTINUOUS
 62
     7
100
AcDbLine
 10
12.346111
 20
17.5
 30
0.0
 11
1.000001
 21
19.0
 31
0.0
  0
LINE
  5
B4
100
AcDbEntity
  8
0
  6
CENTER
 62
     7
100
AcDbLine
 10
104.63686
 20
-57.283146
 30
0.0
 11
79.858856
 21
-53.800827
 31
0.0
  0
LINE
  5
B5
100
AcDbEntity
  8
0
  6
CONTINUOUS
 62
     7
100
AcDbLine
 10
93.808029
 20
-48.94492
 30
0.0
 11
85.88588
 21
-47.831532
 31
0.0
  0
LINE
  5
B6
100
AcDbEntity
  8
0
  6
CONTINUOUS
 62
     7
100
AcDbLine
 10
91.929192
 20
-62.313538
 30
0.0
 11
84.007042
 21
-61.200153
 31
0.0
  0
LINE
  5
B7
100
AcDbEntity
  8
0
  6
CONTINUOUS
 62
     7
100
AcDbLine
 10
99.5
 20
-52.319935
 30
0.0
 11
93.453133
 21
-51.470104
 31
0.0
  0
LINE
  5
B8
100
AcDbEntity
  8
0
  6
CONTINUOUS
 62
     7
100
AcDbLine
 10
99.5
 20
-60.802486
 30
0.0
 11
92.284081
 21
-59.788353
 31
0.0
  0
LINE
  5
B9
100
AcDbEntity
  8
0
  6
CONTINUOUS
 62
     7
100
AcDbLine
 10
32.25
 20
-47.831535
 30
0.0
 11
35.75
 21
-47.831535
 31
0.0
  0
LINE
  5
BA
100
AcDbEntity
  8
0
  6
CONTINUOUS
 62
     7
100
AcDbLine
 10
32.25
 20
-48.94492
 30
0.0
 11
35.75
 21
-48.94492
 31
0.0
  0
LINE
  5
BB
100
AcDbEntity
  8
0
  6
CONTINUOUS
 62
     7
100
AcDbLine
 10
32.25
 20
-51.470104
 30
0.0
 11
35.75
 21
-51.470104
 31
0.0
  0
LINE
  5
BC
100
AcDbEntity
  8
0
  6
CONTINUOUS
 62
     7
100
AcDbLine
 10
32.25
 20
-52.319935
 30
0.0
 11
35.75
 21
-52.319935
 31
0.0
  0
LINE
  5
BD
100
AcDbEntity
  8
0
  6
CONTINUOUS
 62
     7
100
AcDbLine
 10
32.25
 20
-61.200153
 30
0.0
 11
35.75
 21
-61.200153
 31
0.0
  0
LINE
  5
BE
100
AcDbEntity
  8
0
  6
CONTINUOUS
 62
     7
100
AcDbLine
 10
32.25
 20
-59.788357
 30
0.0
 11
35.75
 21
-59.788357
 31
0.0
  0
LINE
  5
BF
100
AcDbEntity
  8
0
  6
CONTINUOUS
 62
     7
100
AcDbLine
 10
-8.331969
 20
-55.037895
 30
0.0
 11
-8.184497
 21
-56.519745
 31
0.0
  0
LINE
  5
C0
100
AcDbEntity
  8
0
  6
CONTINUOUS
 62
     7
100
AcDbLine
 10
-8.184497
 20
-56.519745
 30
0.0
 11
-5.090749
 21
-65.019745
 31
0.0
  0
LINE
  5
C1
100
AcDbEntity
  8
0
  6
CONTINUOUS
 62
     7
100
AcDbLine
 10
-37.364861
 20
9.0
 30
0.0
 11
-36.09996
 21
0.0
 31
0.0
  0
LINE
  5
C2
100
AcDbEntity
  8
0
  6
CONTINUOUS
 62
     7
100
AcDbLine
 10
-42.212032
 20
9.000001
 30
0.0
 11
-40.947132
 21
0.0
 31
0.0
  0
LINE
  5
C3
100
AcDbEntity
  8
0
  6
CONTINUOUS
 62
     7
100
AcDbLine
 10
-37.364861
 20
9.0
 30
0.0
 11
-35.956345
 21
19.0
 31
0.0
  0
LINE
  5
C4
100
AcDbEntity
  8
0
  6
CONTINUOUS
 62
     7
100
AcDbLine
 10
-42.212032
 20
9.0
 30
0.0
 11
-40.949932
 21
17.960495
 31
0.0
  0
LINE
  5
C5
100
AcDbEntity
  8
0
  6
CONTINUOUS
 62
     7
100
AcDbLine
 10
-36.10276
 20
17.960495
 30
0.0
 11
-34.83786
 21
8.960495
 31
0.0
  0
LINE
  5
C6
100
AcDbEntity
  8
0
  6
CONTINUOUS
 62
     7
100
AcDbLine
 10
-36.09996
 20
0.0
 30
0.0
 11
-34.83786
 21
8.960495
 31
0.0
  0
LINE
  5
C7
100
AcDbEntity
  8
0
  6
CONTINUOUS
 62
     7
100
AcDbLine
 10
-35.59996
 20
1.0
 30
0.0
 11
-34.09996
 21
2.5
 31
0.0
  0
LINE
  5
C8
100
AcDbEntity
  8
0
  6
CONTINUOUS
 62
     7
100
AcDbLine
 10
-35.95911
 20
1.0
 30
0.0
 11
-35.59996
 21
1.0
 31
0.0
  0
LINE
  5
C9
100
AcDbEntity
  8
0
  6
CONTINUOUS
 62
     7
100
AcDbLine
 10
-0.019746
 20
-48.757652
 30
0.0
 11
12.346111
 21
-47.019745
 31
0.0
  0
CIRCLE
  5
CA
100
AcDbEntity
  8
0
  6
CONTINUOUS
 62
     7
100
AcDbCircle
 10
0.000001
 20
9.0
 30
0.0
 40
2.599999
  0
CIRCLE
  5
CB
100
AcDbEntity
  8
0
  6
CONTINUOUS
 62
     7
100
AcDbCircle
 10
9.000001
 20
-57.019745
 30
0.0
 40
3.0
  0
CIRCLE
  5
CC
100
AcDbEntity
  8
0
  6
CONTINUOUS
 62
     7
100
AcDbCircle
 10
9.000001
 20
-57.019745
 30
0.0
 40
2.5
  0
ARC
  5
CD
100
AcDbEntity
  8
0
  6
CONTINUOUS
 62
     7
100
AcDbCircle
 10
7.424622
 20
10.535885
 30
0.0
 40
2.2
100
AcDbArc
 50
315.00006
 51
134.99995
  0
ARC
  5
CE
100
AcDbEntity
  8
0
  6
CONTINUOUS
 62
     7
100
AcDbCircle
 10
13.500001
 20
2.783
 30
0.0
 40
0.5
100
AcDbArc
 50
90.000003
 51
180.00001
  0
ARC
  5
CF
100
AcDbEntity
  8
0
  6
CONTINUOUS
 62
     7
100
AcDbCircle
 10
13.500001
 20
5.0
 30
0.0
 40
0.5
100
AcDbArc
 50
90.000003
 51
180.00001
  0
LWPOLYLINE
  5
D0
100
AcDbEntity
  8
0
  6
CONTINUOUS
 62
     7
100
AcDbPolyline
 90
       17
 70
     0
 43
0.0
 10
32.25
 20
-47.831535
 42
0.048416
 10
30.939577
 20
-47.958708
 42
0.048522
 10
29.678119
 20
-48.335753
 42
0.048718
 10
28.513153
 20
-48.949299
 42
0.048977
 10
27.489284
 20
-49.77722
 42
0.049271
 10
26.646396
 20
-50.789211
 42
0.049546
 10
26.018299
 20
-51.947174
 42
0.049752
 10
25.63081
 20
-53.206284
 42
0.049813
 10
25.5
 20
-54.515846
 42
0.049822
 10
25.630857
 20
-55.825639
 42
0.049704
 10
26.017904
 20
-57.083579
 42
0.04952
 10
26.645432
 20
-58.24106
 42
0.049257
 10
27.4878
 20
-59.253007
 42
0.048988
 10
28.511631
 20
-60.081389
 42
0.048743
 10
29.677059
 20
-60.695504
 42
0.048553
 10
30.939285
 20
-61.072924
 42
0.048427
 10
32.25
 20
-61.200153
  0
LWPOLYLINE
  5
E3
100
AcDbEntity
  8
0
  6
CONTINUOUS
 62
     7
100
AcDbPolyline
 90
       17
 70
     0
 43
0.0
 10
32.25
 20
-48.94492
 42
0.020581
 10
31.639023
 20
-48.970073
 42
0.020698
 10
31.031392
 20
-49.045605
 42
0.020877
 10
30.432105
 20
-49.171327
 42
0.021141
 10
29.845527
 20
-49.346874
 42
0.021493
 10
29.276028
 20
-49.571718
 42
0.021926
 10
28.728146
 20
-49.845099
 42
0.022437
 10
28.206596
 20
-50.165958
 42
0.023014
 10
27.716271
 20
-50.532853
 42
0.023645
 10
27.262217
 20
-50.943863
 42
0.024311
 10
26.849568
 20
-51.39649
 42
0.024989
 10
26.483452
 20
-51.887557
 42
0.025651
 10
26.16885
 20
-52.413129
 42
0.026261
 10
25.910412
 20
-52.968462
 42
0.026786
 10
25.712249
 20
-53.548005
 42
0.027191
 10
25.577701
 20
-54.145465
 42
0.027446
 10
25.50913
 20
-54.753944
  0
LWPOLYLINE
  5
F6
100
AcDbEntity
  8
0
  6
CONTINUOUS
 62
     7
100
AcDbPolyline
 90
       17
 70
     0
 43
0.0
 10
32.25
 20
-51.470104
 42
0.048369
 10
31.435412
 20
-51.54908
 42
0.048522
 10
30.650461
 20
-51.783537
 42
0.048718
 10
29.92552
 20
-52.16516
 42
0.048977
 10
29.288348
 20
-52.68019
 42
0.04927
 10
28.763763
 20
-53.309771
 42
0.049546
 10
28.372807
 20
-54.030206
 42
0.049752
 10
28.131551
 20
-54.813606
 42
0.049862
 10
28.049999
 20
-55.62923
 42
0.049822
 10
28.131421
 20
-56.444213
 42
0.049704
 10
28.372251
 20
-57.226931
 42
0.04952
 10
28.762713
 20
-57.947141
 42
0.049257
 10
29.286852
 20
-58.576798
 42
0.048988
 10
29.923903
 20
-59.092236
 42
0.048743
 10
30.649058
 20
-59.474352
 42
0.048553
 10
31.434443
 20
-59.709191
 42
0.048427
 10
32.25
 20
-59.788357
  0
LWPOLYLINE
  5
109
100
AcDbEntity
  8
0
  6
CONTINUOUS
 62
     7
100
AcDbPolyline
 90
       17
 70
     0
 43
0.0
 10
32.25
 20
-52.319935
 42
0.019741
 10
31.877688
 20
-52.334636
 42
0.019892
 10
31.506713
 20
-52.378877
 42
0.020049
 10
31.141168
 20
-52.452422
 42
0.020341
 10
30.782768
 20
-52.555206
 42
0.020731
 10
30.434003
 20
-52.68704
 42
0.021217
 10
30.097489
 20
-52.847633
 42
0.021794
 10
29.775982
 20
-53.036548
 42
0.022454
 10
29.472393
 20
-53.253148
 42
0.023185
 10
29.189778
 20
-53.496534
 42
0.02397
 10
28.93131
 20
-53.765466
 42
0.024784
 10
28.700234
 20
-54.058291
 42
0.025593
 10
28.499776
 20
-54.372875
 42
0.026358
 10
28.333029
 20
-54.706542
 42
0.027033
 10
28.202804
 20
-55.056054
 42
0.027572
 10
28.111463
 20
-55.417638
 42
0.027932
 10
28.060756
 20
-55.787059
  0
LWPOLYLINE
  5
11C
100
AcDbEntity
  8
0
  6
CONTINUOUS
 62
     7
100
AcDbPolyline
 90
       17
 70
     0
 43
0.0
 10
35.75
 20
-47.831535
 42
-0.048416
 10
37.060423
 20
-47.958708
 42
-0.048522
 10
38.321881
 20
-48.335753
 42
-0.048718
 10
39.486847
 20
-48.949299
 42
-0.048977
 10
40.510716
 20
-49.77722
 42
-0.049271
 10
41.353604
 20
-50.789211
 42
-0.049546
 10
41.981701
 20
-51.947174
 42
-0.049752
 10
42.36919
 20
-53.206284
 42
-0.049813
 10
42.5
 20
-54.515846
 42
-0.049822
 10
42.369143
 20
-55.825639
 42
-0.049704
 10
41.982096
 20
-57.083579
 42
-0.04952
 10
41.354568
 20
-58.24106
 42
-0.049257
 10
40.5122
 20
-59.253007
 42
-0.048988
 10
39.488369
 20
-60.081389
 42
-0.048743
 10
38.322941
 20
-60.695504
 42
-0.048553
 10
37.060715
 20
-61.072924
 42
-0.048427
 10
35.75
 20
-61.200153
  0
LWPOLYLINE
  5
12F
100
AcDbEntity
  8
0
  6
CONTINUOUS
 62
     7
100
AcDbPolyline
 90
       17
 70
     0
 43
0.0
 10
35.75
 20
-48.94492
 42
-0.020581
 10
36.360977
 20
-48.970073
 42
-0.020698
 10
36.968608
 20
-49.045605
 42
-0.020877
 10
37.567895
 20
-49.171327
 42
-0.021141
 10
38.154473
 20
-49.346874
 42
-0.021493
 10
38.723972
 20
-49.571718
 42
-0.021926
 10
39.271854
 20
-49.845099
 42
-0.022437
 10
39.793404
 20
-50.165958
 42
-0.023014
 10
40.283729
 20
-50.532853
 42
-0.023645
 10
40.737783
 20
-50.943863
 42
-0.024311
 10
41.150432
 20
-51.39649
 42
-0.024989
 10
41.516548
 20
-51.887557
 42
-0.025651
 10
41.83115
 20
-52.413129
 42
-0.026261
 10
42.089588
 20
-52.968462
 42
-0.026786
 10
42.287751
 20
-53.548005
 42
-0.027191
 10
42.422299
 20
-54.145465
 42
-0.027446
 10
42.49087
 20
-54.753944
  0
LWPOLYLINE
  5
142
100
AcDbEntity
  8
0
  6
CONTINUOUS
 62
     7
100
AcDbPolyline
 90
       17
 70
     0
 43
0.0
 10
35.75
 20
-51.470104
 42
-0.048369
 10
36.564588
 20
-51.54908
 42
-0.048522
 10
37.349539
 20
-51.783537
 42
-0.048718
 10
38.07448
 20
-52.16516
 42
-0.048977
 10
38.711652
 20
-52.68019
 42
-0.04927
 10
39.236237
 20
-53.309771
 42
-0.049546
 10
39.627193
 20
-54.030206
 42
-0.049752
 10
39.868449
 20
-54.813606
 42
-0.049862
 10
39.950001
 20
-55.62923
 42
-0.049822
 10
39.868579
 20
-56.444213
 42
-0.049704
 10
39.627749
 20
-57.226931
 42
-0.04952
 10
39.237287
 20
-57.947141
 42
-0.049257
 10
38.713148
 20
-58.576798
 42
-0.048988
 10
38.076097
 20
-59.092236
 42
-0.048743
 10
37.350942
 20
-59.474352
 42
-0.048553
 10
36.565557
 20
-59.709191
 42
-0.048427
 10
35.75
 20
-59.788357
  0
LWPOLYLINE
  5
155
100
AcDbEntity
  8
0
  6
CONTINUOUS
 62
     7
100
AcDbPolyline
 90
       17
 70
     0
 43
0.0
 10
35.75
 20
-52.319935
 42
-0.019741
 10
36.122312
 20
-52.334636
 42
-0.019892
 10
36.493287
 20
-52.378877
 42
-0.020049
 10
36.858832
 20
-52.452422
 42
-0.020341
 10
37.217232
 20
-52.555206
 42
-0.020731
 10
37.565997
 20
-52.68704
 42
-0.021217
 10
37.902511
 20
-52.847633
 42
-0.021794
 10
38.224018
 20
-53.036548
 42
-0.022454
 10
38.527607
 20
-53.253148
 42
-0.023185
 10
38.810222
 20
-53.496534
 42
-0.02397
 10
39.06869
 20
-53.765466
 42
-0.024784
 10
39.299766
 20
-54.058291
 42
-0.025593
 10
39.500224
 20
-54.372875
 42
-0.026358
 10
39.666971
 20
-54.706542
 42
-0.027033
 10
39.797196
 20
-55.056054
 42
-0.027572
 10
39.888537
 20
-55.417638
 42
-0.027932
 10
39.939244
 20
-55.787059
  0
LWPOLYLINE
  5
168
100
AcDbEntity
  8
0
  6
CONTINUOUS
 62
     7
100
AcDbPolyline
 90
       16
 70
     1
 43
0.0
 10
42.5
 20
4.446464
 42
0.13236
 10
40.484213
 20
5.05387
 42
0.015599
 10
38.329066
 20
5.254916
 42
0.008969
 10
36.166288
 20
5.354861
 42
0.007248
 10
34.0
 20
5.385882
 42
0.007243
 10
31.835098
 20
5.354901
 42
0.00897
 10
29.671632
 20
5.254961
 42
0.015605
 10
27.515425
 20
5.053823
 42
0.132457
 10
25.5
 20
4.446464
 42
0.13236
 10
27.515787
 20
3.839057
 42
0.015599
 10
29.670934
 20
3.638011
 42
0.008969
 10
31.833712
 20
3.538066
 42
0.007248
 10
34.0
 20
3.507045
 42
0.007243
 10
36.164902
 20
3.538026
 42
0.00897
 10
38.328368
 20
3.637966
 42
0.015605
 10
40.484575
 20
3.839104
 42
0.132457
  0
LINE
  5
17A
100
AcDbEntity
  8
0
  6
CONTINUOUS
 62
     7
100
AcDbLine
 10
96.708993
 20
-64.932942
 30
0.0
 11
99.5
 21
-62.141929
 31
0.0
  0
LINE
  5
17B
100
AcDbEntity
  8
0
  6
CONTINUOUS
 62
     7
100
AcDbLine
 10
94.444167
 20
-64.952706
 30
0.0
 11
98.705971
 21
-60.690893
 31
0.0
  0
LINE
  5
17C
100
AcDbEntity
  8
0
  6
CONTINUOUS
 62
     7
100
AcDbLine
 10
92.179342
 20
-64.97247
 30
0.0
 11
96.737552
 21
-60.41425
 31
0.0
  0
LINE
  5
17D
100
AcDbEntity
  8
0
  6
CONTINUOUS
 62
     7
100
AcDbLine
 10
89.914516
 20
-64.992233
 30
0.0
 11
94.769132
 21
-60.137607
 31
0.0
  0
LINE
  5
17E
100
AcDbEntity
  8
0
  6
CONTINUOUS
 62
     7
100
AcDbLine
 10
87.64969
 20
-65.011997
 30
0.0
 11
90.542965
 21
-62.118716
 31
0.0
  0
LINE
  5
17F
100
AcDbEntity
  8
0
  6
CONTINUOUS
 62
     7
100
AcDbLine
 10
92.187727
 20
-60.473952
 30
0.0
 11
92.800713
 21
-59.860965
 31
0.0
  0
LINE
  5
180
100
AcDbEntity
  8
0
  6
CONTINUOUS
 62
     7
100
AcDbLine
 10
85.395416
 20
-65.02121
 30
0.0
 11
88.574546
 21
-61.842073
 31
0.0
  0
LINE
  5
181
100
AcDbEntity
  8
0
  6
CONTINUOUS
 62
     7
100
AcDbLine
 10
84.20877
 20
-63.962793
 30
0.0
 11
86.606127
 21
-61.56543
 31
0.0
  0
LINE
  5
182
100
AcDbEntity
  8
0
  6
CONTINUOUS
 62
     7
100
AcDbLine
 10
83.889423
 20
-62.037074
 30
0.0
 11
84.637708
 21
-61.288788
 31
0.0
  0
LINE
  5
183
100
AcDbEntity
  8
0
  6
CONTINUOUS
 62
     7
100
AcDbLine
 10
98.269588
 20
-52.147012
 30
0.0
 11
99.5
 21
-50.916598
 31
0.0
  0
LINE
  5
184
100
AcDbEntity
  8
0
  6
CONTINUOUS
 62
     7
100
AcDbLine
 10
96.301169
 20
-51.870369
 30
0.0
 11
99.5
 21
-48.671532
 31
0.0
  0
LINE
  5
185
100
AcDbEntity
  8
0
  6
CONTINUOUS
 62
     7
100
AcDbLine
 10
94.332749
 20
-51.593726
 30
0.0
 11
98.703318
 21
-47.223148
 31
0.0
  0
LINE
  5
186
100
AcDbEntity
  8
0
  6
CONTINUOUS
 62
     7
100
AcDbLine
 10
93.656202
 20
-50.025208
 30
0.0
 11
96.661653
 21
-47.019751
 31
0.0
  0
LINE
  5
187
100
AcDbEntity
  8
0
  6
CONTINUOUS
 62
     7
100
AcDbLine
 10
92.653662
 20
-48.782684
 30
0.0
 11
94.416593
 21
-47.01975
 31
0.0
  0
LINE
  5
188
100
AcDbEntity
  8
0
  6
CONTINUOUS
 62
     7
100
AcDbLine
 10
90.685243
 20
-48.506041
 30
0.0
 11
92.171533
 21
-47.019749
 31
0.0
  0
LINE
  5
189
100
AcDbEntity
  8
0
  6
CONTINUOUS
 62
     7
100
AcDbLine
 10
88.716824
 20
-48.229398
 30
0.0
 11
89.926472
 21
-47.019747
 31
0.0
  0
LINE
  5
18A
100
AcDbEntity
  8
0
  6
CONTINUOUS
 62
     7
100
AcDbLine
 10
86.748404
 20
-47.952755
 30
0.0
 11
87.681412
 21
-47.019746
 31
0.0
  0
TEXT
  5
18B
100
AcDbEntity
  8
0
  6
CONTINUOUS
100
AcDbText
 10
8.389625
 20
-100.927462
 30
0.0
 40
6.0
  1
ＢＵ１４５Ｒ
100
AcDbText
  0
ENDBLK
  5
18D
100
AcDbEntity
  8
0
100
AcDbBlockEnd
  0
BLOCK
  5
306
100
AcDbEntity
  8
0
100
AcDbBlockBegin
  2
*D2
 70
     1
 10
0.0
 20
0.0
 30
0.0
  3
*D2
  1

  0
LINE
  5
2FC
100
AcDbEntity
  8
寸法
 62
     1
100
AcDbLine
 10
226.075874
 20
68.868272
 30
0.0
 11
231.0
 21
68.868272
 31
0.0
1001
ACAD
1000
RTLwPs
1070
   158
  0
LINE
  5
2FD
100
AcDbEntity
  8
寸法
 62
     1
100
AcDbLine
 10
224.562668
 20
60.40827
 30
0.0
 11
231.0
 21
60.40827
 31
0.0
1001
ACAD
1000
RTLwPs
1070
   158
  0
LINE
  5
2FE
100
AcDbEntity
  8
寸法
 62
     1
100
AcDbLine
 10
230.0
 20
66.868272
 30
0.0
 11
230.0
 21
62.40827
 31
0.0
1001
ACAD
1000
RTLwPs
1070
   158
  0
LINE
  5
2FF
100
AcDbEntity
  8
寸法
 62
     1
100
AcDbLine
 10
230.0
 20
60.40827
 30
0.0
 11
230.0
 21
47.40827
 31
0.0
1001
ACAD
1000
RTLwPs
1070
   158
  0
INSERT
  5
300
100
AcDbEntity
  8
寸法
 62
     1
100
AcDbBlockReference
  2
_OPEN30
 10
230.0
 20
68.868272
 30
0.0
 41
2.0
 42
2.0
 43
2.0
 50
90.0
1001
ACAD
1000
RTLwPs
1070
   158
  0
INSERT
  5
301
100
AcDbEntity
  8
寸法
 62
     1
100
AcDbBlockReference
  2
_OPEN30
 10
230.0
 20
60.40827
 30
0.0
 41
2.0
 42
2.0
 43
2.0
 50
270.0
1001
ACAD
1000
RTLwPs
1070
   158
  0
MTEXT
  5
302
100
AcDbEntity
  8
寸法
 62
     1
100
AcDbMText
 10
227.5
 20
52.90827
 30
0.0
 40
3.0
 41
0.0
 71
     5
 72
     1
  1
\A1;8.46
 11
0.0
 21
1.0
 31
0.0
1001
ACAD
1000
MTEXTBEGIN
1070
    73
1070
     1
1070
    44
1040
1.0
1070
    74
1070
     0
1000
MTEXTEND
1000
MTEXTBEGIN
1070
    73
1070
     1
1070
    44
1040
1.0
1070
    74
1070
     0
1000
MTEXTEND
  0
POINT
  5
303
100
AcDbEntity
  8
DEFPOINTS
 62
     0
100
AcDbPoint
 10
225.075874
 20
68.868272
 30
0.0
  0
POINT
  5
304
100
AcDbEntity
  8
DEFPOINTS
 62
     0
100
AcDbPoint
 10
223.562668
 20
60.40827
 30
0.0
  0
POINT
  5
305
100
AcDbEntity
  8
DEFPOINTS
 62
     0
100
AcDbPoint
 10
230.0
 20
60.40827
 30
0.0
  0
ENDBLK
  5
307
100
AcDbEntity
  8
0
100
AcDbBlockEnd
  0
BLOCK
  5
313
100
AcDbEntity
  8
0
100
AcDbBlockBegin
  2
*D3
 70
     1
 10
0.0
 20
0.0
 30
0.0
  3
*D3
  1

  0
LINE
  5
30A
100
AcDbEntity
  8
寸法
 62
     1
100
AcDbLine
 10
169.1607
 20
78.409735
 30
0.0
 11
191.0
 21
78.409735
 31
0.0
1001
ACAD
1000
RTLwPs
1070
   158
  0
LINE
  5
30B
100
AcDbEntity
  8
寸法
 62
     1
100
AcDbLine
 10
169.1607
 20
60.409735
 30
0.0
 11
191.0
 21
60.409735
 31
0.0
1001
ACAD
1000
RTLwPs
1070
   158
  0
LINE
  5
30C
100
AcDbEntity
  8
寸法
 62
     1
100
AcDbLine
 10
190.0
 20
76.409735
 30
0.0
 11
190.0
 21
62.409735
 31
0.0
1001
ACAD
1000
RTLwPs
1070
   158
  0
INSERT
  5
30D
100
AcDbEntity
  8
寸法
 62
     1
100
AcDbBlockReference
  2
_OPEN30
 10
190.0
 20
78.409735
 30
0.0
 41
2.0
 42
2.0
 43
2.0
 50
90.0
1001
ACAD
1000
RTLwPs
1070
   158
  0
INSERT
  5
30E
100
AcDbEntity
  8
寸法
 62
     1
100
AcDbBlockReference
  2
_OPEN30
 10
190.0
 20
60.409735
 30
0.0
 41
2.0
 42
2.0
 43
2.0
 50
270.0
1001
ACAD
1000
RTLwPs
1070
   158
  0
MTEXT
  5
30F
100
AcDbEntity
  8
寸法
 62
     1
100
AcDbMText
 10
187.5
 20
69.409735
 30
0.0
 40
3.0
 41
0.0
 71
     5
 72
     1
  1
\A1;18
 11
0.0
 21
1.0
 31
0.0
1001
ACAD
1000
MTEXTBEGIN
1070
    73
1070
     1
1070
    44
1040
1.0
1070
    74
1070
     0
1000
MTEXTEND
1000
MTEXTBEGIN
1070
    73
1070
     1
1070
    44
1040
1.0
1070
    74
1070
     0
1000
MTEXTEND
  0
POINT
  5
310
100
AcDbEntity
  8
DEFPOINTS
 62
     0
100
AcDbPoint
 10
168.1607
 20
78.409735
 30
0.0
  0
POINT
  5
311
100
AcDbEntity
  8
DEFPOINTS
 62
     0
100
AcDbPoint
 10
168.1607
 20
60.409735
 30
0.0
  0
POINT
  5
312
100
AcDbEntity
  8
DEFPOINTS
 62
     0
100
AcDbPoint
 10
190.0
 20
60.409735
 30
0.0
  0
ENDBLK
  5
314
100
AcDbEntity
  8
0
100
AcDbBlockEnd
  0
BLOCK
  5
320
100
AcDbEntity
  8
0
100
AcDbBlockBegin
  2
*D4
 70
     1
 10
0.0
 20
0.0
 30
0.0
  3
*D4
  1

  0
LINE
  5
34F
100
AcDbEntity
  8
寸法
 62
     1
100
AcDbLine
 10
110.160701
 20
75.144862
 30
0.0
 11
99.0
 21
75.144862
 31
0.0
1001
ACAD
1000
RTLwPs
1070
   158
  0
LINE
  5
350
100
AcDbEntity
  8
寸法
 62
     1
100
AcDbLine
 10
114.069951
 20
60.409735
 30
0.0
 11
99.0
 21
60.409735
 31
0.0
1001
ACAD
1000
RTLwPs
1070
   158
  0
LINE
  5
351
100
AcDbEntity
  8
寸法
 62
     1
100
AcDbLine
 10
100.0
 20
73.144862
 30
0.0
 11
100.0
 21
62.409735
 31
0.0
1001
ACAD
1000
RTLwPs
1070
   158
  0
INSERT
  5
352
100
AcDbEntity
  8
寸法
 62
     1
100
AcDbBlockReference
  2
_OPEN30
 10
100.0
 20
75.144862
 30
0.0
 41
2.0
 42
2.0
 43
2.0
 50
90.0
1001
ACAD
1000
RTLwPs
1070
   158
  0
INSERT
  5
353
100
AcDbEntity
  8
寸法
 62
     1
100
AcDbBlockReference
  2
_OPEN30
 10
100.0
 20
60.409735
 30
0.0
 41
2.0
 42
2.0
 43
2.0
 50
270.0
1001
ACAD
1000
RTLwPs
1070
   158
  0
MTEXT
  5
354
100
AcDbEntity
  8
寸法
 62
     1
100
AcDbMText
 10
97.5
 20
67.777298
 30
0.0
 40
3.0
 41
0.0
 71
     5
 72
     1
  1
\A1;14.7
 11
0.0
 21
1.0
 31
0.0
1001
ACAD
1000
MTEXTBEGIN
1070
    73
1070
     1
1070
    44
1040
1.0
1070
    74
1070
     0
1000
MTEXTEND
1000
MTEXTBEGIN
1070
    73
1070
     1
1070
    44
1040
1.0
1070
    74
1070
     0
1000
MTEXTEND
  0
POINT
  5
355
100
AcDbEntity
  8
DEFPOINTS
 62
     0
100
AcDbPoint
 10
111.160701
 20
75.144862
 30
0.0
  0
POINT
  5
356
100
AcDbEntity
  8
DEFPOINTS
 62
     0
100
AcDbPoint
 10
115.069951
 20
60.409735
 30
0.0
  0
POINT
  5
357
100
AcDbEntity
  8
DEFPOINTS
 62
     0
100
AcDbPoint
 10
100.0
 20
60.409735
 30
0.0
  0
ENDBLK
  5
321
100
AcDbEntity
  8
0
100
AcDbBlockEnd
  0
BLOCK
  5
32F
100
AcDbEntity
  8
0
100
AcDbBlockBegin
  2
*D5
 70
     1
 10
0.0
 20
0.0
 30
0.0
  3
*D5
  1

  0
LINE
  5
324
100
AcDbEntity
  8
寸法
 62
     1
100
AcDbLine
 10
152.4107
 20
56.404379
 30
0.0
 11
152.4107
 21
49.0
 31
0.0
1001
ACAD
1000
RTLwPs
1070
   158
  0
LINE
  5
325
100
AcDbEntity
  8
寸法
 62
     1
100
AcDbLine
 10
155.9107
 20
56.404379
 30
0.0
 11
155.9107
 21
49.0
 31
0.0
1001
ACAD
1000
RTLwPs
1070
   158
  0
LINE
  5
326
100
AcDbEntity
  8
寸法
 62
     1
100
AcDbLine
 10
150.4107
 20
50.0
 30
0.0
 11
148.4107
 21
50.0
 31
0.0
1001
ACAD
1000
RTLwPs
1070
   158
  0
LINE
  5
327
100
AcDbEntity
  8
寸法
 62
     1
100
AcDbLine
 10
157.9107
 20
50.0
 30
0.0
 11
167.9107
 21
50.0
 31
0.0
1001
ACAD
1000
RTLwPs
1070
   158
  0
LINE
  5
328
100
AcDbEntity
  8
寸法
 62
     1
100
AcDbLine
 10
152.4107
 20
50.0
 30
0.0
 11
155.9107
 21
50.0
 31
0.0
1001
ACAD
1000
RTLwPs
1070
   158
  0
INSERT
  5
329
100
AcDbEntity
  8
寸法
 62
     1
100
AcDbBlockReference
  2
_OPEN30
 10
152.4107
 20
50.0
 30
0.0
 41
2.0
 42
2.0
 43
2.0
1001
ACAD
1000
RTLwPs
1070
   158
  0
INSERT
  5
32A
100
AcDbEntity
  8
寸法
 62
     1
100
AcDbBlockReference
  2
_OPEN30
 10
155.9107
 20
50.0
 30
0.0
 41
2.0
 42
2.0
 43
2.0
 50
180.0
1001
ACAD
1000
RTLwPs
1070
   158
  0
MTEXT
  5
32B
100
AcDbEntity
  8
寸法
 62
     1
100
AcDbMText
 10
163.9107
 20
52.5
 30
0.0
 40
3.0
 41
0.0
 71
     5
 72
     1
  1
\A1;3.5
1001
ACAD
1000
MTEXTBEGIN
1070
    73
1070
     1
1070
    44
1040
1.0
1070
    74
1070
     0
1000
MTEXTEND
1000
MTEXTBEGIN
1070
    73
1070
     1
1070
    44
1040
1.0
1070
    74
1070
     0
1000
MTEXTEND
  0
POINT
  5
32C
100
AcDbEntity
  8
DEFPOINTS
 62
     0
100
AcDbPoint
 10
152.4107
 20
57.404379
 30
0.0
  0
POINT
  5
32D
100
AcDbEntity
  8
DEFPOINTS
 62
     0
100
AcDbPoint
 10
155.9107
 20
57.404379
 30
0.0
  0
POINT
  5
32E
100
AcDbEntity
  8
DEFPOINTS
 62
     0
100
AcDbPoint
 10
155.9107
 20
50.0
 30
0.0
  0
ENDBLK
  5
330
100
AcDbEntity
  8
0
100
AcDbBlockEnd
  0
BLOCK
  5
33C
100
AcDbEntity
  8
0
100
AcDbBlockBegin
  2
*D6
 70
     1
 10
0.0
 20
0.0
 30
0.0
  3
*D6
  1

  0
LINE
  5
333
100
AcDbEntity
  8
寸法
 62
     1
100
AcDbLine
 10
176.1607
 20
71.909735
 30
0.0
 11
176.1607
 21
91.0
 31
0.0
1001
ACAD
1000
RTLwPs
1070
   158
  0
LINE
  5
334
100
AcDbEntity
  8
寸法
 62
     1
100
AcDbLine
 10
154.1607
 20
82.404379
 30
0.0
 11
154.1607
 21
91.0
 31
0.0
1001
ACAD
1000
RTLwPs
1070
   158
  0
LINE
  5
335
100
AcDbEntity
  8
寸法
 62
     1
100
AcDbLine
 10
174.1607
 20
90.0
 30
0.0
 11
156.1607
 21
90.0
 31
0.0
1001
ACAD
1000
RTLwPs
1070
   158
  0
INSERT
  5
336
100
AcDbEntity
  8
寸法
 62
     1
100
AcDbBlockReference
  2
_OPEN30
 10
176.1607
 20
90.0
 30
0.0
 41
2.0
 42
2.0
 43
2.0
1001
ACAD
1000
RTLwPs
1070
   158
  0
INSERT
  5
337
100
AcDbEntity
  8
寸法
 62
     1
100
AcDbBlockReference
  2
_OPEN30
 10
154.1607
 20
90.0
 30
0.0
 41
2.0
 42
2.0
 43
2.0
 50
180.0
1001
ACAD
1000
RTLwPs
1070
   158
  0
MTEXT
  5
338
100
AcDbEntity
  8
寸法
 62
     1
100
AcDbMText
 10
165.1607
 20
92.5
 30
0.0
 40
3.0
 41
0.0
 71
     5
 72
     1
  1
\A1;22
1001
ACAD
1000
MTEXTBEGIN
1070
    73
1070
     1
1070
    44
1040
1.0
1070
    74
1070
     0
1000
MTEXTEND
1000
MTEXTBEGIN
1070
    73
1070
     1
1070
    44
1040
1.0
1070
    74
1070
     0
1000
MTEXTEND
  0
POINT
  5
339
100
AcDbEntity
  8
DEFPOINTS
 62
     0
100
AcDbPoint
 10
176.1607
 20
70.909735
 30
0.0
  0
POINT
  5
33A
100
AcDbEntity
  8
DEFPOINTS
 62
     0
100
AcDbPoint
 10
154.1607
 20
81.404379
 30
0.0
  0
POINT
  5
33B
100
AcDbEntity
  8
DEFPOINTS
 62
     0
100
AcDbPoint
 10
154.1607
 20
90.0
 30
0.0
  0
ENDBLK
  5
33D
100
AcDbEntity
  8
0
100
AcDbBlockEnd
  0
BLOCK
  5
34D
100
AcDbEntity
  8
0
100
AcDbBlockBegin
  2
*D7
 70
     1
 10
0.0
 20
0.0
 30
0.0
  3
*D7
  1

  0
LINE
  5
451
100
AcDbEntity
  8
寸法
 62
     1
100
AcDbLine
 10
131.506811
 20
78.409735
 30
0.0
 11
88.643106
 21
78.409735
 31
0.0
  0
LINE
  5
452
100
AcDbEntity
  8
寸法
 62
     1
100
AcDbLine
 10
110.170433
 20
75.005689
 30
0.0
 11
89.088325
 21
72.042795
 31
0.0
  0
ARC
  5
453
100
AcDbEntity
  8
寸法
 62
     1
100
AcDbCircle
 10
134.391506
 20
78.409735
 30
0.0
 40
44.7484
100
AcDbArc
 50
177.43899
 51
180.0
  0
LINE
  5
454
100
AcDbEntity
  8
寸法
 62
     1
100
AcDbLine
 10
89.6878
 20
80.409235
 30
0.0
 11
90.072076
 21
89.000646
 31
0.0
  0
ARC
  5
455
100
AcDbEntity
  8
寸法
 62
     1
100
AcDbCircle
 10
134.391506
 20
78.409735
 30
0.0
 40
44.7484
100
AcDbArc
 50
182.56101
 51
185.438981
  0
INSERT
  5
456
100
AcDbEntity
  8
寸法
 62
     1
100
AcDbBlockReference
  2
_OPEN30
 10
89.643106
 20
78.409735
 30
0.0
 41
2.0
 42
2.0
 43
2.0
 50
91.280505
  0
INSERT
  5
457
100
AcDbEntity
  8
寸法
 62
     1
100
AcDbBlockReference
  2
_OPEN30
 10
90.078593
 20
72.181968
 30
0.0
 41
2.0
 42
2.0
 43
2.0
 50
276.719486
  0
MTEXT
  5
458
100
AcDbEntity
  8
寸法
 62
     1
100
AcDbMText
 10
92.377441
 20
84.593233
 30
0.0
 40
3.0
 41
0.0
 71
     5
 72
     1
  1
\A1;8°
 11
-0.044683
 21
-0.999001
 31
0.0
  0
POINT
  5
459
100
AcDbEntity
  8
DEFPOINTS
 62
     0
100
AcDbPoint
 10
89.836831
 20
74.250382
 30
0.0
  0
POINT
  5
45A
100
AcDbEntity
  8
DEFPOINTS
 62
     0
100
AcDbPoint
 10
132.506811
 20
78.409735
 30
0.0
  0
POINT
  5
45B
100
AcDbEntity
  8
DEFPOINTS
 62
     0
100
AcDbPoint
 10
111.160701
 20
75.144862
 30
0.0
  0
POINT
  5
45C
100
AcDbEntity
  8
DEFPOINTS
 62
     0
100
AcDbPoint
 10
121.197205
 20
76.555399
 30
0.0
  0
POINT
  5
45D
100
AcDbEntity
  8
DEFPOINTS
 62
     0
100
AcDbPoint
 10
168.1607
 20
78.409735
 30
0.0
  0
ENDBLK
  5
34E
100
AcDbEntity
  8
0
100
AcDbBlockEnd
  0
BLOCK
  5
363
100
AcDbEntity
  8
0
100
AcDbBlockBegin
  2
*D8
 70
     1
 10
0.0
 20
0.0
 30
0.0
  3
*D8
  1

  0
LINE
  5
35A
100
AcDbEntity
  8
寸法
 62
     1
100
AcDbLine
 10
176.1607
 20
134.42948
 30
0.0
 11
176.1607
 21
109.0
 31
0.0
1001
ACAD
1000
RTLwPs
1070
   158
  0
LINE
  5
35B
100
AcDbEntity
  8
寸法
 62
     1
100
AcDbLine
 10
111.160701
 20
133.42948
 30
0.0
 11
111.160701
 21
109.0
 31
0.0
1001
ACAD
1000
RTLwPs
1070
   158
  0
LINE
  5
35C
100
AcDbEntity
  8
寸法
 62
     1
100
AcDbLine
 10
174.1607
 20
110.0
 30
0.0
 11
113.160701
 21
110.0
 31
0.0
1001
ACAD
1000
RTLwPs
1070
   158
  0
INSERT
  5
35D
100
AcDbEntity
  8
寸法
 62
     1
100
AcDbBlockReference
  2
_OPEN30
 10
176.1607
 20
110.0
 30
0.0
 41
2.0
 42
2.0
 43
2.0
1001
ACAD
1000
RTLwPs
1070
   158
  0
INSERT
  5
35E
100
AcDbEntity
  8
寸法
 62
     1
100
AcDbBlockReference
  2
_OPEN30
 10
111.160701
 20
110.0
 30
0.0
 41
2.0
 42
2.0
 43
2.0
 50
180.0
1001
ACAD
1000
RTLwPs
1070
   158
  0
MTEXT
  5
35F
100
AcDbEntity
  8
寸法
 62
     1
100
AcDbMText
 10
143.6607
 20
112.5
 30
0.0
 40
3.0
 41
0.0
 71
     5
 72
     1
  1
\A1;65
1001
ACAD
1000
MTEXTBEGIN
1070
    73
1070
     1
1070
    44
1040
1.0
1070
    74
1070
     0
1000
MTEXTEND
1000
MTEXTBEGIN
1070
    73
1070
     1
1070
    44
1040
1.0
1070
    74
1070
     0
1000
MTEXTEND
  0
POINT
  5
360
100
AcDbEntity
  8
DEFPOINTS
 62
     0
100
AcDbPoint
 10
176.1607
 20
135.42948
 30
0.0
  0
POINT
  5
361
100
AcDbEntity
  8
DEFPOINTS
 62
     0
100
AcDbPoint
 10
111.160701
 20
134.42948
 30
0.0
  0
POINT
  5
362
100
AcDbEntity
  8
DEFPOINTS
 62
     0
100
AcDbPoint
 10
111.160701
 20
110.0
 30
0.0
  0
ENDBLK
  5
364
100
AcDbEntity
  8
0
100
AcDbBlockEnd
  0
BLOCK
  5
370
100
AcDbEntity
  8
0
100
AcDbBlockBegin
  2
*D9
 70
     1
 10
0.0
 20
0.0
 30
0.0
  3
*D9
  1

  0
LINE
  5
45E
100
AcDbEntity
  8
寸法
 62
     1
100
AcDbLine
 10
176.1607
 20
134.42948
 30
0.0
 11
176.1607
 21
119.0
 31
0.0
  0
LINE
  5
45F
100
AcDbEntity
  8
寸法
 62
     1
100
AcDbLine
 10
168.1607
 20
127.71248
 30
0.0
 11
168.1607
 21
119.0
 31
0.0
  0
LINE
  5
460
100
AcDbEntity
  8
寸法
 62
     1
100
AcDbLine
 10
174.1607
 20
120.0
 30
0.0
 11
170.1607
 21
120.0
 31
0.0
  0
INSERT
  5
461
100
AcDbEntity
  8
寸法
 62
     1
100
AcDbBlockReference
  2
_OPEN30
 10
176.1607
 20
120.0
 30
0.0
 41
2.0
 42
2.0
 43
2.0
  0
INSERT
  5
462
100
AcDbEntity
  8
寸法
 62
     1
100
AcDbBlockReference
  2
_OPEN30
 10
168.1607
 20
120.0
 30
0.0
 41
2.0
 42
2.0
 43
2.0
 50
180.0
  0
MTEXT
  5
463
100
AcDbEntity
  8
寸法
 62
     1
100
AcDbMText
 10
172.1607
 20
122.5
 30
0.0
 40
3.0
 41
0.0
 71
     5
 72
     1
  1
\A1;8
  0
POINT
  5
464
100
AcDbEntity
  8
DEFPOINTS
 62
     0
100
AcDbPoint
 10
176.1607
 20
135.42948
 30
0.0
  0
POINT
  5
465
100
AcDbEntity
  8
DEFPOINTS
 62
     0
100
AcDbPoint
 10
168.1607
 20
128.71248
 30
0.0
  0
POINT
  5
466
100
AcDbEntity
  8
DEFPOINTS
 62
     0
100
AcDbPoint
 10
168.1607
 20
120.0
 30
0.0
  0
ENDBLK
  5
371
100
AcDbEntity
  8
0
100
AcDbBlockEnd
  0
BLOCK
  5
386
100
AcDbEntity
  8
0
100
AcDbBlockBegin
  2
*D10
 70
     1
 10
0.0
 20
0.0
 30
0.0
  3
*D10
  1

  0
LINE
  5
37D
100
AcDbEntity
  8
寸法
 62
     1
100
AcDbLine
 10
119.160701
 20
125.42948
 30
0.0
 11
99.0
 21
125.42948
 31
0.0
1001
ACAD
1000
RTLwPs
1070
   158
  0
LINE
  5
37E
100
AcDbEntity
  8
寸法
 62
     1
100
AcDbLine
 10
120.160701
 20
144.42948
 30
0.0
 11
99.0
 21
144.42948
 31
0.0
1001
ACAD
1000
RTLwPs
1070
   158
  0
LINE
  5
37F
100
AcDbEntity
  8
寸法
 62
     1
100
AcDbLine
 10
100.0
 20
127.42948
 30
0.0
 11
100.0
 21
142.42948
 31
0.0
1001
ACAD
1000
RTLwPs
1070
   158
  0
INSERT
  5
380
100
AcDbEntity
  8
寸法
 62
     1
100
AcDbBlockReference
  2
_OPEN30
 10
100.0
 20
125.42948
 30
0.0
 41
2.0
 42
2.0
 43
2.0
 50
270.0
1001
ACAD
1000
RTLwPs
1070
   158
  0
INSERT
  5
381
100
AcDbEntity
  8
寸法
 62
     1
100
AcDbBlockReference
  2
_OPEN30
 10
100.0
 20
144.42948
 30
0.0
 41
2.0
 42
2.0
 43
2.0
 50
90.0
1001
ACAD
1000
RTLwPs
1070
   158
  0
MTEXT
  5
382
100
AcDbEntity
  8
寸法
 62
     1
100
AcDbMText
 10
97.5
 20
134.92948
 30
0.0
 40
3.0
 41
0.0
 71
     5
 72
     1
  1
\A1;19
 11
0.0
 21
1.0
 31
0.0
1001
ACAD
1000
MTEXTBEGIN
1070
    73
1070
     1
1070
    44
1040
1.0
1070
    74
1070
     0
1000
MTEXTEND
1000
MTEXTBEGIN
1070
    73
1070
     1
1070
    44
1040
1.0
1070
    74
1070
     0
1000
MTEXTEND
  0
POINT
  5
383
100
AcDbEntity
  8
DEFPOINTS
 62
     0
100
AcDbPoint
 10
120.160701
 20
125.42948
 30
0.0
  0
POINT
  5
384
100
AcDbEntity
  8
DEFPOINTS
 62
     0
100
AcDbPoint
 10
121.160701
 20
144.42948
 30
0.0
  0
POINT
  5
385
100
AcDbEntity
  8
DEFPOINTS
 62
     0
100
AcDbPoint
 10
100.0
 20
144.42948
 30
0.0
  0
ENDBLK
  5
387
100
AcDbEntity
  8
0
100
AcDbBlockEnd
  0
BLOCK
  5
397
100
AcDbEntity
  8
0
100
AcDbBlockBegin
  2
*D11
 70
     1
 10
0.0
 20
0.0
 30
0.0
  3
*D11
  1

  0
LINE
  5
467
100
AcDbEntity
  8
寸法
 62
     1
100
AcDbLine
 10
120.867807
 20
124.722373
 30
0.0
 11
128.285752
 21
117.304428
 31
0.0
  0
LINE
  5
468
100
AcDbEntity
  8
寸法
 62
     1
100
AcDbLine
 10
124.1607
 20
126.42948
 30
0.0
 11
132.065472
 21
126.42948
 31
0.0
  0
ARC
  5
469
100
AcDbEntity
  8
寸法
 62
     1
100
AcDbCircle
 10
119.160701
 20
126.42948
 30
0.0
 40
11.904771
100
AcDbArc
 50
305.36296
 51
314.999999
  0
LINE
  5
46A
100
AcDbEntity
  8
寸法
 62
     1
100
AcDbLine
 10
126.050636
 20
116.721113
 30
0.0
 11
116.590811
 21
110.007566
 31
0.0
  0
ARC
  5
46B
100
AcDbEntity
  8
寸法
 62
     1
100
AcDbCircle
 10
119.160701
 20
126.42948
 30
0.0
 40
11.904771
100
AcDbArc
 50
324.637038
 51
350.362961
  0
INSERT
  5
46C
100
AcDbEntity
  8
寸法
 62
     1
100
AcDbBlockReference
  2
_OPEN30
 10
127.578645
 20
118.011535
 30
0.0
 41
2.0
 42
2.0
 43
2.0
 50
229.818518
  0
INSERT
  5
46D
100
AcDbEntity
  8
寸法
 62
     1
100
AcDbBlockReference
  2
_OPEN30
 10
131.065472
 20
126.42948
 30
0.0
 41
2.0
 42
2.0
 43
2.0
 50
85.18148
  0
MTEXT
  5
46E
100
AcDbEntity
  8
寸法
 62
     1
100
AcDbMText
 10
119.873838
 20
115.403095
 30
0.0
 40
3.0
 41
0.0
 71
     5
 72
     1
  1
\A1;45°
 11
0.815502
 21
0.578754
 31
0.0
  0
POINT
  5
46F
100
AcDbEntity
  8
DEFPOINTS
 62
     0
100
AcDbPoint
 10
130.659827
 20
123.348298
 30
0.0
  0
POINT
  5
470
100
AcDbEntity
  8
DEFPOINTS
 62
     0
100
AcDbPoint
 10
121.1607
 20
126.42948
 30
0.0
  0
POINT
  5
471
100
AcDbEntity
  8
DEFPOINTS
 62
     0
100
AcDbPoint
 10
111.160701
 20
134.42948
 30
0.0
  0
POINT
  5
472
100
AcDbEntity
  8
DEFPOINTS
 62
     0
100
AcDbPoint
 10
120.160701
 20
125.42948
 30
0.0
  0
POINT
  5
473
100
AcDbEntity
  8
DEFPOINTS
 62
     0
100
AcDbPoint
 10
123.1607
 20
126.42948
 30
0.0
  0
ENDBLK
  5
398
100
AcDbEntity
  8
0
100
AcDbBlockEnd
  0
BLOCK
  5
3B1
100
AcDbEntity
  8
0
100
AcDbBlockBegin
  2
*D12
 70
     1
 10
0.0
 20
0.0
 30
0.0
  3
*D12
  1

  0
LINE
  5
474
100
AcDbEntity
  8
寸法
 62
     1
100
AcDbLine
 10
61.78823
 20
124.42948
 30
0.0
 11
61.78823
 21
110.044643
 31
0.0
  0
LINE
  5
475
100
AcDbEntity
  8
寸法
 62
     1
100
AcDbLine
 10
64.284862
 20
124.433285
 30
0.0
 11
65.529414
 21
110.207987
 31
0.0
  0
ARC
  5
476
100
AcDbEntity
  8
寸法
 62
     1
100
AcDbCircle
 10
61.78823
 20
152.969921
 30
0.0
 40
41.925278
100
AcDbArc
 50
264.531458
 51
270.0
  0
LINE
  5
477
100
AcDbEntity
  8
寸法
 62
     1
100
AcDbLine
 10
57.792784
 20
111.235459
 30
0.0
 11
49.231925
 21
112.055032
 31
0.0
  0
ARC
  5
478
100
AcDbEntity
  8
寸法
 62
     1
100
AcDbCircle
 10
61.78823
 20
152.969921
 30
0.0
 40
41.925278
100
AcDbArc
 50
264.533015
 51
267.266508
  0
ARC
  5
479
100
AcDbEntity
  8
寸法
 62
     1
100
AcDbCircle
 10
61.78823
 20
152.969921
 30
0.0
 40
41.925278
100
AcDbArc
 50
277.733492
 51
280.466985
  0
ARC
  5
47A
100
AcDbEntity
  8
寸法
 62
     1
100
AcDbCircle
 10
61.78823
 20
152.969921
 30
0.0
 40
41.925278
100
AcDbArc
 50
270.0
 51
275.0
  0
INSERT
  5
47B
100
AcDbEntity
  8
寸法
 62
     1
100
AcDbBlockReference
  2
_OPEN30
 10
61.78823
 20
111.044643
 30
0.0
 41
2.0
 42
2.0
 43
2.0
 50
358.633254
  0
INSERT
  5
47C
100
AcDbEntity
  8
寸法
 62
     1
100
AcDbBlockReference
  2
_OPEN30
 10
65.442258
 20
111.204181
 30
0.0
 41
2.0
 42
2.0
 43
2.0
 50
186.366746
  0
MTEXT
  5
47D
100
AcDbEntity
  8
寸法
 62
     1
100
AcDbMText
 10
53.750602
 20
114.133867
 30
0.0
 40
3.0
 41
0.0
 71
     5
 72
     1
  1
\A1;5°
 11
0.995449
 21
-0.095299
 31
0.0
  0
POINT
  5
47E
100
AcDbEntity
  8
DEFPOINTS
 62
     0
100
AcDbPoint
 10
64.225968
 20
111.115574
 30
0.0
  0
POINT
  5
47F
100
AcDbEntity
  8
DEFPOINTS
 62
     0
100
AcDbPoint
 10
61.78823
 20
152.969921
 30
0.0
  0
POINT
  5
480
100
AcDbEntity
  8
DEFPOINTS
 62
     0
100
AcDbPoint
 10
64.197706
 20
125.42948
 30
0.0
  0
POINT
  5
481
100
AcDbEntity
  8
DEFPOINTS
 62
     0
100
AcDbPoint
 10
61.78823
 20
152.969921
 30
0.0
  0
POINT
  5
482
100
AcDbEntity
  8
DEFPOINTS
 62
     0
100
AcDbPoint
 10
61.78823
 20
125.42948
 30
0.0
  0
ENDBLK
  5
3B2
100
AcDbEntity
  8
0
100
AcDbBlockEnd
  0
BLOCK
  5
3BA
100
AcDbEntity
  8
0
100
AcDbBlockBegin
  2
*D13
 70
     1
 10
0.0
 20
0.0
 30
0.0
  3
*D13
  1

  0
LINE
  5
3BC
100
AcDbEntity
  8
寸法
 62
     1
100
AcDbLine
 10
52.478003
 20
149.312371
 30
0.0
 11
41.308969
 21
144.924583
 31
0.0
1001
ACAD
1000
RTLwPs
1070
   158
  0
MTEXT
  5
3BD
100
AcDbEntity
  8
寸法
 62
     1
100
AcDbMText
 10
46.910117
 20
149.811008
 30
0.0
 40
3.0
 41
0.0
 71
     5
 72
     1
  1
\A1;%%c48
 11
0.930753
 21
0.365649
 31
0.0
1001
ACAD
1000
MTEXTBEGIN
1070
    73
1070
     1
1070
    44
1040
1.0
1070
    74
1070
     0
1000
MTEXTEND
1000
MTEXTBEGIN
1070
    73
1070
     1
1070
    44
1040
1.0
1070
    74
1070
     0
1000
MTEXTEND
  0
INSERT
  5
3BE
100
AcDbEntity
  8
寸法
 62
     1
100
AcDbBlockReference
  2
_OPEN30
 10
39.447464
 20
144.193285
 30
0.0
 41
2.0
 42
2.0
 43
2.0
 50
201.447528
1001
ACAD
1000
RTLwPs
1070
   158
  0
POINT
  5
3BF
100
AcDbEntity
  8
DEFPOINTS
 62
     0
100
AcDbPoint
 10
39.447464
 20
144.193285
 30
0.0
  0
POINT
  5
3C0
100
AcDbEntity
  8
DEFPOINTS
 62
     0
100
AcDbPoint
 10
61.78823
 20
152.969921
 30
0.0
  0
ENDBLK
  5
3BB
100
AcDbEntity
  8
0
100
AcDbBlockEnd
  0
ENDSEC
  0
SECTION
  2
ENTITIES
  0
POINT
  5
194
100
AcDbEntity
  8
0
  6
CONTINUOUS
 62
     7
100
AcDbPoint
 10
65.370501
 20
134.42948
 30
0.0
  0
POINT
  5
195
100
AcDbEntity
  8
0
  6
CONTINUOUS
 62
     7
100
AcDbPoint
 10
66.635402
 20
125.42948
 30
0.0
  0
POINT
  5
196
100
AcDbEntity
  8
0
  6
CONTINUOUS
 62
     7
100
AcDbPoint
 10
111.160701
 20
134.42948
 30
0.0
  0
POINT
  5
197
100
AcDbEntity
  8
0
  6
CONTINUOUS
 62
     7
100
AcDbPoint
 10
120.160701
 20
125.42948
 30
0.0
  0
POINT
  5
198
100
AcDbEntity
  8
0
  6
CONTINUOUS
 62
     7
100
AcDbPoint
 10
210.169876
 20
60.40827
 30
0.0
  0
POINT
  5
199
100
AcDbEntity
  8
0
  6
CONTINUOUS
 62
     7
100
AcDbPoint
 10
111.160701
 20
75.144862
 30
0.0
  0
POINT
  5
19A
100
AcDbEntity
  8
0
  6
CONTINUOUS
 62
     7
100
AcDbPoint
 10
120.160703
 20
76.409731
 30
0.0
  0
LINE
  5
19B
100
AcDbEntity
  8
0
  6
CONTINUOUS
 62
     7
100
AcDbLine
 10
120.160701
 20
125.42948
 30
0.0
 11
129.140954
 21
134.409733
 31
0.0
  0
LINE
  5
19C
100
AcDbEntity
  8
0
  6
CONTINUOUS
 62
     7
100
AcDbLine
 10
111.160701
 20
134.42948
 30
0.0
 11
120.160701
 21
125.42948
 31
0.0
  0
LINE
  5
19D
100
AcDbEntity
  8
0
  6
CONTINUOUS
 62
     7
100
AcDbLine
 10
120.140954
 20
143.409733
 30
0.0
 11
129.140954
 21
134.409733
 31
0.0
  0
LINE
  5
19E
100
AcDbEntity
  8
0
  6
CONTINUOUS
 62
     7
100
AcDbLine
 10
168.1607
 20
144.42948
 30
0.0
 11
168.1607
 21
128.71248
 31
0.0
  0
LINE
  5
19F
100
AcDbEntity
  8
0
  6
CONTINUOUS
 62
     7
100
AcDbLine
 10
132.506811
 20
78.409735
 30
0.0
 11
168.1607
 21
78.409735
 31
0.0
  0
LINE
  5
1A0
100
AcDbEntity
  8
0
  6
CONTINUOUS
 62
     7
100
AcDbLine
 10
115.06995
 20
60.409735
 30
0.0
 11
168.1607
 21
60.409735
 31
0.0
  0
LINE
  5
1A1
100
AcDbEntity
  8
0
  6
CONTINUOUS
 62
     7
100
AcDbLine
 10
168.1607
 20
78.409735
 30
0.0
 11
168.1607
 21
60.409735
 31
0.0
  0
LINE
  5
1A2
100
AcDbEntity
  8
0
  6
CENTER
 62
     1
 48
0.5
100
AcDbLine
 10
129.160701
 20
72.409735
 30
0.0
 11
129.160701
 21
64.409735
 31
0.0
  0
LINE
  5
1A3
100
AcDbEntity
  8
0
  6
CENTER
 62
     1
 48
0.5
100
AcDbLine
 10
125.160701
 20
68.409735
 30
0.0
 11
133.160701
 21
68.409735
 31
0.0
  0
LINE
  5
1A4
100
AcDbEntity
  8
0
  6
CONTINUOUS
 62
     7
100
AcDbLine
 10
225.075874
 20
77.409735
 30
0.0
 11
225.075874
 21
62.020899
 31
0.0
  0
LINE
  5
1A5
100
AcDbEntity
  8
0
  6
CONTINUOUS
 62
     7
100
AcDbLine
 10
211.575874
 20
78.409735
 30
0.0
 11
224.075859
 21
78.409735
 31
0.0
  0
LINE
  5
1A6
100
AcDbEntity
  8
0
  6
CONTINUOUS
 62
     7
100
AcDbLine
 10
211.575851
 20
78.409773
 30
0.0
 11
209.359008
 21
62.636111
 31
0.0
  0
LINE
  5
1A7
100
AcDbEntity
  8
0
  6
CONTINUOUS
 62
     7
100
AcDbLine
 10
225.07579
 20
77.409724
 30
0.0
 11
224.075775
 21
78.409727
 31
0.0
  0
LINE
  5
1A8
100
AcDbEntity
  8
0
  6
CONTINUOUS
 62
     7
100
AcDbLine
 10
219.383903
 20
76.48456
 30
0.0
 11
217.505066
 21
63.115942
 31
0.0
  0
LINE
  5
1A9
100
AcDbEntity
  8
0
  6
CENTER
 62
     1
 48
0.5
100
AcDbLine
 10
116.908011
 20
131.176787
 30
0.0
 11
123.413392
 21
137.682168
 31
0.0
  0
LINE
  5
1AA
100
AcDbEntity
  8
0
  6
CENTER
 62
     1
 48
0.5
100
AcDbLine
 10
116.908011
 20
137.682168
 30
0.0
 11
123.413391
 21
131.176788
 31
0.0
  0
LINE
  5
1AC
100
AcDbEntity
  8
0
  6
CENTER
 62
     1
 48
0.5
100
AcDbLine
 10
154.1607
 20
81.404379
 30
0.0
 11
154.1607
 21
57.404379
 31
0.0
  0
LINE
  5
1AD
100
AcDbEntity
  8
0
  6
CENTER
 62
     1
 48
0.5
100
AcDbLine
 10
155.9107
 20
81.404379
 30
0.0
 11
155.9107
 21
57.404379
 31
0.0
  0
LINE
  5
1AE
100
AcDbEntity
  8
0
  6
CENTER
 62
     1
 48
0.5
100
AcDbLine
 10
152.4107
 20
81.404379
 30
0.0
 11
152.4107
 21
57.404379
 31
0.0
  0
LINE
  5
1AF
100
AcDbEntity
  8
0
  6
CENTER
 62
     1
 48
0.5
100
AcDbLine
 10
154.1607
 20
147.35874
 30
0.0
 11
154.1607
 21
126.034747
 31
0.0
  0
LINE
  5
1B0
100
AcDbEntity
  8
0
  6
CONTINUOUS
 62
     7
100
AcDbLine
 10
133.160701
 20
130.42948
 30
0.0
 11
133.160701
 21
127.304365
 31
0.0
  0
LINE
  5
1B1
100
AcDbEntity
  8
0
  6
CONTINUOUS
 62
     7
100
AcDbLine
 10
123.160701
 20
77.134299
 30
0.0
 11
123.160701
 21
68.909735
 31
0.0
  0
LINE
  5
1B2
100
AcDbEntity
  8
0
  6
CONTINUOUS
 62
     7
100
AcDbLine
 10
111.160701
 20
75.144862
 30
0.0
 11
121.197205
 21
76.555399
 31
0.0
  0
LINE
  5
1B3
100
AcDbEntity
  8
0
  6
CONTINUOUS
 62
     7
100
AcDbLine
 10
111.82873
 20
70.391589
 30
0.0
 11
121.865234
 21
71.802126
 31
0.0
  0
LINE
  5
1B4
100
AcDbEntity
  8
0
  6
CONTINUOUS
 62
     7
100
AcDbLine
 10
120.160703
 20
76.409731
 30
0.0
 11
120.828732
 21
71.656454
 31
0.0
  0
LINE
  5
1B5
100
AcDbEntity
  8
0
  6
CONTINUOUS
 62
     7
100
AcDbLine
 10
121.172186
 20
68.909735
 30
0.0
 11
122.366782
 21
60.409743
 31
0.0
  0
LINE
  5
1B6
100
AcDbEntity
  8
0
  6
CONTINUOUS
 62
     7
100
AcDbLine
 10
121.1607
 20
126.42948
 30
0.0
 11
123.1607
 21
126.42948
 31
0.0
  0
LINE
  5
1B7
100
AcDbEntity
  8
0
  6
CONTINUOUS
 62
     7
100
AcDbLine
 10
123.160699
 20
126.42948
 30
0.0
 11
133.175892
 21
127.305695
 31
0.0
  0
LINE
  5
1B8
100
AcDbEntity
  8
0
  6
CONTINUOUS
 62
     7
100
AcDbLine
 10
61.785426
 20
143.389975
 30
0.0
 11
66.632602
 21
143.389975
 31
0.0
  0
LINE
  5
1B9
100
AcDbEntity
  8
0
  6
CONTINUOUS
 62
     7
100
AcDbLine
 10
68.635402
 20
142.92948
 30
0.0
 11
68.635402
 21
127.92948
 31
0.0
  0
LINE
  5
1BA
100
AcDbEntity
  8
0
  6
CONTINUOUS
 62
     7
100
AcDbLine
 10
123.160701
 20
68.909735
 30
0.0
 11
126.225831
 21
68.369269
 31
0.0
  0
LINE
  5
1BB
100
AcDbEntity
  8
0
  6
CONTINUOUS
 62
     7
100
AcDbLine
 10
131.969726
 20
67.356467
 30
0.0
 11
133.160692
 21
67.146468
 31
0.0
  0
LINE
  5
1BC
100
AcDbEntity
  8
0
  6
CONTINUOUS
 62
     7
100
AcDbLine
 10
133.160701
 20
78.409735
 30
0.0
 11
133.160701
 21
62.636111
 31
0.0
  0
LINE
  5
1BD
100
AcDbEntity
  8
0
  6
CONTINUOUS
 62
     7
100
AcDbLine
 10
61.788226
 20
125.42948
 30
0.0
 11
66.635402
 21
125.42948
 31
0.0
  0
LINE
  5
1BE
100
AcDbEntity
  8
0
  6
CONTINUOUS
 62
     7
100
AcDbLine
 10
121.160701
 20
144.42948
 30
0.0
 11
168.1607
 21
144.42948
 31
0.0
  0
LINE
  5
1BF
100
AcDbEntity
  8
0
  6
CONTINUOUS
 62
     7
100
AcDbLine
 10
132.506811
 20
142.92948
 30
0.0
 11
168.1607
 21
142.92948
 31
0.0
  0
LINE
  5
1C0
100
AcDbEntity
  8
0
  6
CONTINUOUS
 62
     7
100
AcDbLine
 10
52.248034
 20
144.42948
 30
0.0
 11
67.135402
 21
144.42948
 31
0.0
  0
LINE
  5
1C1
100
AcDbEntity
  8
0
  6
CONTINUOUS
 62
     7
100
AcDbLine
 10
67.135402
 20
144.42948
 30
0.0
 11
68.635402
 21
142.929482
 31
0.0
  0
LINE
  5
1C2
100
AcDbEntity
  8
0
  6
CONTINUOUS
 62
     7
100
AcDbLine
 10
50.635402
 20
142.816851
 30
0.0
 11
50.635402
 21
129.523227
 31
0.0
  0
LINE
  5
1C3
100
AcDbEntity
  8
0
  6
CONTINUOUS
 62
     7
100
AcDbLine
 10
59.135402
 20
134.42948
 30
0.0
 11
59.135402
 21
126.42948
 31
0.0
  0
LINE
  5
1C4
100
AcDbEntity
  8
0
  6
CONTINUOUS
 62
     7
100
AcDbLine
 10
59.135402
 20
126.42948
 30
0.0
 11
61.647681
 21
126.42948
 31
0.0
  0
LINE
  5
1C5
100
AcDbEntity
  8
0
  6
CONTINUOUS
 62
     7
100
AcDbLine
 10
59.135402
 20
126.42948
 30
0.0
 11
50.635402
 21
129.523228
 31
0.0
  0
LINE
  5
1C6
100
AcDbEntity
  8
0
  6
CONTINUOUS
 62
     7
100
AcDbLine
 10
52.248031
 20
144.42948
 30
0.0
 11
50.635402
 21
142.816851
 31
0.0
  0
LINE
  5
1C7
100
AcDbEntity
  8
0
  6
CONTINUOUS
 62
     7
100
AcDbLine
 10
210.169876
 20
60.40827
 30
0.0
 11
223.562668
 21
60.40827
 31
0.0
  0
LINE
  5
1C9
100
AcDbEntity
  8
0
  6
CONTINUOUS
 62
     7
100
AcDbLine
 10
225.075874
 20
62.020895
 30
0.0
 11
223.463249
 21
60.40827
 31
0.0
  0
LINE
  5
1CA
100
AcDbEntity
  8
0
  6
CONTINUOUS
 62
     7
100
AcDbLine
 10
210.169876
 20
60.40827
 30
0.0
 11
209.359008
 21
62.636111
 31
0.0
  0
LINE
  5
1CB
100
AcDbEntity
  8
0
  6
CONTINUOUS
 62
     7
100
AcDbLine
 10
133.160701
 20
62.636111
 30
0.0
 11
168.1607
 21
62.636111
 31
0.0
  0
LINE
  5
1CC
100
AcDbEntity
  8
0
  6
CONTINUOUS
 62
     7
100
AcDbLine
 10
176.1607
 20
139.42948
 30
0.0
 11
176.1607
 21
135.42948
 31
0.0
  0
LINE
  5
1CD
100
AcDbEntity
  8
0
  6
CENTER
 62
     1
 48
0.5
100
AcDbLine
 10
163.998633
 20
137.42948
 30
0.0
 11
178.091376
 21
137.42948
 31
0.0
  0
LINE
  5
1CE
100
AcDbEntity
  8
0
  6
CONTINUOUS
 62
     7
100
AcDbLine
 10
171.1607
 20
141.42948
 30
0.0
 11
171.1607
 21
133.42948
 31
0.0
  0
LINE
  5
1CF
100
AcDbEntity
  8
0
  6
CONTINUOUS
 62
     7
100
AcDbLine
 10
168.1607
 20
134.92948
 30
0.0
 11
171.1607
 21
134.92948
 31
0.0
  0
LINE
  5
1D0
100
AcDbEntity
  8
0
  6
CONTINUOUS
 62
     7
100
AcDbLine
 10
168.1607
 20
139.92948
 30
0.0
 11
171.1607
 21
139.92948
 31
0.0
  0
LINE
  5
1D1
100
AcDbEntity
  8
0
  6
CONTINUOUS
 62
     7
100
AcDbLine
 10
173.6607
 20
141.92948
 30
0.0
 11
176.1607
 21
139.42948
 31
0.0
  0
LINE
  5
1D2
100
AcDbEntity
  8
0
  6
CONTINUOUS
 62
     7
100
AcDbLine
 10
173.6607
 20
132.92948
 30
0.0
 11
176.1607
 21
135.42948
 31
0.0
  0
LINE
  5
1D3
100
AcDbEntity
  8
0
  6
CONTINUOUS
 62
     7
100
AcDbLine
 10
171.6607
 20
132.92948
 30
0.0
 11
173.6607
 21
132.92948
 31
0.0
  0
LINE
  5
1D4
100
AcDbEntity
  8
0
  6
CONTINUOUS
 62
     7
100
AcDbLine
 10
171.6607
 20
141.92948
 30
0.0
 11
173.6607
 21
141.92948
 31
0.0
  0
LINE
  5
1D5
100
AcDbEntity
  8
0
  6
CONTINUOUS
 62
     7
100
AcDbLine
 10
171.6607
 20
141.929476
 30
0.0
 11
171.1607
 21
141.429479
 31
0.0
  0
LINE
  5
1D6
100
AcDbEntity
  8
0
  6
CONTINUOUS
 62
     7
100
AcDbLine
 10
171.160704
 20
133.429483
 30
0.0
 11
171.660704
 21
132.929483
 31
0.0
  0
LINE
  5
1D7
100
AcDbEntity
  8
0
  6
CONTINUOUS
 62
     7
100
AcDbLine
 10
171.6607
 20
141.92948
 30
0.0
 11
171.6607
 21
132.929479
 31
0.0
  0
LINE
  5
1D8
100
AcDbEntity
  8
0
  6
CONTINUOUS
 62
     7
100
AcDbLine
 10
173.6607
 20
141.92948
 30
0.0
 11
173.6607
 21
132.92948
 31
0.0
  0
LINE
  5
1D9
100
AcDbEntity
  8
0
  6
CONTINUOUS
 62
     7
100
AcDbLine
 10
168.1607
 20
135.42948
 30
0.0
 11
171.1607
 21
135.42948
 31
0.0
  0
LINE
  5
1DA
100
AcDbEntity
  8
0
  6
CONTINUOUS
 62
     7
100
AcDbLine
 10
168.1607
 20
139.42948
 30
0.0
 11
171.1607
 21
139.42948
 31
0.0
  0
LINE
  5
1DB
100
AcDbEntity
  8
0
  6
CONTINUOUS
 62
     7
100
AcDbLine
 10
176.1607
 20
70.909735
 30
0.0
 11
176.1607
 21
66.909735
 31
0.0
  0
LINE
  5
1DC
100
AcDbEntity
  8
0
  6
CENTER
 62
     1
 48
0.5
100
AcDbLine
 10
164.475077
 20
68.909735
 30
0.0
 11
178.091376
 21
68.909735
 31
0.0
  0
LINE
  5
1DD
100
AcDbEntity
  8
0
  6
CONTINUOUS
 62
     7
100
AcDbLine
 10
171.1607
 20
72.909735
 30
0.0
 11
171.1607
 21
64.909735
 31
0.0
  0
LINE
  5
1DE
100
AcDbEntity
  8
0
  6
CONTINUOUS
 62
     7
100
AcDbLine
 10
168.1607
 20
66.409735
 30
0.0
 11
171.1607
 21
66.409735
 31
0.0
  0
LINE
  5
1DF
100
AcDbEntity
  8
0
  6
CONTINUOUS
 62
     7
100
AcDbLine
 10
168.1607
 20
71.409735
 30
0.0
 11
171.1607
 21
71.409735
 31
0.0
  0
LINE
  5
1E0
100
AcDbEntity
  8
0
  6
CONTINUOUS
 62
     7
100
AcDbLine
 10
173.660704
 20
73.409731
 30
0.0
 11
176.1607
 21
70.909735
 31
0.0
  0
LINE
  5
1E1
100
AcDbEntity
  8
0
  6
CONTINUOUS
 62
     7
100
AcDbLine
 10
173.6607
 20
64.409731
 30
0.0
 11
176.1607
 21
66.909731
 31
0.0
  0
LINE
  5
1E2
100
AcDbEntity
  8
0
  6
CONTINUOUS
 62
     7
100
AcDbLine
 10
171.6607
 20
64.409735
 30
0.0
 11
173.6607
 21
64.409735
 31
0.0
  0
LINE
  5
1E3
100
AcDbEntity
  8
0
  6
CONTINUOUS
 62
     7
100
AcDbLine
 10
171.6607
 20
73.409735
 30
0.0
 11
173.6607
 21
73.409735
 31
0.0
  0
LINE
  5
1E4
100
AcDbEntity
  8
0
  6
CONTINUOUS
 62
     7
100
AcDbLine
 10
171.6607
 20
73.409731
 30
0.0
 11
171.1607
 21
72.909731
 31
0.0
  0
LINE
  5
1E5
100
AcDbEntity
  8
0
  6
CONTINUOUS
 62
     7
100
AcDbLine
 10
171.1607
 20
64.909739
 30
0.0
 11
171.6607
 21
64.409739
 31
0.0
  0
LINE
  5
1E6
100
AcDbEntity
  8
0
  6
CONTINUOUS
 62
     7
100
AcDbLine
 10
171.6607
 20
73.409735
 30
0.0
 11
171.6607
 21
64.409735
 31
0.0
  0
LINE
  5
1E7
100
AcDbEntity
  8
0
  6
CONTINUOUS
 62
     7
100
AcDbLine
 10
173.6607
 20
73.409735
 30
0.0
 11
173.6607
 21
64.409735
 31
0.0
  0
LINE
  5
1E8
100
AcDbEntity
  8
0
  6
CONTINUOUS
 62
     7
100
AcDbLine
 10
168.1607
 20
66.909735
 30
0.0
 11
171.1607
 21
66.909735
 31
0.0
  0
LINE
  5
1E9
100
AcDbEntity
  8
0
  6
CONTINUOUS
 62
     7
100
AcDbLine
 10
168.1607
 20
70.909735
 30
0.0
 11
171.1607
 21
70.909735
 31
0.0
  0
LINE
  5
1EA
100
AcDbEntity
  8
0
  6
CONTINUOUS
 62
     7
100
AcDbLine
 10
133.660701
 20
128.71248
 30
0.0
 11
168.1607
 21
128.71248
 31
0.0
  0
LINE
  5
1EB
100
AcDbEntity
  8
0
  6
CONTINUOUS
 62
     7
100
AcDbLine
 10
133.660701
 20
130.92948
 30
0.0
 11
168.1607
 21
130.92948
 31
0.0
  0
LINE
  5
1EC
100
AcDbEntity
  8
0
  6
CONTINUOUS
 62
     7
100
AcDbLine
 10
111.160701
 20
134.42948
 30
0.0
 11
121.1607
 21
144.42948
 31
0.0
  0
LINE
  5
1ED
100
AcDbEntity
  8
0
  6
CONTINUOUS
 62
     7
100
AcDbLine
 10
59.135402
 20
134.42948
 30
0.0
 11
65.370501
 21
134.42948
 31
0.0
  0
LINE
  5
1EE
100
AcDbEntity
  8
0
  6
CONTINUOUS
 62
     7
100
AcDbLine
 10
111.160701
 20
75.144862
 30
0.0
 11
111.82873
 21
70.391589
 31
0.0
  0
LINE
  5
1EF
100
AcDbEntity
  8
0
  6
CONTINUOUS
 62
     7
100
AcDbLine
 10
59.135402
 20
134.429479
 30
0.0
 11
50.69377
 21
137.501983
 31
0.0
  0
LINE
  5
1F0
100
AcDbEntity
  8
0
  6
CONTINUOUS
 62
     7
100
AcDbLine
 10
111.976203
 20
68.909735
 30
0.0
 11
123.160701
 21
68.909735
 31
0.0
  0
LINE
  5
1F1
100
AcDbEntity
  8
0
  6
CONTINUOUS
 62
     7
100
AcDbLine
 10
120.140954
 20
76.671828
 30
0.0
 11
120.177459
 21
76.412085
 31
0.0
  0
LINE
  5
1F2
100
AcDbEntity
  8
0
  6
CONTINUOUS
 62
     7
100
AcDbLine
 10
121.1607
 20
76.815142
 30
0.0
 11
121.865234
 21
71.802126
 31
0.0
  0
LINE
  5
1F3
100
AcDbEntity
  8
0
  6
CONTINUOUS
 62
     7
100
AcDbLine
 10
132.506811
 20
142.92948
 30
0.0
 11
132.506811
 21
127.247158
 31
0.0
  0
LINE
  5
1F4
100
AcDbEntity
  8
0
  6
CONTINUOUS
 62
     7
100
AcDbLine
 10
132.506811
 20
142.92948
 30
0.0
 11
121.1607
 21
144.42948
 31
0.0
  0
LINE
  5
1F5
100
AcDbEntity
  8
0
  6
CENTER
 62
     1
 48
0.5
100
AcDbLine
 10
230.212734
 20
68.146334
 30
0.0
 11
205.43473
 21
71.628653
 31
0.0
  0
LINE
  5
1F6
100
AcDbEntity
  8
0
  6
CONTINUOUS
 62
     7
100
AcDbLine
 10
219.383903
 20
76.48456
 30
0.0
 11
211.461754
 21
77.597948
 31
0.0
  0
LINE
  5
1F7
100
AcDbEntity
  8
0
  6
CONTINUOUS
 62
     7
100
AcDbLine
 10
217.505066
 20
63.115942
 30
0.0
 11
209.582916
 21
64.229327
 31
0.0
  0
LINE
  5
1F8
100
AcDbEntity
  8
0
  6
CONTINUOUS
 62
     7
100
AcDbLine
 10
225.075874
 20
73.109545
 30
0.0
 11
219.029007
 21
73.959376
 31
0.0
  0
LINE
  5
1F9
100
AcDbEntity
  8
0
  6
CONTINUOUS
 62
     7
100
AcDbLine
 10
225.075874
 20
64.626994
 30
0.0
 11
217.859955
 21
65.641127
 31
0.0
  0
LINE
  5
1FA
100
AcDbEntity
  8
0
  6
CONTINUOUS
 62
     7
100
AcDbLine
 10
152.4107
 20
77.597945
 30
0.0
 11
155.9107
 21
77.597945
 31
0.0
  0
LINE
  5
1FB
100
AcDbEntity
  8
0
  6
CONTINUOUS
 62
     7
100
AcDbLine
 10
152.4107
 20
76.48456
 30
0.0
 11
155.9107
 21
76.48456
 31
0.0
  0
LINE
  5
1FC
100
AcDbEntity
  8
0
  6
CONTINUOUS
 62
     7
100
AcDbLine
 10
152.4107
 20
73.959376
 30
0.0
 11
155.9107
 21
73.959376
 31
0.0
  0
LINE
  5
1FD
100
AcDbEntity
  8
0
  6
CONTINUOUS
 62
     7
100
AcDbLine
 10
152.4107
 20
73.109545
 30
0.0
 11
155.9107
 21
73.109545
 31
0.0
  0
LINE
  5
1FE
100
AcDbEntity
  8
0
  6
CONTINUOUS
 62
     7
100
AcDbLine
 10
152.4107
 20
64.229327
 30
0.0
 11
155.9107
 21
64.229327
 31
0.0
  0
LINE
  5
1FF
100
AcDbEntity
  8
0
  6
CONTINUOUS
 62
     7
100
AcDbLine
 10
152.4107
 20
65.641123
 30
0.0
 11
155.9107
 21
65.641123
 31
0.0
  0
LINE
  5
200
100
AcDbEntity
  8
0
  6
CONTINUOUS
 62
     7
100
AcDbLine
 10
111.828731
 20
70.391585
 30
0.0
 11
111.976203
 21
68.909735
 31
0.0
  0
LINE
  5
201
100
AcDbEntity
  8
0
  6
CONTINUOUS
 62
     7
100
AcDbLine
 10
111.976203
 20
68.909735
 30
0.0
 11
115.069951
 21
60.409735
 31
0.0
  0
LINE
  5
202
100
AcDbEntity
  8
0
  6
CONTINUOUS
 62
     7
100
AcDbLine
 10
65.370501
 20
134.42948
 30
0.0
 11
66.635402
 21
125.42948
 31
0.0
  0
LINE
  5
203
100
AcDbEntity
  8
0
  6
CONTINUOUS
 62
     7
100
AcDbLine
 10
60.52333
 20
134.429481
 30
0.0
 11
61.78823
 21
125.42948
 31
0.0
  0
LINE
  5
204
100
AcDbEntity
  8
0
  6
CONTINUOUS
 62
     7
100
AcDbLine
 10
65.370501
 20
134.42948
 30
0.0
 11
66.779017
 21
144.42948
 31
0.0
  0
LINE
  5
205
100
AcDbEntity
  8
0
  6
CONTINUOUS
 62
     7
100
AcDbLine
 10
60.52333
 20
134.42948
 30
0.0
 11
61.78543
 21
143.389975
 31
0.0
  0
LINE
  5
206
100
AcDbEntity
  8
0
  6
CONTINUOUS
 62
     7
100
AcDbLine
 10
66.632602
 20
143.389975
 30
0.0
 11
67.897502
 21
134.389975
 31
0.0
  0
LINE
  5
207
100
AcDbEntity
  8
0
  6
CONTINUOUS
 62
     7
100
AcDbLine
 10
66.635402
 20
125.42948
 30
0.0
 11
67.897502
 21
134.389975
 31
0.0
  0
LINE
  5
208
100
AcDbEntity
  8
0
  6
CONTINUOUS
 62
     7
100
AcDbLine
 10
67.135402
 20
126.429479
 30
0.0
 11
68.635402
 21
127.92948
 31
0.0
  0
LINE
  5
209
100
AcDbEntity
  8
0
  6
CONTINUOUS
 62
     7
100
AcDbLine
 10
66.776252
 20
126.42948
 30
0.0
 11
67.135402
 21
126.42948
 31
0.0
  0
LINE
  5
20A
100
AcDbEntity
  8
0
  6
CONTINUOUS
 62
     7
100
AcDbLine
 10
120.140954
 20
76.671828
 30
0.0
 11
132.506811
 21
78.409735
 31
0.0
  0
CIRCLE
  5
20B
100
AcDbEntity
  8
0
  6
CONTINUOUS
 62
     7
100
AcDbCircle
 10
120.160701
 20
134.42948
 30
0.0
 40
2.599999
  0
CIRCLE
  5
20C
100
AcDbEntity
  8
0
  6
CONTINUOUS
 62
     7
100
AcDbCircle
 10
129.160701
 20
68.409735
 30
0.0
 40
3.0
  0
CIRCLE
  5
20D
100
AcDbEntity
  8
0
  6
CONTINUOUS
 62
     7
100
AcDbCircle
 10
129.160701
 20
68.409735
 30
0.0
 40
2.5
  0
ARC
  5
20E
100
AcDbEntity
  8
0
  6
CONTINUOUS
 62
     7
100
AcDbCircle
 10
127.585322
 20
135.965365
 30
0.0
 40
2.2
100
AcDbArc
 50
315.00006
 51
134.99995
  0
ARC
  5
20F
100
AcDbEntity
  8
0
  6
CONTINUOUS
 62
     7
100
AcDbCircle
 10
133.660701
 20
128.21248
 30
0.0
 40
0.5
100
AcDbArc
 50
90.000003
 51
180.00001
  0
ARC
  5
210
100
AcDbEntity
  8
0
  6
CONTINUOUS
 62
     7
100
AcDbCircle
 10
133.660701
 20
130.42948
 30
0.0
 40
0.5
100
AcDbArc
 50
90.000003
 51
180.00001
  0
LWPOLYLINE
  5
211
100
AcDbEntity
  8
0
  6
CONTINUOUS
 62
     7
100
AcDbPolyline
 90
       17
 70
     0
 43
0.0
 10
152.4107
 20
77.597945
 42
0.048416
 10
151.100277
 20
77.470772
 42
0.048522
 10
149.838819
 20
77.093727
 42
0.048718
 10
148.673853
 20
76.480181
 42
0.048977
 10
147.649984
 20
75.65226
 42
0.049271
 10
146.807096
 20
74.640269
 42
0.049546
 10
146.178999
 20
73.482306
 42
0.049752
 10
145.79151
 20
72.223196
 42
0.049813
 10
145.6607
 20
70.913634
 42
0.049822
 10
145.791557
 20
69.603841
 42
0.049704
 10
146.178604
 20
68.345901
 42
0.04952
 10
146.806132
 20
67.18842
 42
0.049257
 10
147.6485
 20
66.176473
 42
0.048988
 10
148.672331
 20
65.348091
 42
0.048743
 10
149.837759
 20
64.733976
 42
0.048553
 10
151.099985
 20
64.356556
 42
0.048427
 10
152.4107
 20
64.229327
  0
LWPOLYLINE
  5
224
100
AcDbEntity
  8
0
  6
CONTINUOUS
 62
     7
100
AcDbPolyline
 90
       17
 70
     0
 43
0.0
 10
152.4107
 20
76.48456
 42
0.020581
 10
151.799723
 20
76.459407
 42
0.020698
 10
151.192092
 20
76.383875
 42
0.020877
 10
150.592805
 20
76.258153
 42
0.021141
 10
150.006227
 20
76.082606
 42
0.021493
 10
149.436728
 20
75.857762
 42
0.021926
 10
148.888846
 20
75.584381
 42
0.022437
 10
148.367296
 20
75.263522
 42
0.023014
 10
147.876971
 20
74.896627
 42
0.023645
 10
147.422917
 20
74.485617
 42
0.024311
 10
147.010268
 20
74.03299
 42
0.024989
 10
146.644152
 20
73.541923
 42
0.025651
 10
146.32955
 20
73.016351
 42
0.026261
 10
146.071112
 20
72.461018
 42
0.026786
 10
145.872949
 20
71.881475
 42
0.027191
 10
145.738401
 20
71.284015
 42
0.027446
 10
145.66983
 20
70.675536
  0
LWPOLYLINE
  5
237
100
AcDbEntity
  8
0
  6
CONTINUOUS
 62
     7
100
AcDbPolyline
 90
       17
 70
     0
 43
0.0
 10
152.4107
 20
73.959376
 42
0.048369
 10
151.596112
 20
73.8804
 42
0.048522
 10
150.811161
 20
73.645943
 42
0.048718
 10
150.08622
 20
73.26432
 42
0.048977
 10
149.449048
 20
72.74929
 42
0.04927
 10
148.924463
 20
72.119709
 42
0.049546
 10
148.533507
 20
71.399274
 42
0.049752
 10
148.292251
 20
70.615874
 42
0.049862
 10
148.210699
 20
69.80025
 42
0.049822
 10
148.292121
 20
68.985267
 42
0.049704
 10
148.532951
 20
68.202549
 42
0.04952
 10
148.923413
 20
67.482339
 42
0.049257
 10
149.447552
 20
66.852682
 42
0.048988
 10
150.084603
 20
66.337244
 42
0.048743
 10
150.809758
 20
65.955128
 42
0.048553
 10
151.595143
 20
65.720289
 42
0.048427
 10
152.4107
 20
65.641123
  0
LWPOLYLINE
  5
24A
100
AcDbEntity
  8
0
  6
CONTINUOUS
 62
     7
100
AcDbPolyline
 90
       17
 70
     0
 43
0.0
 10
152.4107
 20
73.109545
 42
0.019741
 10
152.038388
 20
73.094844
 42
0.019892
 10
151.667413
 20
73.050603
 42
0.020049
 10
151.301868
 20
72.977058
 42
0.020341
 10
150.943468
 20
72.874274
 42
0.020731
 10
150.594703
 20
72.74244
 42
0.021217
 10
150.258189
 20
72.581847
 42
0.021794
 10
149.936682
 20
72.392932
 42
0.022454
 10
149.633093
 20
72.176332
 42
0.023185
 10
149.350478
 20
71.932946
 42
0.02397
 10
149.09201
 20
71.664014
 42
0.024784
 10
148.860934
 20
71.371189
 42
0.025593
 10
148.660476
 20
71.056605
 42
0.026358
 10
148.493729
 20
70.722938
 42
0.027033
 10
148.363504
 20
70.373426
 42
0.027572
 10
148.272163
 20
70.011842
 42
0.027932
 10
148.221456
 20
69.642421
  0
LWPOLYLINE
  5
25D
100
AcDbEntity
  8
0
  6
CONTINUOUS
 62
     7
100
AcDbPolyline
 90
       17
 70
     0
 43
0.0
 10
155.9107
 20
77.597945
 42
-0.048416
 10
157.221123
 20
77.470772
 42
-0.048522
 10
158.482581
 20
77.093727
 42
-0.048718
 10
159.647547
 20
76.480181
 42
-0.048977
 10
160.671416
 20
75.65226
 42
-0.049271
 10
161.514304
 20
74.640269
 42
-0.049546
 10
162.142401
 20
73.482306
 42
-0.049752
 10
162.52989
 20
72.223196
 42
-0.049813
 10
162.6607
 20
70.913634
 42
-0.049822
 10
162.529843
 20
69.603841
 42
-0.049704
 10
162.142796
 20
68.345901
 42
-0.04952
 10
161.515268
 20
67.18842
 42
-0.049257
 10
160.6729
 20
66.176473
 42
-0.048988
 10
159.649069
 20
65.348091
 42
-0.048743
 10
158.483641
 20
64.733976
 42
-0.048553
 10
157.221415
 20
64.356556
 42
-0.048427
 10
155.9107
 20
64.229327
  0
LWPOLYLINE
  5
270
100
AcDbEntity
  8
0
  6
CONTINUOUS
 62
     7
100
AcDbPolyline
 90
       17
 70
     0
 43
0.0
 10
155.9107
 20
76.48456
 42
-0.020581
 10
156.521677
 20
76.459407
 42
-0.020698
 10
157.129308
 20
76.383875
 42
-0.020877
 10
157.728595
 20
76.258153
 42
-0.021141
 10
158.315173
 20
76.082606
 42
-0.021493
 10
158.884672
 20
75.857762
 42
-0.021926
 10
159.432554
 20
75.584381
 42
-0.022437
 10
159.954104
 20
75.263522
 42
-0.023014
 10
160.444429
 20
74.896627
 42
-0.023645
 10
160.898483
 20
74.485617
 42
-0.024311
 10
161.311132
 20
74.03299
 42
-0.024989
 10
161.677248
 20
73.541923
 42
-0.025651
 10
161.99185
 20
73.016351
 42
-0.026261
 10
162.250288
 20
72.461018
 42
-0.026786
 10
162.448451
 20
71.881475
 42
-0.027191
 10
162.582999
 20
71.284015
 42
-0.027446
 10
162.65157
 20
70.675536
  0
LWPOLYLINE
  5
283
100
AcDbEntity
  8
0
  6
CONTINUOUS
 62
     7
100
AcDbPolyline
 90
       17
 70
     0
 43
0.0
 10
155.9107
 20
73.959376
 42
-0.048369
 10
156.725288
 20
73.8804
 42
-0.048522
 10
157.510239
 20
73.645943
 42
-0.048718
 10
158.23518
 20
73.26432
 42
-0.048977
 10
158.872352
 20
72.74929
 42
-0.04927
 10
159.396937
 20
72.119709
 42
-0.049546
 10
159.787893
 20
71.399274
 42
-0.049752
 10
160.029149
 20
70.615874
 42
-0.049862
 10
160.110701
 20
69.80025
 42
-0.049822
 10
160.029279
 20
68.985267
 42
-0.049704
 10
159.788449
 20
68.202549
 42
-0.04952
 10
159.397987
 20
67.482339
 42
-0.049257
 10
158.873848
 20
66.852682
 42
-0.048988
 10
158.236797
 20
66.337244
 42
-0.048743
 10
157.511642
 20
65.955128
 42
-0.048553
 10
156.726257
 20
65.720289
 42
-0.048427
 10
155.9107
 20
65.641123
  0
LWPOLYLINE
  5
296
100
AcDbEntity
  8
0
  6
CONTINUOUS
 62
     7
100
AcDbPolyline
 90
       17
 70
     0
 43
0.0
 10
155.9107
 20
73.109545
 42
-0.019741
 10
156.283012
 20
73.094844
 42
-0.019892
 10
156.653987
 20
73.050603
 42
-0.020049
 10
157.019532
 20
72.977058
 42
-0.020341
 10
157.377932
 20
72.874274
 42
-0.020731
 10
157.726697
 20
72.74244
 42
-0.021217
 10
158.063211
 20
72.581847
 42
-0.021794
 10
158.384718
 20
72.392932
 42
-0.022454
 10
158.688307
 20
72.176332
 42
-0.023185
 10
158.970922
 20
71.932946
 42
-0.02397
 10
159.22939
 20
71.664014
 42
-0.024784
 10
159.460466
 20
71.371189
 42
-0.025593
 10
159.660924
 20
71.056605
 42
-0.026358
 10
159.827671
 20
70.722938
 42
-0.027033
 10
159.957896
 20
70.373426
 42
-0.027572
 10
160.049237
 20
70.011842
 42
-0.027932
 10
160.099944
 20
69.642421
  0
LWPOLYLINE
  5
2A9
100
AcDbEntity
  8
0
  6
CONTINUOUS
 62
     7
100
AcDbPolyline
 90
       16
 70
     1
 43
0.0
 10
162.6607
 20
129.875943
 42
0.13236
 10
160.644913
 20
130.48335
 42
0.015599
 10
158.489766
 20
130.684395
 42
0.008969
 10
156.326988
 20
130.784341
 42
0.007248
 10
154.1607
 20
130.815362
 42
0.007243
 10
151.995798
 20
130.784381
 42
0.00897
 10
149.832332
 20
130.684441
 42
0.015605
 10
147.676125
 20
130.483303
 42
0.132457
 10
145.6607
 20
129.875943
 42
0.13236
 10
147.676487
 20
129.268537
 42
0.015599
 10
149.831634
 20
129.067491
 42
0.008969
 10
151.994412
 20
128.967546
 42
0.007248
 10
154.1607
 20
128.936525
 42
0.007243
 10
156.325602
 20
128.967505
 42
0.00897
 10
158.489068
 20
129.067445
 42
0.015605
 10
160.645275
 20
129.268584
 42
0.132457
  0
LINE
  5
2BB
100
AcDbEntity
  8
0
  6
CONTINUOUS
 62
     7
100
AcDbLine
 10
222.196599
 20
60.40827
 30
0.0
 11
225.075874
 21
63.287551
 31
0.0
  0
LINE
  5
2BC
100
AcDbEntity
  8
0
  6
CONTINUOUS
 62
     7
100
AcDbLine
 10
219.951537
 20
60.40827
 30
0.0
 11
224.281845
 21
64.738587
 31
0.0
  0
LINE
  5
2BD
100
AcDbEntity
  8
0
  6
CONTINUOUS
 62
     7
100
AcDbLine
 10
217.706476
 20
60.40827
 30
0.0
 11
222.313426
 21
65.01523
 31
0.0
  0
LINE
  5
2BE
100
AcDbEntity
  8
0
  6
CONTINUOUS
 62
     7
100
AcDbLine
 10
215.461413
 20
60.40827
 30
0.0
 11
220.345006
 21
65.291873
 31
0.0
  0
LINE
  5
2BF
100
AcDbEntity
  8
0
  6
CONTINUOUS
 62
     7
100
AcDbLine
 10
213.216351
 20
60.40827
 30
0.0
 11
216.118839
 21
63.310764
 31
0.0
  0
LINE
  5
2C0
100
AcDbEntity
  8
0
  6
CONTINUOUS
 62
     7
100
AcDbLine
 10
217.763601
 20
64.955528
 30
0.0
 11
218.376587
 21
65.568515
 31
0.0
  0
LINE
  5
2C1
100
AcDbEntity
  8
0
  6
CONTINUOUS
 62
     7
100
AcDbLine
 10
210.97129
 20
60.40827
 30
0.0
 11
214.15042
 21
63.587407
 31
0.0
  0
LINE
  5
2C2
100
AcDbEntity
  8
0
  6
CONTINUOUS
 62
     7
100
AcDbLine
 10
209.784644
 20
61.466687
 30
0.0
 11
212.182001
 21
63.86405
 31
0.0
  0
LINE
  5
2C3
100
AcDbEntity
  8
0
  6
CONTINUOUS
 62
     7
100
AcDbLine
 10
209.465297
 20
63.392406
 30
0.0
 11
210.213582
 21
64.140692
 31
0.0
  0
LINE
  5
2C4
100
AcDbEntity
  8
0
  6
CONTINUOUS
 62
     7
100
AcDbLine
 10
223.845462
 20
73.282468
 30
0.0
 11
225.075874
 21
74.512882
 31
0.0
  0
LINE
  5
2C5
100
AcDbEntity
  8
0
  6
CONTINUOUS
 62
     7
100
AcDbLine
 10
221.877043
 20
73.559111
 30
0.0
 11
225.075874
 21
76.757948
 31
0.0
  0
LINE
  5
2C6
100
AcDbEntity
  8
0
  6
CONTINUOUS
 62
     7
100
AcDbLine
 10
219.908623
 20
73.835754
 30
0.0
 11
224.279192
 21
78.206332
 31
0.0
  0
LINE
  5
2C7
100
AcDbEntity
  8
0
  6
CONTINUOUS
 62
     7
100
AcDbLine
 10
219.232076
 20
75.404272
 30
0.0
 11
222.237527
 21
78.409729
 31
0.0
  0
LINE
  5
2C8
100
AcDbEntity
  8
0
  6
CONTINUOUS
 62
     7
100
AcDbLine
 10
218.229536
 20
76.646796
 30
0.0
 11
219.992467
 21
78.40973
 31
0.0
  0
LINE
  5
2C9
100
AcDbEntity
  8
0
  6
CONTINUOUS
 62
     7
100
AcDbLine
 10
216.261117
 20
76.923439
 30
0.0
 11
217.747407
 21
78.409731
 31
0.0
  0
LINE
  5
2CA
100
AcDbEntity
  8
0
  6
CONTINUOUS
 62
     7
100
AcDbLine
 10
214.292698
 20
77.200082
 30
0.0
 11
215.502346
 21
78.409733
 31
0.0
  0
LINE
  5
2CB
100
AcDbEntity
  8
0
  6
CONTINUOUS
 62
     7
100
AcDbLine
 10
212.324278
 20
77.476725
 30
0.0
 11
213.257286
 21
78.409734
 31
0.0
  0
TEXT
  5
2CC
100
AcDbEntity
  8
0
  6
CONTINUOUS
100
AcDbText
 10
133.965499
 20
24.502018
 30
0.0
 40
6.0
  1
ＢＵ１４５Ｒ
100
AcDbText
  0
LINE
  5
2EF
102
{ACAD_REACTORS
330
2F9
102
}
100
AcDbEntity
  8
寸法
 62
     1
100
AcDbLine
 10
231.203002
 20
68.007161
 30
0.0
 11
245.432157
 21
66.007385
 31
0.0
  0
LINE
  5
2F0
102
{ACAD_REACTORS
330
2F9
102
}
100
AcDbEntity
  8
寸法
 62
     1
100
AcDbLine
 10
225.075874
 20
68.868272
 30
0.0
 11
245.63221
 21
68.868272
 31
0.0
  0
ARC
  5
2F1
102
{ACAD_REACTORS
330
2F9
102
}
100
AcDbEntity
  8
寸法
 62
     1
100
AcDbCircle
 10
225.075874
 20
68.868272
 30
0.0
 40
19.556336
100
AcDbArc
 50
340.260357
 51
352.000005
  0
LINE
  5
2F2
102
{ACAD_REACTORS
330
2F9
102
}
100
AcDbEntity
  8
寸法
 62
     1
100
AcDbLine
 10
243.483022
 20
62.263186
 30
0.0
 11
240.578402
 21
54.168547
 31
0.0
  0
ARC
  5
2F3
102
{ACAD_REACTORS
330
2F9
102
}
100
AcDbEntity
  8
寸法
 62
     1
100
AcDbCircle
 10
225.075874
 20
68.868272
 30
0.0
 40
19.556336
100
AcDbArc
 50
340.275769
 51
346.137887
  0
ARC
  5
2F4
102
{ACAD_REACTORS
330
2F9
102
}
100
AcDbEntity
  8
寸法
 62
     1
100
AcDbCircle
 10
225.075874
 20
68.868272
 30
0.0
 40
19.556336
100
AcDbArc
 50
5.862118
 51
11.724237
  0
ARC
  5
2F5
102
{ACAD_REACTORS
330
2F9
102
}
100
AcDbEntity
  8
寸法
 62
     1
100
AcDbCircle
 10
225.075874
 20
68.868272
 30
0.0
 40
19.556336
100
AcDbArc
 50
352.000005
 51
0.0
  0
INSERT
  5
2F6
102
{ACAD_REACTORS
330
2F9
102
}
100
AcDbEntity
  8
寸法
 62
     1
100
AcDbBlockReference
  2
_OPEN30
 10
244.441889
 20
66.146558
 30
0.0
 41
2.0
 42
2.0
 43
2.0
 50
79.068946
  0
INSERT
  5
2F7
102
{ACAD_REACTORS
330
2F9
102
}
100
AcDbEntity
  8
寸法
 62
     1
100
AcDbBlockReference
  2
_OPEN30
 10
244.63221
 20
68.868272
 30
0.0
 41
2.0
 42
2.0
 43
2.0
 50
272.931059
  0
MTEXT
  5
2F8
102
{ACAD_REACTORS
330
2F9
102
}
100
AcDbEntity
  8
寸法
 62
     1
100
AcDbMText
 10
239.677619
 20
59.060233
 30
0.0
 40
3.0
 41
0.0
 71
     5
 72
     1
  1
\A1;8°
 11
0.337747
 21
0.941237
 31
0.0
1001
ACAD
1000
MTEXTBEGIN
1070
    73
1070
     1
1070
    44
1040
1.0
1070
    74
1070
     0
1000
MTEXTEND
1000
MTEXTBEGIN
1070
    73
1070
     1
1070
    44
1040
1.0
1070
    74
1070
     0
1000
MTEXTEND
  0
DIMENSION
  5
2FA
100
AcDbEntity
  8
寸法
100
AcDbDimension
  2
*D2
 10
230.0
 20
60.40827
 30
0.0
 11
227.5
 21
52.90827
 31
0.0
 70
    32
  3
STANDARD
100
AcDbAlignedDimension
 13
225.075874
 23
68.868272
 33
0.0
 14
223.562668
 24
60.40827
 34
0.0
 50
90.0
100
AcDbRotatedDimension
  0
DIMENSION
  5
308
100
AcDbEntity
  8
寸法
100
AcDbDimension
  2
*D3
 10
190.0
 20
60.409735
 30
0.0
 11
187.5
 21
69.409735
 31
0.0
 70
    32
  3
STANDARD
100
AcDbAlignedDimension
 13
168.1607
 23
78.409735
 33
0.0
 14
168.1607
 24
60.409735
 34
0.0
 50
90.0
100
AcDbRotatedDimension
  0
DIMENSION
  5
315
100
AcDbEntity
  8
寸法
100
AcDbDimension
  2
*D4
 10
100.0
 20
60.409735
 30
0.0
 11
97.5
 21
67.777298
 31
0.0
 70
    32
  1
14.7
  3
STANDARD
100
AcDbAlignedDimension
 13
111.160701
 23
75.144862
 33
0.0
 14
115.069951
 24
60.409735
 34
0.0
 50
90.0
100
AcDbRotatedDimension
  0
DIMENSION
  5
322
100
AcDbEntity
  8
寸法
100
AcDbDimension
  2
*D5
 10
155.9107
 20
50.0
 30
0.0
 11
163.9107
 21
52.5
 31
0.0
 70
    32
  3
STANDARD
100
AcDbAlignedDimension
 13
152.4107
 23
57.404379
 33
0.0
 14
155.9107
 24
57.404379
 34
0.0
100
AcDbRotatedDimension
  0
DIMENSION
  5
331
100
AcDbEntity
  8
寸法
100
AcDbDimension
  2
*D6
 10
154.1607
 20
90.0
 30
0.0
 11
165.1607
 21
92.5
 31
0.0
 70
    32
  3
STANDARD
100
AcDbAlignedDimension
 13
176.1607
 23
70.909735
 33
0.0
 14
154.1607
 24
81.404379
 34
0.0
100
AcDbRotatedDimension
  0
DIMENSION
  5
33E
100
AcDbEntity
  8
寸法
100
AcDbDimension
  2
*D7
 10
168.1607
 20
78.409735
 30
0.0
 11
92.377441
 21
84.593233
 31
0.0
 70
    34
  3
STANDARD
100
AcDb2LineAngularDimension
 13
111.160701
 23
75.144862
 33
0.0
 14
121.197205
 24
76.555399
 34
0.0
 15
132.506811
 25
78.409735
 35
0.0
 16
89.836831
 26
74.250382
 36
0.0
1001
ACAD
1000
DSTYLE
1002
{
1070
   271
1070
     0
1070
   271
1070
     0
1002
}
  0
DIMENSION
  5
358
100
AcDbEntity
  8
寸法
100
AcDbDimension
  2
*D8
 10
111.160701
 20
110.0
 30
0.0
 11
143.6607
 21
112.5
 31
0.0
 70
    32
  3
STANDARD
100
AcDbAlignedDimension
 13
176.1607
 23
135.42948
 33
0.0
 14
111.160701
 24
134.42948
 34
0.0
100
AcDbRotatedDimension
  0
DIMENSION
  5
365
100
AcDbEntity
  8
寸法
100
AcDbDimension
  2
*D9
 10
168.1607
 20
120.0
 30
0.0
 11
172.1607
 21
122.5
 31
0.0
 70
    32
  3
STANDARD
100
AcDbAlignedDimension
 13
176.1607
 23
135.42948
 33
0.0
 14
168.1607
 24
128.71248
 34
0.0
100
AcDbRotatedDimension
1001
ACAD
1000
DSTYLE
1002
{
1070
   287
1070
     4
1070
   287
1070
     4
1070
   279
1070
     1
1002
}
  0
DIMENSION
  5
37B
100
AcDbEntity
  8
寸法
100
AcDbDimension
  2
*D10
 10
100.0
 20
144.42948
 30
0.0
 11
97.5
 21
134.92948
 31
0.0
 70
    32
  3
STANDARD
100
AcDbAlignedDimension
 13
120.160701
 23
125.42948
 33
0.0
 14
121.160701
 24
144.42948
 34
0.0
 50
90.0
100
AcDbRotatedDimension
  0
DIMENSION
  5
388
100
AcDbEntity
  8
寸法
100
AcDbDimension
  2
*D11
 10
123.1607
 20
126.42948
 30
0.0
 11
119.873838
 21
115.403095
 31
0.0
 70
    34
  3
STANDARD
100
AcDb2LineAngularDimension
 13
111.160701
 23
134.42948
 33
0.0
 14
120.160701
 24
125.42948
 34
0.0
 15
121.1607
 25
126.42948
 35
0.0
 16
130.659827
 26
123.348298
 36
0.0
1001
ACAD
1000
DSTYLE
1002
{
1070
   271
1070
     0
1070
   271
1070
     0
1002
}
  0
LINE
  5
399
100
AcDbEntity
  8
0
  6
CENTER
 62
     1
 48
0.5
100
AcDbLine
 10
64.197706
 20
125.42948
 30
0.0
 11
61.78823
 21
152.969921
 31
0.0
  0
ARC
  5
39C
100
AcDbEntity
  8
0
  6
CENTER
 62
     1
 48
0.5
100
AcDbCircle
 10
61.78823
 20
152.969921
 30
0.0
 40
24.002899
100
AcDbArc
 50
180.0
 51
0.0
  0
LINE
  5
39F
100
AcDbEntity
  8
0
  6
CENTER
 62
     1
 48
0.5
100
AcDbLine
 10
61.78823
 20
152.969921
 30
0.0
 11
61.78823
 21
125.42948
 31
0.0
  0
DIMENSION
  5
3A0
100
AcDbEntity
  8
寸法
100
AcDbDimension
  2
*D12
 10
61.78823
 20
125.42948
 30
0.0
 11
53.750602
 21
114.133867
 31
0.0
 70
    34
  3
STANDARD
100
AcDb2LineAngularDimension
 13
64.197706
 23
125.42948
 33
0.0
 14
61.78823
 24
152.969921
 34
0.0
 15
61.78823
 25
152.969921
 35
0.0
 16
64.225968
 26
111.115574
 36
0.0
1001
ACAD
1000
DSTYLE
1002
{
1070
   271
1070
     0
1070
   271
1070
     0
1002
}
  0
DIMENSION
  5
3B3
100
AcDbEntity
  8
寸法
100
AcDbDimension
  2
*D13
 10
61.78823
 20
152.969921
 30
0.0
 11
47.824239
 21
147.484126
 31
0.0
 70
   164
  1
%%c48
  3
STANDARD
100
AcDbRadialDimension
 15
39.447464
 25
144.193285
 35
0.0
 40
0.0
1001
ACAD
1000
DSTYLE
1002
{
1070
   288
1070
     1
1002
}
  0
ENDSEC
  0
SECTION
  2
OBJECTS
  0
DICTIONARY
  5
C
100
AcDbDictionary
  3
ACAD_GROUP
350
D
  3
ACAD_LAYOUT
350
2D1
  3
ACAD_MLINESTYLE
350
1B
  3
ACAD_PLOTSETTINGS
350
2D2
  3
ACAD_PLOTSTYLENAME
350
2CF
  3
ACDBHEADERROUNDTRIPXREC
350
42A
  3
ACDBVARIABLEDICTIONARY
350
33
  3
CONTENTDICTIONARY
350
23
  0
DICTIONARY
  5
426
100
AcDbDictionary
280
     1
  3
ACAD_XREC_ROUNDTRIP
360
427
  0
DICTIONARY
  5
44D
100
AcDbDictionary
280
     1
  3
ACAD_XREC_ROUNDTRIP
360
44E
  0
DICTIONARY
  5
3E9
100
AcDbDictionary
280
     1
  3
ACAD_LAYOUTSELFREF
360
44C
  0
DICTIONARY
  5
3E7
100
AcDbDictionary
280
     1
  3
ACAD_LAYOUTSELFREF
360
44B
  0
DICTIONARY
  5
D
102
{ACAD_REACTORS
330
C
102
}
100
AcDbDictionary
  3
*A1
350
2F9
  0
DICTIONARY
  5
2D1
102
{ACAD_XDICTIONARY
360
44F
102
}
102
{ACAD_REACTORS
330
C
102
}
100
AcDbDictionary
  3
MODEL
350
2D3
  3
ﾚｲｱｳﾄ1
350
2D4
  0
DICTIONARY
  5
1B
102
{ACAD_REACTORS
330
C
102
}
100
AcDbDictionary
  3
STANDARD
350
1C
  0
DICTIONARY
  5
2D2
102
{ACAD_REACTORS
330
C
102
}
100
AcDbDictionary
  0
ACAD_PROXY_OBJECT
  5
2CF
102
{ACAD_REACTORS
330
C
102
}
100
AcDbProxyObject
 90
      499
 91
      502
 93
       86
310
405010041939BDC9B585B0
350
2D0
340
2D0
 94
        0
  0
DICTIONARY
  5
42A
102
{ACAD_REACTORS
330
C
102
}
100
AcDbDictionary
  3
CEPSNTYPE
350
434
  3
DIMSTYLEDATA
350
438
  3
FINGERPRINTGUID
350
435
  3
HYPERLINKBASE
350
42D
  3
INSUNITS
350
433
  3
LAYOUTDICT
350
42F
  3
LWETCUNION
350
432
  3
PLOTSETDICT
350
430
  3
PLOTSTYLNAMDICT
350
431
  3
PSVPSCALE
350
437
  3
PUCSBASE
350
43B
  3
PUCSORGBACK
350
441
  3
PUCSORGBOTTOM
350
43D
  3
PUCSORGFRONT
350
440
  3
PUCSORGLEFT
350
43E
  3
PUCSORGRIGHT
350
43F
  3
PUCSORGTOP
350
43C
  3
PUCSORTHOREF
350
439
  3
PUCSORTHOVIEW
350
43A
  3
STYLESHEET
350
42E
  3
TSTACKALIGN
350
42B
  3
TSTACKSIZE
350
42C
  3
UCSBASE
350
444
  3
UCSORGBACK
350
44A
  3
UCSORGBOTTOM
350
446
  3
UCSORGFRONT
350
449
  3
UCSORGLEFT
350
447
  3
UCSORGRIGHT
350
448
  3
UCSORGTOP
350
445
  3
UCSORTHOREF
350
442
  3
UCSORTHOVIEW
350
443
  3
VERSIONGUID
350
436
  0
DICTIONARY
  5
33
102
{ACAD_REACTORS
330
C
102
}
100
AcDbDictionary
  3
DIMADEC
350
34
  0
DICTIONARY
  5
23
102
{ACAD_REACTORS
330
C
102
}
100
AcDbDictionary
  0
XRECORD
  5
427
102
{ACAD_REACTORS
330
426
102
}
100
AcDbXrecord
102
EXTNAMES
  1
DEFPOINTS
  2
Defpoints
102
PLOTBIT
280
     0
  0
XRECORD
  5
44E
102
{ACAD_REACTORS
330
44D
102
}
100
AcDbXrecord
102
ACADR14ROUNDTRIP
1000
DSTYLE
1002
{
1070
   341
340
37
1070
   343
340
37
1070
   344
340
37
1002
}
  0
XRECORD
  5
44C
102
{ACAD_REACTORS
330
3E9
102
}
100
AcDbXrecord
340
18
  0
XRECORD
  5
44B
102
{ACAD_REACTORS
330
3E7
102
}
100
AcDbXrecord
340
15
  0
GROUP
  5
2F9
102
{ACAD_REACTORS
330
D
102
}
100
AcDbGroup
300

 70
     1
 71
     1
340
2F0
340
2F2
340
2EF
340
2F8
340
2F4
340
2F3
340
2F1
340
2F5
340
2F6
340
2F7
  0
DICTIONARY
  5
44F
100
AcDbDictionary
280
     1
  3
ACAD_XREC_ROUNDTRIP
360
450
  0
ACAD_PROXY_OBJECT
  5
2D3
102
{ACAD_REACTORS
330
2D1
102
}
100
AcDbProxyObject
 90
      499
 91
      504
 93
      548
310
90E4550534F4E20504D2D32303030432C01AAAAAAAAA5A69054D6F64656C901A800000000000000000000000000000000000000000000A1000000000000008902A6A6AAAA8
330
18
330
0
340
0
340
0
 94
        0
  0
ACAD_PROXY_OBJECT
  5
2D4
102
{ACAD_REACTORS
330
2D1
102
}
100
AcDbProxyObject
 90
      499
 91
      504
 93
      964
310
90E4550534F4E20504D2D32303030432C00AAAAAA416AA59106906DAB2B1B3C43140501A800000000000000000000000000000000000000000101E900000000000241C902A6A6A10232D5E076BC5510408CB5781DAF154410232D5E076BC5510408CB5781DAF15C410232D5E076BC5710408CB5781DAF15C40
330
15
330
0
340
0
340
0
 94
        0
  0
MLINESTYLE
  5
1C
102
{ACAD_REACTORS
330
1B
102
}
100
AcDbMlineStyle
  2
STANDARD
 70
     0
  3

 62
   256
 51
90.0
 52
90.0
 71
     2
 49
0.5
 62
   256
  6
BYLAYER
 49
-0.5
 62
   256
  6
BYLAYER
  0
ACAD_PROXY_OBJECT
  5
2D0
102
{ACAD_REACTORS
330
2CF
102
}
100
AcDbProxyObject
 90
      499
 91
      503
 93
        0
 94
        0
  0
XRECORD
  5
434
102
{ACAD_REACTORS
330
42A
102
}
100
AcDbXrecord
 90
        0
  0
XRECORD
  5
438
102
{ACAD_REACTORS
330
42A
102
}
100
AcDbXrecord
1000
DSTYLE
1002
{
1070
   341
340
37
1070
   343
340
37
1070
   344
340
37
1002
}
  0
XRECORD
  5
435
102
{ACAD_REACTORS
330
42A
102
}
100
AcDbXrecord
  1
{7D32E862-29E9-47B6-8F0C-8A4692049130}
  0
XRECORD
  5
42D
102
{ACAD_REACTORS
330
42A
102
}
100
AcDbXrecord
  1

  0
XRECORD
  5
433
102
{ACAD_REACTORS
330
42A
102
}
100
AcDbXrecord
 90
        0
  0
XRECORD
  5
42F
102
{ACAD_REACTORS
330
42A
102
}
100
AcDbXrecord
340
2D1
  0
XRECORD
  5
432
102
{ACAD_REACTORS
330
42A
102
}
100
AcDbXrecord
 90
    14877
  0
XRECORD
  5
430
102
{ACAD_REACTORS
330
42A
102
}
100
AcDbXrecord
340
2D2
  0
XRECORD
  5
431
102
{ACAD_REACTORS
330
42A
102
}
100
AcDbXrecord
340
2CF
  0
XRECORD
  5
437
102
{ACAD_REACTORS
330
42A
102
}
100
AcDbXrecord
 40
0.0
  0
XRECORD
  5
43B
102
{ACAD_REACTORS
330
42A
102
}
100
AcDbXrecord
340
0
  0
XRECORD
  5
441
102
{ACAD_REACTORS
330
42A
102
}
100
AcDbXrecord
 10
0.0
 20
0.0
 30
0.0
  0
XRECORD
  5
43D
102
{ACAD_REACTORS
330
42A
102
}
100
AcDbXrecord
 10
0.0
 20
0.0
 30
0.0
  0
XRECORD
  5
440
102
{ACAD_REACTORS
330
42A
102
}
100
AcDbXrecord
 10
0.0
 20
0.0
 30
0.0
  0
XRECORD
  5
43E
102
{ACAD_REACTORS
330
42A
102
}
100
AcDbXrecord
 10
0.0
 20
0.0
 30
0.0
  0
XRECORD
  5
43F
102
{ACAD_REACTORS
330
42A
102
}
100
AcDbXrecord
 10
0.0
 20
0.0
 30
0.0
  0
XRECORD
  5
43C
102
{ACAD_REACTORS
330
42A
102
}
100
AcDbXrecord
 10
0.0
 20
0.0
 30
0.0
  0
XRECORD
  5
439
102
{ACAD_REACTORS
330
42A
102
}
100
AcDbXrecord
340
0
  0
XRECORD
  5
43A
102
{ACAD_REACTORS
330
42A
102
}
100
AcDbXrecord
 70
     0
  0
XRECORD
  5
42E
102
{ACAD_REACTORS
330
42A
102
}
100
AcDbXrecord
  1

  0
XRECORD
  5
42B
102
{ACAD_REACTORS
330
42A
102
}
100
AcDbXrecord
 90
        1
  0
XRECORD
  5
42C
102
{ACAD_REACTORS
330
42A
102
}
100
AcDbXrecord
 90
       70
  0
XRECORD
  5
444
102
{ACAD_REACTORS
330
42A
102
}
100
AcDbXrecord
340
0
  0
XRECORD
  5
44A
102
{ACAD_REACTORS
330
42A
102
}
100
AcDbXrecord
 10
0.0
 20
0.0
 30
0.0
  0
XRECORD
  5
446
102
{ACAD_REACTORS
330
42A
102
}
100
AcDbXrecord
 10
0.0
 20
0.0
 30
0.0
  0
XRECORD
  5
449
102
{ACAD_REACTORS
330
42A
102
}
100
AcDbXrecord
 10
0.0
 20
0.0
 30
0.0
  0
XRECORD
  5
447
102
{ACAD_REACTORS
330
42A
102
}
100
AcDbXrecord
 10
0.0
 20
0.0
 30
0.0
  0
XRECORD
  5
448
102
{ACAD_REACTORS
330
42A
102
}
100
AcDbXrecord
 10
0.0
 20
0.0
 30
0.0
  0
XRECORD
  5
445
102
{ACAD_REACTORS
330
42A
102
}
100
AcDbXrecord
 10
0.0
 20
0.0
 30
0.0
  0
XRECORD
  5
442
102
{ACAD_REACTORS
330
42A
102
}
100
AcDbXrecord
340
0
  0
XRECORD
  5
443
102
{ACAD_REACTORS
330
42A
102
}
100
AcDbXrecord
 70
     0
  0
XRECORD
  5
436
102
{ACAD_REACTORS
330
42A
102
}
100
AcDbXrecord
  1
{1103A51A-6969-4F8F-B5E5-F1A63BE582E2}
  0
DICTIONARYVAR
  5
34
102
{ACAD_REACTORS
330
33
102
}
100
DictionaryVariables
280
     0
  1
0
  0
XRECORD
  5
450
102
{ACAD_REACTORS
330
44F
102
}
100
AcDbXrecord
102
EXTNAMES
  1
MODEL
  2
Model
  0
ENDSEC
  0
EOF
