  0
SECTION
  2
HEADER
  9
$ACADVER
  1
AC1014
  9
$ACADMAINTVER
 70
     0
  9
$DWGCODEPAGE
  3
ANSI_932
  9
$INSBASE
 10
0.0
 20
0.0
 30
0.0
  9
$EXTMIN
 10
43.54482
 20
42.173016
 30
0.0
  9
$EXTMAX
 10
233.811804
 20
156.438269
 30
0.0
  9
$LIMMIN
 10
0.0
 20
0.0
  9
$LIMMAX
 10
297.0
 20
210.0
  9
$ORTHOMODE
 70
     1
  9
$REGENMODE
 70
     1
  9
$FILLMODE
 70
     1
  9
$QTEXTMODE
 70
     0
  9
$MIRRTEXT
 70
     1
  9
$DRAGMODE
 70
     2
  9
$LTSCALE
 40
0.707071
  9
$OSMODE
 70
    33
  9
$ATTMODE
 70
     1
  9
$TEXTSIZE
 40
1.767677
  9
$TRACEWID
 40
1.0
  9
$TEXTSTYLE
  7
STANDARD
  9
$CLAYER
  8
寸法
  9
$CELTYPE
  6
BYLAYER
  9
$CECOLOR
 62
   256
  9
$CELTSCALE
 40
1.0
  9
$DELOBJ
 70
     1
  9
$DISPSILH
 70
     0
  9
$DIMSCALE
 40
1.0
  9
$DIMASZ
 40
2.0
  9
$DIMEXO
 40
1.0
  9
$DIMDLI
 40
10.0
  9
$DIMRND
 40
0.0
  9
$DIMDLE
 40
0.0
  9
$DIMEXE
 40
1.0
  9
$DIMTP
 40
0.0
  9
$DIMTM
 40
0.0
  9
$DIMTXT
 40
3.0
  9
$DIMCEN
 40
2.0
  9
$DIMTSZ
 40
0.0
  9
$DIMTOL
 70
     0
  9
$DIMLIM
 70
     0
  9
$DIMTIH
 70
     0
  9
$DIMTOH
 70
     0
  9
$DIMSE1
 70
     0
  9
$DIMSE2
 70
     0
  9
$DIMTAD
 70
     1
  9
$DIMZIN
 70
     8
  9
$DIMBLK
  1

  9
$DIMASO
 70
     1
  9
$DIMSHO
 70
     1
  9
$DIMPOST
  1

  9
$DIMAPOST
  1

  9
$DIMALT
 70
     0
  9
$DIMALTD
 70
     2
  9
$DIMALTF
 40
25.4
  9
$DIMLFAC
 40
1.0
  9
$DIMTOFL
 70
     1
  9
$DIMTVP
 40
0.0
  9
$DIMTIX
 70
     0
  9
$DIMSOXD
 70
     0
  9
$DIMSAH
 70
     1
  9
$DIMBLK1
  1
OPEN30
  9
$DIMBLK2
  1
OPEN30
  9
$DIMSTYLE
  2
STANDARD
  9
$DIMCLRD
 70
     1
  9
$DIMCLRE
 70
     1
  9
$DIMCLRT
 70
     1
  9
$DIMTFAC
 40
1.0
  9
$DIMGAP
 40
1.0
  9
$DIMJUST
 70
     0
  9
$DIMSD1
 70
     0
  9
$DIMSD2
 70
     0
  9
$DIMTOLJ
 70
     1
  9
$DIMTZIN
 70
     0
  9
$DIMALTZ
 70
     0
  9
$DIMALTTZ
 70
     0
  9
$DIMFIT
 70
     3
  9
$DIMUPT
 70
     0
  9
$DIMUNIT
 70
     2
  9
$DIMDEC
 70
     2
  9
$DIMTDEC
 70
     4
  9
$DIMALTU
 70
     2
  9
$DIMALTTD
 70
     2
  9
$DIMTXSTY
  7
STANDARD
  9
$DIMAUNIT
 70
     0
  9
$LUNITS
 70
     2
  9
$LUPREC
 70
     4
  9
$SKETCHINC
 40
1.0
  9
$FILLETRAD
 40
7.070707
  9
$AUNITS
 70
     0
  9
$AUPREC
 70
     0
  9
$MENU
  1
acad
  9
$ELEVATION
 40
0.0
  9
$PELEVATION
 40
0.0
  9
$THICKNESS
 40
0.0
  9
$LIMCHECK
 70
     0
  9
$BLIPMODE
 70
     0
  9
$CHAMFERA
 40
7.070707
  9
$CHAMFERB
 40
7.070707
  9
$CHAMFERC
 40
14.141414
  9
$CHAMFERD
 40
0.0
  9
$SKPOLY
 70
     0
  9
$TDCREATE
 40
2451930.610694444
  9
$TDUPDATE
 40
2451977.424548611
  9
$TDINDWG
 40
0.0084304398
  9
$TDUSRTIMER
 40
0.0084304398
  9
$USRTIMER
 70
     1
  9
$ANGBASE
 50
0.0
  9
$ANGDIR
 70
     0
  9
$PDMODE
 70
     0
  9
$PDSIZE
 40
0.0
  9
$PLINEWID
 40
0.0
  9
$COORDS
 70
     1
  9
$SPLFRAME
 70
     0
  9
$SPLINETYPE
 70
     6
  9
$SPLINESEGS
 70
     8
  9
$ATTDIA
 70
     0
  9
$ATTREQ
 70
     1
  9
$HANDLING
 70
     1
  9
$HANDSEED
  5
4CD
  9
$SURFTAB1
 70
     6
  9
$SURFTAB2
 70
     6
  9
$SURFTYPE
 70
     6
  9
$SURFU
 70
     6
  9
$SURFV
 70
     6
  9
$UCSNAME
  2

  9
$UCSORG
 10
0.0
 20
0.0
 30
0.0
  9
$UCSXDIR
 10
1.0
 20
0.0
 30
0.0
  9
$UCSYDIR
 10
0.0
 20
1.0
 30
0.0
  9
$PUCSNAME
  2

  9
$PUCSORG
 10
0.0
 20
0.0
 30
0.0
  9
$PUCSXDIR
 10
1.0
 20
0.0
 30
0.0
  9
$PUCSYDIR
 10
0.0
 20
1.0
 30
0.0
  9
$USERI1
 70
     0
  9
$USERI2
 70
     0
  9
$USERI3
 70
     0
  9
$USERI4
 70
     0
  9
$USERI5
 70
     0
  9
$USERR1
 40
0.0
  9
$USERR2
 40
0.0
  9
$USERR3
 40
0.0
  9
$USERR4
 40
0.0
  9
$USERR5
 40
0.0
  9
$WORLDVIEW
 70
     1
  9
$SHADEDGE
 70
     3
  9
$SHADEDIF
 70
    70
  9
$TILEMODE
 70
     1
  9
$MAXACTVP
 70
    48
  9
$PINSBASE
 10
0.0
 20
0.0
 30
0.0
  9
$PLIMCHECK
 70
     0
  9
$PEXTMIN
 10
1.000000E+20
 20
1.000000E+20
 30
1.000000E+20
  9
$PEXTMAX
 10
-1.000000E+20
 20
-1.000000E+20
 30
-1.000000E+20
  9
$PLIMMIN
 10
0.0
 20
0.0
  9
$PLIMMAX
 10
420.0
 20
297.0
  9
$UNITMODE
 70
     0
  9
$VISRETAIN
 70
     1
  9
$PLINEGEN
 70
     0
  9
$PSLTSCALE
 70
     1
  9
$TREEDEPTH
 70
  3020
  9
$PICKSTYLE
 70
     1
  9
$CMLSTYLE
  2
STANDARD
  9
$CMLJUST
 70
     0
  9
$CMLSCALE
 40
20.0
  9
$PROXYGRAPHICS
 70
     1
  9
$MEASUREMENT
 70
     0
  0
ENDSEC
  0
SECTION
  2
CLASSES
  0
CLASS
  1
DICTIONARYVAR
  2
AcDbDictionaryVar
  3
"AutoCAD"
 90
        0
280
     0
281
     0
  0
CLASS
  1
LWPOLYLINE
  2
AcDbPolyline
  3
"AutoCAD"
 90
        0
280
     0
281
     1
  0
CLASS
  1
ACDBDICTIONARYWDFLT
  2
AcDbDictionaryWithDefault
  3
AutoCAD 2000
 90
        0
280
     0
281
     0
  0
CLASS
  1
ACDBPLACEHOLDER
  2
AcDbPlaceHolder
  3
AutoCAD 2000
 90
        0
280
     0
281
     0
  0
CLASS
  1
LAYOUT
  2
AcDbLayout
  3
AutoCAD 2000
 90
        0
280
     0
281
     0
  0
CLASS
  1
LONG_TRANSACTION
  2
AcDbLongTransaction
  3
AutoCAD 2000
 90
        0
280
     0
281
     0
  0
CLASS
  1
LWPOLYLINE
  2
AcDbPolyline
  3
"AutoCAD"
 90
        0
280
     0
281
     1
  0
CLASS
  1
HATCH
  2
AcDbHatch
  3
"ACAD_SEDONA"
 90
        0
280
     0
281
     1
  0
CLASS
  1
XRECORD
  2
AcDbXrecord
  3
"<Built In>"
 90
        0
280
     0
281
     0
  0
CLASS
  1
LONG_TRANSACTION
  2
AcDbLongTransaction
  3
AutoCAD 2000
 90
        0
280
     0
281
     0
  0
CLASS
  1
LWPOLYLINE
  2
AcDbPolyline
  3
"AutoCAD"
 90
        0
280
     0
281
     1
  0
CLASS
  1
HATCH
  2
AcDbHatch
  3
"ACAD_SEDONA"
 90
        0
280
     0
281
     1
  0
CLASS
  1
XRECORD
  2
AcDbXrecord
  3
"<Built In>"
 90
        0
280
     0
281
     0
  0
ENDSEC
  0
SECTION
  2
TABLES
  0
TABLE
  2
VPORT
  5
8
100
AcDbSymbolTable
 70
     2
  0
VPORT
  5
4CC
100
AcDbSymbolTableRecord
100
AcDbViewportTableRecord
  2
*ACTIVE
 70
     0
 10
0.0
 20
0.0
 11
1.0
 21
1.0
 12
153.249452
 22
95.489454
 13
0.0
 23
0.0
 14
0.5
 24
0.5
 15
10.0
 25
10.0
 16
0.0
 26
0.0
 36
1.0
 17
0.0
 27
0.0
 37
0.0
 40
182.639195
 41
1.710425
 42
50.0
 43
0.0
 44
0.0
 50
0.0
 51
0.0
 71
     0
 72
   100
 73
     1
 74
     1
 75
     1
 76
     0
 77
     0
 78
     0
  0
ENDTAB
  0
TABLE
  2
LTYPE
  5
5
100
AcDbSymbolTable
 70
     5
  0
LTYPE
  5
12
100
AcDbSymbolTableRecord
100
AcDbLinetypeTableRecord
  2
BYBLOCK
 70
     0
  3

 72
    65
 73
     0
 40
0.0
  0
LTYPE
  5
13
100
AcDbSymbolTableRecord
100
AcDbLinetypeTableRecord
  2
BYLAYER
 70
     0
  3

 72
    65
 73
     0
 40
0.0
  0
LTYPE
  5
14
100
AcDbSymbolTableRecord
100
AcDbLinetypeTableRecord
  2
CONTINUOUS
 70
     0
  3
Solid line
 72
    65
 73
     0
 40
0.0
  0
LTYPE
  5
4E
100
AcDbSymbolTableRecord
100
AcDbLinetypeTableRecord
  2
DASHED
 70
     0
  3
__ __ __ __ __ __ __ __ __ __ __ __ __ __ __
 72
    65
 73
     2
 40
3.5
 49
2.0
 74
     0
 49
-1.5
 74
     0
  0
LTYPE
  5
4F
100
AcDbSymbolTableRecord
100
AcDbLinetypeTableRecord
  2
CENTER
 70
     0
  3
____ _ ____ _ ____ _ ____ _ ____ _ ____ _ ____
 72
    65
 73
     4
 40
17.5
 49
13.0
 74
     0
 49
-1.5
 74
     0
 49
1.5
 74
     0
 49
-1.5
 74
     0
  0
LTYPE
  5
50
100
AcDbSymbolTableRecord
100
AcDbLinetypeTableRecord
  2
PHANTOM
 70
     0
  3
_____ _ _ _____ _ _ _____ _ _ _____ _ _ ____  
 72
    65
 73
     6
 40
15.5
 49
8.0
 74
     0
 49
-1.5
 74
     0
 49
1.5
 74
     0
 49
-1.5
 74
     0
 49
1.5
 74
     0
 49
-1.5
 74
     0
  0
LTYPE
  5
51
100
AcDbSymbolTableRecord
100
AcDbLinetypeTableRecord
  2
DOT
 70
     0
  3
. . . . . . . . . . . . . . . . . . . . . . . .
 72
    65
 73
     2
 40
0.25
 49
0.0
 74
     0
 49
-0.25
 74
     0
  0
ENDTAB
  0
TABLE
  2
LAYER
  5
2
100
AcDbSymbolTable
 70
     3
  0
LAYER
  5
E
100
AcDbSymbolTableRecord
100
AcDbLayerTableRecord
  2
0
 70
     0
 62
     7
  6
CONTINUOUS
  0
LAYER
  5
2C4
100
AcDbSymbolTableRecord
100
AcDbLayerTableRecord
  2
寸法
 70
     0
 62
     1
  6
CONTINUOUS
  0
LAYER
  5
2C8
102
{ACAD_XDICTIONARY
360
467
102
}
100
AcDbSymbolTableRecord
100
AcDbLayerTableRecord
  2
DEFPOINTS
 70
     0
 62
     7
  6
CONTINUOUS
  0
ENDTAB
  0
TABLE
  2
STYLE
  5
3
100
AcDbSymbolTable
 70
     1
  0
STYLE
  5
F
100
AcDbSymbolTableRecord
100
AcDbTextStyleTableRecord
  2
STANDARD
 70
     0
 40
0.0
 41
1.0
 50
0.0
 71
     0
 42
1.767677
  3
txt.shx
  4
bigfont.shx
  0
ENDTAB
  0
TABLE
  2
VIEW
  5
6
100
AcDbSymbolTable
 70
     0
  0
ENDTAB
  0
TABLE
  2
UCS
  5
7
100
AcDbSymbolTable
 70
     0
  0
ENDTAB
  0
TABLE
  2
APPID
  5
9
100
AcDbSymbolTable
 70
     3
  0
APPID
  5
10
100
AcDbSymbolTableRecord
100
AcDbRegAppTableRecord
  2
ACAD
 70
     0
  0
APPID
  5
24
100
AcDbSymbolTableRecord
100
AcDbRegAppTableRecord
  2
CONTENTTABDATA
 70
     0
  0
APPID
  5
25
100
AcDbSymbolTableRecord
100
AcDbRegAppTableRecord
  2
CONTENTCURRENTTAB
 70
     0
  0
ENDTAB
  0
TABLE
  2
DIMSTYLE
  5
A
100
AcDbSymbolTable
 70
     2
  0
DIMSTYLE
105
1D
102
{ACAD_XDICTIONARY
360
48E
102
}
102
{ACAD_REACTORS
330
2E6
330
2F6
330
303
330
312
330
32D
330
347
330
354
330
361
330
381
330
399
330
3AA
330
3BA
102
}
100
AcDbSymbolTableRecord
100
AcDbDimStyleTableRecord
  2
STANDARD
 70
     0
  3

  4

  5

  6
OPEN30
  7
OPEN30
 40
1.0
 41
2.0
 42
1.0
 43
10.0
 44
1.0
 45
0.0
 46
0.0
 47
0.0
 48
0.0
140
3.0
141
2.0
142
0.0
143
25.4
144
1.0
145
0.0
146
1.0
147
1.0
 71
     0
 72
     0
 73
     0
 74
     0
 75
     0
 76
     0
 77
     1
 78
     8
170
     0
171
     2
172
     1
173
     1
174
     0
175
     0
176
     1
177
     1
178
     1
270
     2
271
     2
272
     4
273
     2
274
     2
340
F
275
     0
280
     0
281
     0
282
     0
283
     1
284
     0
285
     0
286
     0
287
     3
288
     0
  0
DIMSTYLE
105
35
100
AcDbSymbolTableRecord
100
AcDbDimStyleTableRecord
  2
STANDARD_WS
 70
     0
  3

  4

  5

  6

  7

 40
0.707071
 41
2.5
 42
0.625
 43
3.75
 44
1.25
 45
0.0
 46
0.0
 47
0.0
 48
0.0
140
2.5
141
2.5
142
0.0
143
0.0394
144
1.0
145
0.0
146
1.0
147
0.625
 71
     0
 72
     0
 73
     0
 74
     0
 75
     0
 76
     0
 77
     1
 78
     8
170
     0
171
     4
172
     1
173
     0
174
     0
175
     0
176
     0
177
     0
178
     0
270
     2
271
     4
272
     4
273
     8
274
     4
340
F
275
     0
280
     0
281
     0
282
     0
283
     1
284
     0
285
     0
286
     0
287
     3
288
     0
  0
ENDTAB
  0
TABLE
  2
BLOCK_RECORD
  5
1
100
AcDbSymbolTable
 70
    14
  0
BLOCK_RECORD
  5
18
102
{ACAD_XDICTIONARY
360
3EF
102
}
100
AcDbSymbolTableRecord
100
AcDbBlockTableRecord
  2
*MODEL_SPACE
  0
BLOCK_RECORD
  5
15
102
{ACAD_XDICTIONARY
360
3ED
102
}
100
AcDbSymbolTableRecord
100
AcDbBlockTableRecord
  2
*PAPER_SPACE
  0
BLOCK_RECORD
  5
37
100
AcDbSymbolTableRecord
100
AcDbBlockTableRecord
  2
_OPEN30
  0
BLOCK_RECORD
  5
52
100
AcDbSymbolTableRecord
100
AcDbBlockTableRecord
  2
BU154R
  0
BLOCK_RECORD
  5
2E7
100
AcDbSymbolTableRecord
100
AcDbBlockTableRecord
  2
*D2
  0
BLOCK_RECORD
  5
2F7
100
AcDbSymbolTableRecord
100
AcDbBlockTableRecord
  2
*D3
  0
BLOCK_RECORD
  5
304
100
AcDbSymbolTableRecord
100
AcDbBlockTableRecord
  2
*D4
  0
BLOCK_RECORD
  5
313
100
AcDbSymbolTableRecord
100
AcDbBlockTableRecord
  2
*D5
  0
BLOCK_RECORD
  5
32E
100
AcDbSymbolTableRecord
100
AcDbBlockTableRecord
  2
*D6
  0
BLOCK_RECORD
  5
348
100
AcDbSymbolTableRecord
100
AcDbBlockTableRecord
  2
*D7
  0
BLOCK_RECORD
  5
355
100
AcDbSymbolTableRecord
100
AcDbBlockTableRecord
  2
*D8
  0
BLOCK_RECORD
  5
362
100
AcDbSymbolTableRecord
100
AcDbBlockTableRecord
  2
*D9
  0
BLOCK_RECORD
  5
382
100
AcDbSymbolTableRecord
100
AcDbBlockTableRecord
  2
*D10
  0
BLOCK_RECORD
  5
39A
100
AcDbSymbolTableRecord
100
AcDbBlockTableRecord
  2
*D11
  0
BLOCK_RECORD
  5
3AB
100
AcDbSymbolTableRecord
100
AcDbBlockTableRecord
  2
*D12
  0
BLOCK_RECORD
  5
3BB
100
AcDbSymbolTableRecord
100
AcDbBlockTableRecord
  2
*D13
  0
ENDTAB
  0
ENDSEC
  0
SECTION
  2
BLOCKS
  0
BLOCK
  5
19
100
AcDbEntity
  8
0
100
AcDbBlockBegin
  2
*MODEL_SPACE
 70
     0
 10
0.0
 20
0.0
 30
0.0
  3
*MODEL_SPACE
  1

  0
ENDBLK
  5
1A
100
AcDbEntity
  8
0
100
AcDbBlockEnd
  0
BLOCK
  5
16
100
AcDbEntity
 67
     1
  8
0
100
AcDbBlockBegin
  2
*PAPER_SPACE
 70
     0
 10
0.0
 20
0.0
 30
0.0
  3
*PAPER_SPACE
  1

  0
ENDBLK
  5
17
100
AcDbEntity
 67
     1
  8
0
100
AcDbBlockEnd
  0
BLOCK
  5
38
100
AcDbEntity
  8
0
100
AcDbBlockBegin
  2
_OPEN30
 70
     0
 10
0.0
 20
0.0
 30
0.0
  3
_OPEN30
  1

  0
LINE
  5
39
100
AcDbEntity
  8
0
  6
BYBLOCK
 62
     0
100
AcDbLine
 10
-1.0
 20
0.267949
 30
0.0
 11
0.0
 21
0.0
 31
0.0
  0
LINE
  5
3A
100
AcDbEntity
  8
0
  6
BYBLOCK
 62
     0
100
AcDbLine
 10
0.0
 20
0.0
 30
0.0
 11
-1.0
 21
-0.267949
 31
0.0
  0
LINE
  5
3B
100
AcDbEntity
  8
0
  6
BYBLOCK
 62
     0
100
AcDbLine
 10
0.0
 20
0.0
 30
0.0
 11
-1.0
 21
0.0
 31
0.0
  0
ENDBLK
  5
3C
100
AcDbEntity
  8
0
100
AcDbBlockEnd
  0
BLOCK
  5
182
100
AcDbEntity
  8
0
100
AcDbBlockBegin
  2
BU154R
 70
     0
 10
0.0
 20
0.0
 30
0.0
  3
BU154R
  1

  0
POINT
  5
53
100
AcDbEntity
  8
0
  6
CONTINUOUS
 62
     7
100
AcDbPoint
 10
-20.142593
 20
10.0
 30
0.0
  0
POINT
  5
54
100
AcDbEntity
  8
0
  6
CONTINUOUS
 62
     7
100
AcDbPoint
 10
3.0
 20
10.0
 30
0.0
  0
POINT
  5
55
100
AcDbEntity
  8
0
  6
CONTINUOUS
 62
     7
100
AcDbPoint
 10
83.155434
 20
-32.531555
 30
0.0
  0
POINT
  5
56
100
AcDbEntity
  8
0
  6
CONTINUOUS
 62
     7
100
AcDbPoint
 10
3.0
 20
-20.531557
 30
0.0
  0
LINE
  5
57
100
AcDbEntity
  8
0
  6
CONTINUOUS
 62
     7
100
AcDbLine
 10
3.0
 20
10.0
 30
0.0
 11
12.205273
 21
12.466545
 31
0.0
  0
LINE
  5
58
100
AcDbEntity
  8
0
  6
CONTINUOUS
 62
     7
100
AcDbLine
 10
0.5
 20
19.330128
 30
0.0
 11
3.0
 21
10.0
 31
0.0
  0
LINE
  5
59
100
AcDbEntity
  8
0
  6
CONTINUOUS
 62
     7
100
AcDbLine
 10
9.705272
 20
21.796675
 30
0.0
 11
12.205273
 21
12.466545
 31
0.0
  0
LINE
  5
5A
100
AcDbEntity
  8
0
  6
CONTINUOUS
 62
     7
100
AcDbLine
 10
47.0
 20
24.0
 30
0.0
 11
47.0
 21
12.403866
 31
0.0
  0
LINE
  5
5B
100
AcDbEntity
  8
0
  6
CONTINUOUS
 62
     7
100
AcDbLine
 10
0.8
 20
24.0
 30
0.0
 11
47.0
 21
24.0
 31
0.0
  0
LINE
  5
5C
100
AcDbEntity
  8
0
  6
CONTINUOUS
 62
     7
100
AcDbLine
 10
0.8
 20
24.0
 30
0.0
 11
0.8
 21
19.410513
 31
0.0
  0
LINE
  5
5D
100
AcDbEntity
  8
0
  6
CONTINUOUS
 62
     7
100
AcDbLine
 10
14.4015
 20
23.0
 30
0.0
 11
47.0
 21
23.0
 31
0.0
  0
LINE
  5
5E
100
AcDbEntity
  8
0
  6
CONTINUOUS
 62
     7
100
AcDbLine
 10
16.232052
 20
14.0
 30
0.0
 11
47.0
 21
14.0
 31
0.0
  0
LINE
  5
5F
100
AcDbEntity
  8
0
  6
CONTINUOUS
 62
     7
100
AcDbLine
 10
-26.142593
 20
11.0
 30
0.0
 11
-23.342594
 21
11.0
 31
0.0
  0
LINE
  5
60
100
AcDbEntity
  8
0
  6
CONTINUOUS
 62
     7
100
AcDbLine
 10
-31.142593
 20
24.0
 30
0.0
 11
-19.642593
 21
24.0
 31
0.0
  0
LINE
  5
61
100
AcDbEntity
  8
0
  6
CONTINUOUS
 62
     7
100
AcDbLine
 10
83.971619
 20
-19.031557
 30
0.0
 11
92.971619
 21
-19.031557
 31
0.0
  0
LINE
  5
62
100
AcDbEntity
  8
0
  6
CONTINUOUS
 62
     7
100
AcDbLine
 10
93.971619
 20
-20.031557
 30
0.0
 11
93.971619
 21
-31.454618
 31
0.0
  0
LINE
  5
63
100
AcDbEntity
  8
0
  6
CONTINUOUS
 62
     7
100
AcDbLine
 10
83.155441
 20
-32.531555
 30
0.0
 11
85.155441
 21
-32.531555
 31
0.0
  0
LINE
  5
64
100
AcDbEntity
  8
0
  6
CONTINUOUS
 62
     7
100
AcDbLine
 10
82.375473
 20
-30.388645
 30
0.0
 11
83.971611
 21
-19.031557
 31
0.0
  0
LINE
  5
65
100
AcDbEntity
  8
0
  6
CONTINUOUS
 62
     7
100
AcDbLine
 10
89.797256
 20
-20.665066
 30
0.0
 11
88.339622
 21
-31.063396
 31
0.0
  0
LINE
  5
66
100
AcDbEntity
  8
0
  6
CONTINUOUS
 62
     7
100
AcDbLine
 10
93.971619
 20
-20.031559
 30
0.0
 11
92.971619
 21
-19.031563
 31
0.0
  0
LINE
  5
67
100
AcDbEntity
  8
0
  6
CONTINUOUS
 62
     7
100
AcDbLine
 10
82.375481
 20
-30.388647
 30
0.0
 11
83.155434
 21
-32.531559
 31
0.0
  0
LINE
  5
68
100
AcDbEntity
  8
0
  6
CONTINUOUS
 62
     7
100
AcDbLine
 10
85.155441
 20
-32.531555
 30
0.0
 11
92.962814
 21
-32.463421
 31
0.0
  0
LINE
  5
69
100
AcDbEntity
  8
0
  6
CONTINUOUS
 62
     7
100
AcDbLine
 10
93.971619
 20
-31.454624
 30
0.0
 11
92.962814
 21
-32.463428
 31
0.0
  0
LINE
  5
6A
100
AcDbEntity
  8
0
  6
CENTER
 62
     7
100
AcDbLine
 10
13.0
 20
25.70373
 30
0.0
 11
13.0
 21
10.338765
 31
0.0
  0
LINE
  5
6B
100
AcDbEntity
  8
0
  6
CONTINUOUS
 62
     7
100
AcDbLine
 10
-18.642593
 20
23.0
 30
0.0
 11
-18.642593
 21
13.466546
 31
0.0
  0
LINE
  5
6C
100
AcDbEntity
  8
0
  6
CONTINUOUS
 62
     7
100
AcDbLine
 10
-18.642595
 20
23.0
 30
0.0
 11
-19.642595
 21
24.0
 31
0.0
  0
LINE
  5
6D
100
AcDbEntity
  8
0
  6
CONTINUOUS
 62
     7
100
AcDbLine
 10
-23.342594
 20
10.0
 30
0.0
 11
-20.142593
 21
10.0
 31
0.0
  0
LINE
  5
6E
100
AcDbEntity
  8
0
  6
CONTINUOUS
 62
     7
100
AcDbLine
 10
-23.342594
 20
19.330128
 30
0.0
 11
-23.342594
 21
10.0
 31
0.0
  0
LINE
  5
6F
100
AcDbEntity
  8
0
  6
CONTINUOUS
 62
     7
100
AcDbLine
 10
15.232051
 20
12.403866
 30
0.0
 11
47.0
 21
12.403866
 31
0.0
  0
LINE
  5
70
100
AcDbEntity
  8
0
  6
CONTINUOUS
 62
     7
100
AcDbLine
 10
14.401501
 20
23.000002
 30
0.0
 11
1.980827
 21
24.0
 31
0.0
  0
LINE
  5
71
100
AcDbEntity
  8
0
  6
CENTER
 62
     7
100
AcDbLine
 10
35.0
 20
16.681145
 30
0.0
 11
35.0
 21
10.249133
 31
0.0
  0
LINE
  5
72
100
AcDbEntity
  8
0
  6
CONTINUOUS
 62
     7
100
AcDbLine
 10
0.5
 20
-20.794317
 30
0.0
 11
12.236631
 21
-19.560747
 31
0.0
  0
LINE
  5
73
100
AcDbEntity
  8
0
  6
CONTINUOUS
 62
     7
100
AcDbLine
 10
0.8
 20
-23.980412
 30
0.0
 11
12.571122
 21
-22.743216
 31
0.0
  0
LINE
  5
74
100
AcDbEntity
  8
0
  6
CONTINUOUS
 62
     7
100
AcDbLine
 10
0.8
 20
-32.531555
 30
0.0
 11
47.0
 21
-32.531555
 31
0.0
  0
LINE
  5
75
100
AcDbEntity
  8
0
  6
CONTINUOUS
 62
     7
100
AcDbLine
 10
47.0
 20
-19.031557
 30
0.0
 11
47.0
 21
-32.531555
 31
0.0
  0
LINE
  5
76
100
AcDbEntity
  8
0
  6
CONTINUOUS
 62
     7
100
AcDbLine
 10
14.4015
 20
-19.031557
 30
0.0
 11
47.0
 21
-19.031557
 31
0.0
  0
LINE
  5
77
100
AcDbEntity
  8
0
  6
CENTER
 62
     7
100
AcDbLine
 10
35.0
 20
-18.758093
 30
0.0
 11
35.0
 21
-31.765057
 31
0.0
  0
LINE
  5
78
100
AcDbEntity
  8
0
  6
CENTER
 62
     7
100
AcDbLine
 10
16.0
 20
-26.531557
 30
0.0
 11
10.0
 21
-26.531557
 31
0.0
  0
LINE
  5
79
100
AcDbEntity
  8
0
  6
CENTER
 62
     7
100
AcDbLine
 10
13.0
 20
-23.531557
 30
0.0
 11
13.0
 21
-29.531557
 31
0.0
  0
LINE
  5
7A
100
AcDbEntity
  8
0
  6
CONTINUOUS
 62
     7
100
AcDbLine
 10
14.977499
 20
-30.388645
 30
0.0
 11
47.0
 21
-30.388645
 31
0.0
  0
LINE
  5
7B
100
AcDbEntity
  8
0
  6
CONTINUOUS
 62
     7
100
AcDbLine
 10
0.8
 20
-23.980412
 30
0.0
 11
0.8
 21
-32.531555
 31
0.0
  0
LINE
  5
7C
100
AcDbEntity
  8
0
  6
CONTINUOUS
 62
     7
100
AcDbLine
 10
0.8
 20
-20.461132
 30
0.0
 11
14.4015
 21
-19.031557
 31
0.0
  0
LINE
  5
7D
100
AcDbEntity
  8
0
  6
CONTINUOUS
 62
     7
100
AcDbLine
 10
3.831298
 20
-26.531557
 30
0.0
 11
7.5
 21
-26.531557
 31
0.0
  0
LINE
  5
7E
100
AcDbEntity
  8
0
  6
CONTINUOUS
 62
     7
100
AcDbLine
 10
-20.142593
 20
19.330128
 30
0.0
 11
-20.142593
 21
10.0
 31
0.0
  0
LINE
  5
7F
100
AcDbEntity
  8
0
  6
CENTER
 62
     7
100
AcDbLine
 10
3.028675
 20
15.007686
 30
0.0
 11
9.935023
 21
16.858236
 31
0.0
  0
LINE
  5
80
100
AcDbEntity
  8
0
  6
CENTER
 62
     7
100
AcDbLine
 10
5.554337
 20
19.127344
 30
0.0
 11
7.42934
 21
12.129736
 31
0.0
  0
LINE
  5
81
100
AcDbEntity
  8
0
  6
CONTINUOUS
 62
     7
100
AcDbLine
 10
-32.142593
 20
23.0
 30
0.0
 11
-32.142593
 21
13.183822
 31
0.0
  0
LINE
  5
82
100
AcDbEntity
  8
0
  6
CONTINUOUS
 62
     7
100
AcDbLine
 10
-26.142593
 20
11.0
 30
0.0
 11
-32.142593
 21
13.183822
 31
0.0
  0
LINE
  5
83
100
AcDbEntity
  8
0
  6
CONTINUOUS
 62
     7
100
AcDbLine
 10
55.0
 20
20.0
 30
0.0
 11
55.0
 21
16.0
 31
0.0
  0
LINE
  5
84
100
AcDbEntity
  8
0
  6
CENTER
 62
     7
100
AcDbLine
 10
44.569038
 20
18.0
 30
0.0
 11
56.930676
 21
18.0
 31
0.0
  0
LINE
  5
85
100
AcDbEntity
  8
0
  6
CONTINUOUS
 62
     7
100
AcDbLine
 10
50.0
 20
22.0
 30
0.0
 11
50.0
 21
14.0
 31
0.0
  0
LINE
  5
86
100
AcDbEntity
  8
0
  6
CONTINUOUS
 62
     7
100
AcDbLine
 10
47.0
 20
15.5
 30
0.0
 11
50.0
 21
15.5
 31
0.0
  0
LINE
  5
87
100
AcDbEntity
  8
0
  6
CONTINUOUS
 62
     7
100
AcDbLine
 10
47.0
 20
20.5
 30
0.0
 11
50.0
 21
20.5
 31
0.0
  0
LINE
  5
88
100
AcDbEntity
  8
0
  6
CONTINUOUS
 62
     7
100
AcDbLine
 10
52.5
 20
22.499996
 30
0.0
 11
54.999996
 21
19.999998
 31
0.0
  0
LINE
  5
89
100
AcDbEntity
  8
0
  6
CONTINUOUS
 62
     7
100
AcDbLine
 10
52.499996
 20
13.499997
 30
0.0
 11
54.999996
 21
15.999997
 31
0.0
  0
LINE
  5
8A
100
AcDbEntity
  8
0
  6
CONTINUOUS
 62
     7
100
AcDbLine
 10
50.5
 20
13.5
 30
0.0
 11
52.5
 21
13.5
 31
0.0
  0
LINE
  5
8B
100
AcDbEntity
  8
0
  6
CONTINUOUS
 62
     7
100
AcDbLine
 10
50.5
 20
22.5
 30
0.0
 11
52.5
 21
22.5
 31
0.0
  0
LINE
  5
8C
100
AcDbEntity
  8
0
  6
CONTINUOUS
 62
     7
100
AcDbLine
 10
50.499996
 20
22.499996
 30
0.0
 11
50.0
 21
21.999998
 31
0.0
  0
LINE
  5
8D
100
AcDbEntity
  8
0
  6
CONTINUOUS
 62
     7
100
AcDbLine
 10
50.000008
 20
14.000003
 30
0.0
 11
50.500004
 21
13.500003
 31
0.0
  0
LINE
  5
8E
100
AcDbEntity
  8
0
  6
CONTINUOUS
 62
     7
100
AcDbLine
 10
50.5
 20
22.5
 30
0.0
 11
50.5
 21
13.5
 31
0.0
  0
LINE
  5
8F
100
AcDbEntity
  8
0
  6
CONTINUOUS
 62
     7
100
AcDbLine
 10
52.5
 20
22.5
 30
0.0
 11
52.5
 21
13.5
 31
0.0
  0
LINE
  5
90
100
AcDbEntity
  8
0
  6
CONTINUOUS
 62
     7
100
AcDbLine
 10
47.0
 20
16.0
 30
0.0
 11
50.0
 21
16.0
 31
0.0
  0
LINE
  5
91
100
AcDbEntity
  8
0
  6
CONTINUOUS
 62
     7
100
AcDbLine
 10
47.0
 20
20.0
 30
0.0
 11
50.0
 21
20.0
 31
0.0
  0
LINE
  5
92
100
AcDbEntity
  8
0
  6
CONTINUOUS
 62
     7
100
AcDbLine
 10
55.0
 20
-24.031557
 30
0.0
 11
55.0
 21
-28.031557
 31
0.0
  0
LINE
  5
93
100
AcDbEntity
  8
0
  6
CENTER
 62
     7
100
AcDbLine
 10
45.153172
 20
-26.031557
 30
0.0
 11
58.379311
 21
-26.031557
 31
0.0
  0
LINE
  5
94
100
AcDbEntity
  8
0
  6
CONTINUOUS
 62
     7
100
AcDbLine
 10
50.0
 20
-22.031557
 30
0.0
 11
50.0
 21
-30.031557
 31
0.0
  0
LINE
  5
95
100
AcDbEntity
  8
0
  6
CONTINUOUS
 62
     7
100
AcDbLine
 10
47.0
 20
-28.531557
 30
0.0
 11
50.0
 21
-28.531557
 31
0.0
  0
LINE
  5
96
100
AcDbEntity
  8
0
  6
CONTINUOUS
 62
     7
100
AcDbLine
 10
47.0
 20
-23.531557
 30
0.0
 11
50.0
 21
-23.531557
 31
0.0
  0
LINE
  5
97
100
AcDbEntity
  8
0
  6
CONTINUOUS
 62
     7
100
AcDbLine
 10
52.5
 20
-21.531557
 30
0.0
 11
55.0
 21
-24.031557
 31
0.0
  0
LINE
  5
98
100
AcDbEntity
  8
0
  6
CONTINUOUS
 62
     7
100
AcDbLine
 10
52.499996
 20
-30.531557
 30
0.0
 11
54.999996
 21
-28.031555
 31
0.0
  0
LINE
  5
99
100
AcDbEntity
  8
0
  6
CONTINUOUS
 62
     7
100
AcDbLine
 10
50.5
 20
-30.531557
 30
0.0
 11
52.5
 21
-30.531557
 31
0.0
  0
LINE
  5
9A
100
AcDbEntity
  8
0
  6
CONTINUOUS
 62
     7
100
AcDbLine
 10
50.5
 20
-21.531557
 30
0.0
 11
52.5
 21
-21.531557
 31
0.0
  0
LINE
  5
9B
100
AcDbEntity
  8
0
  6
CONTINUOUS
 62
     7
100
AcDbLine
 10
50.5
 20
-21.531561
 30
0.0
 11
50.0
 21
-22.031559
 31
0.0
  0
LINE
  5
9C
100
AcDbEntity
  8
0
  6
CONTINUOUS
 62
     7
100
AcDbLine
 10
50.000004
 20
-30.031555
 30
0.0
 11
50.500004
 21
-30.531555
 31
0.0
  0
LINE
  5
9D
100
AcDbEntity
  8
0
  6
CONTINUOUS
 62
     7
100
AcDbLine
 10
50.5
 20
-21.531557
 30
0.0
 11
50.5
 21
-30.531557
 31
0.0
  0
LINE
  5
9E
100
AcDbEntity
  8
0
  6
CONTINUOUS
 62
     7
100
AcDbLine
 10
52.5
 20
-21.531557
 30
0.0
 11
52.5
 21
-30.531557
 31
0.0
  0
LINE
  5
9F
100
AcDbEntity
  8
0
  6
CONTINUOUS
 62
     7
100
AcDbLine
 10
47.0
 20
-28.031557
 30
0.0
 11
50.0
 21
-28.031557
 31
0.0
  0
LINE
  5
A0
100
AcDbEntity
  8
0
  6
CONTINUOUS
 62
     7
100
AcDbLine
 10
47.0
 20
-24.031557
 30
0.0
 11
50.0
 21
-24.031557
 31
0.0
  0
LINE
  5
A1
100
AcDbEntity
  8
0
  6
CONTINUOUS
 62
     7
100
AcDbLine
 10
-32.142593
 20
23.000002
 30
0.0
 11
-31.142593
 21
24.000002
 31
0.0
  0
LINE
  5
A2
100
AcDbEntity
  8
0
  6
CENTER
 62
     7
100
AcDbLine
 10
33.25
 20
-18.639847
 30
0.0
 11
33.25
 21
-31.804472
 31
0.0
  0
LINE
  5
A3
100
AcDbEntity
  8
0
  6
CENTER
 62
     7
100
AcDbLine
 10
36.75
 20
-18.679262
 30
0.0
 11
36.75
 21
-31.646812
 31
0.0
  0
LINE
  5
A4
100
AcDbEntity
  8
0
  6
CONTINUOUS
 62
     7
100
AcDbLine
 10
3.334491
 20
-23.714025
 30
0.0
 11
3.0
 21
-20.531557
 31
0.0
  0
LINE
  5
A5
100
AcDbEntity
  8
0
  6
CONTINUOUS
 62
     7
100
AcDbLine
 10
7.5
 20
-23.276213
 30
0.0
 11
7.5
 21
-26.531557
 31
0.0
  0
LINE
  5
A6
100
AcDbEntity
  8
0
  6
CONTINUOUS
 62
     7
100
AcDbLine
 10
7.499999
 20
-26.531557
 30
0.0
 11
13.686358
 21
-30.560068
 31
0.0
  0
LINE
  5
A7
100
AcDbEntity
  8
0
  6
CONTINUOUS
 62
     7
100
AcDbLine
 10
14.4015
 20
23.0
 30
0.0
 11
14.4015
 21
12.609413
 31
0.0
  0
LINE
  5
A8
100
AcDbEntity
  8
0
  6
CONTINUOUS
 62
     7
100
AcDbLine
 10
15.232051
 20
13.0
 30
0.0
 11
15.232051
 21
12.403866
 31
0.0
  0
LINE
  5
A9
100
AcDbEntity
  8
0
  6
CONTINUOUS
 62
     7
100
AcDbLine
 10
15.232051
 20
-19.031557
 30
0.0
 11
15.232051
 21
-29.722082
 31
0.0
  0
LINE
  5
AA
100
AcDbEntity
  8
0
  6
CONTINUOUS
 62
     7
100
AcDbLine
 10
0.5
 20
19.330128
 30
0.0
 11
9.705272
 21
21.796675
 31
0.0
  0
LINE
  5
AB
100
AcDbEntity
  8
0
  6
CONTINUOUS
 62
     7
100
AcDbLine
 10
-23.342594
 20
19.330128
 30
0.0
 11
-20.142593
 21
19.330128
 31
0.0
  0
LINE
  5
AC
100
AcDbEntity
  8
0
  6
CONTINUOUS
 62
     7
100
AcDbLine
 10
-23.342594
 20
19.330128
 30
0.0
 11
-28.835449
 21
24.0
 31
0.0
  0
LINE
  5
AD
100
AcDbEntity
  8
0
  6
CONTINUOUS
 62
     7
100
AcDbLine
 10
0.834491
 20
-23.976786
 30
0.0
 11
0.5
 21
-20.794317
 31
0.0
  0
LINE
  5
AE
100
AcDbEntity
  8
0
  6
CONTINUOUS
 62
     7
100
AcDbLine
 10
0.831359
 20
-20.759489
 30
0.0
 11
0.8
 21
-20.461132
 31
0.0
  0
LINE
  5
AF
100
AcDbEntity
  8
0
  6
CONTINUOUS
 62
     7
100
AcDbLine
 10
12.571122
 20
-22.743216
 30
0.0
 11
12.205273
 21
-19.26239
 31
0.0
  0
LINE
  5
B0
100
AcDbEntity
  8
0
  6
CENTER
 62
     7
100
AcDbLine
 10
97.290413
 20
-27.016783
 30
0.0
 11
77.419388
 21
-24.231274
 31
0.0
  0
LINE
  5
B1
100
AcDbEntity
  8
0
  6
CONTINUOUS
 62
     7
100
AcDbLine
 10
88.339622
 20
-31.063396
 30
0.0
 11
82.397713
 21
-30.230463
 31
0.0
  0
LINE
  5
B2
100
AcDbEntity
  8
0
  6
CONTINUOUS
 62
     7
100
AcDbLine
 10
89.797256
 20
-20.665066
 30
0.0
 11
83.859024
 21
-19.832647
 31
0.0
  0
LINE
  5
B3
100
AcDbEntity
  8
0
  6
CONTINUOUS
 62
     7
100
AcDbLine
 10
93.971619
 20
-29.782845
 30
0.0
 11
88.624207
 21
-29.033247
 31
0.0
  0
LINE
  5
B4
100
AcDbEntity
  8
0
  6
CONTINUOUS
 62
     7
100
AcDbLine
 10
93.971619
 20
-23.320269
 30
0.0
 11
89.512672
 21
-22.695215
 31
0.0
  0
LINE
  5
B5
100
AcDbEntity
  8
0
  6
CONTINUOUS
 62
     7
100
AcDbLine
 10
33.25
 20
-30.230463
 30
0.0
 11
36.75
 21
-30.230463
 31
0.0
  0
LINE
  5
B6
100
AcDbEntity
  8
0
  6
CONTINUOUS
 62
     7
100
AcDbLine
 10
33.25
 20
-29.033245
 30
0.0
 11
36.75
 21
-29.033245
 31
0.0
  0
LINE
  5
B7
100
AcDbEntity
  8
0
  6
CONTINUOUS
 62
     7
100
AcDbLine
 10
33.25
 20
-23.320269
 30
0.0
 11
36.75
 21
-23.320269
 31
0.0
  0
LINE
  5
B8
100
AcDbEntity
  8
0
  6
CONTINUOUS
 62
     7
100
AcDbLine
 10
33.25
 20
-22.695215
 30
0.0
 11
36.75
 21
-22.695215
 31
0.0
  0
LINE
  5
B9
100
AcDbEntity
  8
0
  6
CONTINUOUS
 62
     7
100
AcDbLine
 10
33.25
 20
-20.665064
 30
0.0
 11
36.75
 21
-20.665064
 31
0.0
  0
LINE
  5
BA
100
AcDbEntity
  8
0
  6
CONTINUOUS
 62
     7
100
AcDbLine
 10
33.25
 20
-19.832647
 30
0.0
 11
36.75
 21
-19.832647
 31
0.0
  0
LINE
  5
BB
100
AcDbEntity
  8
0
  6
CONTINUOUS
 62
     7
100
AcDbLine
 10
3.334491
 20
-23.714025
 30
0.0
 11
4.889259
 21
-32.531555
 31
0.0
  0
LINE
  5
BC
100
AcDbEntity
  8
0
  6
CONTINUOUS
 62
     7
100
AcDbLine
 10
-22.371794
 20
21.796675
 30
0.0
 11
-19.171793
 21
21.796675
 31
0.0
  0
LINE
  5
BD
100
AcDbEntity
  8
0
  6
CONTINUOUS
 62
     7
100
AcDbLine
 10
-19.171793
 20
21.796675
 30
0.0
 11
-19.171793
 21
12.466546
 31
0.0
  0
LINE
  5
BE
100
AcDbEntity
  8
0
  6
CONTINUOUS
 62
     7
100
AcDbLine
 10
-20.142593
 20
19.330128
 30
0.0
 11
-19.171793
 21
21.796675
 31
0.0
  0
LINE
  5
BF
100
AcDbEntity
  8
0
  6
CONTINUOUS
 62
     7
100
AcDbLine
 10
-23.342594
 20
19.330128
 30
0.0
 11
-22.371794
 21
21.796675
 31
0.0
  0
LINE
  5
C0
100
AcDbEntity
  8
0
  6
CONTINUOUS
 62
     7
100
AcDbLine
 10
-20.142593
 20
10.0
 30
0.0
 11
-19.171793
 21
12.466546
 31
0.0
  0
LINE
  5
C1
100
AcDbEntity
  8
0
  6
CONTINUOUS
 62
     7
100
AcDbLine
 10
-18.642593
 20
13.466546
 30
0.0
 11
-19.171793
 21
12.937346
 31
0.0
  0
CIRCLE
  5
C2
100
AcDbEntity
  8
0
  6
CONTINUOUS
 62
     7
100
AcDbCircle
 10
6.415064
 20
15.915065
 30
0.0
 40
1.975
  0
ARC
  5
C3
100
AcDbEntity
  8
0
  6
CONTINUOUS
 62
     7
100
AcDbCircle
 10
10.222911
 20
19.86482
 30
0.0
 40
2.0
100
AcDbArc
 50
285.0
 51
105.0
  0
CIRCLE
  5
C4
100
AcDbEntity
  8
0
  6
CONTINUOUS
 62
     7
100
AcDbCircle
 10
13.0
 20
-26.531557
 30
0.0
 40
2.0
  0
CIRCLE
  5
C5
100
AcDbEntity
  8
0
  6
CONTINUOUS
 62
     7
100
AcDbCircle
 10
13.0
 20
-26.531557
 30
0.0
 40
1.65
  0
ARC
  5
C6
100
AcDbEntity
  8
0
  6
CONTINUOUS
 62
     7
100
AcDbCircle
 10
16.232052
 20
13.0
 30
0.0
 40
1.0
100
AcDbArc
 50
90.000003
 51
180.00001
  0
ARC
  5
C7
100
AcDbEntity
  8
0
  6
CONTINUOUS
 62
     7
100
AcDbCircle
 10
13.619999
 20
7.670865
 30
0.0
 40
5.0
100
AcDbArc
 50
71.191246
 51
106.43607
  0
ARC
  5
C8
100
AcDbEntity
  8
0
  6
CONTINUOUS
 62
     7
100
AcDbCircle
 10
14.232051
 20
-29.722082
 30
0.0
 40
1.0
100
AcDbArc
 50
236.92813
 51
0.0
  0
LWPOLYLINE
  5
C9
100
AcDbEntity
  8
0
  6
CONTINUOUS
 62
     7
100
AcDbPolyline
 90
       17
 70
     0
 43
0.0
 10
33.25
 20
-19.832647
 42
0.048416
 10
32.230782
 20
-19.931559
 42
0.048522
 10
31.249648
 20
-20.224817
 42
0.048718
 10
30.343563
 20
-20.702019
 42
0.048977
 10
29.547221
 20
-21.345958
 42
0.049271
 10
28.891641
 20
-22.133062
 42
0.049546
 10
28.403121
 20
-23.033699
 42
0.049752
 10
28.101741
 20
-24.013008
 42
0.049813
 10
28.0
 20
-25.031555
 42
0.049822
 10
28.101777
 20
-26.050283
 42
0.049704
 10
28.402814
 20
-27.028681
 42
0.04952
 10
28.890891
 20
-27.928944
 42
0.049257
 10
29.546066
 20
-28.716014
 42
0.048988
 10
30.342379
 20
-29.360312
 42
0.048743
 10
31.248823
 20
-29.837957
 42
0.048553
 10
32.230554
 20
-30.131506
 42
0.048427
 10
33.25
 20
-30.230463
  0
LWPOLYLINE
  5
DC
100
AcDbEntity
  8
0
  6
CONTINUOUS
 62
     7
100
AcDbPolyline
 90
       17
 70
     0
 43
0.0
 10
33.25
 20
-20.665064
 42
0.020579
 10
32.776513
 20
-20.684554
 42
0.020694
 10
32.305575
 20
-20.743086
 42
0.020867
 10
31.841079
 20
-20.840507
 42
0.02112
 10
31.386423
 20
-20.976519
 42
0.021456
 10
30.944983
 20
-21.150689
 42
0.021871
 10
30.520252
 20
-21.362403
 42
0.022359
 10
30.115851
 20
-21.610816
 42
0.02291
 10
29.735526
 20
-21.894788
 42
0.023511
 10
29.383126
 20
-22.212812
 42
0.024146
 10
29.062561
 20
-22.56295
 42
0.024791
 10
28.777722
 20
-22.94275
 42
0.025421
 10
28.532385
 20
-23.349199
 42
0.026004
 10
28.330073
 20
-23.778681
 42
0.026506
 10
28.173906
 20
-24.226979
 42
0.026897
 10
28.066432
 20
-24.689327
 42
0.027149
 10
28.009478
 20
-25.160505
  0
LWPOLYLINE
  5
EF
100
AcDbEntity
  8
0
  6
CONTINUOUS
 62
     7
100
AcDbPolyline
 90
       17
 70
     0
 43
0.0
 10
33.25
 20
-22.695215
 42
0.048372
 10
32.629348
 20
-22.755393
 42
0.048524
 10
32.031279
 20
-22.934043
 42
0.04872
 10
31.478938
 20
-23.224828
 42
0.048978
 10
30.993476
 20
-23.617258
 42
0.04927
 10
30.593799
 20
-24.096965
 42
0.049544
 10
30.295938
 20
-24.64589
 42
0.049748
 10
30.112131
 20
-25.242785
 42
0.049858
 10
30.049999
 20
-25.864231
 42
0.049748
 10
30.111857
 20
-26.484319
 42
0.049701
 10
30.295171
 20
-27.080745
 42
0.049518
 10
30.592502
 20
-27.629583
 42
0.049257
 10
30.991706
 20
-28.109459
 42
0.048989
 10
31.476967
 20
-28.502335
 42
0.048746
 10
32.02939
 20
-28.793647
 42
0.048556
 10
32.627741
 20
-28.972753
 42
0.0485
 10
33.25
 20
-29.033245
  0
LWPOLYLINE
  5
102
100
AcDbEntity
  8
0
  6
CONTINUOUS
 62
     7
100
AcDbPolyline
 90
       17
 70
     0
 43
0.0
 10
33.25
 20
-23.320269
 42
0.01989
 10
32.965337
 20
-23.331593
 42
0.020024
 10
32.681947
 20
-23.365636
 42
0.020195
 10
32.402503
 20
-23.422269
 42
0.020482
 10
32.1286
 20
-23.50141
 42
0.020865
 10
31.862165
 20
-23.602895
 42
0.021341
 10
31.605218
 20
-23.72648
 42
0.021905
 10
31.359883
 20
-23.871801
 42
0.022549
 10
31.128392
 20
-24.038341
 42
0.023262
 10
30.913083
 20
-24.225372
 42
0.024024
 10
30.716378
 20
-24.43191
 42
0.024811
 10
30.540737
 20
-24.656652
 42
0.025592
 10
30.388599
 20
-24.897929
 42
0.026326
 10
30.262291
 20
-25.153668
 42
0.026972
 10
30.163916
 20
-25.421376
 42
0.027484
 10
30.095234
 20
-25.69816
 42
0.027825
 10
30.057538
 20
-25.980793
  0
LWPOLYLINE
  5
115
100
AcDbEntity
  8
0
  6
CONTINUOUS
 62
     7
100
AcDbPolyline
 90
       17
 70
     0
 43
0.0
 10
36.75
 20
-22.695215
 42
-0.048372
 10
37.370652
 20
-22.755393
 42
-0.048524
 10
37.968721
 20
-22.934043
 42
-0.04872
 10
38.521062
 20
-23.224828
 42
-0.048978
 10
39.006524
 20
-23.617258
 42
-0.04927
 10
39.406201
 20
-24.096965
 42
-0.049544
 10
39.704062
 20
-24.64589
 42
-0.049748
 10
39.887869
 20
-25.242785
 42
-0.049858
 10
39.950001
 20
-25.864231
 42
-0.049748
 10
39.888143
 20
-26.484319
 42
-0.049701
 10
39.704829
 20
-27.080745
 42
-0.049518
 10
39.407498
 20
-27.629583
 42
-0.049257
 10
39.008294
 20
-28.109459
 42
-0.048989
 10
38.523033
 20
-28.502335
 42
-0.048746
 10
37.97061
 20
-28.793647
 42
-0.048556
 10
37.372259
 20
-28.972753
 42
-0.0485
 10
36.75
 20
-29.033245
  0
LWPOLYLINE
  5
128
100
AcDbEntity
  8
0
  6
CONTINUOUS
 62
     7
100
AcDbPolyline
 90
       17
 70
     0
 43
0.0
 10
36.75
 20
-23.320269
 42
-0.01989
 10
37.034663
 20
-23.331593
 42
-0.020024
 10
37.318053
 20
-23.365636
 42
-0.020195
 10
37.597497
 20
-23.422269
 42
-0.020482
 10
37.8714
 20
-23.50141
 42
-0.020865
 10
38.137835
 20
-23.602895
 42
-0.021341
 10
38.394782
 20
-23.72648
 42
-0.021905
 10
38.640117
 20
-23.871801
 42
-0.022549
 10
38.871608
 20
-24.038341
 42
-0.023262
 10
39.086917
 20
-24.225372
 42
-0.024024
 10
39.283622
 20
-24.43191
 42
-0.024811
 10
39.459263
 20
-24.656652
 42
-0.025592
 10
39.611401
 20
-24.897929
 42
-0.026326
 10
39.737709
 20
-25.153668
 42
-0.026972
 10
39.836084
 20
-25.421376
 42
-0.027484
 10
39.904766
 20
-25.69816
 42
-0.027825
 10
39.942462
 20
-25.980793
  0
LWPOLYLINE
  5
13B
100
AcDbEntity
  8
0
  6
CONTINUOUS
 62
     7
100
AcDbPolyline
 90
       17
 70
     0
 43
0.0
 10
36.75
 20
-20.665064
 42
-0.020579
 10
37.223487
 20
-20.684554
 42
-0.020694
 10
37.694425
 20
-20.743086
 42
-0.020867
 10
38.158921
 20
-20.840507
 42
-0.02112
 10
38.613577
 20
-20.976519
 42
-0.021456
 10
39.055017
 20
-21.150689
 42
-0.021871
 10
39.479748
 20
-21.362403
 42
-0.022359
 10
39.884149
 20
-21.610816
 42
-0.02291
 10
40.264474
 20
-21.894788
 42
-0.023511
 10
40.616874
 20
-22.212812
 42
-0.024146
 10
40.937439
 20
-22.56295
 42
-0.024791
 10
41.222278
 20
-22.94275
 42
-0.025421
 10
41.467615
 20
-23.349199
 42
-0.026004
 10
41.669927
 20
-23.778681
 42
-0.026506
 10
41.826094
 20
-24.226979
 42
-0.026897
 10
41.933568
 20
-24.689327
 42
-0.027149
 10
41.990522
 20
-25.160505
  0
LWPOLYLINE
  5
14E
100
AcDbEntity
  8
0
  6
CONTINUOUS
 62
     7
100
AcDbPolyline
 90
       17
 70
     0
 43
0.0
 10
36.75
 20
-19.832647
 42
-0.048416
 10
37.769218
 20
-19.931559
 42
-0.048522
 10
38.750352
 20
-20.224817
 42
-0.048718
 10
39.656437
 20
-20.702019
 42
-0.048977
 10
40.452779
 20
-21.345958
 42
-0.049271
 10
41.108359
 20
-22.133062
 42
-0.049546
 10
41.596879
 20
-23.033699
 42
-0.049752
 10
41.898259
 20
-24.013008
 42
-0.049813
 10
42.0
 20
-25.031555
 42
-0.049822
 10
41.898223
 20
-26.050283
 42
-0.049704
 10
41.597186
 20
-27.028681
 42
-0.04952
 10
41.109109
 20
-27.928944
 42
-0.049257
 10
40.453934
 20
-28.716014
 42
-0.048988
 10
39.657621
 20
-29.360312
 42
-0.048743
 10
38.751177
 20
-29.837957
 42
-0.048553
 10
37.769446
 20
-30.131506
 42
-0.048427
 10
36.75
 20
-30.230463
  0
LWPOLYLINE
  5
161
100
AcDbEntity
  8
0
  6
CONTINUOUS
 62
     7
100
AcDbPolyline
 90
       16
 70
     1
 43
0.0
 10
35.0
 20
13.887408
 42
0.006828
 10
33.220156
 20
13.863395
 42
0.008453
 10
31.441299
 20
13.785941
 42
0.014684
 10
29.667733
 20
13.63012
 42
0.125607
 10
28.0
 20
13.156749
 42
0.125503
 10
29.667402
 20
12.683419
 42
0.014682
 10
31.440096
 20
12.527631
 42
0.008453
 10
33.218389
 20
12.450152
 42
0.006836
 10
35.0
 20
12.42609
 42
0.006828
 10
36.779844
 20
12.450103
 42
0.008453
 10
38.558701
 20
12.527557
 42
0.014684
 10
40.332267
 20
12.683378
 42
0.125607
 10
42.0
 20
13.156749
 42
0.125503
 10
40.332598
 20
13.630079
 42
0.014682
 10
38.559904
 20
13.785867
 42
0.008453
 10
36.781611
 20
13.863347
 42
0.006836
  0
CIRCLE
  5
173
100
AcDbEntity
  8
0
  6
CONTINUOUS
 62
     7
100
AcDbCircle
 10
3.0
 20
10.0
 30
0.0
 40
0.01
  0
LINE
  5
174
100
AcDbEntity
  8
0
  6
CONTINUOUS
 62
     7
100
AcDbLine
 10
90.944265
 20
-32.531555
 30
0.0
 11
93.72723
 21
-29.748584
 31
0.0
  0
LINE
  5
175
100
AcDbEntity
  8
0
  6
CONTINUOUS
 62
     7
100
AcDbLine
 10
88.699203
 20
-32.531555
 30
0.0
 11
91.758187
 21
-29.472565
 31
0.0
  0
LINE
  5
176
100
AcDbEntity
  8
0
  6
CONTINUOUS
 62
     7
100
AcDbLine
 10
86.454141
 20
-32.531555
 30
0.0
 11
87.973605
 21
-31.012088
 31
0.0
  0
LINE
  5
177
100
AcDbEntity
  8
0
  6
CONTINUOUS
 62
     7
100
AcDbLine
 10
88.40766
 20
-30.578032
 30
0.0
 11
89.789144
 21
-29.196545
 31
0.0
  0
LINE
  5
178
100
AcDbEntity
  8
0
  6
CONTINUOUS
 62
     7
100
AcDbLine
 10
84.20908
 20
-32.531555
 30
0.0
 11
86.004562
 21
-30.736069
 31
0.0
  0
LINE
  5
179
100
AcDbEntity
  8
0
  6
CONTINUOUS
 62
     7
100
AcDbLine
 10
82.837512
 20
-31.658059
 30
0.0
 11
84.035518
 21
-30.46005
 31
0.0
  0
LINE
  5
17A
100
AcDbEntity
  8
0
  6
CONTINUOUS
 62
     7
100
AcDbLine
 10
93.488124
 20
-23.252493
 30
0.0
 11
93.971619
 21
-22.768997
 31
0.0
  0
LINE
  5
17B
100
AcDbEntity
  8
0
  6
CONTINUOUS
 62
     7
100
AcDbLine
 10
91.519081
 20
-22.976473
 30
0.0
 11
93.971619
 21
-20.52393
 31
0.0
  0
LINE
  5
17C
100
AcDbEntity
  8
0
  6
CONTINUOUS
 62
     7
100
AcDbLine
 10
89.550037
 20
-22.700454
 30
0.0
 11
93.095271
 21
-19.155213
 31
0.0
  0
LINE
  5
17D
100
AcDbEntity
  8
0
  6
CONTINUOUS
 62
     7
100
AcDbLine
 10
89.396535
 20
-20.608891
 30
0.0
 11
90.973862
 21
-19.03156
 31
0.0
  0
LINE
  5
17E
100
AcDbEntity
  8
0
  6
CONTINUOUS
 62
     7
100
AcDbLine
 10
87.427491
 20
-20.332872
 30
0.0
 11
88.728802
 21
-19.031559
 31
0.0
  0
LINE
  5
17F
100
AcDbEntity
  8
0
  6
CONTINUOUS
 62
     7
100
AcDbLine
 10
85.458448
 20
-20.056853
 30
0.0
 11
86.483741
 21
-19.031558
 31
0.0
  0
LINE
  5
180
100
AcDbEntity
  8
0
  6
CONTINUOUS
 62
     7
100
AcDbLine
 10
83.927944
 20
-19.342294
 30
0.0
 11
84.23868
 21
-19.031557
 31
0.0
  0
TEXT
  5
181
100
AcDbEntity
  8
0
  6
CONTINUOUS
100
AcDbText
 10
11.969993
 20
-70.03681
 30
0.0
 40
6.0
  1
ＢＵ１５４Ｒ
100
AcDbText
  0
ENDBLK
  5
183
100
AcDbEntity
  8
0
100
AcDbBlockEnd
  0
BLOCK
  5
2F3
100
AcDbEntity
  8
0
100
AcDbBlockBegin
  2
*D2
 70
     1
 10
0.0
 20
0.0
 30
0.0
  3
*D2
  1

  0
LINE
  5
2E8
100
AcDbEntity
  8
寸法
 62
     1
100
AcDbLine
 10
211.253928
 20
85.25827
 30
0.0
 11
221.0
 21
85.25827
 31
0.0
1001
ACAD
1000
RTLwPs
1070
   158
  0
LINE
  5
2E9
100
AcDbEntity
  8
寸法
 62
     1
100
AcDbLine
 10
210.176996
 20
79.278272
 30
0.0
 11
221.0
 21
79.278272
 31
0.0
1001
ACAD
1000
RTLwPs
1070
   158
  0
LINE
  5
2EA
100
AcDbEntity
  8
寸法
 62
     1
100
AcDbLine
 10
220.0
 20
87.25827
 30
0.0
 11
220.0
 21
89.25827
 31
0.0
1001
ACAD
1000
RTLwPs
1070
   158
  0
LINE
  5
2EB
100
AcDbEntity
  8
寸法
 62
     1
100
AcDbLine
 10
220.0
 20
77.278272
 30
0.0
 11
220.0
 21
64.278272
 31
0.0
1001
ACAD
1000
RTLwPs
1070
   158
  0
LINE
  5
2EC
100
AcDbEntity
  8
寸法
 62
     1
100
AcDbLine
 10
220.0
 20
85.25827
 30
0.0
 11
220.0
 21
79.278272
 31
0.0
1001
ACAD
1000
RTLwPs
1070
   158
  0
INSERT
  5
2ED
100
AcDbEntity
  8
寸法
 62
     1
100
AcDbBlockReference
  2
_OPEN30
 10
220.0
 20
85.25827
 30
0.0
 41
2.0
 42
2.0
 43
2.0
 50
270.0
1001
ACAD
1000
RTLwPs
1070
   158
  0
INSERT
  5
2EE
100
AcDbEntity
  8
寸法
 62
     1
100
AcDbBlockReference
  2
_OPEN30
 10
220.0
 20
79.278272
 30
0.0
 41
2.0
 42
2.0
 43
2.0
 50
90.0
1001
ACAD
1000
RTLwPs
1070
   158
  0
MTEXT
  5
2EF
100
AcDbEntity
  8
寸法
 62
     1
100
AcDbMText
 10
217.5
 20
69.778272
 30
0.0
 40
3.0
 41
0.0
 71
     5
 72
     1
  1
\A1;5.98
 11
0.0
 21
1.0
 31
0.0
1001
ACAD
1000
MTEXTBEGIN
1070
    73
1070
     1
1070
    44
1040
1.0
1070
    74
1070
     0
1000
MTEXTEND
1000
MTEXTBEGIN
1070
    73
1070
     1
1070
    44
1040
1.0
1070
    74
1070
     0
1000
MTEXTEND
  0
POINT
  5
2F0
100
AcDbEntity
  8
DEFPOINTS
 62
     0
100
AcDbPoint
 10
210.253928
 20
85.25827
 30
0.0
  0
POINT
  5
2F1
100
AcDbEntity
  8
DEFPOINTS
 62
     0
100
AcDbPoint
 10
209.176996
 20
79.278272
 30
0.0
  0
POINT
  5
2F2
100
AcDbEntity
  8
DEFPOINTS
 62
     0
100
AcDbPoint
 10
220.0
 20
79.278272
 30
0.0
  0
ENDBLK
  5
2F4
100
AcDbEntity
  8
0
100
AcDbBlockEnd
  0
BLOCK
  5
301
100
AcDbEntity
  8
0
100
AcDbBlockBegin
  2
*D3
 70
     1
 10
0.0
 20
0.0
 30
0.0
  3
*D3
  1

  0
LINE
  5
2F8
100
AcDbEntity
  8
寸法
 62
     1
100
AcDbLine
 10
164.282309
 20
92.77827
 30
0.0
 11
181.0
 21
92.77827
 31
0.0
1001
ACAD
1000
RTLwPs
1070
   158
  0
LINE
  5
2F9
100
AcDbEntity
  8
寸法
 62
     1
100
AcDbLine
 10
164.282309
 20
79.278272
 30
0.0
 11
181.0
 21
79.278272
 31
0.0
1001
ACAD
1000
RTLwPs
1070
   158
  0
LINE
  5
2FA
100
AcDbEntity
  8
寸法
 62
     1
100
AcDbLine
 10
180.0
 20
90.77827
 30
0.0
 11
180.0
 21
81.278272
 31
0.0
1001
ACAD
1000
RTLwPs
1070
   158
  0
INSERT
  5
2FB
100
AcDbEntity
  8
寸法
 62
     1
100
AcDbBlockReference
  2
_OPEN30
 10
180.0
 20
92.77827
 30
0.0
 41
2.0
 42
2.0
 43
2.0
 50
90.0
1001
ACAD
1000
RTLwPs
1070
   158
  0
INSERT
  5
2FC
100
AcDbEntity
  8
寸法
 62
     1
100
AcDbBlockReference
  2
_OPEN30
 10
180.0
 20
79.278272
 30
0.0
 41
2.0
 42
2.0
 43
2.0
 50
270.0
1001
ACAD
1000
RTLwPs
1070
   158
  0
MTEXT
  5
2FD
100
AcDbEntity
  8
寸法
 62
     1
100
AcDbMText
 10
177.5
 20
86.028271
 30
0.0
 40
3.0
 41
0.0
 71
     5
 72
     1
  1
\A1;13.5
 11
0.0
 21
1.0
 31
0.0
1001
ACAD
1000
MTEXTBEGIN
1070
    73
1070
     1
1070
    44
1040
1.0
1070
    74
1070
     0
1000
MTEXTEND
1000
MTEXTBEGIN
1070
    73
1070
     1
1070
    44
1040
1.0
1070
    74
1070
     0
1000
MTEXTEND
  0
POINT
  5
2FE
100
AcDbEntity
  8
DEFPOINTS
 62
     0
100
AcDbPoint
 10
163.282309
 20
92.77827
 30
0.0
  0
POINT
  5
2FF
100
AcDbEntity
  8
DEFPOINTS
 62
     0
100
AcDbPoint
 10
163.282309
 20
79.278272
 30
0.0
  0
POINT
  5
300
100
AcDbEntity
  8
DEFPOINTS
 62
     0
100
AcDbPoint
 10
180.0
 20
79.278272
 30
0.0
  0
ENDBLK
  5
302
100
AcDbEntity
  8
0
100
AcDbBlockEnd
  0
BLOCK
  5
310
100
AcDbEntity
  8
0
100
AcDbBlockBegin
  2
*D4
 70
     1
 10
0.0
 20
0.0
 30
0.0
  3
*D4
  1

  0
LINE
  5
305
100
AcDbEntity
  8
寸法
 62
     1
100
AcDbLine
 10
153.032309
 20
79.163015
 30
0.0
 11
153.032309
 21
69.0
 31
0.0
1001
ACAD
1000
RTLwPs
1070
   158
  0
LINE
  5
306
100
AcDbEntity
  8
寸法
 62
     1
100
AcDbLine
 10
149.532309
 20
79.005355
 30
0.0
 11
149.532309
 21
69.0
 31
0.0
1001
ACAD
1000
RTLwPs
1070
   158
  0
LINE
  5
307
100
AcDbEntity
  8
寸法
 62
     1
100
AcDbLine
 10
155.032309
 20
70.0
 30
0.0
 11
157.032309
 21
70.0
 31
0.0
1001
ACAD
1000
RTLwPs
1070
   158
  0
LINE
  5
308
100
AcDbEntity
  8
寸法
 62
     1
100
AcDbLine
 10
147.532309
 20
70.0
 30
0.0
 11
137.532309
 21
70.0
 31
0.0
1001
ACAD
1000
RTLwPs
1070
   158
  0
LINE
  5
309
100
AcDbEntity
  8
寸法
 62
     1
100
AcDbLine
 10
153.032309
 20
70.0
 30
0.0
 11
149.532309
 21
70.0
 31
0.0
1001
ACAD
1000
RTLwPs
1070
   158
  0
INSERT
  5
30A
100
AcDbEntity
  8
寸法
 62
     1
100
AcDbBlockReference
  2
_OPEN30
 10
153.032309
 20
70.0
 30
0.0
 41
2.0
 42
2.0
 43
2.0
 50
180.0
1001
ACAD
1000
RTLwPs
1070
   158
  0
INSERT
  5
30B
100
AcDbEntity
  8
寸法
 62
     1
100
AcDbBlockReference
  2
_OPEN30
 10
149.532309
 20
70.0
 30
0.0
 41
2.0
 42
2.0
 43
2.0
1001
ACAD
1000
RTLwPs
1070
   158
  0
MTEXT
  5
30C
100
AcDbEntity
  8
寸法
 62
     1
100
AcDbMText
 10
141.532309
 20
72.5
 30
0.0
 40
3.0
 41
0.0
 71
     5
 72
     1
  1
\A1;3.5
1001
ACAD
1000
MTEXTBEGIN
1070
    73
1070
     1
1070
    44
1040
1.0
1070
    74
1070
     0
1000
MTEXTEND
1000
MTEXTBEGIN
1070
    73
1070
     1
1070
    44
1040
1.0
1070
    74
1070
     0
1000
MTEXTEND
  0
POINT
  5
30D
100
AcDbEntity
  8
DEFPOINTS
 62
     0
100
AcDbPoint
 10
153.032309
 20
80.163015
 30
0.0
  0
POINT
  5
30E
100
AcDbEntity
  8
DEFPOINTS
 62
     0
100
AcDbPoint
 10
149.532309
 20
80.005355
 30
0.0
  0
POINT
  5
30F
100
AcDbEntity
  8
DEFPOINTS
 62
     0
100
AcDbPoint
 10
149.532309
 20
70.0
 30
0.0
  0
ENDBLK
  5
311
100
AcDbEntity
  8
0
100
AcDbBlockEnd
  0
BLOCK
  5
31E
100
AcDbEntity
  8
0
100
AcDbBlockBegin
  2
*D5
 70
     1
 10
0.0
 20
0.0
 30
0.0
  3
*D5
  1

  0
LINE
  5
33E
100
AcDbEntity
  8
寸法
 62
     1
100
AcDbLine
 10
115.782309
 20
91.01551
 30
0.0
 11
109.0
 21
91.01551
 31
0.0
1001
ACAD
1000
RTLwPs
1070
   158
  0
LINE
  5
33F
100
AcDbEntity
  8
寸法
 62
     1
100
AcDbLine
 10
116.082309
 20
79.278272
 30
0.0
 11
109.0
 21
79.278272
 31
0.0
1001
ACAD
1000
RTLwPs
1070
   158
  0
LINE
  5
340
100
AcDbEntity
  8
寸法
 62
     1
100
AcDbLine
 10
110.0
 20
89.01551
 30
0.0
 11
110.0
 21
81.278272
 31
0.0
1001
ACAD
1000
RTLwPs
1070
   158
  0
INSERT
  5
341
100
AcDbEntity
  8
寸法
 62
     1
100
AcDbBlockReference
  2
_OPEN30
 10
110.0
 20
91.01551
 30
0.0
 41
2.0
 42
2.0
 43
2.0
 50
90.0
1001
ACAD
1000
RTLwPs
1070
   158
  0
INSERT
  5
342
100
AcDbEntity
  8
寸法
 62
     1
100
AcDbBlockReference
  2
_OPEN30
 10
110.0
 20
79.278272
 30
0.0
 41
2.0
 42
2.0
 43
2.0
 50
270.0
1001
ACAD
1000
RTLwPs
1070
   158
  0
MTEXT
  5
343
100
AcDbEntity
  8
寸法
 62
     1
100
AcDbMText
 10
107.5
 20
85.146891
 30
0.0
 40
3.0
 41
0.0
 71
     5
 72
     1
  1
\A1;12
 11
0.0
 21
1.0
 31
0.0
1001
ACAD
1000
MTEXTBEGIN
1070
    73
1070
     1
1070
    44
1040
1.0
1070
    74
1070
     0
1000
MTEXTEND
1000
MTEXTBEGIN
1070
    73
1070
     1
1070
    44
1040
1.0
1070
    74
1070
     0
1000
MTEXTEND
  0
POINT
  5
344
100
AcDbEntity
  8
DEFPOINTS
 62
     0
100
AcDbPoint
 10
116.782309
 20
91.01551
 30
0.0
  0
POINT
  5
345
100
AcDbEntity
  8
DEFPOINTS
 62
     0
100
AcDbPoint
 10
117.082309
 20
79.278272
 30
0.0
  0
POINT
  5
346
100
AcDbEntity
  8
DEFPOINTS
 62
     0
100
AcDbPoint
 10
110.0
 20
79.278272
 30
0.0
  0
ENDBLK
  5
31F
100
AcDbEntity
  8
0
100
AcDbBlockEnd
  0
BLOCK
  5
33C
100
AcDbEntity
  8
0
100
AcDbBlockBegin
  2
*D6
 70
     1
 10
0.0
 20
0.0
 30
0.0
  3
*D6
  1

  0
LINE
  5
492
100
AcDbEntity
  8
寸法
 62
     1
100
AcDbLine
 10
129.683809
 20
92.77827
 30
0.0
 11
93.243155
 21
92.77827
 31
0.0
  0
LINE
  5
493
100
AcDbEntity
  8
寸法
 62
     1
100
AcDbLine
 10
115.787787
 20
90.910981
 30
0.0
 11
93.463982
 21
88.564654
 31
0.0
  0
ARC
  5
494
100
AcDbEntity
  8
寸法
 62
     1
100
AcDbCircle
 10
133.553845
 20
92.77827
 30
0.0
 40
39.310689
100
AcDbArc
 50
177.084663
 51
180.0
  0
LINE
  5
495
100
AcDbEntity
  8
寸法
 62
     1
100
AcDbLine
 10
94.294032
 20
94.777622
 30
0.0
 11
94.731431
 21
103.366492
 31
0.0
  0
ARC
  5
496
100
AcDbEntity
  8
寸法
 62
     1
100
AcDbCircle
 10
133.553845
 20
92.77827
 30
0.0
 40
39.310689
100
AcDbArc
 50
182.915337
 51
183.084664
  0
INSERT
  5
497
100
AcDbEntity
  8
寸法
 62
     1
100
AcDbBlockReference
  2
_OPEN30
 10
94.243155
 20
92.77827
 30
0.0
 41
2.0
 42
2.0
 43
2.0
 50
91.457669
  0
INSERT
  5
498
100
AcDbEntity
  8
寸法
 62
     1
100
AcDbBlockReference
  2
_OPEN30
 10
94.458504
 20
88.669182
 30
0.0
 41
2.0
 42
2.0
 43
2.0
 50
274.542333
  0
MTEXT
  5
499
100
AcDbEntity
  8
寸法
 62
     1
100
AcDbMText
 10
97.009496
 20
98.944906
 30
0.0
 40
3.0
 41
0.0
 71
     5
 72
     1
  1
\A1;6°
 11
-0.05086
 21
-0.998706
 31
0.0
  0
POINT
  5
49A
100
AcDbEntity
  8
DEFPOINTS
 62
     0
100
AcDbPoint
 10
94.338914
 20
90.036094
 30
0.0
  0
POINT
  5
49B
100
AcDbEntity
  8
DEFPOINTS
 62
     0
100
AcDbPoint
 10
130.683809
 20
92.77827
 30
0.0
  0
POINT
  5
49C
100
AcDbEntity
  8
DEFPOINTS
 62
     0
100
AcDbPoint
 10
116.782309
 20
91.01551
 30
0.0
  0
POINT
  5
49D
100
AcDbEntity
  8
DEFPOINTS
 62
     0
100
AcDbPoint
 10
128.51894
 20
92.24908
 30
0.0
  0
POINT
  5
49E
100
AcDbEntity
  8
DEFPOINTS
 62
     0
100
AcDbPoint
 10
163.282309
 20
92.77827
 30
0.0
  0
ENDBLK
  5
33D
100
AcDbEntity
  8
0
100
AcDbBlockEnd
  0
BLOCK
  5
352
100
AcDbEntity
  8
0
100
AcDbBlockBegin
  2
*D7
 70
     1
 10
0.0
 20
0.0
 30
0.0
  3
*D7
  1

  0
LINE
  5
377
100
AcDbEntity
  8
寸法
 62
     1
100
AcDbLine
 10
116.082309
 20
151.668956
 30
0.0
 11
109.0
 21
151.668956
 31
0.0
1001
ACAD
1000
RTLwPs
1070
   158
  0
LINE
  5
378
100
AcDbEntity
  8
寸法
 62
     1
100
AcDbLine
 10
118.279721
 20
137.678615
 30
0.0
 11
109.0
 21
137.678615
 31
0.0
1001
ACAD
1000
RTLwPs
1070
   158
  0
LINE
  5
379
100
AcDbEntity
  8
寸法
 62
     1
100
AcDbLine
 10
110.0
 20
149.668956
 30
0.0
 11
110.0
 21
139.678615
 31
0.0
1001
ACAD
1000
RTLwPs
1070
   158
  0
INSERT
  5
37A
100
AcDbEntity
  8
寸法
 62
     1
100
AcDbBlockReference
  2
_OPEN30
 10
110.0
 20
151.668956
 30
0.0
 41
2.0
 42
2.0
 43
2.0
 50
90.0
1001
ACAD
1000
RTLwPs
1070
   158
  0
INSERT
  5
37B
100
AcDbEntity
  8
寸法
 62
     1
100
AcDbBlockReference
  2
_OPEN30
 10
110.0
 20
137.678615
 30
0.0
 41
2.0
 42
2.0
 43
2.0
 50
270.0
1001
ACAD
1000
RTLwPs
1070
   158
  0
MTEXT
  5
37C
100
AcDbEntity
  8
寸法
 62
     1
100
AcDbMText
 10
107.5
 20
144.673785
 30
0.0
 40
3.0
 41
0.0
 71
     5
 72
     1
  1
\A1;14
 11
0.0
 21
1.0
 31
0.0
1001
ACAD
1000
MTEXTBEGIN
1070
    73
1070
     1
1070
    44
1040
1.0
1070
    74
1070
     0
1000
MTEXTEND
1000
MTEXTBEGIN
1070
    73
1070
     1
1070
    44
1040
1.0
1070
    74
1070
     0
1000
MTEXTEND
  0
POINT
  5
37D
100
AcDbEntity
  8
DEFPOINTS
 62
     0
100
AcDbPoint
 10
117.082309
 20
151.668956
 30
0.0
  0
POINT
  5
37E
100
AcDbEntity
  8
DEFPOINTS
 62
     0
100
AcDbPoint
 10
119.279721
 20
137.678615
 30
0.0
  0
POINT
  5
37F
100
AcDbEntity
  8
DEFPOINTS
 62
     0
100
AcDbPoint
 10
110.0
 20
137.678615
 30
0.0
  0
ENDBLK
  5
353
100
AcDbEntity
  8
0
100
AcDbBlockEnd
  0
BLOCK
  5
35F
100
AcDbEntity
  8
0
100
AcDbBlockBegin
  2
*D8
 70
     1
 10
0.0
 20
0.0
 30
0.0
  3
*D8
  1

  0
LINE
  5
356
100
AcDbEntity
  8
寸法
 62
     1
100
AcDbLine
 10
119.282309
 20
136.668956
 30
0.0
 11
119.282309
 21
119.0
 31
0.0
1001
ACAD
1000
RTLwPs
1070
   158
  0
LINE
  5
357
100
AcDbEntity
  8
寸法
 62
     1
100
AcDbLine
 10
171.282305
 20
142.668953
 30
0.0
 11
171.282305
 21
119.0
 31
0.0
1001
ACAD
1000
RTLwPs
1070
   158
  0
LINE
  5
358
100
AcDbEntity
  8
寸法
 62
     1
100
AcDbLine
 10
121.282309
 20
120.0
 30
0.0
 11
169.282305
 21
120.0
 31
0.0
1001
ACAD
1000
RTLwPs
1070
   158
  0
INSERT
  5
359
100
AcDbEntity
  8
寸法
 62
     1
100
AcDbBlockReference
  2
_OPEN30
 10
119.282309
 20
120.0
 30
0.0
 41
2.0
 42
2.0
 43
2.0
 50
180.0
1001
ACAD
1000
RTLwPs
1070
   158
  0
INSERT
  5
35A
100
AcDbEntity
  8
寸法
 62
     1
100
AcDbBlockReference
  2
_OPEN30
 10
171.282305
 20
120.0
 30
0.0
 41
2.0
 42
2.0
 43
2.0
1001
ACAD
1000
RTLwPs
1070
   158
  0
MTEXT
  5
35B
100
AcDbEntity
  8
寸法
 62
     1
100
AcDbMText
 10
145.282307
 20
122.5
 30
0.0
 40
3.0
 41
0.0
 71
     5
 72
     1
  1
\A1;52
1001
ACAD
1000
MTEXTBEGIN
1070
    73
1070
     1
1070
    44
1040
1.0
1070
    74
1070
     0
1000
MTEXTEND
1000
MTEXTBEGIN
1070
    73
1070
     1
1070
    44
1040
1.0
1070
    74
1070
     0
1000
MTEXTEND
  0
POINT
  5
35C
100
AcDbEntity
  8
DEFPOINTS
 62
     0
100
AcDbPoint
 10
119.282309
 20
137.668956
 30
0.0
  0
POINT
  5
35D
100
AcDbEntity
  8
DEFPOINTS
 62
     0
100
AcDbPoint
 10
171.282305
 20
143.668953
 30
0.0
  0
POINT
  5
35E
100
AcDbEntity
  8
DEFPOINTS
 62
     0
100
AcDbPoint
 10
171.282305
 20
120.0
 30
0.0
  0
ENDBLK
  5
360
100
AcDbEntity
  8
0
100
AcDbBlockEnd
  0
BLOCK
  5
36C
100
AcDbEntity
  8
0
100
AcDbBlockBegin
  2
*D9
 70
     1
 10
0.0
 20
0.0
 30
0.0
  3
*D9
  1

  0
LINE
  5
49F
100
AcDbEntity
  8
寸法
 62
     1
100
AcDbLine
 10
171.282305
 20
142.668953
 30
0.0
 11
171.282305
 21
129.0
 31
0.0
  0
LINE
  5
4A0
100
AcDbEntity
  8
寸法
 62
     1
100
AcDbLine
 10
163.282309
 20
139.072822
 30
0.0
 11
163.282309
 21
129.0
 31
0.0
  0
LINE
  5
4A1
100
AcDbEntity
  8
寸法
 62
     1
100
AcDbLine
 10
169.282305
 20
130.0
 30
0.0
 11
165.282309
 21
130.0
 31
0.0
  0
INSERT
  5
4A2
100
AcDbEntity
  8
寸法
 62
     1
100
AcDbBlockReference
  2
_OPEN30
 10
171.282305
 20
130.0
 30
0.0
 41
2.0
 42
2.0
 43
2.0
  0
INSERT
  5
4A3
100
AcDbEntity
  8
寸法
 62
     1
100
AcDbBlockReference
  2
_OPEN30
 10
163.282309
 20
130.0
 30
0.0
 41
2.0
 42
2.0
 43
2.0
 50
180.0
  0
MTEXT
  5
4A4
100
AcDbEntity
  8
寸法
 62
     1
100
AcDbMText
 10
167.282307
 20
132.5
 30
0.0
 40
3.0
 41
0.0
 71
     5
 72
     1
  1
\A1;8
  0
POINT
  5
4A5
100
AcDbEntity
  8
DEFPOINTS
 62
     0
100
AcDbPoint
 10
171.282305
 20
143.668953
 30
0.0
  0
POINT
  5
4A6
100
AcDbEntity
  8
DEFPOINTS
 62
     0
100
AcDbPoint
 10
163.282309
 20
140.072822
 30
0.0
  0
POINT
  5
4A7
100
AcDbEntity
  8
DEFPOINTS
 62
     0
100
AcDbPoint
 10
163.282309
 20
130.0
 30
0.0
  0
ENDBLK
  5
36D
100
AcDbEntity
  8
0
100
AcDbBlockEnd
  0
BLOCK
  5
391
100
AcDbEntity
  8
0
100
AcDbBlockBegin
  2
*D10
 70
     1
 10
0.0
 20
0.0
 30
0.0
  3
*D10
  1

  0
LINE
  5
4A8
100
AcDbEntity
  8
寸法
 62
     1
100
AcDbLine
 10
119.541128
 20
136.70303
 30
0.0
 11
123.05385
 21
123.593373
 31
0.0
  0
ARC
  5
4A9
100
AcDbEntity
  8
寸法
 62
     1
100
AcDbCircle
 10
119.282309
 20
137.668956
 30
0.0
 40
13.572116
100
AcDbArc
 50
253.051958
 51
270.0
  0
LINE
  5
4AA
100
AcDbEntity
  8
寸法
 62
     1
100
AcDbLine
 10
115.325977
 20
124.686284
 30
0.0
 11
105.186341
 21
127.77623
 31
0.0
  0
ARC
  5
4AB
100
AcDbEntity
  8
寸法
 62
     1
100
AcDbCircle
 10
119.282309
 20
137.668956
 30
0.0
 40
13.572116
100
AcDbArc
 50
253.098362
 51
261.549181
  0
ARC
  5
4AC
100
AcDbEntity
  8
寸法
 62
     1
100
AcDbCircle
 10
119.282309
 20
137.668956
 30
0.0
 40
13.572116
100
AcDbArc
 50
293.45082
 51
301.901639
  0
ARC
  5
4AD
100
AcDbEntity
  8
寸法
 62
     1
100
AcDbCircle
 10
119.282309
 20
137.668956
 30
0.0
 40
13.572116
100
AcDbArc
 50
270.0
 51
285.000001
  0
INSERT
  5
4AE
100
AcDbEntity
  8
寸法
 62
     1
100
AcDbBlockReference
  2
_OPEN30
 10
119.282309
 20
124.09684
 30
0.0
 41
2.0
 42
2.0
 43
2.0
 50
355.774591
  0
INSERT
  5
4AF
100
AcDbEntity
  8
寸法
 62
     1
100
AcDbBlockReference
  2
_OPEN30
 10
122.795031
 20
124.559299
 30
0.0
 41
2.0
 42
2.0
 43
2.0
 50
199.22541
  0
MTEXT
  5
4B0
100
AcDbEntity
  8
寸法
 62
     1
100
AcDbMText
 10
110.98492
 20
128.622681
 30
0.0
 40
3.0
 41
0.0
 71
     5
 72
     1
  1
\A1;15°
 11
0.956569
 21
-0.291504
 31
0.0
  0
POINT
  5
4B1
100
AcDbEntity
  8
DEFPOINTS
 62
     0
100
AcDbPoint
 10
121.639082
 20
124.303031
 30
0.0
  0
POINT
  5
4B2
100
AcDbEntity
  8
DEFPOINTS
 62
     0
100
AcDbPoint
 10
119.282309
 20
137.668956
 30
0.0
  0
POINT
  5
4B3
100
AcDbEntity
  8
DEFPOINTS
 62
     0
100
AcDbPoint
 10
116.782308
 20
146.999084
 30
0.0
  0
POINT
  5
4B4
100
AcDbEntity
  8
DEFPOINTS
 62
     0
100
AcDbPoint
 10
119.282309
 20
137.668956
 30
0.0
  0
POINT
  5
4B5
100
AcDbEntity
  8
DEFPOINTS
 62
     0
100
AcDbPoint
 10
119.282309
 20
116.554372
 30
0.0
  0
ENDBLK
  5
392
100
AcDbEntity
  8
0
100
AcDbBlockEnd
  0
BLOCK
  5
3A8
100
AcDbEntity
  8
0
100
AcDbBlockBegin
  2
*D11
 70
     1
 10
0.0
 20
0.0
 30
0.0
  3
*D11
  1

  0
LINE
  5
4B6
100
AcDbEntity
  8
寸法
 62
     1
100
AcDbLine
 10
74.179089
 20
136.668956
 30
0.0
 11
74.179089
 21
122.202136
 31
0.0
  0
LINE
  5
4B7
100
AcDbEntity
  8
寸法
 62
     1
100
AcDbLine
 10
76.956117
 20
136.678687
 30
0.0
 11
78.943838
 21
122.53532
 31
0.0
  0
ARC
  5
4B8
100
AcDbEntity
  8
寸法
 62
     1
100
AcDbCircle
 10
74.179089
 20
156.438269
 30
0.0
 40
33.236133
100
AcDbArc
 50
266.551679
 51
270.0
  0
LINE
  5
4B9
100
AcDbEntity
  8
寸法
 62
     1
100
AcDbLine
 10
72.179995
 20
123.262312
 30
0.0
 11
63.595565
 21
123.779586
 31
0.0
  0
ARC
  5
4BA
100
AcDbEntity
  8
寸法
 62
     1
100
AcDbCircle
 10
74.179089
 20
156.438269
 30
0.0
 40
33.236133
100
AcDbArc
 50
273.448321
 51
274.551679
  0
INSERT
  5
4BB
100
AcDbEntity
  8
寸法
 62
     1
100
AcDbBlockReference
  2
_OPEN30
 10
74.179089
 20
123.202136
 30
0.0
 41
2.0
 42
2.0
 43
2.0
 50
181.72416
  0
INSERT
  5
4BC
100
AcDbEntity
  8
寸法
 62
     1
100
AcDbBlockReference
  2
_OPEN30
 10
78.804665
 20
123.525588
 30
0.0
 41
2.0
 42
2.0
 43
2.0
 50
6.27584
  0
MTEXT
  5
4BD
100
AcDbEntity
  8
寸法
 62
     1
100
AcDbMText
 10
68.03815
 20
126.016423
 30
0.0
 40
3.0
 41
0.0
 71
     5
 72
     1
  1
\A1;8°
 11
0.998189
 21
-0.060148
 31
0.0
  0
POINT
  5
4BE
100
AcDbEntity
  8
DEFPOINTS
 62
     0
100
AcDbPoint
 10
77.268383
 20
123.346022
 30
0.0
  0
POINT
  5
4BF
100
AcDbEntity
  8
DEFPOINTS
 62
     0
100
AcDbPoint
 10
74.179089
 20
156.438269
 30
0.0
  0
POINT
  5
4C0
100
AcDbEntity
  8
DEFPOINTS
 62
     0
100
AcDbPoint
 10
76.816944
 20
137.668956
 30
0.0
  0
POINT
  5
4C1
100
AcDbEntity
  8
DEFPOINTS
 62
     0
100
AcDbPoint
 10
74.179089
 20
156.438269
 30
0.0
  0
POINT
  5
4C2
100
AcDbEntity
  8
DEFPOINTS
 62
     0
100
AcDbPoint
 10
74.179089
 20
137.668956
 30
0.0
  0
ENDBLK
  5
3A9
100
AcDbEntity
  8
0
100
AcDbBlockEnd
  0
BLOCK
  5
3B2
100
AcDbEntity
  8
0
100
AcDbBlockBegin
  2
*D12
 70
     1
 10
0.0
 20
0.0
 30
0.0
  3
*D12
  1

  0
LINE
  5
460
100
AcDbEntity
  8
寸法
 62
     1
100
AcDbLine
 10
43.806484
 20
143.432268
 30
0.0
 11
54.837648
 21
148.155976
 31
0.0
1001
ACAD
1000
RTLwPs
1070
   158
  0
MTEXT
  5
461
100
AcDbEntity
  8
寸法
 62
     1
100
AcDbMText
 10
47.418696
 20
147.698639
 30
0.0
 40
3.0
 41
0.0
 71
     5
 72
     1
  1
\A1;%%c38
 11
0.919264
 21
0.393642
 31
0.0
1001
ACAD
1000
MTEXTBEGIN
1070
    73
1070
     1
1070
    44
1040
1.0
1070
    74
1070
     0
1000
MTEXTEND
  0
LINE
  5
462
100
AcDbEntity
  8
寸法
 62
     1
100
AcDbLine
 10
74.179089
 20
156.438269
 30
0.0
 11
56.676175
 21
148.943261
 31
0.0
1001
ACAD
1000
RTLwPs
1070
   158
  0
INSERT
  5
463
100
AcDbEntity
  8
寸法
 62
     1
100
AcDbBlockReference
  2
_OPEN30
 10
56.676175
 20
148.943261
 30
0.0
 41
2.0
 42
2.0
 43
2.0
 50
23.181329
1001
ACAD
1000
RTLwPs
1070
   158
  0
POINT
  5
464
100
AcDbEntity
  8
DEFPOINTS
 62
     0
100
AcDbPoint
 10
56.676175
 20
148.943261
 30
0.0
  0
POINT
  5
465
100
AcDbEntity
  8
DEFPOINTS
 62
     0
100
AcDbPoint
 10
74.179089
 20
156.438269
 30
0.0
  0
ENDBLK
  5
3B3
100
AcDbEntity
  8
0
100
AcDbBlockEnd
  0
BLOCK
  5
3C5
100
AcDbEntity
  8
0
100
AcDbBlockBegin
  2
*D13
 70
     1
 10
0.0
 20
0.0
 30
0.0
  3
*D13
  1

  0
LINE
  5
3BC
100
AcDbEntity
  8
寸法
 62
     1
100
AcDbLine
 10
171.282309
 20
88.77827
 30
0.0
 11
171.282309
 21
101.0
 31
0.0
1001
ACAD
1000
RTLwPs
1070
   158
  0
LINE
  5
3BD
100
AcDbEntity
  8
寸法
 62
     1
100
AcDbLine
 10
151.282309
 20
94.051734
 30
0.0
 11
151.282309
 21
101.0
 31
0.0
1001
ACAD
1000
RTLwPs
1070
   158
  0
LINE
  5
3BE
100
AcDbEntity
  8
寸法
 62
     1
100
AcDbLine
 10
169.282309
 20
100.0
 30
0.0
 11
153.282309
 21
100.0
 31
0.0
1001
ACAD
1000
RTLwPs
1070
   158
  0
INSERT
  5
3BF
100
AcDbEntity
  8
寸法
 62
     1
100
AcDbBlockReference
  2
_OPEN30
 10
171.282309
 20
100.0
 30
0.0
 41
2.0
 42
2.0
 43
2.0
1001
ACAD
1000
RTLwPs
1070
   158
  0
INSERT
  5
3C0
100
AcDbEntity
  8
寸法
 62
     1
100
AcDbBlockReference
  2
_OPEN30
 10
151.282309
 20
100.0
 30
0.0
 41
2.0
 42
2.0
 43
2.0
 50
180.0
1001
ACAD
1000
RTLwPs
1070
   158
  0
MTEXT
  5
3C1
100
AcDbEntity
  8
寸法
 62
     1
100
AcDbMText
 10
161.282309
 20
102.5
 30
0.0
 40
3.0
 41
0.0
 71
     5
 72
     1
  1
\A1;20
1001
ACAD
1000
MTEXTBEGIN
1070
    73
1070
     1
1070
    44
1040
1.0
1070
    74
1070
     0
1000
MTEXTEND
1000
MTEXTBEGIN
1070
    73
1070
     1
1070
    44
1040
1.0
1070
    74
1070
     0
1000
MTEXTEND
  0
POINT
  5
3C2
100
AcDbEntity
  8
DEFPOINTS
 62
     0
100
AcDbPoint
 10
171.282309
 20
87.77827
 30
0.0
  0
POINT
  5
3C3
100
AcDbEntity
  8
DEFPOINTS
 62
     0
100
AcDbPoint
 10
151.282309
 20
93.051734
 30
0.0
  0
POINT
  5
3C4
100
AcDbEntity
  8
DEFPOINTS
 62
     0
100
AcDbPoint
 10
151.282309
 20
100.0
 30
0.0
  0
ENDBLK
  5
3C6
100
AcDbEntity
  8
0
100
AcDbBlockEnd
  0
ENDSEC
  0
SECTION
  2
ENTITIES
  0
POINT
  5
18A
100
AcDbEntity
  8
0
  6
CONTINUOUS
 62
     7
100
AcDbPoint
 10
77.37909
 20
137.668956
 30
0.0
  0
POINT
  5
18B
100
AcDbEntity
  8
0
  6
CONTINUOUS
 62
     7
100
AcDbPoint
 10
119.282309
 20
137.668956
 30
0.0
  0
POINT
  5
18C
100
AcDbEntity
  8
0
  6
CONTINUOUS
 62
     7
100
AcDbPoint
 10
199.437743
 20
79.278272
 30
0.0
  0
POINT
  5
18D
100
AcDbEntity
  8
0
  6
CONTINUOUS
 62
     7
100
AcDbPoint
 10
119.282309
 20
91.27827
 30
0.0
  0
LINE
  5
18E
100
AcDbEntity
  8
0
  6
CONTINUOUS
 62
     7
100
AcDbLine
 10
119.282309
 20
137.668956
 30
0.0
 11
128.487582
 21
140.135501
 31
0.0
  0
LINE
  5
18F
100
AcDbEntity
  8
0
  6
CONTINUOUS
 62
     7
100
AcDbLine
 10
116.782308
 20
146.999084
 30
0.0
 11
119.282309
 21
137.668956
 31
0.0
  0
LINE
  5
190
100
AcDbEntity
  8
0
  6
CONTINUOUS
 62
     7
100
AcDbLine
 10
125.98758
 20
149.465631
 30
0.0
 11
128.487582
 21
140.135501
 31
0.0
  0
LINE
  5
191
100
AcDbEntity
  8
0
  6
CONTINUOUS
 62
     7
100
AcDbLine
 10
163.282309
 20
151.668956
 30
0.0
 11
163.282309
 21
140.072822
 31
0.0
  0
LINE
  5
192
100
AcDbEntity
  8
0
  6
CONTINUOUS
 62
     7
100
AcDbLine
 10
117.082309
 20
151.668956
 30
0.0
 11
163.282309
 21
151.668956
 31
0.0
  0
LINE
  5
193
100
AcDbEntity
  8
0
  6
CONTINUOUS
 62
     7
100
AcDbLine
 10
117.082309
 20
151.668956
 30
0.0
 11
117.082309
 21
147.079469
 31
0.0
  0
LINE
  5
194
100
AcDbEntity
  8
0
  6
CONTINUOUS
 62
     7
100
AcDbLine
 10
130.683809
 20
150.668956
 30
0.0
 11
163.282309
 21
150.668956
 31
0.0
  0
LINE
  5
195
100
AcDbEntity
  8
0
  6
CONTINUOUS
 62
     7
100
AcDbLine
 10
132.514361
 20
141.668956
 30
0.0
 11
163.282309
 21
141.668956
 31
0.0
  0
LINE
  5
196
100
AcDbEntity
  8
0
  6
CONTINUOUS
 62
     7
100
AcDbLine
 10
71.37909
 20
138.668956
 30
0.0
 11
74.179089
 21
138.668956
 31
0.0
  0
LINE
  5
197
100
AcDbEntity
  8
0
  6
CONTINUOUS
 62
     7
100
AcDbLine
 10
66.37909
 20
151.668956
 30
0.0
 11
77.87909
 21
151.668956
 31
0.0
  0
LINE
  5
198
100
AcDbEntity
  8
0
  6
CONTINUOUS
 62
     7
100
AcDbLine
 10
200.253928
 20
92.77827
 30
0.0
 11
209.253928
 21
92.77827
 31
0.0
  0
LINE
  5
199
100
AcDbEntity
  8
0
  6
CONTINUOUS
 62
     7
100
AcDbLine
 10
210.253928
 20
91.77827
 30
0.0
 11
210.253928
 21
80.355209
 31
0.0
  0
LINE
  5
19A
100
AcDbEntity
  8
0
  6
CONTINUOUS
 62
     7
100
AcDbLine
 10
199.43775
 20
79.278272
 30
0.0
 11
209.176996
 21
79.278272
 31
0.0
  0
LINE
  5
19B
100
AcDbEntity
  8
0
  6
CONTINUOUS
 62
     7
100
AcDbLine
 10
198.657782
 20
81.421182
 30
0.0
 11
200.25392
 21
92.77827
 31
0.0
  0
LINE
  5
19C
100
AcDbEntity
  8
0
  6
CONTINUOUS
 62
     7
100
AcDbLine
 10
206.079565
 20
91.144761
 30
0.0
 11
204.621931
 21
80.746431
 31
0.0
  0
LINE
  5
19D
100
AcDbEntity
  8
0
  6
CONTINUOUS
 62
     7
100
AcDbLine
 10
210.253928
 20
91.778268
 30
0.0
 11
209.253928
 21
92.778264
 31
0.0
  0
LINE
  5
19E
100
AcDbEntity
  8
0
  6
CONTINUOUS
 62
     7
100
AcDbLine
 10
198.65779
 20
81.42118
 30
0.0
 11
199.437743
 21
79.278268
 31
0.0
  0
LINE
  5
1A0
100
AcDbEntity
  8
0
  6
CONTINUOUS
 62
     7
100
AcDbLine
 10
210.253928
 20
80.355203
 30
0.0
 11
209.176996
 21
79.278272
 31
0.0
  0
LINE
  5
1A2
100
AcDbEntity
  8
0
  6
CONTINUOUS
 62
     7
100
AcDbLine
 10
78.87909
 20
150.668956
 30
0.0
 11
78.87909
 21
141.135502
 31
0.0
  0
LINE
  5
1A3
100
AcDbEntity
  8
0
  6
CONTINUOUS
 62
     7
100
AcDbLine
 10
78.879088
 20
150.668956
 30
0.0
 11
77.879088
 21
151.668956
 31
0.0
  0
LINE
  5
1A4
100
AcDbEntity
  8
0
  6
CONTINUOUS
 62
     7
100
AcDbLine
 10
74.179089
 20
137.668956
 30
0.0
 11
77.37909
 21
137.668956
 31
0.0
  0
LINE
  5
1A5
100
AcDbEntity
  8
0
  6
CONTINUOUS
 62
     7
100
AcDbLine
 10
74.179089
 20
146.999084
 30
0.0
 11
74.179089
 21
137.668956
 31
0.0
  0
LINE
  5
1A6
100
AcDbEntity
  8
0
  6
CONTINUOUS
 62
     7
100
AcDbLine
 10
131.51436
 20
140.072822
 30
0.0
 11
163.282309
 21
140.072822
 31
0.0
  0
LINE
  5
1A7
100
AcDbEntity
  8
0
  6
CONTINUOUS
 62
     7
100
AcDbLine
 10
130.68381
 20
150.668958
 30
0.0
 11
118.263135
 21
151.668956
 31
0.0
  0
LINE
  5
1A8
100
AcDbEntity
  8
0
  6
CENTER
 62
     1
 48
0.5
100
AcDbLine
 10
151.282309
 20
144.350101
 30
0.0
 11
151.282309
 21
137.918089
 31
0.0
  0
LINE
  5
1A9
100
AcDbEntity
  8
0
  6
CONTINUOUS
 62
     7
100
AcDbLine
 10
116.782309
 20
91.01551
 30
0.0
 11
128.51894
 21
92.24908
 31
0.0
  0
LINE
  5
1AA
100
AcDbEntity
  8
0
  6
CONTINUOUS
 62
     7
100
AcDbLine
 10
117.082308
 20
87.829415
 30
0.0
 11
128.853431
 21
89.066611
 31
0.0
  0
LINE
  5
1AB
100
AcDbEntity
  8
0
  6
CONTINUOUS
 62
     7
100
AcDbLine
 10
117.082309
 20
79.278272
 30
0.0
 11
163.282309
 21
79.278272
 31
0.0
  0
LINE
  5
1AC
100
AcDbEntity
  8
0
  6
CONTINUOUS
 62
     7
100
AcDbLine
 10
163.282309
 20
92.77827
 30
0.0
 11
163.282309
 21
79.278272
 31
0.0
  0
LINE
  5
1AD
100
AcDbEntity
  8
0
  6
CONTINUOUS
 62
     7
100
AcDbLine
 10
130.683809
 20
92.77827
 30
0.0
 11
163.282309
 21
92.77827
 31
0.0
  0
LINE
  5
1AE
100
AcDbEntity
  8
0
  6
CENTER
 62
     1
 48
0.5
100
AcDbLine
 10
151.282309
 20
93.051734
 30
0.0
 11
151.282309
 21
80.04477
 31
0.0
  0
LINE
  5
1AF
100
AcDbEntity
  8
0
  6
CENTER
 62
     1
 48
0.5
100
AcDbLine
 10
132.282309
 20
85.27827
 30
0.0
 11
126.282309
 21
85.27827
 31
0.0
  0
LINE
  5
1B0
100
AcDbEntity
  8
0
  6
CENTER
 62
     1
 48
0.5
100
AcDbLine
 10
129.282309
 20
88.27827
 30
0.0
 11
129.282309
 21
82.27827
 31
0.0
  0
LINE
  5
1B1
100
AcDbEntity
  8
0
  6
CONTINUOUS
 62
     7
100
AcDbLine
 10
131.259808
 20
81.421182
 30
0.0
 11
163.282309
 21
81.421182
 31
0.0
  0
LINE
  5
1B2
100
AcDbEntity
  8
0
  6
CONTINUOUS
 62
     7
100
AcDbLine
 10
117.082309
 20
87.829415
 30
0.0
 11
117.082309
 21
79.278272
 31
0.0
  0
LINE
  5
1B3
100
AcDbEntity
  8
0
  6
CONTINUOUS
 62
     7
100
AcDbLine
 10
117.082309
 20
91.348695
 30
0.0
 11
130.683809
 21
92.77827
 31
0.0
  0
LINE
  5
1B4
100
AcDbEntity
  8
0
  6
CONTINUOUS
 62
     7
100
AcDbLine
 10
120.113607
 20
85.27827
 30
0.0
 11
123.782309
 21
85.27827
 31
0.0
  0
LINE
  5
1B5
100
AcDbEntity
  8
0
  6
CONTINUOUS
 62
     7
100
AcDbLine
 10
77.37909
 20
146.999084
 30
0.0
 11
77.37909
 21
137.668956
 31
0.0
  0
LINE
  5
1B6
100
AcDbEntity
  8
0
  6
CENTER
 62
     1
 48
0.5
100
AcDbLine
 10
119.310984
 20
142.676642
 30
0.0
 11
126.217332
 21
144.527192
 31
0.0
  0
LINE
  5
1B7
100
AcDbEntity
  8
0
  6
CENTER
 62
     1
 48
0.5
100
AcDbLine
 10
121.836646
 20
146.7963
 30
0.0
 11
123.711649
 21
139.798692
 31
0.0
  0
LINE
  5
1B8
100
AcDbEntity
  8
0
  6
CONTINUOUS
 62
     7
100
AcDbLine
 10
65.37909
 20
150.668956
 30
0.0
 11
65.37909
 21
140.852778
 31
0.0
  0
LINE
  5
1B9
100
AcDbEntity
  8
0
  6
CONTINUOUS
 62
     7
100
AcDbLine
 10
71.37909
 20
138.668956
 30
0.0
 11
65.37909
 21
140.852778
 31
0.0
  0
LINE
  5
1BA
100
AcDbEntity
  8
0
  6
CONTINUOUS
 62
     7
100
AcDbLine
 10
171.282309
 20
147.668956
 30
0.0
 11
171.282309
 21
143.668956
 31
0.0
  0
LINE
  5
1BB
100
AcDbEntity
  8
0
  6
CENTER
 62
     1
 48
0.5
100
AcDbLine
 10
160.851347
 20
145.668956
 30
0.0
 11
173.212985
 21
145.668956
 31
0.0
  0
LINE
  5
1BC
100
AcDbEntity
  8
0
  6
CONTINUOUS
 62
     7
100
AcDbLine
 10
166.282309
 20
149.668956
 30
0.0
 11
166.282309
 21
141.668956
 31
0.0
  0
LINE
  5
1BD
100
AcDbEntity
  8
0
  6
CONTINUOUS
 62
     7
100
AcDbLine
 10
163.282309
 20
143.168956
 30
0.0
 11
166.282309
 21
143.168956
 31
0.0
  0
LINE
  5
1BE
100
AcDbEntity
  8
0
  6
CONTINUOUS
 62
     7
100
AcDbLine
 10
163.282309
 20
148.168956
 30
0.0
 11
166.282309
 21
148.168956
 31
0.0
  0
LINE
  5
1BF
100
AcDbEntity
  8
0
  6
CONTINUOUS
 62
     7
100
AcDbLine
 10
168.782309
 20
150.168952
 30
0.0
 11
171.282305
 21
147.668954
 31
0.0
  0
LINE
  5
1C0
100
AcDbEntity
  8
0
  6
CONTINUOUS
 62
     7
100
AcDbLine
 10
168.782305
 20
141.168953
 30
0.0
 11
171.282305
 21
143.668953
 31
0.0
  0
LINE
  5
1C1
100
AcDbEntity
  8
0
  6
CONTINUOUS
 62
     7
100
AcDbLine
 10
166.782309
 20
141.168956
 30
0.0
 11
168.782309
 21
141.168956
 31
0.0
  0
LINE
  5
1C2
100
AcDbEntity
  8
0
  6
CONTINUOUS
 62
     7
100
AcDbLine
 10
166.782309
 20
150.168956
 30
0.0
 11
168.782309
 21
150.168956
 31
0.0
  0
LINE
  5
1C3
100
AcDbEntity
  8
0
  6
CONTINUOUS
 62
     7
100
AcDbLine
 10
166.782305
 20
150.168952
 30
0.0
 11
166.282309
 21
149.668954
 31
0.0
  0
LINE
  5
1C4
100
AcDbEntity
  8
0
  6
CONTINUOUS
 62
     7
100
AcDbLine
 10
166.282317
 20
141.668959
 30
0.0
 11
166.782313
 21
141.168959
 31
0.0
  0
LINE
  5
1C5
100
AcDbEntity
  8
0
  6
CONTINUOUS
 62
     7
100
AcDbLine
 10
166.782309
 20
150.168956
 30
0.0
 11
166.782309
 21
141.168956
 31
0.0
  0
LINE
  5
1C6
100
AcDbEntity
  8
0
  6
CONTINUOUS
 62
     7
100
AcDbLine
 10
168.782309
 20
150.168956
 30
0.0
 11
168.782309
 21
141.168956
 31
0.0
  0
LINE
  5
1C7
100
AcDbEntity
  8
0
  6
CONTINUOUS
 62
     7
100
AcDbLine
 10
163.282309
 20
143.668956
 30
0.0
 11
166.282309
 21
143.668956
 31
0.0
  0
LINE
  5
1C8
100
AcDbEntity
  8
0
  6
CONTINUOUS
 62
     7
100
AcDbLine
 10
163.282309
 20
147.668956
 30
0.0
 11
166.282309
 21
147.668956
 31
0.0
  0
LINE
  5
1C9
100
AcDbEntity
  8
0
  6
CONTINUOUS
 62
     7
100
AcDbLine
 10
171.282309
 20
87.77827
 30
0.0
 11
171.282309
 21
83.77827
 31
0.0
  0
LINE
  5
1CA
100
AcDbEntity
  8
0
  6
CENTER
 62
     1
 48
0.5
100
AcDbLine
 10
161.435481
 20
85.77827
 30
0.0
 11
174.66162
 21
85.77827
 31
0.0
  0
LINE
  5
1CB
100
AcDbEntity
  8
0
  6
CONTINUOUS
 62
     7
100
AcDbLine
 10
166.282309
 20
89.77827
 30
0.0
 11
166.282309
 21
81.77827
 31
0.0
  0
LINE
  5
1CC
100
AcDbEntity
  8
0
  6
CONTINUOUS
 62
     7
100
AcDbLine
 10
163.282309
 20
83.27827
 30
0.0
 11
166.282309
 21
83.27827
 31
0.0
  0
LINE
  5
1CD
100
AcDbEntity
  8
0
  6
CONTINUOUS
 62
     7
100
AcDbLine
 10
163.282309
 20
88.27827
 30
0.0
 11
166.282309
 21
88.27827
 31
0.0
  0
LINE
  5
1CE
100
AcDbEntity
  8
0
  6
CONTINUOUS
 62
     7
100
AcDbLine
 10
168.782309
 20
90.27827
 30
0.0
 11
171.282309
 21
87.77827
 31
0.0
  0
LINE
  5
1CF
100
AcDbEntity
  8
0
  6
CONTINUOUS
 62
     7
100
AcDbLine
 10
168.782305
 20
81.27827
 30
0.0
 11
171.282305
 21
83.778272
 31
0.0
  0
LINE
  5
1D0
100
AcDbEntity
  8
0
  6
CONTINUOUS
 62
     7
100
AcDbLine
 10
166.782309
 20
81.27827
 30
0.0
 11
168.782309
 21
81.27827
 31
0.0
  0
LINE
  5
1D1
100
AcDbEntity
  8
0
  6
CONTINUOUS
 62
     7
100
AcDbLine
 10
166.782309
 20
90.27827
 30
0.0
 11
168.782309
 21
90.27827
 31
0.0
  0
LINE
  5
1D2
100
AcDbEntity
  8
0
  6
CONTINUOUS
 62
     7
100
AcDbLine
 10
166.782309
 20
90.278266
 30
0.0
 11
166.282309
 21
89.778268
 31
0.0
  0
LINE
  5
1D3
100
AcDbEntity
  8
0
  6
CONTINUOUS
 62
     7
100
AcDbLine
 10
166.282313
 20
81.778272
 30
0.0
 11
166.782313
 21
81.278272
 31
0.0
  0
LINE
  5
1D4
100
AcDbEntity
  8
0
  6
CONTINUOUS
 62
     7
100
AcDbLine
 10
166.782309
 20
90.27827
 30
0.0
 11
166.782309
 21
81.27827
 31
0.0
  0
LINE
  5
1D5
100
AcDbEntity
  8
0
  6
CONTINUOUS
 62
     7
100
AcDbLine
 10
168.782309
 20
90.27827
 30
0.0
 11
168.782309
 21
81.27827
 31
0.0
  0
LINE
  5
1D6
100
AcDbEntity
  8
0
  6
CONTINUOUS
 62
     7
100
AcDbLine
 10
163.282309
 20
83.77827
 30
0.0
 11
166.282309
 21
83.77827
 31
0.0
  0
LINE
  5
1D7
100
AcDbEntity
  8
0
  6
CONTINUOUS
 62
     7
100
AcDbLine
 10
163.282309
 20
87.77827
 30
0.0
 11
166.282309
 21
87.77827
 31
0.0
  0
LINE
  5
1D8
100
AcDbEntity
  8
0
  6
CONTINUOUS
 62
     7
100
AcDbLine
 10
65.37909
 20
150.668958
 30
0.0
 11
66.37909
 21
151.668958
 31
0.0
  0
LINE
  5
1D9
100
AcDbEntity
  8
0
  6
CENTER
 62
     1
 48
0.5
100
AcDbLine
 10
149.532309
 20
93.16998
 30
0.0
 11
149.532309
 21
80.005355
 31
0.0
  0
LINE
  5
1DA
100
AcDbEntity
  8
0
  6
CENTER
 62
     1
 48
0.5
100
AcDbLine
 10
153.032309
 20
93.130565
 30
0.0
 11
153.032309
 21
80.163015
 31
0.0
  0
LINE
  5
1DB
100
AcDbEntity
  8
0
  6
CONTINUOUS
 62
     7
100
AcDbLine
 10
119.6168
 20
88.095802
 30
0.0
 11
119.282309
 21
91.27827
 31
0.0
  0
LINE
  5
1DC
100
AcDbEntity
  8
0
  6
CONTINUOUS
 62
     7
100
AcDbLine
 10
123.782309
 20
88.533614
 30
0.0
 11
123.782309
 21
85.27827
 31
0.0
  0
LINE
  5
1DD
100
AcDbEntity
  8
0
  6
CONTINUOUS
 62
     7
100
AcDbLine
 10
123.782308
 20
85.27827
 30
0.0
 11
129.968667
 21
81.249759
 31
0.0
  0
LINE
  5
1DE
100
AcDbEntity
  8
0
  6
CONTINUOUS
 62
     7
100
AcDbLine
 10
130.683809
 20
150.668956
 30
0.0
 11
130.683809
 21
140.278369
 31
0.0
  0
LINE
  5
1DF
100
AcDbEntity
  8
0
  6
CONTINUOUS
 62
     7
100
AcDbLine
 10
131.51436
 20
140.668956
 30
0.0
 11
131.51436
 21
140.072822
 31
0.0
  0
LINE
  5
1E0
100
AcDbEntity
  8
0
  6
CONTINUOUS
 62
     7
100
AcDbLine
 10
131.51436
 20
92.77827
 30
0.0
 11
131.51436
 21
82.087745
 31
0.0
  0
LINE
  5
1E1
100
AcDbEntity
  8
0
  6
CONTINUOUS
 62
     7
100
AcDbLine
 10
116.782308
 20
146.999084
 30
0.0
 11
125.98758
 21
149.465631
 31
0.0
  0
LINE
  5
1E2
100
AcDbEntity
  8
0
  6
CONTINUOUS
 62
     7
100
AcDbLine
 10
74.179089
 20
146.999084
 30
0.0
 11
77.37909
 21
146.999084
 31
0.0
  0
LINE
  5
1E3
100
AcDbEntity
  8
0
  6
CONTINUOUS
 62
     7
100
AcDbLine
 10
74.179089
 20
146.999084
 30
0.0
 11
68.686234
 21
151.668956
 31
0.0
  0
LINE
  5
1E4
100
AcDbEntity
  8
0
  6
CONTINUOUS
 62
     7
100
AcDbLine
 10
117.1168
 20
87.833041
 30
0.0
 11
116.782309
 21
91.01551
 31
0.0
  0
LINE
  5
1E5
100
AcDbEntity
  8
0
  6
CONTINUOUS
 62
     7
100
AcDbLine
 10
117.113667
 20
91.050338
 30
0.0
 11
117.082309
 21
91.348695
 31
0.0
  0
LINE
  5
1E6
100
AcDbEntity
  8
0
  6
CONTINUOUS
 62
     7
100
AcDbLine
 10
128.853431
 20
89.066611
 30
0.0
 11
128.487582
 21
92.547437
 31
0.0
  0
LINE
  5
1E7
100
AcDbEntity
  8
0
  6
CENTER
 62
     1
 48
0.5
100
AcDbLine
 10
213.572722
 20
84.793044
 30
0.0
 11
193.701697
 21
87.578553
 31
0.0
  0
LINE
  5
1E8
100
AcDbEntity
  8
0
  6
CONTINUOUS
 62
     7
100
AcDbLine
 10
204.621931
 20
80.746431
 30
0.0
 11
198.680022
 21
81.579364
 31
0.0
  0
LINE
  5
1E9
100
AcDbEntity
  8
0
  6
CONTINUOUS
 62
     7
100
AcDbLine
 10
206.079565
 20
91.144761
 30
0.0
 11
200.141333
 21
91.97718
 31
0.0
  0
LINE
  5
1EA
100
AcDbEntity
  8
0
  6
CONTINUOUS
 62
     7
100
AcDbLine
 10
210.253928
 20
82.026982
 30
0.0
 11
204.906516
 21
82.77658
 31
0.0
  0
LINE
  5
1EB
100
AcDbEntity
  8
0
  6
CONTINUOUS
 62
     7
100
AcDbLine
 10
210.253928
 20
88.489558
 30
0.0
 11
205.794981
 21
89.114612
 31
0.0
  0
LINE
  5
1EC
100
AcDbEntity
  8
0
  6
CONTINUOUS
 62
     7
100
AcDbLine
 10
149.532309
 20
81.579364
 30
0.0
 11
153.032309
 21
81.579364
 31
0.0
  0
LINE
  5
1ED
100
AcDbEntity
  8
0
  6
CONTINUOUS
 62
     7
100
AcDbLine
 10
149.532309
 20
82.776582
 30
0.0
 11
153.032309
 21
82.776582
 31
0.0
  0
LINE
  5
1EE
100
AcDbEntity
  8
0
  6
CONTINUOUS
 62
     7
100
AcDbLine
 10
149.532309
 20
88.489558
 30
0.0
 11
153.032309
 21
88.489558
 31
0.0
  0
LINE
  5
1EF
100
AcDbEntity
  8
0
  6
CONTINUOUS
 62
     7
100
AcDbLine
 10
149.532309
 20
89.114612
 30
0.0
 11
153.032309
 21
89.114612
 31
0.0
  0
LINE
  5
1F0
100
AcDbEntity
  8
0
  6
CONTINUOUS
 62
     7
100
AcDbLine
 10
149.532309
 20
91.144763
 30
0.0
 11
153.032309
 21
91.144763
 31
0.0
  0
LINE
  5
1F1
100
AcDbEntity
  8
0
  6
CONTINUOUS
 62
     7
100
AcDbLine
 10
149.532309
 20
91.97718
 30
0.0
 11
153.032309
 21
91.97718
 31
0.0
  0
LINE
  5
1F2
100
AcDbEntity
  8
0
  6
CONTINUOUS
 62
     7
100
AcDbLine
 10
119.6168
 20
88.095802
 30
0.0
 11
121.171568
 21
79.278272
 31
0.0
  0
LINE
  5
1F3
100
AcDbEntity
  8
0
  6
CONTINUOUS
 62
     7
100
AcDbLine
 10
75.149889
 20
149.465631
 30
0.0
 11
78.34989
 21
149.465631
 31
0.0
  0
LINE
  5
1F4
100
AcDbEntity
  8
0
  6
CONTINUOUS
 62
     7
100
AcDbLine
 10
78.34989
 20
149.465631
 30
0.0
 11
78.34989
 21
140.135502
 31
0.0
  0
LINE
  5
1F5
100
AcDbEntity
  8
0
  6
CONTINUOUS
 62
     7
100
AcDbLine
 10
77.37909
 20
146.999084
 30
0.0
 11
78.34989
 21
149.465631
 31
0.0
  0
LINE
  5
1F6
100
AcDbEntity
  8
0
  6
CONTINUOUS
 62
     7
100
AcDbLine
 10
74.179089
 20
146.999084
 30
0.0
 11
75.149889
 21
149.465631
 31
0.0
  0
LINE
  5
1F7
100
AcDbEntity
  8
0
  6
CONTINUOUS
 62
     7
100
AcDbLine
 10
77.37909
 20
137.668956
 30
0.0
 11
78.34989
 21
140.135502
 31
0.0
  0
LINE
  5
1F8
100
AcDbEntity
  8
0
  6
CONTINUOUS
 62
     7
100
AcDbLine
 10
78.87909
 20
141.135502
 30
0.0
 11
78.34989
 21
140.606302
 31
0.0
  0
CIRCLE
  5
1F9
100
AcDbEntity
  8
0
  6
CONTINUOUS
 62
     7
100
AcDbCircle
 10
122.697373
 20
143.584021
 30
0.0
 40
1.975
  0
ARC
  5
1FA
100
AcDbEntity
  8
0
  6
CONTINUOUS
 62
     7
100
AcDbCircle
 10
126.50522
 20
147.533776
 30
0.0
 40
2.0
100
AcDbArc
 50
285.0
 51
105.0
  0
CIRCLE
  5
1FB
100
AcDbEntity
  8
0
  6
CONTINUOUS
 62
     7
100
AcDbCircle
 10
129.282309
 20
85.27827
 30
0.0
 40
2.0
  0
CIRCLE
  5
1FC
100
AcDbEntity
  8
0
  6
CONTINUOUS
 62
     7
100
AcDbCircle
 10
129.282309
 20
85.27827
 30
0.0
 40
1.65
  0
ARC
  5
1FD
100
AcDbEntity
  8
0
  6
CONTINUOUS
 62
     7
100
AcDbCircle
 10
132.514361
 20
140.668956
 30
0.0
 40
1.0
100
AcDbArc
 50
90.000003
 51
180.00001
  0
ARC
  5
1FE
100
AcDbEntity
  8
0
  6
CONTINUOUS
 62
     7
100
AcDbCircle
 10
129.902308
 20
135.339821
 30
0.0
 40
5.0
100
AcDbArc
 50
71.191246
 51
106.43607
  0
ARC
  5
1FF
100
AcDbEntity
  8
0
  6
CONTINUOUS
 62
     7
100
AcDbCircle
 10
130.51436
 20
82.087745
 30
0.0
 40
1.0
100
AcDbArc
 50
236.92813
 51
0.0
  0
LWPOLYLINE
  5
200
100
AcDbEntity
  8
0
  6
CONTINUOUS
 62
     7
100
AcDbPolyline
 90
       17
 70
     0
 43
0.0
 10
149.532309
 20
91.97718
 42
0.048416
 10
148.513091
 20
91.878268
 42
0.048522
 10
147.531957
 20
91.58501
 42
0.048718
 10
146.625872
 20
91.107808
 42
0.048977
 10
145.82953
 20
90.463869
 42
0.049271
 10
145.17395
 20
89.676765
 42
0.049546
 10
144.68543
 20
88.776128
 42
0.049752
 10
144.38405
 20
87.796819
 42
0.049813
 10
144.282309
 20
86.778272
 42
0.049822
 10
144.384086
 20
85.759544
 42
0.049704
 10
144.685123
 20
84.781146
 42
0.04952
 10
145.1732
 20
83.880883
 42
0.049257
 10
145.828375
 20
83.093813
 42
0.048988
 10
146.624688
 20
82.449515
 42
0.048743
 10
147.531132
 20
81.97187
 42
0.048553
 10
148.512863
 20
81.678321
 42
0.048427
 10
149.532309
 20
81.579364
  0
LWPOLYLINE
  5
213
100
AcDbEntity
  8
0
  6
CONTINUOUS
 62
     7
100
AcDbPolyline
 90
       17
 70
     0
 43
0.0
 10
149.532309
 20
91.144763
 42
0.020579
 10
149.058822
 20
91.125273
 42
0.020694
 10
148.587884
 20
91.066741
 42
0.020867
 10
148.123388
 20
90.96932
 42
0.02112
 10
147.668732
 20
90.833308
 42
0.021456
 10
147.227292
 20
90.659138
 42
0.021871
 10
146.802561
 20
90.447424
 42
0.022359
 10
146.39816
 20
90.199011
 42
0.02291
 10
146.017835
 20
89.915039
 42
0.023511
 10
145.665435
 20
89.597015
 42
0.024146
 10
145.34487
 20
89.246877
 42
0.024791
 10
145.060031
 20
88.867077
 42
0.025421
 10
144.814694
 20
88.460628
 42
0.026004
 10
144.612382
 20
88.031146
 42
0.026506
 10
144.456215
 20
87.582848
 42
0.026897
 10
144.348741
 20
87.1205
 42
0.027149
 10
144.291787
 20
86.649322
  0
LWPOLYLINE
  5
226
100
AcDbEntity
  8
0
  6
CONTINUOUS
 62
     7
100
AcDbPolyline
 90
       17
 70
     0
 43
0.0
 10
149.532309
 20
89.114612
 42
0.048372
 10
148.911657
 20
89.054434
 42
0.048524
 10
148.313588
 20
88.875784
 42
0.04872
 10
147.761247
 20
88.584999
 42
0.048978
 10
147.275785
 20
88.192569
 42
0.04927
 10
146.876108
 20
87.712862
 42
0.049544
 10
146.578247
 20
87.163937
 42
0.049748
 10
146.39444
 20
86.567042
 42
0.049858
 10
146.332308
 20
85.945596
 42
0.049748
 10
146.394166
 20
85.325508
 42
0.049701
 10
146.57748
 20
84.729082
 42
0.049518
 10
146.874811
 20
84.180244
 42
0.049257
 10
147.274015
 20
83.700368
 42
0.048989
 10
147.759276
 20
83.307492
 42
0.048746
 10
148.311699
 20
83.01618
 42
0.048556
 10
148.91005
 20
82.837074
 42
0.0485
 10
149.532309
 20
82.776582
  0
LWPOLYLINE
  5
239
100
AcDbEntity
  8
0
  6
CONTINUOUS
 62
     7
100
AcDbPolyline
 90
       17
 70
     0
 43
0.0
 10
149.532309
 20
88.489558
 42
0.01989
 10
149.247646
 20
88.478234
 42
0.020024
 10
148.964256
 20
88.444191
 42
0.020195
 10
148.684812
 20
88.387558
 42
0.020482
 10
148.410909
 20
88.308417
 42
0.020865
 10
148.144474
 20
88.206932
 42
0.021341
 10
147.887527
 20
88.083347
 42
0.021905
 10
147.642192
 20
87.938026
 42
0.022549
 10
147.410701
 20
87.771486
 42
0.023262
 10
147.195392
 20
87.584455
 42
0.024024
 10
146.998687
 20
87.377917
 42
0.024811
 10
146.823046
 20
87.153175
 42
0.025592
 10
146.670908
 20
86.911898
 42
0.026326
 10
146.5446
 20
86.656159
 42
0.026972
 10
146.446225
 20
86.388451
 42
0.027484
 10
146.377543
 20
86.111667
 42
0.027825
 10
146.339847
 20
85.829034
  0
LWPOLYLINE
  5
24C
100
AcDbEntity
  8
0
  6
CONTINUOUS
 62
     7
100
AcDbPolyline
 90
       17
 70
     0
 43
0.0
 10
153.032309
 20
89.114612
 42
-0.048372
 10
153.652961
 20
89.054434
 42
-0.048524
 10
154.25103
 20
88.875784
 42
-0.04872
 10
154.803371
 20
88.584999
 42
-0.048978
 10
155.288833
 20
88.192569
 42
-0.04927
 10
155.68851
 20
87.712862
 42
-0.049544
 10
155.986371
 20
87.163937
 42
-0.049748
 10
156.170178
 20
86.567042
 42
-0.049858
 10
156.23231
 20
85.945596
 42
-0.049748
 10
156.170452
 20
85.325508
 42
-0.049701
 10
155.987138
 20
84.729082
 42
-0.049518
 10
155.689807
 20
84.180244
 42
-0.049257
 10
155.290603
 20
83.700368
 42
-0.048989
 10
154.805342
 20
83.307492
 42
-0.048746
 10
154.252919
 20
83.01618
 42
-0.048556
 10
153.654568
 20
82.837074
 42
-0.0485
 10
153.032309
 20
82.776582
  0
LWPOLYLINE
  5
25F
100
AcDbEntity
  8
0
  6
CONTINUOUS
 62
     7
100
AcDbPolyline
 90
       17
 70
     0
 43
0.0
 10
153.032309
 20
88.489558
 42
-0.01989
 10
153.316972
 20
88.478234
 42
-0.020024
 10
153.600362
 20
88.444191
 42
-0.020195
 10
153.879806
 20
88.387558
 42
-0.020482
 10
154.153709
 20
88.308417
 42
-0.020865
 10
154.420144
 20
88.206932
 42
-0.021341
 10
154.677091
 20
88.083347
 42
-0.021905
 10
154.922426
 20
87.938026
 42
-0.022549
 10
155.153917
 20
87.771486
 42
-0.023262
 10
155.369226
 20
87.584455
 42
-0.024024
 10
155.565931
 20
87.377917
 42
-0.024811
 10
155.741572
 20
87.153175
 42
-0.025592
 10
155.89371
 20
86.911898
 42
-0.026326
 10
156.020018
 20
86.656159
 42
-0.026972
 10
156.118393
 20
86.388451
 42
-0.027484
 10
156.187075
 20
86.111667
 42
-0.027825
 10
156.224771
 20
85.829034
  0
LWPOLYLINE
  5
272
100
AcDbEntity
  8
0
  6
CONTINUOUS
 62
     7
100
AcDbPolyline
 90
       17
 70
     0
 43
0.0
 10
153.032309
 20
91.144763
 42
-0.020579
 10
153.505796
 20
91.125273
 42
-0.020694
 10
153.976734
 20
91.066741
 42
-0.020867
 10
154.44123
 20
90.96932
 42
-0.02112
 10
154.895886
 20
90.833308
 42
-0.021456
 10
155.337326
 20
90.659138
 42
-0.021871
 10
155.762057
 20
90.447424
 42
-0.022359
 10
156.166458
 20
90.199011
 42
-0.02291
 10
156.546783
 20
89.915039
 42
-0.023511
 10
156.899183
 20
89.597015
 42
-0.024146
 10
157.219748
 20
89.246877
 42
-0.024791
 10
157.504587
 20
88.867077
 42
-0.025421
 10
157.749924
 20
88.460628
 42
-0.026004
 10
157.952236
 20
88.031146
 42
-0.026506
 10
158.108403
 20
87.582848
 42
-0.026897
 10
158.215877
 20
87.1205
 42
-0.027149
 10
158.272831
 20
86.649322
  0
LWPOLYLINE
  5
285
100
AcDbEntity
  8
0
  6
CONTINUOUS
 62
     7
100
AcDbPolyline
 90
       17
 70
     0
 43
0.0
 10
153.032309
 20
91.97718
 42
-0.048416
 10
154.051527
 20
91.878268
 42
-0.048522
 10
155.032661
 20
91.58501
 42
-0.048718
 10
155.938746
 20
91.107808
 42
-0.048977
 10
156.735088
 20
90.463869
 42
-0.049271
 10
157.390668
 20
89.676765
 42
-0.049546
 10
157.879188
 20
88.776128
 42
-0.049752
 10
158.180568
 20
87.796819
 42
-0.049813
 10
158.282309
 20
86.778272
 42
-0.049822
 10
158.180532
 20
85.759544
 42
-0.049704
 10
157.879495
 20
84.781146
 42
-0.04952
 10
157.391418
 20
83.880883
 42
-0.049257
 10
156.736243
 20
83.093813
 42
-0.048988
 10
155.93993
 20
82.449515
 42
-0.048743
 10
155.033486
 20
81.97187
 42
-0.048553
 10
154.051755
 20
81.678321
 42
-0.048427
 10
153.032309
 20
81.579364
  0
LWPOLYLINE
  5
298
100
AcDbEntity
  8
0
  6
CONTINUOUS
 62
     7
100
AcDbPolyline
 90
       16
 70
     1
 43
0.0
 10
151.282309
 20
141.556364
 42
0.006828
 10
149.502465
 20
141.532351
 42
0.008453
 10
147.723608
 20
141.454897
 42
0.014684
 10
145.950042
 20
141.299076
 42
0.125607
 10
144.282309
 20
140.825705
 42
0.125503
 10
145.949711
 20
140.352375
 42
0.014682
 10
147.722405
 20
140.196587
 42
0.008453
 10
149.500698
 20
140.119108
 42
0.006836
 10
151.282309
 20
140.095046
 42
0.006828
 10
153.062153
 20
140.119059
 42
0.008453
 10
154.84101
 20
140.196513
 42
0.014684
 10
156.614576
 20
140.352334
 42
0.125607
 10
158.282309
 20
140.825705
 42
0.125503
 10
156.614907
 20
141.299035
 42
0.014682
 10
154.842213
 20
141.454823
 42
0.008453
 10
153.06392
 20
141.532303
 42
0.006836
  0
CIRCLE
  5
2AA
100
AcDbEntity
  8
0
  6
CONTINUOUS
 62
     7
100
AcDbCircle
 10
119.282309
 20
137.668956
 30
0.0
 40
0.01
  0
LINE
  5
2AB
100
AcDbEntity
  8
0
  6
CONTINUOUS
 62
     7
100
AcDbLine
 10
207.226574
 20
79.278272
 30
0.0
 11
210.009539
 21
82.061243
 31
0.0
  0
LINE
  5
2AC
100
AcDbEntity
  8
0
  6
CONTINUOUS
 62
     7
100
AcDbLine
 10
204.981512
 20
79.278272
 30
0.0
 11
208.040496
 21
82.337262
 31
0.0
  0
LINE
  5
2AD
100
AcDbEntity
  8
0
  6
CONTINUOUS
 62
     7
100
AcDbLine
 10
202.73645
 20
79.278272
 30
0.0
 11
204.255914
 21
80.797739
 31
0.0
  0
LINE
  5
2AE
100
AcDbEntity
  8
0
  6
CONTINUOUS
 62
     7
100
AcDbLine
 10
204.689969
 20
81.231795
 30
0.0
 11
206.071453
 21
82.613282
 31
0.0
  0
LINE
  5
2AF
100
AcDbEntity
  8
0
  6
CONTINUOUS
 62
     7
100
AcDbLine
 10
200.491389
 20
79.278272
 30
0.0
 11
202.286871
 21
81.073758
 31
0.0
  0
LINE
  5
2B0
100
AcDbEntity
  8
0
  6
CONTINUOUS
 62
     7
100
AcDbLine
 10
199.119821
 20
80.151768
 30
0.0
 11
200.317827
 21
81.349777
 31
0.0
  0
LINE
  5
2B1
100
AcDbEntity
  8
0
  6
CONTINUOUS
 62
     7
100
AcDbLine
 10
209.770433
 20
88.557334
 30
0.0
 11
210.253928
 21
89.04083
 31
0.0
  0
LINE
  5
2B2
100
AcDbEntity
  8
0
  6
CONTINUOUS
 62
     7
100
AcDbLine
 10
207.80139
 20
88.833354
 30
0.0
 11
210.253928
 21
91.285897
 31
0.0
  0
LINE
  5
2B3
100
AcDbEntity
  8
0
  6
CONTINUOUS
 62
     7
100
AcDbLine
 10
205.832346
 20
89.109373
 30
0.0
 11
209.37758
 21
92.654614
 31
0.0
  0
LINE
  5
2B4
100
AcDbEntity
  8
0
  6
CONTINUOUS
 62
     7
100
AcDbLine
 10
205.678844
 20
91.200936
 30
0.0
 11
207.256171
 21
92.778267
 31
0.0
  0
LINE
  5
2B5
100
AcDbEntity
  8
0
  6
CONTINUOUS
 62
     7
100
AcDbLine
 10
203.7098
 20
91.476955
 30
0.0
 11
205.011111
 21
92.778268
 31
0.0
  0
LINE
  5
2B6
100
AcDbEntity
  8
0
  6
CONTINUOUS
 62
     7
100
AcDbLine
 10
201.740757
 20
91.752974
 30
0.0
 11
202.76605
 21
92.778269
 31
0.0
  0
LINE
  5
2B7
100
AcDbEntity
  8
0
  6
CONTINUOUS
 62
     7
100
AcDbLine
 10
200.210253
 20
92.467533
 30
0.0
 11
200.520989
 21
92.77827
 31
0.0
  0
TEXT
  5
2B8
100
AcDbEntity
  8
0
  6
CONTINUOUS
100
AcDbText
 10
128.252302
 20
41.773016
 30
0.0
 40
6.0
  1
ＢＵ１５４Ｒ
100
AcDbText
  0
LINE
  5
2DB
102
{ACAD_REACTORS
330
2E5
102
}
100
AcDbEntity
  8
寸法
 62
     1
100
AcDbLine
 10
214.563039
 20
84.654221
 30
0.0
 11
233.583701
 21
81.987916
 31
0.0
  0
LINE
  5
2DC
102
{ACAD_REACTORS
330
2E5
102
}
100
AcDbEntity
  8
寸法
 62
     1
100
AcDbLine
 10
210.253928
 20
85.25827
 30
0.0
 11
233.811804
 21
85.25827
 31
0.0
  0
ARC
  5
2DD
102
{ACAD_REACTORS
330
2E5
102
}
100
AcDbEntity
  8
寸法
 62
     1
100
AcDbCircle
 10
210.253928
 20
85.25827
 30
0.0
 40
22.557876
100
AcDbArc
 50
341.847166
 51
352.020307
  0
LINE
  5
2DE
102
{ACAD_REACTORS
330
2E5
102
}
100
AcDbEntity
  8
寸法
 62
     1
100
AcDbLine
 10
231.689072
 20
78.230301
 30
0.0
 11
229.009718
 21
70.058333
 31
0.0
  0
ARC
  5
2DF
102
{ACAD_REACTORS
330
2E5
102
}
100
AcDbEntity
  8
寸法
 62
     1
100
AcDbCircle
 10
210.253928
 20
85.25827
 30
0.0
 40
22.557876
100
AcDbArc
 50
341.857194
 51
346.93875
  0
ARC
  5
2E0
100
AcDbEntity
  8
寸法
 62
     1
100
AcDbCircle
 10
210.253928
 20
85.25827
 30
0.0
 40
22.557876
100
AcDbArc
 50
5.081557
 51
10.163113
  0
ARC
  5
2E1
102
{ACAD_REACTORS
330
2E5
102
}
100
AcDbEntity
  8
寸法
 62
     1
100
AcDbCircle
 10
210.253928
 20
85.25827
 30
0.0
 40
22.557876
100
AcDbArc
 50
352.020307
 51
360.0
  0
INSERT
  5
2E2
102
{ACAD_REACTORS
330
2E5
102
}
100
AcDbEntity
  8
寸法
 62
     1
100
AcDbBlockReference
  2
_OPEN30
 10
232.593384
 20
82.126738
 30
0.0
 41
2.0
 42
2.0
 43
2.0
 50
79.479529
  0
INSERT
  5
2E3
102
{ACAD_REACTORS
330
2E5
102
}
100
AcDbEntity
  8
寸法
 62
     1
100
AcDbBlockReference
  2
_OPEN30
 10
232.811804
 20
85.25827
 30
0.0
 41
2.0
 42
2.0
 43
2.0
 50
272.540778
  0
MTEXT
  5
2E4
102
{ACAD_REACTORS
330
2E5
102
}
100
AcDbEntity
  8
寸法
 62
     1
100
AcDbMText
 10
227.973823
 20
74.923199
 30
0.0
 40
3.0
 41
0.0
 71
     5
 72
     1
  1
\A1;8°
 11
0.311553
 21
0.950229
 31
0.0
1001
ACAD
1000
MTEXTBEGIN
1070
    73
1070
     1
1070
    44
1040
1.0
1070
    74
1070
     0
1000
MTEXTEND
1000
MTEXTBEGIN
1070
    73
1070
     1
1070
    44
1040
1.0
1070
    74
1070
     0
1000
MTEXTEND
  0
DIMENSION
  5
2E6
100
AcDbEntity
  8
寸法
100
AcDbDimension
  2
*D2
 10
220.0
 20
79.278272
 30
0.0
 11
217.5
 21
69.778272
 31
0.0
 70
    32
  3
STANDARD
100
AcDbAlignedDimension
 13
210.253928
 23
85.25827
 33
0.0
 14
209.176996
 24
79.278272
 34
0.0
 50
90.0
100
AcDbRotatedDimension
  0
DIMENSION
  5
2F6
100
AcDbEntity
  8
寸法
100
AcDbDimension
  2
*D3
 10
180.0
 20
79.278272
 30
0.0
 11
177.5
 21
86.028271
 31
0.0
 70
    32
  3
STANDARD
100
AcDbAlignedDimension
 13
163.282309
 23
92.77827
 33
0.0
 14
163.282309
 24
79.278272
 34
0.0
 50
90.0
100
AcDbRotatedDimension
  0
DIMENSION
  5
303
100
AcDbEntity
  8
寸法
100
AcDbDimension
  2
*D4
 10
149.532309
 20
70.0
 30
0.0
 11
141.532309
 21
72.5
 31
0.0
 70
    32
  3
STANDARD
100
AcDbAlignedDimension
 13
153.032309
 23
80.163015
 33
0.0
 14
149.532309
 24
80.005355
 34
0.0
100
AcDbRotatedDimension
  0
DIMENSION
  5
312
100
AcDbEntity
  8
寸法
100
AcDbDimension
  2
*D5
 10
110.0
 20
79.278272
 30
0.0
 11
107.5
 21
85.146891
 31
0.0
 70
    32
  1
12
  3
STANDARD
100
AcDbAlignedDimension
 13
116.782309
 23
91.01551
 33
0.0
 14
117.082309
 24
79.278272
 34
0.0
 50
90.0
100
AcDbRotatedDimension
  0
DIMENSION
  5
32D
100
AcDbEntity
  8
寸法
100
AcDbDimension
  2
*D6
 10
163.282309
 20
92.77827
 30
0.0
 11
97.009496
 21
98.944906
 31
0.0
 70
    34
  3
STANDARD
100
AcDb2LineAngularDimension
 13
116.782309
 23
91.01551
 33
0.0
 14
128.51894
 24
92.24908
 34
0.0
 15
130.683809
 25
92.77827
 35
0.0
 16
94.338914
 26
90.036094
 36
0.0
1001
ACAD
1000
DSTYLE
1002
{
1070
   271
1070
     0
1070
    79
1070
     2
1070
   271
1070
     0
1002
}
  0
DIMENSION
  5
347
100
AcDbEntity
  8
寸法
100
AcDbDimension
  2
*D7
 10
110.0
 20
137.678615
 30
0.0
 11
107.5
 21
144.673785
 31
0.0
 70
    32
  1
14
  3
STANDARD
100
AcDbAlignedDimension
 13
117.082309
 23
151.668956
 33
0.0
 14
119.279721
 24
137.678615
 34
0.0
 50
90.0
100
AcDbRotatedDimension
  0
DIMENSION
  5
354
100
AcDbEntity
  8
寸法
100
AcDbDimension
  2
*D8
 10
171.282305
 20
120.0
 30
0.0
 11
145.282307
 21
122.5
 31
0.0
 70
    32
  3
STANDARD
100
AcDbAlignedDimension
 13
119.282309
 23
137.668956
 33
0.0
 14
171.282305
 24
143.668953
 34
0.0
100
AcDbRotatedDimension
  0
DIMENSION
  5
361
100
AcDbEntity
  8
寸法
100
AcDbDimension
  2
*D9
 10
163.282309
 20
130.0
 30
0.0
 11
167.282307
 21
132.5
 31
0.0
 70
    32
  3
STANDARD
100
AcDbAlignedDimension
 13
171.282305
 23
143.668953
 33
0.0
 14
163.282309
 24
140.072822
 34
0.0
100
AcDbRotatedDimension
1001
ACAD
1000
DSTYLE
1002
{
1070
   287
1070
     4
1070
   287
1070
     4
1070
   279
1070
     1
1002
}
  0
DIMENSION
  5
381
100
AcDbEntity
  8
寸法
100
AcDbDimension
  2
*D10
 10
119.282309
 20
116.554372
 30
0.0
 11
110.98492
 21
128.622681
 31
0.0
 70
    34
  3
STANDARD
100
AcDb2LineAngularDimension
 13
116.782308
 23
146.999084
 33
0.0
 14
119.282309
 24
137.668956
 34
0.0
 15
119.282309
 25
137.668956
 35
0.0
 16
121.639082
 26
124.303031
 36
0.0
1001
ACAD
1000
DSTYLE
1002
{
1070
   271
1070
     0
1070
    79
1070
     2
1070
   271
1070
     0
1002
}
  0
LINE
  5
393
100
AcDbEntity
  8
0
  6
CENTER
 62
     1
 48
0.5
100
AcDbLine
 10
76.816944
 20
137.668956
 30
0.0
 11
74.179089
 21
156.438269
 31
0.0
  0
ARC
  5
396
100
AcDbEntity
  8
0
  6
CENTER
 62
     1
 48
0.5
100
AcDbCircle
 10
74.179089
 20
156.438269
 30
0.0
 40
19.040146
100
AcDbArc
 50
180.0
 51
0.0
  0
LINE
  5
398
100
AcDbEntity
  8
0
  6
CENTER
 62
     1
 48
0.5
100
AcDbLine
 10
74.179089
 20
156.438269
 30
0.0
 11
74.179089
 21
137.668956
 31
0.0
  0
DIMENSION
  5
399
100
AcDbEntity
  8
寸法
100
AcDbDimension
  2
*D11
 10
74.179089
 20
137.668956
 30
0.0
 11
68.03815
 21
126.016423
 31
0.0
 70
    34
  3
STANDARD
100
AcDb2LineAngularDimension
 13
76.816944
 23
137.668956
 33
0.0
 14
74.179089
 24
156.438269
 34
0.0
 15
74.179089
 25
156.438269
 35
0.0
 16
77.268383
 26
123.346022
 36
0.0
1001
ACAD
1000
DSTYLE
1002
{
1070
   271
1070
     0
1070
    79
1070
     2
1070
   271
1070
     0
1002
}
  0
DIMENSION
  5
3AA
100
AcDbEntity
  8
寸法
100
AcDbDimension
  2
*D12
 10
74.179089
 20
156.438269
 30
0.0
 11
47.418696
 21
147.698639
 31
0.0
 70
    36
  1
%%c38
  3
STANDARD
100
AcDbRadialDimension
 15
56.676175
 25
148.943261
 35
0.0
 40
0.0
1001
ACAD
1000
DSTYLE
1002
{
1070
   288
1070
     1
1002
}
  0
DIMENSION
  5
3BA
100
AcDbEntity
  8
寸法
100
AcDbDimension
  2
*D13
 10
151.282309
 20
100.0
 30
0.0
 11
161.282309
 21
102.5
 31
0.0
 70
    32
  3
STANDARD
100
AcDbAlignedDimension
 13
171.282309
 23
87.77827
 33
0.0
 14
151.282309
 24
93.051734
 34
0.0
100
AcDbRotatedDimension
  0
ENDSEC
  0
SECTION
  2
OBJECTS
  0
DICTIONARY
  5
C
100
AcDbDictionary
  3
ACAD_GROUP
350
D
  3
ACAD_LAYOUT
350
2BD
  3
ACAD_MLINESTYLE
350
1B
  3
ACAD_PLOTSETTINGS
350
2BE
  3
ACAD_PLOTSTYLENAME
350
2BB
  3
ACDBHEADERROUNDTRIPXREC
350
46B
  3
ACDBVARIABLEDICTIONARY
350
33
  3
CONTENTDICTIONARY
350
23
  0
DICTIONARY
  5
467
100
AcDbDictionary
280
     1
  3
ACAD_XREC_ROUNDTRIP
360
468
  0
DICTIONARY
  5
48E
100
AcDbDictionary
280
     1
  3
ACAD_XREC_ROUNDTRIP
360
48F
  0
DICTIONARY
  5
3EF
100
AcDbDictionary
280
     1
  3
ACAD_LAYOUTSELFREF
360
48D
  0
DICTIONARY
  5
3ED
100
AcDbDictionary
280
     1
  3
ACAD_LAYOUTSELFREF
360
48C
  0
DICTIONARY
  5
D
102
{ACAD_REACTORS
330
C
102
}
100
AcDbDictionary
  3
*A1
350
2E5
  0
DICTIONARY
  5
2BD
102
{ACAD_XDICTIONARY
360
490
102
}
102
{ACAD_REACTORS
330
C
102
}
100
AcDbDictionary
  3
MODEL
350
2BF
  3
ﾚｲｱｳﾄ1
350
2C0
  0
DICTIONARY
  5
1B
102
{ACAD_REACTORS
330
C
102
}
100
AcDbDictionary
  3
STANDARD
350
1C
  0
DICTIONARY
  5
2BE
102
{ACAD_REACTORS
330
C
102
}
100
AcDbDictionary
  0
ACAD_PROXY_OBJECT
  5
2BB
102
{ACAD_REACTORS
330
C
102
}
100
AcDbProxyObject
 90
      499
 91
      502
 93
       86
310
405010041939BDC9B585B1
350
2BC
340
2BC
 94
        0
  0
DICTIONARY
  5
46B
102
{ACAD_REACTORS
330
C
102
}
100
AcDbDictionary
  3
CEPSNTYPE
350
475
  3
DIMSTYLEDATA
350
479
  3
FINGERPRINTGUID
350
476
  3
HYPERLINKBASE
350
46E
  3
INSUNITS
350
474
  3
LAYOUTDICT
350
470
  3
LWETCUNION
350
473
  3
PLOTSETDICT
350
471
  3
PLOTSTYLNAMDICT
350
472
  3
PSVPSCALE
350
478
  3
PUCSBASE
350
47C
  3
PUCSORGBACK
350
482
  3
PUCSORGBOTTOM
350
47E
  3
PUCSORGFRONT
350
481
  3
PUCSORGLEFT
350
47F
  3
PUCSORGRIGHT
350
480
  3
PUCSORGTOP
350
47D
  3
PUCSORTHOREF
350
47A
  3
PUCSORTHOVIEW
350
47B
  3
STYLESHEET
350
46F
  3
TSTACKALIGN
350
46C
  3
TSTACKSIZE
350
46D
  3
UCSBASE
350
485
  3
UCSORGBACK
350
48B
  3
UCSORGBOTTOM
350
487
  3
UCSORGFRONT
350
48A
  3
UCSORGLEFT
350
488
  3
UCSORGRIGHT
350
489
  3
UCSORGTOP
350
486
  3
UCSORTHOREF
350
483
  3
UCSORTHOVIEW
350
484
  3
VERSIONGUID
350
477
  0
DICTIONARY
  5
33
102
{ACAD_REACTORS
330
C
102
}
100
AcDbDictionary
  3
DIMADEC
350
34
  0
DICTIONARY
  5
23
102
{ACAD_REACTORS
330
C
102
}
100
AcDbDictionary
  0
XRECORD
  5
468
102
{ACAD_REACTORS
330
467
102
}
100
AcDbXrecord
102
EXTNAMES
  1
DEFPOINTS
  2
Defpoints
102
PLOTBIT
280
     0
  0
XRECORD
  5
48F
102
{ACAD_REACTORS
330
48E
102
}
100
AcDbXrecord
102
ACADR14ROUNDTRIP
1000
DSTYLE
1002
{
1070
   341
340
37
1070
   343
340
37
1070
   344
340
37
1002
}
  0
XRECORD
  5
48D
102
{ACAD_REACTORS
330
3EF
102
}
100
AcDbXrecord
340
18
  0
XRECORD
  5
48C
102
{ACAD_REACTORS
330
3ED
102
}
100
AcDbXrecord
340
15
  0
GROUP
  5
2E5
102
{ACAD_REACTORS
330
D
102
}
100
AcDbGroup
300

 70
     1
 71
     1
340
2E4
340
2DE
340
2DC
340
2DB
340
2E2
340
2DD
340
2DF
340
2E1
340
2E3
  0
DICTIONARY
  5
490
100
AcDbDictionary
280
     1
  3
ACAD_XREC_ROUNDTRIP
360
491
  0
ACAD_PROXY_OBJECT
  5
2BF
102
{ACAD_REACTORS
330
2BD
102
}
100
AcDbProxyObject
 90
      499
 91
      504
 93
      548
310
90E4550534F4E20504D2D32303030432C01AAAAAAAAA5A69054D6F64656C901A800000000000000000000000000000000000000000000A1000000000000008902A6A6AAAA0
330
18
330
0
340
0
340
0
 94
        0
  0
ACAD_PROXY_OBJECT
  5
2C0
102
{ACAD_REACTORS
330
2BD
102
}
100
AcDbProxyObject
 90
      499
 91
      504
 93
      964
310
90E4550534F4E20504D2D32303030432C00AAAAAA416AA59106906DAB2B1B3C43140501A800000000000000000000000000000000000000000101E900000000000241C902A6A6A10232D5E076BC5510408CB5781DAF154410232D5E076BC5510408CB5781DAF15C410232D5E076BC5710408CB5781DAF15C40
330
15
330
0
340
0
340
0
 94
        0
  0
MLINESTYLE
  5
1C
102
{ACAD_REACTORS
330
1B
102
}
100
AcDbMlineStyle
  2
STANDARD
 70
     0
  3

 62
   256
 51
90.0
 52
90.0
 71
     2
 49
0.5
 62
   256
  6
BYLAYER
 49
-0.5
 62
   256
  6
BYLAYER
  0
ACAD_PROXY_OBJECT
  5
2BC
102
{ACAD_REACTORS
330
2BB
102
}
100
AcDbProxyObject
 90
      499
 91
      503
 93
        0
 94
        0
  0
XRECORD
  5
475
102
{ACAD_REACTORS
330
46B
102
}
100
AcDbXrecord
 90
        0
  0
XRECORD
  5
479
102
{ACAD_REACTORS
330
46B
102
}
100
AcDbXrecord
1000
DSTYLE
1002
{
1070
   341
340
37
1070
   343
340
37
1070
   344
340
37
1002
}
  0
XRECORD
  5
476
102
{ACAD_REACTORS
330
46B
102
}
100
AcDbXrecord
  1
{DCB0B860-FDB4-4D4E-A219-90778D663231}
  0
XRECORD
  5
46E
102
{ACAD_REACTORS
330
46B
102
}
100
AcDbXrecord
  1

  0
XRECORD
  5
474
102
{ACAD_REACTORS
330
46B
102
}
100
AcDbXrecord
 90
        0
  0
XRECORD
  5
470
102
{ACAD_REACTORS
330
46B
102
}
100
AcDbXrecord
340
2BD
  0
XRECORD
  5
473
102
{ACAD_REACTORS
330
46B
102
}
100
AcDbXrecord
 90
    14877
  0
XRECORD
  5
471
102
{ACAD_REACTORS
330
46B
102
}
100
AcDbXrecord
340
2BE
  0
XRECORD
  5
472
102
{ACAD_REACTORS
330
46B
102
}
100
AcDbXrecord
340
2BB
  0
XRECORD
  5
478
102
{ACAD_REACTORS
330
46B
102
}
100
AcDbXrecord
 40
0.0
  0
XRECORD
  5
47C
102
{ACAD_REACTORS
330
46B
102
}
100
AcDbXrecord
340
0
  0
XRECORD
  5
482
102
{ACAD_REACTORS
330
46B
102
}
100
AcDbXrecord
 10
0.0
 20
0.0
 30
0.0
  0
XRECORD
  5
47E
102
{ACAD_REACTORS
330
46B
102
}
100
AcDbXrecord
 10
0.0
 20
0.0
 30
0.0
  0
XRECORD
  5
481
102
{ACAD_REACTORS
330
46B
102
}
100
AcDbXrecord
 10
0.0
 20
0.0
 30
0.0
  0
XRECORD
  5
47F
102
{ACAD_REACTORS
330
46B
102
}
100
AcDbXrecord
 10
0.0
 20
0.0
 30
0.0
  0
XRECORD
  5
480
102
{ACAD_REACTORS
330
46B
102
}
100
AcDbXrecord
 10
0.0
 20
0.0
 30
0.0
  0
XRECORD
  5
47D
102
{ACAD_REACTORS
330
46B
102
}
100
AcDbXrecord
 10
0.0
 20
0.0
 30
0.0
  0
XRECORD
  5
47A
102
{ACAD_REACTORS
330
46B
102
}
100
AcDbXrecord
340
0
  0
XRECORD
  5
47B
102
{ACAD_REACTORS
330
46B
102
}
100
AcDbXrecord
 70
     0
  0
XRECORD
  5
46F
102
{ACAD_REACTORS
330
46B
102
}
100
AcDbXrecord
  1

  0
XRECORD
  5
46C
102
{ACAD_REACTORS
330
46B
102
}
100
AcDbXrecord
 90
        1
  0
XRECORD
  5
46D
102
{ACAD_REACTORS
330
46B
102
}
100
AcDbXrecord
 90
       70
  0
XRECORD
  5
485
102
{ACAD_REACTORS
330
46B
102
}
100
AcDbXrecord
340
0
  0
XRECORD
  5
48B
102
{ACAD_REACTORS
330
46B
102
}
100
AcDbXrecord
 10
0.0
 20
0.0
 30
0.0
  0
XRECORD
  5
487
102
{ACAD_REACTORS
330
46B
102
}
100
AcDbXrecord
 10
0.0
 20
0.0
 30
0.0
  0
XRECORD
  5
48A
102
{ACAD_REACTORS
330
46B
102
}
100
AcDbXrecord
 10
0.0
 20
0.0
 30
0.0
  0
XRECORD
  5
488
102
{ACAD_REACTORS
330
46B
102
}
100
AcDbXrecord
 10
0.0
 20
0.0
 30
0.0
  0
XRECORD
  5
489
102
{ACAD_REACTORS
330
46B
102
}
100
AcDbXrecord
 10
0.0
 20
0.0
 30
0.0
  0
XRECORD
  5
486
102
{ACAD_REACTORS
330
46B
102
}
100
AcDbXrecord
 10
0.0
 20
0.0
 30
0.0
  0
XRECORD
  5
483
102
{ACAD_REACTORS
330
46B
102
}
100
AcDbXrecord
340
0
  0
XRECORD
  5
484
102
{ACAD_REACTORS
330
46B
102
}
100
AcDbXrecord
 70
     0
  0
XRECORD
  5
477
102
{ACAD_REACTORS
330
46B
102
}
100
AcDbXrecord
  1
{B42AD0E2-7B05-4D34-A53D-0475738E5687}
  0
DICTIONARYVAR
  5
34
102
{ACAD_REACTORS
330
33
102
}
100
DictionaryVariables
280
     0
  1
0
  0
XRECORD
  5
491
102
{ACAD_REACTORS
330
490
102
}
100
AcDbXrecord
102
EXTNAMES
  1
MODEL
  2
Model
  0
ENDSEC
  0
EOF
