  0
SECTION
  2
HEADER
  9
$ACADVER
  1
AC1014
  9
$ACADMAINTVER
 70
     0
  9
$DWGCODEPAGE
  3
ANSI_932
  9
$INSBASE
 10
0.0
 20
0.0
 30
0.0
  9
$EXTMIN
 10
-81.662664
 20
-66.243564
 30
0.0
  9
$EXTMAX
 10
127.171802
 20
35.275493
 30
0.0
  9
$LIMMIN
 10
-100.0
 20
-80.0
  9
$LIMMAX
 10
150.0
 20
70.0
  9
$ORTHOMODE
 70
     1
  9
$REGENMODE
 70
     1
  9
$FILLMODE
 70
     1
  9
$QTEXTMODE
 70
     0
  9
$MIRRTEXT
 70
     1
  9
$DRAGMODE
 70
     2
  9
$LTSCALE
 40
1.0
  9
$OSMODE
 70
    33
  9
$ATTMODE
 70
     1
  9
$TEXTSIZE
 40
0.2
  9
$TRACEWID
 40
0.05
  9
$TEXTSTYLE
  7
STANDARD
  9
$CLAYER
  8
寸法
  9
$CELTYPE
  6
CONTINUOUS
  9
$CECOLOR
 62
   256
  9
$CELTSCALE
 40
1.0
  9
$DELOBJ
 70
     1
  9
$DISPSILH
 70
     0
  9
$DIMSCALE
 40
1.0
  9
$DIMASZ
 40
2.0
  9
$DIMEXO
 40
1.0
  9
$DIMDLI
 40
10.0
  9
$DIMRND
 40
0.0
  9
$DIMDLE
 40
0.0
  9
$DIMEXE
 40
1.0
  9
$DIMTP
 40
0.0
  9
$DIMTM
 40
0.0
  9
$DIMTXT
 40
3.0
  9
$DIMCEN
 40
2.0
  9
$DIMTSZ
 40
0.0
  9
$DIMTOL
 70
     0
  9
$DIMLIM
 70
     0
  9
$DIMTIH
 70
     0
  9
$DIMTOH
 70
     0
  9
$DIMSE1
 70
     0
  9
$DIMSE2
 70
     0
  9
$DIMTAD
 70
     1
  9
$DIMZIN
 70
     8
  9
$DIMBLK
  1
OPEN30
  9
$DIMASO
 70
     1
  9
$DIMSHO
 70
     1
  9
$DIMPOST
  1

  9
$DIMAPOST
  1

  9
$DIMALT
 70
     0
  9
$DIMALTD
 70
     2
  9
$DIMALTF
 40
25.4
  9
$DIMLFAC
 40
1.0
  9
$DIMTOFL
 70
     1
  9
$DIMTVP
 40
0.0
  9
$DIMTIX
 70
     0
  9
$DIMSOXD
 70
     0
  9
$DIMSAH
 70
     0
  9
$DIMBLK1
  1

  9
$DIMBLK2
  1

  9
$DIMSTYLE
  2
STANDARD
  9
$DIMCLRD
 70
     1
  9
$DIMCLRE
 70
     1
  9
$DIMCLRT
 70
     1
  9
$DIMTFAC
 40
1.0
  9
$DIMGAP
 40
1.0
  9
$DIMJUST
 70
     0
  9
$DIMSD1
 70
     0
  9
$DIMSD2
 70
     0
  9
$DIMTOLJ
 70
     1
  9
$DIMTZIN
 70
     0
  9
$DIMALTZ
 70
     0
  9
$DIMALTTZ
 70
     0
  9
$DIMFIT
 70
     3
  9
$DIMUPT
 70
     0
  9
$DIMUNIT
 70
     2
  9
$DIMDEC
 70
     2
  9
$DIMTDEC
 70
     2
  9
$DIMALTU
 70
     2
  9
$DIMALTTD
 70
     2
  9
$DIMTXSTY
  7
STANDARD
  9
$DIMAUNIT
 70
     0
  9
$LUNITS
 70
     2
  9
$LUPREC
 70
     2
  9
$SKETCHINC
 40
0.1
  9
$FILLETRAD
 40
0.0
  9
$AUNITS
 70
     0
  9
$AUPREC
 70
     0
  9
$MENU
  1
acad
  9
$ELEVATION
 40
0.0
  9
$PELEVATION
 40
0.0
  9
$THICKNESS
 40
0.0
  9
$LIMCHECK
 70
     0
  9
$BLIPMODE
 70
     0
  9
$CHAMFERA
 40
0.0
  9
$CHAMFERB
 40
0.0
  9
$CHAMFERC
 40
0.0
  9
$CHAMFERD
 40
0.0
  9
$SKPOLY
 70
     0
  9
$TDCREATE
 40
2444972.375000000
  9
$TDUPDATE
 40
2451977.427326388
  9
$TDINDWG
 40
0.0097199074
  9
$TDUSRTIMER
 40
0.0097199074
  9
$USRTIMER
 70
     1
  9
$ANGBASE
 50
0.0
  9
$ANGDIR
 70
     0
  9
$PDMODE
 70
     0
  9
$PDSIZE
 40
0.0
  9
$PLINEWID
 40
0.0
  9
$COORDS
 70
     1
  9
$SPLFRAME
 70
     0
  9
$SPLINETYPE
 70
     6
  9
$SPLINESEGS
 70
     8
  9
$ATTDIA
 70
     0
  9
$ATTREQ
 70
     1
  9
$HANDLING
 70
     1
  9
$HANDSEED
  5
351
  9
$SURFTAB1
 70
     6
  9
$SURFTAB2
 70
     6
  9
$SURFTYPE
 70
     6
  9
$SURFU
 70
     6
  9
$SURFV
 70
     6
  9
$UCSNAME
  2

  9
$UCSORG
 10
0.0
 20
0.0
 30
0.0
  9
$UCSXDIR
 10
1.0
 20
0.0
 30
0.0
  9
$UCSYDIR
 10
0.0
 20
1.0
 30
0.0
  9
$PUCSNAME
  2

  9
$PUCSORG
 10
0.0
 20
0.0
 30
0.0
  9
$PUCSXDIR
 10
1.0
 20
0.0
 30
0.0
  9
$PUCSYDIR
 10
0.0
 20
1.0
 30
0.0
  9
$USERI1
 70
     0
  9
$USERI2
 70
     0
  9
$USERI3
 70
     0
  9
$USERI4
 70
     0
  9
$USERI5
 70
     0
  9
$USERR1
 40
0.0
  9
$USERR2
 40
0.0
  9
$USERR3
 40
0.0
  9
$USERR4
 40
0.0
  9
$USERR5
 40
0.0
  9
$WORLDVIEW
 70
     1
  9
$SHADEDGE
 70
     3
  9
$SHADEDIF
 70
    70
  9
$TILEMODE
 70
     1
  9
$MAXACTVP
 70
    48
  9
$PINSBASE
 10
0.0
 20
0.0
 30
0.0
  9
$PLIMCHECK
 70
     0
  9
$PEXTMIN
 10
1.000000E+20
 20
1.000000E+20
 30
1.000000E+20
  9
$PEXTMAX
 10
-1.000000E+20
 20
-1.000000E+20
 30
-1.000000E+20
  9
$PLIMMIN
 10
0.0
 20
0.0
  9
$PLIMMAX
 10
12.0
 20
9.0
  9
$UNITMODE
 70
     0
  9
$VISRETAIN
 70
     1
  9
$PLINEGEN
 70
     0
  9
$PSLTSCALE
 70
     1
  9
$TREEDEPTH
 70
  3020
  9
$PICKSTYLE
 70
     1
  9
$CMLSTYLE
  2
STANDARD
  9
$CMLJUST
 70
     0
  9
$CMLSCALE
 40
1.0
  9
$PROXYGRAPHICS
 70
     1
  9
$MEASUREMENT
 70
     0
  0
ENDSEC
  0
SECTION
  2
CLASSES
  0
CLASS
  1
ACDBDICTIONARYWDFLT
  2
AcDbDictionaryWithDefault
  3
AutoCAD 2000
 90
        0
280
     0
281
     0
  0
CLASS
  1
ACDBPLACEHOLDER
  2
AcDbPlaceHolder
  3
AutoCAD 2000
 90
        0
280
     0
281
     0
  0
CLASS
  1
LAYOUT
  2
AcDbLayout
  3
AutoCAD 2000
 90
        0
280
     0
281
     0
  0
CLASS
  1
LONG_TRANSACTION
  2
AcDbLongTransaction
  3
AutoCAD 2000
 90
        0
280
     0
281
     0
  0
CLASS
  1
LWPOLYLINE
  2
AcDbPolyline
  3
"AutoCAD"
 90
        0
280
     0
281
     1
  0
CLASS
  1
HATCH
  2
AcDbHatch
  3
"ACAD_SEDONA"
 90
        0
280
     0
281
     1
  0
CLASS
  1
XRECORD
  2
AcDbXrecord
  3
"<Built In>"
 90
        0
280
     0
281
     0
  0
CLASS
  1
LONG_TRANSACTION
  2
AcDbLongTransaction
  3
AutoCAD 2000
 90
        0
280
     0
281
     0
  0
CLASS
  1
LWPOLYLINE
  2
AcDbPolyline
  3
"AutoCAD"
 90
        0
280
     0
281
     1
  0
CLASS
  1
HATCH
  2
AcDbHatch
  3
"ACAD_SEDONA"
 90
        0
280
     0
281
     1
  0
CLASS
  1
XRECORD
  2
AcDbXrecord
  3
"<Built In>"
 90
        0
280
     0
281
     0
  0
ENDSEC
  0
SECTION
  2
TABLES
  0
TABLE
  2
VPORT
  5
8
100
AcDbSymbolTable
 70
     2
  0
VPORT
  5
350
100
AcDbSymbolTableRecord
100
AcDbViewportTableRecord
  2
*ACTIVE
 70
     0
 10
0.0
 20
0.0
 11
1.0
 21
1.0
 12
28.374888
 22
-3.138671
 13
0.0
 23
0.0
 14
10.0
 24
10.0
 15
10.0
 25
10.0
 16
0.0
 26
0.0
 36
1.0
 17
0.0
 27
0.0
 37
0.0
 40
161.428957
 41
1.710425
 42
50.0
 43
0.0
 44
0.0
 50
0.0
 51
0.0
 71
     0
 72
   100
 73
     1
 74
     1
 75
     0
 76
     0
 77
     0
 78
     0
  0
ENDTAB
  0
TABLE
  2
LTYPE
  5
5
100
AcDbSymbolTable
 70
     5
  0
LTYPE
  5
12
100
AcDbSymbolTableRecord
100
AcDbLinetypeTableRecord
  2
BYBLOCK
 70
     0
  3

 72
    65
 73
     0
 40
0.0
  0
LTYPE
  5
13
100
AcDbSymbolTableRecord
100
AcDbLinetypeTableRecord
  2
BYLAYER
 70
     0
  3

 72
    65
 73
     0
 40
0.0
  0
LTYPE
  5
14
100
AcDbSymbolTableRecord
100
AcDbLinetypeTableRecord
  2
CONTINUOUS
 70
     0
  3
Solid line
 72
    65
 73
     0
 40
0.0
  0
LTYPE
  5
1F
100
AcDbSymbolTableRecord
100
AcDbLinetypeTableRecord
  2
DASHED
 70
     0
  3
__ __ __ __ __ __ __ __ __ __ __ __ __ __ __
 72
    65
 73
     2
 40
3.5
 49
2.0
 74
     0
 49
-1.5
 74
     0
  0
LTYPE
  5
20
100
AcDbSymbolTableRecord
100
AcDbLinetypeTableRecord
  2
CENTER
 70
     0
  3
____ _ ____ _ ____ _ ____ _ ____ _ ____ _ ____
 72
    65
 73
     4
 40
17.5
 49
13.0
 74
     0
 49
-1.5
 74
     0
 49
1.5
 74
     0
 49
-1.5
 74
     0
  0
LTYPE
  5
21
100
AcDbSymbolTableRecord
100
AcDbLinetypeTableRecord
  2
PHANTOM
 70
     0
  3
_____ _ _ _____ _ _ _____ _ _ _____ _ _ ____  
 72
    65
 73
     6
 40
15.5
 49
8.0
 74
     0
 49
-1.5
 74
     0
 49
1.5
 74
     0
 49
-1.5
 74
     0
 49
1.5
 74
     0
 49
-1.5
 74
     0
  0
LTYPE
  5
22
100
AcDbSymbolTableRecord
100
AcDbLinetypeTableRecord
  2
DOT
 70
     0
  3
. . . . . . . . . . . . . . . . . . . . . . . .
 72
    65
 73
     2
 40
0.25
 49
0.0
 74
     0
 49
-0.25
 74
     0
  0
ENDTAB
  0
TABLE
  2
LAYER
  5
2
100
AcDbSymbolTable
 70
     3
  0
LAYER
  5
E
100
AcDbSymbolTableRecord
100
AcDbLayerTableRecord
  2
0
 70
     0
 62
     7
  6
CONTINUOUS
  0
LAYER
  5
15E
100
AcDbSymbolTableRecord
100
AcDbLayerTableRecord
  2
寸法
 70
     0
 62
     1
  6
CONTINUOUS
  0
LAYER
  5
168
102
{ACAD_XDICTIONARY
360
2E9
102
}
100
AcDbSymbolTableRecord
100
AcDbLayerTableRecord
  2
DEFPOINTS
 70
     0
 62
     7
  6
CONTINUOUS
  0
ENDTAB
  0
TABLE
  2
STYLE
  5
3
100
AcDbSymbolTable
 70
     1
  0
STYLE
  5
F
100
AcDbSymbolTableRecord
100
AcDbTextStyleTableRecord
  2
STANDARD
 70
     0
 40
0.0
 41
1.0
 50
0.0
 71
     0
 42
0.2
  3
txt
  4
BIGFONT
  0
ENDTAB
  0
TABLE
  2
VIEW
  5
6
100
AcDbSymbolTable
 70
     0
  0
ENDTAB
  0
TABLE
  2
UCS
  5
7
100
AcDbSymbolTable
 70
     0
  0
ENDTAB
  0
TABLE
  2
APPID
  5
9
100
AcDbSymbolTable
 70
     1
  0
APPID
  5
10
100
AcDbSymbolTableRecord
100
AcDbRegAppTableRecord
  2
ACAD
 70
     0
  0
ENDTAB
  0
TABLE
  2
DIMSTYLE
  5
A
100
AcDbSymbolTable
 70
     1
  0
DIMSTYLE
105
150
102
{ACAD_XDICTIONARY
360
310
102
}
102
{ACAD_REACTORS
330
186
330
1A0
330
1D2
330
1DF
330
1EC
330
1F9
330
206
330
21C
330
232
330
246
330
25E
330
26F
102
}
100
AcDbSymbolTableRecord
100
AcDbDimStyleTableRecord
  2
STANDARD
 70
     0
  3

  4

  5
OPEN30
  6

  7

 40
1.0
 41
2.0
 42
1.0
 43
10.0
 44
1.0
 45
0.0
 46
0.0
 47
0.0
 48
0.0
140
3.0
141
2.0
142
0.0
143
25.4
144
1.0
145
0.0
146
1.0
147
1.0
 71
     0
 72
     0
 73
     0
 74
     0
 75
     0
 76
     0
 77
     1
 78
     8
170
     0
171
     2
172
     1
173
     0
174
     0
175
     0
176
     1
177
     1
178
     1
270
     2
271
     2
272
     2
273
     2
274
     2
340
F
275
     0
280
     0
281
     0
282
     0
283
     1
284
     0
285
     0
286
     0
287
     3
288
     0
  0
ENDTAB
  0
TABLE
  2
BLOCK_RECORD
  5
1
100
AcDbSymbolTable
 70
    13
  0
BLOCK_RECORD
  5
18
102
{ACAD_XDICTIONARY
360
2A9
102
}
100
AcDbSymbolTableRecord
100
AcDbBlockTableRecord
  2
*MODEL_SPACE
  0
BLOCK_RECORD
  5
15
102
{ACAD_XDICTIONARY
360
2A7
102
}
100
AcDbSymbolTableRecord
100
AcDbBlockTableRecord
  2
*PAPER_SPACE
  0
BLOCK_RECORD
  5
15F
102
{ACAD_XDICTIONARY
360
2E7
102
}
100
AcDbSymbolTableRecord
100
AcDbBlockTableRecord
  2
_OPEN30
  0
BLOCK_RECORD
  5
187
100
AcDbSymbolTableRecord
100
AcDbBlockTableRecord
  2
*D1
  0
BLOCK_RECORD
  5
1A1
100
AcDbSymbolTableRecord
100
AcDbBlockTableRecord
  2
*D2
  0
BLOCK_RECORD
  5
1D3
100
AcDbSymbolTableRecord
100
AcDbBlockTableRecord
  2
*D3
  0
BLOCK_RECORD
  5
1E0
100
AcDbSymbolTableRecord
100
AcDbBlockTableRecord
  2
*D4
  0
BLOCK_RECORD
  5
1ED
100
AcDbSymbolTableRecord
100
AcDbBlockTableRecord
  2
*D5
  0
BLOCK_RECORD
  5
1FA
100
AcDbSymbolTableRecord
100
AcDbBlockTableRecord
  2
*D6
  0
BLOCK_RECORD
  5
207
100
AcDbSymbolTableRecord
100
AcDbBlockTableRecord
  2
*D7
  0
BLOCK_RECORD
  5
21D
100
AcDbSymbolTableRecord
100
AcDbBlockTableRecord
  2
*D8
  0
BLOCK_RECORD
  5
233
100
AcDbSymbolTableRecord
100
AcDbBlockTableRecord
  2
*D9
  0
BLOCK_RECORD
  5
247
100
AcDbSymbolTableRecord
100
AcDbBlockTableRecord
  2
*D10
  0
BLOCK_RECORD
  5
25F
100
AcDbSymbolTableRecord
100
AcDbBlockTableRecord
  2
*D11
  0
BLOCK_RECORD
  5
270
100
AcDbSymbolTableRecord
100
AcDbBlockTableRecord
  2
*D12
  0
ENDTAB
  0
ENDSEC
  0
SECTION
  2
BLOCKS
  0
BLOCK
  5
19
100
AcDbEntity
  8
0
100
AcDbBlockBegin
  2
*MODEL_SPACE
 70
     0
 10
0.0
 20
0.0
 30
0.0
  3
*MODEL_SPACE
  1

  0
ENDBLK
  5
1A
100
AcDbEntity
  8
0
100
AcDbBlockEnd
  0
BLOCK
  5
16
100
AcDbEntity
 67
     1
  8
0
100
AcDbBlockBegin
  2
*PAPER_SPACE
 70
     0
 10
0.0
 20
0.0
 30
0.0
  3
*PAPER_SPACE
  1

  0
ENDBLK
  5
17
100
AcDbEntity
 67
     1
  8
0
100
AcDbBlockEnd
  0
BLOCK
  5
163
100
AcDbEntity
  8
0
100
AcDbBlockBegin
  2
_OPEN30
 70
     0
 10
0.0
 20
0.0
 30
0.0
  3
_OPEN30
  1

  0
LINE
  5
160
100
AcDbEntity
  8
0
  6
BYBLOCK
 62
     0
100
AcDbLine
 10
-1.0
 20
0.267949
 30
0.0
 11
0.0
 21
0.0
 31
0.0
1001
ACAD
1000
RTLwPs
1070
   158
  0
LINE
  5
161
100
AcDbEntity
  8
0
  6
BYBLOCK
 62
     0
100
AcDbLine
 10
0.0
 20
0.0
 30
0.0
 11
-1.0
 21
-0.267949
 31
0.0
1001
ACAD
1000
RTLwPs
1070
   158
  0
LINE
  5
162
100
AcDbEntity
  8
0
  6
BYBLOCK
 62
     0
100
AcDbLine
 10
0.0
 20
0.0
 30
0.0
 11
-1.0
 21
0.0
 31
0.0
1001
ACAD
1000
RTLwPs
1070
   158
  0
ENDBLK
  5
164
100
AcDbEntity
  8
0
100
AcDbBlockEnd
  0
BLOCK
  5
193
100
AcDbEntity
  8
0
100
AcDbBlockBegin
  2
*D1
 70
     1
 10
0.0
 20
0.0
 30
0.0
  3
*D1
  1

  0
LINE
  5
1C7
100
AcDbEntity
  8
寸法
  6
CONTINUOUS
 62
     1
100
AcDbLine
 10
101.478275
 20
-25.387323
 30
0.0
 11
111.109508
 21
-25.387323
 31
0.0
1001
ACAD
1000
RTLwPs
1070
   158
  0
LINE
  5
1C8
100
AcDbEntity
  8
寸法
  6
CONTINUOUS
 62
     1
100
AcDbLine
 10
100.478277
 20
-31.367323
 30
0.0
 11
111.109508
 21
-31.367323
 31
0.0
1001
ACAD
1000
RTLwPs
1070
   158
  0
LINE
  5
1C9
100
AcDbEntity
  8
寸法
  6
CONTINUOUS
 62
     1
100
AcDbLine
 10
110.109508
 20
-23.387323
 30
0.0
 11
110.109508
 21
-21.387323
 31
0.0
1001
ACAD
1000
RTLwPs
1070
   158
  0
LINE
  5
1CA
100
AcDbEntity
  8
寸法
  6
CONTINUOUS
 62
     1
100
AcDbLine
 10
110.109508
 20
-33.367323
 30
0.0
 11
110.109508
 21
-46.367323
 31
0.0
1001
ACAD
1000
RTLwPs
1070
   158
  0
LINE
  5
1CB
100
AcDbEntity
  8
寸法
  6
CONTINUOUS
 62
     1
100
AcDbLine
 10
110.109508
 20
-25.387323
 30
0.0
 11
110.109508
 21
-31.367323
 31
0.0
1001
ACAD
1000
RTLwPs
1070
   158
  0
INSERT
  5
1CC
100
AcDbEntity
  8
寸法
  6
CONTINUOUS
 62
     1
100
AcDbBlockReference
  2
_OPEN30
 10
110.109508
 20
-25.387323
 30
0.0
 41
2.0
 42
2.0
 43
2.0
 50
270.0
1001
ACAD
1000
RTLwPs
1070
   158
  0
INSERT
  5
1CD
100
AcDbEntity
  8
寸法
  6
CONTINUOUS
 62
     1
100
AcDbBlockReference
  2
_OPEN30
 10
110.109508
 20
-31.367323
 30
0.0
 41
2.0
 42
2.0
 43
2.0
 50
90.0
1001
ACAD
1000
RTLwPs
1070
   158
  0
MTEXT
  5
1CE
100
AcDbEntity
  8
寸法
  6
CONTINUOUS
 62
     1
100
AcDbMText
 10
107.609508
 20
-40.867323
 30
0.0
 40
3.0
 41
0.0
 71
     5
 72
     1
  1
\A1;5.98
 11
0.0
 21
1.0
 31
0.0
1001
ACAD
1000
MTEXTBEGIN
1070
    73
1070
     1
1070
    44
1040
1.0
1070
    74
1070
     0
1000
MTEXTEND
1000
MTEXTBEGIN
1070
    73
1070
     1
1070
    44
1040
1.0
1070
    74
1070
     0
1000
MTEXTEND
  0
POINT
  5
1CF
100
AcDbEntity
  8
DEFPOINTS
  6
CONTINUOUS
 62
     0
100
AcDbPoint
 10
100.478275
 20
-25.387323
 30
0.0
  0
POINT
  5
1D0
100
AcDbEntity
  8
DEFPOINTS
  6
CONTINUOUS
 62
     0
100
AcDbPoint
 10
99.478277
 20
-31.367323
 30
0.0
  0
POINT
  5
1D1
100
AcDbEntity
  8
DEFPOINTS
  6
CONTINUOUS
 62
     0
100
AcDbPoint
 10
110.109508
 20
-31.367323
 30
0.0
  0
ENDBLK
  5
194
100
AcDbEntity
  8
0
100
AcDbBlockEnd
  0
BLOCK
  5
1AD
100
AcDbEntity
  8
0
100
AcDbBlockBegin
  2
*D2
 70
     1
 10
0.0
 20
0.0
 30
0.0
  3
*D2
  1

  0
LINE
  5
1A2
100
AcDbEntity
  8
寸法
  6
CONTINUOUS
 62
     1
100
AcDbLine
 10
33.75
 20
-31.563563
 30
0.0
 11
33.75
 21
-41.0
 31
0.0
1001
ACAD
1000
RTLwPs
1070
   158
  0
LINE
  5
1A3
100
AcDbEntity
  8
寸法
  6
CONTINUOUS
 62
     1
100
AcDbLine
 10
30.249998
 20
-31.709402
 30
0.0
 11
30.249998
 21
-41.0
 31
0.0
1001
ACAD
1000
RTLwPs
1070
   158
  0
LINE
  5
1A4
100
AcDbEntity
  8
寸法
  6
CONTINUOUS
 62
     1
100
AcDbLine
 10
35.75
 20
-40.0
 30
0.0
 11
37.75
 21
-40.0
 31
0.0
1001
ACAD
1000
RTLwPs
1070
   158
  0
LINE
  5
1A5
100
AcDbEntity
  8
寸法
  6
CONTINUOUS
 62
     1
100
AcDbLine
 10
28.249998
 20
-40.0
 30
0.0
 11
18.249998
 21
-40.0
 31
0.0
1001
ACAD
1000
RTLwPs
1070
   158
  0
LINE
  5
1A6
100
AcDbEntity
  8
寸法
  6
CONTINUOUS
 62
     1
100
AcDbLine
 10
33.75
 20
-40.0
 30
0.0
 11
30.249998
 21
-40.0
 31
0.0
1001
ACAD
1000
RTLwPs
1070
   158
  0
INSERT
  5
1A7
100
AcDbEntity
  8
寸法
  6
CONTINUOUS
 62
     1
100
AcDbBlockReference
  2
_OPEN30
 10
33.75
 20
-40.0
 30
0.0
 41
2.0
 42
2.0
 43
2.0
 50
180.0
1001
ACAD
1000
RTLwPs
1070
   158
  0
INSERT
  5
1A8
100
AcDbEntity
  8
寸法
  6
CONTINUOUS
 62
     1
100
AcDbBlockReference
  2
_OPEN30
 10
30.249998
 20
-40.0
 30
0.0
 41
2.0
 42
2.0
 43
2.0
1001
ACAD
1000
RTLwPs
1070
   158
  0
MTEXT
  5
1A9
100
AcDbEntity
  8
寸法
  6
CONTINUOUS
 62
     1
100
AcDbMText
 10
22.249998
 20
-37.5
 30
0.0
 40
3.0
 41
0.0
 71
     5
 72
     1
  1
\A1;3.5
1001
ACAD
1000
MTEXTBEGIN
1070
    73
1070
     1
1070
    44
1040
1.0
1070
    74
1070
     0
1000
MTEXTEND
1000
MTEXTBEGIN
1070
    73
1070
     1
1070
    44
1040
1.0
1070
    74
1070
     0
1000
MTEXTEND
  0
POINT
  5
1AA
100
AcDbEntity
  8
DEFPOINTS
  6
CONTINUOUS
 62
     0
100
AcDbPoint
 10
33.75
 20
-30.563563
 30
0.0
  0
POINT
  5
1AB
100
AcDbEntity
  8
DEFPOINTS
  6
CONTINUOUS
 62
     0
100
AcDbPoint
 10
30.249998
 20
-30.709402
 30
0.0
  0
POINT
  5
1AC
100
AcDbEntity
  8
DEFPOINTS
  6
CONTINUOUS
 62
     0
100
AcDbPoint
 10
30.249998
 20
-40.0
 30
0.0
  0
ENDBLK
  5
1AE
100
AcDbEntity
  8
0
100
AcDbBlockEnd
  0
BLOCK
  5
1DD
100
AcDbEntity
  8
0
100
AcDbBlockBegin
  2
*D3
 70
     1
 10
0.0
 20
0.0
 30
0.0
  3
*D3
  1

  0
LINE
  5
1D4
100
AcDbEntity
  8
寸法
  6
CONTINUOUS
 62
     1
100
AcDbLine
 10
45.0
 20
-17.867324
 30
0.0
 11
71.0
 21
-17.867324
 31
0.0
1001
ACAD
1000
RTLwPs
1070
   158
  0
LINE
  5
1D5
100
AcDbEntity
  8
寸法
  6
CONTINUOUS
 62
     1
100
AcDbLine
 10
45.0
 20
-31.367323
 30
0.0
 11
71.0
 21
-31.367323
 31
0.0
1001
ACAD
1000
RTLwPs
1070
   158
  0
LINE
  5
1D6
100
AcDbEntity
  8
寸法
  6
CONTINUOUS
 62
     1
100
AcDbLine
 10
70.0
 20
-19.867324
 30
0.0
 11
70.0
 21
-29.367323
 31
0.0
1001
ACAD
1000
RTLwPs
1070
   158
  0
INSERT
  5
1D7
100
AcDbEntity
  8
寸法
  6
CONTINUOUS
 62
     1
100
AcDbBlockReference
  2
_OPEN30
 10
70.0
 20
-17.867324
 30
0.0
 41
2.0
 42
2.0
 43
2.0
 50
90.0
1001
ACAD
1000
RTLwPs
1070
   158
  0
INSERT
  5
1D8
100
AcDbEntity
  8
寸法
  6
CONTINUOUS
 62
     1
100
AcDbBlockReference
  2
_OPEN30
 10
70.0
 20
-31.367323
 30
0.0
 41
2.0
 42
2.0
 43
2.0
 50
270.0
1001
ACAD
1000
RTLwPs
1070
   158
  0
MTEXT
  5
1D9
100
AcDbEntity
  8
寸法
  6
CONTINUOUS
 62
     1
100
AcDbMText
 10
67.5
 20
-24.617323
 30
0.0
 40
3.0
 41
0.0
 71
     5
 72
     1
  1
\A1;13.5
 11
0.0
 21
1.0
 31
0.0
1001
ACAD
1000
MTEXTBEGIN
1070
    73
1070
     1
1070
    44
1040
1.0
1070
    74
1070
     0
1000
MTEXTEND
1000
MTEXTBEGIN
1070
    73
1070
     1
1070
    44
1040
1.0
1070
    74
1070
     0
1000
MTEXTEND
  0
POINT
  5
1DA
100
AcDbEntity
  8
DEFPOINTS
  6
CONTINUOUS
 62
     0
100
AcDbPoint
 10
44.0
 20
-17.867324
 30
0.0
  0
POINT
  5
1DB
100
AcDbEntity
  8
DEFPOINTS
  6
CONTINUOUS
 62
     0
100
AcDbPoint
 10
44.0
 20
-31.367323
 30
0.0
  0
POINT
  5
1DC
100
AcDbEntity
  8
DEFPOINTS
  6
CONTINUOUS
 62
     0
100
AcDbPoint
 10
70.0
 20
-31.367323
 30
0.0
  0
ENDBLK
  5
1DE
100
AcDbEntity
  8
0
100
AcDbBlockEnd
  0
BLOCK
  5
1EA
100
AcDbEntity
  8
0
100
AcDbBlockBegin
  2
*D4
 70
     1
 10
0.0
 20
0.0
 30
0.0
  3
*D4
  1

  0
LINE
  5
229
100
AcDbEntity
  8
寸法
  6
CONTINUOUS
 62
     1
100
AcDbLine
 10
-1.830595
 20
-19.454622
 30
0.0
 11
-11.0
 21
-19.454622
 31
0.0
1001
ACAD
1000
RTLwPs
1070
   158
  0
LINE
  5
22A
100
AcDbEntity
  8
寸法
  6
CONTINUOUS
 62
     1
100
AcDbLine
 10
-0.151183
 20
-31.367323
 30
0.0
 11
-11.0
 21
-31.367323
 31
0.0
1001
ACAD
1000
RTLwPs
1070
   158
  0
LINE
  5
22B
100
AcDbEntity
  8
寸法
  6
CONTINUOUS
 62
     1
100
AcDbLine
 10
-10.0
 20
-21.454622
 30
0.0
 11
-10.0
 21
-29.367323
 31
0.0
1001
ACAD
1000
RTLwPs
1070
   158
  0
INSERT
  5
22C
100
AcDbEntity
  8
寸法
  6
CONTINUOUS
 62
     1
100
AcDbBlockReference
  2
_OPEN30
 10
-10.0
 20
-19.454622
 30
0.0
 41
2.0
 42
2.0
 43
2.0
 50
90.0
1001
ACAD
1000
RTLwPs
1070
   158
  0
INSERT
  5
22D
100
AcDbEntity
  8
寸法
  6
CONTINUOUS
 62
     1
100
AcDbBlockReference
  2
_OPEN30
 10
-10.0
 20
-31.367323
 30
0.0
 41
2.0
 42
2.0
 43
2.0
 50
270.0
1001
ACAD
1000
RTLwPs
1070
   158
  0
MTEXT
  5
22E
100
AcDbEntity
  8
寸法
  6
CONTINUOUS
 62
     1
100
AcDbMText
 10
-12.5
 20
-25.410972
 30
0.0
 40
3.0
 41
0.0
 71
     5
 72
     1
  1
\A1;12
 11
0.0
 21
1.0
 31
0.0
1001
ACAD
1000
MTEXTBEGIN
1070
    73
1070
     1
1070
    44
1040
1.0
1070
    74
1070
     0
1000
MTEXTEND
1000
MTEXTBEGIN
1070
    73
1070
     1
1070
    44
1040
1.0
1070
    74
1070
     0
1000
MTEXTEND
  0
POINT
  5
22F
100
AcDbEntity
  8
DEFPOINTS
  6
CONTINUOUS
 62
     0
100
AcDbPoint
 10
-0.830595
 20
-19.454622
 30
0.0
  0
POINT
  5
230
100
AcDbEntity
  8
DEFPOINTS
  6
CONTINUOUS
 62
     0
100
AcDbPoint
 10
0.848817
 20
-31.367323
 30
0.0
  0
POINT
  5
231
100
AcDbEntity
  8
DEFPOINTS
  6
CONTINUOUS
 62
     0
100
AcDbPoint
 10
-10.0
 20
-31.367323
 30
0.0
  0
ENDBLK
  5
1EB
100
AcDbEntity
  8
0
100
AcDbBlockEnd
  0
BLOCK
  5
1F7
100
AcDbEntity
  8
0
100
AcDbBlockBegin
  2
*D5
 70
     1
 10
0.0
 20
0.0
 30
0.0
  3
*D5
  1

  0
LINE
  5
1EE
100
AcDbEntity
  8
寸法
  6
CONTINUOUS
 62
     1
100
AcDbLine
 10
52.0
 20
-21.867323
 30
0.0
 11
52.0
 21
-9.0
 31
0.0
1001
ACAD
1000
RTLwPs
1070
   158
  0
LINE
  5
1EF
100
AcDbEntity
  8
寸法
  6
CONTINUOUS
 62
     1
100
AcDbLine
 10
31.999998
 20
-14.044345
 30
0.0
 11
31.999998
 21
-9.0
 31
0.0
1001
ACAD
1000
RTLwPs
1070
   158
  0
LINE
  5
1F0
100
AcDbEntity
  8
寸法
  6
CONTINUOUS
 62
     1
100
AcDbLine
 10
50.0
 20
-10.0
 30
0.0
 11
33.999998
 21
-10.0
 31
0.0
1001
ACAD
1000
RTLwPs
1070
   158
  0
INSERT
  5
1F1
100
AcDbEntity
  8
寸法
  6
CONTINUOUS
 62
     1
100
AcDbBlockReference
  2
_OPEN30
 10
52.0
 20
-10.0
 30
0.0
 41
2.0
 42
2.0
 43
2.0
1001
ACAD
1000
RTLwPs
1070
   158
  0
INSERT
  5
1F2
100
AcDbEntity
  8
寸法
  6
CONTINUOUS
 62
     1
100
AcDbBlockReference
  2
_OPEN30
 10
31.999998
 20
-10.0
 30
0.0
 41
2.0
 42
2.0
 43
2.0
 50
180.0
1001
ACAD
1000
RTLwPs
1070
   158
  0
MTEXT
  5
1F3
100
AcDbEntity
  8
寸法
  6
CONTINUOUS
 62
     1
100
AcDbMText
 10
41.999999
 20
-7.5
 30
0.0
 40
3.0
 41
0.0
 71
     5
 72
     1
  1
\A1;20
1001
ACAD
1000
MTEXTBEGIN
1070
    73
1070
     1
1070
    44
1040
1.0
1070
    74
1070
     0
1000
MTEXTEND
1000
MTEXTBEGIN
1070
    73
1070
     1
1070
    44
1040
1.0
1070
    74
1070
     0
1000
MTEXTEND
  0
POINT
  5
1F4
100
AcDbEntity
  8
DEFPOINTS
  6
CONTINUOUS
 62
     0
100
AcDbPoint
 10
52.0
 20
-22.867323
 30
0.0
  0
POINT
  5
1F5
100
AcDbEntity
  8
DEFPOINTS
  6
CONTINUOUS
 62
     0
100
AcDbPoint
 10
31.999998
 20
-15.044345
 30
0.0
  0
POINT
  5
1F6
100
AcDbEntity
  8
DEFPOINTS
  6
CONTINUOUS
 62
     0
100
AcDbPoint
 10
31.999998
 20
-10.0
 30
0.0
  0
ENDBLK
  5
1F8
100
AcDbEntity
  8
0
100
AcDbBlockEnd
  0
BLOCK
  5
204
100
AcDbEntity
  8
0
100
AcDbBlockBegin
  2
*D6
 70
     1
 10
0.0
 20
0.0
 30
0.0
  3
*D6
  1

  0
LINE
  5
1FB
100
AcDbEntity
  8
寸法
  6
CONTINUOUS
 62
     1
100
AcDbLine
 10
52.0
 20
21.546479
 30
0.0
 11
52.0
 21
-1.0
 31
0.0
1001
ACAD
1000
RTLwPs
1070
   158
  0
LINE
  5
1FC
100
AcDbEntity
  8
寸法
  6
CONTINUOUS
 62
     1
100
AcDbLine
 10
0.0
 20
15.546479
 30
0.0
 11
0.0
 21
-1.0
 31
0.0
1001
ACAD
1000
RTLwPs
1070
   158
  0
LINE
  5
1FD
100
AcDbEntity
  8
寸法
  6
CONTINUOUS
 62
     1
100
AcDbLine
 10
50.0
 20
0.0
 30
0.0
 11
2.0
 21
0.0
 31
0.0
1001
ACAD
1000
RTLwPs
1070
   158
  0
INSERT
  5
1FE
100
AcDbEntity
  8
寸法
  6
CONTINUOUS
 62
     1
100
AcDbBlockReference
  2
_OPEN30
 10
52.0
 20
0.0
 30
0.0
 41
2.0
 42
2.0
 43
2.0
1001
ACAD
1000
RTLwPs
1070
   158
  0
INSERT
  5
1FF
100
AcDbEntity
  8
寸法
  6
CONTINUOUS
 62
     1
100
AcDbBlockReference
  2
_OPEN30
 10
0.0
 20
0.0
 30
0.0
 41
2.0
 42
2.0
 43
2.0
 50
180.0
1001
ACAD
1000
RTLwPs
1070
   158
  0
MTEXT
  5
200
100
AcDbEntity
  8
寸法
  6
CONTINUOUS
 62
     1
100
AcDbMText
 10
26.0
 20
2.5
 30
0.0
 40
3.0
 41
0.0
 71
     5
 72
     1
  1
\A1;52
1001
ACAD
1000
MTEXTBEGIN
1070
    73
1070
     1
1070
    44
1040
1.0
1070
    74
1070
     0
1000
MTEXTEND
1000
MTEXTBEGIN
1070
    73
1070
     1
1070
    44
1040
1.0
1070
    74
1070
     0
1000
MTEXTEND
  0
POINT
  5
201
100
AcDbEntity
  8
DEFPOINTS
  6
CONTINUOUS
 62
     0
100
AcDbPoint
 10
52.0
 20
22.546479
 30
0.0
  0
POINT
  5
202
100
AcDbEntity
  8
DEFPOINTS
  6
CONTINUOUS
 62
     0
100
AcDbPoint
 10
0.0
 20
16.546479
 30
0.0
  0
POINT
  5
203
100
AcDbEntity
  8
DEFPOINTS
  6
CONTINUOUS
 62
     0
100
AcDbPoint
 10
0.0
 20
0.0
 30
0.0
  0
ENDBLK
  5
205
100
AcDbEntity
  8
0
100
AcDbBlockEnd
  0
BLOCK
  5
211
100
AcDbEntity
  8
0
100
AcDbBlockBegin
  2
*D7
 70
     1
 10
0.0
 20
0.0
 30
0.0
  3
*D7
  1

  0
LINE
  5
314
100
AcDbEntity
  8
寸法
  6
CONTINUOUS
 62
     1
100
AcDbLine
 10
52.0
 20
21.546479
 30
0.0
 11
52.0
 21
9.0
 31
0.0
  0
LINE
  5
315
100
AcDbEntity
  8
寸法
  6
CONTINUOUS
 62
     1
100
AcDbLine
 10
44.0
 20
17.950479
 30
0.0
 11
44.0
 21
9.0
 31
0.0
  0
LINE
  5
316
100
AcDbEntity
  8
寸法
  6
CONTINUOUS
 62
     1
100
AcDbLine
 10
50.0
 20
10.0
 30
0.0
 11
46.0
 21
10.0
 31
0.0
  0
INSERT
  5
317
100
AcDbEntity
  8
寸法
  6
CONTINUOUS
 62
     1
100
AcDbBlockReference
  2
_OPEN30
 10
52.0
 20
10.0
 30
0.0
 41
2.0
 42
2.0
 43
2.0
  0
INSERT
  5
318
100
AcDbEntity
  8
寸法
  6
CONTINUOUS
 62
     1
100
AcDbBlockReference
  2
_OPEN30
 10
44.0
 20
10.0
 30
0.0
 41
2.0
 42
2.0
 43
2.0
 50
180.0
  0
MTEXT
  5
319
100
AcDbEntity
  8
寸法
  6
CONTINUOUS
 62
     1
100
AcDbMText
 10
48.0
 20
12.5
 30
0.0
 40
3.0
 41
0.0
 71
     5
 72
     1
  1
\A1;8
  0
POINT
  5
31A
100
AcDbEntity
  8
DEFPOINTS
  6
CONTINUOUS
 62
     0
100
AcDbPoint
 10
52.0
 20
22.546479
 30
0.0
  0
POINT
  5
31B
100
AcDbEntity
  8
DEFPOINTS
  6
CONTINUOUS
 62
     0
100
AcDbPoint
 10
44.0
 20
18.950479
 30
0.0
  0
POINT
  5
31C
100
AcDbEntity
  8
DEFPOINTS
  6
CONTINUOUS
 62
     0
100
AcDbPoint
 10
44.0
 20
10.0
 30
0.0
  0
ENDBLK
  5
212
100
AcDbEntity
  8
0
100
AcDbBlockEnd
  0
BLOCK
  5
227
100
AcDbEntity
  8
0
100
AcDbBlockBegin
  2
*D8
 70
     1
 10
0.0
 20
0.0
 30
0.0
  3
*D8
  1

  0
LINE
  5
21E
100
AcDbEntity
  8
寸法
  6
CONTINUOUS
 62
     1
100
AcDbLine
 10
-1.8
 20
30.546479
 30
0.0
 11
-11.0
 21
30.546479
 31
0.0
1001
ACAD
1000
RTLwPs
1070
   158
  0
LINE
  5
21F
100
AcDbEntity
  8
寸法
  6
CONTINUOUS
 62
     1
100
AcDbLine
 10
-1.0
 20
16.546479
 30
0.0
 11
-11.0
 21
16.546479
 31
0.0
1001
ACAD
1000
RTLwPs
1070
   158
  0
LINE
  5
220
100
AcDbEntity
  8
寸法
  6
CONTINUOUS
 62
     1
100
AcDbLine
 10
-10.0
 20
28.546479
 30
0.0
 11
-10.0
 21
18.546479
 31
0.0
1001
ACAD
1000
RTLwPs
1070
   158
  0
INSERT
  5
221
100
AcDbEntity
  8
寸法
  6
CONTINUOUS
 62
     1
100
AcDbBlockReference
  2
_OPEN30
 10
-10.0
 20
30.546479
 30
0.0
 41
2.0
 42
2.0
 43
2.0
 50
90.0
1001
ACAD
1000
RTLwPs
1070
   158
  0
INSERT
  5
222
100
AcDbEntity
  8
寸法
  6
CONTINUOUS
 62
     1
100
AcDbBlockReference
  2
_OPEN30
 10
-10.0
 20
16.546479
 30
0.0
 41
2.0
 42
2.0
 43
2.0
 50
270.0
1001
ACAD
1000
RTLwPs
1070
   158
  0
MTEXT
  5
223
100
AcDbEntity
  8
寸法
  6
CONTINUOUS
 62
     1
100
AcDbMText
 10
-12.5
 20
23.546479
 30
0.0
 40
3.0
 41
0.0
 71
     5
 72
     1
  1
\A1;14
 11
0.0
 21
1.0
 31
0.0
1001
ACAD
1000
MTEXTBEGIN
1070
    73
1070
     1
1070
    44
1040
1.0
1070
    74
1070
     0
1000
MTEXTEND
1000
MTEXTBEGIN
1070
    73
1070
     1
1070
    44
1040
1.0
1070
    74
1070
     0
1000
MTEXTEND
  0
POINT
  5
224
100
AcDbEntity
  8
DEFPOINTS
  6
CONTINUOUS
 62
     0
100
AcDbPoint
 10
-0.8
 20
30.546479
 30
0.0
  0
POINT
  5
225
100
AcDbEntity
  8
DEFPOINTS
  6
CONTINUOUS
 62
     0
100
AcDbPoint
 10
0.0
 20
16.546479
 30
0.0
  0
POINT
  5
226
100
AcDbEntity
  8
DEFPOINTS
  6
CONTINUOUS
 62
     0
100
AcDbPoint
 10
-10.0
 20
16.546479
 30
0.0
  0
ENDBLK
  5
228
100
AcDbEntity
  8
0
100
AcDbBlockEnd
  0
BLOCK
  5
243
100
AcDbEntity
  8
0
100
AcDbBlockBegin
  2
*D9
 70
     1
 10
0.0
 20
0.0
 30
0.0
  3
*D9
  1

  0
LINE
  5
31D
100
AcDbEntity
  8
寸法
  6
CONTINUOUS
 62
     1
100
AcDbLine
 10
10.568665
 20
-17.867324
 30
0.0
 11
-21.068246
 21
-17.867324
 31
0.0
  0
LINE
  5
31E
100
AcDbEntity
  8
寸法
  6
CONTINUOUS
 62
     1
100
AcDbLine
 10
-1.825116
 20
-19.55915
 30
0.0
 11
-20.874651
 21
-21.561337
 31
0.0
  0
ARC
  5
31F
100
AcDbEntity
  8
寸法
  6
CONTINUOUS
 62
     1
100
AcDbCircle
 10
14.271541
 20
-17.867324
 30
0.0
 40
34.339787
100
AcDbArc
 50
173.322239
 51
180.0
  0
LINE
  5
320
100
AcDbEntity
  8
寸法
  6
CONTINUOUS
 62
     1
100
AcDbLine
 10
-19.83528
 20
-13.874114
 30
0.0
 11
-18.835227
 21
-5.332457
 31
0.0
  0
ARC
  5
321
100
AcDbEntity
  8
寸法
  6
CONTINUOUS
 62
     1
100
AcDbCircle
 10
14.271541
 20
-17.867324
 30
0.0
 40
34.339787
100
AcDbArc
 50
173.325074
 51
176.662537
  0
ARC
  5
322
100
AcDbEntity
  8
寸法
  6
CONTINUOUS
 62
     1
100
AcDbCircle
 10
14.271541
 20
-17.867324
 30
0.0
 40
34.339787
100
AcDbArc
 50
189.337461
 51
192.674924
  0
ARC
  5
323
100
AcDbEntity
  8
寸法
  6
CONTINUOUS
 62
     1
100
AcDbCircle
 10
14.271541
 20
-17.867324
 30
0.0
 40
34.339787
100
AcDbArc
 50
180.0
 51
185.999998
  0
INSERT
  5
324
100
AcDbEntity
  8
寸法
  6
CONTINUOUS
 62
     1
100
AcDbBlockReference
  2
_OPEN30
 10
-20.068246
 20
-17.867324
 30
0.0
 41
2.0
 42
2.0
 43
2.0
 50
268.331269
  0
INSERT
  5
325
100
AcDbEntity
  8
寸法
  6
CONTINUOUS
 62
     1
100
AcDbBlockReference
  2
_OPEN30
 10
-19.880129
 20
-21.456808
 30
0.0
 41
2.0
 42
2.0
 43
2.0
 50
97.66873
  0
MTEXT
  5
326
100
AcDbEntity
  8
寸法
  6
CONTINUOUS
 62
     1
100
AcDbMText
 10
-16.852214
 20
-9.893999
 30
0.0
 40
3.0
 41
0.0
 71
     5
 72
     1
  1
\A1;6°
 11
-0.116285
 21
-0.993216
 31
0.0
  0
POINT
  5
327
100
AcDbEntity
  8
DEFPOINTS
  6
CONTINUOUS
 62
     0
100
AcDbPoint
 10
-19.984596
 20
-20.262746
 30
0.0
  0
POINT
  5
328
100
AcDbEntity
  8
DEFPOINTS
  6
CONTINUOUS
 62
     0
100
AcDbPoint
 10
11.568665
 20
-17.867324
 30
0.0
  0
POINT
  5
329
100
AcDbEntity
  8
DEFPOINTS
  6
CONTINUOUS
 62
     0
100
AcDbPoint
 10
-0.830595
 20
-19.454622
 30
0.0
  0
POINT
  5
32A
100
AcDbEntity
  8
DEFPOINTS
  6
CONTINUOUS
 62
     0
100
AcDbPoint
 10
9.523263
 20
-18.366388
 30
0.0
  0
POINT
  5
32B
100
AcDbEntity
  8
DEFPOINTS
  6
CONTINUOUS
 62
     0
100
AcDbPoint
 10
44.0
 20
-17.867324
 30
0.0
  0
ENDBLK
  5
244
100
AcDbEntity
  8
0
100
AcDbBlockEnd
  0
BLOCK
  5
256
100
AcDbEntity
  8
0
100
AcDbBlockBegin
  2
*D10
 70
     1
 10
0.0
 20
0.0
 30
0.0
  3
*D10
  1

  0
LINE
  5
32C
100
AcDbEntity
  8
寸法
  6
CONTINUOUS
 62
     1
100
AcDbLine
 10
0.087156
 20
15.550284
 30
0.0
 11
1.106295
 21
3.901466
 31
0.0
  0
ARC
  5
32D
100
AcDbEntity
  8
寸法
  6
CONTINUOUS
 62
     1
100
AcDbCircle
 10
0.0
 20
16.546479
 30
0.0
 40
11.693315
100
AcDbArc
 50
250.30366
 51
270.0
  0
LINE
  5
32E
100
AcDbEntity
  8
寸法
  6
CONTINUOUS
 62
     1
100
AcDbLine
 10
-3.941058
 20
5.537315
 30
0.0
 11
-12.03789
 21
8.435817
 31
0.0
  0
ARC
  5
32F
100
AcDbEntity
  8
寸法
  6
CONTINUOUS
 62
     1
100
AcDbCircle
 10
0.0
 20
16.546479
 30
0.0
 40
11.693315
100
AcDbArc
 50
250.376532
 51
260.188266
  0
ARC
  5
330
100
AcDbEntity
  8
寸法
  6
CONTINUOUS
 62
     1
100
AcDbCircle
 10
0.0
 20
16.546479
 30
0.0
 40
11.693315
100
AcDbArc
 50
284.811734
 51
294.623468
  0
ARC
  5
331
100
AcDbEntity
  8
寸法
  6
CONTINUOUS
 62
     1
100
AcDbCircle
 10
0.0
 20
16.546479
 30
0.0
 40
11.693315
100
AcDbArc
 50
270.0
 51
275.0
  0
INSERT
  5
332
100
AcDbEntity
  8
寸法
  6
CONTINUOUS
 62
     1
100
AcDbBlockReference
  2
_OPEN30
 10
0.0
 20
4.853164
 30
0.0
 41
2.0
 42
2.0
 43
2.0
 50
355.094133
  0
INSERT
  5
333
100
AcDbEntity
  8
寸法
  6
CONTINUOUS
 62
     1
100
AcDbBlockReference
  2
_OPEN30
 10
1.01914
 20
4.89766
 30
0.0
 41
2.0
 42
2.0
 43
2.0
 50
189.905867
  0
MTEXT
  5
334
100
AcDbEntity
  8
寸法
  6
CONTINUOUS
 62
     1
100
AcDbMText
 10
-7.146886
 20
9.340297
 30
0.0
 40
3.0
 41
0.0
 71
     5
 72
     1
  1
\A1;5°
 11
0.941492
 21
-0.337035
 31
0.0
  0
POINT
  5
335
100
AcDbEntity
  8
DEFPOINTS
  6
CONTINUOUS
 62
     0
100
AcDbPoint
 10
0.679906
 20
4.872947
 30
0.0
  0
POINT
  5
336
100
AcDbEntity
  8
DEFPOINTS
  6
CONTINUOUS
 62
     0
100
AcDbPoint
 10
0.0
 20
16.546479
 30
0.0
  0
POINT
  5
337
100
AcDbEntity
  8
DEFPOINTS
  6
CONTINUOUS
 62
     0
100
AcDbPoint
 10
-0.830594
 20
26.040217
 30
0.0
  0
POINT
  5
338
100
AcDbEntity
  8
DEFPOINTS
  6
CONTINUOUS
 62
     0
100
AcDbPoint
 10
0.0
 20
16.546479
 30
0.0
  0
POINT
  5
339
100
AcDbEntity
  8
DEFPOINTS
  6
CONTINUOUS
 62
     0
100
AcDbPoint
 10
0.0
 20
-12.306938
 30
0.0
  0
ENDBLK
  5
257
100
AcDbEntity
  8
0
100
AcDbBlockEnd
  0
BLOCK
  5
26D
100
AcDbEntity
  8
0
100
AcDbBlockBegin
  2
*D11
 70
     1
 10
0.0
 20
0.0
 30
0.0
  3
*D11
  1

  0
LINE
  5
33A
100
AcDbEntity
  8
寸法
  6
CONTINUOUS
 62
     1
100
AcDbLine
 10
-50.109126
 20
15.54648
 30
0.0
 11
-50.109126
 21
2.469809
 31
0.0
  0
LINE
  5
33B
100
AcDbEntity
  8
寸法
  6
CONTINUOUS
 62
     1
100
AcDbLine
 10
-47.337762
 20
15.556212
 30
0.0
 11
-45.543457
 21
2.789072
 31
0.0
  0
ARC
  5
33C
100
AcDbEntity
  8
寸法
  6
CONTINUOUS
 62
     1
100
AcDbCircle
 10
-50.109126
 20
35.275493
 30
0.0
 40
31.805684
100
AcDbArc
 50
266.396542
 51
270.0
  0
LINE
  5
33D
100
AcDbEntity
  8
寸法
  6
CONTINUOUS
 62
     1
100
AcDbLine
 10
-52.108137
 20
3.532691
 30
0.0
 11
-60.691135
 21
4.073208
 31
0.0
  0
ARC
  5
33E
100
AcDbEntity
  8
寸法
  6
CONTINUOUS
 62
     1
100
AcDbCircle
 10
-50.109126
 20
35.275493
 30
0.0
 40
31.805684
100
AcDbArc
 50
273.603458
 51
274.396542
  0
INSERT
  5
33F
100
AcDbEntity
  8
寸法
  6
CONTINUOUS
 62
     1
100
AcDbBlockReference
  2
_OPEN30
 10
-50.109126
 20
3.469809
 30
0.0
 41
2.0
 42
2.0
 43
2.0
 50
181.801729
  0
INSERT
  5
340
100
AcDbEntity
  8
寸法
  6
CONTINUOUS
 62
     1
100
AcDbBlockReference
  2
_OPEN30
 10
-45.682631
 20
3.77934
 30
0.0
 41
2.0
 42
2.0
 43
2.0
 50
6.198271
  0
MTEXT
  5
341
100
AcDbEntity
  8
寸法
  6
CONTINUOUS
 62
     1
100
AcDbMText
 10
-56.242509
 20
6.298007
 30
0.0
 40
3.0
 41
0.0
 71
     5
 72
     1
  1
\A1;8°
 11
0.998023
 21
-0.062851
 31
0.0
  0
POINT
  5
342
100
AcDbEntity
  8
DEFPOINTS
  6
CONTINUOUS
 62
     0
100
AcDbPoint
 10
-47.152792
 20
3.607503
 30
0.0
  0
POINT
  5
343
100
AcDbEntity
  8
DEFPOINTS
  6
CONTINUOUS
 62
     0
100
AcDbPoint
 10
-50.109126
 20
35.275493
 30
0.0
  0
POINT
  5
344
100
AcDbEntity
  8
DEFPOINTS
  6
CONTINUOUS
 62
     0
100
AcDbPoint
 10
-47.476935
 20
16.54648
 30
0.0
  0
POINT
  5
345
100
AcDbEntity
  8
DEFPOINTS
  6
CONTINUOUS
 62
     0
100
AcDbPoint
 10
-50.109126
 20
35.275493
 30
0.0
  0
POINT
  5
346
100
AcDbEntity
  8
DEFPOINTS
  6
CONTINUOUS
 62
     0
100
AcDbPoint
 10
-50.109126
 20
16.54648
 30
0.0
  0
ENDBLK
  5
26E
100
AcDbEntity
  8
0
100
AcDbBlockEnd
  0
BLOCK
  5
277
100
AcDbEntity
  8
0
100
AcDbBlockBegin
  2
*D12
 70
     1
 10
0.0
 20
0.0
 30
0.0
  3
*D12
  1

  0
LINE
  5
279
100
AcDbEntity
  8
寸法
  6
CONTINUOUS
 62
     1
100
AcDbLine
 10
-81.331458
 20
21.081565
 30
0.0
 11
-69.226752
 21
26.584463
 31
0.0
1001
ACAD
1000
RTLwPs
1070
   158
  0
MTEXT
  5
27A
100
AcDbEntity
  8
寸法
  6
CONTINUOUS
 62
     1
100
AcDbMText
 10
-77.814359
 20
25.426679
 30
0.0
 40
3.0
 41
0.0
 71
     5
 72
     1
  1
\A1;%%c38
 11
0.910345
 21
0.41385
 31
0.0
1001
ACAD
1000
MTEXTBEGIN
1070
    73
1070
     1
1070
    44
1040
1.0
1070
    74
1070
     0
1000
MTEXTEND
1000
MTEXTBEGIN
1070
    73
1070
     1
1070
    44
1040
1.0
1070
    74
1070
     0
1000
MTEXTEND
  0
LINE
  5
27B
100
AcDbEntity
  8
寸法
  6
CONTINUOUS
 62
     1
100
AcDbLine
 10
-50.109126
 20
35.275493
 30
0.0
 11
-67.406062
 21
27.412164
 31
0.0
1001
ACAD
1000
RTLwPs
1070
   158
  0
INSERT
  5
27C
100
AcDbEntity
  8
寸法
  6
CONTINUOUS
 62
     1
100
AcDbBlockReference
  2
_OPEN30
 10
-67.406062
 20
27.412164
 30
0.0
 41
2.0
 42
2.0
 43
2.0
 50
24.446934
1001
ACAD
1000
RTLwPs
1070
   158
  0
POINT
  5
27D
100
AcDbEntity
  8
DEFPOINTS
  6
CONTINUOUS
 62
     0
100
AcDbPoint
 10
-67.406062
 20
27.412164
 30
0.0
  0
POINT
  5
27E
100
AcDbEntity
  8
DEFPOINTS
  6
CONTINUOUS
 62
     0
100
AcDbPoint
 10
-50.109126
 20
35.275493
 30
0.0
  0
ENDBLK
  5
278
100
AcDbEntity
  8
0
100
AcDbBlockEnd
  0
ENDSEC
  0
SECTION
  2
ENTITIES
  0
POINT
  5
24
100
AcDbEntity
  8
0
  6
CONTINUOUS
 62
     7
100
AcDbPoint
 10
0.0
 20
16.546479
 30
0.0
  0
POINT
  5
25
100
AcDbEntity
  8
0
  6
CONTINUOUS
 62
     7
100
AcDbPoint
 10
-46.909125
 20
16.54648
 30
0.0
  0
POINT
  5
26
100
AcDbEntity
  8
0
  6
CONTINUOUS
 62
     7
100
AcDbPoint
 10
0.0
 20
-19.367323
 30
0.0
  0
POINT
  5
27
100
AcDbEntity
  8
0
  6
CONTINUOUS
 62
     7
100
AcDbPoint
 10
89.662105
 20
-31.367323
 30
0.0
  0
LINE
  5
28
100
AcDbEntity
  8
0
  6
CONTINUOUS
 62
     7
100
AcDbLine
 10
0.848817
 20
-31.367323
 30
0.0
 11
44.0
 21
-31.367323
 31
0.0
  0
LINE
  5
29
100
AcDbEntity
  8
0
  6
CONTINUOUS
 62
     7
100
AcDbLine
 10
11.568665
 20
-17.867324
 30
0.0
 11
44.0
 21
-17.867324
 31
0.0
  0
LINE
  5
2A
100
AcDbEntity
  8
0
  6
CENTER
 62
     1
 48
0.5
100
AcDbLine
 10
31.999998
 20
-15.044345
 30
0.0
 11
31.999998
 21
-35.232424
 31
0.0
  0
LINE
  5
2B
100
AcDbEntity
  8
0
  6
CENTER
 62
     1
 48
0.5
100
AcDbLine
 10
33.75
 20
-16.562905
 30
0.0
 11
33.75
 21
-30.563563
 31
0.0
  0
LINE
  5
2C
100
AcDbEntity
  8
0
  6
CENTER
 62
     1
 48
0.5
100
AcDbLine
 10
30.249998
 20
-16.562905
 30
0.0
 11
30.249998
 21
-30.709402
 31
0.0
  0
LINE
  5
2D
100
AcDbEntity
  8
0
  6
CENTER
 62
     1
 48
0.5
100
AcDbLine
 10
7.572107
 20
-25.367323
 30
0.0
 11
14.427889
 21
-25.367323
 31
0.0
  0
LINE
  5
2E
100
AcDbEntity
  8
0
  6
CENTER
 62
     1
 48
0.5
100
AcDbLine
 10
10.999998
 20
-21.877579
 30
0.0
 11
10.999998
 21
-29.337326
 31
0.0
  0
LINE
  5
2F
100
AcDbEntity
  8
0
  6
CONTINUOUS
 62
     7
100
AcDbLine
 10
-0.830594
 20
26.040217
 30
0.0
 11
0.0
 21
16.546479
 31
0.0
  0
LINE
  5
30
100
AcDbEntity
  8
0
  6
CONTINUOUS
 62
     7
100
AcDbLine
 10
15.0
 20
17.858809
 30
0.0
 11
0.0
 21
16.546479
 31
0.0
  0
LINE
  5
31
100
AcDbEntity
  8
0
  6
CONTINUOUS
 62
     7
100
AcDbLine
 10
8.663135
 20
26.870811
 30
0.0
 11
-0.830594
 21
26.040217
 31
0.0
  0
LINE
  5
32
100
AcDbEntity
  8
0
  6
CONTINUOUS
 62
     7
100
AcDbLine
 10
8.663135
 20
26.870811
 30
0.0
 11
9.49373
 21
17.377073
 31
0.0
  0
LINE
  5
33
100
AcDbEntity
  8
0
  6
CONTINUOUS
 62
     7
100
AcDbLine
 10
-52.909125
 20
30.546479
 30
0.0
 11
-52.909125
 21
17.54648
 31
0.0
  0
LINE
  5
34
100
AcDbEntity
  8
0
  6
CONTINUOUS
 62
     7
100
AcDbLine
 10
-58.909125
 20
29.546479
 30
0.0
 11
-58.909125
 21
19.730301
 31
0.0
  0
LINE
  5
35
100
AcDbEntity
  8
0
  6
CONTINUOUS
 62
     7
100
AcDbLine
 10
89.662097
 20
-31.367323
 30
0.0
 11
99.478277
 21
-31.367323
 31
0.0
  0
LINE
  5
36
100
AcDbEntity
  8
0
  6
CONTINUOUS
 62
     7
100
AcDbLine
 10
100.478275
 20
-18.867315
 30
0.0
 11
100.478275
 21
-30.367323
 31
0.0
  0
LINE
  5
37
100
AcDbEntity
  8
0
  6
CONTINUOUS
 62
     7
100
AcDbLine
 10
90.478275
 20
-17.867324
 30
0.0
 11
99.478275
 21
-17.867324
 31
0.0
  0
LINE
  5
38
100
AcDbEntity
  8
0
  6
CONTINUOUS
 62
     7
100
AcDbLine
 10
99.478275
 20
-17.867318
 30
0.0
 11
100.478282
 21
-18.867319
 31
0.0
  0
LINE
  5
39
100
AcDbEntity
  8
0
  6
CONTINUOUS
 62
     7
100
AcDbLine
 10
100.478282
 20
-30.367321
 30
0.0
 11
99.478277
 21
-31.367323
 31
0.0
  0
LINE
  5
3A
100
AcDbEntity
  8
0
  6
CONTINUOUS
 62
     7
100
AcDbLine
 10
90.478275
 20
-17.867324
 30
0.0
 11
88.882144
 21
-29.224394
 31
0.0
  0
LINE
  5
3B
100
AcDbEntity
  8
0
  6
CONTINUOUS
 62
     7
100
AcDbLine
 10
96.307842
 20
-19.499613
 30
0.0
 11
94.846523
 21
-29.897427
 31
0.0
  0
LINE
  5
3C
100
AcDbEntity
  8
0
  6
CONTINUOUS
 62
     7
100
AcDbLine
 10
88.882152
 20
-29.224411
 30
0.0
 11
89.662105
 21
-31.367321
 31
0.0
  0
LINE
  5
3D
100
AcDbEntity
  8
0
  6
CONTINUOUS
 62
     7
100
AcDbLine
 10
15.0
 20
-29.224411
 30
0.0
 11
44.0
 21
-29.224411
 31
0.0
  0
LINE
  5
3E
100
AcDbEntity
  8
0
  6
CONTINUOUS
 62
     7
100
AcDbLine
 10
-45.409127
 20
29.546479
 30
0.0
 11
-45.409127
 21
17.377073
 31
0.0
  0
LINE
  5
3F
100
AcDbEntity
  8
0
  6
CONTINUOUS
 62
     7
100
AcDbLine
 10
-0.209144
 20
-25.367323
 30
0.0
 11
5.014463
 21
-25.367323
 31
0.0
  0
LINE
  5
40
100
AcDbEntity
  8
0
  6
CONTINUOUS
 62
     7
100
AcDbLine
 10
5.014463
 20
-22.057909
 30
0.0
 11
5.014463
 21
-25.367323
 31
0.0
  0
LINE
  5
41
100
AcDbEntity
  8
0
  6
CONTINUOUS
 62
     7
100
AcDbLine
 10
-50.109126
 20
16.54648
 30
0.0
 11
-46.909125
 21
16.54648
 31
0.0
  0
LINE
  5
42
100
AcDbEntity
  8
0
  6
CONTINUOUS
 62
     7
100
AcDbLine
 10
-50.109126
 20
26.040216
 30
0.0
 11
-46.909125
 21
26.040216
 31
0.0
  0
LINE
  5
43
100
AcDbEntity
  8
0
  6
CENTER
 62
     1
 48
0.5
100
AcDbLine
 10
4.0701
 20
24.697233
 30
0.0
 11
4.593035
 21
18.720064
 31
0.0
  0
LINE
  5
44
100
AcDbEntity
  8
0
  6
CENTER
 62
     1
 48
0.5
100
AcDbLine
 10
7.320152
 20
21.970115
 30
0.0
 11
1.342984
 21
21.447181
 31
0.0
  0
LINE
  5
45
100
AcDbEntity
  8
0
  6
CENTER
 62
     1
 48
0.5
100
AcDbLine
 10
31.999998
 20
33.14288
 30
0.0
 11
31.999998
 21
15.72848
 31
0.0
  0
LINE
  5
47
100
AcDbEntity
  8
0
  6
CONTINUOUS
 62
     7
100
AcDbLine
 10
15.0
 20
-17.867324
 30
0.0
 11
15.0
 21
-29.224411
 31
0.0
  0
LINE
  5
48
100
AcDbEntity
  8
0
  6
CONTINUOUS
 62
     7
100
AcDbLine
 10
5.014463
 20
-25.367325
 30
0.0
 11
14.999999
 21
-29.224411
 31
0.0
  0
LINE
  5
49
100
AcDbEntity
  8
0
  6
CONTINUOUS
 62
     7
100
AcDbLine
 10
-0.8
 20
30.546479
 30
0.0
 11
44.0
 21
30.546479
 31
0.0
  0
LINE
  5
4A
100
AcDbEntity
  8
0
  6
CONTINUOUS
 62
     7
100
AcDbLine
 10
11.568665
 20
29.546479
 30
0.0
 11
44.0
 21
29.546479
 31
0.0
  0
LINE
  5
4B
100
AcDbEntity
  8
0
  6
CONTINUOUS
 62
     7
100
AcDbLine
 10
-57.909125
 20
30.546479
 30
0.0
 11
-46.409127
 21
30.546479
 31
0.0
  0
LINE
  5
4C
100
AcDbEntity
  8
0
  6
CONTINUOUS
 62
     7
100
AcDbLine
 10
-46.409127
 20
30.54648
 30
0.0
 11
-45.409127
 21
29.546479
 31
0.0
  0
LINE
  5
4D
100
AcDbEntity
  8
0
  6
CONTINUOUS
 62
     7
100
AcDbLine
 10
-52.909125
 20
17.54648
 30
0.0
 11
-50.109126
 21
17.54648
 31
0.0
  0
LINE
  5
4E
100
AcDbEntity
  8
0
  6
CONTINUOUS
 62
     7
100
AcDbLine
 10
-52.909125
 20
17.546481
 30
0.0
 11
-58.909125
 21
19.730302
 31
0.0
  0
LINE
  5
4F
100
AcDbEntity
  8
0
  6
CONTINUOUS
 62
     7
100
AcDbLine
 10
15.5
 20
18.950479
 30
0.0
 11
44.0
 21
18.950479
 31
0.0
  0
LINE
  5
50
100
AcDbEntity
  8
0
  6
CONTINUOUS
 62
     7
100
AcDbLine
 10
15.5
 20
20.546479
 30
0.0
 11
43.969406
 21
20.546479
 31
0.0
  0
LINE
  5
51
100
AcDbEntity
  8
0
  6
CONTINUOUS
 62
     7
100
AcDbLine
 10
15.0
 20
20.046479
 30
0.0
 11
15.0
 21
17.858809
 31
0.0
  0
LINE
  5
52
100
AcDbEntity
  8
0
  6
CONTINUOUS
 62
     7
100
AcDbLine
 10
44.0
 20
30.546479
 30
0.0
 11
44.0
 21
18.950479
 31
0.0
  0
LINE
  5
53
100
AcDbEntity
  8
0
  6
CONTINUOUS
 62
     7
100
AcDbLine
 10
52.0
 20
26.546479
 30
0.0
 11
52.0
 21
22.546479
 31
0.0
  0
LINE
  5
54
100
AcDbEntity
  8
0
  6
CENTER
 62
     1
 48
0.5
100
AcDbLine
 10
41.556175
 20
24.546479
 30
0.0
 11
53.855949
 21
24.546479
 31
0.0
  0
LINE
  5
55
100
AcDbEntity
  8
0
  6
CONTINUOUS
 62
     7
100
AcDbLine
 10
47.0
 20
28.546479
 30
0.0
 11
47.0
 21
20.546479
 31
0.0
  0
LINE
  5
56
100
AcDbEntity
  8
0
  6
CONTINUOUS
 62
     7
100
AcDbLine
 10
44.0
 20
22.046479
 30
0.0
 11
47.0
 21
22.046479
 31
0.0
  0
LINE
  5
57
100
AcDbEntity
  8
0
  6
CONTINUOUS
 62
     7
100
AcDbLine
 10
44.0
 20
27.046479
 30
0.0
 11
47.0
 21
27.046479
 31
0.0
  0
LINE
  5
58
100
AcDbEntity
  8
0
  6
CONTINUOUS
 62
     7
100
AcDbLine
 10
49.5
 20
29.046477
 30
0.0
 11
52.0
 21
26.546478
 31
0.0
  0
LINE
  5
59
100
AcDbEntity
  8
0
  6
CONTINUOUS
 62
     7
100
AcDbLine
 10
49.499996
 20
20.046478
 30
0.0
 11
51.999996
 21
22.546478
 31
0.0
  0
LINE
  5
5A
100
AcDbEntity
  8
0
  6
CONTINUOUS
 62
     7
100
AcDbLine
 10
47.5
 20
20.046479
 30
0.0
 11
49.5
 21
20.046479
 31
0.0
  0
LINE
  5
5B
100
AcDbEntity
  8
0
  6
CONTINUOUS
 62
     7
100
AcDbLine
 10
47.5
 20
29.046479
 30
0.0
 11
49.5
 21
29.046479
 31
0.0
  0
LINE
  5
5C
100
AcDbEntity
  8
0
  6
CONTINUOUS
 62
     7
100
AcDbLine
 10
47.499996
 20
29.046475
 30
0.0
 11
47.0
 21
28.546477
 31
0.0
  0
LINE
  5
5D
100
AcDbEntity
  8
0
  6
CONTINUOUS
 62
     7
100
AcDbLine
 10
47.000004
 20
20.546482
 30
0.0
 11
47.500004
 21
20.046482
 31
0.0
  0
LINE
  5
5E
100
AcDbEntity
  8
0
  6
CONTINUOUS
 62
     7
100
AcDbLine
 10
47.5
 20
29.046479
 30
0.0
 11
47.5
 21
20.046478
 31
0.0
  0
LINE
  5
5F
100
AcDbEntity
  8
0
  6
CONTINUOUS
 62
     7
100
AcDbLine
 10
49.5
 20
29.046479
 30
0.0
 11
49.5
 21
20.046479
 31
0.0
  0
LINE
  5
60
100
AcDbEntity
  8
0
  6
CONTINUOUS
 62
     7
100
AcDbLine
 10
44.0
 20
22.546479
 30
0.0
 11
47.0
 21
22.546479
 31
0.0
  0
LINE
  5
61
100
AcDbEntity
  8
0
  6
CONTINUOUS
 62
     7
100
AcDbLine
 10
44.0
 20
26.546479
 30
0.0
 11
47.0
 21
26.546479
 31
0.0
  0
LINE
  5
62
100
AcDbEntity
  8
0
  6
CONTINUOUS
 62
     7
100
AcDbLine
 10
44.0
 20
-17.867324
 30
0.0
 11
44.0
 21
-31.367323
 31
0.0
  0
LINE
  5
63
100
AcDbEntity
  8
0
  6
CONTINUOUS
 62
     7
100
AcDbLine
 10
52.0
 20
-22.867323
 30
0.0
 11
52.0
 21
-26.867323
 31
0.0
  0
LINE
  5
64
100
AcDbEntity
  8
0
  6
CENTER
 62
     1
 48
0.5
100
AcDbLine
 10
41.731628
 20
-24.867323
 30
0.0
 11
58.285015
 21
-24.867323
 31
0.0
  0
LINE
  5
65
100
AcDbEntity
  8
0
  6
CONTINUOUS
 62
     7
100
AcDbLine
 10
47.0
 20
-20.867323
 30
0.0
 11
47.0
 21
-28.867323
 31
0.0
  0
LINE
  5
66
100
AcDbEntity
  8
0
  6
CONTINUOUS
 62
     7
100
AcDbLine
 10
44.0
 20
-27.367323
 30
0.0
 11
47.0
 21
-27.367323
 31
0.0
  0
LINE
  5
67
100
AcDbEntity
  8
0
  6
CONTINUOUS
 62
     7
100
AcDbLine
 10
44.0
 20
-22.367323
 30
0.0
 11
47.0
 21
-22.367323
 31
0.0
  0
LINE
  5
68
100
AcDbEntity
  8
0
  6
CONTINUOUS
 62
     7
100
AcDbLine
 10
49.5
 20
-20.367325
 30
0.0
 11
52.0
 21
-22.867325
 31
0.0
  0
LINE
  5
69
100
AcDbEntity
  8
0
  6
CONTINUOUS
 62
     7
100
AcDbLine
 10
49.5
 20
-29.367323
 30
0.0
 11
52.0
 21
-26.867323
 31
0.0
  0
LINE
  5
6A
100
AcDbEntity
  8
0
  6
CONTINUOUS
 62
     7
100
AcDbLine
 10
47.5
 20
-29.367323
 30
0.0
 11
49.5
 21
-29.367323
 31
0.0
  0
LINE
  5
6B
100
AcDbEntity
  8
0
  6
CONTINUOUS
 62
     7
100
AcDbLine
 10
47.5
 20
-20.367323
 30
0.0
 11
49.5
 21
-20.367323
 31
0.0
  0
LINE
  5
6C
100
AcDbEntity
  8
0
  6
CONTINUOUS
 62
     7
100
AcDbLine
 10
47.499996
 20
-20.367325
 30
0.0
 11
47.0
 21
-20.867323
 31
0.0
  0
LINE
  5
6D
100
AcDbEntity
  8
0
  6
CONTINUOUS
 62
     7
100
AcDbLine
 10
47.000004
 20
-28.867323
 30
0.0
 11
47.500004
 21
-29.367321
 31
0.0
  0
LINE
  5
6E
100
AcDbEntity
  8
0
  6
CONTINUOUS
 62
     7
100
AcDbLine
 10
47.5
 20
-20.367323
 30
0.0
 11
47.5
 21
-29.367323
 31
0.0
  0
LINE
  5
6F
100
AcDbEntity
  8
0
  6
CONTINUOUS
 62
     7
100
AcDbLine
 10
49.5
 20
-20.367323
 30
0.0
 11
49.5
 21
-29.367323
 31
0.0
  0
LINE
  5
70
100
AcDbEntity
  8
0
  6
CONTINUOUS
 62
     7
100
AcDbLine
 10
44.0
 20
-26.867323
 30
0.0
 11
47.0
 21
-26.867323
 31
0.0
  0
LINE
  5
71
100
AcDbEntity
  8
0
  6
CONTINUOUS
 62
     7
100
AcDbLine
 10
44.0
 20
-22.867323
 30
0.0
 11
47.0
 21
-22.867323
 31
0.0
  0
LINE
  5
72
100
AcDbEntity
  8
0
  6
CONTINUOUS
 62
     7
100
AcDbLine
 10
-0.830595
 20
-19.454622
 30
0.0
 11
9.523263
 21
-18.366388
 31
0.0
  0
LINE
  5
73
100
AcDbEntity
  8
0
  6
CONTINUOUS
 62
     7
100
AcDbLine
 10
-0.496104
 20
-22.637091
 30
0.0
 11
9.857754
 21
-21.548857
 31
0.0
  0
LINE
  5
74
100
AcDbEntity
  8
0
  6
CONTINUOUS
 62
     7
100
AcDbLine
 10
0.0
 20
-19.367323
 30
0.0
 11
0.630625
 21
-25.367323
 31
0.0
  0
LINE
  5
75
100
AcDbEntity
  8
0
  6
CONTINUOUS
 62
     7
100
AcDbLine
 10
-58.909125
 20
29.54648
 30
0.0
 11
-57.909125
 21
30.546481
 31
0.0
  0
LINE
  5
76
100
AcDbEntity
  8
0
  6
CONTINUOUS
 62
     7
100
AcDbLine
 10
-0.830595
 20
-19.454622
 30
0.0
 11
-0.209145
 21
-25.367325
 31
0.0
  0
LINE
  5
77
100
AcDbEntity
  8
0
  6
CONTINUOUS
 62
     7
100
AcDbLine
 10
-0.8
 20
30.546479
 30
0.0
 11
-0.8
 21
26.042894
 31
0.0
  0
LINE
  5
79
100
AcDbEntity
  8
0
  6
CONTINUOUS
 62
     7
100
AcDbLine
 10
-46.909125
 20
30.546479
 30
0.0
 11
-46.909125
 21
16.54648
 31
0.0
  0
LINE
  5
7A
100
AcDbEntity
  8
0
  6
CONTINUOUS
 62
     7
100
AcDbLine
 10
-50.109126
 20
26.040216
 30
0.0
 11
-50.109126
 21
16.54648
 31
0.0
  0
LINE
  5
7B
100
AcDbEntity
  8
0
  6
CONTINUOUS
 62
     7
100
AcDbLine
 10
-50.741557
 20
30.503491
 30
0.0
 11
-46.909125
 21
26.040215
 31
0.0
  0
LINE
  5
7C
100
AcDbEntity
  8
0
  6
CONTINUOUS
 62
     7
100
AcDbLine
 10
-45.911324
 20
26.870808
 30
0.0
 11
-45.911324
 21
17.377073
 31
0.0
  0
LINE
  5
7D
100
AcDbEntity
  8
0
  6
CONTINUOUS
 62
     7
100
AcDbLine
 10
-46.909125
 20
16.546479
 30
0.0
 11
-45.911326
 21
17.377072
 31
0.0
  0
LINE
  5
7E
100
AcDbEntity
  8
0
  6
CONTINUOUS
 62
     7
100
AcDbLine
 10
-46.909125
 20
26.040216
 30
0.0
 11
-45.911324
 21
26.870809
 31
0.0
  0
LINE
  5
7F
100
AcDbEntity
  8
0
  6
CONTINUOUS
 62
     7
100
AcDbLine
 10
-45.911324
 20
17.377073
 30
0.0
 11
-45.409127
 21
17.377073
 31
0.0
  0
LINE
  5
80
100
AcDbEntity
  8
0
  6
CONTINUOUS
 62
     7
100
AcDbLine
 10
-0.8
 20
-19.167322
 30
0.0
 11
11.568665
 21
-17.867324
 31
0.0
  0
LINE
  5
81
100
AcDbEntity
  8
0
  6
CONTINUOUS
 62
     7
100
AcDbLine
 10
11.568665
 20
29.546479
 30
0.0
 11
11.568665
 21
17.558606
 31
0.0
  0
LINE
  5
82
100
AcDbEntity
  8
0
  6
CONTINUOUS
 62
     7
100
AcDbLine
 10
9.49373
 20
-18.085407
 30
0.0
 11
9.857754
 21
-21.548857
 31
0.0
  0
LINE
  5
83
100
AcDbEntity
  8
0
  6
CONTINUOUS
 62
     7
100
AcDbLine
 10
4.915976
 20
30.546479
 30
0.0
 11
11.568666
 21
29.546479
 31
0.0
  0
LINE
  5
84
100
AcDbEntity
  8
0
  6
CENTER
 62
     1
 48
0.5
100
AcDbLine
 10
111.287108
 20
-26.906405
 30
0.0
 11
83.090061
 21
-22.943569
 31
0.0
  0
LINE
  5
85
100
AcDbEntity
  8
0
  6
CONTINUOUS
 62
     7
100
AcDbLine
 10
100.478275
 20
-28.618773
 30
0.0
 11
95.131824
 21
-27.867376
 31
0.0
  0
LINE
  5
86
100
AcDbEntity
  8
0
  6
CONTINUOUS
 62
     7
100
AcDbLine
 10
100.478275
 20
-22.155874
 30
0.0
 11
96.022533
 21
-21.529661
 31
0.0
  0
LINE
  5
87
100
AcDbEntity
  8
0
  6
CONTINUOUS
 62
     7
100
AcDbLine
 10
94.846523
 20
-29.897427
 30
0.0
 11
88.904911
 21
-29.062388
 31
0.0
  0
LINE
  5
88
100
AcDbEntity
  8
0
  6
CONTINUOUS
 62
     7
100
AcDbLine
 10
96.307842
 20
-19.499613
 30
0.0
 11
90.366229
 21
-18.664574
 31
0.0
  0
LINE
  5
89
100
AcDbEntity
  8
0
  6
CONTINUOUS
 62
     7
100
AcDbLine
 10
30.249998
 20
-18.664574
 30
0.0
 11
33.75
 21
-18.664574
 31
0.0
  0
LINE
  5
8A
100
AcDbEntity
  8
0
  6
CONTINUOUS
 62
     7
100
AcDbLine
 10
30.249998
 20
-19.499613
 30
0.0
 11
33.75
 21
-19.499613
 31
0.0
  0
LINE
  5
8B
100
AcDbEntity
  8
0
  6
CONTINUOUS
 62
     7
100
AcDbLine
 10
30.249998
 20
-21.529661
 30
0.0
 11
33.75
 21
-21.529661
 31
0.0
  0
LINE
  5
8C
100
AcDbEntity
  8
0
  6
CONTINUOUS
 62
     7
100
AcDbLine
 10
30.249998
 20
-22.155874
 30
0.0
 11
33.75
 21
-22.155874
 31
0.0
  0
LINE
  5
8D
100
AcDbEntity
  8
0
  6
CONTINUOUS
 62
     7
100
AcDbLine
 10
30.249998
 20
-29.062388
 30
0.0
 11
33.75
 21
-29.062388
 31
0.0
  0
LINE
  5
8E
100
AcDbEntity
  8
0
  6
CONTINUOUS
 62
     7
100
AcDbLine
 10
30.249998
 20
-27.867378
 30
0.0
 11
33.75
 21
-27.867378
 31
0.0
  0
LINE
  5
8F
100
AcDbEntity
  8
0
  6
CONTINUOUS
 62
     7
100
AcDbLine
 10
-0.799999
 20
-19.167322
 30
0.0
 11
-0.799999
 21
-19.451407
 31
0.0
  0
LINE
  5
90
100
AcDbEntity
  8
0
  6
CONTINUOUS
 62
     7
100
AcDbLine
 10
0.630625
 20
-25.367323
 30
0.0
 11
1.688587
 21
-31.367323
 31
0.0
  0
LINE
  5
91
100
AcDbEntity
  8
0
  6
CONTINUOUS
 62
     7
100
AcDbLine
 10
-0.209144
 20
-25.367323
 30
0.0
 11
0.848818
 21
-31.367323
 31
0.0
  0
CIRCLE
  5
92
100
AcDbEntity
  8
0
  6
CONTINUOUS
 62
     7
100
AcDbCircle
 10
10.999998
 20
-25.367323
 30
0.0
 40
2.0
  0
CIRCLE
  5
93
100
AcDbEntity
  8
0
  6
CONTINUOUS
 62
     7
100
AcDbCircle
 10
10.999998
 20
-25.367323
 30
0.0
 40
1.75
  0
CIRCLE
  5
94
100
AcDbEntity
  8
0
  6
CENTER
 62
     1
 48
0.5
100
AcDbCircle
 10
4.331568
 20
21.708649
 30
0.0
 40
1.975
  0
ARC
  5
95
100
AcDbEntity
  8
0
  6
CONTINUOUS
 62
     7
100
AcDbCircle
 10
8.837447
 20
24.878421
 30
0.0
 40
2.0
100
AcDbArc
 50
0.0
 51
95.000002
  0
ARC
  5
96
100
AcDbEntity
  8
0
  6
CONTINUOUS
 62
     7
100
AcDbCircle
 10
8.837447
 20
24.878421
 30
0.0
 40
2.0
100
AcDbArc
 50
275.0
 51
0.0
  0
ARC
  5
97
100
AcDbEntity
  8
0
  6
CONTINUOUS
 62
     7
100
AcDbCircle
 10
15.5
 20
20.046479
 30
0.0
 40
0.5
100
AcDbArc
 50
90.000003
 51
180.00001
  0
ARC
  5
98
100
AcDbEntity
  8
0
  6
CONTINUOUS
 62
     7
100
AcDbCircle
 10
15.5
 20
18.450479
 30
0.0
 40
0.5
100
AcDbArc
 50
90.000003
 51
180.00001
  0
LWPOLYLINE
  5
99
100
AcDbEntity
  8
0
  6
CONTINUOUS
 62
     7
100
AcDbPolyline
 90
       17
 70
     0
 43
0.0
 10
30.249998
 20
-18.664574
 42
0.048416
 10
29.230781
 20
-18.763486
 42
0.048522
 10
28.249646
 20
-19.056743
 42
0.048718
 10
27.343562
 20
-19.533945
 42
0.048977
 10
26.547219
 20
-20.177884
 42
0.049271
 10
25.891639
 20
-20.964988
 42
0.049546
 10
25.403119
 20
-21.865625
 42
0.049752
 10
25.101739
 20
-22.844934
 42
0.049813
 10
24.999998
 20
-23.863482
 42
0.049822
 10
25.101775
 20
-24.882209
 42
0.049704
 10
25.402812
 20
-25.860607
 42
0.04952
 10
25.89089
 20
-26.76087
 42
0.049257
 10
26.546064
 20
-27.54794
 42
0.048988
 10
27.342378
 20
-28.192237
 42
0.048743
 10
28.248822
 20
-28.669882
 42
0.048553
 10
29.230553
 20
-28.963431
 42
0.048427
 10
30.249998
 20
-29.062388
  0
LWPOLYLINE
  5
AC
100
AcDbEntity
  8
0
  6
CONTINUOUS
 62
     7
100
AcDbPolyline
 90
       17
 70
     0
 43
0.0
 10
30.249998
 20
-19.499613
 42
0.020693
 10
29.773763
 20
-19.519326
 42
0.02081
 10
29.300131
 20
-19.578522
 42
0.020986
 10
28.833057
 20
-19.677049
 42
0.021244
 10
28.375992
 20
-19.8146
 42
0.021587
 10
27.932372
 20
-19.990735
 42
0.02201
 10
27.505753
 20
-20.204827
 42
0.022507
 10
27.099825
 20
-20.456008
 42
0.023069
 10
26.718406
 20
-20.74311
 42
0.023681
 10
26.365418
 20
-21.064586
 42
0.024326
 10
26.044842
 20
-21.418439
 42
0.024981
 10
25.760641
 20
-21.80215
 42
0.025619
 10
25.51665
 20
-22.212614
 42
0.026205
 10
25.316436
 20
-22.646109
 42
0.026708
 10
25.163142
 20
-23.098302
 42
0.027095
 10
25.059313
 20
-23.564295
 42
0.027337
 10
25.006741
 20
-24.038742
  0
LWPOLYLINE
  5
BF
100
AcDbEntity
  8
0
  6
CONTINUOUS
 62
     7
100
AcDbPolyline
 90
       17
 70
     0
 43
0.0
 10
30.249998
 20
-21.529661
 42
0.048369
 10
29.62936
 20
-21.589833
 42
0.048521
 10
29.031301
 20
-21.768467
 42
0.048718
 10
28.478966
 20
-22.059228
 42
0.048977
 10
27.993501
 20
-22.451631
 42
0.04927
 10
27.593817
 20
-22.931312
 42
0.049546
 10
27.295946
 20
-23.480215
 42
0.049752
 10
27.112132
 20
-24.077091
 42
0.049862
 10
27.049997
 20
-24.698519
 42
0.049751
 10
27.111858
 20
-25.31859
 42
0.049704
 10
27.295179
 20
-25.914997
 42
0.04952
 10
27.59252
 20
-26.463813
 42
0.049258
 10
27.99173
 20
-26.943663
 42
0.048988
 10
28.476993
 20
-27.336512
 42
0.048744
 10
29.029411
 20
-27.627801
 42
0.048553
 10
29.62775
 20
-27.806891
 42
0.048496
 10
30.249998
 20
-27.867378
  0
LWPOLYLINE
  5
D2
100
AcDbEntity
  8
0
  6
CONTINUOUS
 62
     7
100
AcDbPolyline
 90
       17
 70
     0
 43
0.0
 10
30.249998
 20
-22.155874
 42
0.019876
 10
29.96546
 20
-22.167186
 42
0.020011
 10
29.68218
 20
-22.201192
 42
0.020181
 10
29.402854
 20
-22.257762
 42
0.020468
 10
29.129058
 20
-22.336815
 42
0.020851
 10
28.862718
 20
-22.438189
 42
0.021328
 10
28.60585
 20
-22.561642
 42
0.021892
 10
28.360573
 20
-22.706812
 42
0.022537
 10
28.12912
 20
-22.873184
 42
0.02325
 10
27.913825
 20
-23.060036
 42
0.024014
 10
27.717106
 20
-23.266384
 42
0.024802
 10
27.541425
 20
-23.490933
 42
0.025585
 10
27.38922
 20
-23.732017
 42
0.026321
 10
27.262819
 20
-23.987567
 42
0.026969
 10
27.164327
 20
-24.255095
 42
0.027483
 10
27.095507
 20
-24.531713
 42
0.027825
 10
27.057654
 20
-24.814196
  0
LWPOLYLINE
  5
E5
100
AcDbEntity
  8
0
  6
CONTINUOUS
 62
     7
100
AcDbPolyline
 90
       17
 70
     0
 43
0.0
 10
33.75
 20
-21.529661
 42
-0.048369
 10
34.370638
 20
-21.589833
 42
-0.048522
 10
34.968696
 20
-21.768467
 42
-0.048718
 10
35.521031
 20
-22.059228
 42
-0.048977
 10
36.006496
 20
-22.451631
 42
-0.04927
 10
36.406179
 20
-22.931313
 42
-0.049546
 10
36.704049
 20
-23.480215
 42
-0.049751
 10
36.887863
 20
-24.077092
 42
-0.049862
 10
36.949997
 20
-24.698519
 42
-0.049751
 10
36.888136
 20
-25.31859
 42
-0.049704
 10
36.704816
 20
-25.914997
 42
-0.04952
 10
36.407476
 20
-26.463812
 42
-0.049258
 10
36.008266
 20
-26.943662
 42
-0.048988
 10
35.523004
 20
-27.336512
 42
-0.048744
 10
34.970586
 20
-27.627801
 42
-0.048553
 10
34.372247
 20
-27.806891
 42
-0.048496
 10
33.75
 20
-27.867378
  0
LWPOLYLINE
  5
F8
100
AcDbEntity
  8
0
  6
CONTINUOUS
 62
     7
100
AcDbPolyline
 90
       17
 70
     0
 43
0.0
 10
33.75
 20
-22.155874
 42
-0.019876
 10
34.034538
 20
-22.167186
 42
-0.020011
 10
34.317818
 20
-22.201192
 42
-0.020181
 10
34.597144
 20
-22.257762
 42
-0.020468
 10
34.870939
 20
-22.336815
 42
-0.020851
 10
35.137279
 20
-22.438189
 42
-0.021328
 10
35.394147
 20
-22.561642
 42
-0.021892
 10
35.639423
 20
-22.706812
 42
-0.022537
 10
35.870877
 20
-22.873184
 42
-0.02325
 10
36.086172
 20
-23.060036
 42
-0.024014
 10
36.28289
 20
-23.266384
 42
-0.024802
 10
36.45857
 20
-23.490933
 42
-0.025585
 10
36.610775
 20
-23.732017
 42
-0.026321
 10
36.737176
 20
-23.987568
 42
-0.026968
 10
36.835667
 20
-24.255096
 42
-0.027483
 10
36.904488
 20
-24.531713
 42
-0.027825
 10
36.942341
 20
-24.814196
  0
LWPOLYLINE
  5
10B
100
AcDbEntity
  8
0
  6
CONTINUOUS
 62
     7
100
AcDbPolyline
 90
       17
 70
     0
 43
0.0
 10
33.75
 20
-19.499613
 42
-0.020693
 10
34.226235
 20
-19.519326
 42
-0.02081
 10
34.699867
 20
-19.578522
 42
-0.020986
 10
35.166941
 20
-19.677049
 42
-0.021244
 10
35.624006
 20
-19.8146
 42
-0.021587
 10
36.067626
 20
-19.990735
 42
-0.02201
 10
36.494245
 20
-20.204827
 42
-0.022507
 10
36.900173
 20
-20.456008
 42
-0.023069
 10
37.281592
 20
-20.74311
 42
-0.023681
 10
37.63458
 20
-21.064586
 42
-0.024326
 10
37.955156
 20
-21.418439
 42
-0.024981
 10
38.239357
 20
-21.80215
 42
-0.025619
 10
38.483348
 20
-22.212614
 42
-0.026205
 10
38.683562
 20
-22.646109
 42
-0.026708
 10
38.836856
 20
-23.098302
 42
-0.027095
 10
38.940685
 20
-23.564295
 42
-0.027337
 10
38.993257
 20
-24.038742
  0
LWPOLYLINE
  5
11E
100
AcDbEntity
  8
0
  6
CONTINUOUS
 62
     7
100
AcDbPolyline
 90
       17
 70
     0
 43
0.0
 10
33.75
 20
-18.664574
 42
-0.048416
 10
34.769218
 20
-18.763486
 42
-0.048522
 10
35.750352
 20
-19.056743
 42
-0.048718
 10
36.656437
 20
-19.533945
 42
-0.048977
 10
37.452779
 20
-20.177884
 42
-0.049271
 10
38.108359
 20
-20.964988
 42
-0.049546
 10
38.596879
 20
-21.865625
 42
-0.049752
 10
38.898259
 20
-22.844934
 42
-0.049813
 10
39.0
 20
-23.863482
 42
-0.049822
 10
38.898223
 20
-24.882209
 42
-0.049704
 10
38.597186
 20
-25.860607
 42
-0.04952
 10
38.109108
 20
-26.76087
 42
-0.049257
 10
37.453934
 20
-27.54794
 42
-0.048988
 10
36.65762
 20
-28.192237
 42
-0.048743
 10
35.751176
 20
-28.669882
 42
-0.048553
 10
34.769445
 20
-28.963431
 42
-0.048427
 10
33.75
 20
-29.062388
  0
LWPOLYLINE
  5
131
100
AcDbEntity
  8
0
  6
CONTINUOUS
 62
     7
100
AcDbPolyline
 90
       16
 70
     1
 43
0.0
 10
39.0
 20
19.703776
 42
0.125503
 10
37.332598
 20
20.177106
 42
0.014682
 10
35.559903
 20
20.332894
 42
0.008453
 10
33.78161
 20
20.410373
 42
0.006836
 10
31.999998
 20
20.434435
 42
0.006828
 10
30.220154
 20
20.410422
 42
0.008453
 10
28.441296
 20
20.332968
 42
0.014684
 10
26.66773
 20
20.177147
 42
0.125607
 10
24.999998
 20
19.703776
 42
0.125503
 10
26.6674
 20
19.230446
 42
0.014682
 10
28.440095
 20
19.074658
 42
0.008453
 10
30.218388
 20
18.997179
 42
0.006836
 10
31.999998
 20
18.973117
 42
0.006828
 10
33.779842
 20
18.99713
 42
0.008453
 10
35.5587
 20
19.074584
 42
0.014684
 10
37.332266
 20
19.230405
 42
0.125607
  0
LINE
  5
143
100
AcDbEntity
  8
0
  6
CONTINUOUS
 62
     7
100
AcDbLine
 10
97.416817
 20
-31.367323
 30
0.0
 11
100.20392
 21
-28.580215
 31
0.0
  0
LINE
  5
144
100
AcDbEntity
  8
0
  6
CONTINUOUS
 62
     7
100
AcDbLine
 10
95.171756
 20
-31.367323
 30
0.0
 11
98.235501
 21
-28.303572
 31
0.0
  0
LINE
  5
145
100
AcDbEntity
  8
0
  6
CONTINUOUS
 62
     7
100
AcDbLine
 10
92.926694
 20
-31.367323
 30
0.0
 11
94.45203
 21
-29.841984
 31
0.0
  0
LINE
  5
146
100
AcDbEntity
  8
0
  6
CONTINUOUS
 62
     7
100
AcDbLine
 10
94.920096
 20
-29.373917
 30
0.0
 11
96.267082
 21
-28.026928
 31
0.0
  0
LINE
  5
147
100
AcDbEntity
  8
0
  6
CONTINUOUS
 62
     7
100
AcDbLine
 10
90.681633
 20
-31.367322
 30
0.0
 11
92.483611
 21
-29.565341
 31
0.0
  0
LINE
  5
148
100
AcDbEntity
  8
0
  6
CONTINUOUS
 62
     7
100
AcDbLine
 10
89.335077
 20
-30.468815
 30
0.0
 11
90.515192
 21
-29.288698
 31
0.0
  0
LINE
  5
149
100
AcDbEntity
  8
0
  6
CONTINUOUS
 62
     7
100
AcDbLine
 10
99.965174
 20
-22.083763
 30
0.0
 11
100.478275
 21
-21.570661
 31
0.0
  0
LINE
  5
14A
100
AcDbEntity
  8
0
  6
CONTINUOUS
 62
     7
100
AcDbLine
 10
97.996755
 20
-21.80712
 30
0.0
 11
100.478275
 21
-19.325595
 31
0.0
  0
LINE
  5
14B
100
AcDbEntity
  8
0
  6
CONTINUOUS
 62
     7
100
AcDbLine
 10
96.028335
 20
-21.530477
 30
0.0
 11
99.584881
 21
-17.973924
 31
0.0
  0
LINE
  5
14C
100
AcDbEntity
  8
0
  6
CONTINUOUS
 62
     7
100
AcDbLine
 10
95.874969
 20
-19.438777
 30
0.0
 11
97.446423
 21
-17.86732
 31
0.0
  0
LINE
  5
14D
100
AcDbEntity
  8
0
  6
CONTINUOUS
 62
     7
100
AcDbLine
 10
93.90655
 20
-19.162133
 30
0.0
 11
95.20136
 21
-17.867321
 31
0.0
  0
LINE
  5
14E
100
AcDbEntity
  8
0
  6
CONTINUOUS
 62
     7
100
AcDbLine
 10
91.938131
 20
-18.88549
 30
0.0
 11
92.956297
 21
-17.867322
 31
0.0
  0
LINE
  5
14F
100
AcDbEntity
  8
0
  6
CONTINUOUS
 62
     7
100
AcDbLine
 10
90.440181
 20
-18.138377
 30
0.0
 11
90.711234
 21
-17.867324
 31
0.0
  0
TEXT
  5
152
100
AcDbEntity
  8
0
  6
CONTINUOUS
100
AcDbText
 10
15.838703
 20
-66.243564
 30
0.0
 40
6.0
  1
BU184R
100
AcDbText
  0
LINE
  5
17B
102
{ACAD_REACTORS
330
185
102
}
100
AcDbEntity
  8
寸法
  6
CONTINUOUS
 62
     1
100
AcDbLine
 10
112.277376
 20
-27.045578
 30
0.0
 11
126.912022
 21
-29.102343
 31
0.0
  0
LINE
  5
17C
102
{ACAD_REACTORS
330
185
102
}
100
AcDbEntity
  8
寸法
  6
CONTINUOUS
 62
     1
100
AcDbLine
 10
100.478275
 20
-25.387323
 30
0.0
 11
127.171802
 21
-25.387323
 31
0.0
  0
ARC
  5
17D
102
{ACAD_REACTORS
330
185
102
}
100
AcDbEntity
  8
寸法
  6
CONTINUOUS
 62
     1
100
AcDbCircle
 10
100.478275
 20
-25.387323
 30
0.0
 40
25.693526
100
AcDbArc
 50
343.071091
 51
352.000001
  0
LINE
  5
17E
102
{ACAD_REACTORS
330
185
102
}
100
AcDbEntity
  8
寸法
  6
CONTINUOUS
 62
     1
100
AcDbLine
 10
125.058419
 20
-32.86889
 30
0.0
 11
122.554228
 21
-41.096225
 31
0.0
  0
ARC
  5
17F
102
{ACAD_REACTORS
330
185
102
}
100
AcDbEntity
  8
寸法
  6
CONTINUOUS
 62
     1
100
AcDbCircle
 10
100.478275
 20
-25.387323
 30
0.0
 40
25.693526
100
AcDbArc
 50
343.07787
 51
347.538935
  0
ARC
  5
180
102
{ACAD_REACTORS
330
185
102
}
100
AcDbEntity
  8
寸法
  6
CONTINUOUS
 62
     1
100
AcDbCircle
 10
100.478275
 20
-25.387323
 30
0.0
 40
25.693526
100
AcDbArc
 50
4.461066
 51
8.922131
  0
ARC
  5
181
102
{ACAD_REACTORS
330
185
102
}
100
AcDbEntity
  8
寸法
  6
CONTINUOUS
 62
     1
100
AcDbCircle
 10
100.478275
 20
-25.387323
 30
0.0
 40
25.693526
100
AcDbArc
 50
352.000001
 51
0.0
  0
INSERT
  5
182
102
{ACAD_REACTORS
330
185
102
}
100
AcDbEntity
  8
寸法
  6
CONTINUOUS
 62
     1
100
AcDbBlockReference
  2
_OPEN30
 10
125.921754
 20
-28.96317
 30
0.0
 41
2.0
 42
2.0
 43
2.0
 50
79.769468
  0
INSERT
  5
183
102
{ACAD_REACTORS
330
185
102
}
100
AcDbEntity
  8
寸法
  6
CONTINUOUS
 62
     1
100
AcDbBlockReference
  2
_OPEN30
 10
126.171802
 20
-25.387323
 30
0.0
 41
2.0
 42
2.0
 43
2.0
 50
272.230533
  0
MTEXT
  5
184
102
{ACAD_REACTORS
330
185
102
}
100
AcDbEntity
  8
寸法
  6
CONTINUOUS
 62
     1
100
AcDbMText
 10
121.414657
 20
-36.254595
 30
0.0
 40
3.0
 41
0.0
 71
     5
 72
     1
  1
\A1;8°
 11
0.291185
 21
0.956667
 31
0.0
1001
ACAD
1000
MTEXTBEGIN
1070
    73
1070
     1
1070
    44
1040
1.0
1070
    74
1070
     0
1000
MTEXTEND
1000
MTEXTBEGIN
1070
    73
1070
     1
1070
    44
1040
1.0
1070
    74
1070
     0
1000
MTEXTEND
  0
DIMENSION
  5
186
100
AcDbEntity
  8
寸法
  6
CONTINUOUS
100
AcDbDimension
  2
*D1
 10
110.109508
 20
-31.367323
 30
0.0
 11
107.609508
 21
-40.867323
 31
0.0
 70
    32
  3
STANDARD
100
AcDbAlignedDimension
 13
100.478275
 23
-25.387323
 33
0.0
 14
99.478277
 24
-31.367323
 34
0.0
 50
90.0
100
AcDbRotatedDimension
  0
DIMENSION
  5
1A0
100
AcDbEntity
  8
寸法
  6
CONTINUOUS
100
AcDbDimension
  2
*D2
 10
30.249998
 20
-40.0
 30
0.0
 11
22.249998
 21
-37.5
 31
0.0
 70
    32
  3
STANDARD
100
AcDbAlignedDimension
 13
33.75
 23
-30.563563
 33
0.0
 14
30.249998
 24
-30.709402
 34
0.0
100
AcDbRotatedDimension
  0
DIMENSION
  5
1D2
100
AcDbEntity
  8
寸法
  6
CONTINUOUS
100
AcDbDimension
  2
*D3
 10
70.0
 20
-31.367323
 30
0.0
 11
67.5
 21
-24.617323
 31
0.0
 70
    32
  3
STANDARD
100
AcDbAlignedDimension
 13
44.0
 23
-17.867324
 33
0.0
 14
44.0
 24
-31.367323
 34
0.0
 50
90.0
100
AcDbRotatedDimension
  0
DIMENSION
  5
1DF
100
AcDbEntity
  8
寸法
  6
CONTINUOUS
100
AcDbDimension
  2
*D4
 10
-10.0
 20
-31.367323
 30
0.0
 11
-12.5
 21
-25.410972
 31
0.0
 70
    32
  1
12
  3
STANDARD
100
AcDbAlignedDimension
 13
-0.830595
 23
-19.454622
 33
0.0
 14
0.848817
 24
-31.367323
 34
0.0
 50
90.0
100
AcDbRotatedDimension
  0
DIMENSION
  5
1EC
100
AcDbEntity
  8
寸法
  6
CONTINUOUS
100
AcDbDimension
  2
*D5
 10
31.999998
 20
-10.0
 30
0.0
 11
41.999999
 21
-7.5
 31
0.0
 70
    32
  3
STANDARD
100
AcDbAlignedDimension
 13
52.0
 23
-22.867323
 33
0.0
 14
31.999998
 24
-15.044345
 34
0.0
100
AcDbRotatedDimension
  0
DIMENSION
  5
1F9
100
AcDbEntity
  8
寸法
  6
CONTINUOUS
100
AcDbDimension
  2
*D6
 10
0.0
 20
0.0
 30
0.0
 11
26.0
 21
2.5
 31
0.0
 70
    32
  3
STANDARD
100
AcDbAlignedDimension
 13
52.0
 23
22.546479
 33
0.0
 14
0.0
 24
16.546479
 34
0.0
100
AcDbRotatedDimension
  0
DIMENSION
  5
206
100
AcDbEntity
  8
寸法
  6
CONTINUOUS
100
AcDbDimension
  2
*D7
 10
44.0
 20
10.0
 30
0.0
 11
48.0
 21
12.5
 31
0.0
 70
    32
  3
STANDARD
100
AcDbAlignedDimension
 13
52.0
 23
22.546479
 33
0.0
 14
44.0
 24
18.950479
 34
0.0
100
AcDbRotatedDimension
1001
ACAD
1000
DSTYLE
1002
{
1070
   287
1070
     4
1070
   287
1070
     4
1070
   279
1070
     1
1002
}
  0
DIMENSION
  5
21C
100
AcDbEntity
  8
寸法
  6
CONTINUOUS
100
AcDbDimension
  2
*D8
 10
-10.0
 20
16.546479
 30
0.0
 11
-12.5
 21
23.546479
 31
0.0
 70
    32
  3
STANDARD
100
AcDbAlignedDimension
 13
-0.8
 23
30.546479
 33
0.0
 14
0.0
 24
16.546479
 34
0.0
 50
90.0
100
AcDbRotatedDimension
  0
DIMENSION
  5
232
100
AcDbEntity
  8
寸法
  6
CONTINUOUS
100
AcDbDimension
  2
*D9
 10
44.0
 20
-17.867324
 30
0.0
 11
-16.852214
 21
-9.893999
 31
0.0
 70
    34
  3
STANDARD
100
AcDb2LineAngularDimension
 13
-0.830595
 23
-19.454622
 33
0.0
 14
9.523263
 24
-18.366388
 34
0.0
 15
11.568665
 25
-17.867324
 35
0.0
 16
-19.984596
 26
-20.262746
 36
0.0
1001
ACAD
1000
DSTYLE
1002
{
1070
   271
1070
     0
1070
   271
1070
     0
1002
}
  0
DIMENSION
  5
246
100
AcDbEntity
  8
寸法
  6
CONTINUOUS
100
AcDbDimension
  2
*D10
 10
0.0
 20
-12.306938
 30
0.0
 11
-7.146886
 21
9.340297
 31
0.0
 70
    34
  3
STANDARD
100
AcDb2LineAngularDimension
 13
-0.830594
 23
26.040217
 33
0.0
 14
0.0
 24
16.546479
 34
0.0
 15
0.0
 25
16.546479
 35
0.0
 16
0.679906
 26
4.872947
 36
0.0
1001
ACAD
1000
DSTYLE
1002
{
1070
   271
1070
     0
1070
   271
1070
     0
1002
}
  0
LINE
  5
258
100
AcDbEntity
  8
0
  6
CENTER
 62
     1
 48
0.5
100
AcDbLine
 10
-47.476935
 20
16.54648
 30
0.0
 11
-50.109126
 21
35.275493
 31
0.0
  0
ARC
  5
25B
100
AcDbEntity
  8
0
  6
CENTER
 62
     1
 48
0.5
100
AcDbCircle
 10
-50.109126
 20
35.275493
 30
0.0
 40
19.000419
100
AcDbArc
 50
180.0
 51
0.0
  0
LINE
  5
25D
100
AcDbEntity
  8
0
  6
CONTINUOUS
100
AcDbLine
 10
-50.109126
 20
35.275493
 30
0.0
 11
-50.109126
 21
16.54648
 31
0.0
  0
DIMENSION
  5
25E
100
AcDbEntity
  8
寸法
  6
CONTINUOUS
100
AcDbDimension
  2
*D11
 10
-50.109126
 20
16.54648
 30
0.0
 11
-56.242509
 21
6.298007
 31
0.0
 70
    34
  3
STANDARD
100
AcDb2LineAngularDimension
 13
-47.476935
 23
16.54648
 33
0.0
 14
-50.109126
 24
35.275493
 34
0.0
 15
-50.109126
 25
35.275493
 35
0.0
 16
-47.152792
 26
3.607503
 36
0.0
1001
ACAD
1000
DSTYLE
1002
{
1070
   271
1070
     0
1070
   271
1070
     0
1002
}
  0
DIMENSION
  5
26F
100
AcDbEntity
  8
寸法
  6
CONTINUOUS
100
AcDbDimension
  2
*D12
 10
-50.109126
 20
35.275493
 30
0.0
 11
-76.779733
 21
23.150816
 31
0.0
 70
   164
  1
%%c38
  3
STANDARD
100
AcDbRadialDimension
 15
-67.406062
 25
27.412164
 35
0.0
 40
0.0
1001
ACAD
1000
DSTYLE
1002
{
1070
   288
1070
     1
1002
}
  0
ENDSEC
  0
SECTION
  2
OBJECTS
  0
DICTIONARY
  5
C
100
AcDbDictionary
  3
ACAD_GROUP
350
D
  3
ACAD_LAYOUT
350
157
  3
ACAD_MLINESTYLE
350
1B
  3
ACAD_PLOTSETTINGS
350
158
  3
ACAD_PLOTSTYLENAME
350
155
  3
ACDBHEADERROUNDTRIPXREC
350
2ED
  0
DICTIONARY
  5
2E9
100
AcDbDictionary
280
     1
  3
ACAD_XREC_ROUNDTRIP
360
2EA
  0
DICTIONARY
  5
310
100
AcDbDictionary
280
     1
  3
ACAD_XREC_ROUNDTRIP
360
311
  0
DICTIONARY
  5
2A9
100
AcDbDictionary
280
     1
  3
ACAD_LAYOUTSELFREF
360
30F
  0
DICTIONARY
  5
2A7
100
AcDbDictionary
280
     1
  3
ACAD_LAYOUTSELFREF
360
30E
  0
DICTIONARY
  5
2E7
100
AcDbDictionary
280
     1
  3
ACAD_XREC_ROUNDTRIP
360
2E8
  0
DICTIONARY
  5
D
102
{ACAD_REACTORS
330
C
102
}
100
AcDbDictionary
  3
*A1
350
185
  0
DICTIONARY
  5
157
102
{ACAD_XDICTIONARY
360
312
102
}
102
{ACAD_REACTORS
330
C
102
}
100
AcDbDictionary
  3
MODEL
350
159
  3
ﾚｲｱｳﾄ1
350
15A
  0
DICTIONARY
  5
1B
102
{ACAD_REACTORS
330
C
102
}
100
AcDbDictionary
  3
STANDARD
350
1C
  0
DICTIONARY
  5
158
102
{ACAD_REACTORS
330
C
102
}
100
AcDbDictionary
  0
ACAD_PROXY_OBJECT
  5
155
102
{ACAD_REACTORS
330
C
102
}
100
AcDbProxyObject
 90
      499
 91
      500
 93
       86
310
405010041939BDC9B585B0
350
156
340
156
 94
        0
  0
DICTIONARY
  5
2ED
102
{ACAD_REACTORS
330
C
102
}
100
AcDbDictionary
  3
CEPSNTYPE
350
2F7
  3
DIMSTYLEDATA
350
2FB
  3
FINGERPRINTGUID
350
2F8
  3
HYPERLINKBASE
350
2F0
  3
INSUNITS
350
2F6
  3
LAYOUTDICT
350
2F2
  3
LWETCUNION
350
2F5
  3
PLOTSETDICT
350
2F3
  3
PLOTSTYLNAMDICT
350
2F4
  3
PSVPSCALE
350
2FA
  3
PUCSBASE
350
2FE
  3
PUCSORGBACK
350
304
  3
PUCSORGBOTTOM
350
300
  3
PUCSORGFRONT
350
303
  3
PUCSORGLEFT
350
301
  3
PUCSORGRIGHT
350
302
  3
PUCSORGTOP
350
2FF
  3
PUCSORTHOREF
350
2FC
  3
PUCSORTHOVIEW
350
2FD
  3
STYLESHEET
350
2F1
  3
TSTACKALIGN
350
2EE
  3
TSTACKSIZE
350
2EF
  3
UCSBASE
350
307
  3
UCSORGBACK
350
30D
  3
UCSORGBOTTOM
350
309
  3
UCSORGFRONT
350
30C
  3
UCSORGLEFT
350
30A
  3
UCSORGRIGHT
350
30B
  3
UCSORGTOP
350
308
  3
UCSORTHOREF
350
305
  3
UCSORTHOVIEW
350
306
  3
VERSIONGUID
350
2F9
  0
XRECORD
  5
2EA
102
{ACAD_REACTORS
330
2E9
102
}
100
AcDbXrecord
102
EXTNAMES
  1
DEFPOINTS
  2
Defpoints
102
PLOTBIT
280
     0
  0
XRECORD
  5
311
102
{ACAD_REACTORS
330
310
102
}
100
AcDbXrecord
102
ACADR14ROUNDTRIP
1000
DSTYLE
1002
{
1070
   341
340
15F
1070
   342
340
15F
1002
}
  0
XRECORD
  5
30F
102
{ACAD_REACTORS
330
2A9
102
}
100
AcDbXrecord
340
18
  0
XRECORD
  5
30E
102
{ACAD_REACTORS
330
2A7
102
}
100
AcDbXrecord
340
15
  0
XRECORD
  5
2E8
102
{ACAD_REACTORS
330
2E7
102
}
100
AcDbXrecord
102
EXTNAMES
  1
_OPEN30
  2
_Open30
  0
GROUP
  5
185
102
{ACAD_REACTORS
330
D
102
}
100
AcDbGroup
300

 70
     1
 71
     1
340
17C
340
182
340
17D
340
184
340
17E
340
17F
340
17B
340
180
340
181
340
183
  0
DICTIONARY
  5
312
100
AcDbDictionary
280
     1
  3
ACAD_XREC_ROUNDTRIP
360
313
  0
ACAD_PROXY_OBJECT
  5
159
102
{ACAD_REACTORS
330
157
102
}
100
AcDbProxyObject
 90
      499
 91
      502
 93
      548
310
90E4550534F4E20504D2D32303030432C01AAAAAAAAA5A69054D6F64656C901A800000000000000000000000000000000000000000000A1000000000000008902A6A6AAAA0
330
18
330
0
340
0
340
0
 94
        0
  0
ACAD_PROXY_OBJECT
  5
15A
102
{ACAD_REACTORS
330
157
102
}
100
AcDbProxyObject
 90
      499
 91
      502
 93
      964
310
90E4550534F4E20504D2D32303030432C00AAAAAA416AA59106906DAB2B1B3C43140501A800000000000000000000000000000000000000000000A1000000000000008902A6A6A10232D5E076BC5510408CB5781DAF154410232D5E076BC5510408CB5781DAF15C410232D5E076BC5710408CB5781DAF15C40
330
15
330
0
340
0
340
0
 94
        0
  0
MLINESTYLE
  5
1C
102
{ACAD_REACTORS
330
1B
102
}
100
AcDbMlineStyle
  2
STANDARD
 70
     0
  3

 62
   256
 51
90.0
 52
90.0
 71
     2
 49
0.5
 62
   256
  6
BYLAYER
 49
-0.5
 62
   256
  6
BYLAYER
  0
ACAD_PROXY_OBJECT
  5
156
102
{ACAD_REACTORS
330
155
102
}
100
AcDbProxyObject
 90
      499
 91
      501
 93
        0
 94
        0
  0
XRECORD
  5
2F7
102
{ACAD_REACTORS
330
2ED
102
}
100
AcDbXrecord
 90
        0
  0
XRECORD
  5
2FB
102
{ACAD_REACTORS
330
2ED
102
}
100
AcDbXrecord
1000
DSTYLE
1002
{
1070
   341
340
15F
1070
   342
340
15F
1002
}
  0
XRECORD
  5
2F8
102
{ACAD_REACTORS
330
2ED
102
}
100
AcDbXrecord
  1
{841A4B51-1AA2-456F-8A00-E2A490068E81}
  0
XRECORD
  5
2F0
102
{ACAD_REACTORS
330
2ED
102
}
100
AcDbXrecord
  1

  0
XRECORD
  5
2F6
102
{ACAD_REACTORS
330
2ED
102
}
100
AcDbXrecord
 90
        0
  0
XRECORD
  5
2F2
102
{ACAD_REACTORS
330
2ED
102
}
100
AcDbXrecord
340
157
  0
XRECORD
  5
2F5
102
{ACAD_REACTORS
330
2ED
102
}
100
AcDbXrecord
 90
    14877
  0
XRECORD
  5
2F3
102
{ACAD_REACTORS
330
2ED
102
}
100
AcDbXrecord
340
158
  0
XRECORD
  5
2F4
102
{ACAD_REACTORS
330
2ED
102
}
100
AcDbXrecord
340
155
  0
XRECORD
  5
2FA
102
{ACAD_REACTORS
330
2ED
102
}
100
AcDbXrecord
 40
0.0
  0
XRECORD
  5
2FE
102
{ACAD_REACTORS
330
2ED
102
}
100
AcDbXrecord
340
0
  0
XRECORD
  5
304
102
{ACAD_REACTORS
330
2ED
102
}
100
AcDbXrecord
 10
0.0
 20
0.0
 30
0.0
  0
XRECORD
  5
300
102
{ACAD_REACTORS
330
2ED
102
}
100
AcDbXrecord
 10
0.0
 20
0.0
 30
0.0
  0
XRECORD
  5
303
102
{ACAD_REACTORS
330
2ED
102
}
100
AcDbXrecord
 10
0.0
 20
0.0
 30
0.0
  0
XRECORD
  5
301
102
{ACAD_REACTORS
330
2ED
102
}
100
AcDbXrecord
 10
0.0
 20
0.0
 30
0.0
  0
XRECORD
  5
302
102
{ACAD_REACTORS
330
2ED
102
}
100
AcDbXrecord
 10
0.0
 20
0.0
 30
0.0
  0
XRECORD
  5
2FF
102
{ACAD_REACTORS
330
2ED
102
}
100
AcDbXrecord
 10
0.0
 20
0.0
 30
0.0
  0
XRECORD
  5
2FC
102
{ACAD_REACTORS
330
2ED
102
}
100
AcDbXrecord
340
0
  0
XRECORD
  5
2FD
102
{ACAD_REACTORS
330
2ED
102
}
100
AcDbXrecord
 70
     0
  0
XRECORD
  5
2F1
102
{ACAD_REACTORS
330
2ED
102
}
100
AcDbXrecord
  1

  0
XRECORD
  5
2EE
102
{ACAD_REACTORS
330
2ED
102
}
100
AcDbXrecord
 90
        1
  0
XRECORD
  5
2EF
102
{ACAD_REACTORS
330
2ED
102
}
100
AcDbXrecord
 90
       70
  0
XRECORD
  5
307
102
{ACAD_REACTORS
330
2ED
102
}
100
AcDbXrecord
340
0
  0
XRECORD
  5
30D
102
{ACAD_REACTORS
330
2ED
102
}
100
AcDbXrecord
 10
0.0
 20
0.0
 30
0.0
  0
XRECORD
  5
309
102
{ACAD_REACTORS
330
2ED
102
}
100
AcDbXrecord
 10
0.0
 20
0.0
 30
0.0
  0
XRECORD
  5
30C
102
{ACAD_REACTORS
330
2ED
102
}
100
AcDbXrecord
 10
0.0
 20
0.0
 30
0.0
  0
XRECORD
  5
30A
102
{ACAD_REACTORS
330
2ED
102
}
100
AcDbXrecord
 10
0.0
 20
0.0
 30
0.0
  0
XRECORD
  5
30B
102
{ACAD_REACTORS
330
2ED
102
}
100
AcDbXrecord
 10
0.0
 20
0.0
 30
0.0
  0
XRECORD
  5
308
102
{ACAD_REACTORS
330
2ED
102
}
100
AcDbXrecord
 10
0.0
 20
0.0
 30
0.0
  0
XRECORD
  5
305
102
{ACAD_REACTORS
330
2ED
102
}
100
AcDbXrecord
340
0
  0
XRECORD
  5
306
102
{ACAD_REACTORS
330
2ED
102
}
100
AcDbXrecord
 70
     0
  0
XRECORD
  5
2F9
102
{ACAD_REACTORS
330
2ED
102
}
100
AcDbXrecord
  1
{52A329CA-0F85-41EE-8D49-E10E836AF9AD}
  0
XRECORD
  5
313
102
{ACAD_REACTORS
330
312
102
}
100
AcDbXrecord
102
EXTNAMES
  1
MODEL
  2
Model
  0
ENDSEC
  0
EOF
