  0
SECTION
  2
HEADER
  9
$ACADVER
  1
AC1014
  9
$ACADMAINTVER
 70
     0
  9
$DWGCODEPAGE
  3
ANSI_932
  9
$INSBASE
 10
0.0
 20
0.0
 30
0.0
  9
$EXTMIN
 10
-89.409082
 20
-104.010073
 30
0.0
  9
$EXTMAX
 10
144.919962
 20
33.282723
 30
0.0
  9
$LIMMIN
 10
-142.250461
 20
-128.420757
  9
$LIMMAX
 10
202.204256
 20
83.286794
  9
$ORTHOMODE
 70
     1
  9
$REGENMODE
 70
     1
  9
$FILLMODE
 70
     1
  9
$QTEXTMODE
 70
     0
  9
$MIRRTEXT
 70
     1
  9
$DRAGMODE
 70
     2
  9
$LTSCALE
 40
1.0
  9
$OSMODE
 70
    33
  9
$ATTMODE
 70
     1
  9
$TEXTSIZE
 40
0.2
  9
$TRACEWID
 40
0.05
  9
$TEXTSTYLE
  7
STANDARD
  9
$CLAYER
  8
寸法
  9
$CELTYPE
  6
CONTINUOUS
  9
$CECOLOR
 62
   256
  9
$CELTSCALE
 40
1.0
  9
$DELOBJ
 70
     1
  9
$DISPSILH
 70
     0
  9
$DIMSCALE
 40
1.0
  9
$DIMASZ
 40
2.0
  9
$DIMEXO
 40
1.0
  9
$DIMDLI
 40
10.0
  9
$DIMRND
 40
0.0
  9
$DIMDLE
 40
0.0
  9
$DIMEXE
 40
1.0
  9
$DIMTP
 40
0.0
  9
$DIMTM
 40
0.0
  9
$DIMTXT
 40
3.0
  9
$DIMCEN
 40
2.0
  9
$DIMTSZ
 40
0.0
  9
$DIMTOL
 70
     0
  9
$DIMLIM
 70
     0
  9
$DIMTIH
 70
     0
  9
$DIMTOH
 70
     0
  9
$DIMSE1
 70
     0
  9
$DIMSE2
 70
     0
  9
$DIMTAD
 70
     1
  9
$DIMZIN
 70
     8
  9
$DIMBLK
  1
OPEN30
  9
$DIMASO
 70
     1
  9
$DIMSHO
 70
     1
  9
$DIMPOST
  1

  9
$DIMAPOST
  1

  9
$DIMALT
 70
     0
  9
$DIMALTD
 70
     2
  9
$DIMALTF
 40
25.4
  9
$DIMLFAC
 40
1.0
  9
$DIMTOFL
 70
     1
  9
$DIMTVP
 40
0.0
  9
$DIMTIX
 70
     0
  9
$DIMSOXD
 70
     0
  9
$DIMSAH
 70
     0
  9
$DIMBLK1
  1

  9
$DIMBLK2
  1

  9
$DIMSTYLE
  2
STANDARD
  9
$DIMCLRD
 70
     1
  9
$DIMCLRE
 70
     1
  9
$DIMCLRT
 70
     1
  9
$DIMTFAC
 40
1.0
  9
$DIMGAP
 40
1.0
  9
$DIMJUST
 70
     0
  9
$DIMSD1
 70
     0
  9
$DIMSD2
 70
     0
  9
$DIMTOLJ
 70
     1
  9
$DIMTZIN
 70
     0
  9
$DIMALTZ
 70
     0
  9
$DIMALTTZ
 70
     0
  9
$DIMFIT
 70
     3
  9
$DIMUPT
 70
     0
  9
$DIMUNIT
 70
     2
  9
$DIMDEC
 70
     2
  9
$DIMTDEC
 70
     2
  9
$DIMALTU
 70
     2
  9
$DIMALTTD
 70
     2
  9
$DIMTXSTY
  7
STANDARD
  9
$DIMAUNIT
 70
     0
  9
$LUNITS
 70
     2
  9
$LUPREC
 70
     4
  9
$SKETCHINC
 40
0.1
  9
$FILLETRAD
 40
0.0
  9
$AUNITS
 70
     0
  9
$AUPREC
 70
     0
  9
$MENU
  1
acad
  9
$ELEVATION
 40
0.0
  9
$PELEVATION
 40
0.0
  9
$THICKNESS
 40
0.0
  9
$LIMCHECK
 70
     0
  9
$BLIPMODE
 70
     0
  9
$CHAMFERA
 40
0.0
  9
$CHAMFERB
 40
0.0
  9
$CHAMFERC
 40
0.0
  9
$CHAMFERD
 40
0.0
  9
$SKPOLY
 70
     0
  9
$TDCREATE
 40
2444972.375000000
  9
$TDUPDATE
 40
2451977.427569444
  9
$TDINDWG
 40
0.0083288194
  9
$TDUSRTIMER
 40
0.0083288194
  9
$USRTIMER
 70
     1
  9
$ANGBASE
 50
0.0
  9
$ANGDIR
 70
     0
  9
$PDMODE
 70
     0
  9
$PDSIZE
 40
0.0
  9
$PLINEWID
 40
0.0
  9
$COORDS
 70
     1
  9
$SPLFRAME
 70
     0
  9
$SPLINETYPE
 70
     6
  9
$SPLINESEGS
 70
     8
  9
$ATTDIA
 70
     0
  9
$ATTREQ
 70
     1
  9
$HANDLING
 70
     1
  9
$HANDSEED
  5
373
  9
$SURFTAB1
 70
     6
  9
$SURFTAB2
 70
     6
  9
$SURFTYPE
 70
     6
  9
$SURFU
 70
     6
  9
$SURFV
 70
     6
  9
$UCSNAME
  2

  9
$UCSORG
 10
0.0
 20
0.0
 30
0.0
  9
$UCSXDIR
 10
1.0
 20
0.0
 30
0.0
  9
$UCSYDIR
 10
0.0
 20
1.0
 30
0.0
  9
$PUCSNAME
  2

  9
$PUCSORG
 10
0.0
 20
0.0
 30
0.0
  9
$PUCSXDIR
 10
1.0
 20
0.0
 30
0.0
  9
$PUCSYDIR
 10
0.0
 20
1.0
 30
0.0
  9
$USERI1
 70
     0
  9
$USERI2
 70
     0
  9
$USERI3
 70
     0
  9
$USERI4
 70
     0
  9
$USERI5
 70
     0
  9
$USERR1
 40
0.0
  9
$USERR2
 40
0.0
  9
$USERR3
 40
0.0
  9
$USERR4
 40
0.0
  9
$USERR5
 40
0.0
  9
$WORLDVIEW
 70
     1
  9
$SHADEDGE
 70
     3
  9
$SHADEDIF
 70
    70
  9
$TILEMODE
 70
     1
  9
$MAXACTVP
 70
    48
  9
$PINSBASE
 10
0.0
 20
0.0
 30
0.0
  9
$PLIMCHECK
 70
     0
  9
$PEXTMIN
 10
1.000000E+20
 20
1.000000E+20
 30
1.000000E+20
  9
$PEXTMAX
 10
-1.000000E+20
 20
-1.000000E+20
 30
-1.000000E+20
  9
$PLIMMIN
 10
0.0
 20
0.0
  9
$PLIMMAX
 10
12.0
 20
9.0
  9
$UNITMODE
 70
     0
  9
$VISRETAIN
 70
     1
  9
$PLINEGEN
 70
     0
  9
$PSLTSCALE
 70
     1
  9
$TREEDEPTH
 70
  3020
  9
$PICKSTYLE
 70
     1
  9
$CMLSTYLE
  2
STANDARD
  9
$CMLJUST
 70
     0
  9
$CMLSCALE
 40
1.0
  9
$PROXYGRAPHICS
 70
     1
  9
$MEASUREMENT
 70
     0
  0
ENDSEC
  0
SECTION
  2
CLASSES
  0
CLASS
  1
ACDBDICTIONARYWDFLT
  2
AcDbDictionaryWithDefault
  3
AutoCAD 2000
 90
        0
280
     0
281
     0
  0
CLASS
  1
ACDBPLACEHOLDER
  2
AcDbPlaceHolder
  3
AutoCAD 2000
 90
        0
280
     0
281
     0
  0
CLASS
  1
LAYOUT
  2
AcDbLayout
  3
AutoCAD 2000
 90
        0
280
     0
281
     0
  0
CLASS
  1
LONG_TRANSACTION
  2
AcDbLongTransaction
  3
AutoCAD 2000
 90
        0
280
     0
281
     0
  0
CLASS
  1
LWPOLYLINE
  2
AcDbPolyline
  3
"AutoCAD"
 90
        0
280
     0
281
     1
  0
CLASS
  1
HATCH
  2
AcDbHatch
  3
"ACAD_SEDONA"
 90
        0
280
     0
281
     1
  0
CLASS
  1
XRECORD
  2
AcDbXrecord
  3
"<Built In>"
 90
        0
280
     0
281
     0
  0
CLASS
  1
LONG_TRANSACTION
  2
AcDbLongTransaction
  3
AutoCAD 2000
 90
        0
280
     0
281
     0
  0
CLASS
  1
LWPOLYLINE
  2
AcDbPolyline
  3
"AutoCAD"
 90
        0
280
     0
281
     1
  0
CLASS
  1
HATCH
  2
AcDbHatch
  3
"ACAD_SEDONA"
 90
        0
280
     0
281
     1
  0
CLASS
  1
XRECORD
  2
AcDbXrecord
  3
"<Built In>"
 90
        0
280
     0
281
     0
  0
ENDSEC
  0
SECTION
  2
TABLES
  0
TABLE
  2
VPORT
  5
8
100
AcDbSymbolTable
 70
     2
  0
VPORT
  5
372
100
AcDbSymbolTableRecord
100
AcDbViewportTableRecord
  2
*ACTIVE
 70
     0
 10
0.0
 20
0.0
 11
1.0
 21
1.0
 12
46.505909
 22
-49.237751
 13
0.0
 23
0.0
 14
10.0
 24
10.0
 15
10.0
 25
10.0
 16
0.0
 26
0.0
 36
1.0
 17
0.0
 27
0.0
 37
0.0
 40
227.838194
 41
1.710425
 42
50.0
 43
0.0
 44
0.0
 50
0.0
 51
0.0
 71
     0
 72
   100
 73
     1
 74
     1
 75
     0
 76
     0
 77
     0
 78
     0
  0
ENDTAB
  0
TABLE
  2
LTYPE
  5
5
100
AcDbSymbolTable
 70
     5
  0
LTYPE
  5
12
100
AcDbSymbolTableRecord
100
AcDbLinetypeTableRecord
  2
BYBLOCK
 70
     0
  3

 72
    65
 73
     0
 40
0.0
  0
LTYPE
  5
13
100
AcDbSymbolTableRecord
100
AcDbLinetypeTableRecord
  2
BYLAYER
 70
     0
  3

 72
    65
 73
     0
 40
0.0
  0
LTYPE
  5
14
100
AcDbSymbolTableRecord
100
AcDbLinetypeTableRecord
  2
CONTINUOUS
 70
     0
  3
Solid line
 72
    65
 73
     0
 40
0.0
  0
LTYPE
  5
1F
100
AcDbSymbolTableRecord
100
AcDbLinetypeTableRecord
  2
DASHED
 70
     0
  3
__ __ __ __ __ __ __ __ __ __ __ __ __ __ __
 72
    65
 73
     2
 40
3.5
 49
2.0
 74
     0
 49
-1.5
 74
     0
  0
LTYPE
  5
20
100
AcDbSymbolTableRecord
100
AcDbLinetypeTableRecord
  2
CENTER
 70
     0
  3
____ _ ____ _ ____ _ ____ _ ____ _ ____ _ ____
 72
    65
 73
     4
 40
17.5
 49
13.0
 74
     0
 49
-1.5
 74
     0
 49
1.5
 74
     0
 49
-1.5
 74
     0
  0
LTYPE
  5
21
100
AcDbSymbolTableRecord
100
AcDbLinetypeTableRecord
  2
PHANTOM
 70
     0
  3
_____ _ _ _____ _ _ _____ _ _ _____ _ _ ____  
 72
    65
 73
     6
 40
15.5
 49
8.0
 74
     0
 49
-1.5
 74
     0
 49
1.5
 74
     0
 49
-1.5
 74
     0
 49
1.5
 74
     0
 49
-1.5
 74
     0
  0
LTYPE
  5
22
100
AcDbSymbolTableRecord
100
AcDbLinetypeTableRecord
  2
DOT
 70
     0
  3
. . . . . . . . . . . . . . . . . . . . . . . .
 72
    65
 73
     2
 40
0.25
 49
0.0
 74
     0
 49
-0.25
 74
     0
  0
ENDTAB
  0
TABLE
  2
LAYER
  5
2
100
AcDbSymbolTable
 70
     3
  0
LAYER
  5
E
100
AcDbSymbolTableRecord
100
AcDbLayerTableRecord
  2
0
 70
     0
 62
     7
  6
CONTINUOUS
  0
LAYER
  5
165
100
AcDbSymbolTableRecord
100
AcDbLayerTableRecord
  2
寸法
 70
     0
 62
     1
  6
CONTINUOUS
  0
LAYER
  5
16F
102
{ACAD_XDICTIONARY
360
30D
102
}
100
AcDbSymbolTableRecord
100
AcDbLayerTableRecord
  2
DEFPOINTS
 70
     0
 62
     7
  6
CONTINUOUS
  0
ENDTAB
  0
TABLE
  2
STYLE
  5
3
100
AcDbSymbolTable
 70
     1
  0
STYLE
  5
F
100
AcDbSymbolTableRecord
100
AcDbTextStyleTableRecord
  2
STANDARD
 70
     0
 40
0.0
 41
1.0
 50
0.0
 71
     0
 42
0.2
  3
txt
  4
BIGFONT
  0
ENDTAB
  0
TABLE
  2
VIEW
  5
6
100
AcDbSymbolTable
 70
     0
  0
ENDTAB
  0
TABLE
  2
UCS
  5
7
100
AcDbSymbolTable
 70
     0
  0
ENDTAB
  0
TABLE
  2
APPID
  5
9
100
AcDbSymbolTable
 70
     1
  0
APPID
  5
10
100
AcDbSymbolTableRecord
100
AcDbRegAppTableRecord
  2
ACAD
 70
     0
  0
ENDTAB
  0
TABLE
  2
DIMSTYLE
  5
A
100
AcDbSymbolTable
 70
     1
  0
DIMSTYLE
105
157
102
{ACAD_XDICTIONARY
360
334
102
}
102
{ACAD_REACTORS
330
18D
330
1A5
330
1B2
330
1BF
330
1CE
330
1DB
330
1F5
330
248
330
25E
330
26C
330
284
330
295
102
}
100
AcDbSymbolTableRecord
100
AcDbDimStyleTableRecord
  2
STANDARD
 70
     0
  3

  4

  5
OPEN30
  6

  7

 40
1.0
 41
2.0
 42
1.0
 43
10.0
 44
1.0
 45
0.0
 46
0.0
 47
0.0
 48
0.0
140
3.0
141
2.0
142
0.0
143
25.4
144
1.0
145
0.0
146
1.0
147
1.0
 71
     0
 72
     0
 73
     0
 74
     0
 75
     0
 76
     0
 77
     1
 78
     8
170
     0
171
     2
172
     1
173
     0
174
     0
175
     0
176
     1
177
     1
178
     1
270
     2
271
     2
272
     2
273
     2
274
     2
340
F
275
     0
280
     0
281
     0
282
     0
283
     1
284
     0
285
     0
286
     0
287
     3
288
     0
  0
ENDTAB
  0
TABLE
  2
BLOCK_RECORD
  5
1
100
AcDbSymbolTable
 70
    13
  0
BLOCK_RECORD
  5
18
102
{ACAD_XDICTIONARY
360
2CF
102
}
100
AcDbSymbolTableRecord
100
AcDbBlockTableRecord
  2
*MODEL_SPACE
  0
BLOCK_RECORD
  5
15
102
{ACAD_XDICTIONARY
360
2CD
102
}
100
AcDbSymbolTableRecord
100
AcDbBlockTableRecord
  2
*PAPER_SPACE
  0
BLOCK_RECORD
  5
166
102
{ACAD_XDICTIONARY
360
30B
102
}
100
AcDbSymbolTableRecord
100
AcDbBlockTableRecord
  2
_OPEN30
  0
BLOCK_RECORD
  5
18E
100
AcDbSymbolTableRecord
100
AcDbBlockTableRecord
  2
*D1
  0
BLOCK_RECORD
  5
1A6
100
AcDbSymbolTableRecord
100
AcDbBlockTableRecord
  2
*D2
  0
BLOCK_RECORD
  5
1B3
100
AcDbSymbolTableRecord
100
AcDbBlockTableRecord
  2
*D3
  0
BLOCK_RECORD
  5
1C0
100
AcDbSymbolTableRecord
100
AcDbBlockTableRecord
  2
*D4
  0
BLOCK_RECORD
  5
1CF
100
AcDbSymbolTableRecord
100
AcDbBlockTableRecord
  2
*D5
  0
BLOCK_RECORD
  5
1DC
100
AcDbSymbolTableRecord
100
AcDbBlockTableRecord
  2
*D6
  0
BLOCK_RECORD
  5
1F6
100
AcDbSymbolTableRecord
100
AcDbBlockTableRecord
  2
*D7
  0
BLOCK_RECORD
  5
249
100
AcDbSymbolTableRecord
100
AcDbBlockTableRecord
  2
*D8
  0
BLOCK_RECORD
  5
25F
100
AcDbSymbolTableRecord
100
AcDbBlockTableRecord
  2
*D9
  0
BLOCK_RECORD
  5
26D
100
AcDbSymbolTableRecord
100
AcDbBlockTableRecord
  2
*D10
  0
BLOCK_RECORD
  5
285
100
AcDbSymbolTableRecord
100
AcDbBlockTableRecord
  2
*D11
  0
BLOCK_RECORD
  5
296
100
AcDbSymbolTableRecord
100
AcDbBlockTableRecord
  2
*D12
  0
ENDTAB
  0
ENDSEC
  0
SECTION
  2
BLOCKS
  0
BLOCK
  5
19
100
AcDbEntity
  8
0
100
AcDbBlockBegin
  2
*MODEL_SPACE
 70
     0
 10
0.0
 20
0.0
 30
0.0
  3
*MODEL_SPACE
  1

  0
ENDBLK
  5
1A
100
AcDbEntity
  8
0
100
AcDbBlockEnd
  0
BLOCK
  5
16
100
AcDbEntity
 67
     1
  8
0
100
AcDbBlockBegin
  2
*PAPER_SPACE
 70
     0
 10
0.0
 20
0.0
 30
0.0
  3
*PAPER_SPACE
  1

  0
ENDBLK
  5
17
100
AcDbEntity
 67
     1
  8
0
100
AcDbBlockEnd
  0
BLOCK
  5
16A
100
AcDbEntity
  8
0
100
AcDbBlockBegin
  2
_OPEN30
 70
     0
 10
0.0
 20
0.0
 30
0.0
  3
_OPEN30
  1

  0
LINE
  5
167
100
AcDbEntity
  8
0
  6
BYBLOCK
 62
     0
100
AcDbLine
 10
-1.0
 20
0.267949
 30
0.0
 11
0.0
 21
0.0
 31
0.0
1001
ACAD
1000
RTLwPs
1070
   158
  0
LINE
  5
168
100
AcDbEntity
  8
0
  6
BYBLOCK
 62
     0
100
AcDbLine
 10
0.0
 20
0.0
 30
0.0
 11
-1.0
 21
-0.267949
 31
0.0
1001
ACAD
1000
RTLwPs
1070
   158
  0
LINE
  5
169
100
AcDbEntity
  8
0
  6
BYBLOCK
 62
     0
100
AcDbLine
 10
0.0
 20
0.0
 30
0.0
 11
-1.0
 21
0.0
 31
0.0
1001
ACAD
1000
RTLwPs
1070
   158
  0
ENDBLK
  5
16B
100
AcDbEntity
  8
0
100
AcDbBlockEnd
  0
BLOCK
  5
199
100
AcDbEntity
  8
0
100
AcDbBlockBegin
  2
*D1
 70
     1
 10
0.0
 20
0.0
 30
0.0
  3
*D1
  1

  0
LINE
  5
202
100
AcDbEntity
  8
寸法
  6
CONTINUOUS
 62
     1
100
AcDbLine
 10
120.91979
 20
-51.171373
 30
0.0
 11
131.0
 21
-51.171373
 31
0.0
1001
ACAD
1000
RTLwPs
1070
   158
  0
LINE
  5
203
100
AcDbEntity
  8
寸法
  6
CONTINUOUS
 62
     1
100
AcDbLine
 10
119.329707
 20
-59.631371
 30
0.0
 11
131.0
 21
-59.631371
 31
0.0
1001
ACAD
1000
RTLwPs
1070
   158
  0
LINE
  5
204
100
AcDbEntity
  8
寸法
  6
CONTINUOUS
 62
     1
100
AcDbLine
 10
130.0
 20
-53.171373
 30
0.0
 11
130.0
 21
-57.631371
 31
0.0
1001
ACAD
1000
RTLwPs
1070
   158
  0
LINE
  5
205
100
AcDbEntity
  8
寸法
  6
CONTINUOUS
 62
     1
100
AcDbLine
 10
130.0
 20
-59.631371
 30
0.0
 11
130.0
 21
-72.631371
 31
0.0
1001
ACAD
1000
RTLwPs
1070
   158
  0
INSERT
  5
206
100
AcDbEntity
  8
寸法
  6
CONTINUOUS
 62
     1
100
AcDbBlockReference
  2
_OPEN30
 10
130.0
 20
-51.171373
 30
0.0
 41
2.0
 42
2.0
 43
2.0
 50
90.0
1001
ACAD
1000
RTLwPs
1070
   158
  0
INSERT
  5
207
100
AcDbEntity
  8
寸法
  6
CONTINUOUS
 62
     1
100
AcDbBlockReference
  2
_OPEN30
 10
130.0
 20
-59.631371
 30
0.0
 41
2.0
 42
2.0
 43
2.0
 50
270.0
1001
ACAD
1000
RTLwPs
1070
   158
  0
MTEXT
  5
208
100
AcDbEntity
  8
寸法
  6
CONTINUOUS
 62
     1
100
AcDbMText
 10
127.5
 20
-67.131371
 30
0.0
 40
3.0
 41
0.0
 71
     5
 72
     1
  1
\A1;8.46
 11
0.0
 21
1.0
 31
0.0
1001
ACAD
1000
MTEXTBEGIN
1070
    73
1070
     1
1070
    44
1040
1.0
1070
    74
1070
     0
1000
MTEXTEND
1000
MTEXTBEGIN
1070
    73
1070
     1
1070
    44
1040
1.0
1070
    74
1070
     0
1000
MTEXTEND
  0
POINT
  5
209
100
AcDbEntity
  8
DEFPOINTS
  6
CONTINUOUS
 62
     0
100
AcDbPoint
 10
119.91979
 20
-51.171373
 30
0.0
  0
POINT
  5
20A
100
AcDbEntity
  8
DEFPOINTS
  6
CONTINUOUS
 62
     0
100
AcDbPoint
 10
118.329707
 20
-59.631371
 30
0.0
  0
POINT
  5
20B
100
AcDbEntity
  8
DEFPOINTS
  6
CONTINUOUS
 62
     0
100
AcDbPoint
 10
130.0
 20
-59.631371
 30
0.0
  0
ENDBLK
  5
19A
100
AcDbEntity
  8
0
100
AcDbBlockEnd
  0
BLOCK
  5
1B0
100
AcDbEntity
  8
0
100
AcDbBlockBegin
  2
*D2
 70
     1
 10
0.0
 20
0.0
 30
0.0
  3
*D2
  1

  0
LINE
  5
20C
100
AcDbEntity
  8
寸法
  6
CONTINUOUS
 62
     1
100
AcDbLine
 10
52.999958
 20
-41.631371
 30
0.0
 11
71.0
 21
-41.631371
 31
0.0
1001
ACAD
1000
RTLwPs
1070
   158
  0
LINE
  5
20D
100
AcDbEntity
  8
寸法
  6
CONTINUOUS
 62
     1
100
AcDbLine
 10
52.999958
 20
-59.631371
 30
0.0
 11
71.0
 21
-59.631371
 31
0.0
1001
ACAD
1000
RTLwPs
1070
   158
  0
LINE
  5
20E
100
AcDbEntity
  8
寸法
  6
CONTINUOUS
 62
     1
100
AcDbLine
 10
70.0
 20
-43.631371
 30
0.0
 11
70.0
 21
-57.631371
 31
0.0
1001
ACAD
1000
RTLwPs
1070
   158
  0
INSERT
  5
20F
100
AcDbEntity
  8
寸法
  6
CONTINUOUS
 62
     1
100
AcDbBlockReference
  2
_OPEN30
 10
70.0
 20
-41.631371
 30
0.0
 41
2.0
 42
2.0
 43
2.0
 50
90.0
1001
ACAD
1000
RTLwPs
1070
   158
  0
INSERT
  5
210
100
AcDbEntity
  8
寸法
  6
CONTINUOUS
 62
     1
100
AcDbBlockReference
  2
_OPEN30
 10
70.0
 20
-59.631371
 30
0.0
 41
2.0
 42
2.0
 43
2.0
 50
270.0
1001
ACAD
1000
RTLwPs
1070
   158
  0
MTEXT
  5
211
100
AcDbEntity
  8
寸法
  6
CONTINUOUS
 62
     1
100
AcDbMText
 10
67.5
 20
-50.631371
 30
0.0
 40
3.0
 41
0.0
 71
     5
 72
     1
  1
\A1;18
 11
0.0
 21
1.0
 31
0.0
1001
ACAD
1000
MTEXTBEGIN
1070
    73
1070
     1
1070
    44
1040
1.0
1070
    74
1070
     0
1000
MTEXTEND
1000
MTEXTBEGIN
1070
    73
1070
     1
1070
    44
1040
1.0
1070
    74
1070
     0
1000
MTEXTEND
  0
POINT
  5
212
100
AcDbEntity
  8
DEFPOINTS
  6
CONTINUOUS
 62
     0
100
AcDbPoint
 10
51.999958
 20
-41.631371
 30
0.0
  0
POINT
  5
213
100
AcDbEntity
  8
DEFPOINTS
  6
CONTINUOUS
 62
     0
100
AcDbPoint
 10
51.999958
 20
-59.631371
 30
0.0
  0
POINT
  5
214
100
AcDbEntity
  8
DEFPOINTS
  6
CONTINUOUS
 62
     0
100
AcDbPoint
 10
70.0
 20
-59.631371
 30
0.0
  0
ENDBLK
  5
1B1
100
AcDbEntity
  8
0
100
AcDbBlockEnd
  0
BLOCK
  5
1BD
100
AcDbEntity
  8
0
100
AcDbBlockBegin
  2
*D3
 70
     1
 10
0.0
 20
0.0
 30
0.0
  3
*D3
  1

  0
LINE
  5
215
100
AcDbEntity
  8
寸法
  6
CONTINUOUS
 62
     1
100
AcDbLine
 10
-2.106919
 20
-43.747716
 30
0.0
 11
-11.0
 21
-43.747716
 31
0.0
1001
ACAD
1000
RTLwPs
1070
   158
  0
LINE
  5
216
100
AcDbEntity
  8
寸法
  6
CONTINUOUS
 62
     1
100
AcDbLine
 10
0.167914
 20
-59.631371
 30
0.0
 11
-11.0
 21
-59.631371
 31
0.0
1001
ACAD
1000
RTLwPs
1070
   158
  0
LINE
  5
217
100
AcDbEntity
  8
寸法
  6
CONTINUOUS
 62
     1
100
AcDbLine
 10
-10.0
 20
-45.747716
 30
0.0
 11
-10.0
 21
-57.631371
 31
0.0
1001
ACAD
1000
RTLwPs
1070
   158
  0
INSERT
  5
218
100
AcDbEntity
  8
寸法
  6
CONTINUOUS
 62
     1
100
AcDbBlockReference
  2
_OPEN30
 10
-10.0
 20
-43.747716
 30
0.0
 41
2.0
 42
2.0
 43
2.0
 50
90.0
1001
ACAD
1000
RTLwPs
1070
   158
  0
INSERT
  5
219
100
AcDbEntity
  8
寸法
  6
CONTINUOUS
 62
     1
100
AcDbBlockReference
  2
_OPEN30
 10
-10.0
 20
-59.631371
 30
0.0
 41
2.0
 42
2.0
 43
2.0
 50
270.0
1001
ACAD
1000
RTLwPs
1070
   158
  0
MTEXT
  5
21A
100
AcDbEntity
  8
寸法
  6
CONTINUOUS
 62
     1
100
AcDbMText
 10
-12.5
 20
-51.689543
 30
0.0
 40
3.0
 41
0.0
 71
     5
 72
     1
  1
\A1;16
 11
0.0
 21
1.0
 31
0.0
1001
ACAD
1000
MTEXTBEGIN
1070
    73
1070
     1
1070
    44
1040
1.0
1070
    74
1070
     0
1000
MTEXTEND
1000
MTEXTBEGIN
1070
    73
1070
     1
1070
    44
1040
1.0
1070
    74
1070
     0
1000
MTEXTEND
  0
POINT
  5
21B
100
AcDbEntity
  8
DEFPOINTS
  6
CONTINUOUS
 62
     0
100
AcDbPoint
 10
-1.106919
 20
-43.747716
 30
0.0
  0
POINT
  5
21C
100
AcDbEntity
  8
DEFPOINTS
  6
CONTINUOUS
 62
     0
100
AcDbPoint
 10
1.167914
 20
-59.631371
 30
0.0
  0
POINT
  5
21D
100
AcDbEntity
  8
DEFPOINTS
  6
CONTINUOUS
 62
     0
100
AcDbPoint
 10
-10.0
 20
-59.631371
 30
0.0
  0
ENDBLK
  5
1BE
100
AcDbEntity
  8
0
100
AcDbBlockEnd
  0
BLOCK
  5
1CC
100
AcDbEntity
  8
0
100
AcDbBlockBegin
  2
*D4
 70
     1
 10
0.0
 20
0.0
 30
0.0
  3
*D4
  1

  0
LINE
  5
21E
100
AcDbEntity
  8
寸法
  6
CONTINUOUS
 62
     1
100
AcDbLine
 10
39.749958
 20
-63.631375
 30
0.0
 11
39.749958
 21
-71.0
 31
0.0
1001
ACAD
1000
RTLwPs
1070
   158
  0
LINE
  5
21F
100
AcDbEntity
  8
寸法
  6
CONTINUOUS
 62
     1
100
AcDbLine
 10
36.249958
 20
-63.631375
 30
0.0
 11
36.249958
 21
-71.0
 31
0.0
1001
ACAD
1000
RTLwPs
1070
   158
  0
LINE
  5
220
100
AcDbEntity
  8
寸法
  6
CONTINUOUS
 62
     1
100
AcDbLine
 10
41.749958
 20
-70.0
 30
0.0
 11
43.749958
 21
-70.0
 31
0.0
1001
ACAD
1000
RTLwPs
1070
   158
  0
LINE
  5
221
100
AcDbEntity
  8
寸法
  6
CONTINUOUS
 62
     1
100
AcDbLine
 10
34.249958
 20
-70.0
 30
0.0
 11
24.249958
 21
-70.0
 31
0.0
1001
ACAD
1000
RTLwPs
1070
   158
  0
LINE
  5
222
100
AcDbEntity
  8
寸法
  6
CONTINUOUS
 62
     1
100
AcDbLine
 10
39.749958
 20
-70.0
 30
0.0
 11
36.249958
 21
-70.0
 31
0.0
1001
ACAD
1000
RTLwPs
1070
   158
  0
INSERT
  5
223
100
AcDbEntity
  8
寸法
  6
CONTINUOUS
 62
     1
100
AcDbBlockReference
  2
_OPEN30
 10
39.749958
 20
-70.0
 30
0.0
 41
2.0
 42
2.0
 43
2.0
 50
180.0
1001
ACAD
1000
RTLwPs
1070
   158
  0
INSERT
  5
224
100
AcDbEntity
  8
寸法
  6
CONTINUOUS
 62
     1
100
AcDbBlockReference
  2
_OPEN30
 10
36.249958
 20
-70.0
 30
0.0
 41
2.0
 42
2.0
 43
2.0
1001
ACAD
1000
RTLwPs
1070
   158
  0
MTEXT
  5
225
100
AcDbEntity
  8
寸法
  6
CONTINUOUS
 62
     1
100
AcDbMText
 10
28.249958
 20
-67.5
 30
0.0
 40
3.0
 41
0.0
 71
     5
 72
     1
  1
\A1;3.5
1001
ACAD
1000
MTEXTBEGIN
1070
    73
1070
     1
1070
    44
1040
1.0
1070
    74
1070
     0
1000
MTEXTEND
1000
MTEXTBEGIN
1070
    73
1070
     1
1070
    44
1040
1.0
1070
    74
1070
     0
1000
MTEXTEND
  0
POINT
  5
226
100
AcDbEntity
  8
DEFPOINTS
  6
CONTINUOUS
 62
     0
100
AcDbPoint
 10
39.749958
 20
-62.631375
 30
0.0
  0
POINT
  5
227
100
AcDbEntity
  8
DEFPOINTS
  6
CONTINUOUS
 62
     0
100
AcDbPoint
 10
36.249958
 20
-62.631375
 30
0.0
  0
POINT
  5
228
100
AcDbEntity
  8
DEFPOINTS
  6
CONTINUOUS
 62
     0
100
AcDbPoint
 10
36.249958
 20
-70.0
 30
0.0
  0
ENDBLK
  5
1CD
100
AcDbEntity
  8
0
100
AcDbBlockEnd
  0
BLOCK
  5
1D9
100
AcDbEntity
  8
0
100
AcDbBlockBegin
  2
*D5
 70
     1
 10
0.0
 20
0.0
 30
0.0
  3
*D5
  1

  0
LINE
  5
229
100
AcDbEntity
  8
寸法
  6
CONTINUOUS
 62
     1
100
AcDbLine
 10
59.999962
 20
-48.131371
 30
0.0
 11
59.999962
 21
-29.0
 31
0.0
1001
ACAD
1000
RTLwPs
1070
   158
  0
LINE
  5
22A
100
AcDbEntity
  8
寸法
  6
CONTINUOUS
 62
     1
100
AcDbLine
 10
37.999958
 20
-37.631367
 30
0.0
 11
37.999958
 21
-29.0
 31
0.0
1001
ACAD
1000
RTLwPs
1070
   158
  0
LINE
  5
22B
100
AcDbEntity
  8
寸法
  6
CONTINUOUS
 62
     1
100
AcDbLine
 10
57.999962
 20
-30.0
 30
0.0
 11
39.999958
 21
-30.0
 31
0.0
1001
ACAD
1000
RTLwPs
1070
   158
  0
INSERT
  5
22C
100
AcDbEntity
  8
寸法
  6
CONTINUOUS
 62
     1
100
AcDbBlockReference
  2
_OPEN30
 10
59.999962
 20
-30.0
 30
0.0
 41
2.0
 42
2.0
 43
2.0
1001
ACAD
1000
RTLwPs
1070
   158
  0
INSERT
  5
22D
100
AcDbEntity
  8
寸法
  6
CONTINUOUS
 62
     1
100
AcDbBlockReference
  2
_OPEN30
 10
37.999958
 20
-30.0
 30
0.0
 41
2.0
 42
2.0
 43
2.0
 50
180.0
1001
ACAD
1000
RTLwPs
1070
   158
  0
MTEXT
  5
22E
100
AcDbEntity
  8
寸法
  6
CONTINUOUS
 62
     1
100
AcDbMText
 10
48.99996
 20
-27.5
 30
0.0
 40
3.0
 41
0.0
 71
     5
 72
     1
  1
\A1;22
1001
ACAD
1000
MTEXTBEGIN
1070
    73
1070
     1
1070
    44
1040
1.0
1070
    74
1070
     0
1000
MTEXTEND
1000
MTEXTBEGIN
1070
    73
1070
     1
1070
    44
1040
1.0
1070
    74
1070
     0
1000
MTEXTEND
  0
POINT
  5
22F
100
AcDbEntity
  8
DEFPOINTS
  6
CONTINUOUS
 62
     0
100
AcDbPoint
 10
59.999962
 20
-49.131371
 30
0.0
  0
POINT
  5
230
100
AcDbEntity
  8
DEFPOINTS
  6
CONTINUOUS
 62
     0
100
AcDbPoint
 10
37.999958
 20
-38.631367
 30
0.0
  0
POINT
  5
231
100
AcDbEntity
  8
DEFPOINTS
  6
CONTINUOUS
 62
     0
100
AcDbPoint
 10
37.999958
 20
-30.0
 30
0.0
  0
ENDBLK
  5
1DA
100
AcDbEntity
  8
0
100
AcDbBlockEnd
  0
BLOCK
  5
1EA
100
AcDbEntity
  8
0
100
AcDbBlockBegin
  2
*D6
 70
     1
 10
0.0
 20
0.0
 30
0.0
  3
*D6
  1

  0
LINE
  5
338
100
AcDbEntity
  8
寸法
  6
CONTINUOUS
 62
     1
100
AcDbLine
 10
15.025805
 20
-41.631371
 30
0.0
 11
-21.4792
 21
-41.631371
 31
0.0
  0
LINE
  5
339
100
AcDbEntity
  8
寸法
  6
CONTINUOUS
 62
     1
100
AcDbLine
 10
-2.101441
 20
-43.852244
 30
0.0
 11
-21.257293
 21
-45.865607
 31
0.0
  0
ARC
  5
33A
100
AcDbEntity
  8
寸法
  6
CONTINUOUS
 62
     1
100
AcDbCircle
 10
19.028743
 20
-41.631371
 30
0.0
 40
39.507943
100
AcDbArc
 50
177.099221
 51
180.0
  0
LINE
  5
33B
100
AcDbEntity
  8
寸法
  6
CONTINUOUS
 62
     1
100
AcDbLine
 10
-20.428577
 20
-39.632012
 30
0.0
 11
-19.993361
 21
-31.043031
 31
0.0
  0
ARC
  5
33C
100
AcDbEntity
  8
寸法
  6
CONTINUOUS
 62
     1
100
AcDbCircle
 10
19.028743
 20
-41.631371
 30
0.0
 40
39.507943
100
AcDbArc
 50
182.900779
 51
183.099226
  0
INSERT
  5
33D
100
AcDbEntity
  8
寸法
  6
CONTINUOUS
 62
     1
100
AcDbBlockReference
  2
_OPEN30
 10
-20.4792
 20
-41.631371
 30
0.0
 41
2.0
 42
2.0
 43
2.0
 50
91.450389
  0
INSERT
  5
33E
100
AcDbEntity
  8
寸法
  6
CONTINUOUS
 62
     1
100
AcDbBlockReference
  2
_OPEN30
 10
-20.262771
 20
-45.761079
 30
0.0
 41
2.0
 42
2.0
 43
2.0
 50
274.549615
  0
MTEXT
  5
33F
100
AcDbEntity
  8
寸法
  6
CONTINUOUS
 62
     1
100
AcDbMText
 10
-17.714172
 20
-35.464038
 30
0.0
 40
3.0
 41
0.0
 71
     5
 72
     1
  1
\A1;6°
 11
-0.050607
 21
-0.998719
 31
0.0
  0
POINT
  5
340
100
AcDbEntity
  8
DEFPOINTS
  6
CONTINUOUS
 62
     0
100
AcDbPoint
 10
-20.38296
 20
-44.387308
 30
0.0
  0
POINT
  5
341
100
AcDbEntity
  8
DEFPOINTS
  6
CONTINUOUS
 62
     0
100
AcDbPoint
 10
16.025805
 20
-41.631371
 30
0.0
  0
POINT
  5
342
100
AcDbEntity
  8
DEFPOINTS
  6
CONTINUOUS
 62
     0
100
AcDbPoint
 10
-1.106919
 20
-43.747716
 30
0.0
  0
POINT
  5
343
100
AcDbEntity
  8
DEFPOINTS
  6
CONTINUOUS
 62
     0
100
AcDbPoint
 10
12.684484
 20
-42.29818
 30
0.0
  0
POINT
  5
344
100
AcDbEntity
  8
DEFPOINTS
  6
CONTINUOUS
 62
     0
100
AcDbPoint
 10
51.999958
 20
-41.631371
 30
0.0
  0
ENDBLK
  5
1EB
100
AcDbEntity
  8
0
100
AcDbBlockEnd
  0
BLOCK
  5
200
100
AcDbEntity
  8
0
100
AcDbBlockBegin
  2
*D7
 70
     1
 10
0.0
 20
0.0
 30
0.0
  3
*D7
  1

  0
LINE
  5
23F
100
AcDbEntity
  8
寸法
  6
CONTINUOUS
 62
     1
100
AcDbLine
 10
59.999943
 20
18.759898
 30
0.0
 11
59.999943
 21
-11.0
 31
0.0
1001
ACAD
1000
RTLwPs
1070
   158
  0
LINE
  5
240
100
AcDbEntity
  8
寸法
  6
CONTINUOUS
 62
     1
100
AcDbLine
 10
0.000001
 20
8.759923
 30
0.0
 11
0.000001
 21
-11.0
 31
0.0
1001
ACAD
1000
RTLwPs
1070
   158
  0
LINE
  5
241
100
AcDbEntity
  8
寸法
  6
CONTINUOUS
 62
     1
100
AcDbLine
 10
57.999943
 20
-10.0
 30
0.0
 11
2.000001
 21
-10.0
 31
0.0
1001
ACAD
1000
RTLwPs
1070
   158
  0
INSERT
  5
242
100
AcDbEntity
  8
寸法
  6
CONTINUOUS
 62
     1
100
AcDbBlockReference
  2
_OPEN30
 10
59.999943
 20
-10.0
 30
0.0
 41
2.0
 42
2.0
 43
2.0
1001
ACAD
1000
RTLwPs
1070
   158
  0
INSERT
  5
243
100
AcDbEntity
  8
寸法
  6
CONTINUOUS
 62
     1
100
AcDbBlockReference
  2
_OPEN30
 10
0.000001
 20
-10.0
 30
0.0
 41
2.0
 42
2.0
 43
2.0
 50
180.0
1001
ACAD
1000
RTLwPs
1070
   158
  0
MTEXT
  5
244
100
AcDbEntity
  8
寸法
  6
CONTINUOUS
 62
     1
100
AcDbMText
 10
29.999972
 20
-7.5
 30
0.0
 40
3.0
 41
0.0
 71
     5
 72
     1
  1
\A1;60
1001
ACAD
1000
MTEXTBEGIN
1070
    73
1070
     1
1070
    44
1040
1.0
1070
    74
1070
     0
1000
MTEXTEND
1000
MTEXTBEGIN
1070
    73
1070
     1
1070
    44
1040
1.0
1070
    74
1070
     0
1000
MTEXTEND
  0
POINT
  5
245
100
AcDbEntity
  8
DEFPOINTS
  6
CONTINUOUS
 62
     0
100
AcDbPoint
 10
59.999943
 20
19.759898
 30
0.0
  0
POINT
  5
246
100
AcDbEntity
  8
DEFPOINTS
  6
CONTINUOUS
 62
     0
100
AcDbPoint
 10
0.000001
 20
9.759923
 30
0.0
  0
POINT
  5
247
100
AcDbEntity
  8
DEFPOINTS
  6
CONTINUOUS
 62
     0
100
AcDbPoint
 10
0.000001
 20
-10.0
 30
0.0
  0
ENDBLK
  5
201
100
AcDbEntity
  8
0
100
AcDbBlockEnd
  0
BLOCK
  5
253
100
AcDbEntity
  8
0
100
AcDbBlockBegin
  2
*D8
 70
     1
 10
0.0
 20
0.0
 30
0.0
  3
*D8
  1

  0
LINE
  5
345
100
AcDbEntity
  8
寸法
  6
CONTINUOUS
 62
     1
100
AcDbLine
 10
59.999943
 20
18.759898
 30
0.0
 11
59.999943
 21
-1.0
 31
0.0
  0
LINE
  5
346
100
AcDbEntity
  8
寸法
  6
CONTINUOUS
 62
     1
100
AcDbLine
 10
51.999943
 20
12.043081
 30
0.0
 11
51.999943
 21
-1.0
 31
0.0
  0
LINE
  5
347
100
AcDbEntity
  8
寸法
  6
CONTINUOUS
 62
     1
100
AcDbLine
 10
57.999943
 20
0.0
 30
0.0
 11
53.999943
 21
0.0
 31
0.0
  0
INSERT
  5
348
100
AcDbEntity
  8
寸法
  6
CONTINUOUS
 62
     1
100
AcDbBlockReference
  2
_OPEN30
 10
59.999943
 20
0.0
 30
0.0
 41
2.0
 42
2.0
 43
2.0
  0
INSERT
  5
349
100
AcDbEntity
  8
寸法
  6
CONTINUOUS
 62
     1
100
AcDbBlockReference
  2
_OPEN30
 10
51.999943
 20
0.0
 30
0.0
 41
2.0
 42
2.0
 43
2.0
 50
180.0
  0
MTEXT
  5
34A
100
AcDbEntity
  8
寸法
  6
CONTINUOUS
 62
     1
100
AcDbMText
 10
55.999943
 20
2.5
 30
0.0
 40
3.0
 41
0.0
 71
     5
 72
     1
  1
\A1;8
  0
POINT
  5
34B
100
AcDbEntity
  8
DEFPOINTS
  6
CONTINUOUS
 62
     0
100
AcDbPoint
 10
59.999943
 20
19.759898
 30
0.0
  0
POINT
  5
34C
100
AcDbEntity
  8
DEFPOINTS
  6
CONTINUOUS
 62
     0
100
AcDbPoint
 10
51.999943
 20
13.043081
 30
0.0
  0
POINT
  5
34D
100
AcDbEntity
  8
DEFPOINTS
  6
CONTINUOUS
 62
     0
100
AcDbPoint
 10
51.999943
 20
0.0
 30
0.0
  0
ENDBLK
  5
254
100
AcDbEntity
  8
0
100
AcDbBlockEnd
  0
BLOCK
  5
269
100
AcDbEntity
  8
0
100
AcDbBlockBegin
  2
*D9
 70
     1
 10
0.0
 20
0.0
 30
0.0
  3
*D9
  1

  0
LINE
  5
260
100
AcDbEntity
  8
寸法
  6
CONTINUOUS
 62
     1
100
AcDbLine
 10
-2.100057
 20
28.759898
 30
0.0
 11
-11.0
 21
28.759898
 31
0.0
1001
ACAD
1000
RTLwPs
1070
   158
  0
LINE
  5
261
100
AcDbEntity
  8
寸法
  6
CONTINUOUS
 62
     1
100
AcDbLine
 10
-1.000001
 20
9.759938
 30
0.0
 11
-11.0
 21
9.759938
 31
0.0
1001
ACAD
1000
RTLwPs
1070
   158
  0
LINE
  5
262
100
AcDbEntity
  8
寸法
  6
CONTINUOUS
 62
     1
100
AcDbLine
 10
-10.0
 20
26.759898
 30
0.0
 11
-10.0
 21
11.759938
 31
0.0
1001
ACAD
1000
RTLwPs
1070
   158
  0
INSERT
  5
263
100
AcDbEntity
  8
寸法
  6
CONTINUOUS
 62
     1
100
AcDbBlockReference
  2
_OPEN30
 10
-10.0
 20
28.759898
 30
0.0
 41
2.0
 42
2.0
 43
2.0
 50
90.0
1001
ACAD
1000
RTLwPs
1070
   158
  0
INSERT
  5
264
100
AcDbEntity
  8
寸法
  6
CONTINUOUS
 62
     1
100
AcDbBlockReference
  2
_OPEN30
 10
-10.0
 20
9.759938
 30
0.0
 41
2.0
 42
2.0
 43
2.0
 50
270.0
1001
ACAD
1000
RTLwPs
1070
   158
  0
MTEXT
  5
265
100
AcDbEntity
  8
寸法
  6
CONTINUOUS
 62
     1
100
AcDbMText
 10
-12.5
 20
19.259918
 30
0.0
 40
3.0
 41
0.0
 71
     5
 72
     1
  1
\A1;19
 11
0.0
 21
1.0
 31
0.0
1001
ACAD
1000
MTEXTBEGIN
1070
    73
1070
     1
1070
    44
1040
1.0
1070
    74
1070
     0
1000
MTEXTEND
1000
MTEXTBEGIN
1070
    73
1070
     1
1070
    44
1040
1.0
1070
    74
1070
     0
1000
MTEXTEND
  0
POINT
  5
266
100
AcDbEntity
  8
DEFPOINTS
  6
CONTINUOUS
 62
     0
100
AcDbPoint
 10
-1.100057
 20
28.759898
 30
0.0
  0
POINT
  5
267
100
AcDbEntity
  8
DEFPOINTS
  6
CONTINUOUS
 62
     0
100
AcDbPoint
 10
-0.000001
 20
9.759938
 30
0.0
  0
POINT
  5
268
100
AcDbEntity
  8
DEFPOINTS
  6
CONTINUOUS
 62
     0
100
AcDbPoint
 10
-10.0
 20
9.759938
 30
0.0
  0
ENDBLK
  5
26A
100
AcDbEntity
  8
0
100
AcDbBlockEnd
  0
BLOCK
  5
27C
100
AcDbEntity
  8
0
100
AcDbBlockBegin
  2
*D10
 70
     1
 10
0.0
 20
0.0
 30
0.0
  3
*D10
  1

  0
LINE
  5
34E
100
AcDbEntity
  8
寸法
  6
CONTINUOUS
 62
     1
100
AcDbLine
 10
0.087154
 20
8.763743
 30
0.0
 11
1.350574
 21
-5.677219
 31
0.0
  0
ARC
  5
34F
100
AcDbEntity
  8
寸法
  6
CONTINUOUS
 62
     1
100
AcDbCircle
 10
-0.000001
 20
9.759938
 30
0.0
 40
14.496124
100
AcDbArc
 50
254.13945
 51
270.0
  0
LINE
  5
350
100
AcDbEntity
  8
寸法
  6
CONTINUOUS
 62
     1
100
AcDbLine
 10
-3.961748
 20
-4.184315
 30
0.0
 11
-12.234344
 21
-1.833961
 31
0.0
  0
ARC
  5
351
100
AcDbEntity
  8
寸法
  6
CONTINUOUS
 62
     1
100
AcDbCircle
 10
-0.000001
 20
9.759938
 30
0.0
 40
14.496124
100
AcDbArc
 50
254.177476
 51
262.088738
  0
ARC
  5
352
100
AcDbEntity
  8
寸法
  6
CONTINUOUS
 62
     1
100
AcDbCircle
 10
-0.000001
 20
9.759938
 30
0.0
 40
14.496124
100
AcDbArc
 50
282.91126
 51
290.822522
  0
ARC
  5
353
100
AcDbEntity
  8
寸法
  6
CONTINUOUS
 62
     1
100
AcDbCircle
 10
-0.000001
 20
9.759938
 30
0.0
 40
14.496124
100
AcDbArc
 50
270.0
 51
274.999997
  0
INSERT
  5
354
100
AcDbEntity
  8
寸法
  6
CONTINUOUS
 62
     1
100
AcDbBlockReference
  2
_OPEN30
 10
-0.000001
 20
-4.736187
 30
0.0
 41
2.0
 42
2.0
 43
2.0
 50
356.044369
  0
INSERT
  5
355
100
AcDbEntity
  8
寸法
  6
CONTINUOUS
 62
     1
100
AcDbBlockReference
  2
_OPEN30
 10
1.263419
 20
-4.681025
 30
0.0
 41
2.0
 42
2.0
 43
2.0
 50
188.955629
  0
MTEXT
  5
356
100
AcDbEntity
  8
寸法
  6
CONTINUOUS
 62
     1
100
AcDbMText
 10
-7.414803
 20
-0.604314
 30
0.0
 40
3.0
 41
0.0
 71
     5
 72
     1
  1
\A1;5°
 11
0.96193
 21
-0.273297
 31
0.0
  0
POINT
  5
357
100
AcDbEntity
  8
DEFPOINTS
  6
CONTINUOUS
 62
     0
100
AcDbPoint
 10
0.842873
 20
-4.711662
 30
0.0
  0
POINT
  5
358
100
AcDbEntity
  8
DEFPOINTS
  6
CONTINUOUS
 62
     0
100
AcDbPoint
 10
-0.000001
 20
9.759938
 30
0.0
  0
POINT
  5
359
100
AcDbEntity
  8
DEFPOINTS
  6
CONTINUOUS
 62
     0
100
AcDbPoint
 10
-1.106877
 20
22.411595
 30
0.0
  0
POINT
  5
35A
100
AcDbEntity
  8
DEFPOINTS
  6
CONTINUOUS
 62
     0
100
AcDbPoint
 10
-0.000001
 20
9.759938
 30
0.0
  0
POINT
  5
35B
100
AcDbEntity
  8
DEFPOINTS
  6
CONTINUOUS
 62
     0
100
AcDbPoint
 10
-0.000001
 20
-22.632272
 30
0.0
  0
ENDBLK
  5
27D
100
AcDbEntity
  8
0
100
AcDbBlockEnd
  0
BLOCK
  5
293
100
AcDbEntity
  8
0
100
AcDbBlockBegin
  2
*D11
 70
     1
 10
0.0
 20
0.0
 30
0.0
  3
*D11
  1

  0
LINE
  5
35C
100
AcDbEntity
  8
寸法
  6
CONTINUOUS
 62
     1
100
AcDbLine
 10
-53.96356
 20
8.759958
 30
0.0
 11
-53.96356
 21
-6.26621
 31
0.0
  0
LINE
  5
35D
100
AcDbEntity
  8
寸法
  6
CONTINUOUS
 62
     1
100
AcDbLine
 10
-50.518478
 20
8.76969
 30
0.0
 11
-48.459412
 21
-5.881322
 31
0.0
  0
ARC
  5
35E
100
AcDbEntity
  8
寸法
  6
CONTINUOUS
 62
     1
100
AcDbCircle
 10
-53.96356
 20
33.282723
 30
0.0
 40
38.548933
100
AcDbArc
 50
267.027041
 51
270.0
  0
LINE
  5
35F
100
AcDbEntity
  8
寸法
  6
CONTINUOUS
 62
     1
100
AcDbLine
 10
-55.962887
 20
-5.214328
 30
0.0
 11
-64.551312
 21
-4.768292
 31
0.0
  0
ARC
  5
360
100
AcDbEntity
  8
寸法
  6
CONTINUOUS
 62
     1
100
AcDbCircle
 10
-53.96356
 20
33.282723
 30
0.0
 40
38.548933
100
AcDbArc
 50
272.972959
 51
275.027041
  0
INSERT
  5
361
100
AcDbEntity
  8
寸法
  6
CONTINUOUS
 62
     1
100
AcDbBlockReference
  2
_OPEN30
 10
-53.96356
 20
-5.26621
 30
0.0
 41
2.0
 42
2.0
 43
2.0
 50
181.48648
  0
INSERT
  5
362
100
AcDbEntity
  8
寸法
  6
CONTINUOUS
 62
     1
100
AcDbBlockReference
  2
_OPEN30
 10
-48.598585
 20
-4.891054
 30
0.0
 41
2.0
 42
2.0
 43
2.0
 50
6.51352
  0
MTEXT
  5
363
100
AcDbEntity
  8
寸法
  6
CONTINUOUS
 62
     1
100
AcDbMText
 10
-60.127438
 20
-2.494674
 30
0.0
 40
3.0
 41
0.0
 71
     5
 72
     1
  1
\A1;8°
 11
0.998654
 21
-0.051865
 31
0.0
  0
POINT
  5
364
100
AcDbEntity
  8
DEFPOINTS
  6
CONTINUOUS
 62
     0
100
AcDbPoint
 10
-50.380442
 20
-5.099323
 30
0.0
  0
POINT
  5
365
100
AcDbEntity
  8
DEFPOINTS
  6
CONTINUOUS
 62
     0
100
AcDbPoint
 10
-53.96356
 20
33.282723
 30
0.0
  0
POINT
  5
366
100
AcDbEntity
  8
DEFPOINTS
  6
CONTINUOUS
 62
     0
100
AcDbPoint
 10
-50.657651
 20
9.759958
 30
0.0
  0
POINT
  5
367
100
AcDbEntity
  8
DEFPOINTS
  6
CONTINUOUS
 62
     0
100
AcDbPoint
 10
-53.96356
 20
33.282723
 30
0.0
  0
POINT
  5
368
100
AcDbEntity
  8
DEFPOINTS
  6
CONTINUOUS
 62
     0
100
AcDbPoint
 10
-53.96356
 20
9.759958
 30
0.0
  0
ENDBLK
  5
294
100
AcDbEntity
  8
0
100
AcDbBlockEnd
  0
BLOCK
  5
29D
100
AcDbEntity
  8
0
100
AcDbBlockBegin
  2
*D12
 70
     1
 10
0.0
 20
0.0
 30
0.0
  3
*D12
  1

  0
LINE
  5
29F
100
AcDbEntity
  8
寸法
  6
CONTINUOUS
 62
     1
100
AcDbLine
 10
-89.214995
 20
19.073325
 30
0.0
 11
-78.085162
 21
23.559617
 31
0.0
1001
ACAD
1000
RTLwPs
1070
   158
  0
MTEXT
  5
2A0
100
AcDbEntity
  8
寸法
  6
CONTINUOUS
 62
     1
100
AcDbMText
 10
-85.512209
 20
23.261328
 30
0.0
 40
3.0
 41
0.0
 71
     5
 72
     1
  1
\A1;%%c48
 11
0.927486
 21
0.373858
 31
0.0
1001
ACAD
1000
MTEXTBEGIN
1070
    73
1070
     1
1070
    44
1040
1.0
1070
    74
1070
     0
1000
MTEXTEND
1000
MTEXTBEGIN
1070
    73
1070
     1
1070
    44
1040
1.0
1070
    74
1070
     0
1000
MTEXTEND
  0
LINE
  5
2A1
100
AcDbEntity
  8
寸法
  6
CONTINUOUS
 62
     1
100
AcDbLine
 10
-53.96356
 20
33.282723
 30
0.0
 11
-76.23019
 21
24.307332
 31
0.0
1001
ACAD
1000
RTLwPs
1070
   158
  0
INSERT
  5
2A2
100
AcDbEntity
  8
寸法
  6
CONTINUOUS
 62
     1
100
AcDbBlockReference
  2
_OPEN30
 10
-76.23019
 20
24.307332
 30
0.0
 41
2.0
 42
2.0
 43
2.0
 50
21.953728
1001
ACAD
1000
RTLwPs
1070
   158
  0
POINT
  5
2A3
100
AcDbEntity
  8
DEFPOINTS
  6
CONTINUOUS
 62
     0
100
AcDbPoint
 10
-76.23019
 20
24.307332
 30
0.0
  0
POINT
  5
2A4
100
AcDbEntity
  8
DEFPOINTS
  6
CONTINUOUS
 62
     0
100
AcDbPoint
 10
-53.96356
 20
33.282723
 30
0.0
  0
ENDBLK
  5
29E
100
AcDbEntity
  8
0
100
AcDbBlockEnd
  0
ENDSEC
  0
SECTION
  2
ENTITIES
  0
POINT
  5
24
100
AcDbEntity
  8
0
  6
CONTINUOUS
 62
     7
100
AcDbPoint
 10
-49.163576
 20
9.759958
 30
0.0
  0
POINT
  5
25
100
AcDbEntity
  8
0
  6
CONTINUOUS
 62
     7
100
AcDbPoint
 10
0.0
 20
9.759923
 30
0.0
  0
POINT
  5
26
100
AcDbEntity
  8
0
  6
CONTINUOUS
 62
     7
100
AcDbPoint
 10
105.0136
 20
-59.631371
 30
0.0
  0
POINT
  5
27
100
AcDbEntity
  8
0
  6
CONTINUOUS
 62
     7
100
AcDbPoint
 10
0.0
 20
-43.631371
 30
0.0
  0
LINE
  5
28
100
AcDbEntity
  8
0
  6
CONTINUOUS
 62
     7
100
AcDbLine
 10
-1.100057
 20
28.759898
 30
0.0
 11
51.999943
 21
28.759898
 31
0.0
  0
LINE
  5
29
100
AcDbEntity
  8
0
  6
CONTINUOUS
 62
     7
100
AcDbLine
 10
1.167914
 20
-59.631371
 30
0.0
 11
51.999958
 21
-59.631371
 31
0.0
  0
LINE
  5
2A
100
AcDbEntity
  8
0
  6
CONTINUOUS
 62
     7
100
AcDbLine
 10
51.999958
 20
-41.631371
 30
0.0
 11
51.999958
 21
-59.631371
 31
0.0
  0
LINE
  5
2B
100
AcDbEntity
  8
0
  6
CONTINUOUS
 62
     7
100
AcDbLine
 10
16.025805
 20
-41.631371
 30
0.0
 11
51.999958
 21
-41.631371
 31
0.0
  0
LINE
  5
2C
100
AcDbEntity
  8
0
  6
CONTINUOUS
 62
     7
100
AcDbLine
 10
-63.550859
 20
28.759898
 30
0.0
 11
-48.663545
 21
28.759898
 31
0.0
  0
LINE
  5
2D
100
AcDbEntity
  8
0
  6
CONTINUOUS
 62
     7
100
AcDbLine
 10
-47.163545
 20
27.259944
 30
0.0
 11
-47.163545
 21
10.866815
 31
0.0
  0
LINE
  5
2E
100
AcDbEntity
  8
0
  6
CONTINUOUS
 62
     7
100
AcDbLine
 10
-48.66348
 20
28.759921
 30
0.0
 11
-47.163511
 21
27.259952
 31
0.0
  0
LINE
  5
2F
100
AcDbEntity
  8
0
  6
CENTER
 62
     1
 48
0.5
100
AcDbLine
 10
37.999958
 20
-38.631367
 30
0.0
 11
37.999958
 21
-62.631375
 31
0.0
  0
LINE
  5
30
100
AcDbEntity
  8
0
  6
CENTER
 62
     1
 48
0.5
100
AcDbLine
 10
10.999958
 20
-51.631371
 30
0.0
 11
18.999958
 21
-51.631371
 31
0.0
  0
LINE
  5
31
100
AcDbEntity
  8
0
  6
CENTER
 62
     1
 48
0.5
100
AcDbLine
 10
14.999958
 20
-47.631371
 30
0.0
 11
14.999958
 21
-55.631371
 31
0.0
  0
LINE
  5
32
100
AcDbEntity
  8
0
  6
CONTINUOUS
 62
     7
100
AcDbLine
 10
106.41978
 20
-41.631371
 30
0.0
 11
118.41979
 21
-41.631371
 31
0.0
  0
LINE
  5
33
100
AcDbEntity
  8
0
  6
CONTINUOUS
 62
     7
100
AcDbLine
 10
119.91979
 20
-43.131371
 30
0.0
 11
119.91979
 21
-58.01339
 31
0.0
  0
LINE
  5
34
100
AcDbEntity
  8
0
  6
CONTINUOUS
 62
     7
100
AcDbLine
 10
106.41972
 20
-41.631287
 30
0.0
 11
104.20297
 21
-57.404195
 31
0.0
  0
LINE
  5
35
100
AcDbEntity
  8
0
  6
CONTINUOUS
 62
     7
100
AcDbLine
 10
114.22796
 20
-43.5551
 30
0.0
 11
112.34912
 21
-56.923722
 31
0.0
  0
LINE
  5
36
100
AcDbEntity
  8
0
  6
CONTINUOUS
 62
     7
100
AcDbLine
 10
118.41967
 20
-41.631375
 30
0.0
 11
119.91968
 21
-43.131379
 31
0.0
  0
LINE
  5
38
100
AcDbEntity
  8
0
  6
CONTINUOUS
 62
     7
100
AcDbLine
 10
105.0136
 20
-59.631371
 30
0.0
 11
118.329707
 21
-59.631371
 31
0.0
  0
LINE
  5
39
100
AcDbEntity
  8
0
  6
CONTINUOUS
 62
     7
100
AcDbLine
 10
118.329707
 20
-59.631371
 30
0.0
 11
119.91969
 21
-58.013386
 31
0.0
  0
LINE
  5
3A
100
AcDbEntity
  8
0
  6
CONTINUOUS
 62
     7
100
AcDbLine
 10
-65.16356
 20
27.147172
 30
0.0
 11
-65.16356
 21
13.853707
 31
0.0
  0
LINE
  5
3B
100
AcDbEntity
  8
0
  6
CONTINUOUS
 62
     7
100
AcDbLine
 10
51.999943
 20
28.759898
 30
0.0
 11
51.999943
 21
13.043081
 31
0.0
  0
LINE
  5
3C
100
AcDbEntity
  8
0
  6
CONTINUOUS
 62
     7
100
AcDbLine
 10
16.025805
 20
27.259913
 30
0.0
 11
51.999943
 21
27.259913
 31
0.0
  0
LINE
  5
3D
100
AcDbEntity
  8
0
  6
CONTINUOUS
 62
     7
100
AcDbLine
 10
21.0
 20
15.259897
 30
0.0
 11
51.999943
 21
15.259897
 31
0.0
  0
LINE
  5
3E
100
AcDbEntity
  8
0
  6
CENTER
 62
     1
 48
0.5
100
AcDbLine
 10
37.999973
 20
31.759896
 30
0.0
 11
37.999973
 21
10.435892
 31
0.0
  0
LINE
  5
3F
100
AcDbEntity
  8
0
  6
CONTINUOUS
 62
     7
100
AcDbLine
 10
0.000001
 20
9.759923
 30
0.0
 11
12.651672
 21
10.8668
 31
0.0
  0
LINE
  5
40
100
AcDbEntity
  8
0
  6
CONTINUOUS
 62
     7
100
AcDbLine
 10
-1.106877
 20
22.411595
 30
0.0
 11
-0.000001
 21
9.759938
 31
0.0
  0
LINE
  5
41
100
AcDbEntity
  8
0
  6
CONTINUOUS
 62
     7
100
AcDbLine
 10
-56.663576
 20
28.759883
 30
0.0
 11
-56.663576
 21
10.759974
 31
0.0
  0
LINE
  5
42
100
AcDbEntity
  8
0
  6
CONTINUOUS
 62
     7
100
AcDbLine
 10
-65.16356
 20
13.853707
 30
0.0
 11
-56.663534
 21
10.75995
 31
0.0
  0
LINE
  5
43
100
AcDbEntity
  8
0
  6
CONTINUOUS
 62
     7
100
AcDbLine
 10
-63.550855
 20
28.759896
 30
0.0
 11
-65.16356
 21
27.14717
 31
0.0
  0
LINE
  5
44
100
AcDbEntity
  8
0
  6
CONTINUOUS
 62
     7
100
AcDbLine
 10
-49.16356
 20
22.411572
 30
0.0
 11
-53.96356
 21
22.411572
 31
0.0
  0
LINE
  5
45
100
AcDbEntity
  8
0
  6
CONTINUOUS
 62
     7
100
AcDbLine
 10
-49.16356
 20
9.759958
 30
0.0
 11
-53.96356
 21
9.759958
 31
0.0
  0
LINE
  5
46
100
AcDbEntity
  8
0
  6
CONTINUOUS
 62
     7
100
AcDbLine
 10
-53.977571
 20
10.759974
 30
0.0
 11
-56.66356
 21
10.759974
 31
0.0
  0
LINE
  5
47
100
AcDbEntity
  8
0
  6
CONTINUOUS
 62
     7
100
AcDbLine
 10
59.999943
 20
23.759898
 30
0.0
 11
59.999943
 21
19.759898
 31
0.0
  0
LINE
  5
48
100
AcDbEntity
  8
0
  6
CENTER
 62
     1
 48
0.5
100
AcDbLine
 10
49.541611
 20
21.759898
 30
0.0
 11
61.930618
 21
21.759898
 31
0.0
  0
LINE
  5
49
100
AcDbEntity
  8
0
  6
CONTINUOUS
 62
     7
100
AcDbLine
 10
54.999943
 20
25.759898
 30
0.0
 11
54.999943
 21
17.759898
 31
0.0
  0
LINE
  5
4A
100
AcDbEntity
  8
0
  6
CONTINUOUS
 62
     7
100
AcDbLine
 10
51.999943
 20
19.259898
 30
0.0
 11
54.999943
 21
19.259898
 31
0.0
  0
LINE
  5
4B
100
AcDbEntity
  8
0
  6
CONTINUOUS
 62
     7
100
AcDbLine
 10
51.999943
 20
24.259898
 30
0.0
 11
54.999943
 21
24.259898
 31
0.0
  0
LINE
  5
4C
100
AcDbEntity
  8
0
  6
CONTINUOUS
 62
     7
100
AcDbLine
 10
57.499943
 20
26.259898
 30
0.0
 11
59.999943
 21
23.7599
 31
0.0
  0
LINE
  5
4D
100
AcDbEntity
  8
0
  6
CONTINUOUS
 62
     7
100
AcDbLine
 10
57.499943
 20
17.259899
 30
0.0
 11
59.999943
 21
19.759899
 31
0.0
  0
LINE
  5
4E
100
AcDbEntity
  8
0
  6
CONTINUOUS
 62
     7
100
AcDbLine
 10
55.499943
 20
17.259898
 30
0.0
 11
57.499943
 21
17.259898
 31
0.0
  0
LINE
  5
4F
100
AcDbEntity
  8
0
  6
CONTINUOUS
 62
     7
100
AcDbLine
 10
55.499943
 20
26.259898
 30
0.0
 11
57.499943
 21
26.259898
 31
0.0
  0
LINE
  5
50
100
AcDbEntity
  8
0
  6
CONTINUOUS
 62
     7
100
AcDbLine
 10
55.499943
 20
26.259896
 30
0.0
 11
54.999947
 21
25.759897
 31
0.0
  0
LINE
  5
51
100
AcDbEntity
  8
0
  6
CONTINUOUS
 62
     7
100
AcDbLine
 10
54.999947
 20
17.759898
 30
0.0
 11
55.499943
 21
17.2599
 31
0.0
  0
LINE
  5
52
100
AcDbEntity
  8
0
  6
CONTINUOUS
 62
     7
100
AcDbLine
 10
55.499943
 20
26.259898
 30
0.0
 11
55.499943
 21
17.259897
 31
0.0
  0
LINE
  5
53
100
AcDbEntity
  8
0
  6
CONTINUOUS
 62
     7
100
AcDbLine
 10
57.499943
 20
26.259898
 30
0.0
 11
57.499943
 21
17.259898
 31
0.0
  0
LINE
  5
54
100
AcDbEntity
  8
0
  6
CONTINUOUS
 62
     7
100
AcDbLine
 10
51.999943
 20
19.759898
 30
0.0
 11
54.999943
 21
19.759898
 31
0.0
  0
LINE
  5
55
100
AcDbEntity
  8
0
  6
CONTINUOUS
 62
     7
100
AcDbLine
 10
51.999943
 20
23.759898
 30
0.0
 11
54.999943
 21
23.759898
 31
0.0
  0
LINE
  5
56
100
AcDbEntity
  8
0
  6
CONTINUOUS
 62
     7
100
AcDbLine
 10
59.999958
 20
-49.131371
 30
0.0
 11
59.999958
 21
-53.131371
 31
0.0
  0
LINE
  5
57
100
AcDbEntity
  8
0
  6
CENTER
 62
     1
 48
0.5
100
AcDbLine
 10
49.541626
 20
-51.131371
 30
0.0
 11
61.930634
 21
-51.131371
 31
0.0
  0
LINE
  5
58
100
AcDbEntity
  8
0
  6
CONTINUOUS
 62
     7
100
AcDbLine
 10
54.999958
 20
-47.131371
 30
0.0
 11
54.999958
 21
-55.131371
 31
0.0
  0
LINE
  5
59
100
AcDbEntity
  8
0
  6
CONTINUOUS
 62
     7
100
AcDbLine
 10
51.999958
 20
-53.631371
 30
0.0
 11
54.999958
 21
-53.631371
 31
0.0
  0
LINE
  5
5A
100
AcDbEntity
  8
0
  6
CONTINUOUS
 62
     7
100
AcDbLine
 10
51.999958
 20
-48.631371
 30
0.0
 11
54.999958
 21
-48.631371
 31
0.0
  0
LINE
  5
5B
100
AcDbEntity
  8
0
  6
CONTINUOUS
 62
     7
100
AcDbLine
 10
57.499958
 20
-46.631371
 30
0.0
 11
59.999962
 21
-49.131371
 31
0.0
  0
LINE
  5
5C
100
AcDbEntity
  8
0
  6
CONTINUOUS
 62
     7
100
AcDbLine
 10
57.499954
 20
-55.631371
 30
0.0
 11
59.999954
 21
-53.131371
 31
0.0
  0
LINE
  5
5D
100
AcDbEntity
  8
0
  6
CONTINUOUS
 62
     7
100
AcDbLine
 10
55.499958
 20
-55.631371
 30
0.0
 11
57.499958
 21
-55.631371
 31
0.0
  0
LINE
  5
5E
100
AcDbEntity
  8
0
  6
CONTINUOUS
 62
     7
100
AcDbLine
 10
55.499958
 20
-46.631371
 30
0.0
 11
57.499958
 21
-46.631371
 31
0.0
  0
LINE
  5
5F
100
AcDbEntity
  8
0
  6
CONTINUOUS
 62
     7
100
AcDbLine
 10
55.499958
 20
-46.631375
 30
0.0
 11
54.999962
 21
-47.131375
 31
0.0
  0
LINE
  5
60
100
AcDbEntity
  8
0
  6
CONTINUOUS
 62
     7
100
AcDbLine
 10
54.999962
 20
-55.131371
 30
0.0
 11
55.499962
 21
-55.631371
 31
0.0
  0
LINE
  5
61
100
AcDbEntity
  8
0
  6
CONTINUOUS
 62
     7
100
AcDbLine
 10
55.499958
 20
-46.631371
 30
0.0
 11
55.499958
 21
-55.631371
 31
0.0
  0
LINE
  5
62
100
AcDbEntity
  8
0
  6
CONTINUOUS
 62
     7
100
AcDbLine
 10
57.499958
 20
-46.631371
 30
0.0
 11
57.499958
 21
-55.631371
 31
0.0
  0
LINE
  5
63
100
AcDbEntity
  8
0
  6
CONTINUOUS
 62
     7
100
AcDbLine
 10
51.999958
 20
-53.131371
 30
0.0
 11
54.999958
 21
-53.131371
 31
0.0
  0
LINE
  5
64
100
AcDbEntity
  8
0
  6
CONTINUOUS
 62
     7
100
AcDbLine
 10
51.999958
 20
-49.131371
 30
0.0
 11
54.999958
 21
-49.131371
 31
0.0
  0
LINE
  5
65
100
AcDbEntity
  8
0
  6
CENTER
 62
     1
 48
0.5
100
AcDbLine
 10
36.249958
 20
-38.631367
 30
0.0
 11
36.249958
 21
-62.631375
 31
0.0
  0
LINE
  5
66
100
AcDbEntity
  8
0
  6
CENTER
 62
     1
 48
0.5
100
AcDbLine
 10
39.749958
 20
-38.631367
 30
0.0
 11
39.749958
 21
-62.631375
 31
0.0
  0
LINE
  5
67
100
AcDbEntity
  8
0
  6
CENTER
 62
     1
 48
0.5
100
AcDbLine
 10
1.498439
 20
16.265275
 30
0.0
 11
10.046356
 21
17.01312
 31
0.0
  0
LINE
  5
68
100
AcDbEntity
  8
0
  6
CENTER
 62
     1
 48
0.5
100
AcDbLine
 10
5.398474
 20
20.913157
 30
0.0
 11
6.14632
 21
12.365239
 31
0.0
  0
LINE
  5
69
100
AcDbEntity
  8
0
  6
CONTINUOUS
 62
     7
100
AcDbLine
 10
11.544795
 20
23.518473
 30
0.0
 11
12.652205
 21
10.860708
 31
0.0
  0
LINE
  5
6A
100
AcDbEntity
  8
0
  6
CONTINUOUS
 62
     7
100
AcDbLine
 10
-1.106877
 20
22.411595
 30
0.0
 11
11.544795
 21
23.518473
 31
0.0
  0
LINE
  5
6B
100
AcDbEntity
  8
0
  6
CONTINUOUS
 62
     7
100
AcDbLine
 10
-1.100057
 20
28.759898
 30
0.0
 11
-1.100057
 21
22.412192
 31
0.0
  0
LINE
  5
6D
100
AcDbEntity
  8
0
  6
CONTINUOUS
 62
     7
100
AcDbLine
 10
-0.330865
 20
-51.131371
 30
0.0
 11
11.499943
 21
-51.131371
 31
0.0
  0
LINE
  5
6E
100
AcDbEntity
  8
0
  6
CONTINUOUS
 62
     7
100
AcDbLine
 10
20.0
 20
14.259897
 30
0.0
 11
20.0
 21
11.503556
 31
0.0
  0
LINE
  5
6F
100
AcDbEntity
  8
0
  6
CONTINUOUS
 62
     7
100
AcDbLine
 10
20.0
 20
-41.631371
 30
0.0
 11
20.0
 21
-56.404195
 31
0.0
  0
LINE
  5
70
100
AcDbEntity
  8
0
  6
CONTINUOUS
 62
     7
100
AcDbLine
 10
-1.106919
 20
-43.747716
 30
0.0
 11
12.684484
 21
-42.29818
 31
0.0
  0
LINE
  5
71
100
AcDbEntity
  8
0
  6
CONTINUOUS
 62
     7
100
AcDbLine
 10
0.0
 20
-43.631371
 30
0.0
 11
0.788281
 21
-51.131371
 31
0.0
  0
LINE
  5
72
100
AcDbEntity
  8
0
  6
CONTINUOUS
 62
     7
100
AcDbLine
 10
-1.106919
 20
-43.747716
 30
0.0
 11
-0.330865
 21
-51.131371
 31
0.0
  0
LINE
  5
73
100
AcDbEntity
  8
0
  6
CONTINUOUS
 62
     7
100
AcDbLine
 10
105.0136
 20
-59.631371
 30
0.0
 11
104.20298
 21
-57.404195
 31
0.0
  0
LINE
  5
74
100
AcDbEntity
  8
0
  6
CONTINUOUS
 62
     7
100
AcDbLine
 10
21.0
 20
-57.404195
 30
0.0
 11
51.999958
 21
-57.404195
 31
0.0
  0
LINE
  5
75
100
AcDbEntity
  8
0
  6
CONTINUOUS
 62
     7
100
AcDbLine
 10
21.0
 20
13.043081
 30
0.0
 11
51.999943
 21
13.043081
 31
0.0
  0
LINE
  5
76
100
AcDbEntity
  8
0
  6
CONTINUOUS
 62
     7
100
AcDbLine
 10
-0.605182
 20
-48.52142
 30
0.0
 11
13.186219
 21
-47.071885
 31
0.0
  0
LINE
  5
77
100
AcDbEntity
  8
0
  6
CONTINUOUS
 62
     7
100
AcDbLine
 10
-49.16356
 20
22.411572
 30
0.0
 11
-49.16356
 21
9.759958
 31
0.0
  0
LINE
  5
78
100
AcDbEntity
  8
0
  6
CONTINUOUS
 62
     7
100
AcDbLine
 10
-53.96356
 20
22.411572
 30
0.0
 11
-53.96356
 21
9.759958
 31
0.0
  0
LINE
  5
79
100
AcDbEntity
  8
0
  6
CONTINUOUS
 62
     7
100
AcDbLine
 10
-55.628244
 20
28.759898
 30
0.0
 11
-49.16356
 21
22.411572
 31
0.0
  0
LINE
  5
7A
100
AcDbEntity
  8
0
  6
CONTINUOUS
 62
     7
100
AcDbLine
 10
-47.83386
 20
23.518429
 30
0.0
 11
-47.83386
 21
10.866815
 31
0.0
  0
LINE
  5
7B
100
AcDbEntity
  8
0
  6
CONTINUOUS
 62
     7
100
AcDbLine
 10
-49.16356
 20
9.759958
 30
0.0
 11
-47.83386
 21
10.866815
 31
0.0
  0
LINE
  5
7C
100
AcDbEntity
  8
0
  6
CONTINUOUS
 62
     7
100
AcDbLine
 10
-49.16356
 20
22.411573
 30
0.0
 11
-47.83386
 21
23.51843
 31
0.0
  0
LINE
  5
7D
100
AcDbEntity
  8
0
  6
CONTINUOUS
 62
     7
100
AcDbLine
 10
-47.83386
 20
10.866815
 30
0.0
 11
-47.163545
 21
10.866815
 31
0.0
  0
LINE
  5
7E
100
AcDbEntity
  8
0
  6
CONTINUOUS
 62
     7
100
AcDbLine
 10
12.652205
 20
10.860708
 30
0.0
 11
20.0
 21
11.503556
 31
0.0
  0
LINE
  5
7F
100
AcDbEntity
  8
0
  6
CONTINUOUS
 62
     7
100
AcDbLine
 10
11.499943
 20
-47.249119
 30
0.0
 11
11.499943
 21
-51.131371
 31
0.0
  0
LINE
  5
80
100
AcDbEntity
  8
0
  6
CONTINUOUS
 62
     7
100
AcDbLine
 10
11.499943
 20
-51.131371
 30
0.0
 11
12.026752
 21
-51.231324
 31
0.0
  0
LINE
  5
81
100
AcDbEntity
  8
0
  6
CONTINUOUS
 62
     7
100
AcDbLine
 10
17.913071
 20
-52.348149
 30
0.0
 11
19.993082
 21
-52.742795
 31
0.0
  0
LINE
  5
82
100
AcDbEntity
  8
0
  6
CONTINUOUS
 62
     7
100
AcDbLine
 10
-1.100057
 20
-43.43137
 30
0.0
 11
16.025805
 21
-41.631371
 31
0.0
  0
LINE
  5
83
100
AcDbEntity
  8
0
  6
CONTINUOUS
 62
     7
100
AcDbLine
 10
-1.100057
 20
-43.43137
 30
0.0
 11
-1.067247
 21
-43.743546
 31
0.0
  0
LINE
  5
84
100
AcDbEntity
  8
0
  6
CONTINUOUS
 62
     7
100
AcDbLine
 10
16.025805
 20
27.259913
 30
0.0
 11
16.025805
 21
11.155859
 31
0.0
  0
LINE
  5
85
100
AcDbEntity
  8
0
  6
CONTINUOUS
 62
     7
100
AcDbLine
 10
3.942307
 20
28.759898
 30
0.0
 11
16.025805
 21
27.259913
 31
0.0
  0
LINE
  5
86
100
AcDbEntity
  8
0
  6
CONTINUOUS
 62
     7
100
AcDbLine
 10
12.651672
 20
-41.986008
 30
0.0
 11
13.186219
 21
-47.071885
 31
0.0
  0
LINE
  5
87
100
AcDbEntity
  8
0
  6
CONTINUOUS
 62
     7
100
AcDbLine
 10
0.788282
 20
-51.131371
 30
0.0
 11
2.287061
 21
-59.631371
 31
0.0
  0
LINE
  5
88
100
AcDbEntity
  8
0
  6
CONTINUOUS
 62
     7
100
AcDbLine
 10
-0.330866
 20
-51.131371
 30
0.0
 11
1.167914
 21
-59.631371
 31
0.0
  0
LINE
  5
89
100
AcDbEntity
  8
0
  6
CENTER
 62
     1
 48
0.5
100
AcDbLine
 10
124.53656
 20
-51.820218
 30
0.0
 11
100.9057
 21
-48.499119
 31
0.0
  0
LINE
  5
8A
100
AcDbEntity
  8
0
  6
CONTINUOUS
 62
     7
100
AcDbLine
 10
119.91979
 20
-46.930096
 30
0.0
 11
113.87307
 21
-46.080285
 31
0.0
  0
LINE
  5
8B
100
AcDbEntity
  8
0
  6
CONTINUOUS
 62
     7
100
AcDbLine
 10
119.91979
 20
-55.412648
 30
0.0
 11
112.70401
 21
-54.398533
 31
0.0
  0
LINE
  5
8C
100
AcDbEntity
  8
0
  6
CONTINUOUS
 62
     7
100
AcDbLine
 10
112.34912
 20
-56.923722
 30
0.0
 11
104.42698
 21
-55.810338
 31
0.0
  0
LINE
  5
8D
100
AcDbEntity
  8
0
  6
CONTINUOUS
 62
     7
100
AcDbLine
 10
114.22796
 20
-43.5551
 30
0.0
 11
106.30582
 21
-42.441716
 31
0.0
  0
LINE
  5
8E
100
AcDbEntity
  8
0
  6
CONTINUOUS
 62
     7
100
AcDbLine
 10
36.249958
 20
-55.810334
 30
0.0
 11
39.749958
 21
-55.810334
 31
0.0
  0
LINE
  5
8F
100
AcDbEntity
  8
0
  6
CONTINUOUS
 62
     7
100
AcDbLine
 10
36.249958
 20
-54.398537
 30
0.0
 11
39.749958
 21
-54.398537
 31
0.0
  0
LINE
  5
90
100
AcDbEntity
  8
0
  6
CONTINUOUS
 62
     7
100
AcDbLine
 10
36.249958
 20
-46.080285
 30
0.0
 11
39.749958
 21
-46.080285
 31
0.0
  0
LINE
  5
91
100
AcDbEntity
  8
0
  6
CONTINUOUS
 62
     7
100
AcDbLine
 10
36.249958
 20
-46.930096
 30
0.0
 11
39.749958
 21
-46.930096
 31
0.0
  0
LINE
  5
92
100
AcDbEntity
  8
0
  6
CONTINUOUS
 62
     7
100
AcDbLine
 10
36.249958
 20
-43.5551
 30
0.0
 11
39.749958
 21
-43.5551
 31
0.0
  0
LINE
  5
93
100
AcDbEntity
  8
0
  6
CONTINUOUS
 62
     7
100
AcDbLine
 10
36.249958
 20
-42.441716
 30
0.0
 11
39.749958
 21
-42.441716
 31
0.0
  0
CIRCLE
  5
94
100
AcDbEntity
  8
0
  6
CONTINUOUS
 62
     7
100
AcDbCircle
 10
14.999958
 20
-51.631371
 30
0.0
 40
3.0
  0
CIRCLE
  5
95
100
AcDbEntity
  8
0
  6
CONTINUOUS
 62
     7
100
AcDbCircle
 10
14.999958
 20
-51.631371
 30
0.0
 40
2.5
  0
CIRCLE
  5
96
100
AcDbEntity
  8
0
  6
CONTINUOUS
 62
     7
100
AcDbCircle
 10
5.772397
 20
16.639197
 30
0.0
 40
2.599999
  0
ARC
  5
97
100
AcDbEntity
  8
0
  6
CONTINUOUS
 62
     7
100
AcDbCircle
 10
11.736534
 20
21.326838
 30
0.0
 40
2.2
100
AcDbArc
 50
275.00004
 51
94.999954
  0
ARC
  5
98
100
AcDbEntity
  8
0
  6
CONTINUOUS
 62
     7
100
AcDbCircle
 10
21.0
 20
14.259897
 30
0.0
 40
1.0
100
AcDbArc
 50
90.000003
 51
180.00001
  0
ARC
  5
99
100
AcDbEntity
  8
0
  6
CONTINUOUS
 62
     7
100
AcDbCircle
 10
21.0
 20
-56.404195
 30
0.0
 40
1.0
100
AcDbArc
 50
179.99999
 51
270.0
  0
ARC
  5
9A
100
AcDbEntity
  8
0
  6
CONTINUOUS
 62
     7
100
AcDbCircle
 10
21.0
 20
12.043081
 30
0.0
 40
1.0
100
AcDbArc
 50
90.000003
 51
180.00001
  0
LWPOLYLINE
  5
9B
100
AcDbEntity
  8
0
  6
CONTINUOUS
 62
     7
100
AcDbPolyline
 90
       17
 70
     0
 43
0.0
 10
36.249958
 20
-42.441716
 42
0.048416
 10
34.939535
 20
-42.568888
 42
0.048522
 10
33.678077
 20
-42.945934
 42
0.048718
 10
32.513111
 20
-43.559479
 42
0.048977
 10
31.489242
 20
-44.387401
 42
0.049271
 10
30.646354
 20
-45.399391
 42
0.049546
 10
30.018257
 20
-46.557354
 42
0.049752
 10
29.630768
 20
-47.816465
 42
0.049813
 10
29.499958
 20
-49.126027
 42
0.049822
 10
29.630815
 20
-50.435819
 42
0.049704
 10
30.017862
 20
-51.693759
 42
0.04952
 10
30.64539
 20
-52.85124
 42
0.049257
 10
31.487758
 20
-53.863188
 42
0.048988
 10
32.511589
 20
-54.691569
 42
0.048743
 10
33.677017
 20
-55.305684
 42
0.048553
 10
34.939243
 20
-55.683104
 42
0.048427
 10
36.249958
 20
-55.810334
  0
LWPOLYLINE
  5
AE
100
AcDbEntity
  8
0
  6
CONTINUOUS
 62
     7
100
AcDbPolyline
 90
       17
 70
     0
 43
0.0
 10
36.249958
 20
-43.5551
 42
0.020581
 10
35.638981
 20
-43.580253
 42
0.020698
 10
35.03135
 20
-43.655785
 42
0.020877
 10
34.432063
 20
-43.781507
 42
0.021141
 10
33.845485
 20
-43.957055
 42
0.021493
 10
33.275986
 20
-44.181899
 42
0.021926
 10
32.728104
 20
-44.45528
 42
0.022437
 10
32.206554
 20
-44.776139
 42
0.023014
 10
31.716229
 20
-45.143033
 42
0.023645
 10
31.262175
 20
-45.554043
 42
0.024311
 10
30.849526
 20
-46.00667
 42
0.024989
 10
30.48341
 20
-46.497737
 42
0.025651
 10
30.168808
 20
-47.023309
 42
0.026261
 10
29.91037
 20
-47.578643
 42
0.026786
 10
29.712207
 20
-48.158186
 42
0.027191
 10
29.577659
 20
-48.755645
 42
0.027446
 10
29.509088
 20
-49.364125
  0
LWPOLYLINE
  5
C1
100
AcDbEntity
  8
0
  6
CONTINUOUS
 62
     7
100
AcDbPolyline
 90
       17
 70
     0
 43
0.0
 10
36.249958
 20
-46.080285
 42
0.048369
 10
35.43537
 20
-46.15926
 42
0.048522
 10
34.650419
 20
-46.393717
 42
0.048718
 10
33.925478
 20
-46.775341
 42
0.048977
 10
33.288306
 20
-47.29037
 42
0.04927
 10
32.76372
 20
-47.919952
 42
0.049546
 10
32.372765
 20
-48.640386
 42
0.049752
 10
32.131509
 20
-49.423787
 42
0.049862
 10
32.049957
 20
-50.239411
 42
0.049822
 10
32.131379
 20
-51.054393
 42
0.049704
 10
32.372209
 20
-51.837112
 42
0.04952
 10
32.762671
 20
-52.557322
 42
0.049257
 10
33.28681
 20
-53.186979
 42
0.048988
 10
33.923861
 20
-53.702416
 42
0.048743
 10
34.649016
 20
-54.084533
 42
0.048553
 10
35.434401
 20
-54.319372
 42
0.048427
 10
36.249958
 20
-54.398537
  0
LWPOLYLINE
  5
D4
100
AcDbEntity
  8
0
  6
CONTINUOUS
 62
     7
100
AcDbPolyline
 90
       17
 70
     0
 43
0.0
 10
36.249958
 20
-46.930096
 42
0.019741
 10
35.877646
 20
-46.944797
 42
0.019892
 10
35.506671
 20
-46.989039
 42
0.020049
 10
35.141125
 20
-47.062585
 42
0.020341
 10
34.782724
 20
-47.165369
 42
0.020731
 10
34.433959
 20
-47.297203
 42
0.021217
 10
34.097445
 20
-47.457797
 42
0.021794
 10
33.775938
 20
-47.646713
 42
0.022454
 10
33.47235
 20
-47.863314
 42
0.023185
 10
33.189734
 20
-48.106701
 42
0.02397
 10
32.931267
 20
-48.375633
 42
0.024784
 10
32.700191
 20
-48.66846
 42
0.025593
 10
32.499733
 20
-48.983045
 42
0.026358
 10
32.332986
 20
-49.316712
 42
0.027033
 10
32.202761
 20
-49.666225
 42
0.027571
 10
32.111421
 20
-50.027809
 42
0.027932
 10
32.060714
 20
-50.397231
  0
LWPOLYLINE
  5
E7
100
AcDbEntity
  8
0
  6
CONTINUOUS
 62
     7
100
AcDbPolyline
 90
       17
 70
     0
 43
0.0
 10
39.749958
 20
-46.080285
 42
-0.048369
 10
40.564546
 20
-46.15926
 42
-0.048522
 10
41.349497
 20
-46.393717
 42
-0.048718
 10
42.074438
 20
-46.775341
 42
-0.048977
 10
42.71161
 20
-47.29037
 42
-0.04927
 10
43.236196
 20
-47.919952
 42
-0.049546
 10
43.627151
 20
-48.640386
 42
-0.049752
 10
43.868407
 20
-49.423787
 42
-0.049862
 10
43.949959
 20
-50.239411
 42
-0.049822
 10
43.868537
 20
-51.054393
 42
-0.049704
 10
43.627707
 20
-51.837112
 42
-0.04952
 10
43.237245
 20
-52.557322
 42
-0.049257
 10
42.713106
 20
-53.186979
 42
-0.048988
 10
42.076055
 20
-53.702416
 42
-0.048743
 10
41.3509
 20
-54.084533
 42
-0.048553
 10
40.565515
 20
-54.319372
 42
-0.048427
 10
39.749958
 20
-54.398537
  0
LWPOLYLINE
  5
FA
100
AcDbEntity
  8
0
  6
CONTINUOUS
 62
     7
100
AcDbPolyline
 90
       17
 70
     0
 43
0.0
 10
39.749958
 20
-46.930096
 42
-0.019741
 10
40.12227
 20
-46.944797
 42
-0.019892
 10
40.493245
 20
-46.989039
 42
-0.020049
 10
40.858791
 20
-47.062585
 42
-0.020341
 10
41.217192
 20
-47.165369
 42
-0.020731
 10
41.565957
 20
-47.297203
 42
-0.021217
 10
41.902471
 20
-47.457797
 42
-0.021794
 10
42.223978
 20
-47.646713
 42
-0.022454
 10
42.527566
 20
-47.863314
 42
-0.023185
 10
42.810182
 20
-48.106701
 42
-0.02397
 10
43.068649
 20
-48.375633
 42
-0.024784
 10
43.299725
 20
-48.66846
 42
-0.025593
 10
43.500183
 20
-48.983045
 42
-0.026358
 10
43.66693
 20
-49.316712
 42
-0.027033
 10
43.797155
 20
-49.666225
 42
-0.027571
 10
43.888495
 20
-50.027809
 42
-0.027932
 10
43.939202
 20
-50.397231
  0
LWPOLYLINE
  5
10D
100
AcDbEntity
  8
0
  6
CONTINUOUS
 62
     7
100
AcDbPolyline
 90
       17
 70
     0
 43
0.0
 10
39.749958
 20
-43.5551
 42
-0.020581
 10
40.360935
 20
-43.580253
 42
-0.020698
 10
40.968566
 20
-43.655785
 42
-0.020877
 10
41.567853
 20
-43.781507
 42
-0.021141
 10
42.154431
 20
-43.957055
 42
-0.021493
 10
42.72393
 20
-44.181899
 42
-0.021926
 10
43.271812
 20
-44.45528
 42
-0.022437
 10
43.793362
 20
-44.776139
 42
-0.023014
 10
44.283687
 20
-45.143033
 42
-0.023645
 10
44.737741
 20
-45.554043
 42
-0.024311
 10
45.15039
 20
-46.00667
 42
-0.024989
 10
45.516506
 20
-46.497737
 42
-0.025651
 10
45.831108
 20
-47.023309
 42
-0.026261
 10
46.089546
 20
-47.578643
 42
-0.026786
 10
46.287709
 20
-48.158186
 42
-0.027191
 10
46.422257
 20
-48.755645
 42
-0.027446
 10
46.490828
 20
-49.364125
  0
LWPOLYLINE
  5
120
100
AcDbEntity
  8
0
  6
CONTINUOUS
 62
     7
100
AcDbPolyline
 90
       17
 70
     0
 43
0.0
 10
39.749958
 20
-42.441716
 42
-0.048416
 10
41.060381
 20
-42.568888
 42
-0.048522
 10
42.321839
 20
-42.945934
 42
-0.048718
 10
43.486805
 20
-43.559479
 42
-0.048977
 10
44.510674
 20
-44.387401
 42
-0.049271
 10
45.353562
 20
-45.399391
 42
-0.049546
 10
45.981659
 20
-46.557354
 42
-0.049752
 10
46.369148
 20
-47.816465
 42
-0.049813
 10
46.499958
 20
-49.126027
 42
-0.049822
 10
46.369101
 20
-50.435819
 42
-0.049704
 10
45.982054
 20
-51.693759
 42
-0.04952
 10
45.354526
 20
-52.85124
 42
-0.049257
 10
44.512158
 20
-53.863188
 42
-0.048988
 10
43.488327
 20
-54.691569
 42
-0.048743
 10
42.322899
 20
-55.305684
 42
-0.048553
 10
41.060673
 20
-55.683104
 42
-0.048427
 10
39.749958
 20
-55.810334
  0
LWPOLYLINE
  5
133
100
AcDbEntity
  8
0
  6
CONTINUOUS
 62
     7
100
AcDbPolyline
 90
       16
 70
     1
 43
0.0
 10
46.499958
 20
14.206503
 42
0.13236
 10
44.484171
 20
14.81391
 42
0.015599
 10
42.329024
 20
15.014956
 42
0.008969
 10
40.166246
 20
15.114901
 42
0.007248
 10
37.999958
 20
15.145922
 42
0.007243
 10
35.835056
 20
15.114942
 42
0.00897
 10
33.67159
 20
15.015002
 42
0.015605
 10
31.515383
 20
14.813863
 42
0.132457
 10
29.499958
 20
14.206503
 42
0.13236
 10
31.515745
 20
13.599097
 42
0.015599
 10
33.670892
 20
13.398051
 42
0.008969
 10
35.83367
 20
13.298106
 42
0.007248
 10
37.999958
 20
13.267085
 42
0.007243
 10
40.164861
 20
13.298065
 42
0.00897
 10
42.328326
 20
13.398005
 42
0.015605
 10
44.484533
 20
13.599144
 42
0.132457
  0
LINE
  5
145
100
AcDbEntity
  8
0
  6
CONTINUOUS
 62
     7
100
AcDbLine
 10
118.24871
 20
-59.631371
 30
0.0
 11
119.91979
 21
-57.960287
 31
0.0
  0
LINE
  5
146
100
AcDbEntity
  8
0
  6
CONTINUOUS
 62
     7
100
AcDbLine
 10
116.003647
 20
-59.631371
 30
0.0
 11
119.91979
 21
-55.715221
 31
0.0
  0
LINE
  5
147
100
AcDbEntity
  8
0
  6
CONTINUOUS
 62
     7
100
AcDbLine
 10
113.758584
 20
-59.631371
 30
0.0
 11
118.21666
 21
-55.173289
 31
0.0
  0
LINE
  5
148
100
AcDbEntity
  8
0
  6
CONTINUOUS
 62
     7
100
AcDbLine
 10
111.513522
 20
-59.631371
 30
0.0
 11
116.24824
 21
-54.896646
 31
0.0
  0
LINE
  5
149
100
AcDbEntity
  8
0
  6
CONTINUOUS
 62
     7
100
AcDbLine
 10
109.268469
 20
-59.631371
 30
0.0
 11
112.02208
 21
-56.877755
 31
0.0
  0
LINE
  5
14A
100
AcDbEntity
  8
0
  6
CONTINUOUS
 62
     7
100
AcDbLine
 10
112.41012
 20
-56.489713
 30
0.0
 11
114.27982
 21
-54.620003
 31
0.0
  0
LINE
  5
14B
100
AcDbEntity
  8
0
  6
CONTINUOUS
 62
     7
100
AcDbLine
 10
107.01555
 20
-59.639227
 30
0.0
 11
110.05366
 21
-56.601112
 31
0.0
  0
LINE
  5
14C
100
AcDbEntity
  8
0
  6
CONTINUOUS
 62
     7
100
AcDbLine
 10
104.95082
 20
-59.458888
 30
0.0
 11
108.08524
 21
-56.324468
 31
0.0
  0
LINE
  5
14D
100
AcDbEntity
  8
0
  6
CONTINUOUS
 62
     7
100
AcDbLine
 10
104.35173
 20
-57.812912
 30
0.0
 11
106.11682
 21
-56.047825
 31
0.0
  0
LINE
  5
14E
100
AcDbEntity
  8
0
  6
CONTINUOUS
 62
     7
100
AcDbLine
 10
119.7487
 20
-46.906051
 30
0.0
 11
119.91979
 21
-46.734956
 31
0.0
  0
LINE
  5
14F
100
AcDbEntity
  8
0
  6
CONTINUOUS
 62
     7
100
AcDbLine
 10
117.78028
 20
-46.629407
 30
0.0
 11
119.91979
 21
-44.489889
 31
0.0
  0
LINE
  5
150
100
AcDbEntity
  8
0
  6
CONTINUOUS
 62
     7
100
AcDbLine
 10
115.81186
 20
-46.352764
 30
0.0
 11
119.4765
 21
-42.688116
 31
0.0
  0
LINE
  5
151
100
AcDbEntity
  8
0
  6
CONTINUOUS
 62
     7
100
AcDbLine
 10
113.8786
 20
-46.040966
 30
0.0
 11
118.28818
 21
-41.631375
 31
0.0
  0
LINE
  5
152
100
AcDbEntity
  8
0
  6
CONTINUOUS
 62
     7
100
AcDbLine
 10
114.13277
 20
-43.541723
 30
0.0
 11
116.04312
 21
-41.631374
 31
0.0
  0
LINE
  5
153
100
AcDbEntity
  8
0
  6
CONTINUOUS
 62
     7
100
AcDbLine
 10
112.16435
 20
-43.265079
 30
0.0
 11
113.79806
 21
-41.631374
 31
0.0
  0
LINE
  5
154
100
AcDbEntity
  8
0
  6
CONTINUOUS
 62
     7
100
AcDbLine
 10
110.19593
 20
-42.988436
 30
0.0
 11
111.55299
 21
-41.631373
 31
0.0
  0
LINE
  5
155
100
AcDbEntity
  8
0
  6
CONTINUOUS
 62
     7
100
AcDbLine
 10
108.22751
 20
-42.711793
 30
0.0
 11
109.30793
 21
-41.631372
 31
0.0
  0
LINE
  5
156
100
AcDbEntity
  8
0
  6
CONTINUOUS
 62
     7
100
AcDbLine
 10
106.31454
 20
-42.379708
 30
0.0
 11
107.06287
 21
-41.631371
 31
0.0
  0
TEXT
  5
159
100
AcDbEntity
  8
0
  6
CONTINUOUS
100
AcDbText
 10
10.99268
 20
-104.010073
 30
0.0
 40
6.0
  1
BU185R
100
AcDbText
  0
LINE
  5
182
102
{ACAD_REACTORS
330
18C
102
}
100
AcDbEntity
  8
寸法
  6
CONTINUOUS
 62
     1
100
AcDbLine
 10
125.526828
 20
-51.959391
 30
0.0
 11
144.676662
 21
-54.650723
 31
0.0
  0
LINE
  5
183
102
{ACAD_REACTORS
330
18C
102
}
100
AcDbEntity
  8
寸法
  6
CONTINUOUS
 62
     1
100
AcDbLine
 10
119.91979
 20
-51.171373
 30
0.0
 11
144.919962
 21
-51.171373
 31
0.0
  0
ARC
  5
184
102
{ACAD_REACTORS
330
18C
102
}
100
AcDbEntity
  8
寸法
  6
CONTINUOUS
 62
     1
100
AcDbCircle
 10
119.91979
 20
-51.171373
 30
0.0
 40
24.000172
100
AcDbArc
 50
342.439689
 51
352.000004
  0
LINE
  5
185
102
{ACAD_REACTORS
330
18C
102
}
100
AcDbEntity
  8
寸法
  6
CONTINUOUS
 62
     1
100
AcDbLine
 10
142.801551
 20
-58.412454
 30
0.0
 11
140.206849
 21
-66.611693
 31
0.0
  0
ARC
  5
186
102
{ACAD_REACTORS
330
18C
102
}
100
AcDbEntity
  8
寸法
  6
CONTINUOUS
 62
     1
100
AcDbCircle
 10
119.91979
 20
-51.171373
 30
0.0
 40
24.000172
100
AcDbArc
 50
342.448011
 51
347.224008
  0
ARC
  5
187
100
AcDbEntity
  8
寸法
  6
CONTINUOUS
 62
     1
100
AcDbCircle
 10
119.91979
 20
-51.171373
 30
0.0
 40
24.000172
100
AcDbArc
 50
4.775997
 51
9.551993
  0
ARC
  5
188
102
{ACAD_REACTORS
330
18C
102
}
100
AcDbEntity
  8
寸法
  6
CONTINUOUS
 62
     1
100
AcDbCircle
 10
119.91979
 20
-51.171373
 30
0.0
 40
24.000172
100
AcDbArc
 50
352.000004
 51
0.0
  0
INSERT
  5
189
102
{ACAD_REACTORS
330
18C
102
}
100
AcDbEntity
  8
寸法
  6
CONTINUOUS
 62
     1
100
AcDbBlockReference
  2
_OPEN30
 10
143.686394
 20
-54.51155
 30
0.0
 41
2.0
 42
2.0
 43
2.0
 50
79.612006
  0
INSERT
  5
18A
102
{ACAD_REACTORS
330
18C
102
}
100
AcDbEntity
  8
寸法
  6
CONTINUOUS
 62
     1
100
AcDbBlockReference
  2
_OPEN30
 10
143.919962
 20
-51.171373
 30
0.0
 41
2.0
 42
2.0
 43
2.0
 50
272.387998
  0
MTEXT
  5
18B
102
{ACAD_REACTORS
330
18C
102
}
100
AcDbEntity
  8
寸法
  6
CONTINUOUS
 62
     1
100
AcDbMText
 10
143.8877
 20
-63.266348
 30
0.0
 40
3.0
 41
0.0
 71
     5
 72
     1
  1
\A1;8°
 11
0.30171
 21
0.9534
 31
0.0
1001
ACAD
1000
MTEXTBEGIN
1070
    73
1070
     1
1070
    44
1040
1.0
1070
    74
1070
     0
1000
MTEXTEND
1000
MTEXTBEGIN
1070
    73
1070
     1
1070
    44
1040
1.0
1070
    74
1070
     0
1000
MTEXTEND
  0
DIMENSION
  5
18D
100
AcDbEntity
  8
寸法
  6
CONTINUOUS
100
AcDbDimension
  2
*D1
 10
130.0
 20
-59.631371
 30
0.0
 11
127.5
 21
-67.131371
 31
0.0
 70
    32
  3
STANDARD
100
AcDbAlignedDimension
 13
119.91979
 23
-51.171373
 33
0.0
 14
118.329707
 24
-59.631371
 34
0.0
 50
90.0
100
AcDbRotatedDimension
  0
DIMENSION
  5
1A5
100
AcDbEntity
  8
寸法
  6
CONTINUOUS
100
AcDbDimension
  2
*D2
 10
70.0
 20
-59.631371
 30
0.0
 11
67.5
 21
-50.631371
 31
0.0
 70
    32
  3
STANDARD
100
AcDbAlignedDimension
 13
51.999958
 23
-41.631371
 33
0.0
 14
51.999958
 24
-59.631371
 34
0.0
 50
90.0
100
AcDbRotatedDimension
  0
DIMENSION
  5
1B2
100
AcDbEntity
  8
寸法
  6
CONTINUOUS
100
AcDbDimension
  2
*D3
 10
-10.0
 20
-59.631371
 30
0.0
 11
-12.5
 21
-51.689543
 31
0.0
 70
    32
  1
16
  3
STANDARD
100
AcDbAlignedDimension
 13
-1.106919
 23
-43.747716
 33
0.0
 14
1.167914
 24
-59.631371
 34
0.0
 50
90.0
100
AcDbRotatedDimension
  0
DIMENSION
  5
1BF
100
AcDbEntity
  8
寸法
  6
CONTINUOUS
100
AcDbDimension
  2
*D4
 10
36.249958
 20
-70.0
 30
0.0
 11
28.249958
 21
-67.5
 31
0.0
 70
    32
  3
STANDARD
100
AcDbAlignedDimension
 13
39.749958
 23
-62.631375
 33
0.0
 14
36.249958
 24
-62.631375
 34
0.0
100
AcDbRotatedDimension
  0
DIMENSION
  5
1CE
100
AcDbEntity
  8
寸法
  6
CONTINUOUS
100
AcDbDimension
  2
*D5
 10
37.999958
 20
-30.0
 30
0.0
 11
48.99996
 21
-27.5
 31
0.0
 70
    32
  3
STANDARD
100
AcDbAlignedDimension
 13
59.999962
 23
-49.131371
 33
0.0
 14
37.999958
 24
-38.631367
 34
0.0
100
AcDbRotatedDimension
  0
DIMENSION
  5
1DB
100
AcDbEntity
  8
寸法
  6
CONTINUOUS
100
AcDbDimension
  2
*D6
 10
51.999958
 20
-41.631371
 30
0.0
 11
-17.714172
 21
-35.464038
 31
0.0
 70
    34
  3
STANDARD
100
AcDb2LineAngularDimension
 13
-1.106919
 23
-43.747716
 33
0.0
 14
12.684484
 24
-42.29818
 34
0.0
 15
16.025805
 25
-41.631371
 35
0.0
 16
-20.38296
 26
-44.387308
 36
0.0
1001
ACAD
1000
DSTYLE
1002
{
1070
   271
1070
     0
1070
   271
1070
     0
1002
}
  0
DIMENSION
  5
1F5
100
AcDbEntity
  8
寸法
  6
CONTINUOUS
100
AcDbDimension
  2
*D7
 10
0.000001
 20
-10.0
 30
0.0
 11
29.999972
 21
-7.5
 31
0.0
 70
    32
  3
STANDARD
100
AcDbAlignedDimension
 13
59.999943
 23
19.759898
 33
0.0
 14
0.000001
 24
9.759923
 34
0.0
100
AcDbRotatedDimension
  0
DIMENSION
  5
248
100
AcDbEntity
  8
寸法
  6
CONTINUOUS
100
AcDbDimension
  2
*D8
 10
51.999943
 20
0.0
 30
0.0
 11
55.999943
 21
2.5
 31
0.0
 70
    32
  3
STANDARD
100
AcDbAlignedDimension
 13
59.999943
 23
19.759898
 33
0.0
 14
51.999943
 24
13.043081
 34
0.0
100
AcDbRotatedDimension
1001
ACAD
1000
DSTYLE
1002
{
1070
   287
1070
     4
1070
   287
1070
     4
1070
   279
1070
     1
1002
}
  0
DIMENSION
  5
25E
100
AcDbEntity
  8
寸法
  6
CONTINUOUS
100
AcDbDimension
  2
*D9
 10
-10.0
 20
9.759938
 30
0.0
 11
-12.5
 21
19.259918
 31
0.0
 70
    32
  3
STANDARD
100
AcDbAlignedDimension
 13
-1.100057
 23
28.759898
 33
0.0
 14
-0.000001
 24
9.759938
 34
0.0
 50
90.0
100
AcDbRotatedDimension
  0
DIMENSION
  5
26C
100
AcDbEntity
  8
寸法
  6
CONTINUOUS
100
AcDbDimension
  2
*D10
 10
-0.000001
 20
-22.632272
 30
0.0
 11
-7.414803
 21
-0.604314
 31
0.0
 70
    34
  3
STANDARD
100
AcDb2LineAngularDimension
 13
-1.106877
 23
22.411595
 33
0.0
 14
-0.000001
 24
9.759938
 34
0.0
 15
-0.000001
 25
9.759938
 35
0.0
 16
0.842873
 26
-4.711662
 36
0.0
1001
ACAD
1000
DSTYLE
1002
{
1070
   271
1070
     0
1070
   271
1070
     0
1002
}
  0
LINE
  5
27E
100
AcDbEntity
  8
0
  6
CENTER
 62
     1
 48
0.5
100
AcDbLine
 10
-50.657651
 20
9.759958
 30
0.0
 11
-53.96356
 21
33.282723
 31
0.0
  0
ARC
  5
281
100
AcDbEntity
  8
0
  6
CENTER
 62
     1
 48
0.5
100
AcDbCircle
 10
-53.96356
 20
33.282723
 30
0.0
 40
24.007509
100
AcDbArc
 50
180.0
 51
0.0
  0
LINE
  5
283
100
AcDbEntity
  8
0
  6
CONTINUOUS
100
AcDbLine
 10
-53.96356
 20
33.282723
 30
0.0
 11
-53.96356
 21
9.759958
 31
0.0
  0
DIMENSION
  5
284
100
AcDbEntity
  8
寸法
  6
CONTINUOUS
100
AcDbDimension
  2
*D11
 10
-53.96356
 20
9.759958
 30
0.0
 11
-60.127438
 21
-2.494674
 31
0.0
 70
    34
  3
STANDARD
100
AcDb2LineAngularDimension
 13
-50.657651
 23
9.759958
 33
0.0
 14
-53.96356
 24
33.282723
 34
0.0
 15
-53.96356
 25
33.282723
 35
0.0
 16
-50.380442
 26
-5.099323
 36
0.0
1001
ACAD
1000
DSTYLE
1002
{
1070
   271
1070
     0
1070
   271
1070
     0
1002
}
  0
DIMENSION
  5
295
100
AcDbEntity
  8
寸法
  6
CONTINUOUS
100
AcDbDimension
  2
*D12
 10
-53.96356
 20
33.282723
 30
0.0
 11
-85.512209
 21
23.261328
 31
0.0
 70
    36
  1
%%c48
  3
STANDARD
100
AcDbRadialDimension
 15
-76.23019
 25
24.307332
 35
0.0
 40
0.0
1001
ACAD
1000
DSTYLE
1002
{
1070
   288
1070
     1
1002
}
  0
ENDSEC
  0
SECTION
  2
OBJECTS
  0
DICTIONARY
  5
C
100
AcDbDictionary
  3
ACAD_GROUP
350
D
  3
ACAD_LAYOUT
350
15E
  3
ACAD_MLINESTYLE
350
1B
  3
ACAD_PLOTSETTINGS
350
15F
  3
ACAD_PLOTSTYLENAME
350
15C
  3
ACDBHEADERROUNDTRIPXREC
350
311
  0
DICTIONARY
  5
30D
100
AcDbDictionary
280
     1
  3
ACAD_XREC_ROUNDTRIP
360
30E
  0
DICTIONARY
  5
334
100
AcDbDictionary
280
     1
  3
ACAD_XREC_ROUNDTRIP
360
335
  0
DICTIONARY
  5
2CF
100
AcDbDictionary
280
     1
  3
ACAD_LAYOUTSELFREF
360
333
  0
DICTIONARY
  5
2CD
100
AcDbDictionary
280
     1
  3
ACAD_LAYOUTSELFREF
360
332
  0
DICTIONARY
  5
30B
100
AcDbDictionary
280
     1
  3
ACAD_XREC_ROUNDTRIP
360
30C
  0
DICTIONARY
  5
D
102
{ACAD_REACTORS
330
C
102
}
100
AcDbDictionary
  3
*A1
350
18C
  0
DICTIONARY
  5
15E
102
{ACAD_XDICTIONARY
360
336
102
}
102
{ACAD_REACTORS
330
C
102
}
100
AcDbDictionary
  3
MODEL
350
160
  3
ﾚｲｱｳﾄ1
350
161
  0
DICTIONARY
  5
1B
102
{ACAD_REACTORS
330
C
102
}
100
AcDbDictionary
  3
STANDARD
350
1C
  0
DICTIONARY
  5
15F
102
{ACAD_REACTORS
330
C
102
}
100
AcDbDictionary
  0
ACAD_PROXY_OBJECT
  5
15C
102
{ACAD_REACTORS
330
C
102
}
100
AcDbProxyObject
 90
      499
 91
      500
 93
       86
310
405010041939BDC9B585B0
350
15D
340
15D
 94
        0
  0
DICTIONARY
  5
311
102
{ACAD_REACTORS
330
C
102
}
100
AcDbDictionary
  3
CEPSNTYPE
350
31B
  3
DIMSTYLEDATA
350
31F
  3
FINGERPRINTGUID
350
31C
  3
HYPERLINKBASE
350
314
  3
INSUNITS
350
31A
  3
LAYOUTDICT
350
316
  3
LWETCUNION
350
319
  3
PLOTSETDICT
350
317
  3
PLOTSTYLNAMDICT
350
318
  3
PSVPSCALE
350
31E
  3
PUCSBASE
350
322
  3
PUCSORGBACK
350
328
  3
PUCSORGBOTTOM
350
324
  3
PUCSORGFRONT
350
327
  3
PUCSORGLEFT
350
325
  3
PUCSORGRIGHT
350
326
  3
PUCSORGTOP
350
323
  3
PUCSORTHOREF
350
320
  3
PUCSORTHOVIEW
350
321
  3
STYLESHEET
350
315
  3
TSTACKALIGN
350
312
  3
TSTACKSIZE
350
313
  3
UCSBASE
350
32B
  3
UCSORGBACK
350
331
  3
UCSORGBOTTOM
350
32D
  3
UCSORGFRONT
350
330
  3
UCSORGLEFT
350
32E
  3
UCSORGRIGHT
350
32F
  3
UCSORGTOP
350
32C
  3
UCSORTHOREF
350
329
  3
UCSORTHOVIEW
350
32A
  3
VERSIONGUID
350
31D
  0
XRECORD
  5
30E
102
{ACAD_REACTORS
330
30D
102
}
100
AcDbXrecord
102
EXTNAMES
  1
DEFPOINTS
  2
Defpoints
102
PLOTBIT
280
     0
  0
XRECORD
  5
335
102
{ACAD_REACTORS
330
334
102
}
100
AcDbXrecord
102
ACADR14ROUNDTRIP
1000
DSTYLE
1002
{
1070
   341
340
166
1070
   342
340
166
1002
}
  0
XRECORD
  5
333
102
{ACAD_REACTORS
330
2CF
102
}
100
AcDbXrecord
340
18
  0
XRECORD
  5
332
102
{ACAD_REACTORS
330
2CD
102
}
100
AcDbXrecord
340
15
  0
XRECORD
  5
30C
102
{ACAD_REACTORS
330
30B
102
}
100
AcDbXrecord
102
EXTNAMES
  1
_OPEN30
  2
_Open30
  0
GROUP
  5
18C
102
{ACAD_REACTORS
330
D
102
}
100
AcDbGroup
300

 70
     1
 71
     1
340
183
340
189
340
184
340
185
340
18B
340
186
340
182
340
18A
340
188
  0
DICTIONARY
  5
336
100
AcDbDictionary
280
     1
  3
ACAD_XREC_ROUNDTRIP
360
337
  0
ACAD_PROXY_OBJECT
  5
160
102
{ACAD_REACTORS
330
15E
102
}
100
AcDbProxyObject
 90
      499
 91
      502
 93
      548
310
90E4550534F4E20504D2D32303030432C01AAAAAAAAA5A69054D6F64656C901A800000000000000000000000000000000000000000000A1000000000000008902A6A6AAAA0
330
18
330
0
340
0
340
0
 94
        0
  0
ACAD_PROXY_OBJECT
  5
161
102
{ACAD_REACTORS
330
15E
102
}
100
AcDbProxyObject
 90
      499
 91
      502
 93
      964
310
90E4550534F4E20504D2D32303030432C00AAAAAA416AA59106906DAB2B1B3C43140501A800000000000000000000000000000000000000000000A1000000000000008902A6A6A10232D5E076BC5510408CB5781DAF154410232D5E076BC5510408CB5781DAF15C410232D5E076BC5710408CB5781DAF15C40
330
15
330
0
340
0
340
0
 94
        0
  0
MLINESTYLE
  5
1C
102
{ACAD_REACTORS
330
1B
102
}
100
AcDbMlineStyle
  2
STANDARD
 70
     0
  3

 62
   256
 51
90.0
 52
90.0
 71
     2
 49
0.5
 62
   256
  6
BYLAYER
 49
-0.5
 62
   256
  6
BYLAYER
  0
ACAD_PROXY_OBJECT
  5
15D
102
{ACAD_REACTORS
330
15C
102
}
100
AcDbProxyObject
 90
      499
 91
      501
 93
        0
 94
        0
  0
XRECORD
  5
31B
102
{ACAD_REACTORS
330
311
102
}
100
AcDbXrecord
 90
        0
  0
XRECORD
  5
31F
102
{ACAD_REACTORS
330
311
102
}
100
AcDbXrecord
1000
DSTYLE
1002
{
1070
   341
340
166
1070
   342
340
166
1002
}
  0
XRECORD
  5
31C
102
{ACAD_REACTORS
330
311
102
}
100
AcDbXrecord
  1
{C64D6E8B-7B41-4197-A701-083529C2C1F3}
  0
XRECORD
  5
314
102
{ACAD_REACTORS
330
311
102
}
100
AcDbXrecord
  1

  0
XRECORD
  5
31A
102
{ACAD_REACTORS
330
311
102
}
100
AcDbXrecord
 90
        0
  0
XRECORD
  5
316
102
{ACAD_REACTORS
330
311
102
}
100
AcDbXrecord
340
15E
  0
XRECORD
  5
319
102
{ACAD_REACTORS
330
311
102
}
100
AcDbXrecord
 90
    14877
  0
XRECORD
  5
317
102
{ACAD_REACTORS
330
311
102
}
100
AcDbXrecord
340
15F
  0
XRECORD
  5
318
102
{ACAD_REACTORS
330
311
102
}
100
AcDbXrecord
340
15C
  0
XRECORD
  5
31E
102
{ACAD_REACTORS
330
311
102
}
100
AcDbXrecord
 40
0.0
  0
XRECORD
  5
322
102
{ACAD_REACTORS
330
311
102
}
100
AcDbXrecord
340
0
  0
XRECORD
  5
328
102
{ACAD_REACTORS
330
311
102
}
100
AcDbXrecord
 10
0.0
 20
0.0
 30
0.0
  0
XRECORD
  5
324
102
{ACAD_REACTORS
330
311
102
}
100
AcDbXrecord
 10
0.0
 20
0.0
 30
0.0
  0
XRECORD
  5
327
102
{ACAD_REACTORS
330
311
102
}
100
AcDbXrecord
 10
0.0
 20
0.0
 30
0.0
  0
XRECORD
  5
325
102
{ACAD_REACTORS
330
311
102
}
100
AcDbXrecord
 10
0.0
 20
0.0
 30
0.0
  0
XRECORD
  5
326
102
{ACAD_REACTORS
330
311
102
}
100
AcDbXrecord
 10
0.0
 20
0.0
 30
0.0
  0
XRECORD
  5
323
102
{ACAD_REACTORS
330
311
102
}
100
AcDbXrecord
 10
0.0
 20
0.0
 30
0.0
  0
XRECORD
  5
320
102
{ACAD_REACTORS
330
311
102
}
100
AcDbXrecord
340
0
  0
XRECORD
  5
321
102
{ACAD_REACTORS
330
311
102
}
100
AcDbXrecord
 70
     0
  0
XRECORD
  5
315
102
{ACAD_REACTORS
330
311
102
}
100
AcDbXrecord
  1

  0
XRECORD
  5
312
102
{ACAD_REACTORS
330
311
102
}
100
AcDbXrecord
 90
        1
  0
XRECORD
  5
313
102
{ACAD_REACTORS
330
311
102
}
100
AcDbXrecord
 90
       70
  0
XRECORD
  5
32B
102
{ACAD_REACTORS
330
311
102
}
100
AcDbXrecord
340
0
  0
XRECORD
  5
331
102
{ACAD_REACTORS
330
311
102
}
100
AcDbXrecord
 10
0.0
 20
0.0
 30
0.0
  0
XRECORD
  5
32D
102
{ACAD_REACTORS
330
311
102
}
100
AcDbXrecord
 10
0.0
 20
0.0
 30
0.0
  0
XRECORD
  5
330
102
{ACAD_REACTORS
330
311
102
}
100
AcDbXrecord
 10
0.0
 20
0.0
 30
0.0
  0
XRECORD
  5
32E
102
{ACAD_REACTORS
330
311
102
}
100
AcDbXrecord
 10
0.0
 20
0.0
 30
0.0
  0
XRECORD
  5
32F
102
{ACAD_REACTORS
330
311
102
}
100
AcDbXrecord
 10
0.0
 20
0.0
 30
0.0
  0
XRECORD
  5
32C
102
{ACAD_REACTORS
330
311
102
}
100
AcDbXrecord
 10
0.0
 20
0.0
 30
0.0
  0
XRECORD
  5
329
102
{ACAD_REACTORS
330
311
102
}
100
AcDbXrecord
340
0
  0
XRECORD
  5
32A
102
{ACAD_REACTORS
330
311
102
}
100
AcDbXrecord
 70
     0
  0
XRECORD
  5
31D
102
{ACAD_REACTORS
330
311
102
}
100
AcDbXrecord
  1
{9FEE1BD4-2E46-4C9E-9F59-5282302FB095}
  0
XRECORD
  5
337
102
{ACAD_REACTORS
330
336
102
}
100
AcDbXrecord
102
EXTNAMES
  1
MODEL
  2
Model
  0
ENDSEC
  0
EOF
