  0
SECTION
  2
HEADER
  9
$ACADVER
  1
AC1014
  9
$ACADMAINTVER
 70
     0
  9
$DWGCODEPAGE
  3
ANSI_932
  9
$INSBASE
 10
0.0
 20
0.0
 30
0.0
  9
$EXTMIN
 10
-63.594564
 20
-103.439299
 30
0.0
  9
$EXTMAX
 10
131.168804
 20
10.250001
 30
0.0
  9
$LIMMIN
 10
-90.0
 20
-120.0
  9
$LIMMAX
 10
150.0
 20
40.0
  9
$ORTHOMODE
 70
     1
  9
$REGENMODE
 70
     1
  9
$FILLMODE
 70
     1
  9
$QTEXTMODE
 70
     0
  9
$MIRRTEXT
 70
     1
  9
$DRAGMODE
 70
     2
  9
$LTSCALE
 40
1.0
  9
$OSMODE
 70
    33
  9
$ATTMODE
 70
     1
  9
$TEXTSIZE
 40
0.2
  9
$TRACEWID
 40
0.05
  9
$TEXTSTYLE
  7
STANDARD
  9
$CLAYER
  8
寸法
  9
$CELTYPE
  6
CONTINUOUS
  9
$CECOLOR
 62
   256
  9
$CELTSCALE
 40
1.0
  9
$DELOBJ
 70
     1
  9
$DISPSILH
 70
     0
  9
$DIMSCALE
 40
1.0
  9
$DIMASZ
 40
2.0
  9
$DIMEXO
 40
1.0
  9
$DIMDLI
 40
10.0
  9
$DIMRND
 40
0.0
  9
$DIMDLE
 40
0.0
  9
$DIMEXE
 40
1.0
  9
$DIMTP
 40
0.0
  9
$DIMTM
 40
0.0
  9
$DIMTXT
 40
3.0
  9
$DIMCEN
 40
2.0
  9
$DIMTSZ
 40
0.0
  9
$DIMTOL
 70
     0
  9
$DIMLIM
 70
     0
  9
$DIMTIH
 70
     0
  9
$DIMTOH
 70
     0
  9
$DIMSE1
 70
     0
  9
$DIMSE2
 70
     0
  9
$DIMTAD
 70
     1
  9
$DIMZIN
 70
     8
  9
$DIMBLK
  1
OPEN30
  9
$DIMASO
 70
     1
  9
$DIMSHO
 70
     1
  9
$DIMPOST
  1

  9
$DIMAPOST
  1

  9
$DIMALT
 70
     0
  9
$DIMALTD
 70
     2
  9
$DIMALTF
 40
25.4
  9
$DIMLFAC
 40
1.0
  9
$DIMTOFL
 70
     1
  9
$DIMTVP
 40
0.0
  9
$DIMTIX
 70
     0
  9
$DIMSOXD
 70
     0
  9
$DIMSAH
 70
     0
  9
$DIMBLK1
  1

  9
$DIMBLK2
  1

  9
$DIMSTYLE
  2
STANDARD
  9
$DIMCLRD
 70
     1
  9
$DIMCLRE
 70
     1
  9
$DIMCLRT
 70
     1
  9
$DIMTFAC
 40
1.0
  9
$DIMGAP
 40
1.0
  9
$DIMJUST
 70
     0
  9
$DIMSD1
 70
     0
  9
$DIMSD2
 70
     0
  9
$DIMTOLJ
 70
     1
  9
$DIMTZIN
 70
     0
  9
$DIMALTZ
 70
     0
  9
$DIMALTTZ
 70
     0
  9
$DIMFIT
 70
     3
  9
$DIMUPT
 70
     0
  9
$DIMUNIT
 70
     2
  9
$DIMDEC
 70
     2
  9
$DIMTDEC
 70
     2
  9
$DIMALTU
 70
     2
  9
$DIMALTTD
 70
     2
  9
$DIMTXSTY
  7
STANDARD
  9
$DIMAUNIT
 70
     0
  9
$LUNITS
 70
     2
  9
$LUPREC
 70
     3
  9
$SKETCHINC
 40
0.1
  9
$FILLETRAD
 40
0.0
  9
$AUNITS
 70
     0
  9
$AUPREC
 70
     0
  9
$MENU
  1
acad
  9
$ELEVATION
 40
0.0
  9
$PELEVATION
 40
0.0
  9
$THICKNESS
 40
0.0
  9
$LIMCHECK
 70
     0
  9
$BLIPMODE
 70
     0
  9
$CHAMFERA
 40
0.0
  9
$CHAMFERB
 40
0.0
  9
$CHAMFERC
 40
0.0
  9
$CHAMFERD
 40
0.0
  9
$SKPOLY
 70
     0
  9
$TDCREATE
 40
2444972.375000000
  9
$TDUPDATE
 40
2451977.427754629
  9
$TDINDWG
 40
0.0107260417
  9
$TDUSRTIMER
 40
0.0107260417
  9
$USRTIMER
 70
     1
  9
$ANGBASE
 50
0.0
  9
$ANGDIR
 70
     0
  9
$PDMODE
 70
     0
  9
$PDSIZE
 40
0.0
  9
$PLINEWID
 40
0.0
  9
$COORDS
 70
     1
  9
$SPLFRAME
 70
     0
  9
$SPLINETYPE
 70
     6
  9
$SPLINESEGS
 70
     8
  9
$ATTDIA
 70
     0
  9
$ATTREQ
 70
     1
  9
$HANDLING
 70
     1
  9
$HANDSEED
  5
328
  9
$SURFTAB1
 70
     6
  9
$SURFTAB2
 70
     6
  9
$SURFTYPE
 70
     6
  9
$SURFU
 70
     6
  9
$SURFV
 70
     6
  9
$UCSNAME
  2

  9
$UCSORG
 10
0.0
 20
0.0
 30
0.0
  9
$UCSXDIR
 10
1.0
 20
0.0
 30
0.0
  9
$UCSYDIR
 10
0.0
 20
1.0
 30
0.0
  9
$PUCSNAME
  2

  9
$PUCSORG
 10
0.0
 20
0.0
 30
0.0
  9
$PUCSXDIR
 10
1.0
 20
0.0
 30
0.0
  9
$PUCSYDIR
 10
0.0
 20
1.0
 30
0.0
  9
$USERI1
 70
     0
  9
$USERI2
 70
     0
  9
$USERI3
 70
     0
  9
$USERI4
 70
     0
  9
$USERI5
 70
     0
  9
$USERR1
 40
0.0
  9
$USERR2
 40
0.0
  9
$USERR3
 40
0.0
  9
$USERR4
 40
0.0
  9
$USERR5
 40
0.0
  9
$WORLDVIEW
 70
     1
  9
$SHADEDGE
 70
     3
  9
$SHADEDIF
 70
    70
  9
$TILEMODE
 70
     1
  9
$MAXACTVP
 70
    48
  9
$PINSBASE
 10
0.0
 20
0.0
 30
0.0
  9
$PLIMCHECK
 70
     0
  9
$PEXTMIN
 10
1.000000E+20
 20
1.000000E+20
 30
1.000000E+20
  9
$PEXTMAX
 10
-1.000000E+20
 20
-1.000000E+20
 30
-1.000000E+20
  9
$PLIMMIN
 10
0.0
 20
0.0
  9
$PLIMMAX
 10
12.0
 20
9.0
  9
$UNITMODE
 70
     0
  9
$VISRETAIN
 70
     1
  9
$PLINEGEN
 70
     0
  9
$PSLTSCALE
 70
     1
  9
$TREEDEPTH
 70
  3020
  9
$PICKSTYLE
 70
     1
  9
$CMLSTYLE
  2
STANDARD
  9
$CMLJUST
 70
     0
  9
$CMLSCALE
 40
1.0
  9
$PROXYGRAPHICS
 70
     1
  9
$MEASUREMENT
 70
     0
  0
ENDSEC
  0
SECTION
  2
CLASSES
  0
CLASS
  1
ACDBDICTIONARYWDFLT
  2
AcDbDictionaryWithDefault
  3
AutoCAD 2000
 90
        0
280
     0
281
     0
  0
CLASS
  1
ACDBPLACEHOLDER
  2
AcDbPlaceHolder
  3
AutoCAD 2000
 90
        0
280
     0
281
     0
  0
CLASS
  1
LAYOUT
  2
AcDbLayout
  3
AutoCAD 2000
 90
        0
280
     0
281
     0
  0
CLASS
  1
LONG_TRANSACTION
  2
AcDbLongTransaction
  3
AutoCAD 2000
 90
        0
280
     0
281
     0
  0
CLASS
  1
LWPOLYLINE
  2
AcDbPolyline
  3
"AutoCAD"
 90
        0
280
     0
281
     1
  0
CLASS
  1
HATCH
  2
AcDbHatch
  3
"ACAD_SEDONA"
 90
        0
280
     0
281
     1
  0
CLASS
  1
XRECORD
  2
AcDbXrecord
  3
"<Built In>"
 90
        0
280
     0
281
     0
  0
CLASS
  1
LONG_TRANSACTION
  2
AcDbLongTransaction
  3
AutoCAD 2000
 90
        0
280
     0
281
     0
  0
CLASS
  1
LWPOLYLINE
  2
AcDbPolyline
  3
"AutoCAD"
 90
        0
280
     0
281
     1
  0
CLASS
  1
HATCH
  2
AcDbHatch
  3
"ACAD_SEDONA"
 90
        0
280
     0
281
     1
  0
CLASS
  1
XRECORD
  2
AcDbXrecord
  3
"<Built In>"
 90
        0
280
     0
281
     0
  0
ENDSEC
  0
SECTION
  2
TABLES
  0
TABLE
  2
VPORT
  5
8
100
AcDbSymbolTable
 70
     2
  0
VPORT
  5
327
100
AcDbSymbolTableRecord
100
AcDbViewportTableRecord
  2
*ACTIVE
 70
     0
 10
0.0
 20
0.0
 11
1.0
 21
1.0
 12
31.82466
 22
-41.157675
 13
0.0
 23
0.0
 14
10.0
 24
10.0
 15
10.0
 25
10.0
 16
0.0
 26
0.0
 36
1.0
 17
0.0
 27
0.0
 37
0.0
 40
151.822236
 41
1.710425
 42
50.0
 43
0.0
 44
0.0
 50
0.0
 51
0.0
 71
     0
 72
   100
 73
     1
 74
     1
 75
     0
 76
     0
 77
     0
 78
     0
  0
ENDTAB
  0
TABLE
  2
LTYPE
  5
5
100
AcDbSymbolTable
 70
     5
  0
LTYPE
  5
12
100
AcDbSymbolTableRecord
100
AcDbLinetypeTableRecord
  2
BYBLOCK
 70
     0
  3

 72
    65
 73
     0
 40
0.0
  0
LTYPE
  5
13
100
AcDbSymbolTableRecord
100
AcDbLinetypeTableRecord
  2
BYLAYER
 70
     0
  3

 72
    65
 73
     0
 40
0.0
  0
LTYPE
  5
14
100
AcDbSymbolTableRecord
100
AcDbLinetypeTableRecord
  2
CONTINUOUS
 70
     0
  3
Solid line
 72
    65
 73
     0
 40
0.0
  0
LTYPE
  5
1F
100
AcDbSymbolTableRecord
100
AcDbLinetypeTableRecord
  2
DASHED
 70
     0
  3
__ __ __ __ __ __ __ __ __ __ __ __ __ __ __
 72
    65
 73
     2
 40
3.5
 49
2.0
 74
     0
 49
-1.5
 74
     0
  0
LTYPE
  5
20
100
AcDbSymbolTableRecord
100
AcDbLinetypeTableRecord
  2
CENTER
 70
     0
  3
____ _ ____ _ ____ _ ____ _ ____ _ ____ _ ____
 72
    65
 73
     4
 40
17.5
 49
13.0
 74
     0
 49
-1.5
 74
     0
 49
1.5
 74
     0
 49
-1.5
 74
     0
  0
LTYPE
  5
21
100
AcDbSymbolTableRecord
100
AcDbLinetypeTableRecord
  2
PHANTOM
 70
     0
  3
_____ _ _ _____ _ _ _____ _ _ _____ _ _ ____  
 72
    65
 73
     6
 40
15.5
 49
8.0
 74
     0
 49
-1.5
 74
     0
 49
1.5
 74
     0
 49
-1.5
 74
     0
 49
1.5
 74
     0
 49
-1.5
 74
     0
  0
LTYPE
  5
22
100
AcDbSymbolTableRecord
100
AcDbLinetypeTableRecord
  2
DOT
 70
     0
  3
. . . . . . . . . . . . . . . . . . . . . . . .
 72
    65
 73
     2
 40
0.25
 49
0.0
 74
     0
 49
-0.25
 74
     0
  0
ENDTAB
  0
TABLE
  2
LAYER
  5
2
100
AcDbSymbolTable
 70
     3
  0
LAYER
  5
E
100
AcDbSymbolTableRecord
100
AcDbLayerTableRecord
  2
0
 70
     0
 62
     7
  6
CONTINUOUS
  0
LAYER
  5
15E
100
AcDbSymbolTableRecord
100
AcDbLayerTableRecord
  2
寸法
 70
     0
 62
     1
  6
CONTINUOUS
  0
LAYER
  5
161
102
{ACAD_XDICTIONARY
360
2C2
102
}
100
AcDbSymbolTableRecord
100
AcDbLayerTableRecord
  2
DEFPOINTS
 70
     0
 62
     7
  6
CONTINUOUS
  0
ENDTAB
  0
TABLE
  2
STYLE
  5
3
100
AcDbSymbolTable
 70
     1
  0
STYLE
  5
F
100
AcDbSymbolTableRecord
100
AcDbTextStyleTableRecord
  2
STANDARD
 70
     0
 40
0.0
 41
1.0
 50
0.0
 71
     0
 42
0.2
  3
txt
  4
BIGFONT
  0
ENDTAB
  0
TABLE
  2
VIEW
  5
6
100
AcDbSymbolTable
 70
     0
  0
ENDTAB
  0
TABLE
  2
UCS
  5
7
100
AcDbSymbolTable
 70
     0
  0
ENDTAB
  0
TABLE
  2
APPID
  5
9
100
AcDbSymbolTable
 70
     1
  0
APPID
  5
10
100
AcDbSymbolTableRecord
100
AcDbRegAppTableRecord
  2
ACAD
 70
     0
  0
ENDTAB
  0
TABLE
  2
DIMSTYLE
  5
A
100
AcDbSymbolTable
 70
     1
  0
DIMSTYLE
105
14A
102
{ACAD_XDICTIONARY
360
2E9
102
}
102
{ACAD_REACTORS
330
180
330
1AE
330
1BB
330
1C8
330
1D7
330
1E4
330
1F7
330
204
330
21A
330
22C
330
23F
102
}
100
AcDbSymbolTableRecord
100
AcDbDimStyleTableRecord
  2
STANDARD
 70
     0
  3

  4

  5
OPEN30
  6

  7

 40
1.0
 41
2.0
 42
1.0
 43
10.0
 44
1.0
 45
0.0
 46
0.0
 47
0.0
 48
0.0
140
3.0
141
2.0
142
0.0
143
25.4
144
1.0
145
0.0
146
1.0
147
1.0
 71
     0
 72
     0
 73
     0
 74
     0
 75
     0
 76
     0
 77
     1
 78
     8
170
     0
171
     2
172
     1
173
     0
174
     0
175
     0
176
     1
177
     1
178
     1
270
     2
271
     2
272
     2
273
     2
274
     2
340
F
275
     0
280
     0
281
     0
282
     0
283
     1
284
     0
285
     0
286
     0
287
     3
288
     0
  0
ENDTAB
  0
TABLE
  2
BLOCK_RECORD
  5
1
100
AcDbSymbolTable
 70
    13
  0
BLOCK_RECORD
  5
18
102
{ACAD_XDICTIONARY
360
28E
102
}
100
AcDbSymbolTableRecord
100
AcDbBlockTableRecord
  2
*MODEL_SPACE
  0
BLOCK_RECORD
  5
15
102
{ACAD_XDICTIONARY
360
28C
102
}
100
AcDbSymbolTableRecord
100
AcDbBlockTableRecord
  2
*PAPER_SPACE
  0
BLOCK_RECORD
  5
158
102
{ACAD_XDICTIONARY
360
2C0
102
}
100
AcDbSymbolTableRecord
100
AcDbBlockTableRecord
  2
_OPEN30
  0
BLOCK_RECORD
  5
181
100
AcDbSymbolTableRecord
100
AcDbBlockTableRecord
  2
*D1
  0
BLOCK_RECORD
  5
1AF
100
AcDbSymbolTableRecord
100
AcDbBlockTableRecord
  2
*D2
  0
BLOCK_RECORD
  5
1BC
100
AcDbSymbolTableRecord
100
AcDbBlockTableRecord
  2
*D3
  0
BLOCK_RECORD
  5
1C9
100
AcDbSymbolTableRecord
100
AcDbBlockTableRecord
  2
*D4
  0
BLOCK_RECORD
  5
1D8
100
AcDbSymbolTableRecord
100
AcDbBlockTableRecord
  2
*D5
  0
BLOCK_RECORD
  5
1E5
100
AcDbSymbolTableRecord
100
AcDbBlockTableRecord
  2
*D6
  0
BLOCK_RECORD
  5
1F8
100
AcDbSymbolTableRecord
100
AcDbBlockTableRecord
  2
*D7
  0
BLOCK_RECORD
  5
205
100
AcDbSymbolTableRecord
100
AcDbBlockTableRecord
  2
*D8
  0
BLOCK_RECORD
  5
21B
100
AcDbSymbolTableRecord
100
AcDbBlockTableRecord
  2
*D9
  0
BLOCK_RECORD
  5
22D
100
AcDbSymbolTableRecord
100
AcDbBlockTableRecord
  2
*D10
  0
BLOCK_RECORD
  5
240
100
AcDbSymbolTableRecord
100
AcDbBlockTableRecord
  2
*D11
  0
BLOCK_RECORD
  5
31D
100
AcDbSymbolTableRecord
100
AcDbBlockTableRecord
  2
A$C776226A5
  0
ENDTAB
  0
ENDSEC
  0
SECTION
  2
BLOCKS
  0
BLOCK
  5
19
100
AcDbEntity
  8
0
100
AcDbBlockBegin
  2
*MODEL_SPACE
 70
     0
 10
0.0
 20
0.0
 30
0.0
  3
*MODEL_SPACE
  1

  0
ENDBLK
  5
1A
100
AcDbEntity
  8
0
100
AcDbBlockEnd
  0
BLOCK
  5
16
100
AcDbEntity
 67
     1
  8
0
100
AcDbBlockBegin
  2
*PAPER_SPACE
 70
     0
 10
0.0
 20
0.0
 30
0.0
  3
*PAPER_SPACE
  1

  0
ENDBLK
  5
17
100
AcDbEntity
 67
     1
  8
0
100
AcDbBlockEnd
  0
BLOCK
  5
15C
100
AcDbEntity
  8
0
100
AcDbBlockBegin
  2
_OPEN30
 70
     0
 10
0.0
 20
0.0
 30
0.0
  3
_OPEN30
  1

  0
LINE
  5
159
100
AcDbEntity
  8
0
  6
BYBLOCK
 62
     0
100
AcDbLine
 10
-1.0
 20
0.267949
 30
0.0
 11
0.0
 21
0.0
 31
0.0
1001
ACAD
1000
RTLwPs
1070
   158
  0
LINE
  5
15A
100
AcDbEntity
  8
0
  6
BYBLOCK
 62
     0
100
AcDbLine
 10
0.0
 20
0.0
 30
0.0
 11
-1.0
 21
-0.267949
 31
0.0
1001
ACAD
1000
RTLwPs
1070
   158
  0
LINE
  5
15B
100
AcDbEntity
  8
0
  6
BYBLOCK
 62
     0
100
AcDbLine
 10
0.0
 20
0.0
 30
0.0
 11
-1.0
 21
0.0
 31
0.0
1001
ACAD
1000
RTLwPs
1070
   158
  0
ENDBLK
  5
15D
100
AcDbEntity
  8
0
100
AcDbBlockEnd
  0
BLOCK
  5
18D
100
AcDbEntity
  8
0
100
AcDbBlockBegin
  2
*D1
 70
     1
 10
0.0
 20
0.0
 30
0.0
  3
*D1
  1

  0
LINE
  5
182
100
AcDbEntity
  8
寸法
  6
CONTINUOUS
 62
     1
100
AcDbLine
 10
113.99239
 20
-57.725752
 30
0.0
 11
121.0
 21
-57.725752
 31
0.0
1001
ACAD
1000
RTLwPs
1070
   158
  0
LINE
  5
183
100
AcDbEntity
  8
寸法
  6
CONTINUOUS
 62
     1
100
AcDbLine
 10
112.915444
 20
-63.70575
 30
0.0
 11
121.0
 21
-63.70575
 31
0.0
1001
ACAD
1000
RTLwPs
1070
   158
  0
LINE
  5
184
100
AcDbEntity
  8
寸法
  6
CONTINUOUS
 62
     1
100
AcDbLine
 10
120.0
 20
-55.725752
 30
0.0
 11
120.0
 21
-53.725752
 31
0.0
1001
ACAD
1000
RTLwPs
1070
   158
  0
LINE
  5
185
100
AcDbEntity
  8
寸法
  6
CONTINUOUS
 62
     1
100
AcDbLine
 10
120.0
 20
-65.70575
 30
0.0
 11
120.0
 21
-78.70575
 31
0.0
1001
ACAD
1000
RTLwPs
1070
   158
  0
LINE
  5
186
100
AcDbEntity
  8
寸法
  6
CONTINUOUS
 62
     1
100
AcDbLine
 10
120.0
 20
-57.725752
 30
0.0
 11
120.0
 21
-63.70575
 31
0.0
1001
ACAD
1000
RTLwPs
1070
   158
  0
INSERT
  5
187
100
AcDbEntity
  8
寸法
  6
CONTINUOUS
 62
     1
100
AcDbBlockReference
  2
_OPEN30
 10
120.0
 20
-57.725752
 30
0.0
 41
2.0
 42
2.0
 43
2.0
 50
270.0
1001
ACAD
1000
RTLwPs
1070
   158
  0
INSERT
  5
188
100
AcDbEntity
  8
寸法
  6
CONTINUOUS
 62
     1
100
AcDbBlockReference
  2
_OPEN30
 10
120.0
 20
-63.70575
 30
0.0
 41
2.0
 42
2.0
 43
2.0
 50
90.0
1001
ACAD
1000
RTLwPs
1070
   158
  0
MTEXT
  5
189
100
AcDbEntity
  8
寸法
  6
CONTINUOUS
 62
     1
100
AcDbMText
 10
117.5
 20
-73.20575
 30
0.0
 40
3.0
 41
0.0
 71
     5
 72
     1
  1
\A1;5.98
 11
0.0
 21
1.0
 31
0.0
1001
ACAD
1000
MTEXTBEGIN
1070
    73
1070
     1
1070
    44
1040
1.0
1070
    74
1070
     0
1000
MTEXTEND
1000
MTEXTBEGIN
1070
    73
1070
     1
1070
    44
1040
1.0
1070
    74
1070
     0
1000
MTEXTEND
  0
POINT
  5
18A
100
AcDbEntity
  8
DEFPOINTS
  6
CONTINUOUS
 62
     0
100
AcDbPoint
 10
112.99239
 20
-57.725752
 30
0.0
  0
POINT
  5
18B
100
AcDbEntity
  8
DEFPOINTS
  6
CONTINUOUS
 62
     0
100
AcDbPoint
 10
111.915444
 20
-63.70575
 30
0.0
  0
POINT
  5
18C
100
AcDbEntity
  8
DEFPOINTS
  6
CONTINUOUS
 62
     0
100
AcDbPoint
 10
120.0
 20
-63.70575
 30
0.0
  0
ENDBLK
  5
18E
100
AcDbEntity
  8
0
100
AcDbBlockEnd
  0
BLOCK
  5
1B9
100
AcDbEntity
  8
0
100
AcDbBlockBegin
  2
*D2
 70
     1
 10
0.0
 20
0.0
 30
0.0
  3
*D2
  1

  0
LINE
  5
1B0
100
AcDbEntity
  8
寸法
  6
CONTINUOUS
 62
     1
100
AcDbLine
 10
45.0
 20
-50.20575
 30
0.0
 11
61.0
 21
-50.20575
 31
0.0
1001
ACAD
1000
RTLwPs
1070
   158
  0
LINE
  5
1B1
100
AcDbEntity
  8
寸法
  6
CONTINUOUS
 62
     1
100
AcDbLine
 10
45.0
 20
-63.70575
 30
0.0
 11
61.0
 21
-63.70575
 31
0.0
1001
ACAD
1000
RTLwPs
1070
   158
  0
LINE
  5
1B2
100
AcDbEntity
  8
寸法
  6
CONTINUOUS
 62
     1
100
AcDbLine
 10
60.0
 20
-52.20575
 30
0.0
 11
60.0
 21
-61.70575
 31
0.0
1001
ACAD
1000
RTLwPs
1070
   158
  0
INSERT
  5
1B3
100
AcDbEntity
  8
寸法
  6
CONTINUOUS
 62
     1
100
AcDbBlockReference
  2
_OPEN30
 10
60.0
 20
-50.20575
 30
0.0
 41
2.0
 42
2.0
 43
2.0
 50
90.0
1001
ACAD
1000
RTLwPs
1070
   158
  0
INSERT
  5
1B4
100
AcDbEntity
  8
寸法
  6
CONTINUOUS
 62
     1
100
AcDbBlockReference
  2
_OPEN30
 10
60.0
 20
-63.70575
 30
0.0
 41
2.0
 42
2.0
 43
2.0
 50
270.0
1001
ACAD
1000
RTLwPs
1070
   158
  0
MTEXT
  5
1B5
100
AcDbEntity
  8
寸法
  6
CONTINUOUS
 62
     1
100
AcDbMText
 10
57.5
 20
-56.95575
 30
0.0
 40
3.0
 41
0.0
 71
     5
 72
     1
  1
\A1;13.5
 11
0.0
 21
1.0
 31
0.0
1001
ACAD
1000
MTEXTBEGIN
1070
    73
1070
     1
1070
    44
1040
1.0
1070
    74
1070
     0
1000
MTEXTEND
1000
MTEXTBEGIN
1070
    73
1070
     1
1070
    44
1040
1.0
1070
    74
1070
     0
1000
MTEXTEND
  0
POINT
  5
1B6
100
AcDbEntity
  8
DEFPOINTS
  6
CONTINUOUS
 62
     0
100
AcDbPoint
 10
44.0
 20
-50.20575
 30
0.0
  0
POINT
  5
1B7
100
AcDbEntity
  8
DEFPOINTS
  6
CONTINUOUS
 62
     0
100
AcDbPoint
 10
44.0
 20
-63.70575
 30
0.0
  0
POINT
  5
1B8
100
AcDbEntity
  8
DEFPOINTS
  6
CONTINUOUS
 62
     0
100
AcDbPoint
 10
60.0
 20
-63.70575
 30
0.0
  0
ENDBLK
  5
1BA
100
AcDbEntity
  8
0
100
AcDbBlockEnd
  0
BLOCK
  5
1C6
100
AcDbEntity
  8
0
100
AcDbBlockBegin
  2
*D3
 70
     1
 10
0.0
 20
0.0
 30
0.0
  3
*D3
  1

  0
LINE
  5
1BD
100
AcDbEntity
  8
寸法
  6
CONTINUOUS
 62
     1
100
AcDbLine
 10
-0.999989
 20
-51.705734
 30
0.0
 11
-11.0
 21
-51.705734
 31
0.0
1001
ACAD
1000
RTLwPs
1070
   158
  0
LINE
  5
1BE
100
AcDbEntity
  8
寸法
  6
CONTINUOUS
 62
     1
100
AcDbLine
 10
0.261262
 20
-63.705734
 30
0.0
 11
-11.0
 21
-63.705734
 31
0.0
1001
ACAD
1000
RTLwPs
1070
   158
  0
LINE
  5
1BF
100
AcDbEntity
  8
寸法
  6
CONTINUOUS
 62
     1
100
AcDbLine
 10
-10.0
 20
-53.705734
 30
0.0
 11
-10.0
 21
-61.705734
 31
0.0
1001
ACAD
1000
RTLwPs
1070
   158
  0
INSERT
  5
1C0
100
AcDbEntity
  8
寸法
  6
CONTINUOUS
 62
     1
100
AcDbBlockReference
  2
_OPEN30
 10
-10.0
 20
-51.705734
 30
0.0
 41
2.0
 42
2.0
 43
2.0
 50
90.0
1001
ACAD
1000
RTLwPs
1070
   158
  0
INSERT
  5
1C1
100
AcDbEntity
  8
寸法
  6
CONTINUOUS
 62
     1
100
AcDbBlockReference
  2
_OPEN30
 10
-10.0
 20
-63.705734
 30
0.0
 41
2.0
 42
2.0
 43
2.0
 50
270.0
1001
ACAD
1000
RTLwPs
1070
   158
  0
MTEXT
  5
1C2
100
AcDbEntity
  8
寸法
  6
CONTINUOUS
 62
     1
100
AcDbMText
 10
-12.5
 20
-57.705734
 30
0.0
 40
3.0
 41
0.0
 71
     5
 72
     1
  1
\A1;12
 11
0.0
 21
1.0
 31
0.0
1001
ACAD
1000
MTEXTBEGIN
1070
    73
1070
     1
1070
    44
1040
1.0
1070
    74
1070
     0
1000
MTEXTEND
1000
MTEXTBEGIN
1070
    73
1070
     1
1070
    44
1040
1.0
1070
    74
1070
     0
1000
MTEXTEND
  0
POINT
  5
1C3
100
AcDbEntity
  8
DEFPOINTS
  6
CONTINUOUS
 62
     0
100
AcDbPoint
 10
0.000011
 20
-51.705734
 30
0.0
  0
POINT
  5
1C4
100
AcDbEntity
  8
DEFPOINTS
  6
CONTINUOUS
 62
     0
100
AcDbPoint
 10
1.261262
 20
-63.705734
 30
0.0
  0
POINT
  5
1C5
100
AcDbEntity
  8
DEFPOINTS
  6
CONTINUOUS
 62
     0
100
AcDbPoint
 10
-10.0
 20
-63.705734
 30
0.0
  0
ENDBLK
  5
1C7
100
AcDbEntity
  8
0
100
AcDbBlockEnd
  0
BLOCK
  5
1D5
100
AcDbEntity
  8
0
100
AcDbBlockBegin
  2
*D4
 70
     1
 10
0.0
 20
0.0
 30
0.0
  3
*D4
  1

  0
LINE
  5
1CA
100
AcDbEntity
  8
寸法
  6
CONTINUOUS
 62
     1
100
AcDbLine
 10
33.75
 20
-65.343155
 30
0.0
 11
33.75
 21
-71.0
 31
0.0
1001
ACAD
1000
RTLwPs
1070
   158
  0
LINE
  5
1CB
100
AcDbEntity
  8
寸法
  6
CONTINUOUS
 62
     1
100
AcDbLine
 10
30.25
 20
-65.343155
 30
0.0
 11
30.25
 21
-71.0
 31
0.0
1001
ACAD
1000
RTLwPs
1070
   158
  0
LINE
  5
1CC
100
AcDbEntity
  8
寸法
  6
CONTINUOUS
 62
     1
100
AcDbLine
 10
35.75
 20
-70.0
 30
0.0
 11
37.75
 21
-70.0
 31
0.0
1001
ACAD
1000
RTLwPs
1070
   158
  0
LINE
  5
1CD
100
AcDbEntity
  8
寸法
  6
CONTINUOUS
 62
     1
100
AcDbLine
 10
28.25
 20
-70.0
 30
0.0
 11
18.25
 21
-70.0
 31
0.0
1001
ACAD
1000
RTLwPs
1070
   158
  0
LINE
  5
1CE
100
AcDbEntity
  8
寸法
  6
CONTINUOUS
 62
     1
100
AcDbLine
 10
33.75
 20
-70.0
 30
0.0
 11
30.25
 21
-70.0
 31
0.0
1001
ACAD
1000
RTLwPs
1070
   158
  0
INSERT
  5
1CF
100
AcDbEntity
  8
寸法
  6
CONTINUOUS
 62
     1
100
AcDbBlockReference
  2
_OPEN30
 10
33.75
 20
-70.0
 30
0.0
 41
2.0
 42
2.0
 43
2.0
 50
180.0
1001
ACAD
1000
RTLwPs
1070
   158
  0
INSERT
  5
1D0
100
AcDbEntity
  8
寸法
  6
CONTINUOUS
 62
     1
100
AcDbBlockReference
  2
_OPEN30
 10
30.25
 20
-70.0
 30
0.0
 41
2.0
 42
2.0
 43
2.0
1001
ACAD
1000
RTLwPs
1070
   158
  0
MTEXT
  5
1D1
100
AcDbEntity
  8
寸法
  6
CONTINUOUS
 62
     1
100
AcDbMText
 10
22.25
 20
-67.5
 30
0.0
 40
3.0
 41
0.0
 71
     5
 72
     1
  1
\A1;3.5
1001
ACAD
1000
MTEXTBEGIN
1070
    73
1070
     1
1070
    44
1040
1.0
1070
    74
1070
     0
1000
MTEXTEND
1000
MTEXTBEGIN
1070
    73
1070
     1
1070
    44
1040
1.0
1070
    74
1070
     0
1000
MTEXTEND
  0
POINT
  5
1D2
100
AcDbEntity
  8
DEFPOINTS
  6
CONTINUOUS
 62
     0
100
AcDbPoint
 10
33.75
 20
-64.343155
 30
0.0
  0
POINT
  5
1D3
100
AcDbEntity
  8
DEFPOINTS
  6
CONTINUOUS
 62
     0
100
AcDbPoint
 10
30.25
 20
-64.343155
 30
0.0
  0
POINT
  5
1D4
100
AcDbEntity
  8
DEFPOINTS
  6
CONTINUOUS
 62
     0
100
AcDbPoint
 10
30.25
 20
-70.0
 30
0.0
  0
ENDBLK
  5
1D6
100
AcDbEntity
  8
0
100
AcDbBlockEnd
  0
BLOCK
  5
1E2
100
AcDbEntity
  8
0
100
AcDbBlockBegin
  2
*D5
 70
     1
 10
0.0
 20
0.0
 30
0.0
  3
*D5
  1

  0
LINE
  5
1D9
100
AcDbEntity
  8
寸法
  6
CONTINUOUS
 62
     1
100
AcDbLine
 10
52.0
 20
-54.20575
 30
0.0
 11
52.0
 21
-39.0
 31
0.0
1001
ACAD
1000
RTLwPs
1070
   158
  0
LINE
  5
1DA
100
AcDbEntity
  8
寸法
  6
CONTINUOUS
 62
     1
100
AcDbLine
 10
32.0
 20
-46.945343
 30
0.0
 11
32.0
 21
-39.0
 31
0.0
1001
ACAD
1000
RTLwPs
1070
   158
  0
LINE
  5
1DB
100
AcDbEntity
  8
寸法
  6
CONTINUOUS
 62
     1
100
AcDbLine
 10
50.0
 20
-40.0
 30
0.0
 11
34.0
 21
-40.0
 31
0.0
1001
ACAD
1000
RTLwPs
1070
   158
  0
INSERT
  5
1DC
100
AcDbEntity
  8
寸法
  6
CONTINUOUS
 62
     1
100
AcDbBlockReference
  2
_OPEN30
 10
52.0
 20
-40.0
 30
0.0
 41
2.0
 42
2.0
 43
2.0
1001
ACAD
1000
RTLwPs
1070
   158
  0
INSERT
  5
1DD
100
AcDbEntity
  8
寸法
  6
CONTINUOUS
 62
     1
100
AcDbBlockReference
  2
_OPEN30
 10
32.0
 20
-40.0
 30
0.0
 41
2.0
 42
2.0
 43
2.0
 50
180.0
1001
ACAD
1000
RTLwPs
1070
   158
  0
MTEXT
  5
1DE
100
AcDbEntity
  8
寸法
  6
CONTINUOUS
 62
     1
100
AcDbMText
 10
42.0
 20
-37.5
 30
0.0
 40
3.0
 41
0.0
 71
     5
 72
     1
  1
\A1;20
1001
ACAD
1000
MTEXTBEGIN
1070
    73
1070
     1
1070
    44
1040
1.0
1070
    74
1070
     0
1000
MTEXTEND
1000
MTEXTBEGIN
1070
    73
1070
     1
1070
    44
1040
1.0
1070
    74
1070
     0
1000
MTEXTEND
  0
POINT
  5
1DF
100
AcDbEntity
  8
DEFPOINTS
  6
CONTINUOUS
 62
     0
100
AcDbPoint
 10
52.0
 20
-55.20575
 30
0.0
  0
POINT
  5
1E0
100
AcDbEntity
  8
DEFPOINTS
  6
CONTINUOUS
 62
     0
100
AcDbPoint
 10
32.0
 20
-47.945343
 30
0.0
  0
POINT
  5
1E1
100
AcDbEntity
  8
DEFPOINTS
  6
CONTINUOUS
 62
     0
100
AcDbPoint
 10
32.0
 20
-40.0
 30
0.0
  0
ENDBLK
  5
1E3
100
AcDbEntity
  8
0
100
AcDbBlockEnd
  0
BLOCK
  5
1F5
100
AcDbEntity
  8
0
100
AcDbBlockBegin
  2
*D6
 70
     1
 10
0.0
 20
0.0
 30
0.0
  3
*D6
  1

  0
LINE
  5
2ED
100
AcDbEntity
  8
寸法
  6
CONTINUOUS
 62
     1
100
AcDbLine
 10
10.417248
 20
-50.20575
 30
0.0
 11
-20.579393
 21
-50.20575
 31
0.0
  0
LINE
  5
2EE
100
AcDbEntity
  8
寸法
  6
CONTINUOUS
 62
     1
100
AcDbLine
 10
-0.994522
 20
-51.510278
 30
0.0
 11
-20.404112
 21
-53.550307
 31
0.0
  0
ARC
  5
2EF
100
AcDbEntity
  8
寸法
  6
CONTINUOUS
 62
     1
100
AcDbCircle
 10
11.417248
 20
-50.20575
 30
0.0
 40
30.996641
100
AcDbArc
 50
172.601055
 51
180.0
  0
LINE
  5
2F0
100
AcDbEntity
  8
寸法
  6
CONTINUOUS
 62
     1
100
AcDbLine
 10
-19.321301
 20
-46.214085
 30
0.0
 11
-18.213815
 21
-37.685693
 31
0.0
  0
ARC
  5
2F1
100
AcDbEntity
  8
寸法
  6
CONTINUOUS
 62
     1
100
AcDbCircle
 10
11.417248
 20
-50.20575
 30
0.0
 40
30.996641
100
AcDbArc
 50
172.604912
 51
176.302456
  0
ARC
  5
2F2
100
AcDbEntity
  8
寸法
  6
CONTINUOUS
 62
     1
100
AcDbCircle
 10
11.417248
 20
-50.20575
 30
0.0
 40
30.996641
100
AcDbArc
 50
189.697539
 51
193.395083
  0
ARC
  5
2F3
100
AcDbEntity
  8
寸法
  6
CONTINUOUS
 62
     1
100
AcDbCircle
 10
11.417248
 20
-50.20575
 30
0.0
 40
30.996641
100
AcDbArc
 50
180.0
 51
185.999994
  0
INSERT
  5
2F4
100
AcDbEntity
  8
寸法
  6
CONTINUOUS
 62
     1
100
AcDbBlockReference
  2
_OPEN30
 10
-19.579393
 20
-50.20575
 30
0.0
 41
2.0
 42
2.0
 43
2.0
 50
268.151228
  0
INSERT
  5
2F5
100
AcDbEntity
  8
寸法
  6
CONTINUOUS
 62
     1
100
AcDbBlockReference
  2
_OPEN30
 10
-19.409591
 20
-53.445778
 30
0.0
 41
2.0
 42
2.0
 43
2.0
 50
97.848767
  0
MTEXT
  5
2F6
100
AcDbEntity
  8
寸法
  6
CONTINUOUS
 62
     1
100
AcDbMText
 10
-16.288374
 20
-42.271832
 30
0.0
 40
3.0
 41
0.0
 71
     5
 72
     1
  1
\A1;6°
 11
-0.128777
 21
-0.991674
 31
0.0
  0
POINT
  5
2F7
100
AcDbEntity
  8
DEFPOINTS
  6
CONTINUOUS
 62
     0
100
AcDbPoint
 10
-19.503887
 20
-52.367964
 30
0.0
  0
POINT
  5
2F8
100
AcDbEntity
  8
DEFPOINTS
  6
CONTINUOUS
 62
     0
100
AcDbPoint
 10
11.417248
 20
-50.20575
 30
0.0
  0
POINT
  5
2F9
100
AcDbEntity
  8
DEFPOINTS
  6
CONTINUOUS
 62
     0
100
AcDbPoint
 10
0.0
 20
-51.40575
 30
0.0
  0
POINT
  5
2FA
100
AcDbEntity
  8
DEFPOINTS
  6
CONTINUOUS
 62
     0
100
AcDbPoint
 10
11.417248
 20
-50.20575
 30
0.0
  0
POINT
  5
2FB
100
AcDbEntity
  8
DEFPOINTS
  6
CONTINUOUS
 62
     0
100
AcDbPoint
 10
44.0
 20
-50.20575
 30
0.0
  0
ENDBLK
  5
1F6
100
AcDbEntity
  8
0
100
AcDbBlockEnd
  0
BLOCK
  5
202
100
AcDbEntity
  8
0
100
AcDbBlockBegin
  2
*D7
 70
     1
 10
0.0
 20
0.0
 30
0.0
  3
*D7
  1

  0
LINE
  5
1F9
100
AcDbEntity
  8
寸法
  6
CONTINUOUS
 62
     1
100
AcDbLine
 10
52.0
 20
-8.500002
 30
0.0
 11
52.0
 21
-31.0
 31
0.0
1001
ACAD
1000
RTLwPs
1070
   158
  0
LINE
  5
1FA
100
AcDbEntity
  8
寸法
  6
CONTINUOUS
 62
     1
100
AcDbLine
 10
0.0
 20
-10.510526
 30
0.0
 11
0.0
 21
-31.0
 31
0.0
1001
ACAD
1000
RTLwPs
1070
   158
  0
LINE
  5
1FB
100
AcDbEntity
  8
寸法
  6
CONTINUOUS
 62
     1
100
AcDbLine
 10
50.0
 20
-30.0
 30
0.0
 11
2.0
 21
-30.0
 31
0.0
1001
ACAD
1000
RTLwPs
1070
   158
  0
INSERT
  5
1FC
100
AcDbEntity
  8
寸法
  6
CONTINUOUS
 62
     1
100
AcDbBlockReference
  2
_OPEN30
 10
52.0
 20
-30.0
 30
0.0
 41
2.0
 42
2.0
 43
2.0
1001
ACAD
1000
RTLwPs
1070
   158
  0
INSERT
  5
1FD
100
AcDbEntity
  8
寸法
  6
CONTINUOUS
 62
     1
100
AcDbBlockReference
  2
_OPEN30
 10
0.0
 20
-30.0
 30
0.0
 41
2.0
 42
2.0
 43
2.0
 50
180.0
1001
ACAD
1000
RTLwPs
1070
   158
  0
MTEXT
  5
1FE
100
AcDbEntity
  8
寸法
  6
CONTINUOUS
 62
     1
100
AcDbMText
 10
26.0
 20
-27.5
 30
0.0
 40
3.0
 41
0.0
 71
     5
 72
     1
  1
\A1;52
1001
ACAD
1000
MTEXTBEGIN
1070
    73
1070
     1
1070
    44
1040
1.0
1070
    74
1070
     0
1000
MTEXTEND
1000
MTEXTBEGIN
1070
    73
1070
     1
1070
    44
1040
1.0
1070
    74
1070
     0
1000
MTEXTEND
  0
POINT
  5
1FF
100
AcDbEntity
  8
DEFPOINTS
  6
CONTINUOUS
 62
     0
100
AcDbPoint
 10
52.0
 20
-7.500002
 30
0.0
  0
POINT
  5
200
100
AcDbEntity
  8
DEFPOINTS
  6
CONTINUOUS
 62
     0
100
AcDbPoint
 10
0.0
 20
-9.510526
 30
0.0
  0
POINT
  5
201
100
AcDbEntity
  8
DEFPOINTS
  6
CONTINUOUS
 62
     0
100
AcDbPoint
 10
0.0
 20
-30.0
 30
0.0
  0
ENDBLK
  5
203
100
AcDbEntity
  8
0
100
AcDbBlockEnd
  0
BLOCK
  5
20F
100
AcDbEntity
  8
0
100
AcDbBlockBegin
  2
*D8
 70
     1
 10
0.0
 20
0.0
 30
0.0
  3
*D8
  1

  0
LINE
  5
2FC
100
AcDbEntity
  8
寸法
  6
CONTINUOUS
 62
     1
100
AcDbLine
 10
52.0
 20
-8.500002
 30
0.0
 11
52.0
 21
-21.0
 31
0.0
  0
LINE
  5
2FD
100
AcDbEntity
  8
寸法
  6
CONTINUOUS
 62
     1
100
AcDbLine
 10
44.0
 20
-12.096
 30
0.0
 11
44.0
 21
-21.0
 31
0.0
  0
LINE
  5
2FE
100
AcDbEntity
  8
寸法
  6
CONTINUOUS
 62
     1
100
AcDbLine
 10
50.0
 20
-20.0
 30
0.0
 11
46.0
 21
-20.0
 31
0.0
  0
INSERT
  5
2FF
100
AcDbEntity
  8
寸法
  6
CONTINUOUS
 62
     1
100
AcDbBlockReference
  2
_OPEN30
 10
52.0
 20
-20.0
 30
0.0
 41
2.0
 42
2.0
 43
2.0
  0
INSERT
  5
300
100
AcDbEntity
  8
寸法
  6
CONTINUOUS
 62
     1
100
AcDbBlockReference
  2
_OPEN30
 10
44.0
 20
-20.0
 30
0.0
 41
2.0
 42
2.0
 43
2.0
 50
180.0
  0
MTEXT
  5
301
100
AcDbEntity
  8
寸法
  6
CONTINUOUS
 62
     1
100
AcDbMText
 10
48.0
 20
-17.5
 30
0.0
 40
3.0
 41
0.0
 71
     5
 72
     1
  1
\A1;8
  0
POINT
  5
302
100
AcDbEntity
  8
DEFPOINTS
  6
CONTINUOUS
 62
     0
100
AcDbPoint
 10
52.0
 20
-7.500002
 30
0.0
  0
POINT
  5
303
100
AcDbEntity
  8
DEFPOINTS
  6
CONTINUOUS
 62
     0
100
AcDbPoint
 10
44.0
 20
-11.096
 30
0.0
  0
POINT
  5
304
100
AcDbEntity
  8
DEFPOINTS
  6
CONTINUOUS
 62
     0
100
AcDbPoint
 10
44.0
 20
-20.0
 30
0.0
  0
ENDBLK
  5
210
100
AcDbEntity
  8
0
100
AcDbBlockEnd
  0
BLOCK
  5
225
100
AcDbEntity
  8
0
100
AcDbBlockBegin
  2
*D9
 70
     1
 10
0.0
 20
0.0
 30
0.0
  3
*D9
  1

  0
LINE
  5
21C
100
AcDbEntity
  8
寸法
  6
CONTINUOUS
 62
     1
100
AcDbLine
 10
-0.198973
 20
-12.5
 30
0.0
 11
-11.0
 21
-12.5
 31
0.0
1001
ACAD
1000
RTLwPs
1070
   158
  0
LINE
  5
21D
100
AcDbEntity
  8
寸法
  6
CONTINUOUS
 62
     1
100
AcDbLine
 10
-0.369362
 20
0.5
 30
0.0
 11
-11.0
 21
0.5
 31
0.0
1001
ACAD
1000
RTLwPs
1070
   158
  0
LINE
  5
21E
100
AcDbEntity
  8
寸法
  6
CONTINUOUS
 62
     1
100
AcDbLine
 10
-10.0
 20
-10.5
 30
0.0
 11
-10.0
 21
-1.5
 31
0.0
1001
ACAD
1000
RTLwPs
1070
   158
  0
INSERT
  5
21F
100
AcDbEntity
  8
寸法
  6
CONTINUOUS
 62
     1
100
AcDbBlockReference
  2
_OPEN30
 10
-10.0
 20
-12.5
 30
0.0
 41
2.0
 42
2.0
 43
2.0
 50
270.0
1001
ACAD
1000
RTLwPs
1070
   158
  0
INSERT
  5
220
100
AcDbEntity
  8
寸法
  6
CONTINUOUS
 62
     1
100
AcDbBlockReference
  2
_OPEN30
 10
-10.0
 20
0.5
 30
0.0
 41
2.0
 42
2.0
 43
2.0
 50
90.0
1001
ACAD
1000
RTLwPs
1070
   158
  0
MTEXT
  5
221
100
AcDbEntity
  8
寸法
  6
CONTINUOUS
 62
     1
100
AcDbMText
 10
-12.5
 20
-6.0
 30
0.0
 40
3.0
 41
0.0
 71
     5
 72
     1
  1
\A1;13
 11
0.0
 21
1.0
 31
0.0
1001
ACAD
1000
MTEXTBEGIN
1070
    73
1070
     1
1070
    44
1040
1.0
1070
    74
1070
     0
1000
MTEXTEND
1000
MTEXTBEGIN
1070
    73
1070
     1
1070
    44
1040
1.0
1070
    74
1070
     0
1000
MTEXTEND
  0
POINT
  5
222
100
AcDbEntity
  8
DEFPOINTS
  6
CONTINUOUS
 62
     0
100
AcDbPoint
 10
0.801027
 20
-12.5
 30
0.0
  0
POINT
  5
223
100
AcDbEntity
  8
DEFPOINTS
  6
CONTINUOUS
 62
     0
100
AcDbPoint
 10
0.630638
 20
0.5
 30
0.0
  0
POINT
  5
224
100
AcDbEntity
  8
DEFPOINTS
  6
CONTINUOUS
 62
     0
100
AcDbPoint
 10
-10.0
 20
0.5
 30
0.0
  0
ENDBLK
  5
226
100
AcDbEntity
  8
0
100
AcDbBlockEnd
  0
BLOCK
  5
23D
100
AcDbEntity
  8
0
100
AcDbBlockBegin
  2
*D10
 70
     1
 10
0.0
 20
0.0
 30
0.0
  3
*D10
  1

  0
LINE
  5
305
100
AcDbEntity
  8
寸法
  6
CONTINUOUS
 62
     1
100
AcDbLine
 10
-38.216627
 20
-13.499998
 30
0.0
 11
-38.216627
 21
-24.990856
 31
0.0
  0
LINE
  5
306
100
AcDbEntity
  8
寸法
  6
CONTINUOUS
 62
     1
100
AcDbLine
 10
-36.139104
 20
-13.496193
 30
0.0
 11
-35.145184
 21
-24.856754
 31
0.0
  0
ARC
  5
307
100
AcDbEntity
  8
寸法
  6
CONTINUOUS
 62
     1
100
AcDbCircle
 10
-38.216627
 20
10.250001
 30
0.0
 40
34.240858
100
AcDbArc
 50
263.302924
 51
270.0
  0
LINE
  5
308
100
AcDbEntity
  8
寸法
  6
CONTINUOUS
 62
     1
100
AcDbLine
 10
-42.209797
 20
-23.757217
 30
0.0
 11
-50.751116
 21
-22.754285
 31
0.0
  0
ARC
  5
309
100
AcDbEntity
  8
寸法
  6
CONTINUOUS
 62
     1
100
AcDbCircle
 10
-38.216627
 20
10.250001
 30
0.0
 40
34.240858
100
AcDbArc
 50
263.305784
 51
266.652892
  0
ARC
  5
30A
100
AcDbEntity
  8
寸法
  6
CONTINUOUS
 62
     1
100
AcDbCircle
 10
-38.216627
 20
10.250001
 30
0.0
 40
34.240858
100
AcDbArc
 50
278.347108
 51
281.694216
  0
ARC
  5
30B
100
AcDbEntity
  8
寸法
  6
CONTINUOUS
 62
     1
100
AcDbCircle
 10
-38.216627
 20
10.250001
 30
0.0
 40
34.240858
100
AcDbArc
 50
270.0
 51
275.0
  0
INSERT
  5
30C
100
AcDbEntity
  8
寸法
  6
CONTINUOUS
 62
     1
100
AcDbBlockReference
  2
_OPEN30
 10
-38.216627
 20
-23.990856
 30
0.0
 41
2.0
 42
2.0
 43
2.0
 50
358.326446
  0
INSERT
  5
30D
100
AcDbEntity
  8
寸法
  6
CONTINUOUS
 62
     1
100
AcDbBlockReference
  2
_OPEN30
 10
-35.232339
 20
-23.860559
 30
0.0
 41
2.0
 42
2.0
 43
2.0
 50
186.673554
  0
MTEXT
  5
30E
100
AcDbEntity
  8
寸法
  6
CONTINUOUS
 62
     1
100
AcDbMText
 10
-46.188907
 20
-20.772809
 30
0.0
 40
3.0
 41
0.0
 71
     5
 72
     1
  1
\A1;5°
 11
0.993177
 21
-0.11662
 31
0.0
  0
POINT
  5
30F
100
AcDbEntity
  8
DEFPOINTS
  6
CONTINUOUS
 62
     0
100
AcDbPoint
 10
-36.225698
 20
-23.932926
 30
0.0
  0
POINT
  5
310
100
AcDbEntity
  8
DEFPOINTS
  6
CONTINUOUS
 62
     0
100
AcDbPoint
 10
-38.216627
 20
10.250001
 30
0.0
  0
POINT
  5
311
100
AcDbEntity
  8
DEFPOINTS
  6
CONTINUOUS
 62
     0
100
AcDbPoint
 10
-38.216627
 20
10.250001
 30
0.0
  0
POINT
  5
312
100
AcDbEntity
  8
DEFPOINTS
  6
CONTINUOUS
 62
     0
100
AcDbPoint
 10
-36.22626
 20
-12.499998
 30
0.0
  0
POINT
  5
313
100
AcDbEntity
  8
DEFPOINTS
  6
CONTINUOUS
 62
     0
100
AcDbPoint
 10
-38.216627
 20
-12.499998
 30
0.0
  0
ENDBLK
  5
23E
100
AcDbEntity
  8
0
100
AcDbBlockEnd
  0
BLOCK
  5
247
100
AcDbEntity
  8
0
100
AcDbBlockBegin
  2
*D11
 70
     1
 10
0.0
 20
0.0
 30
0.0
  3
*D11
  1

  0
LINE
  5
24F
100
AcDbEntity
  8
寸法
  6
CONTINUOUS
 62
     1
100
AcDbLine
 10
-62.954061
 20
-4.101765
 30
0.0
 11
-53.00691
 21
1.669213
 31
0.0
1001
ACAD
1000
RTLwPs
1070
   158
  0
MTEXT
  5
250
100
AcDbEntity
  8
寸法
  6
CONTINUOUS
 62
     1
100
AcDbMText
 10
-60.100016
 20
0.444324
 30
0.0
 40
3.0
 41
0.0
 71
     5
 72
     1
  1
\A1;%%c30
 11
0.86497
 21
0.501824
 31
0.0
1001
ACAD
1000
MTEXTBEGIN
1070
    73
1070
     1
1070
    44
1040
1.0
1070
    74
1070
     0
1000
MTEXTEND
1000
MTEXTBEGIN
1070
    73
1070
     1
1070
    44
1040
1.0
1070
    74
1070
     0
1000
MTEXTEND
  0
LINE
  5
251
100
AcDbEntity
  8
寸法
  6
CONTINUOUS
 62
     1
100
AcDbLine
 10
-38.216627
 20
10.250001
 30
0.0
 11
-51.276971
 21
2.672861
 31
0.0
1001
ACAD
1000
RTLwPs
1070
   158
  0
INSERT
  5
252
100
AcDbEntity
  8
寸法
  6
CONTINUOUS
 62
     1
100
AcDbBlockReference
  2
_OPEN30
 10
-51.276971
 20
2.672861
 30
0.0
 41
2.0
 42
2.0
 43
2.0
 50
30.12076
1001
ACAD
1000
RTLwPs
1070
   158
  0
POINT
  5
253
100
AcDbEntity
  8
DEFPOINTS
  6
CONTINUOUS
 62
     0
100
AcDbPoint
 10
-51.276971
 20
2.672861
 30
0.0
  0
POINT
  5
254
100
AcDbEntity
  8
DEFPOINTS
  6
CONTINUOUS
 62
     0
100
AcDbPoint
 10
-38.216627
 20
10.250001
 30
0.0
  0
ENDBLK
  5
248
100
AcDbEntity
  8
0
100
AcDbBlockEnd
  0
BLOCK
  5
31F
100
AcDbEntity
  8
0
100
AcDbBlockBegin
  2
A$C776226A5
 70
     0
 10
0.0
 20
0.0
 30
0.0
  3
A$C776226A5
  1

  0
TEXT
  5
31E
100
AcDbEntity
  8
0
  6
CONTINUOUS
100
AcDbText
 10
0.0
 20
0.0
 30
0.0
 40
6.0
  1
本図は左勝手（Ｌ）を示す
100
AcDbText
  0
ENDBLK
  5
320
100
AcDbEntity
  8
0
100
AcDbBlockEnd
  0
ENDSEC
  0
SECTION
  2
ENTITIES
  0
POINT
  5
24
100
AcDbEntity
  8
0
  6
CONTINUOUS
 62
     7
100
AcDbPoint
 10
102.17638
 20
-63.70575
 30
0.0
  0
POINT
  5
25
100
AcDbEntity
  8
0
  6
CONTINUOUS
 62
     7
100
AcDbPoint
 10
0.000011
 20
-51.705734
 30
0.0
  0
POINT
  5
26
100
AcDbEntity
  8
0
  6
CONTINUOUS
 62
     7
100
AcDbPoint
 10
-36.488725
 20
0.000002
 30
0.0
  0
POINT
  5
27
100
AcDbEntity
  8
0
  6
CONTINUOUS
 62
     7
100
AcDbPoint
 10
0.0
 20
0.0
 30
0.0
  0
LINE
  5
28
100
AcDbEntity
  8
0
  6
CONTINUOUS
 62
     7
100
AcDbLine
 10
0.630638
 20
0.5
 30
0.0
 11
44.0
 21
0.5
 31
0.0
  0
LINE
  5
29
100
AcDbEntity
  8
0
  6
CONTINUOUS
 62
     7
100
AcDbLine
 10
0.0
 20
0.0
 30
0.0
 11
0.0
 21
-9.510526
 31
0.0
  0
LINE
  5
2A
100
AcDbEntity
  8
0
  6
CONTINUOUS
 62
     7
100
AcDbLine
 10
0.801027
 20
-12.5
 30
0.0
 11
14.999985
 21
-12.5
 31
0.0
  0
LINE
  5
2B
100
AcDbEntity
  8
0
  6
CONTINUOUS
 62
     7
100
AcDbLine
 10
0.0
 20
0.0
 30
0.0
 11
9.53
 21
0.0
 31
0.0
  0
LINE
  5
2C
100
AcDbEntity
  8
0
  6
CONTINUOUS
 62
     7
100
AcDbLine
 10
14.999985
 20
-10.499983
 30
0.0
 11
14.999985
 21
-12.5
 31
0.0
  0
LINE
  5
2D
100
AcDbEntity
  8
0
  6
CENTER
 62
     1
 48
0.5
100
AcDbLine
 10
32.0
 20
-47.945343
 30
0.0
 11
32.0
 21
-64.343155
 31
0.0
  0
LINE
  5
2E
100
AcDbEntity
  8
0
  6
CONTINUOUS
 62
     7
100
AcDbLine
 10
44.0
 20
0.5
 30
0.0
 11
44.0
 21
-11.096
 31
0.0
  0
LINE
  5
2F
100
AcDbEntity
  8
0
  6
CENTER
 62
     1
 48
0.5
100
AcDbLine
 10
32.0
 20
3.5
 30
0.0
 11
32.0
 21
-13.324005
 31
0.0
  0
LINE
  5
30
100
AcDbEntity
  8
0
  6
CONTINUOUS
 62
     7
100
AcDbLine
 10
9.53
 20
0.0
 30
0.0
 11
9.53
 21
-9.5
 31
0.0
  0
LINE
  5
31
100
AcDbEntity
  8
0
  6
CENTER
 62
     1
 48
0.5
100
AcDbLine
 10
1.28
 20
-4.75
 30
0.0
 11
8.28
 21
-4.75
 31
0.0
  0
LINE
  5
32
100
AcDbEntity
  8
0
  6
CENTER
 62
     1
 48
0.5
100
AcDbLine
 10
4.78
 20
-1.25
 30
0.0
 11
4.78
 21
-8.25
 31
0.0
  0
LINE
  5
33
100
AcDbEntity
  8
0
  6
CENTER
 62
     1
 48
0.5
100
AcDbLine
 10
8.0
 20
-57.70575
 30
0.0
 11
14.0
 21
-57.70575
 31
0.0
  0
LINE
  5
34
100
AcDbEntity
  8
0
  6
CENTER
 62
     1
 48
0.5
100
AcDbLine
 10
11.0
 20
-54.70575
 30
0.0
 11
11.0
 21
-60.70575
 31
0.0
  0
LINE
  5
35
100
AcDbEntity
  8
0
  6
CONTINUOUS
 62
     7
100
AcDbLine
 10
0.630638
 20
-57.70575
 30
0.0
 11
9.0
 21
-57.70575
 31
0.0
  0
LINE
  5
36
100
AcDbEntity
  8
0
  6
CONTINUOUS
 62
     7
100
AcDbLine
 10
13.0
 20
-57.70575
 30
0.0
 11
14.999985
 21
-57.70575
 31
0.0
  0
LINE
  5
37
100
AcDbEntity
  8
0
  6
CONTINUOUS
 62
     7
100
AcDbLine
 10
14.999985
 20
-50.20575
 30
0.0
 11
14.999985
 21
-61.562351
 31
0.0
  0
LINE
  5
38
100
AcDbEntity
  8
0
  6
CONTINUOUS
 62
     7
100
AcDbLine
 10
15.999985
 20
-9.499983
 30
0.0
 11
44.0
 21
-9.499983
 31
0.0
  0
LINE
  5
39
100
AcDbEntity
  8
0
  6
CONTINUOUS
 62
     7
100
AcDbLine
 10
-34.988725
 20
-0.499999
 30
0.0
 11
-34.988725
 21
-11.499998
 31
0.0
  0
LINE
  5
3A
100
AcDbEntity
  8
0
  6
CONTINUOUS
 62
     7
100
AcDbLine
 10
-47.488725
 20
0.500001
 30
0.0
 11
-35.988725
 21
0.500001
 31
0.0
  0
LINE
  5
3B
100
AcDbEntity
  8
0
  6
CONTINUOUS
 62
     7
100
AcDbLine
 10
-48.488725
 20
-0.499999
 30
0.0
 11
-48.488725
 21
-10.316176
 31
0.0
  0
LINE
  5
3C
100
AcDbEntity
  8
0
  6
CONTINUOUS
 62
     7
100
AcDbLine
 10
-42.488587
 20
-12.499998
 30
0.0
 11
-35.988725
 21
-12.499998
 31
0.0
  0
LINE
  5
3D
100
AcDbEntity
  8
0
  6
CONTINUOUS
 62
     7
100
AcDbLine
 10
-48.488671
 20
-10.316141
 30
0.0
 11
-42.488583
 21
-12.499995
 31
0.0
  0
LINE
  5
3E
100
AcDbEntity
  8
0
  6
CONTINUOUS
 62
     7
100
AcDbLine
 10
-35.521439
 20
0.000002
 30
0.0
 11
-35.521439
 21
-9.499999
 31
0.0
  0
LINE
  5
3F
100
AcDbEntity
  8
0
  6
CONTINUOUS
 62
     7
100
AcDbLine
 10
-39.888726
 20
0.000002
 30
0.0
 11
-35.521424
 21
0.000002
 31
0.0
  0
LINE
  5
40
100
AcDbEntity
  8
0
  6
CONTINUOUS
 62
     7
100
AcDbLine
 10
1.261246
 20
-63.70575
 30
0.0
 11
44.0
 21
-63.70575
 31
0.0
  0
LINE
  5
41
100
AcDbEntity
  8
0
  6
CONTINUOUS
 62
     7
100
AcDbLine
 10
1.261262
 20
-63.705734
 30
0.0
 11
0.000011
 21
-51.705734
 31
0.0
  0
LINE
  5
42
100
AcDbEntity
  8
0
  6
CONTINUOUS
 62
     7
100
AcDbLine
 10
11.417248
 20
-50.20575
 30
0.0
 11
44.0
 21
-50.20575
 31
0.0
  0
LINE
  5
43
100
AcDbEntity
  8
0
  6
CONTINUOUS
 62
     7
100
AcDbLine
 10
44.0
 20
-50.20575
 30
0.0
 11
44.0
 21
-63.70575
 31
0.0
  0
LINE
  5
44
100
AcDbEntity
  8
0
  6
CONTINUOUS
 62
     7
100
AcDbLine
 10
52.0
 20
-3.5
 30
0.0
 11
52.0
 21
-7.5
 31
0.0
  0
LINE
  5
45
100
AcDbEntity
  8
0
  6
CENTER
 62
     1
 48
0.5
100
AcDbLine
 10
41.541668
 20
-5.5
 30
0.0
 11
53.930676
 21
-5.5
 31
0.0
  0
LINE
  5
46
100
AcDbEntity
  8
0
  6
CONTINUOUS
 62
     7
100
AcDbLine
 10
47.0
 20
-1.5
 30
0.0
 11
47.0
 21
-9.5
 31
0.0
  0
LINE
  5
47
100
AcDbEntity
  8
0
  6
CONTINUOUS
 62
     7
100
AcDbLine
 10
44.0
 20
-8.0
 30
0.0
 11
47.0
 21
-8.0
 31
0.0
  0
LINE
  5
48
100
AcDbEntity
  8
0
  6
CONTINUOUS
 62
     7
100
AcDbLine
 10
44.0
 20
-3.0
 30
0.0
 11
47.0
 21
-3.0
 31
0.0
  0
LINE
  5
49
100
AcDbEntity
  8
0
  6
CONTINUOUS
 62
     7
100
AcDbLine
 10
49.5
 20
-0.999999
 30
0.0
 11
52.0
 21
-3.499999
 31
0.0
  0
LINE
  5
4A
100
AcDbEntity
  8
0
  6
CONTINUOUS
 62
     7
100
AcDbLine
 10
49.5
 20
-10.000002
 30
0.0
 11
52.0
 21
-7.500002
 31
0.0
  0
LINE
  5
4B
100
AcDbEntity
  8
0
  6
CONTINUOUS
 62
     7
100
AcDbLine
 10
47.5
 20
-10.0
 30
0.0
 11
49.5
 21
-10.0
 31
0.0
  0
LINE
  5
4C
100
AcDbEntity
  8
0
  6
CONTINUOUS
 62
     7
100
AcDbLine
 10
47.5
 20
-1.0
 30
0.0
 11
49.5
 21
-1.0
 31
0.0
  0
LINE
  5
4D
100
AcDbEntity
  8
0
  6
CONTINUOUS
 62
     7
100
AcDbLine
 10
47.499996
 20
-1.000005
 30
0.0
 11
47.0
 21
-1.500003
 31
0.0
  0
LINE
  5
4E
100
AcDbEntity
  8
0
  6
CONTINUOUS
 62
     7
100
AcDbLine
 10
47.000004
 20
-9.499998
 30
0.0
 11
47.500004
 21
-9.999996
 31
0.0
  0
LINE
  5
4F
100
AcDbEntity
  8
0
  6
CONTINUOUS
 62
     7
100
AcDbLine
 10
47.5
 20
-1.0
 30
0.0
 11
47.5
 21
-10.0
 31
0.0
  0
LINE
  5
50
100
AcDbEntity
  8
0
  6
CONTINUOUS
 62
     7
100
AcDbLine
 10
49.5
 20
-1.0
 30
0.0
 11
49.5
 21
-10.0
 31
0.0
  0
LINE
  5
51
100
AcDbEntity
  8
0
  6
CONTINUOUS
 62
     7
100
AcDbLine
 10
44.0
 20
-7.5
 30
0.0
 11
47.0
 21
-7.5
 31
0.0
  0
LINE
  5
52
100
AcDbEntity
  8
0
  6
CONTINUOUS
 62
     7
100
AcDbLine
 10
44.0
 20
-3.5
 30
0.0
 11
47.0
 21
-3.5
 31
0.0
  0
LINE
  5
53
100
AcDbEntity
  8
0
  6
CONTINUOUS
 62
     7
100
AcDbLine
 10
52.0
 20
-55.20575
 30
0.0
 11
52.0
 21
-59.20575
 31
0.0
  0
LINE
  5
54
100
AcDbEntity
  8
0
  6
CENTER
 62
     1
 48
0.5
100
AcDbLine
 10
41.541668
 20
-57.20575
 30
0.0
 11
53.930676
 21
-57.20575
 31
0.0
  0
LINE
  5
55
100
AcDbEntity
  8
0
  6
CONTINUOUS
 62
     7
100
AcDbLine
 10
47.0
 20
-53.20575
 30
0.0
 11
47.0
 21
-61.20575
 31
0.0
  0
LINE
  5
56
100
AcDbEntity
  8
0
  6
CONTINUOUS
 62
     7
100
AcDbLine
 10
44.0
 20
-59.70575
 30
0.0
 11
47.0
 21
-59.70575
 31
0.0
  0
LINE
  5
57
100
AcDbEntity
  8
0
  6
CONTINUOUS
 62
     7
100
AcDbLine
 10
44.0
 20
-54.70575
 30
0.0
 11
47.0
 21
-54.70575
 31
0.0
  0
LINE
  5
58
100
AcDbEntity
  8
0
  6
CONTINUOUS
 62
     7
100
AcDbLine
 10
49.5
 20
-52.70575
 30
0.0
 11
52.000004
 21
-55.205753
 31
0.0
  0
LINE
  5
59
100
AcDbEntity
  8
0
  6
CONTINUOUS
 62
     7
100
AcDbLine
 10
49.499996
 20
-61.70575
 30
0.0
 11
51.999996
 21
-59.20575
 31
0.0
  0
LINE
  5
5A
100
AcDbEntity
  8
0
  6
CONTINUOUS
 62
     7
100
AcDbLine
 10
47.5
 20
-61.70575
 30
0.0
 11
49.5
 21
-61.70575
 31
0.0
  0
LINE
  5
5B
100
AcDbEntity
  8
0
  6
CONTINUOUS
 62
     7
100
AcDbLine
 10
47.5
 20
-52.70575
 30
0.0
 11
49.5
 21
-52.70575
 31
0.0
  0
LINE
  5
5C
100
AcDbEntity
  8
0
  6
CONTINUOUS
 62
     7
100
AcDbLine
 10
47.499996
 20
-52.70575
 30
0.0
 11
47.0
 21
-53.20575
 31
0.0
  0
LINE
  5
5D
100
AcDbEntity
  8
0
  6
CONTINUOUS
 62
     7
100
AcDbLine
 10
47.000004
 20
-61.205746
 30
0.0
 11
47.500004
 21
-61.705746
 31
0.0
  0
LINE
  5
5E
100
AcDbEntity
  8
0
  6
CONTINUOUS
 62
     7
100
AcDbLine
 10
47.5
 20
-52.70575
 30
0.0
 11
47.5
 21
-61.70575
 31
0.0
  0
LINE
  5
5F
100
AcDbEntity
  8
0
  6
CONTINUOUS
 62
     7
100
AcDbLine
 10
49.5
 20
-52.70575
 30
0.0
 11
49.5
 21
-61.70575
 31
0.0
  0
LINE
  5
60
100
AcDbEntity
  8
0
  6
CONTINUOUS
 62
     7
100
AcDbLine
 10
44.0
 20
-59.20575
 30
0.0
 11
47.0
 21
-59.20575
 31
0.0
  0
LINE
  5
61
100
AcDbEntity
  8
0
  6
CONTINUOUS
 62
     7
100
AcDbLine
 10
44.0
 20
-55.20575
 30
0.0
 11
47.0
 21
-55.20575
 31
0.0
  0
LINE
  5
62
100
AcDbEntity
  8
0
  6
CENTER
 62
     1
 48
0.5
100
AcDbLine
 10
30.25
 20
-47.945343
 30
0.0
 11
30.25
 21
-64.343155
 31
0.0
  0
LINE
  5
63
100
AcDbEntity
  8
0
  6
CENTER
 62
     1
 48
0.5
100
AcDbLine
 10
33.75
 20
-47.945343
 30
0.0
 11
33.75
 21
-64.343155
 31
0.0
  0
LINE
  5
64
100
AcDbEntity
  8
0
  6
CONTINUOUS
 62
     7
100
AcDbLine
 10
102.99239
 20
-50.20575
 30
0.0
 11
111.99239
 21
-50.20575
 31
0.0
  0
LINE
  5
65
100
AcDbEntity
  8
0
  6
CONTINUOUS
 62
     7
100
AcDbLine
 10
112.99239
 20
-51.20575
 30
0.0
 11
112.99239
 21
-62.628815
 31
0.0
  0
LINE
  5
66
100
AcDbEntity
  8
0
  6
CONTINUOUS
 62
     7
100
AcDbLine
 10
102.99232
 20
-50.20575
 30
0.0
 11
101.39626
 21
-61.562351
 31
0.0
  0
LINE
  5
67
100
AcDbEntity
  8
0
  6
CONTINUOUS
 62
     7
100
AcDbLine
 10
102.17638
 20
-63.70575
 30
0.0
 11
111.915444
 21
-63.70575
 31
0.0
  0
LINE
  5
68
100
AcDbEntity
  8
0
  6
CONTINUOUS
 62
     7
100
AcDbLine
 10
108.82188
 20
-51.838032
 30
0.0
 11
107.36057
 21
-62.235847
 31
0.0
  0
LINE
  5
6A
100
AcDbEntity
  8
0
  6
CONTINUOUS
 62
     7
100
AcDbLine
 10
102.17638
 20
-63.705746
 30
0.0
 11
101.39626
 21
-61.562351
 31
0.0
  0
LINE
  5
6B
100
AcDbEntity
  8
0
  6
CONTINUOUS
 62
     7
100
AcDbLine
 10
112.99239
 20
-62.628815
 30
0.0
 11
111.915444
 21
-63.70575
 31
0.0
  0
LINE
  5
6C
100
AcDbEntity
  8
0
  6
CONTINUOUS
 62
     7
100
AcDbLine
 10
111.99239
 20
-50.20575
 30
0.0
 11
112.99239
 21
-51.20575
 31
0.0
  0
LINE
  5
6D
100
AcDbEntity
  8
0
  6
CONTINUOUS
 62
     7
100
AcDbLine
 10
-48.488725
 20
-0.499999
 30
0.0
 11
-47.488725
 21
0.500001
 31
0.0
  0
LINE
  5
6E
100
AcDbEntity
  8
0
  6
CONTINUOUS
 62
     7
100
AcDbLine
 10
-35.988725
 20
0.500002
 30
0.0
 11
-34.988725
 21
-0.499999
 31
0.0
  0
LINE
  5
6F
100
AcDbEntity
  8
0
  6
CONTINUOUS
 62
     7
100
AcDbLine
 10
-35.988725
 20
-12.499999
 30
0.0
 11
-34.988725
 21
-11.499999
 31
0.0
  0
LINE
  5
70
100
AcDbEntity
  8
0
  6
CONTINUOUS
 62
     7
100
AcDbLine
 10
11.417248
 20
-0.5
 30
0.0
 11
44.0
 21
-0.5
 31
0.0
  0
LINE
  5
71
100
AcDbEntity
  8
0
  6
CONTINUOUS
 62
     7
100
AcDbLine
 10
15.999985
 20
-11.096
 30
0.0
 11
44.0
 21
-11.096
 31
0.0
  0
LINE
  5
72
100
AcDbEntity
  8
0
  6
CONTINUOUS
 62
     7
100
AcDbLine
 10
11.417248
 20
-11.5
 30
0.0
 11
14.999985
 21
-11.5
 31
0.0
  0
LINE
  5
73
100
AcDbEntity
  8
0
  6
CONTINUOUS
 62
     7
100
AcDbLine
 10
-36.488725
 20
0.000002
 30
0.0
 11
-36.488725
 21
-9.499999
 31
0.0
  0
LINE
  5
74
100
AcDbEntity
  8
0
  6
CONTINUOUS
 62
     7
100
AcDbLine
 10
-39.888726
 20
0.000002
 30
0.0
 11
-39.888726
 21
-9.499999
 31
0.0
  0
LINE
  5
75
100
AcDbEntity
  8
0
  6
CONTINUOUS
 62
     7
100
AcDbLine
 10
14.999985
 20
-61.562351
 30
0.0
 11
44.0
 21
-61.562351
 31
0.0
  0
LINE
  5
76
100
AcDbEntity
  8
0
  6
CONTINUOUS
 62
     7
100
AcDbLine
 10
0.0
 20
-9.5
 30
0.0
 11
9.53
 21
-9.5
 31
0.0
  0
LINE
  5
77
100
AcDbEntity
  8
0
  6
CONTINUOUS
 62
     7
100
AcDbLine
 10
-39.888726
 20
-9.499999
 30
0.0
 11
-35.521439
 21
-9.499999
 31
0.0
  0
LINE
  5
78
100
AcDbEntity
  8
0
  6
CONTINUOUS
 62
     7
100
AcDbLine
 10
-44.013531
 20
-11.944958
 30
0.0
 11
-36.488725
 21
-9.499999
 31
0.0
  0
LINE
  5
79
100
AcDbEntity
  8
0
  6
CONTINUOUS
 62
     7
100
AcDbLine
 10
0.0
 20
-51.40575
 30
0.0
 11
11.417248
 21
-50.20575
 31
0.0
  0
LINE
  5
7A
100
AcDbEntity
  8
0
  6
CONTINUOUS
 62
     7
100
AcDbLine
 10
0.0
 20
-51.40575
 30
0.0
 11
0.031185
 21
-51.702457
 31
0.0
  0
LINE
  5
7B
100
AcDbEntity
  8
0
  6
CONTINUOUS
 62
     7
100
AcDbLine
 10
11.417248
 20
-0.5
 30
0.0
 11
11.417248
 21
-6.837962
 31
0.0
  0
LINE
  5
7C
100
AcDbEntity
  8
0
  6
CONTINUOUS
 62
     7
100
AcDbLine
 10
9.521217
 20
-0.300719
 30
0.0
 11
11.417248
 21
-0.5
 31
0.0
  0
LINE
  5
7D
100
AcDbEntity
  8
0
  6
CONTINUOUS
 62
     7
100
AcDbLine
 10
0.801027
 20
-12.5
 30
0.0
 11
11.417248
 21
-11.5
 31
0.0
  0
LINE
  5
7E
100
AcDbEntity
  8
0
  6
CENTER
 62
     1
 48
0.5
100
AcDbLine
 10
116.7035
 20
-58.247314
 30
0.0
 11
91.64241
 21
-54.725208
 31
0.0
  0
LINE
  5
7F
100
AcDbEntity
  8
0
  6
CONTINUOUS
 62
     7
100
AcDbLine
 10
107.36057
 20
-62.235847
 30
0.0
 11
101.41896
 21
-61.400806
 31
0.0
  0
LINE
  5
80
100
AcDbEntity
  8
0
  6
CONTINUOUS
 62
     7
100
AcDbLine
 10
108.82188
 20
-51.838032
 30
0.0
 11
102.88027
 21
-51.002991
 31
0.0
  0
LINE
  5
81
100
AcDbEntity
  8
0
  6
CONTINUOUS
 62
     7
100
AcDbLine
 10
112.99239
 20
-60.957195
 30
0.0
 11
107.64587
 21
-60.205791
 31
0.0
  0
LINE
  5
82
100
AcDbEntity
  8
0
  6
CONTINUOUS
 62
     7
100
AcDbLine
 10
112.99239
 20
-54.494301
 30
0.0
 11
108.53658
 21
-53.86808
 31
0.0
  0
LINE
  5
83
100
AcDbEntity
  8
0
  6
CONTINUOUS
 62
     7
100
AcDbLine
 10
30.25
 20
-61.400806
 30
0.0
 11
33.75
 21
-61.400806
 31
0.0
  0
LINE
  5
84
100
AcDbEntity
  8
0
  6
CONTINUOUS
 62
     7
100
AcDbLine
 10
30.25
 20
-60.205795
 30
0.0
 11
33.75
 21
-60.205795
 31
0.0
  0
LINE
  5
85
100
AcDbEntity
  8
0
  6
CONTINUOUS
 62
     7
100
AcDbLine
 10
30.25
 20
-54.494301
 30
0.0
 11
33.75
 21
-54.494301
 31
0.0
  0
LINE
  5
86
100
AcDbEntity
  8
0
  6
CONTINUOUS
 62
     7
100
AcDbLine
 10
30.25
 20
-53.86808
 30
0.0
 11
33.75
 21
-53.86808
 31
0.0
  0
LINE
  5
87
100
AcDbEntity
  8
0
  6
CONTINUOUS
 62
     7
100
AcDbLine
 10
30.25
 20
-51.838028
 30
0.0
 11
33.75
 21
-51.838028
 31
0.0
  0
LINE
  5
88
100
AcDbEntity
  8
0
  6
CONTINUOUS
 62
     7
100
AcDbLine
 10
30.25
 20
-51.002991
 30
0.0
 11
33.75
 21
-51.002991
 31
0.0
  0
LINE
  5
89
100
AcDbEntity
  8
0
  6
CONTINUOUS
 62
     7
100
AcDbLine
 10
11.417248
 20
-8.162038
 30
0.0
 11
11.417248
 21
-11.5
 31
0.0
  0
LINE
  5
8A
100
AcDbEntity
  8
0
  6
CONTINUOUS
 62
     7
100
AcDbLine
 10
0.0
 20
-9.510526
 30
0.0
 11
0.801027
 21
-12.5
 31
0.0
  0
LINE
  5
8B
100
AcDbEntity
  8
0
  6
CONTINUOUS
 62
     7
100
AcDbLine
 10
0.630638
 20
-51.339466
 30
0.0
 11
0.630638
 21
-57.70575
 31
0.0
  0
LINE
  5
8C
100
AcDbEntity
  8
0
  6
CONTINUOUS
 62
     7
100
AcDbLine
 10
0.630638
 20
0.5
 30
0.0
 11
0.630638
 21
0.0
 31
0.0
  0
CIRCLE
  5
8D
100
AcDbEntity
  8
0
  6
CONTINUOUS
 62
     7
100
AcDbCircle
 10
11.0
 20
-57.70575
 30
0.0
 40
2.0
  0
CIRCLE
  5
8E
100
AcDbEntity
  8
0
  6
CONTINUOUS
 62
     7
100
AcDbCircle
 10
11.0
 20
-57.70575
 30
0.0
 40
1.5
  0
CIRCLE
  5
8F
100
AcDbEntity
  8
0
  6
CONTINUOUS
 62
     7
100
AcDbCircle
 10
4.78
 20
-4.75
 30
0.0
 40
1.975
  0
ARC
  5
90
100
AcDbEntity
  8
0
  6
CONTINUOUS
 62
     7
100
AcDbCircle
 10
15.999985
 20
-10.499983
 30
0.0
 40
1.0
100
AcDbArc
 50
89.999982
 51
179.99996
  0
ARC
  5
91
100
AcDbEntity
  8
0
  6
CONTINUOUS
 62
     7
100
AcDbCircle
 10
9.53
 20
-7.5
 30
0.0
 40
2.0
100
AcDbArc
 50
270.00002
 51
89.999982
  0
ARC
  5
92
100
AcDbEntity
  8
0
  6
CONTINUOUS
 62
     7
100
AcDbCircle
 10
15.999985
 20
-12.096
 30
0.0
 40
1.0
100
AcDbArc
 50
90.000003
 51
180.00001
  0
LWPOLYLINE
  5
93
100
AcDbEntity
  8
0
  6
CONTINUOUS
 62
     7
100
AcDbPolyline
 90
       17
 70
     0
 43
0.0
 10
30.25
 20
-51.002991
 42
0.048416
 10
29.230782
 20
-51.101903
 42
0.048522
 10
28.249648
 20
-51.39516
 42
0.048718
 10
27.343563
 20
-51.872362
 42
0.048977
 10
26.54722
 20
-52.516301
 42
0.049271
 10
25.89164
 20
-53.303404
 42
0.049546
 10
25.403121
 20
-54.204042
 42
0.049752
 10
25.101741
 20
-55.183351
 42
0.049813
 10
25.0
 20
-56.201897
 42
0.049822
 10
25.101777
 20
-57.220624
 42
0.049704
 10
25.402814
 20
-58.199022
 42
0.04952
 10
25.890891
 20
-59.099285
 42
0.049257
 10
26.546065
 20
-59.886356
 42
0.048988
 10
27.342378
 20
-60.530654
 42
0.048743
 10
28.248822
 20
-61.0083
 42
0.048553
 10
29.230553
 20
-61.301849
 42
0.048428
 10
30.25
 20
-61.400806
  0
LWPOLYLINE
  5
A6
100
AcDbEntity
  8
0
  6
CENTER
 62
     1
 48
0.5
100
AcDbPolyline
 90
       17
 70
     0
 43
0.0
 10
30.25
 20
-53.86808
 42
0.048369
 10
29.629362
 20
-53.928252
 42
0.048521
 10
29.031303
 20
-54.106886
 42
0.048718
 10
28.478968
 20
-54.397647
 42
0.048977
 10
27.993503
 20
-54.79005
 42
0.04927
 10
27.593819
 20
-55.269731
 42
0.049546
 10
27.295948
 20
-55.818633
 42
0.049752
 10
27.112134
 20
-56.41551
 42
0.049862
 10
27.049999
 20
-57.036938
 42
0.049751
 10
27.11186
 20
-57.657009
 42
0.049704
 10
27.295181
 20
-58.253416
 42
0.04952
 10
27.592522
 20
-58.802231
 42
0.049258
 10
27.991732
 20
-59.282081
 42
0.048988
 10
28.476995
 20
-59.67493
 42
0.048744
 10
29.029414
 20
-59.966218
 42
0.048553
 10
29.627753
 20
-60.145308
 42
0.048496
 10
30.25
 20
-60.205795
  0
LWPOLYLINE
  5
B9
100
AcDbEntity
  8
0
  6
CONTINUOUS
 62
     7
100
AcDbPolyline
 90
       17
 70
     0
 43
0.0
 10
30.25
 20
-51.838028
 42
0.020693
 10
29.773764
 20
-51.857741
 42
0.02081
 10
29.300133
 20
-51.916938
 42
0.020986
 10
28.833059
 20
-52.015465
 42
0.021244
 10
28.375994
 20
-52.153016
 42
0.021587
 10
27.932373
 20
-52.329151
 42
0.02201
 10
27.505755
 20
-52.543243
 42
0.022507
 10
27.099827
 20
-52.794425
 42
0.023069
 10
26.718407
 20
-53.081527
 42
0.023681
 10
26.365419
 20
-53.403003
 42
0.024326
 10
26.044844
 20
-53.756857
 42
0.024981
 10
25.760643
 20
-54.140568
 42
0.025618
 10
25.516652
 20
-54.551032
 42
0.026205
 10
25.316438
 20
-54.984528
 42
0.026708
 10
25.163144
 20
-55.43672
 42
0.027095
 10
25.059315
 20
-55.902714
 42
0.027337
 10
25.006743
 20
-56.377161
  0
LWPOLYLINE
  5
CC
100
AcDbEntity
  8
0
  6
CONTINUOUS
 62
     7
100
AcDbPolyline
 90
       17
 70
     0
 43
0.0
 10
30.25
 20
-54.494301
 42
0.019876
 10
29.965462
 20
-54.505613
 42
0.020011
 10
29.682182
 20
-54.539618
 42
0.020181
 10
29.402856
 20
-54.596189
 42
0.020468
 10
29.129061
 20
-54.675241
 42
0.020851
 10
28.862721
 20
-54.776615
 42
0.021328
 10
28.605853
 20
-54.900067
 42
0.021892
 10
28.360576
 20
-55.045238
 42
0.022537
 10
28.129122
 20
-55.211609
 42
0.02325
 10
27.913827
 20
-55.39846
 42
0.024014
 10
27.717109
 20
-55.604809
 42
0.024802
 10
27.541428
 20
-55.829357
 42
0.025585
 10
27.389223
 20
-56.070441
 42
0.026321
 10
27.262821
 20
-56.325991
 42
0.026969
 10
27.164329
 20
-56.593519
 42
0.027483
 10
27.095509
 20
-56.870136
 42
0.027825
 10
27.057656
 20
-57.152619
  0
LWPOLYLINE
  5
DF
100
AcDbEntity
  8
0
  6
CONTINUOUS
 62
     7
100
AcDbPolyline
 90
       17
 70
     0
 43
0.0
 10
33.75
 20
-53.86808
 42
-0.048369
 10
34.370638
 20
-53.928252
 42
-0.048521
 10
34.968697
 20
-54.106886
 42
-0.048718
 10
35.521032
 20
-54.397647
 42
-0.048977
 10
36.006497
 20
-54.79005
 42
-0.04927
 10
36.406181
 20
-55.269731
 42
-0.049546
 10
36.704052
 20
-55.818633
 42
-0.049752
 10
36.887866
 20
-56.41551
 42
-0.049862
 10
36.950001
 20
-57.036938
 42
-0.049751
 10
36.88814
 20
-57.657009
 42
-0.049704
 10
36.704819
 20
-58.253416
 42
-0.04952
 10
36.407478
 20
-58.802231
 42
-0.049258
 10
36.008268
 20
-59.282081
 42
-0.048988
 10
35.523005
 20
-59.67493
 42
-0.048744
 10
34.970586
 20
-59.966218
 42
-0.048553
 10
34.372247
 20
-60.145308
 42
-0.048496
 10
33.75
 20
-60.205795
  0
LWPOLYLINE
  5
F2
100
AcDbEntity
  8
0
  6
CONTINUOUS
 62
     7
100
AcDbPolyline
 90
       17
 70
     0
 43
0.0
 10
33.75
 20
-54.494301
 42
-0.019876
 10
34.034538
 20
-54.505613
 42
-0.020011
 10
34.317818
 20
-54.539618
 42
-0.020181
 10
34.597144
 20
-54.596189
 42
-0.020468
 10
34.870939
 20
-54.675241
 42
-0.020851
 10
35.137279
 20
-54.776615
 42
-0.021328
 10
35.394147
 20
-54.900067
 42
-0.021892
 10
35.639424
 20
-55.045238
 42
-0.022537
 10
35.870878
 20
-55.211609
 42
-0.02325
 10
36.086173
 20
-55.39846
 42
-0.024014
 10
36.282891
 20
-55.604809
 42
-0.024802
 10
36.458572
 20
-55.829357
 42
-0.025585
 10
36.610777
 20
-56.070441
 42
-0.026321
 10
36.737179
 20
-56.325991
 42
-0.026969
 10
36.835671
 20
-56.593519
 42
-0.027483
 10
36.904491
 20
-56.870136
 42
-0.027825
 10
36.942344
 20
-57.152619
  0
LWPOLYLINE
  5
105
100
AcDbEntity
  8
0
  6
CONTINUOUS
 62
     7
100
AcDbPolyline
 90
       17
 70
     0
 43
0.0
 10
33.75
 20
-51.838028
 42
-0.020693
 10
34.226236
 20
-51.857741
 42
-0.02081
 10
34.699867
 20
-51.916938
 42
-0.020986
 10
35.166941
 20
-52.015465
 42
-0.021244
 10
35.624006
 20
-52.153016
 42
-0.021587
 10
36.067627
 20
-52.329151
 42
-0.02201
 10
36.494245
 20
-52.543243
 42
-0.022507
 10
36.900173
 20
-52.794425
 42
-0.023069
 10
37.281593
 20
-53.081527
 42
-0.023681
 10
37.634581
 20
-53.403003
 42
-0.024326
 10
37.955156
 20
-53.756857
 42
-0.024981
 10
38.239357
 20
-54.140568
 42
-0.025618
 10
38.483348
 20
-54.551032
 42
-0.026205
 10
38.683562
 20
-54.984528
 42
-0.026708
 10
38.836856
 20
-55.43672
 42
-0.027095
 10
38.940685
 20
-55.902714
 42
-0.027337
 10
38.993257
 20
-56.377161
  0
LWPOLYLINE
  5
118
100
AcDbEntity
  8
0
  6
CONTINUOUS
 62
     7
100
AcDbPolyline
 90
       17
 70
     0
 43
0.0
 10
33.75
 20
-51.002991
 42
-0.048416
 10
34.769218
 20
-51.101903
 42
-0.048522
 10
35.750352
 20
-51.39516
 42
-0.048718
 10
36.656437
 20
-51.872362
 42
-0.048977
 10
37.45278
 20
-52.516301
 42
-0.049271
 10
38.10836
 20
-53.303404
 42
-0.049546
 10
38.596879
 20
-54.204042
 42
-0.049752
 10
38.898259
 20
-55.183351
 42
-0.049813
 10
39.0
 20
-56.201897
 42
-0.049822
 10
38.898223
 20
-57.220624
 42
-0.049704
 10
38.597186
 20
-58.199022
 42
-0.04952
 10
38.109109
 20
-59.099285
 42
-0.049257
 10
37.453935
 20
-59.886356
 42
-0.048988
 10
36.657622
 20
-60.530654
 42
-0.048743
 10
35.751178
 20
-61.0083
 42
-0.048553
 10
34.769447
 20
-61.301849
 42
-0.048428
 10
33.75
 20
-61.400806
  0
LWPOLYLINE
  5
12B
100
AcDbEntity
  8
0
  6
CONTINUOUS
 62
     7
100
AcDbPolyline
 90
       16
 70
     1
 43
0.0
 10
39.0
 20
-10.34277
 42
0.125503
 10
37.332598
 20
-9.86944
 42
0.014682
 10
35.559904
 20
-9.713652
 42
0.008453
 10
33.781611
 20
-9.636173
 42
0.006836
 10
32.0
 20
-9.612111
 42
0.006828
 10
30.220156
 20
-9.636124
 42
0.008453
 10
28.441299
 20
-9.713578
 42
0.014684
 10
26.667733
 20
-9.869399
 42
0.125607
 10
25.0
 20
-10.34277
 42
0.125503
 10
26.667402
 20
-10.8161
 42
0.014682
 10
28.440096
 20
-10.971888
 42
0.008453
 10
30.218389
 20
-11.049367
 42
0.006836
 10
32.0
 20
-11.073429
 42
0.006828
 10
33.779844
 20
-11.049416
 42
0.008453
 10
35.558701
 20
-10.971962
 42
0.014684
 10
37.332267
 20
-10.81614
 42
0.125607
  0
LINE
  5
13D
100
AcDbEntity
  8
0
  6
CONTINUOUS
 62
     7
100
AcDbLine
 10
111.406555
 20
-63.70575
 30
0.0
 11
112.99239
 21
-62.119914
 31
0.0
  0
LINE
  5
13E
100
AcDbEntity
  8
0
  6
CONTINUOUS
 62
     7
100
AcDbLine
 10
109.16149
 20
-63.70575
 30
0.0
 11
112.04341
 21
-60.823829
 31
0.0
  0
LINE
  5
13F
100
AcDbEntity
  8
0
  6
CONTINUOUS
 62
     7
100
AcDbLine
 10
106.916434
 20
-63.70575
 30
0.0
 11
110.07499
 21
-60.547185
 31
0.0
  0
LINE
  5
140
100
AcDbEntity
  8
0
  6
CONTINUOUS
 62
     7
100
AcDbLine
 10
104.671368
 20
-63.70575
 30
0.0
 11
106.29152
 21
-62.085599
 31
0.0
  0
LINE
  5
141
100
AcDbEntity
  8
0
  6
CONTINUOUS
 62
     7
100
AcDbLine
 10
107.55995
 20
-60.817161
 30
0.0
 11
108.10657
 21
-60.270542
 31
0.0
  0
LINE
  5
142
100
AcDbEntity
  8
0
  6
CONTINUOUS
 62
     7
100
AcDbLine
 10
102.42631
 20
-63.705749
 30
0.0
 11
104.3231
 21
-61.808956
 31
0.0
  0
LINE
  5
143
100
AcDbEntity
  8
0
  6
CONTINUOUS
 62
     7
100
AcDbLine
 10
101.64399
 20
-62.243001
 30
0.0
 11
102.35468
 21
-61.532313
 31
0.0
  0
LINE
  5
144
100
AcDbEntity
  8
0
  6
CONTINUOUS
 62
     7
100
AcDbLine
 10
111.80466
 20
-54.327377
 30
0.0
 11
112.99239
 21
-53.139649
 31
0.0
  0
LINE
  5
145
100
AcDbEntity
  8
0
  6
CONTINUOUS
 62
     7
100
AcDbLine
 10
109.83624
 20
-54.050735
 30
0.0
 11
112.8368
 21
-51.050166
 31
0.0
  0
LINE
  5
146
100
AcDbEntity
  8
0
  6
CONTINUOUS
 62
     7
100
AcDbLine
 10
108.6613
 20
-52.980608
 30
0.0
 11
111.43616
 21
-50.20575
 31
0.0
  0
LINE
  5
147
100
AcDbEntity
  8
0
  6
CONTINUOUS
 62
     7
100
AcDbLine
 10
107.71446
 20
-51.68239
 30
0.0
 11
109.19109
 21
-50.20575
 31
0.0
  0
LINE
  5
148
100
AcDbEntity
  8
0
  6
CONTINUOUS
 62
     7
100
AcDbLine
 10
105.74604
 20
-51.405747
 30
0.0
 11
106.94603
 21
-50.20575
 31
0.0
  0
LINE
  5
149
100
AcDbEntity
  8
0
  6
CONTINUOUS
 62
     7
100
AcDbLine
 10
103.77762
 20
-51.129104
 30
0.0
 11
104.70097
 21
-50.20575
 31
0.0
  0
TEXT
  5
14C
100
AcDbEntity
  8
0
  6
CONTINUOUS
100
AcDbText
 10
9.872206
 20
-91.780335
 30
0.0
 40
6.0
  1
BU194Ｌ
100
AcDbText
  0
DIMENSION
  5
180
100
AcDbEntity
  8
寸法
  6
CONTINUOUS
100
AcDbDimension
  2
*D1
 10
120.0
 20
-63.70575
 30
0.0
 11
117.5
 21
-73.20575
 31
0.0
 70
    32
  3
STANDARD
100
AcDbAlignedDimension
 13
112.99239
 23
-57.725752
 33
0.0
 14
111.915444
 24
-63.70575
 34
0.0
 50
90.0
100
AcDbRotatedDimension
  0
LINE
  5
1A3
102
{ACAD_REACTORS
330
1AD
102
}
100
AcDbEntity
  8
寸法
  6
CONTINUOUS
 62
     1
100
AcDbLine
 10
117.693768
 20
-58.386487
 30
0.0
 11
130.991913
 21
-60.255419
 31
0.0
  0
LINE
  5
1A4
102
{ACAD_REACTORS
330
1AD
102
}
100
AcDbEntity
  8
寸法
  6
CONTINUOUS
 62
     1
100
AcDbLine
 10
112.99239
 20
-57.725752
 30
0.0
 11
131.168804
 21
-57.725752
 31
0.0
  0
ARC
  5
1A5
102
{ACAD_REACTORS
330
1AD
102
}
100
AcDbEntity
  8
寸法
  6
CONTINUOUS
 62
     1
100
AcDbCircle
 10
112.99239
 20
-57.725752
 30
0.0
 40
17.176414
100
AcDbArc
 50
338.626769
 51
352.000001
  0
LINE
  5
1A6
102
{ACAD_REACTORS
330
1AD
102
}
100
AcDbEntity
  8
寸法
  6
CONTINUOUS
 62
     1
100
AcDbLine
 10
128.987517
 20
-63.985554
 30
0.0
 11
125.853318
 21
-71.994099
 31
0.0
  0
ARC
  5
1A7
102
{ACAD_REACTORS
330
1AD
102
}
100
AcDbEntity
  8
寸法
  6
CONTINUOUS
 62
     1
100
AcDbCircle
 10
112.99239
 20
-57.725752
 30
0.0
 40
17.176414
100
AcDbArc
 50
338.649555
 51
345.324778
  0
ARC
  5
1A8
100
AcDbEntity
  8
寸法
  6
CONTINUOUS
 62
     1
100
AcDbCircle
 10
112.99239
 20
-57.725752
 30
0.0
 40
17.176414
100
AcDbArc
 50
6.675223
 51
13.350446
  0
ARC
  5
1A9
102
{ACAD_REACTORS
330
1AD
102
}
100
AcDbEntity
  8
寸法
  6
CONTINUOUS
 62
     1
100
AcDbCircle
 10
112.99239
 20
-57.725752
 30
0.0
 40
17.176414
100
AcDbArc
 50
352.000001
 51
0.0
  0
INSERT
  5
1AA
102
{ACAD_REACTORS
330
1AD
102
}
100
AcDbEntity
  8
寸法
  6
CONTINUOUS
 62
     1
100
AcDbBlockReference
  2
_OPEN30
 10
130.001645
 20
-60.116246
 30
0.0
 41
2.0
 42
2.0
 43
2.0
 50
78.66239
  0
INSERT
  5
1AB
102
{ACAD_REACTORS
330
1AD
102
}
100
AcDbEntity
  8
寸法
  6
CONTINUOUS
 62
     1
100
AcDbBlockReference
  2
_OPEN30
 10
130.168804
 20
-57.725752
 30
0.0
 41
2.0
 42
2.0
 43
2.0
 50
273.337611
  0
MTEXT
  5
1AC
102
{ACAD_REACTORS
330
1AD
102
}
100
AcDbEntity
  8
寸法
  6
CONTINUOUS
 62
     1
100
AcDbMText
 10
125.092352
 20
-67.078722
 30
0.0
 40
3.0
 41
0.0
 71
     5
 72
     1
  1
\A1;8°
 11
0.364442
 21
0.931226
 31
0.0
1001
ACAD
1000
MTEXTBEGIN
1070
    73
1070
     1
1070
    44
1040
1.0
1070
    74
1070
     0
1000
MTEXTEND
1000
MTEXTBEGIN
1070
    73
1070
     1
1070
    44
1040
1.0
1070
    74
1070
     0
1000
MTEXTEND
  0
DIMENSION
  5
1AE
100
AcDbEntity
  8
寸法
  6
CONTINUOUS
100
AcDbDimension
  2
*D2
 10
60.0
 20
-63.70575
 30
0.0
 11
57.5
 21
-56.95575
 31
0.0
 70
    32
  3
STANDARD
100
AcDbAlignedDimension
 13
44.0
 23
-50.20575
 33
0.0
 14
44.0
 24
-63.70575
 34
0.0
 50
90.0
100
AcDbRotatedDimension
  0
DIMENSION
  5
1BB
100
AcDbEntity
  8
寸法
  6
CONTINUOUS
100
AcDbDimension
  2
*D3
 10
-10.0
 20
-63.705734
 30
0.0
 11
-12.5
 21
-57.705734
 31
0.0
 70
    32
  3
STANDARD
100
AcDbAlignedDimension
 13
0.000011
 23
-51.705734
 33
0.0
 14
1.261262
 24
-63.705734
 34
0.0
 50
90.0
100
AcDbRotatedDimension
  0
DIMENSION
  5
1C8
100
AcDbEntity
  8
寸法
  6
CONTINUOUS
100
AcDbDimension
  2
*D4
 10
30.25
 20
-70.0
 30
0.0
 11
22.25
 21
-67.5
 31
0.0
 70
    32
  3
STANDARD
100
AcDbAlignedDimension
 13
33.75
 23
-64.343155
 33
0.0
 14
30.25
 24
-64.343155
 34
0.0
100
AcDbRotatedDimension
  0
DIMENSION
  5
1D7
100
AcDbEntity
  8
寸法
  6
CONTINUOUS
100
AcDbDimension
  2
*D5
 10
32.0
 20
-40.0
 30
0.0
 11
42.0
 21
-37.5
 31
0.0
 70
    32
  3
STANDARD
100
AcDbAlignedDimension
 13
52.0
 23
-55.20575
 33
0.0
 14
32.0
 24
-47.945343
 34
0.0
100
AcDbRotatedDimension
  0
DIMENSION
  5
1E4
100
AcDbEntity
  8
寸法
  6
CONTINUOUS
100
AcDbDimension
  2
*D6
 10
44.0
 20
-50.20575
 30
0.0
 11
-16.288374
 21
-42.271832
 31
0.0
 70
    34
  3
STANDARD
100
AcDb2LineAngularDimension
 13
0.0
 23
-51.40575
 33
0.0
 14
11.417248
 24
-50.20575
 34
0.0
 15
11.417248
 25
-50.20575
 35
0.0
 16
-19.503887
 26
-52.367964
 36
0.0
1001
ACAD
1000
DSTYLE
1002
{
1070
   271
1070
     0
1070
   271
1070
     0
1002
}
  0
DIMENSION
  5
1F7
100
AcDbEntity
  8
寸法
  6
CONTINUOUS
100
AcDbDimension
  2
*D7
 10
0.0
 20
-30.0
 30
0.0
 11
26.0
 21
-27.5
 31
0.0
 70
    32
  3
STANDARD
100
AcDbAlignedDimension
 13
52.0
 23
-7.500002
 33
0.0
 14
0.0
 24
-9.510526
 34
0.0
100
AcDbRotatedDimension
  0
DIMENSION
  5
204
100
AcDbEntity
  8
寸法
  6
CONTINUOUS
100
AcDbDimension
  2
*D8
 10
44.0
 20
-20.0
 30
0.0
 11
48.0
 21
-17.5
 31
0.0
 70
    32
  3
STANDARD
100
AcDbAlignedDimension
 13
52.0
 23
-7.500002
 33
0.0
 14
44.0
 24
-11.096
 34
0.0
100
AcDbRotatedDimension
1001
ACAD
1000
DSTYLE
1002
{
1070
   287
1070
     4
1070
   287
1070
     4
1070
   279
1070
     1
1002
}
  0
DIMENSION
  5
21A
100
AcDbEntity
  8
寸法
  6
CONTINUOUS
100
AcDbDimension
  2
*D9
 10
-10.0
 20
0.5
 30
0.0
 11
-12.5
 21
-6.0
 31
0.0
 70
    32
  3
STANDARD
100
AcDbAlignedDimension
 13
0.801027
 23
-12.5
 33
0.0
 14
0.630638
 24
0.5
 34
0.0
 50
90.0
100
AcDbRotatedDimension
  0
LINE
  5
227
100
AcDbEntity
  8
0
  6
CENTER
 62
     1
 48
0.5
100
AcDbLine
 10
-38.216627
 20
10.250001
 30
0.0
 11
-36.22626
 21
-12.499998
 31
0.0
  0
ARC
  5
22A
100
AcDbEntity
  8
0
  6
CENTER
 62
     1
 48
0.5
100
AcDbCircle
 10
-38.216627
 20
10.250001
 30
0.0
 40
15.099193
100
AcDbArc
 50
180.0
 51
0.0
  0
LINE
  5
22B
100
AcDbEntity
  8
0
  6
CONTINUOUS
100
AcDbLine
 10
-38.216627
 20
10.250001
 30
0.0
 11
-38.216627
 21
-12.499998
 31
0.0
  0
DIMENSION
  5
22C
100
AcDbEntity
  8
寸法
  6
CONTINUOUS
100
AcDbDimension
  2
*D10
 10
-38.216627
 20
-12.499998
 30
0.0
 11
-46.188907
 21
-20.772809
 31
0.0
 70
    34
  3
STANDARD
100
AcDb2LineAngularDimension
 13
-38.216627
 23
10.250001
 33
0.0
 14
-36.22626
 24
-12.499998
 34
0.0
 15
-38.216627
 25
10.250001
 35
0.0
 16
-36.225698
 26
-23.932926
 36
0.0
1001
ACAD
1000
DSTYLE
1002
{
1070
   271
1070
     0
1070
   271
1070
     0
1002
}
  0
DIMENSION
  5
23F
100
AcDbEntity
  8
寸法
  6
CONTINUOUS
100
AcDbDimension
  2
*D11
 10
-38.216627
 20
10.250001
 30
0.0
 11
-60.100016
 21
0.444324
 31
0.0
 70
    36
  1
%%c30
  3
STANDARD
100
AcDbRadialDimension
 15
-51.276971
 25
2.672861
 35
0.0
 40
0.0
1001
ACAD
1000
DSTYLE
1002
{
1070
   288
1070
     1
1002
}
  0
INSERT
  5
321
100
AcDbEntity
  8
0
  6
CONTINUOUS
100
AcDbBlockReference
  2
A$C776226A5
 10
8.830518
 20
-103.439299
 30
0.0
  0
ENDSEC
  0
SECTION
  2
OBJECTS
  0
DICTIONARY
  5
C
100
AcDbDictionary
  3
ACAD_GROUP
350
D
  3
ACAD_LAYOUT
350
151
  3
ACAD_MLINESTYLE
350
1B
  3
ACAD_PLOTSETTINGS
350
152
  3
ACAD_PLOTSTYLENAME
350
14F
  3
ACDBHEADERROUNDTRIPXREC
350
2C6
  0
DICTIONARY
  5
2C2
100
AcDbDictionary
280
     1
  3
ACAD_XREC_ROUNDTRIP
360
2C3
  0
DICTIONARY
  5
2E9
100
AcDbDictionary
280
     1
  3
ACAD_XREC_ROUNDTRIP
360
2EA
  0
DICTIONARY
  5
28E
100
AcDbDictionary
280
     1
  3
ACAD_LAYOUTSELFREF
360
2E8
  0
DICTIONARY
  5
28C
100
AcDbDictionary
280
     1
  3
ACAD_LAYOUTSELFREF
360
2E7
  0
DICTIONARY
  5
2C0
100
AcDbDictionary
280
     1
  3
ACAD_XREC_ROUNDTRIP
360
2C1
  0
DICTIONARY
  5
D
102
{ACAD_REACTORS
330
C
102
}
100
AcDbDictionary
  3
*A1
350
17E
  3
*A2
350
1AD
  0
DICTIONARY
  5
151
102
{ACAD_XDICTIONARY
360
2EB
102
}
102
{ACAD_REACTORS
330
C
102
}
100
AcDbDictionary
  3
MODEL
350
153
  3
ﾚｲｱｳﾄ1
350
154
  0
DICTIONARY
  5
1B
102
{ACAD_REACTORS
330
C
102
}
100
AcDbDictionary
  3
STANDARD
350
1C
  0
DICTIONARY
  5
152
102
{ACAD_REACTORS
330
C
102
}
100
AcDbDictionary
  0
ACAD_PROXY_OBJECT
  5
14F
102
{ACAD_REACTORS
330
C
102
}
100
AcDbProxyObject
 90
      499
 91
      500
 93
       86
310
405010041939BDC9B585B0
350
150
340
150
 94
        0
  0
DICTIONARY
  5
2C6
102
{ACAD_REACTORS
330
C
102
}
100
AcDbDictionary
  3
CEPSNTYPE
350
2D0
  3
DIMSTYLEDATA
350
2D4
  3
FINGERPRINTGUID
350
2D1
  3
HYPERLINKBASE
350
2C9
  3
INSUNITS
350
2CF
  3
LAYOUTDICT
350
2CB
  3
LWETCUNION
350
2CE
  3
PLOTSETDICT
350
2CC
  3
PLOTSTYLNAMDICT
350
2CD
  3
PSVPSCALE
350
2D3
  3
PUCSBASE
350
2D7
  3
PUCSORGBACK
350
2DD
  3
PUCSORGBOTTOM
350
2D9
  3
PUCSORGFRONT
350
2DC
  3
PUCSORGLEFT
350
2DA
  3
PUCSORGRIGHT
350
2DB
  3
PUCSORGTOP
350
2D8
  3
PUCSORTHOREF
350
2D5
  3
PUCSORTHOVIEW
350
2D6
  3
STYLESHEET
350
2CA
  3
TSTACKALIGN
350
2C7
  3
TSTACKSIZE
350
2C8
  3
UCSBASE
350
2E0
  3
UCSORGBACK
350
2E6
  3
UCSORGBOTTOM
350
2E2
  3
UCSORGFRONT
350
2E5
  3
UCSORGLEFT
350
2E3
  3
UCSORGRIGHT
350
2E4
  3
UCSORGTOP
350
2E1
  3
UCSORTHOREF
350
2DE
  3
UCSORTHOVIEW
350
2DF
  3
VERSIONGUID
350
2D2
  0
XRECORD
  5
2C3
102
{ACAD_REACTORS
330
2C2
102
}
100
AcDbXrecord
102
EXTNAMES
  1
DEFPOINTS
  2
Defpoints
102
PLOTBIT
280
     0
  0
XRECORD
  5
2EA
102
{ACAD_REACTORS
330
2E9
102
}
100
AcDbXrecord
102
ACADR14ROUNDTRIP
1000
DSTYLE
1002
{
1070
   341
340
158
1070
   342
340
158
1002
}
  0
XRECORD
  5
2E8
102
{ACAD_REACTORS
330
28E
102
}
100
AcDbXrecord
340
18
  0
XRECORD
  5
2E7
102
{ACAD_REACTORS
330
28C
102
}
100
AcDbXrecord
340
15
  0
XRECORD
  5
2C1
102
{ACAD_REACTORS
330
2C0
102
}
100
AcDbXrecord
102
EXTNAMES
  1
_OPEN30
  2
_Open30
  0
GROUP
  5
17E
102
{ACAD_REACTORS
330
D
102
}
100
AcDbGroup
300

 70
     1
 71
     1
  0
GROUP
  5
1AD
102
{ACAD_REACTORS
330
D
102
}
100
AcDbGroup
300

 70
     1
 71
     1
340
1A4
340
1A6
340
1AC
340
1A3
340
1A7
340
1A5
340
1AB
340
1A9
340
1AA
  0
DICTIONARY
  5
2EB
100
AcDbDictionary
280
     1
  3
ACAD_XREC_ROUNDTRIP
360
2EC
  0
ACAD_PROXY_OBJECT
  5
153
102
{ACAD_REACTORS
330
151
102
}
100
AcDbProxyObject
 90
      499
 91
      502
 93
      548
310
90E4550534F4E20504D2D32303030432C01AAAAAAAAA5A69054D6F64656C901A800000000000000000000000000000000000000000000A1000000000000008902A6A6AAAA0
330
18
330
0
340
0
340
0
 94
        0
  0
ACAD_PROXY_OBJECT
  5
154
102
{ACAD_REACTORS
330
151
102
}
100
AcDbProxyObject
 90
      499
 91
      502
 93
      964
310
90E4550534F4E20504D2D32303030432C00AAAAAA416AA59106906DAB2B1B3C43140501A800000000000000000000000000000000000000000000A1000000000000008902A6A6A10232D5E076BC5510408CB5781DAF154410232D5E076BC5510408CB5781DAF15C410232D5E076BC5710408CB5781DAF15C40
330
15
330
0
340
0
340
0
 94
        0
  0
MLINESTYLE
  5
1C
102
{ACAD_REACTORS
330
1B
102
}
100
AcDbMlineStyle
  2
STANDARD
 70
     0
  3

 62
   256
 51
90.0
 52
90.0
 71
     2
 49
0.5
 62
   256
  6
BYLAYER
 49
-0.5
 62
   256
  6
BYLAYER
  0
ACAD_PROXY_OBJECT
  5
150
102
{ACAD_REACTORS
330
14F
102
}
100
AcDbProxyObject
 90
      499
 91
      501
 93
        0
 94
        0
  0
XRECORD
  5
2D0
102
{ACAD_REACTORS
330
2C6
102
}
100
AcDbXrecord
 90
        0
  0
XRECORD
  5
2D4
102
{ACAD_REACTORS
330
2C6
102
}
100
AcDbXrecord
1000
DSTYLE
1002
{
1070
   341
340
158
1070
   342
340
158
1002
}
  0
XRECORD
  5
2D1
102
{ACAD_REACTORS
330
2C6
102
}
100
AcDbXrecord
  1
{B72351DA-6454-4CEF-B3B9-214A17C6554E}
  0
XRECORD
  5
2C9
102
{ACAD_REACTORS
330
2C6
102
}
100
AcDbXrecord
  1

  0
XRECORD
  5
2CF
102
{ACAD_REACTORS
330
2C6
102
}
100
AcDbXrecord
 90
        0
  0
XRECORD
  5
2CB
102
{ACAD_REACTORS
330
2C6
102
}
100
AcDbXrecord
340
151
  0
XRECORD
  5
2CE
102
{ACAD_REACTORS
330
2C6
102
}
100
AcDbXrecord
 90
    14877
  0
XRECORD
  5
2CC
102
{ACAD_REACTORS
330
2C6
102
}
100
AcDbXrecord
340
152
  0
XRECORD
  5
2CD
102
{ACAD_REACTORS
330
2C6
102
}
100
AcDbXrecord
340
14F
  0
XRECORD
  5
2D3
102
{ACAD_REACTORS
330
2C6
102
}
100
AcDbXrecord
 40
0.0
  0
XRECORD
  5
2D7
102
{ACAD_REACTORS
330
2C6
102
}
100
AcDbXrecord
340
0
  0
XRECORD
  5
2DD
102
{ACAD_REACTORS
330
2C6
102
}
100
AcDbXrecord
 10
0.0
 20
0.0
 30
0.0
  0
XRECORD
  5
2D9
102
{ACAD_REACTORS
330
2C6
102
}
100
AcDbXrecord
 10
0.0
 20
0.0
 30
0.0
  0
XRECORD
  5
2DC
102
{ACAD_REACTORS
330
2C6
102
}
100
AcDbXrecord
 10
0.0
 20
0.0
 30
0.0
  0
XRECORD
  5
2DA
102
{ACAD_REACTORS
330
2C6
102
}
100
AcDbXrecord
 10
0.0
 20
0.0
 30
0.0
  0
XRECORD
  5
2DB
102
{ACAD_REACTORS
330
2C6
102
}
100
AcDbXrecord
 10
0.0
 20
0.0
 30
0.0
  0
XRECORD
  5
2D8
102
{ACAD_REACTORS
330
2C6
102
}
100
AcDbXrecord
 10
0.0
 20
0.0
 30
0.0
  0
XRECORD
  5
2D5
102
{ACAD_REACTORS
330
2C6
102
}
100
AcDbXrecord
340
0
  0
XRECORD
  5
2D6
102
{ACAD_REACTORS
330
2C6
102
}
100
AcDbXrecord
 70
     0
  0
XRECORD
  5
2CA
102
{ACAD_REACTORS
330
2C6
102
}
100
AcDbXrecord
  1

  0
XRECORD
  5
2C7
102
{ACAD_REACTORS
330
2C6
102
}
100
AcDbXrecord
 90
        1
  0
XRECORD
  5
2C8
102
{ACAD_REACTORS
330
2C6
102
}
100
AcDbXrecord
 90
       70
  0
XRECORD
  5
2E0
102
{ACAD_REACTORS
330
2C6
102
}
100
AcDbXrecord
340
0
  0
XRECORD
  5
2E6
102
{ACAD_REACTORS
330
2C6
102
}
100
AcDbXrecord
 10
0.0
 20
0.0
 30
0.0
  0
XRECORD
  5
2E2
102
{ACAD_REACTORS
330
2C6
102
}
100
AcDbXrecord
 10
0.0
 20
0.0
 30
0.0
  0
XRECORD
  5
2E5
102
{ACAD_REACTORS
330
2C6
102
}
100
AcDbXrecord
 10
0.0
 20
0.0
 30
0.0
  0
XRECORD
  5
2E3
102
{ACAD_REACTORS
330
2C6
102
}
100
AcDbXrecord
 10
0.0
 20
0.0
 30
0.0
  0
XRECORD
  5
2E4
102
{ACAD_REACTORS
330
2C6
102
}
100
AcDbXrecord
 10
0.0
 20
0.0
 30
0.0
  0
XRECORD
  5
2E1
102
{ACAD_REACTORS
330
2C6
102
}
100
AcDbXrecord
 10
0.0
 20
0.0
 30
0.0
  0
XRECORD
  5
2DE
102
{ACAD_REACTORS
330
2C6
102
}
100
AcDbXrecord
340
0
  0
XRECORD
  5
2DF
102
{ACAD_REACTORS
330
2C6
102
}
100
AcDbXrecord
 70
     0
  0
XRECORD
  5
2D2
102
{ACAD_REACTORS
330
2C6
102
}
100
AcDbXrecord
  1
{1EEC9F5D-3ABD-4466-9F55-6C5EBA4D35A1}
  0
XRECORD
  5
2EC
102
{ACAD_REACTORS
330
2EB
102
}
100
AcDbXrecord
102
EXTNAMES
  1
MODEL
  2
Model
  0
ENDSEC
  0
EOF
