  0
SECTION
  2
HEADER
  9
$ACADVER
  1
AC1014
  9
$ACADMAINTVER
 70
     0
  9
$DWGCODEPAGE
  3
ANSI_932
  9
$INSBASE
 10
0.0
 20
0.0
 30
0.0
  9
$EXTMIN
 10
-70.177474
 20
-77.176063
 30
0.0
  9
$EXTMAX
 10
121.132145
 20
33.409581
 30
0.0
  9
$LIMMIN
 10
-96.888991
 20
-91.191887
  9
$LIMMAX
 10
146.476093
 20
51.704137
  9
$ORTHOMODE
 70
     1
  9
$REGENMODE
 70
     1
  9
$FILLMODE
 70
     1
  9
$QTEXTMODE
 70
     0
  9
$MIRRTEXT
 70
     1
  9
$DRAGMODE
 70
     2
  9
$LTSCALE
 40
1.0
  9
$OSMODE
 70
    33
  9
$ATTMODE
 70
     1
  9
$TEXTSIZE
 40
0.2
  9
$TRACEWID
 40
0.05
  9
$TEXTSTYLE
  7
STANDARD
  9
$CLAYER
  8
寸法
  9
$CELTYPE
  6
CONTINUOUS
  9
$CECOLOR
 62
   256
  9
$CELTSCALE
 40
1.0
  9
$DELOBJ
 70
     1
  9
$DISPSILH
 70
     0
  9
$DIMSCALE
 40
1.0
  9
$DIMASZ
 40
2.0
  9
$DIMEXO
 40
1.0
  9
$DIMDLI
 40
10.0
  9
$DIMRND
 40
0.0
  9
$DIMDLE
 40
0.0
  9
$DIMEXE
 40
1.0
  9
$DIMTP
 40
0.0
  9
$DIMTM
 40
0.0
  9
$DIMTXT
 40
3.0
  9
$DIMCEN
 40
2.0
  9
$DIMTSZ
 40
0.0
  9
$DIMTOL
 70
     0
  9
$DIMLIM
 70
     0
  9
$DIMTIH
 70
     0
  9
$DIMTOH
 70
     0
  9
$DIMSE1
 70
     0
  9
$DIMSE2
 70
     0
  9
$DIMTAD
 70
     1
  9
$DIMZIN
 70
     8
  9
$DIMBLK
  1
OPEN30
  9
$DIMASO
 70
     1
  9
$DIMSHO
 70
     1
  9
$DIMPOST
  1

  9
$DIMAPOST
  1

  9
$DIMALT
 70
     0
  9
$DIMALTD
 70
     2
  9
$DIMALTF
 40
25.4
  9
$DIMLFAC
 40
1.0
  9
$DIMTOFL
 70
     1
  9
$DIMTVP
 40
0.0
  9
$DIMTIX
 70
     0
  9
$DIMSOXD
 70
     0
  9
$DIMSAH
 70
     0
  9
$DIMBLK1
  1

  9
$DIMBLK2
  1

  9
$DIMSTYLE
  2
STANDARD
  9
$DIMCLRD
 70
     1
  9
$DIMCLRE
 70
     1
  9
$DIMCLRT
 70
     1
  9
$DIMTFAC
 40
1.0
  9
$DIMGAP
 40
1.0
  9
$DIMJUST
 70
     0
  9
$DIMSD1
 70
     0
  9
$DIMSD2
 70
     0
  9
$DIMTOLJ
 70
     1
  9
$DIMTZIN
 70
     0
  9
$DIMALTZ
 70
     0
  9
$DIMALTTZ
 70
     0
  9
$DIMFIT
 70
     3
  9
$DIMUPT
 70
     0
  9
$DIMUNIT
 70
     2
  9
$DIMDEC
 70
     2
  9
$DIMTDEC
 70
     2
  9
$DIMALTU
 70
     2
  9
$DIMALTTD
 70
     2
  9
$DIMTXSTY
  7
STANDARD
  9
$DIMAUNIT
 70
     0
  9
$LUNITS
 70
     2
  9
$LUPREC
 70
     4
  9
$SKETCHINC
 40
0.1
  9
$FILLETRAD
 40
0.0
  9
$AUNITS
 70
     0
  9
$AUPREC
 70
     0
  9
$MENU
  1
acad
  9
$ELEVATION
 40
0.0
  9
$PELEVATION
 40
0.0
  9
$THICKNESS
 40
0.0
  9
$LIMCHECK
 70
     0
  9
$BLIPMODE
 70
     0
  9
$CHAMFERA
 40
0.0
  9
$CHAMFERB
 40
0.0
  9
$CHAMFERC
 40
0.0
  9
$CHAMFERD
 40
0.0
  9
$SKPOLY
 70
     0
  9
$TDCREATE
 40
2444972.375000000
  9
$TDUPDATE
 40
2451977.429166666
  9
$TDINDWG
 40
0.0123361111
  9
$TDUSRTIMER
 40
0.0123361111
  9
$USRTIMER
 70
     1
  9
$ANGBASE
 50
0.0
  9
$ANGDIR
 70
     0
  9
$PDMODE
 70
     0
  9
$PDSIZE
 40
0.0
  9
$PLINEWID
 40
0.0
  9
$COORDS
 70
     1
  9
$SPLFRAME
 70
     0
  9
$SPLINETYPE
 70
     6
  9
$SPLINESEGS
 70
     8
  9
$ATTDIA
 70
     0
  9
$ATTREQ
 70
     1
  9
$HANDLING
 70
     1
  9
$HANDSEED
  5
2CA
  9
$SURFTAB1
 70
     6
  9
$SURFTAB2
 70
     6
  9
$SURFTYPE
 70
     6
  9
$SURFU
 70
     6
  9
$SURFV
 70
     6
  9
$UCSNAME
  2

  9
$UCSORG
 10
0.0
 20
0.0
 30
0.0
  9
$UCSXDIR
 10
1.0
 20
0.0
 30
0.0
  9
$UCSYDIR
 10
0.0
 20
1.0
 30
0.0
  9
$PUCSNAME
  2

  9
$PUCSORG
 10
0.0
 20
0.0
 30
0.0
  9
$PUCSXDIR
 10
1.0
 20
0.0
 30
0.0
  9
$PUCSYDIR
 10
0.0
 20
1.0
 30
0.0
  9
$USERI1
 70
     0
  9
$USERI2
 70
     0
  9
$USERI3
 70
     0
  9
$USERI4
 70
     0
  9
$USERI5
 70
     0
  9
$USERR1
 40
0.0
  9
$USERR2
 40
0.0
  9
$USERR3
 40
0.0
  9
$USERR4
 40
0.0
  9
$USERR5
 40
0.0
  9
$WORLDVIEW
 70
     1
  9
$SHADEDGE
 70
     3
  9
$SHADEDIF
 70
    70
  9
$TILEMODE
 70
     1
  9
$MAXACTVP
 70
    48
  9
$PINSBASE
 10
0.0
 20
0.0
 30
0.0
  9
$PLIMCHECK
 70
     0
  9
$PEXTMIN
 10
1.000000E+20
 20
1.000000E+20
 30
1.000000E+20
  9
$PEXTMAX
 10
-1.000000E+20
 20
-1.000000E+20
 30
-1.000000E+20
  9
$PLIMMIN
 10
0.0
 20
0.0
  9
$PLIMMAX
 10
12.0
 20
9.0
  9
$UNITMODE
 70
     0
  9
$VISRETAIN
 70
     1
  9
$PLINEGEN
 70
     0
  9
$PSLTSCALE
 70
     1
  9
$TREEDEPTH
 70
  3020
  9
$PICKSTYLE
 70
     1
  9
$CMLSTYLE
  2
STANDARD
  9
$CMLJUST
 70
     0
  9
$CMLSCALE
 40
1.0
  9
$PROXYGRAPHICS
 70
     1
  9
$MEASUREMENT
 70
     0
  0
ENDSEC
  0
SECTION
  2
CLASSES
  0
CLASS
  1
ACDBDICTIONARYWDFLT
  2
AcDbDictionaryWithDefault
  3
AutoCAD 2000
 90
        0
280
     0
281
     0
  0
CLASS
  1
ACDBPLACEHOLDER
  2
AcDbPlaceHolder
  3
AutoCAD 2000
 90
        0
280
     0
281
     0
  0
CLASS
  1
LAYOUT
  2
AcDbLayout
  3
AutoCAD 2000
 90
        0
280
     0
281
     0
  0
CLASS
  1
LONG_TRANSACTION
  2
AcDbLongTransaction
  3
AutoCAD 2000
 90
        0
280
     0
281
     0
  0
CLASS
  1
LWPOLYLINE
  2
AcDbPolyline
  3
"AutoCAD"
 90
        0
280
     0
281
     1
  0
CLASS
  1
HATCH
  2
AcDbHatch
  3
"ACAD_SEDONA"
 90
        0
280
     0
281
     1
  0
CLASS
  1
XRECORD
  2
AcDbXrecord
  3
"<Built In>"
 90
        0
280
     0
281
     0
  0
CLASS
  1
LONG_TRANSACTION
  2
AcDbLongTransaction
  3
AutoCAD 2000
 90
        0
280
     0
281
     0
  0
CLASS
  1
LWPOLYLINE
  2
AcDbPolyline
  3
"AutoCAD"
 90
        0
280
     0
281
     1
  0
CLASS
  1
HATCH
  2
AcDbHatch
  3
"ACAD_SEDONA"
 90
        0
280
     0
281
     1
  0
CLASS
  1
XRECORD
  2
AcDbXrecord
  3
"<Built In>"
 90
        0
280
     0
281
     0
  0
ENDSEC
  0
SECTION
  2
TABLES
  0
TABLE
  2
VPORT
  5
8
100
AcDbSymbolTable
 70
     2
  0
VPORT
  5
2C9
100
AcDbSymbolTableRecord
100
AcDbViewportTableRecord
  2
*ACTIVE
 70
     0
 10
0.0
 20
0.0
 11
1.0
 21
1.0
 12
37.130436
 22
-31.268103
 13
0.0
 23
0.0
 14
10.0
 24
10.0
 15
10.0
 25
10.0
 16
0.0
 26
0.0
 36
1.0
 17
0.0
 27
0.0
 37
0.0
 40
166.897048
 41
1.710425
 42
50.0
 43
0.0
 44
0.0
 50
0.0
 51
0.0
 71
     0
 72
   100
 73
     1
 74
     1
 75
     0
 76
     0
 77
     0
 78
     0
  0
ENDTAB
  0
TABLE
  2
LTYPE
  5
5
100
AcDbSymbolTable
 70
     5
  0
LTYPE
  5
12
100
AcDbSymbolTableRecord
100
AcDbLinetypeTableRecord
  2
BYBLOCK
 70
     0
  3

 72
    65
 73
     0
 40
0.0
  0
LTYPE
  5
13
100
AcDbSymbolTableRecord
100
AcDbLinetypeTableRecord
  2
BYLAYER
 70
     0
  3

 72
    65
 73
     0
 40
0.0
  0
LTYPE
  5
14
100
AcDbSymbolTableRecord
100
AcDbLinetypeTableRecord
  2
CONTINUOUS
 70
     0
  3
Solid line
 72
    65
 73
     0
 40
0.0
  0
LTYPE
  5
1F
100
AcDbSymbolTableRecord
100
AcDbLinetypeTableRecord
  2
DASHED
 70
     0
  3
__ __ __ __ __ __ __ __ __ __ __ __ __ __ __
 72
    65
 73
     2
 40
3.5
 49
2.0
 74
     0
 49
-1.5
 74
     0
  0
LTYPE
  5
20
100
AcDbSymbolTableRecord
100
AcDbLinetypeTableRecord
  2
CENTER
 70
     0
  3
____ _ ____ _ ____ _ ____ _ ____ _ ____ _ ____
 72
    65
 73
     4
 40
17.5
 49
13.0
 74
     0
 49
-1.5
 74
     0
 49
1.5
 74
     0
 49
-1.5
 74
     0
  0
LTYPE
  5
21
100
AcDbSymbolTableRecord
100
AcDbLinetypeTableRecord
  2
PHANTOM
 70
     0
  3
_____ _ _ _____ _ _ _____ _ _ _____ _ _ ____  
 72
    65
 73
     6
 40
15.5
 49
8.0
 74
     0
 49
-1.5
 74
     0
 49
1.5
 74
     0
 49
-1.5
 74
     0
 49
1.5
 74
     0
 49
-1.5
 74
     0
  0
LTYPE
  5
22
100
AcDbSymbolTableRecord
100
AcDbLinetypeTableRecord
  2
DOT
 70
     0
  3
. . . . . . . . . . . . . . . . . . . . . . . .
 72
    65
 73
     2
 40
0.25
 49
0.0
 74
     0
 49
-0.25
 74
     0
  0
ENDTAB
  0
TABLE
  2
LAYER
  5
2
100
AcDbSymbolTable
 70
     3
  0
LAYER
  5
E
100
AcDbSymbolTableRecord
100
AcDbLayerTableRecord
  2
0
 70
     0
 62
     7
  6
CONTINUOUS
  0
LAYER
  5
E3
100
AcDbSymbolTableRecord
100
AcDbLayerTableRecord
  2
寸法
 70
     0
 62
     1
  6
CONTINUOUS
  0
LAYER
  5
ED
102
{ACAD_XDICTIONARY
360
267
102
}
100
AcDbSymbolTableRecord
100
AcDbLayerTableRecord
  2
DEFPOINTS
 70
     0
 62
     7
  6
CONTINUOUS
  0
ENDTAB
  0
TABLE
  2
STYLE
  5
3
100
AcDbSymbolTable
 70
     1
  0
STYLE
  5
F
100
AcDbSymbolTableRecord
100
AcDbTextStyleTableRecord
  2
STANDARD
 70
     0
 40
0.0
 41
1.0
 50
0.0
 71
     0
 42
0.2
  3
txt
  4
BIGFONT
  0
ENDTAB
  0
TABLE
  2
VIEW
  5
6
100
AcDbSymbolTable
 70
     0
  0
ENDTAB
  0
TABLE
  2
UCS
  5
7
100
AcDbSymbolTable
 70
     0
  0
ENDTAB
  0
TABLE
  2
APPID
  5
9
100
AcDbSymbolTable
 70
     1
  0
APPID
  5
10
100
AcDbSymbolTableRecord
100
AcDbRegAppTableRecord
  2
ACAD
 70
     0
  0
ENDTAB
  0
TABLE
  2
DIMSTYLE
  5
A
100
AcDbSymbolTable
 70
     1
  0
DIMSTYLE
105
D5
102
{ACAD_XDICTIONARY
360
28E
102
}
102
{ACAD_REACTORS
330
10B
330
127
330
134
330
143
330
150
330
15D
330
194
330
1A1
330
1AE
330
1C8
330
1D9
330
1EA
102
}
100
AcDbSymbolTableRecord
100
AcDbDimStyleTableRecord
  2
STANDARD
 70
     0
  3

  4

  5
OPEN30
  6

  7

 40
1.0
 41
2.0
 42
1.0
 43
10.0
 44
1.0
 45
0.0
 46
0.0
 47
0.0
 48
0.0
140
3.0
141
2.0
142
0.0
143
25.4
144
1.0
145
0.0
146
1.0
147
1.0
 71
     0
 72
     0
 73
     0
 74
     0
 75
     0
 76
     0
 77
     1
 78
     8
170
     0
171
     2
172
     1
173
     0
174
     0
175
     0
176
     1
177
     1
178
     1
270
     2
271
     2
272
     2
273
     2
274
     2
340
F
275
     0
280
     0
281
     0
282
     0
283
     1
284
     0
285
     0
286
     0
287
     3
288
     0
  0
ENDTAB
  0
TABLE
  2
BLOCK_RECORD
  5
1
100
AcDbSymbolTable
 70
    13
  0
BLOCK_RECORD
  5
18
102
{ACAD_XDICTIONARY
360
22C
102
}
100
AcDbSymbolTableRecord
100
AcDbBlockTableRecord
  2
*MODEL_SPACE
  0
BLOCK_RECORD
  5
15
102
{ACAD_XDICTIONARY
360
22A
102
}
100
AcDbSymbolTableRecord
100
AcDbBlockTableRecord
  2
*PAPER_SPACE
  0
BLOCK_RECORD
  5
E4
102
{ACAD_XDICTIONARY
360
265
102
}
100
AcDbSymbolTableRecord
100
AcDbBlockTableRecord
  2
_OPEN30
  0
BLOCK_RECORD
  5
10C
100
AcDbSymbolTableRecord
100
AcDbBlockTableRecord
  2
*D1
  0
BLOCK_RECORD
  5
128
100
AcDbSymbolTableRecord
100
AcDbBlockTableRecord
  2
*D2
  0
BLOCK_RECORD
  5
135
100
AcDbSymbolTableRecord
100
AcDbBlockTableRecord
  2
*D3
  0
BLOCK_RECORD
  5
144
100
AcDbSymbolTableRecord
100
AcDbBlockTableRecord
  2
*D4
  0
BLOCK_RECORD
  5
151
100
AcDbSymbolTableRecord
100
AcDbBlockTableRecord
  2
*D5
  0
BLOCK_RECORD
  5
15E
100
AcDbSymbolTableRecord
100
AcDbBlockTableRecord
  2
*D6
  0
BLOCK_RECORD
  5
195
100
AcDbSymbolTableRecord
100
AcDbBlockTableRecord
  2
*D7
  0
BLOCK_RECORD
  5
1A2
100
AcDbSymbolTableRecord
100
AcDbBlockTableRecord
  2
*D8
  0
BLOCK_RECORD
  5
1AF
100
AcDbSymbolTableRecord
100
AcDbBlockTableRecord
  2
*D9
  0
BLOCK_RECORD
  5
1C9
100
AcDbSymbolTableRecord
100
AcDbBlockTableRecord
  2
*D10
  0
BLOCK_RECORD
  5
1DA
100
AcDbSymbolTableRecord
100
AcDbBlockTableRecord
  2
*D11
  0
BLOCK_RECORD
  5
1EB
100
AcDbSymbolTableRecord
100
AcDbBlockTableRecord
  2
*D12
  0
ENDTAB
  0
ENDSEC
  0
SECTION
  2
BLOCKS
  0
BLOCK
  5
19
100
AcDbEntity
  8
0
100
AcDbBlockBegin
  2
*MODEL_SPACE
 70
     0
 10
0.0
 20
0.0
 30
0.0
  3
*MODEL_SPACE
  1

  0
ENDBLK
  5
1A
100
AcDbEntity
  8
0
100
AcDbBlockEnd
  0
BLOCK
  5
16
100
AcDbEntity
 67
     1
  8
0
100
AcDbBlockBegin
  2
*PAPER_SPACE
 70
     0
 10
0.0
 20
0.0
 30
0.0
  3
*PAPER_SPACE
  1

  0
ENDBLK
  5
17
100
AcDbEntity
 67
     1
  8
0
100
AcDbBlockEnd
  0
BLOCK
  5
E8
100
AcDbEntity
  8
0
100
AcDbBlockBegin
  2
_OPEN30
 70
     0
 10
0.0
 20
0.0
 30
0.0
  3
_OPEN30
  1

  0
LINE
  5
E5
100
AcDbEntity
  8
0
  6
BYBLOCK
 62
     0
100
AcDbLine
 10
-1.0
 20
0.267949
 30
0.0
 11
0.0
 21
0.0
 31
0.0
1001
ACAD
1000
RTLwPs
1070
   158
  0
LINE
  5
E6
100
AcDbEntity
  8
0
  6
BYBLOCK
 62
     0
100
AcDbLine
 10
0.0
 20
0.0
 30
0.0
 11
-1.0
 21
-0.267949
 31
0.0
1001
ACAD
1000
RTLwPs
1070
   158
  0
LINE
  5
E7
100
AcDbEntity
  8
0
  6
BYBLOCK
 62
     0
100
AcDbLine
 10
0.0
 20
0.0
 30
0.0
 11
-1.0
 21
0.0
 31
0.0
1001
ACAD
1000
RTLwPs
1070
   158
  0
ENDBLK
  5
E9
100
AcDbEntity
  8
0
100
AcDbBlockEnd
  0
BLOCK
  5
118
100
AcDbEntity
  8
0
100
AcDbBlockBegin
  2
*D1
 70
     1
 10
0.0
 20
0.0
 30
0.0
  3
*D1
  1

  0
LINE
  5
10D
100
AcDbEntity
  8
寸法
  6
CONTINUOUS
 62
     1
100
AcDbLine
 10
104.35245
 20
-37.961083
 30
0.0
 11
111.0
 21
-37.961083
 31
0.0
1001
ACAD
1000
RTLwPs
1070
   158
  0
LINE
  5
10E
100
AcDbEntity
  8
寸法
  6
CONTINUOUS
 62
     1
100
AcDbLine
 10
103.276254
 20
-43.941082
 30
0.0
 11
111.0
 21
-43.941082
 31
0.0
1001
ACAD
1000
RTLwPs
1070
   158
  0
LINE
  5
10F
100
AcDbEntity
  8
寸法
  6
CONTINUOUS
 62
     1
100
AcDbLine
 10
110.0
 20
-35.961083
 30
0.0
 11
110.0
 21
-33.961083
 31
0.0
1001
ACAD
1000
RTLwPs
1070
   158
  0
LINE
  5
110
100
AcDbEntity
  8
寸法
  6
CONTINUOUS
 62
     1
100
AcDbLine
 10
110.0
 20
-45.941082
 30
0.0
 11
110.0
 21
-58.941082
 31
0.0
1001
ACAD
1000
RTLwPs
1070
   158
  0
LINE
  5
111
100
AcDbEntity
  8
寸法
  6
CONTINUOUS
 62
     1
100
AcDbLine
 10
110.0
 20
-37.961083
 30
0.0
 11
110.0
 21
-43.941082
 31
0.0
1001
ACAD
1000
RTLwPs
1070
   158
  0
INSERT
  5
112
100
AcDbEntity
  8
寸法
  6
CONTINUOUS
 62
     1
100
AcDbBlockReference
  2
_OPEN30
 10
110.0
 20
-37.961083
 30
0.0
 41
2.0
 42
2.0
 43
2.0
 50
270.0
1001
ACAD
1000
RTLwPs
1070
   158
  0
INSERT
  5
113
100
AcDbEntity
  8
寸法
  6
CONTINUOUS
 62
     1
100
AcDbBlockReference
  2
_OPEN30
 10
110.0
 20
-43.941082
 30
0.0
 41
2.0
 42
2.0
 43
2.0
 50
90.0
1001
ACAD
1000
RTLwPs
1070
   158
  0
MTEXT
  5
114
100
AcDbEntity
  8
寸法
  6
CONTINUOUS
 62
     1
100
AcDbMText
 10
107.5
 20
-53.441082
 30
0.0
 40
3.0
 41
0.0
 71
     5
 72
     1
  1
\A1;5.98
 11
0.0
 21
1.0
 31
0.0
1001
ACAD
1000
MTEXTBEGIN
1070
    73
1070
     1
1070
    44
1040
1.0
1070
    74
1070
     0
1000
MTEXTEND
1000
MTEXTBEGIN
1070
    73
1070
     1
1070
    44
1040
1.0
1070
    74
1070
     0
1000
MTEXTEND
  0
POINT
  5
115
100
AcDbEntity
  8
DEFPOINTS
  6
CONTINUOUS
 62
     0
100
AcDbPoint
 10
103.35245
 20
-37.961083
 30
0.0
  0
POINT
  5
116
100
AcDbEntity
  8
DEFPOINTS
  6
CONTINUOUS
 62
     0
100
AcDbPoint
 10
102.276254
 20
-43.941082
 30
0.0
  0
POINT
  5
117
100
AcDbEntity
  8
DEFPOINTS
  6
CONTINUOUS
 62
     0
100
AcDbPoint
 10
110.0
 20
-43.941082
 30
0.0
  0
ENDBLK
  5
119
100
AcDbEntity
  8
0
100
AcDbBlockEnd
  0
BLOCK
  5
132
100
AcDbEntity
  8
0
100
AcDbBlockBegin
  2
*D2
 70
     1
 10
0.0
 20
0.0
 30
0.0
  3
*D2
  1

  0
LINE
  5
129
100
AcDbEntity
  8
寸法
  6
CONTINUOUS
 62
     1
100
AcDbLine
 10
2.008521
 20
-32.008492
 30
0.0
 11
-11.0
 21
-32.008492
 31
0.0
1001
ACAD
1000
RTLwPs
1070
   158
  0
LINE
  5
12A
100
AcDbEntity
  8
寸法
  6
CONTINUOUS
 62
     1
100
AcDbLine
 10
3.269772
 20
-44.008492
 30
0.0
 11
-11.0
 21
-44.008492
 31
0.0
1001
ACAD
1000
RTLwPs
1070
   158
  0
LINE
  5
12B
100
AcDbEntity
  8
寸法
  6
CONTINUOUS
 62
     1
100
AcDbLine
 10
-10.0
 20
-34.008492
 30
0.0
 11
-10.0
 21
-42.008492
 31
0.0
1001
ACAD
1000
RTLwPs
1070
   158
  0
INSERT
  5
12C
100
AcDbEntity
  8
寸法
  6
CONTINUOUS
 62
     1
100
AcDbBlockReference
  2
_OPEN30
 10
-10.0
 20
-32.008492
 30
0.0
 41
2.0
 42
2.0
 43
2.0
 50
90.0
1001
ACAD
1000
RTLwPs
1070
   158
  0
INSERT
  5
12D
100
AcDbEntity
  8
寸法
  6
CONTINUOUS
 62
     1
100
AcDbBlockReference
  2
_OPEN30
 10
-10.0
 20
-44.008492
 30
0.0
 41
2.0
 42
2.0
 43
2.0
 50
270.0
1001
ACAD
1000
RTLwPs
1070
   158
  0
MTEXT
  5
12E
100
AcDbEntity
  8
寸法
  6
CONTINUOUS
 62
     1
100
AcDbMText
 10
-12.5
 20
-38.008492
 30
0.0
 40
3.0
 41
0.0
 71
     5
 72
     1
  1
\A1;12
 11
0.0
 21
1.0
 31
0.0
1001
ACAD
1000
MTEXTBEGIN
1070
    73
1070
     1
1070
    44
1040
1.0
1070
    74
1070
     0
1000
MTEXTEND
1000
MTEXTBEGIN
1070
    73
1070
     1
1070
    44
1040
1.0
1070
    74
1070
     0
1000
MTEXTEND
  0
POINT
  5
12F
100
AcDbEntity
  8
DEFPOINTS
  6
CONTINUOUS
 62
     0
100
AcDbPoint
 10
3.008521
 20
-32.008492
 30
0.0
  0
POINT
  5
130
100
AcDbEntity
  8
DEFPOINTS
  6
CONTINUOUS
 62
     0
100
AcDbPoint
 10
4.269772
 20
-44.008492
 30
0.0
  0
POINT
  5
131
100
AcDbEntity
  8
DEFPOINTS
  6
CONTINUOUS
 62
     0
100
AcDbPoint
 10
-10.0
 20
-44.008492
 30
0.0
  0
ENDBLK
  5
133
100
AcDbEntity
  8
0
100
AcDbBlockEnd
  0
BLOCK
  5
141
100
AcDbEntity
  8
0
100
AcDbBlockBegin
  2
*D3
 70
     1
 10
0.0
 20
0.0
 30
0.0
  3
*D3
  1

  0
LINE
  5
136
100
AcDbEntity
  8
寸法
  6
CONTINUOUS
 62
     1
100
AcDbLine
 10
36.758521
 20
-50.56847
 30
0.0
 11
36.758521
 21
-61.0
 31
0.0
1001
ACAD
1000
RTLwPs
1070
   158
  0
LINE
  5
137
100
AcDbEntity
  8
寸法
  6
CONTINUOUS
 62
     1
100
AcDbLine
 10
33.258521
 20
-50.56847
 30
0.0
 11
33.258521
 21
-61.0
 31
0.0
1001
ACAD
1000
RTLwPs
1070
   158
  0
LINE
  5
138
100
AcDbEntity
  8
寸法
  6
CONTINUOUS
 62
     1
100
AcDbLine
 10
38.758521
 20
-60.0
 30
0.0
 11
40.758521
 21
-60.0
 31
0.0
1001
ACAD
1000
RTLwPs
1070
   158
  0
LINE
  5
139
100
AcDbEntity
  8
寸法
  6
CONTINUOUS
 62
     1
100
AcDbLine
 10
31.258521
 20
-60.0
 30
0.0
 11
21.258521
 21
-60.0
 31
0.0
1001
ACAD
1000
RTLwPs
1070
   158
  0
LINE
  5
13A
100
AcDbEntity
  8
寸法
  6
CONTINUOUS
 62
     1
100
AcDbLine
 10
36.758521
 20
-60.0
 30
0.0
 11
33.258521
 21
-60.0
 31
0.0
1001
ACAD
1000
RTLwPs
1070
   158
  0
INSERT
  5
13B
100
AcDbEntity
  8
寸法
  6
CONTINUOUS
 62
     1
100
AcDbBlockReference
  2
_OPEN30
 10
36.758521
 20
-60.0
 30
0.0
 41
2.0
 42
2.0
 43
2.0
 50
180.0
1001
ACAD
1000
RTLwPs
1070
   158
  0
INSERT
  5
13C
100
AcDbEntity
  8
寸法
  6
CONTINUOUS
 62
     1
100
AcDbBlockReference
  2
_OPEN30
 10
33.258521
 20
-60.0
 30
0.0
 41
2.0
 42
2.0
 43
2.0
1001
ACAD
1000
RTLwPs
1070
   158
  0
MTEXT
  5
13D
100
AcDbEntity
  8
寸法
  6
CONTINUOUS
 62
     1
100
AcDbMText
 10
25.258521
 20
-57.5
 30
0.0
 40
3.0
 41
0.0
 71
     5
 72
     1
  1
\A1;3.5
1001
ACAD
1000
MTEXTBEGIN
1070
    73
1070
     1
1070
    44
1040
1.0
1070
    74
1070
     0
1000
MTEXTEND
1000
MTEXTBEGIN
1070
    73
1070
     1
1070
    44
1040
1.0
1070
    74
1070
     0
1000
MTEXTEND
  0
POINT
  5
13E
100
AcDbEntity
  8
DEFPOINTS
  6
CONTINUOUS
 62
     0
100
AcDbPoint
 10
36.758521
 20
-49.56847
 30
0.0
  0
POINT
  5
13F
100
AcDbEntity
  8
DEFPOINTS
  6
CONTINUOUS
 62
     0
100
AcDbPoint
 10
33.258521
 20
-49.56847
 30
0.0
  0
POINT
  5
140
100
AcDbEntity
  8
DEFPOINTS
  6
CONTINUOUS
 62
     0
100
AcDbPoint
 10
33.258521
 20
-60.0
 30
0.0
  0
ENDBLK
  5
142
100
AcDbEntity
  8
0
100
AcDbBlockEnd
  0
BLOCK
  5
14E
100
AcDbEntity
  8
0
100
AcDbBlockBegin
  2
*D4
 70
     1
 10
0.0
 20
0.0
 30
0.0
  3
*D4
  1

  0
LINE
  5
145
100
AcDbEntity
  8
寸法
  6
CONTINUOUS
 62
     1
100
AcDbLine
 10
55.008521
 20
-34.508492
 30
0.0
 11
55.008521
 21
-19.0
 31
0.0
1001
ACAD
1000
RTLwPs
1070
   158
  0
LINE
  5
146
100
AcDbEntity
  8
寸法
  6
CONTINUOUS
 62
     1
100
AcDbLine
 10
35.008521
 20
-23.752123
 30
0.0
 11
35.008521
 21
-19.0
 31
0.0
1001
ACAD
1000
RTLwPs
1070
   158
  0
LINE
  5
147
100
AcDbEntity
  8
寸法
  6
CONTINUOUS
 62
     1
100
AcDbLine
 10
53.008521
 20
-20.0
 30
0.0
 11
37.008521
 21
-20.0
 31
0.0
1001
ACAD
1000
RTLwPs
1070
   158
  0
INSERT
  5
148
100
AcDbEntity
  8
寸法
  6
CONTINUOUS
 62
     1
100
AcDbBlockReference
  2
_OPEN30
 10
55.008521
 20
-20.0
 30
0.0
 41
2.0
 42
2.0
 43
2.0
1001
ACAD
1000
RTLwPs
1070
   158
  0
INSERT
  5
149
100
AcDbEntity
  8
寸法
  6
CONTINUOUS
 62
     1
100
AcDbBlockReference
  2
_OPEN30
 10
35.008521
 20
-20.0
 30
0.0
 41
2.0
 42
2.0
 43
2.0
 50
180.0
1001
ACAD
1000
RTLwPs
1070
   158
  0
MTEXT
  5
14A
100
AcDbEntity
  8
寸法
  6
CONTINUOUS
 62
     1
100
AcDbMText
 10
45.008521
 20
-17.5
 30
0.0
 40
3.0
 41
0.0
 71
     5
 72
     1
  1
\A1;20
1001
ACAD
1000
MTEXTBEGIN
1070
    73
1070
     1
1070
    44
1040
1.0
1070
    74
1070
     0
1000
MTEXTEND
1000
MTEXTBEGIN
1070
    73
1070
     1
1070
    44
1040
1.0
1070
    74
1070
     0
1000
MTEXTEND
  0
POINT
  5
14B
100
AcDbEntity
  8
DEFPOINTS
  6
CONTINUOUS
 62
     0
100
AcDbPoint
 10
55.008521
 20
-35.508492
 30
0.0
  0
POINT
  5
14C
100
AcDbEntity
  8
DEFPOINTS
  6
CONTINUOUS
 62
     0
100
AcDbPoint
 10
35.008521
 20
-24.752123
 30
0.0
  0
POINT
  5
14D
100
AcDbEntity
  8
DEFPOINTS
  6
CONTINUOUS
 62
     0
100
AcDbPoint
 10
35.008521
 20
-20.0
 30
0.0
  0
ENDBLK
  5
14F
100
AcDbEntity
  8
0
100
AcDbBlockEnd
  0
BLOCK
  5
15B
100
AcDbEntity
  8
0
100
AcDbBlockBegin
  2
*D5
 70
     1
 10
0.0
 20
0.0
 30
0.0
  3
*D5
  1

  0
LINE
  5
152
100
AcDbEntity
  8
寸法
  6
CONTINUOUS
 62
     1
100
AcDbLine
 10
48.008521
 20
-30.508493
 30
0.0
 11
71.0
 21
-30.508493
 31
0.0
1001
ACAD
1000
RTLwPs
1070
   158
  0
LINE
  5
153
100
AcDbEntity
  8
寸法
  6
CONTINUOUS
 62
     1
100
AcDbLine
 10
48.008521
 20
-44.008492
 30
0.0
 11
71.0
 21
-44.008492
 31
0.0
1001
ACAD
1000
RTLwPs
1070
   158
  0
LINE
  5
154
100
AcDbEntity
  8
寸法
  6
CONTINUOUS
 62
     1
100
AcDbLine
 10
70.0
 20
-32.508493
 30
0.0
 11
70.0
 21
-42.008492
 31
0.0
1001
ACAD
1000
RTLwPs
1070
   158
  0
INSERT
  5
155
100
AcDbEntity
  8
寸法
  6
CONTINUOUS
 62
     1
100
AcDbBlockReference
  2
_OPEN30
 10
70.0
 20
-30.508493
 30
0.0
 41
2.0
 42
2.0
 43
2.0
 50
90.0
1001
ACAD
1000
RTLwPs
1070
   158
  0
INSERT
  5
156
100
AcDbEntity
  8
寸法
  6
CONTINUOUS
 62
     1
100
AcDbBlockReference
  2
_OPEN30
 10
70.0
 20
-44.008492
 30
0.0
 41
2.0
 42
2.0
 43
2.0
 50
270.0
1001
ACAD
1000
RTLwPs
1070
   158
  0
MTEXT
  5
157
100
AcDbEntity
  8
寸法
  6
CONTINUOUS
 62
     1
100
AcDbMText
 10
67.5
 20
-37.258493
 30
0.0
 40
3.0
 41
0.0
 71
     5
 72
     1
  1
\A1;13.5
 11
0.0
 21
1.0
 31
0.0
1001
ACAD
1000
MTEXTBEGIN
1070
    73
1070
     1
1070
    44
1040
1.0
1070
    74
1070
     0
1000
MTEXTEND
1000
MTEXTBEGIN
1070
    73
1070
     1
1070
    44
1040
1.0
1070
    74
1070
     0
1000
MTEXTEND
  0
POINT
  5
158
100
AcDbEntity
  8
DEFPOINTS
  6
CONTINUOUS
 62
     0
100
AcDbPoint
 10
47.008521
 20
-30.508493
 30
0.0
  0
POINT
  5
159
100
AcDbEntity
  8
DEFPOINTS
  6
CONTINUOUS
 62
     0
100
AcDbPoint
 10
47.008521
 20
-44.008492
 30
0.0
  0
POINT
  5
15A
100
AcDbEntity
  8
DEFPOINTS
  6
CONTINUOUS
 62
     0
100
AcDbPoint
 10
70.0
 20
-44.008492
 30
0.0
  0
ENDBLK
  5
15C
100
AcDbEntity
  8
0
100
AcDbBlockEnd
  0
BLOCK
  5
16E
100
AcDbEntity
  8
0
100
AcDbBlockBegin
  2
*D6
 70
     1
 10
0.0
 20
0.0
 30
0.0
  3
*D6
  1

  0
LINE
  5
292
100
AcDbEntity
  8
寸法
  6
CONTINUOUS
 62
     1
100
AcDbLine
 10
13.42574
 20
-30.508493
 30
0.0
 11
-20.991025
 21
-30.508493
 31
0.0
  0
LINE
  5
293
100
AcDbEntity
  8
寸法
  6
CONTINUOUS
 62
     1
100
AcDbLine
 10
2.013999
 20
-31.813018
 30
0.0
 11
-20.797009
 21
-34.21055
 31
0.0
  0
ARC
  5
294
100
AcDbEntity
  8
寸法
  6
CONTINUOUS
 62
     1
100
AcDbCircle
 10
14.42574
 20
-30.508493
 30
0.0
 40
34.416765
100
AcDbArc
 50
173.337192
 51
180.0
  0
LINE
  5
295
100
AcDbEntity
  8
寸法
  6
CONTINUOUS
 62
     1
100
AcDbLine
 10
-19.75858
 20
-26.515253
 30
0.0
 11
-18.760757
 21
-17.973335
 31
0.0
  0
ARC
  5
296
100
AcDbEntity
  8
寸法
  6
CONTINUOUS
 62
     1
100
AcDbCircle
 10
14.42574
 20
-30.508493
 30
0.0
 40
34.416765
100
AcDbArc
 50
173.340008
 51
176.670004
  0
ARC
  5
297
100
AcDbEntity
  8
寸法
  6
CONTINUOUS
 62
     1
100
AcDbCircle
 10
14.42574
 20
-30.508493
 30
0.0
 40
34.416765
100
AcDbArc
 50
189.329991
 51
192.659987
  0
ARC
  5
298
100
AcDbEntity
  8
寸法
  6
CONTINUOUS
 62
     1
100
AcDbCircle
 10
14.42574
 20
-30.508493
 30
0.0
 40
34.416765
100
AcDbArc
 50
180.0
 51
185.999995
  0
INSERT
  5
299
100
AcDbEntity
  8
寸法
  6
CONTINUOUS
 62
     1
100
AcDbBlockReference
  2
_OPEN30
 10
-19.991025
 20
-30.508493
 30
0.0
 41
2.0
 42
2.0
 43
2.0
 50
268.335002
  0
INSERT
  5
29A
100
AcDbEntity
  8
寸法
  6
CONTINUOUS
 62
     1
100
AcDbBlockReference
  2
_OPEN30
 10
-19.802487
 20
-34.106021
 30
0.0
 41
2.0
 42
2.0
 43
2.0
 50
97.664993
  0
MTEXT
  5
29B
100
AcDbEntity
  8
寸法
  6
CONTINUOUS
 62
     1
100
AcDbMText
 10
-16.776553
 20
-22.534359
 30
0.0
 40
3.0
 41
0.0
 71
     5
 72
     1
  1
\A1;6°
 11
-0.116026
 21
-0.993246
 31
0.0
  0
POINT
  5
29C
100
AcDbEntity
  8
DEFPOINTS
  6
CONTINUOUS
 62
     0
100
AcDbPoint
 10
-19.907188
 20
-32.909283
 30
0.0
  0
POINT
  5
29D
100
AcDbEntity
  8
DEFPOINTS
  6
CONTINUOUS
 62
     0
100
AcDbPoint
 10
14.42574
 20
-30.508493
 30
0.0
  0
POINT
  5
29E
100
AcDbEntity
  8
DEFPOINTS
  6
CONTINUOUS
 62
     0
100
AcDbPoint
 10
3.008521
 20
-31.70849
 30
0.0
  0
POINT
  5
29F
100
AcDbEntity
  8
DEFPOINTS
  6
CONTINUOUS
 62
     0
100
AcDbPoint
 10
14.42574
 20
-30.508493
 30
0.0
  0
POINT
  5
2A0
100
AcDbEntity
  8
DEFPOINTS
  6
CONTINUOUS
 62
     0
100
AcDbPoint
 10
47.008521
 20
-30.508493
 30
0.0
  0
ENDBLK
  5
16F
100
AcDbEntity
  8
0
100
AcDbBlockEnd
  0
BLOCK
  5
19F
100
AcDbEntity
  8
0
100
AcDbBlockBegin
  2
*D7
 70
     1
 10
0.0
 20
0.0
 30
0.0
  3
*D7
  1

  0
LINE
  5
196
100
AcDbEntity
  8
寸法
  6
CONTINUOUS
 62
     1
100
AcDbLine
 10
55.008521
 20
19.409581
 30
0.0
 11
55.008521
 21
-1.0
 31
0.0
1001
ACAD
1000
RTLwPs
1070
   158
  0
LINE
  5
197
100
AcDbEntity
  8
寸法
  6
CONTINUOUS
 62
     1
100
AcDbLine
 10
3.008521
 20
13.409581
 30
0.0
 11
3.008521
 21
-1.0
 31
0.0
1001
ACAD
1000
RTLwPs
1070
   158
  0
LINE
  5
198
100
AcDbEntity
  8
寸法
  6
CONTINUOUS
 62
     1
100
AcDbLine
 10
53.008521
 20
0.0
 30
0.0
 11
5.008521
 21
0.0
 31
0.0
1001
ACAD
1000
RTLwPs
1070
   158
  0
INSERT
  5
199
100
AcDbEntity
  8
寸法
  6
CONTINUOUS
 62
     1
100
AcDbBlockReference
  2
_OPEN30
 10
55.008521
 20
0.0
 30
0.0
 41
2.0
 42
2.0
 43
2.0
1001
ACAD
1000
RTLwPs
1070
   158
  0
INSERT
  5
19A
100
AcDbEntity
  8
寸法
  6
CONTINUOUS
 62
     1
100
AcDbBlockReference
  2
_OPEN30
 10
3.008521
 20
0.0
 30
0.0
 41
2.0
 42
2.0
 43
2.0
 50
180.0
1001
ACAD
1000
RTLwPs
1070
   158
  0
MTEXT
  5
19B
100
AcDbEntity
  8
寸法
  6
CONTINUOUS
 62
     1
100
AcDbMText
 10
29.008521
 20
2.5
 30
0.0
 40
3.0
 41
0.0
 71
     5
 72
     1
  1
\A1;52
1001
ACAD
1000
MTEXTBEGIN
1070
    73
1070
     1
1070
    44
1040
1.0
1070
    74
1070
     0
1000
MTEXTEND
1000
MTEXTBEGIN
1070
    73
1070
     1
1070
    44
1040
1.0
1070
    74
1070
     0
1000
MTEXTEND
  0
POINT
  5
19C
100
AcDbEntity
  8
DEFPOINTS
  6
CONTINUOUS
 62
     0
100
AcDbPoint
 10
55.008521
 20
20.409581
 30
0.0
  0
POINT
  5
19D
100
AcDbEntity
  8
DEFPOINTS
  6
CONTINUOUS
 62
     0
100
AcDbPoint
 10
3.008521
 20
14.409581
 30
0.0
  0
POINT
  5
19E
100
AcDbEntity
  8
DEFPOINTS
  6
CONTINUOUS
 62
     0
100
AcDbPoint
 10
3.008521
 20
0.0
 30
0.0
  0
ENDBLK
  5
1A0
100
AcDbEntity
  8
0
100
AcDbBlockEnd
  0
BLOCK
  5
1AC
100
AcDbEntity
  8
0
100
AcDbBlockBegin
  2
*D8
 70
     1
 10
0.0
 20
0.0
 30
0.0
  3
*D8
  1

  0
LINE
  5
1A3
100
AcDbEntity
  8
寸法
  6
CONTINUOUS
 62
     1
100
AcDbLine
 10
2.008521
 20
14.409581
 30
0.0
 11
-11.0
 21
14.409581
 31
0.0
1001
ACAD
1000
RTLwPs
1070
   158
  0
LINE
  5
1A4
100
AcDbEntity
  8
寸法
  6
CONTINUOUS
 62
     1
100
AcDbLine
 10
2.008521
 20
28.409581
 30
0.0
 11
-11.0
 21
28.409581
 31
0.0
1001
ACAD
1000
RTLwPs
1070
   158
  0
LINE
  5
1A5
100
AcDbEntity
  8
寸法
  6
CONTINUOUS
 62
     1
100
AcDbLine
 10
-10.0
 20
16.409581
 30
0.0
 11
-10.0
 21
26.409581
 31
0.0
1001
ACAD
1000
RTLwPs
1070
   158
  0
INSERT
  5
1A6
100
AcDbEntity
  8
寸法
  6
CONTINUOUS
 62
     1
100
AcDbBlockReference
  2
_OPEN30
 10
-10.0
 20
14.409581
 30
0.0
 41
2.0
 42
2.0
 43
2.0
 50
270.0
1001
ACAD
1000
RTLwPs
1070
   158
  0
INSERT
  5
1A7
100
AcDbEntity
  8
寸法
  6
CONTINUOUS
 62
     1
100
AcDbBlockReference
  2
_OPEN30
 10
-10.0
 20
28.409581
 30
0.0
 41
2.0
 42
2.0
 43
2.0
 50
90.0
1001
ACAD
1000
RTLwPs
1070
   158
  0
MTEXT
  5
1A8
100
AcDbEntity
  8
寸法
  6
CONTINUOUS
 62
     1
100
AcDbMText
 10
-12.5
 20
21.409581
 30
0.0
 40
3.0
 41
0.0
 71
     5
 72
     1
  1
\A1;14
 11
0.0
 21
1.0
 31
0.0
1001
ACAD
1000
MTEXTBEGIN
1070
    73
1070
     1
1070
    44
1040
1.0
1070
    74
1070
     0
1000
MTEXTEND
1000
MTEXTBEGIN
1070
    73
1070
     1
1070
    44
1040
1.0
1070
    74
1070
     0
1000
MTEXTEND
  0
POINT
  5
1A9
100
AcDbEntity
  8
DEFPOINTS
  6
CONTINUOUS
 62
     0
100
AcDbPoint
 10
3.008521
 20
14.409581
 30
0.0
  0
POINT
  5
1AA
100
AcDbEntity
  8
DEFPOINTS
  6
CONTINUOUS
 62
     0
100
AcDbPoint
 10
3.008521
 20
28.409581
 30
0.0
  0
POINT
  5
1AB
100
AcDbEntity
  8
DEFPOINTS
  6
CONTINUOUS
 62
     0
100
AcDbPoint
 10
-10.0
 20
28.409581
 30
0.0
  0
ENDBLK
  5
1AD
100
AcDbEntity
  8
0
100
AcDbBlockEnd
  0
BLOCK
  5
1B9
100
AcDbEntity
  8
0
100
AcDbBlockBegin
  2
*D9
 70
     1
 10
0.0
 20
0.0
 30
0.0
  3
*D9
  1

  0
LINE
  5
2A1
100
AcDbEntity
  8
寸法
  6
CONTINUOUS
 62
     1
100
AcDbLine
 10
55.008521
 20
19.409581
 30
0.0
 11
55.008521
 21
9.0
 31
0.0
  0
LINE
  5
2A2
100
AcDbEntity
  8
寸法
  6
CONTINUOUS
 62
     1
100
AcDbLine
 10
47.008521
 20
15.886581
 30
0.0
 11
47.008521
 21
9.0
 31
0.0
  0
LINE
  5
2A3
100
AcDbEntity
  8
寸法
  6
CONTINUOUS
 62
     1
100
AcDbLine
 10
53.008521
 20
10.0
 30
0.0
 11
49.008521
 21
10.0
 31
0.0
  0
INSERT
  5
2A4
100
AcDbEntity
  8
寸法
  6
CONTINUOUS
 62
     1
100
AcDbBlockReference
  2
_OPEN30
 10
55.008521
 20
10.0
 30
0.0
 41
2.0
 42
2.0
 43
2.0
  0
INSERT
  5
2A5
100
AcDbEntity
  8
寸法
  6
CONTINUOUS
 62
     1
100
AcDbBlockReference
  2
_OPEN30
 10
47.008521
 20
10.0
 30
0.0
 41
2.0
 42
2.0
 43
2.0
 50
180.0
  0
MTEXT
  5
2A6
100
AcDbEntity
  8
寸法
  6
CONTINUOUS
 62
     1
100
AcDbMText
 10
51.008521
 20
12.5
 30
0.0
 40
3.0
 41
0.0
 71
     5
 72
     1
  1
\A1;8
  0
POINT
  5
2A7
100
AcDbEntity
  8
DEFPOINTS
  6
CONTINUOUS
 62
     0
100
AcDbPoint
 10
55.008521
 20
20.409581
 30
0.0
  0
POINT
  5
2A8
100
AcDbEntity
  8
DEFPOINTS
  6
CONTINUOUS
 62
     0
100
AcDbPoint
 10
47.008521
 20
16.886581
 30
0.0
  0
POINT
  5
2A9
100
AcDbEntity
  8
DEFPOINTS
  6
CONTINUOUS
 62
     0
100
AcDbPoint
 10
47.008521
 20
10.0
 30
0.0
  0
ENDBLK
  5
1BA
100
AcDbEntity
  8
0
100
AcDbBlockEnd
  0
BLOCK
  5
1D7
100
AcDbEntity
  8
0
100
AcDbBlockBegin
  2
*D10
 70
     1
 10
0.0
 20
0.0
 30
0.0
  3
*D10
  1

  0
LINE
  5
2AA
100
AcDbEntity
  8
寸法
  6
CONTINUOUS
 62
     1
100
AcDbLine
 10
-39.075925
 20
13.409581
 30
0.0
 11
-39.075925
 21
1.264774
 31
0.0
  0
LINE
  5
2AB
100
AcDbEntity
  8
寸法
  6
CONTINUOUS
 62
     1
100
AcDbLine
 10
-36.266476
 20
13.419313
 30
0.0
 11
-34.602233
 21
1.577605
 31
0.0
  0
ARC
  5
2AC
100
AcDbEntity
  8
寸法
  6
CONTINUOUS
 62
     1
100
AcDbCircle
 10
-39.075925
 20
33.409581
 30
0.0
 40
31.144807
100
AcDbArc
 50
266.320052
 51
270.0
  0
LINE
  5
2AD
100
AcDbEntity
  8
寸法
  6
CONTINUOUS
 62
     1
100
AcDbLine
 10
-41.074894
 20
2.32899
 30
0.0
 11
-49.657162
 21
2.880964
 31
0.0
  0
ARC
  5
2AE
100
AcDbEntity
  8
寸法
  6
CONTINUOUS
 62
     1
100
AcDbCircle
 10
-39.075925
 20
33.409581
 30
0.0
 40
31.144807
100
AcDbArc
 50
273.679948
 51
274.320052
  0
INSERT
  5
2AF
100
AcDbEntity
  8
寸法
  6
CONTINUOUS
 62
     1
100
AcDbBlockReference
  2
_OPEN30
 10
-39.075925
 20
2.264774
 30
0.0
 41
2.0
 42
2.0
 43
2.0
 50
181.839974
  0
INSERT
  5
2B0
100
AcDbEntity
  8
寸法
  6
CONTINUOUS
 62
     1
100
AcDbBlockReference
  2
_OPEN30
 10
-34.741406
 20
2.567873
 30
0.0
 41
2.0
 42
2.0
 43
2.0
 50
6.160026
  0
MTEXT
  5
2B1
100
AcDbEntity
  8
寸法
  6
CONTINUOUS
 62
     1
100
AcDbMText
 10
-45.205571
 20
5.099822
 30
0.0
 40
3.0
 41
0.0
 71
     5
 72
     1
  1
\A1;8°
 11
0.997938
 21
-0.064183
 31
0.0
  0
POINT
  5
2B2
100
AcDbEntity
  8
DEFPOINTS
  6
CONTINUOUS
 62
     0
100
AcDbPoint
 10
-36.18102
 20
2.399606
 30
0.0
  0
POINT
  5
2B3
100
AcDbEntity
  8
DEFPOINTS
  6
CONTINUOUS
 62
     0
100
AcDbPoint
 10
-39.075925
 20
33.409581
 30
0.0
  0
POINT
  5
2B4
100
AcDbEntity
  8
DEFPOINTS
  6
CONTINUOUS
 62
     0
100
AcDbPoint
 10
-36.405649
 20
14.409581
 30
0.0
  0
POINT
  5
2B5
100
AcDbEntity
  8
DEFPOINTS
  6
CONTINUOUS
 62
     0
100
AcDbPoint
 10
-39.075925
 20
33.409581
 30
0.0
  0
POINT
  5
2B6
100
AcDbEntity
  8
DEFPOINTS
  6
CONTINUOUS
 62
     0
100
AcDbPoint
 10
-39.075925
 20
14.409581
 30
0.0
  0
ENDBLK
  5
1D8
100
AcDbEntity
  8
0
100
AcDbBlockEnd
  0
BLOCK
  5
1E1
100
AcDbEntity
  8
0
100
AcDbBlockBegin
  2
*D11
 70
     1
 10
0.0
 20
0.0
 30
0.0
  3
*D11
  1

  0
LINE
  5
1E3
100
AcDbEntity
  8
寸法
  6
CONTINUOUS
 62
     1
100
AcDbLine
 10
-70.093181
 20
22.143265
 30
0.0
 11
-58.814179
 21
26.240107
 31
0.0
1001
ACAD
1000
RTLwPs
1070
   158
  0
MTEXT
  5
1E4
100
AcDbEntity
  8
寸法
  6
CONTINUOUS
 62
     1
100
AcDbMText
 10
-66.247105
 20
26.200074
 30
0.0
 40
3.0
 41
0.0
 71
     5
 72
     1
  1
\A1;%%c38
 11
0.939917
 21
0.341404
 31
0.0
1001
ACAD
1000
MTEXTBEGIN
1070
    73
1070
     1
1070
    44
1040
1.0
1070
    74
1070
     0
1000
MTEXTEND
1000
MTEXTBEGIN
1070
    73
1070
     1
1070
    44
1040
1.0
1070
    74
1070
     0
1000
MTEXTEND
  0
LINE
  5
1E5
100
AcDbEntity
  8
寸法
  6
CONTINUOUS
 62
     1
100
AcDbLine
 10
-39.075925
 20
33.409581
 30
0.0
 11
-56.934345
 21
26.922914
 31
0.0
1001
ACAD
1000
RTLwPs
1070
   158
  0
INSERT
  5
1E6
100
AcDbEntity
  8
寸法
  6
CONTINUOUS
 62
     1
100
AcDbBlockReference
  2
_OPEN30
 10
-56.934345
 20
26.922914
 30
0.0
 41
2.0
 42
2.0
 43
2.0
 50
19.962407
1001
ACAD
1000
RTLwPs
1070
   158
  0
POINT
  5
1E7
100
AcDbEntity
  8
DEFPOINTS
  6
CONTINUOUS
 62
     0
100
AcDbPoint
 10
-56.934345
 20
26.922914
 30
0.0
  0
POINT
  5
1E8
100
AcDbEntity
  8
DEFPOINTS
  6
CONTINUOUS
 62
     0
100
AcDbPoint
 10
-39.075925
 20
33.409581
 30
0.0
  0
ENDBLK
  5
1E2
100
AcDbEntity
  8
0
100
AcDbBlockEnd
  0
BLOCK
  5
1F7
100
AcDbEntity
  8
0
100
AcDbBlockBegin
  2
*D12
 70
     1
 10
0.0
 20
0.0
 30
0.0
  3
*D12
  1

  0
ARC
  5
2B7
100
AcDbEntity
  8
寸法
  6
CONTINUOUS
 62
     1
100
AcDbCircle
 10
3.008521
 20
14.409581
 30
0.0
 40
6.436109
100
AcDbArc
 50
107.876904
 51
162.123096
  0
INSERT
  5
2B8
100
AcDbEntity
  8
寸法
  6
CONTINUOUS
 62
     1
100
AcDbBlockReference
  2
_OPEN30
 10
3.008521
 20
20.84569
 30
0.0
 41
2.0
 42
2.0
 43
2.0
 50
8.938452
  0
INSERT
  5
2B9
100
AcDbEntity
  8
寸法
  6
CONTINUOUS
 62
     1
100
AcDbBlockReference
  2
_OPEN30
 10
-3.427588
 20
14.409581
 30
0.0
 41
2.0
 42
2.0
 43
2.0
 50
261.061548
  0
MTEXT
  5
2BA
100
AcDbEntity
  8
寸法
  6
CONTINUOUS
 62
     1
100
AcDbMText
 10
-1.695506
 20
22.007355
 30
0.0
 40
3.0
 41
0.0
 71
     5
 72
     1
  1
\A1;90°
 11
0.850233
 21
0.526407
 31
0.0
  0
POINT
  5
2BB
100
AcDbEntity
  8
DEFPOINTS
  6
CONTINUOUS
 62
     0
100
AcDbPoint
 10
-2.565313
 20
17.627635
 30
0.0
  0
POINT
  5
2BC
100
AcDbEntity
  8
DEFPOINTS
  6
CONTINUOUS
 62
     0
100
AcDbPoint
 10
3.008521
 20
28.162064
 30
0.0
  0
POINT
  5
2BD
100
AcDbEntity
  8
DEFPOINTS
  6
CONTINUOUS
 62
     0
100
AcDbPoint
 10
3.008521
 20
14.409581
 30
0.0
  0
POINT
  5
2BE
100
AcDbEntity
  8
DEFPOINTS
  6
CONTINUOUS
 62
     0
100
AcDbPoint
 10
-19.850721
 20
14.409581
 30
0.0
  0
POINT
  5
2BF
100
AcDbEntity
  8
DEFPOINTS
  6
CONTINUOUS
 62
     0
100
AcDbPoint
 10
3.008521
 20
14.409581
 30
0.0
  0
ENDBLK
  5
1F8
100
AcDbEntity
  8
0
100
AcDbBlockEnd
  0
ENDSEC
  0
SECTION
  2
ENTITIES
  0
POINT
  5
24
100
AcDbEntity
  8
0
  6
CONTINUOUS
 62
     7
100
AcDbPoint
 10
-35.580121
 20
14.409581
 30
0.0
  0
POINT
  5
25
100
AcDbEntity
  8
0
  6
CONTINUOUS
 62
     7
100
AcDbPoint
 10
3.008521
 20
14.409581
 30
0.0
  0
POINT
  5
26
100
AcDbEntity
  8
0
  6
CONTINUOUS
 62
     7
100
AcDbPoint
 10
92.525444
 20
-43.941082
 30
0.0
  0
POINT
  5
27
100
AcDbEntity
  8
0
  6
CONTINUOUS
 62
     7
100
AcDbPoint
 10
3.008513
 20
-32.008408
 30
0.0
  0
LINE
  5
28
100
AcDbEntity
  8
0
  6
CONTINUOUS
 62
     7
100
AcDbLine
 10
4.740571
 20
15.409581
 30
0.0
 11
6.008521
 21
15.409581
 31
0.0
  0
LINE
  5
29
100
AcDbEntity
  8
0
  6
CONTINUOUS
 62
     7
100
AcDbLine
 10
3.008521
 20
28.162064
 30
0.0
 11
3.008521
 21
14.409581
 31
0.0
  0
LINE
  5
2A
100
AcDbEntity
  8
0
  6
CONTINUOUS
 62
     7
100
AcDbLine
 10
3.008521
 20
14.409581
 30
0.0
 11
14.801607
 21
21.218322
 31
0.0
  0
LINE
  5
2B
100
AcDbEntity
  8
0
  6
CONTINUOUS
 62
     7
100
AcDbLine
 10
3.008521
 20
28.162064
 30
0.0
 11
14.918521
 21
21.285822
 31
0.0
  0
LINE
  5
2C
100
AcDbEntity
  8
0
  6
CONTINUOUS
 62
     7
100
AcDbLine
 10
3.008521
 20
14.409581
 30
0.0
 11
3.008521
 21
28.409581
 31
0.0
  0
LINE
  5
2D
100
AcDbEntity
  8
0
  6
CONTINUOUS
 62
     7
100
AcDbLine
 10
47.008521
 20
16.886581
 30
0.0
 11
47.008521
 21
28.409581
 31
0.0
  0
LINE
  5
2E
100
AcDbEntity
  8
0
  6
CONTINUOUS
 62
     7
100
AcDbLine
 10
3.008521
 20
28.409581
 30
0.0
 11
47.008521
 21
28.409581
 31
0.0
  0
LINE
  5
2F
100
AcDbEntity
  8
0
  6
CONTINUOUS
 62
     7
100
AcDbLine
 10
18.008521
 20
18.409581
 30
0.0
 11
47.008521
 21
18.409581
 31
0.0
  0
LINE
  5
30
100
AcDbEntity
  8
0
  6
CONTINUOUS
 62
     7
100
AcDbLine
 10
17.008521
 20
16.371956
 30
0.0
 11
17.008521
 21
17.409581
 31
0.0
  0
LINE
  5
31
100
AcDbEntity
  8
0
  6
CONTINUOUS
 62
     7
100
AcDbLine
 10
6.008521
 20
15.409581
 30
0.0
 11
17.042185
 21
16.374901
 31
0.0
  0
LINE
  5
32
100
AcDbEntity
  8
0
  6
CENTER
 62
     1
 48
0.5
100
AcDbLine
 10
42.588569
 20
22.409581
 30
0.0
 11
59.02159
 21
22.409581
 31
0.0
  0
LINE
  5
33
100
AcDbEntity
  8
0
  6
CENTER
 62
     1
 48
0.5
100
AcDbLine
 10
35.008521
 20
13.41327
 30
0.0
 11
35.008521
 21
30.56181
 31
0.0
  0
LINE
  5
34
100
AcDbEntity
  8
0
  6
CONTINUOUS
 62
     7
100
AcDbLine
 10
47.008521
 20
-30.508493
 30
0.0
 11
47.008521
 21
-44.008492
 31
0.0
  0
LINE
  5
35
100
AcDbEntity
  8
0
  6
CENTER
 62
     1
 48
0.5
100
AcDbLine
 10
35.008521
 20
-24.752123
 30
0.0
 11
35.008521
 21
-49.56847
 31
0.0
  0
LINE
  5
36
100
AcDbEntity
  8
0
  6
CONTINUOUS
 62
     7
100
AcDbLine
 10
11.24852
 20
23.404698
 30
0.0
 11
12.966607
 21
24.396635
 31
0.0
  0
LINE
  5
37
100
AcDbEntity
  8
0
  6
CENTER
 62
     1
 48
0.5
100
AcDbLine
 10
44.194095
 20
-37.508492
 30
0.0
 11
59.777129
 21
-37.508492
 31
0.0
  0
LINE
  5
38
100
AcDbEntity
  8
0
  6
CONTINUOUS
 62
     7
100
AcDbLine
 10
-46.580121
 20
28.409581
 30
0.0
 11
-35.080125
 21
28.409581
 31
0.0
  0
LINE
  5
39
100
AcDbEntity
  8
0
  6
CONTINUOUS
 62
     7
100
AcDbLine
 10
-47.580121
 20
27.409585
 30
0.0
 11
-47.580121
 21
17.504855
 31
0.0
  0
LINE
  5
3A
100
AcDbEntity
  8
0
  6
CONTINUOUS
 62
     7
100
AcDbLine
 10
-46.580121
 20
28.409583
 30
0.0
 11
-47.580121
 21
27.409582
 31
0.0
  0
LINE
  5
3B
100
AcDbEntity
  8
0
  6
CENTER
 62
     1
 48
0.5
100
AcDbLine
 10
36.758521
 20
-24.752123
 30
0.0
 11
36.758521
 21
-49.56847
 31
0.0
  0
LINE
  5
3C
100
AcDbEntity
  8
0
  6
CENTER
 62
     1
 48
0.5
100
AcDbLine
 10
33.258521
 20
-24.752123
 30
0.0
 11
33.258521
 21
-49.56847
 31
0.0
  0
LINE
  5
3D
100
AcDbEntity
  8
0
  6
CONTINUOUS
 62
     7
100
AcDbLine
 10
-35.080121
 20
28.409583
 30
0.0
 11
-34.080125
 21
27.409585
 31
0.0
  0
LINE
  5
3E
100
AcDbEntity
  8
0
  6
CONTINUOUS
 62
     7
100
AcDbLine
 10
55.008521
 20
-35.508492
 30
0.0
 11
55.008521
 21
-39.508492
 31
0.0
  0
LINE
  5
3F
100
AcDbEntity
  8
0
  6
CONTINUOUS
 62
     7
100
AcDbLine
 10
50.008521
 20
-33.508492
 30
0.0
 11
50.008521
 21
-41.508492
 31
0.0
  0
LINE
  5
40
100
AcDbEntity
  8
0
  6
CONTINUOUS
 62
     7
100
AcDbLine
 10
47.008521
 20
-40.008492
 30
0.0
 11
50.008521
 21
-40.008492
 31
0.0
  0
LINE
  5
41
100
AcDbEntity
  8
0
  6
CONTINUOUS
 62
     7
100
AcDbLine
 10
47.008521
 20
-35.008492
 30
0.0
 11
50.008521
 21
-35.008492
 31
0.0
  0
LINE
  5
42
100
AcDbEntity
  8
0
  6
CONTINUOUS
 62
     7
100
AcDbLine
 10
52.508521
 20
-33.008492
 30
0.0
 11
55.008521
 21
-35.508492
 31
0.0
  0
LINE
  5
43
100
AcDbEntity
  8
0
  6
CONTINUOUS
 62
     7
100
AcDbLine
 10
52.508521
 20
-42.008495
 30
0.0
 11
55.008521
 21
-39.508495
 31
0.0
  0
LINE
  5
44
100
AcDbEntity
  8
0
  6
CONTINUOUS
 62
     7
100
AcDbLine
 10
50.508521
 20
-42.008492
 30
0.0
 11
52.508521
 21
-42.008492
 31
0.0
  0
LINE
  5
45
100
AcDbEntity
  8
0
  6
CONTINUOUS
 62
     7
100
AcDbLine
 10
50.508521
 20
-33.008492
 30
0.0
 11
52.508521
 21
-33.008492
 31
0.0
  0
LINE
  5
46
100
AcDbEntity
  8
0
  6
CONTINUOUS
 62
     7
100
AcDbLine
 10
50.508521
 20
-33.008499
 30
0.0
 11
50.008525
 21
-33.508495
 31
0.0
  0
LINE
  5
47
100
AcDbEntity
  8
0
  6
CONTINUOUS
 62
     7
100
AcDbLine
 10
50.008525
 20
-41.508492
 30
0.0
 11
50.508525
 21
-42.008492
 31
0.0
  0
LINE
  5
48
100
AcDbEntity
  8
0
  6
CONTINUOUS
 62
     7
100
AcDbLine
 10
50.508521
 20
-33.008492
 30
0.0
 11
50.508521
 21
-42.008495
 31
0.0
  0
LINE
  5
49
100
AcDbEntity
  8
0
  6
CONTINUOUS
 62
     7
100
AcDbLine
 10
52.508521
 20
-33.008492
 30
0.0
 11
52.508521
 21
-42.008492
 31
0.0
  0
LINE
  5
4A
100
AcDbEntity
  8
0
  6
CONTINUOUS
 62
     7
100
AcDbLine
 10
47.008521
 20
-39.508492
 30
0.0
 11
50.008521
 21
-39.508492
 31
0.0
  0
LINE
  5
4B
100
AcDbEntity
  8
0
  6
CONTINUOUS
 62
     7
100
AcDbLine
 10
47.008521
 20
-35.508492
 30
0.0
 11
50.008521
 21
-35.508492
 31
0.0
  0
LINE
  5
4C
100
AcDbEntity
  8
0
  6
CONTINUOUS
 62
     7
100
AcDbLine
 10
47.008521
 20
24.409581
 30
0.0
 11
50.008521
 21
24.409581
 31
0.0
  0
LINE
  5
4D
100
AcDbEntity
  8
0
  6
CONTINUOUS
 62
     7
100
AcDbLine
 10
47.008521
 20
24.909581
 30
0.0
 11
50.008521
 21
24.909581
 31
0.0
  0
LINE
  5
4E
100
AcDbEntity
  8
0
  6
CONTINUOUS
 62
     7
100
AcDbLine
 10
50.008521
 20
26.409581
 30
0.0
 11
50.008521
 21
18.409581
 31
0.0
  0
LINE
  5
4F
100
AcDbEntity
  8
0
  6
CONTINUOUS
 62
     7
100
AcDbLine
 10
50.508521
 20
26.909581
 30
0.0
 11
50.508521
 21
17.90958
 31
0.0
  0
LINE
  5
50
100
AcDbEntity
  8
0
  6
CONTINUOUS
 62
     7
100
AcDbLine
 10
50.508517
 20
26.909577
 30
0.0
 11
50.008521
 21
26.409579
 31
0.0
  0
LINE
  5
51
100
AcDbEntity
  8
0
  6
CONTINUOUS
 62
     7
100
AcDbLine
 10
50.508521
 20
26.909581
 30
0.0
 11
52.508521
 21
26.909581
 31
0.0
  0
LINE
  5
52
100
AcDbEntity
  8
0
  6
CONTINUOUS
 62
     7
100
AcDbLine
 10
52.508521
 20
26.909581
 30
0.0
 11
52.508521
 21
17.909581
 31
0.0
  0
LINE
  5
53
100
AcDbEntity
  8
0
  6
CONTINUOUS
 62
     7
100
AcDbLine
 10
52.508521
 20
26.909579
 30
0.0
 11
55.008521
 21
24.40958
 31
0.0
  0
LINE
  5
54
100
AcDbEntity
  8
0
  6
CONTINUOUS
 62
     7
100
AcDbLine
 10
47.008521
 20
20.409581
 30
0.0
 11
50.008521
 21
20.409581
 31
0.0
  0
LINE
  5
55
100
AcDbEntity
  8
0
  6
CONTINUOUS
 62
     7
100
AcDbLine
 10
47.008521
 20
19.909581
 30
0.0
 11
50.008521
 21
19.909581
 31
0.0
  0
LINE
  5
56
100
AcDbEntity
  8
0
  6
CONTINUOUS
 62
     7
100
AcDbLine
 10
50.008525
 20
18.409584
 30
0.0
 11
50.508525
 21
17.909584
 31
0.0
  0
LINE
  5
57
100
AcDbEntity
  8
0
  6
CONTINUOUS
 62
     7
100
AcDbLine
 10
50.508521
 20
17.909581
 30
0.0
 11
52.508521
 21
17.909581
 31
0.0
  0
LINE
  5
58
100
AcDbEntity
  8
0
  6
CONTINUOUS
 62
     7
100
AcDbLine
 10
52.508517
 20
17.90958
 30
0.0
 11
55.008517
 21
20.40958
 31
0.0
  0
LINE
  5
59
100
AcDbEntity
  8
0
  6
CONTINUOUS
 62
     7
100
AcDbLine
 10
55.008521
 20
24.409581
 30
0.0
 11
55.008521
 21
20.409581
 31
0.0
  0
LINE
  5
5A
100
AcDbEntity
  8
0
  6
CONTINUOUS
 62
     7
100
AcDbLine
 10
14.42574
 20
27.409581
 30
0.0
 11
47.008521
 21
27.409581
 31
0.0
  0
LINE
  5
5B
100
AcDbEntity
  8
0
  6
CONTINUOUS
 62
     7
100
AcDbLine
 10
14.42574
 20
-30.508493
 30
0.0
 11
47.008521
 21
-30.508493
 31
0.0
  0
LINE
  5
5C
100
AcDbEntity
  8
0
  6
CONTINUOUS
 62
     7
100
AcDbLine
 10
4.269771
 20
-44.008492
 30
0.0
 11
47.008521
 21
-44.008492
 31
0.0
  0
LINE
  5
5D
100
AcDbEntity
  8
0
  6
CONTINUOUS
 62
     7
100
AcDbLine
 10
3.008521
 20
-32.008492
 30
0.0
 11
4.77193
 21
-31.823149
 31
0.0
  0
LINE
  5
5E
100
AcDbEntity
  8
0
  6
CENTER
 62
     1
 48
0.5
100
AcDbLine
 10
13.008521
 20
-34.008492
 30
0.0
 11
13.008521
 21
-42.008492
 31
0.0
  0
LINE
  5
5F
100
AcDbEntity
  8
0
  6
CENTER
 62
     1
 48
0.5
100
AcDbLine
 10
9.008521
 20
-38.008492
 30
0.0
 11
17.008521
 21
-38.008492
 31
0.0
  0
LINE
  5
60
100
AcDbEntity
  8
0
  6
CONTINUOUS
 62
     7
100
AcDbLine
 10
17.008521
 20
-30.508493
 30
0.0
 11
17.008521
 21
-40.34412
 31
0.0
  0
LINE
  5
61
100
AcDbEntity
  8
0
  6
CONTINUOUS
 62
     7
100
AcDbLine
 10
4.269772
 20
-44.008492
 30
0.0
 11
3.008521
 21
-32.008492
 31
0.0
  0
LINE
  5
62
100
AcDbEntity
  8
0
  6
CONTINUOUS
 62
     7
100
AcDbLine
 10
3.739697
 20
-38.008492
 30
0.0
 11
6.008521
 21
-38.008492
 31
0.0
  0
LINE
  5
63
100
AcDbEntity
  8
0
  6
CONTINUOUS
 62
     7
100
AcDbLine
 10
6.008521
 20
-31.393179
 30
0.0
 11
6.008521
 21
-38.008492
 31
0.0
  0
LINE
  5
64
100
AcDbEntity
  8
0
  6
CONTINUOUS
 62
     7
100
AcDbLine
 10
-39.075925
 20
14.409581
 30
0.0
 11
-35.580121
 21
14.409581
 31
0.0
  0
LINE
  5
65
100
AcDbEntity
  8
0
  6
CONTINUOUS
 62
     7
100
AcDbLine
 10
-35.580121
 20
28.409581
 30
0.0
 11
-35.580121
 21
14.409581
 31
0.0
  0
LINE
  5
66
100
AcDbEntity
  8
0
  6
CONTINUOUS
 62
     7
100
AcDbLine
 10
-39.075925
 20
28.162064
 30
0.0
 11
-39.075925
 21
14.409581
 31
0.0
  0
LINE
  5
67
100
AcDbEntity
  8
0
  6
CONTINUOUS
 62
     7
100
AcDbLine
 10
-39.075925
 20
28.162064
 30
0.0
 11
-35.580121
 21
28.162064
 31
0.0
  0
LINE
  5
68
100
AcDbEntity
  8
0
  6
CONTINUOUS
 62
     7
100
AcDbLine
 10
-34.642274
 20
21.285822
 30
0.0
 11
-35.580121
 21
28.162063
 31
0.0
  0
LINE
  5
69
100
AcDbEntity
  8
0
  6
CONTINUOUS
 62
     7
100
AcDbLine
 10
-34.64227
 20
21.285822
 30
0.0
 11
-35.580121
 21
14.409581
 31
0.0
  0
LINE
  5
6A
100
AcDbEntity
  8
0
  6
CONTINUOUS
 62
     7
100
AcDbLine
 10
-34.080125
 20
27.409584
 30
0.0
 11
-34.080125
 21
16.909577
 31
0.0
  0
LINE
  5
6B
100
AcDbEntity
  8
0
  6
CONTINUOUS
 62
     7
100
AcDbLine
 10
6.008521
 20
-37.990997
 30
0.0
 11
11.223495
 21
-38.910538
 31
0.0
  0
LINE
  5
6C
100
AcDbEntity
  8
0
  6
CONTINUOUS
 62
     7
100
AcDbLine
 10
14.377379
 20
-39.466652
 30
0.0
 11
17.008521
 21
-39.930592
 31
0.0
  0
LINE
  5
6D
100
AcDbEntity
  8
0
  6
CONTINUOUS
 62
     7
100
AcDbLine
 10
92.525444
 20
-43.941082
 30
0.0
 11
102.276254
 21
-43.941082
 31
0.0
  0
LINE
  5
6E
100
AcDbEntity
  8
0
  6
CONTINUOUS
 62
     7
100
AcDbLine
 10
93.352448
 20
-30.508493
 30
0.0
 11
102.35245
 21
-30.508493
 31
0.0
  0
LINE
  5
6F
100
AcDbEntity
  8
0
  6
CONTINUOUS
 62
     7
100
AcDbLine
 10
103.35245
 20
-31.508493
 30
0.0
 11
103.35245
 21
-42.845951
 31
0.0
  0
LINE
  5
70
100
AcDbEntity
  8
0
  6
CONTINUOUS
 62
     7
100
AcDbLine
 10
91.82959
 20
-41.34412
 30
0.0
 11
93.35244
 21
-30.508495
 31
0.0
  0
LINE
  5
71
100
AcDbEntity
  8
0
  6
CONTINUOUS
 62
     7
100
AcDbLine
 10
102.35245
 20
-30.508493
 30
0.0
 11
103.35245
 21
-31.508495
 31
0.0
  0
LINE
  5
72
100
AcDbEntity
  8
0
  6
CONTINUOUS
 62
     7
100
AcDbLine
 10
102.276254
 20
-43.941082
 30
0.0
 11
103.35244
 21
-42.845951
 31
0.0
  0
LINE
  5
73
100
AcDbEntity
  8
0
  6
CONTINUOUS
 62
     7
100
AcDbLine
 10
97.729973
 20
-42.472492
 30
0.0
 11
99.191292
 21
-32.074677
 31
0.0
  0
LINE
  5
74
100
AcDbEntity
  8
0
  6
CENTER
 62
     1
 48
0.5
100
AcDbLine
 10
6.978521
 20
23.860822
 30
0.0
 11
6.978521
 21
18.710822
 31
0.0
  0
LINE
  5
75
100
AcDbEntity
  8
0
  6
CENTER
 62
     1
 48
0.5
100
AcDbLine
 10
4.403521
 20
21.285822
 30
0.0
 11
9.553521
 21
21.285822
 31
0.0
  0
LINE
  5
77
100
AcDbEntity
  8
0
  6
CONTINUOUS
 62
     7
100
AcDbLine
 10
-41.580121
 20
15.409581
 30
0.0
 11
-39.075925
 21
15.409581
 31
0.0
  0
LINE
  5
78
100
AcDbEntity
  8
0
  6
CONTINUOUS
 62
     7
100
AcDbLine
 10
-47.551663
 20
17.583044
 30
0.0
 11
-41.551663
 21
15.399222
 31
0.0
  0
LINE
  5
79
100
AcDbEntity
  8
0
  6
CONTINUOUS
 62
     7
100
AcDbLine
 10
-35.422193
 20
15.567509
 30
0.0
 11
-34.080125
 21
16.909578
 31
0.0
  0
LINE
  5
7A
100
AcDbEntity
  8
0
  6
CONTINUOUS
 62
     7
100
AcDbLine
 10
91.829597
 20
-41.344116
 30
0.0
 11
92.525452
 21
-43.941082
 31
0.0
  0
LINE
  5
7C
100
AcDbEntity
  8
0
  6
CONTINUOUS
 62
     7
100
AcDbLine
 10
18.008521
 20
-41.34412
 30
0.0
 11
31.426902
 21
-41.34412
 31
0.0
  0
LINE
  5
7D
100
AcDbEntity
  8
0
  6
CONTINUOUS
 62
     7
100
AcDbLine
 10
38.59014
 20
-41.34412
 30
0.0
 11
47.008521
 21
-41.34412
 31
0.0
  0
LINE
  5
7E
100
AcDbEntity
  8
0
  6
CONTINUOUS
 62
     7
100
AcDbLine
 10
17.523146
 20
16.886581
 30
0.0
 11
33.258521
 21
16.886581
 31
0.0
  0
LINE
  5
7F
100
AcDbEntity
  8
0
  6
CONTINUOUS
 62
     7
100
AcDbLine
 10
36.758521
 20
16.886581
 30
0.0
 11
47.008521
 21
16.886581
 31
0.0
  0
LINE
  5
80
100
AcDbEntity
  8
0
  6
CONTINUOUS
 62
     7
100
AcDbLine
 10
5.106421
 20
-35.005619
 30
0.0
 11
4.740743
 21
-31.526426
 31
0.0
  0
LINE
  5
81
100
AcDbEntity
  8
0
  6
CONTINUOUS
 62
     7
100
AcDbLine
 10
3.343012
 20
-35.190964
 30
0.0
 11
5.106421
 21
-35.005619
 31
0.0
  0
LINE
  5
82
100
AcDbEntity
  8
0
  6
CONTINUOUS
 62
     7
100
AcDbLine
 10
3.008521
 20
-31.70849
 30
0.0
 11
14.42574
 21
-30.508493
 31
0.0
  0
LINE
  5
83
100
AcDbEntity
  8
0
  6
CONTINUOUS
 62
     7
100
AcDbLine
 10
14.42574
 20
27.409581
 30
0.0
 11
14.42574
 21
24.560722
 31
0.0
  0
LINE
  5
84
100
AcDbEntity
  8
0
  6
CONTINUOUS
 62
     7
100
AcDbLine
 10
14.42574
 20
21.001316
 30
0.0
 11
14.42574
 21
16.145992
 31
0.0
  0
LINE
  5
85
100
AcDbEntity
  8
0
  6
CENTER
 62
     1
 48
0.5
100
AcDbLine
 10
89.86676
 20
-36.065792
 30
0.0
 11
105.73044
 21
-38.295288
 31
0.0
  0
LINE
  5
86
100
AcDbEntity
  8
0
  6
CONTINUOUS
 62
     7
100
AcDbLine
 10
93.249687
 20
-31.239637
 30
0.0
 11
99.191292
 21
-32.074677
 31
0.0
  0
LINE
  5
87
100
AcDbEntity
  8
0
  6
CONTINUOUS
 62
     7
100
AcDbLine
 10
91.912888
 20
-41.654953
 30
0.0
 11
97.729973
 21
-42.472492
 31
0.0
  0
LINE
  5
88
100
AcDbEntity
  8
0
  6
CONTINUOUS
 62
     7
100
AcDbLine
 10
98.015282
 20
-40.442444
 30
0.0
 11
103.35245
 21
-41.192532
 31
0.0
  0
LINE
  5
89
100
AcDbEntity
  8
0
  6
CONTINUOUS
 62
     7
100
AcDbLine
 10
98.905991
 20
-34.104725
 30
0.0
 11
103.35245
 21
-34.729633
 31
0.0
  0
LINE
  5
8A
100
AcDbEntity
  8
0
  6
CONTINUOUS
 62
     7
100
AcDbLine
 10
33.216178
 20
-31.239637
 30
0.0
 11
36.758521
 21
-31.239637
 31
0.0
  0
LINE
  5
8B
100
AcDbEntity
  8
0
  6
CONTINUOUS
 62
     7
100
AcDbLine
 10
33.216178
 20
-41.654953
 30
0.0
 11
36.758521
 21
-41.654953
 31
0.0
  0
LINE
  5
8C
100
AcDbEntity
  8
0
  6
CONTINUOUS
 62
     7
100
AcDbLine
 10
33.207429
 20
-32.074677
 30
0.0
 11
36.758521
 21
-32.074677
 31
0.0
  0
LINE
  5
8D
100
AcDbEntity
  8
0
  6
CONTINUOUS
 62
     7
100
AcDbLine
 10
33.258521
 20
-34.104725
 30
0.0
 11
36.758521
 21
-34.104725
 31
0.0
  0
LINE
  5
8E
100
AcDbEntity
  8
0
  6
CONTINUOUS
 62
     7
100
AcDbLine
 10
33.258521
 20
-40.44244
 30
0.0
 11
36.758521
 21
-40.44244
 31
0.0
  0
LINE
  5
8F
100
AcDbEntity
  8
0
  6
CONTINUOUS
 62
     7
100
AcDbLine
 10
33.289969
 20
-34.729633
 30
0.0
 11
36.758521
 21
-34.729633
 31
0.0
  0
LINE
  5
90
100
AcDbEntity
  8
0
  6
CONTINUOUS
 62
     7
100
AcDbLine
 10
33.258521
 20
18.306581
 30
0.0
 11
36.758521
 21
18.306581
 31
0.0
  0
LINE
  5
91
100
AcDbEntity
  8
0
  6
CONTINUOUS
 62
     7
100
AcDbLine
 10
3.039707
 20
-32.005215
 30
0.0
 11
3.008521
 21
-31.70849
 31
0.0
  0
ARC
  5
92
100
AcDbEntity
  8
0
  6
CONTINUOUS
 62
     7
100
AcDbCircle
 10
13.884108
 20
22.807479
 30
0.0
 40
1.835
100
AcDbArc
 50
300.0
 51
120.0
  0
ARC
  5
93
100
AcDbEntity
  8
0
  6
CONTINUOUS
 62
     7
100
AcDbCircle
 10
18.008521
 20
17.409581
 30
0.0
 40
1.0
100
AcDbArc
 50
90.000003
 51
180.00001
  0
CIRCLE
  5
94
100
AcDbEntity
  8
0
  6
CONTINUOUS
 62
     7
100
AcDbCircle
 10
13.008521
 20
-38.008492
 30
0.0
 40
2.0
  0
CIRCLE
  5
95
100
AcDbEntity
  8
0
  6
CONTINUOUS
 62
     7
100
AcDbCircle
 10
13.008521
 20
-38.008492
 30
0.0
 40
1.8
  0
CIRCLE
  5
96
100
AcDbEntity
  8
0
  6
CONTINUOUS
 62
     7
100
AcDbCircle
 10
6.978521
 20
21.285822
 30
0.0
 40
1.575
  0
ARC
  5
97
100
AcDbEntity
  8
0
  6
CONTINUOUS
 62
     7
100
AcDbCircle
 10
18.008521
 20
-40.34412
 30
0.0
 40
1.0
100
AcDbArc
 50
179.99999
 51
270.0
  0
ARC
  5
98
100
AcDbEntity
  8
0
  6
CONTINUOUS
 62
     7
100
AcDbCircle
 10
17.523146
 20
16.371956
 30
0.0
 40
0.514625
100
AcDbArc
 50
90.000003
 51
180.00001
  0
ARC
  5
99
100
AcDbEntity
  8
0
  6
CONTINUOUS
 62
     7
100
AcDbCircle
 10
33.216178
 20
-36.447292
 30
0.0
 40
5.207657
100
AcDbArc
 50
90.000003
 51
270.0
  0
ARC
  5
9A
100
AcDbEntity
  8
0
  6
CONTINUOUS
 62
     7
100
AcDbCircle
 10
33.207429
 20
-37.273582
 30
0.0
 40
5.198907
100
AcDbArc
 50
90.000003
 51
175.44395
  0
ARC
  5
9B
100
AcDbEntity
  8
0
  6
CONTINUOUS
 62
     7
100
AcDbCircle
 10
33.227378
 20
-37.273582
 30
0.0
 40
3.168858
100
AcDbArc
 50
90.000003
 51
270.0
  0
ARC
  5
9C
100
AcDbEntity
  8
0
  6
CONTINUOUS
 62
     7
100
AcDbCircle
 10
33.289969
 20
-37.961082
 30
0.0
 40
3.231448
100
AcDbArc
 50
90.000003
 51
173.86346
  0
ARC
  5
9D
100
AcDbEntity
  8
0
  6
CONTINUOUS
 62
     7
100
AcDbCircle
 10
36.727073
 20
-37.961082
 30
0.0
 40
3.231448
100
AcDbArc
 50
6.136531
 51
90.000003
  0
ARC
  5
9E
100
AcDbEntity
  8
0
  6
CONTINUOUS
 62
     7
100
AcDbCircle
 10
36.789664
 20
-37.273582
 30
0.0
 40
3.168858
100
AcDbArc
 50
270.0
 51
90.000003
  0
ARC
  5
9F
100
AcDbEntity
  8
0
  6
CONTINUOUS
 62
     7
100
AcDbCircle
 10
36.809615
 20
-37.273582
 30
0.0
 40
5.198907
100
AcDbArc
 50
4.556038
 51
90.000003
  0
ARC
  5
A0
100
AcDbEntity
  8
0
  6
CONTINUOUS
 62
     7
100
AcDbCircle
 10
36.800864
 20
-36.447292
 30
0.0
 40
5.207657
100
AcDbArc
 50
270.0
 51
90.000003
  0
ARC
  5
A1
100
AcDbEntity
  8
0
  6
CONTINUOUS
 62
     7
100
AcDbCircle
 10
35.008521
 20
-1.520714
 30
0.0
 40
18.490295
100
AcDbArc
 50
84.569155
 51
95.430843
  0
LWPOLYLINE
  5
A2
100
AcDbEntity
  8
0
  6
CONTINUOUS
 62
     7
100
AcDbPolyline
 90
       17
 70
     0
 43
0.0
 10
33.258521
 20
18.306581
 42
0.004369
 10
32.584893
 20
18.300712
 42
0.004586
 10
31.912337
 20
18.282843
 42
0.005102
 10
31.23881
 20
18.251938
 42
0.006055
 10
30.566629
 20
18.206146
 42
0.007893
 10
29.895733
 20
18.141813
 42
0.01196
 10
29.227134
 20
18.051399
 42
0.024634
 10
28.567261
 20
17.915312
 42
0.203764
 10
28.008521
 20
17.596581
 42
0.203426
 10
28.567527
 20
17.277778
 42
0.024604
 10
29.226396
 20
17.141882
 42
0.01194
 10
29.893032
 20
17.051654
 42
0.007891
 10
30.562665
 20
16.987336
 42
0.00606
 10
31.234596
 20
16.941461
 42
0.005102
 10
31.907529
 20
16.910491
 42
0.004594
 10
32.580998
 20
16.892518
 42
0.00437
 10
33.254712
 20
16.886581
  0
LWPOLYLINE
  5
B5
100
AcDbEntity
  8
0
  6
CONTINUOUS
 62
     7
100
AcDbPolyline
 90
       17
 70
     0
 43
0.0
 10
36.758521
 20
18.306581
 42
-0.004369
 10
37.432149
 20
18.300712
 42
-0.004586
 10
38.104705
 20
18.282843
 42
-0.005102
 10
38.778232
 20
18.251938
 42
-0.006055
 10
39.450413
 20
18.206146
 42
-0.007893
 10
40.121309
 20
18.141813
 42
-0.01196
 10
40.789908
 20
18.051399
 42
-0.024634
 10
41.449781
 20
17.915312
 42
-0.203764
 10
42.008521
 20
17.596581
 42
-0.203426
 10
41.449515
 20
17.277778
 42
-0.024604
 10
40.790646
 20
17.141882
 42
-0.01194
 10
40.12401
 20
17.051654
 42
-0.007891
 10
39.454377
 20
16.987336
 42
-0.00606
 10
38.782446
 20
16.941461
 42
-0.005102
 10
38.109513
 20
16.910491
 42
-0.004594
 10
37.436044
 20
16.892518
 42
-0.00437
 10
36.76233
 20
16.886581
  0
LINE
  5
C8
100
AcDbEntity
  8
0
  6
CONTINUOUS
 62
     7
100
AcDbLine
 10
101.985375
 20
-43.941082
 30
0.0
 11
103.35245
 21
-42.57401
 31
0.0
  0
LINE
  5
C9
100
AcDbEntity
  8
0
  6
CONTINUOUS
 62
     7
100
AcDbLine
 10
99.740317
 20
-43.941082
 30
0.0
 11
102.59528
 21
-41.086118
 31
0.0
  0
LINE
  5
CA
100
AcDbEntity
  8
0
  6
CONTINUOUS
 62
     7
100
AcDbLine
 10
97.495255
 20
-43.941082
 30
0.0
 11
100.62686
 21
-40.809474
 31
0.0
  0
LINE
  5
CB
100
AcDbEntity
  8
0
  6
CONTINUOUS
 62
     7
100
AcDbLine
 10
95.250194
 20
-43.941082
 30
0.0
 11
96.843382
 21
-42.34789
 31
0.0
  0
LINE
  5
CC
100
AcDbEntity
  8
0
  6
CONTINUOUS
 62
     7
100
AcDbLine
 10
97.895328
 20
-41.295941
 30
0.0
 11
98.658438
 21
-40.53283
 31
0.0
  0
LINE
  5
CD
100
AcDbEntity
  8
0
  6
CONTINUOUS
 62
     7
100
AcDbLine
 10
93.005131
 20
-43.941082
 30
0.0
 11
94.874963
 21
-42.071247
 31
0.0
  0
LINE
  5
CE
100
AcDbEntity
  8
0
  6
CONTINUOUS
 62
     7
100
AcDbLine
 10
92.152377
 20
-42.548772
 30
0.0
 11
92.906544
 21
-41.794603
 31
0.0
  0
LINE
  5
CF
100
AcDbEntity
  8
0
  6
CONTINUOUS
 62
     7
100
AcDbLine
 10
102.35653
 20
-34.589666
 30
0.0
 11
103.35245
 21
-33.593745
 31
0.0
  0
LINE
  5
D0
100
AcDbEntity
  8
0
  6
CONTINUOUS
 62
     7
100
AcDbLine
 10
100.38811
 20
-34.313023
 30
0.0
 11
103.27254
 21
-31.428587
 31
0.0
  0
LINE
  5
D1
100
AcDbEntity
  8
0
  6
CONTINUOUS
 62
     7
100
AcDbLine
 10
98.996686
 20
-33.459382
 30
0.0
 11
101.94757
 21
-30.508493
 31
0.0
  0
LINE
  5
D2
100
AcDbEntity
  8
0
  6
CONTINUOUS
 62
     7
100
AcDbLine
 10
98.266324
 20
-31.944681
 30
0.0
 11
99.702508
 21
-30.508493
 31
0.0
  0
LINE
  5
D3
100
AcDbEntity
  8
0
  6
CONTINUOUS
 62
     7
100
AcDbLine
 10
96.297905
 20
-31.668037
 30
0.0
 11
97.457446
 21
-30.508493
 31
0.0
  0
LINE
  5
D4
100
AcDbEntity
  8
0
  6
CONTINUOUS
 62
     7
100
AcDbLine
 10
94.329486
 20
-31.391393
 30
0.0
 11
95.212384
 21
-30.508493
 31
0.0
  0
TEXT
  5
D7
100
AcDbEntity
  8
0
  6
CONTINUOUS
100
AcDbText
 10
15.417313
 20
-77.176063
 30
0.0
 40
6.0
  1
BU254R
100
AcDbText
  0
DIMENSION
  5
10B
100
AcDbEntity
  8
寸法
  6
CONTINUOUS
100
AcDbDimension
  2
*D1
 10
110.0
 20
-43.941082
 30
0.0
 11
107.5
 21
-53.441082
 31
0.0
 70
    32
  3
STANDARD
100
AcDbAlignedDimension
 13
103.35245
 23
-37.961083
 33
0.0
 14
102.276254
 24
-43.941082
 34
0.0
 50
90.0
100
AcDbRotatedDimension
  0
DIMENSION
  5
127
100
AcDbEntity
  8
寸法
  6
CONTINUOUS
100
AcDbDimension
  2
*D2
 10
-10.0
 20
-44.008492
 30
0.0
 11
-12.5
 21
-38.008492
 31
0.0
 70
    32
  3
STANDARD
100
AcDbAlignedDimension
 13
3.008521
 23
-32.008492
 33
0.0
 14
4.269772
 24
-44.008492
 34
0.0
 50
90.0
100
AcDbRotatedDimension
  0
DIMENSION
  5
134
100
AcDbEntity
  8
寸法
  6
CONTINUOUS
100
AcDbDimension
  2
*D3
 10
33.258521
 20
-60.0
 30
0.0
 11
25.258521
 21
-57.5
 31
0.0
 70
    32
  3
STANDARD
100
AcDbAlignedDimension
 13
36.758521
 23
-49.56847
 33
0.0
 14
33.258521
 24
-49.56847
 34
0.0
100
AcDbRotatedDimension
  0
DIMENSION
  5
143
100
AcDbEntity
  8
寸法
  6
CONTINUOUS
100
AcDbDimension
  2
*D4
 10
35.008521
 20
-20.0
 30
0.0
 11
45.008521
 21
-17.5
 31
0.0
 70
    32
  3
STANDARD
100
AcDbAlignedDimension
 13
55.008521
 23
-35.508492
 33
0.0
 14
35.008521
 24
-24.752123
 34
0.0
100
AcDbRotatedDimension
  0
DIMENSION
  5
150
100
AcDbEntity
  8
寸法
  6
CONTINUOUS
100
AcDbDimension
  2
*D5
 10
70.0
 20
-44.008492
 30
0.0
 11
67.5
 21
-37.258493
 31
0.0
 70
    32
  3
STANDARD
100
AcDbAlignedDimension
 13
47.008521
 23
-30.508493
 33
0.0
 14
47.008521
 24
-44.008492
 34
0.0
 50
90.0
100
AcDbRotatedDimension
  0
DIMENSION
  5
15D
100
AcDbEntity
  8
寸法
  6
CONTINUOUS
100
AcDbDimension
  2
*D6
 10
47.008521
 20
-30.508493
 30
0.0
 11
-16.776553
 21
-22.534359
 31
0.0
 70
    34
  3
STANDARD
100
AcDb2LineAngularDimension
 13
3.008521
 23
-31.70849
 33
0.0
 14
14.42574
 24
-30.508493
 34
0.0
 15
14.42574
 25
-30.508493
 35
0.0
 16
-19.907188
 26
-32.909283
 36
0.0
1001
ACAD
1000
DSTYLE
1002
{
1070
   271
1070
     0
1070
   271
1070
     0
1002
}
  0
LINE
  5
189
102
{ACAD_REACTORS
330
193
102
}
100
AcDbEntity
  8
寸法
  6
CONTINUOUS
 62
     1
100
AcDbLine
 10
106.720708
 20
-38.434461
 30
0.0
 11
120.959114
 21
-40.43554
 31
0.0
  0
LINE
  5
18A
102
{ACAD_REACTORS
330
193
102
}
100
AcDbEntity
  8
寸法
  6
CONTINUOUS
 62
     1
100
AcDbLine
 10
103.35245
 20
-37.961083
 30
0.0
 11
121.132145
 21
-37.961083
 31
0.0
  0
ARC
  5
18B
102
{ACAD_REACTORS
330
193
102
}
100
AcDbEntity
  8
寸法
  6
CONTINUOUS
 62
     1
100
AcDbCircle
 10
103.35245
 20
-37.961083
 30
0.0
 40
16.779695
100
AcDbArc
 50
338.309087
 51
351.999996
  0
LINE
  5
18C
102
{ACAD_REACTORS
330
193
102
}
100
AcDbEntity
  8
寸法
  6
CONTINUOUS
 62
     1
100
AcDbLine
 10
118.943995
 20
-44.162848
 30
0.0
 11
115.76544
 21
-52.153892
 31
0.0
  0
ARC
  5
18D
102
{ACAD_REACTORS
330
193
102
}
100
AcDbEntity
  8
寸法
  6
CONTINUOUS
 62
     1
100
AcDbCircle
 10
103.35245
 20
-37.961083
 30
0.0
 40
16.779695
100
AcDbArc
 50
338.333537
 51
345.166767
  0
ARC
  5
18E
100
AcDbEntity
  8
寸法
  6
CONTINUOUS
 62
     1
100
AcDbCircle
 10
103.35245
 20
-37.961083
 30
0.0
 40
16.779695
100
AcDbArc
 50
6.833229
 51
13.666458
  0
ARC
  5
18F
102
{ACAD_REACTORS
330
193
102
}
100
AcDbEntity
  8
寸法
  6
CONTINUOUS
 62
     1
100
AcDbCircle
 10
103.35245
 20
-37.961083
 30
0.0
 40
16.779695
100
AcDbArc
 50
351.999996
 51
0.0
  0
INSERT
  5
190
102
{ACAD_REACTORS
330
193
102
}
100
AcDbEntity
  8
寸法
  6
CONTINUOUS
 62
     1
100
AcDbBlockReference
  2
_OPEN30
 10
119.968846
 20
-40.296366
 30
0.0
 41
2.0
 42
2.0
 43
2.0
 50
78.583381
  0
INSERT
  5
191
102
{ACAD_REACTORS
330
193
102
}
100
AcDbEntity
  8
寸法
  6
CONTINUOUS
 62
     1
100
AcDbBlockReference
  2
_OPEN30
 10
120.132145
 20
-37.961083
 30
0.0
 41
2.0
 42
2.0
 43
2.0
 50
273.416615
  0
MTEXT
  5
192
102
{ACAD_REACTORS
330
193
102
}
100
AcDbEntity
  8
寸法
  6
CONTINUOUS
 62
     1
100
AcDbMText
 10
115.031739
 20
-47.234372
 30
0.0
 40
3.0
 41
0.0
 71
     5
 72
     1
  1
\A1;8°
 11
0.369599
 21
0.929191
 31
0.0
1001
ACAD
1000
MTEXTBEGIN
1070
    73
1070
     1
1070
    44
1040
1.0
1070
    74
1070
     0
1000
MTEXTEND
1000
MTEXTBEGIN
1070
    73
1070
     1
1070
    44
1040
1.0
1070
    74
1070
     0
1000
MTEXTEND
  0
DIMENSION
  5
194
100
AcDbEntity
  8
寸法
  6
CONTINUOUS
100
AcDbDimension
  2
*D7
 10
3.008521
 20
0.0
 30
0.0
 11
29.008521
 21
2.5
 31
0.0
 70
    32
  3
STANDARD
100
AcDbAlignedDimension
 13
55.008521
 23
20.409581
 33
0.0
 14
3.008521
 24
14.409581
 34
0.0
100
AcDbRotatedDimension
  0
DIMENSION
  5
1A1
100
AcDbEntity
  8
寸法
  6
CONTINUOUS
100
AcDbDimension
  2
*D8
 10
-10.0
 20
28.409581
 30
0.0
 11
-12.5
 21
21.409581
 31
0.0
 70
    32
  3
STANDARD
100
AcDbAlignedDimension
 13
3.008521
 23
14.409581
 33
0.0
 14
3.008521
 24
28.409581
 34
0.0
 50
90.0
100
AcDbRotatedDimension
  0
DIMENSION
  5
1AE
100
AcDbEntity
  8
寸法
  6
CONTINUOUS
100
AcDbDimension
  2
*D9
 10
47.008521
 20
10.0
 30
0.0
 11
51.008521
 21
12.5
 31
0.0
 70
    32
  3
STANDARD
100
AcDbAlignedDimension
 13
55.008521
 23
20.409581
 33
0.0
 14
47.008521
 24
16.886581
 34
0.0
100
AcDbRotatedDimension
1001
ACAD
1000
DSTYLE
1002
{
1070
   287
1070
     4
1070
   287
1070
     4
1070
   279
1070
     1
1002
}
  0
LINE
  5
1C4
100
AcDbEntity
  8
0
  6
CENTER
 62
     1
 48
0.5
100
AcDbLine
 10
-36.405649
 20
14.409581
 30
0.0
 11
-39.075925
 21
33.409581
 31
0.0
  0
ARC
  5
1C6
100
AcDbEntity
  8
0
  6
CENTER
 62
     1
 48
0.5
100
AcDbCircle
 10
-39.075925
 20
33.409581
 30
0.0
 40
19.0
100
AcDbArc
 50
180.0
 51
0.0
  0
LINE
  5
1C7
100
AcDbEntity
  8
0
  6
CONTINUOUS
100
AcDbLine
 10
-39.075925
 20
33.409581
 30
0.0
 11
-39.075925
 21
14.409581
 31
0.0
  0
DIMENSION
  5
1C8
100
AcDbEntity
  8
寸法
  6
CONTINUOUS
100
AcDbDimension
  2
*D10
 10
-39.075925
 20
14.409581
 30
0.0
 11
-45.205571
 21
5.099822
 31
0.0
 70
    34
  3
STANDARD
100
AcDb2LineAngularDimension
 13
-36.405649
 23
14.409581
 33
0.0
 14
-39.075925
 24
33.409581
 34
0.0
 15
-39.075925
 25
33.409581
 35
0.0
 16
-36.18102
 26
2.399606
 36
0.0
1001
ACAD
1000
DSTYLE
1002
{
1070
   271
1070
     0
1070
   271
1070
     0
1002
}
  0
DIMENSION
  5
1D9
100
AcDbEntity
  8
寸法
  6
CONTINUOUS
100
AcDbDimension
  2
*D11
 10
-39.075925
 20
33.409581
 30
0.0
 11
-66.247105
 21
26.200074
 31
0.0
 70
    36
  1
%%c38
  3
STANDARD
100
AcDbRadialDimension
 15
-56.934345
 25
26.922914
 35
0.0
 40
0.0
1001
ACAD
1000
DSTYLE
1002
{
1070
   288
1070
     1
1002
}
  0
DIMENSION
  5
1EA
100
AcDbEntity
  8
寸法
  6
CONTINUOUS
100
AcDbDimension
  2
*D12
 10
3.008521
 20
14.409581
 30
0.0
 11
-0.37949
 21
19.881772
 31
0.0
 70
   162
  3
STANDARD
100
AcDb2LineAngularDimension
 13
3.008521
 23
14.409581
 33
0.0
 14
-19.850721
 24
14.409581
 34
0.0
 15
3.008521
 25
28.162064
 35
0.0
 16
-2.565313
 26
17.627635
 36
0.0
1001
ACAD
1000
DSTYLE
1002
{
1070
   271
1070
     0
1070
   271
1070
     0
1002
}
  0
ENDSEC
  0
SECTION
  2
OBJECTS
  0
DICTIONARY
  5
C
100
AcDbDictionary
  3
ACAD_GROUP
350
D
  3
ACAD_LAYOUT
350
DC
  3
ACAD_MLINESTYLE
350
1B
  3
ACAD_PLOTSETTINGS
350
DD
  3
ACAD_PLOTSTYLENAME
350
DA
  3
ACDBHEADERROUNDTRIPXREC
350
26B
  0
DICTIONARY
  5
267
100
AcDbDictionary
280
     1
  3
ACAD_XREC_ROUNDTRIP
360
268
  0
DICTIONARY
  5
28E
100
AcDbDictionary
280
     1
  3
ACAD_XREC_ROUNDTRIP
360
28F
  0
DICTIONARY
  5
22C
100
AcDbDictionary
280
     1
  3
ACAD_LAYOUTSELFREF
360
28D
  0
DICTIONARY
  5
22A
100
AcDbDictionary
280
     1
  3
ACAD_LAYOUTSELFREF
360
28C
  0
DICTIONARY
  5
265
100
AcDbDictionary
280
     1
  3
ACAD_XREC_ROUNDTRIP
360
266
  0
DICTIONARY
  5
D
102
{ACAD_REACTORS
330
C
102
}
100
AcDbDictionary
  3
*A1
350
10A
  3
*A2
350
193
  0
DICTIONARY
  5
DC
102
{ACAD_XDICTIONARY
360
290
102
}
102
{ACAD_REACTORS
330
C
102
}
100
AcDbDictionary
  3
MODEL
350
DE
  3
ﾚｲｱｳﾄ1
350
DF
  0
DICTIONARY
  5
1B
102
{ACAD_REACTORS
330
C
102
}
100
AcDbDictionary
  3
STANDARD
350
1C
  0
DICTIONARY
  5
DD
102
{ACAD_REACTORS
330
C
102
}
100
AcDbDictionary
  0
ACAD_PROXY_OBJECT
  5
DA
102
{ACAD_REACTORS
330
C
102
}
100
AcDbProxyObject
 90
      499
 91
      500
 93
       86
310
405010041939BDC9B585B0
350
DB
340
DB
 94
        0
  0
DICTIONARY
  5
26B
102
{ACAD_REACTORS
330
C
102
}
100
AcDbDictionary
  3
CEPSNTYPE
350
275
  3
DIMSTYLEDATA
350
279
  3
FINGERPRINTGUID
350
276
  3
HYPERLINKBASE
350
26E
  3
INSUNITS
350
274
  3
LAYOUTDICT
350
270
  3
LWETCUNION
350
273
  3
PLOTSETDICT
350
271
  3
PLOTSTYLNAMDICT
350
272
  3
PSVPSCALE
350
278
  3
PUCSBASE
350
27C
  3
PUCSORGBACK
350
282
  3
PUCSORGBOTTOM
350
27E
  3
PUCSORGFRONT
350
281
  3
PUCSORGLEFT
350
27F
  3
PUCSORGRIGHT
350
280
  3
PUCSORGTOP
350
27D
  3
PUCSORTHOREF
350
27A
  3
PUCSORTHOVIEW
350
27B
  3
STYLESHEET
350
26F
  3
TSTACKALIGN
350
26C
  3
TSTACKSIZE
350
26D
  3
UCSBASE
350
285
  3
UCSORGBACK
350
28B
  3
UCSORGBOTTOM
350
287
  3
UCSORGFRONT
350
28A
  3
UCSORGLEFT
350
288
  3
UCSORGRIGHT
350
289
  3
UCSORGTOP
350
286
  3
UCSORTHOREF
350
283
  3
UCSORTHOVIEW
350
284
  3
VERSIONGUID
350
277
  0
XRECORD
  5
268
102
{ACAD_REACTORS
330
267
102
}
100
AcDbXrecord
102
EXTNAMES
  1
DEFPOINTS
  2
Defpoints
102
PLOTBIT
280
     0
  0
XRECORD
  5
28F
102
{ACAD_REACTORS
330
28E
102
}
100
AcDbXrecord
102
ACADR14ROUNDTRIP
1000
DSTYLE
1002
{
1070
   341
340
E4
1070
   342
340
E4
1002
}
  0
XRECORD
  5
28D
102
{ACAD_REACTORS
330
22C
102
}
100
AcDbXrecord
340
18
  0
XRECORD
  5
28C
102
{ACAD_REACTORS
330
22A
102
}
100
AcDbXrecord
340
15
  0
XRECORD
  5
266
102
{ACAD_REACTORS
330
265
102
}
100
AcDbXrecord
102
EXTNAMES
  1
_OPEN30
  2
_Open30
  0
GROUP
  5
10A
102
{ACAD_REACTORS
330
D
102
}
100
AcDbGroup
300

 70
     1
 71
     1
  0
GROUP
  5
193
102
{ACAD_REACTORS
330
D
102
}
100
AcDbGroup
300

 70
     1
 71
     1
340
18A
340
192
340
18C
340
189
340
190
340
18B
340
18D
340
18F
340
191
  0
DICTIONARY
  5
290
100
AcDbDictionary
280
     1
  3
ACAD_XREC_ROUNDTRIP
360
291
  0
ACAD_PROXY_OBJECT
  5
DE
102
{ACAD_REACTORS
330
DC
102
}
100
AcDbProxyObject
 90
      499
 91
      502
 93
      548
310
90E4550534F4E20504D2D32303030432C01AAAAAAAAA5A69054D6F64656C901A800000000000000000000000000000000000000000000A1000000000000008902A6A6AAAA0
330
18
330
0
340
0
340
0
 94
        0
  0
ACAD_PROXY_OBJECT
  5
DF
102
{ACAD_REACTORS
330
DC
102
}
100
AcDbProxyObject
 90
      499
 91
      502
 93
      964
310
90E4550534F4E20504D2D32303030432C00AAAAAA416AA59106906DAB2B1B3C43140501A800000000000000000000000000000000000000000000A1000000000000008902A6A6A10232D5E076BC5510408CB5781DAF154410232D5E076BC5510408CB5781DAF15C410232D5E076BC5710408CB5781DAF15C40
330
15
330
0
340
0
340
0
 94
        0
  0
MLINESTYLE
  5
1C
102
{ACAD_REACTORS
330
1B
102
}
100
AcDbMlineStyle
  2
STANDARD
 70
     0
  3

 62
   256
 51
90.0
 52
90.0
 71
     2
 49
0.5
 62
   256
  6
BYLAYER
 49
-0.5
 62
   256
  6
BYLAYER
  0
ACAD_PROXY_OBJECT
  5
DB
102
{ACAD_REACTORS
330
DA
102
}
100
AcDbProxyObject
 90
      499
 91
      501
 93
        0
 94
        0
  0
XRECORD
  5
275
102
{ACAD_REACTORS
330
26B
102
}
100
AcDbXrecord
 90
        0
  0
XRECORD
  5
279
102
{ACAD_REACTORS
330
26B
102
}
100
AcDbXrecord
1000
DSTYLE
1002
{
1070
   341
340
E4
1070
   342
340
E4
1002
}
  0
XRECORD
  5
276
102
{ACAD_REACTORS
330
26B
102
}
100
AcDbXrecord
  1
{2695F1A0-F2A0-4041-B891-858EC2E81A8D}
  0
XRECORD
  5
26E
102
{ACAD_REACTORS
330
26B
102
}
100
AcDbXrecord
  1

  0
XRECORD
  5
274
102
{ACAD_REACTORS
330
26B
102
}
100
AcDbXrecord
 90
        0
  0
XRECORD
  5
270
102
{ACAD_REACTORS
330
26B
102
}
100
AcDbXrecord
340
DC
  0
XRECORD
  5
273
102
{ACAD_REACTORS
330
26B
102
}
100
AcDbXrecord
 90
    14877
  0
XRECORD
  5
271
102
{ACAD_REACTORS
330
26B
102
}
100
AcDbXrecord
340
DD
  0
XRECORD
  5
272
102
{ACAD_REACTORS
330
26B
102
}
100
AcDbXrecord
340
DA
  0
XRECORD
  5
278
102
{ACAD_REACTORS
330
26B
102
}
100
AcDbXrecord
 40
0.0
  0
XRECORD
  5
27C
102
{ACAD_REACTORS
330
26B
102
}
100
AcDbXrecord
340
0
  0
XRECORD
  5
282
102
{ACAD_REACTORS
330
26B
102
}
100
AcDbXrecord
 10
0.0
 20
0.0
 30
0.0
  0
XRECORD
  5
27E
102
{ACAD_REACTORS
330
26B
102
}
100
AcDbXrecord
 10
0.0
 20
0.0
 30
0.0
  0
XRECORD
  5
281
102
{ACAD_REACTORS
330
26B
102
}
100
AcDbXrecord
 10
0.0
 20
0.0
 30
0.0
  0
XRECORD
  5
27F
102
{ACAD_REACTORS
330
26B
102
}
100
AcDbXrecord
 10
0.0
 20
0.0
 30
0.0
  0
XRECORD
  5
280
102
{ACAD_REACTORS
330
26B
102
}
100
AcDbXrecord
 10
0.0
 20
0.0
 30
0.0
  0
XRECORD
  5
27D
102
{ACAD_REACTORS
330
26B
102
}
100
AcDbXrecord
 10
0.0
 20
0.0
 30
0.0
  0
XRECORD
  5
27A
102
{ACAD_REACTORS
330
26B
102
}
100
AcDbXrecord
340
0
  0
XRECORD
  5
27B
102
{ACAD_REACTORS
330
26B
102
}
100
AcDbXrecord
 70
     0
  0
XRECORD
  5
26F
102
{ACAD_REACTORS
330
26B
102
}
100
AcDbXrecord
  1

  0
XRECORD
  5
26C
102
{ACAD_REACTORS
330
26B
102
}
100
AcDbXrecord
 90
        1
  0
XRECORD
  5
26D
102
{ACAD_REACTORS
330
26B
102
}
100
AcDbXrecord
 90
       70
  0
XRECORD
  5
285
102
{ACAD_REACTORS
330
26B
102
}
100
AcDbXrecord
340
0
  0
XRECORD
  5
28B
102
{ACAD_REACTORS
330
26B
102
}
100
AcDbXrecord
 10
0.0
 20
0.0
 30
0.0
  0
XRECORD
  5
287
102
{ACAD_REACTORS
330
26B
102
}
100
AcDbXrecord
 10
0.0
 20
0.0
 30
0.0
  0
XRECORD
  5
28A
102
{ACAD_REACTORS
330
26B
102
}
100
AcDbXrecord
 10
0.0
 20
0.0
 30
0.0
  0
XRECORD
  5
288
102
{ACAD_REACTORS
330
26B
102
}
100
AcDbXrecord
 10
0.0
 20
0.0
 30
0.0
  0
XRECORD
  5
289
102
{ACAD_REACTORS
330
26B
102
}
100
AcDbXrecord
 10
0.0
 20
0.0
 30
0.0
  0
XRECORD
  5
286
102
{ACAD_REACTORS
330
26B
102
}
100
AcDbXrecord
 10
0.0
 20
0.0
 30
0.0
  0
XRECORD
  5
283
102
{ACAD_REACTORS
330
26B
102
}
100
AcDbXrecord
340
0
  0
XRECORD
  5
284
102
{ACAD_REACTORS
330
26B
102
}
100
AcDbXrecord
 70
     0
  0
XRECORD
  5
277
102
{ACAD_REACTORS
330
26B
102
}
100
AcDbXrecord
  1
{29139B52-BB70-44B1-A6A9-1AF917255D61}
  0
XRECORD
  5
291
102
{ACAD_REACTORS
330
290
102
}
100
AcDbXrecord
102
EXTNAMES
  1
MODEL
  2
Model
  0
ENDSEC
  0
EOF
