  0
SECTION
  2
HEADER
  9
$ACADVER
  1
AC1014
  9
$ACADMAINTVER
 70
     0
  9
$DWGCODEPAGE
  3
ANSI_932
  9
$INSBASE
 10
0.0
 20
0.0
 30
0.0
  9
$EXTMIN
 10
-94.424372
 20
-92.101855
 30
0.0
  9
$EXTMAX
 10
133.17579
 20
30.770323
 30
0.0
  9
$LIMMIN
 10
-110.0
 20
-130.0
  9
$LIMMAX
 10
190.0
 20
70.0
  9
$ORTHOMODE
 70
     1
  9
$REGENMODE
 70
     1
  9
$FILLMODE
 70
     1
  9
$QTEXTMODE
 70
     0
  9
$MIRRTEXT
 70
     1
  9
$DRAGMODE
 70
     2
  9
$LTSCALE
 40
1.0
  9
$OSMODE
 70
    33
  9
$ATTMODE
 70
     1
  9
$TEXTSIZE
 40
0.2
  9
$TRACEWID
 40
0.05
  9
$TEXTSTYLE
  7
STANDARD
  9
$CLAYER
  8
寸法
  9
$CELTYPE
  6
CONTINUOUS
  9
$CECOLOR
 62
   256
  9
$CELTSCALE
 40
1.0
  9
$DELOBJ
 70
     1
  9
$DISPSILH
 70
     0
  9
$DIMSCALE
 40
1.0
  9
$DIMASZ
 40
2.0
  9
$DIMEXO
 40
1.0
  9
$DIMDLI
 40
10.0
  9
$DIMRND
 40
0.0
  9
$DIMDLE
 40
0.0
  9
$DIMEXE
 40
1.0
  9
$DIMTP
 40
0.0
  9
$DIMTM
 40
0.0
  9
$DIMTXT
 40
3.0
  9
$DIMCEN
 40
2.0
  9
$DIMTSZ
 40
0.0
  9
$DIMTOL
 70
     0
  9
$DIMLIM
 70
     0
  9
$DIMTIH
 70
     0
  9
$DIMTOH
 70
     0
  9
$DIMSE1
 70
     0
  9
$DIMSE2
 70
     0
  9
$DIMTAD
 70
     1
  9
$DIMZIN
 70
     8
  9
$DIMBLK
  1
OPEN30
  9
$DIMASO
 70
     1
  9
$DIMSHO
 70
     1
  9
$DIMPOST
  1

  9
$DIMAPOST
  1

  9
$DIMALT
 70
     0
  9
$DIMALTD
 70
     2
  9
$DIMALTF
 40
25.4
  9
$DIMLFAC
 40
1.0
  9
$DIMTOFL
 70
     1
  9
$DIMTVP
 40
0.0
  9
$DIMTIX
 70
     0
  9
$DIMSOXD
 70
     0
  9
$DIMSAH
 70
     0
  9
$DIMBLK1
  1

  9
$DIMBLK2
  1

  9
$DIMSTYLE
  2
STANDARD
  9
$DIMCLRD
 70
     1
  9
$DIMCLRE
 70
     1
  9
$DIMCLRT
 70
     1
  9
$DIMTFAC
 40
1.0
  9
$DIMGAP
 40
1.0
  9
$DIMJUST
 70
     0
  9
$DIMSD1
 70
     0
  9
$DIMSD2
 70
     0
  9
$DIMTOLJ
 70
     1
  9
$DIMTZIN
 70
     0
  9
$DIMALTZ
 70
     0
  9
$DIMALTTZ
 70
     0
  9
$DIMFIT
 70
     3
  9
$DIMUPT
 70
     0
  9
$DIMUNIT
 70
     2
  9
$DIMDEC
 70
     2
  9
$DIMTDEC
 70
     2
  9
$DIMALTU
 70
     2
  9
$DIMALTTD
 70
     2
  9
$DIMTXSTY
  7
STANDARD
  9
$DIMAUNIT
 70
     0
  9
$LUNITS
 70
     2
  9
$LUPREC
 70
     4
  9
$SKETCHINC
 40
0.1
  9
$FILLETRAD
 40
0.0
  9
$AUNITS
 70
     0
  9
$AUPREC
 70
     0
  9
$MENU
  1
acad
  9
$ELEVATION
 40
0.0
  9
$PELEVATION
 40
0.0
  9
$THICKNESS
 40
0.0
  9
$LIMCHECK
 70
     0
  9
$BLIPMODE
 70
     0
  9
$CHAMFERA
 40
0.0
  9
$CHAMFERB
 40
0.0
  9
$CHAMFERC
 40
0.0
  9
$CHAMFERD
 40
0.0
  9
$SKPOLY
 70
     0
  9
$TDCREATE
 40
2444972.375000000
  9
$TDUPDATE
 40
2451977.429409722
  9
$TDINDWG
 40
0.0075839120
  9
$TDUSRTIMER
 40
0.0075839120
  9
$USRTIMER
 70
     1
  9
$ANGBASE
 50
0.0
  9
$ANGDIR
 70
     0
  9
$PDMODE
 70
     0
  9
$PDSIZE
 40
0.0
  9
$PLINEWID
 40
0.0
  9
$COORDS
 70
     1
  9
$SPLFRAME
 70
     0
  9
$SPLINETYPE
 70
     6
  9
$SPLINESEGS
 70
     8
  9
$ATTDIA
 70
     0
  9
$ATTREQ
 70
     1
  9
$HANDLING
 70
     1
  9
$HANDSEED
  5
2A7
  9
$SURFTAB1
 70
     6
  9
$SURFTAB2
 70
     6
  9
$SURFTYPE
 70
     6
  9
$SURFU
 70
     6
  9
$SURFV
 70
     6
  9
$UCSNAME
  2

  9
$UCSORG
 10
0.0
 20
0.0
 30
0.0
  9
$UCSXDIR
 10
1.0
 20
0.0
 30
0.0
  9
$UCSYDIR
 10
0.0
 20
1.0
 30
0.0
  9
$PUCSNAME
  2

  9
$PUCSORG
 10
0.0
 20
0.0
 30
0.0
  9
$PUCSXDIR
 10
1.0
 20
0.0
 30
0.0
  9
$PUCSYDIR
 10
0.0
 20
1.0
 30
0.0
  9
$USERI1
 70
     0
  9
$USERI2
 70
     0
  9
$USERI3
 70
     0
  9
$USERI4
 70
     0
  9
$USERI5
 70
     0
  9
$USERR1
 40
0.0
  9
$USERR2
 40
0.0
  9
$USERR3
 40
0.0
  9
$USERR4
 40
0.0
  9
$USERR5
 40
0.0
  9
$WORLDVIEW
 70
     1
  9
$SHADEDGE
 70
     3
  9
$SHADEDIF
 70
    70
  9
$TILEMODE
 70
     1
  9
$MAXACTVP
 70
    48
  9
$PINSBASE
 10
0.0
 20
0.0
 30
0.0
  9
$PLIMCHECK
 70
     0
  9
$PEXTMIN
 10
1.000000E+20
 20
1.000000E+20
 30
1.000000E+20
  9
$PEXTMAX
 10
-1.000000E+20
 20
-1.000000E+20
 30
-1.000000E+20
  9
$PLIMMIN
 10
0.0
 20
0.0
  9
$PLIMMAX
 10
12.0
 20
9.0
  9
$UNITMODE
 70
     0
  9
$VISRETAIN
 70
     1
  9
$PLINEGEN
 70
     0
  9
$PSLTSCALE
 70
     1
  9
$TREEDEPTH
 70
  3020
  9
$PICKSTYLE
 70
     1
  9
$CMLSTYLE
  2
STANDARD
  9
$CMLJUST
 70
     0
  9
$CMLSCALE
 40
1.0
  9
$PROXYGRAPHICS
 70
     1
  9
$MEASUREMENT
 70
     0
  0
ENDSEC
  0
SECTION
  2
CLASSES
  0
CLASS
  1
ACDBDICTIONARYWDFLT
  2
AcDbDictionaryWithDefault
  3
AutoCAD 2000
 90
        0
280
     0
281
     0
  0
CLASS
  1
ACDBPLACEHOLDER
  2
AcDbPlaceHolder
  3
AutoCAD 2000
 90
        0
280
     0
281
     0
  0
CLASS
  1
LAYOUT
  2
AcDbLayout
  3
AutoCAD 2000
 90
        0
280
     0
281
     0
  0
CLASS
  1
LONG_TRANSACTION
  2
AcDbLongTransaction
  3
AutoCAD 2000
 90
        0
280
     0
281
     0
  0
CLASS
  1
LWPOLYLINE
  2
AcDbPolyline
  3
"AutoCAD"
 90
        0
280
     0
281
     1
  0
CLASS
  1
HATCH
  2
AcDbHatch
  3
"ACAD_SEDONA"
 90
        0
280
     0
281
     1
  0
CLASS
  1
XRECORD
  2
AcDbXrecord
  3
"<Built In>"
 90
        0
280
     0
281
     0
  0
CLASS
  1
LONG_TRANSACTION
  2
AcDbLongTransaction
  3
AutoCAD 2000
 90
        0
280
     0
281
     0
  0
CLASS
  1
LWPOLYLINE
  2
AcDbPolyline
  3
"AutoCAD"
 90
        0
280
     0
281
     1
  0
CLASS
  1
HATCH
  2
AcDbHatch
  3
"ACAD_SEDONA"
 90
        0
280
     0
281
     1
  0
CLASS
  1
XRECORD
  2
AcDbXrecord
  3
"<Built In>"
 90
        0
280
     0
281
     0
  0
ENDSEC
  0
SECTION
  2
TABLES
  0
TABLE
  2
VPORT
  5
8
100
AcDbSymbolTable
 70
     2
  0
VPORT
  5
2A6
100
AcDbSymbolTableRecord
100
AcDbViewportTableRecord
  2
*ACTIVE
 70
     0
 10
0.0
 20
0.0
 11
1.0
 21
1.0
 12
20.123772
 22
-44.375561
 13
0.0
 23
0.0
 14
10.0
 24
10.0
 15
10.0
 25
10.0
 16
0.0
 26
0.0
 36
1.0
 17
0.0
 27
0.0
 37
0.0
 40
245.271904
 41
1.710425
 42
50.0
 43
0.0
 44
0.0
 50
0.0
 51
0.0
 71
     0
 72
   100
 73
     1
 74
     1
 75
     0
 76
     0
 77
     0
 78
     0
  0
ENDTAB
  0
TABLE
  2
LTYPE
  5
5
100
AcDbSymbolTable
 70
     5
  0
LTYPE
  5
12
100
AcDbSymbolTableRecord
100
AcDbLinetypeTableRecord
  2
BYBLOCK
 70
     0
  3

 72
    65
 73
     0
 40
0.0
  0
LTYPE
  5
13
100
AcDbSymbolTableRecord
100
AcDbLinetypeTableRecord
  2
BYLAYER
 70
     0
  3

 72
    65
 73
     0
 40
0.0
  0
LTYPE
  5
14
100
AcDbSymbolTableRecord
100
AcDbLinetypeTableRecord
  2
CONTINUOUS
 70
     0
  3
Solid line
 72
    65
 73
     0
 40
0.0
  0
LTYPE
  5
1F
100
AcDbSymbolTableRecord
100
AcDbLinetypeTableRecord
  2
DASHED
 70
     0
  3
__ __ __ __ __ __ __ __ __ __ __ __ __ __ __
 72
    65
 73
     2
 40
3.5
 49
2.0
 74
     0
 49
-1.5
 74
     0
  0
LTYPE
  5
20
100
AcDbSymbolTableRecord
100
AcDbLinetypeTableRecord
  2
CENTER
 70
     0
  3
____ _ ____ _ ____ _ ____ _ ____ _ ____ _ ____
 72
    65
 73
     4
 40
17.5
 49
13.0
 74
     0
 49
-1.5
 74
     0
 49
1.5
 74
     0
 49
-1.5
 74
     0
  0
LTYPE
  5
21
100
AcDbSymbolTableRecord
100
AcDbLinetypeTableRecord
  2
PHANTOM
 70
     0
  3
_____ _ _ _____ _ _ _____ _ _ _____ _ _ ____  
 72
    65
 73
     6
 40
15.5
 49
8.0
 74
     0
 49
-1.5
 74
     0
 49
1.5
 74
     0
 49
-1.5
 74
     0
 49
1.5
 74
     0
 49
-1.5
 74
     0
  0
LTYPE
  5
22
100
AcDbSymbolTableRecord
100
AcDbLinetypeTableRecord
  2
DOT
 70
     0
  3
. . . . . . . . . . . . . . . . . . . . . . . .
 72
    65
 73
     2
 40
0.25
 49
0.0
 74
     0
 49
-0.25
 74
     0
  0
ENDTAB
  0
TABLE
  2
LAYER
  5
2
100
AcDbSymbolTable
 70
     3
  0
LAYER
  5
E
100
AcDbSymbolTableRecord
100
AcDbLayerTableRecord
  2
0
 70
     0
 62
     7
  6
CONTINUOUS
  0
LAYER
  5
E6
100
AcDbSymbolTableRecord
100
AcDbLayerTableRecord
  2
寸法
 70
     0
 62
     1
  6
CONTINUOUS
  0
LAYER
  5
F0
102
{ACAD_XDICTIONARY
360
246
102
}
100
AcDbSymbolTableRecord
100
AcDbLayerTableRecord
  2
DEFPOINTS
 70
     0
 62
     7
  6
CONTINUOUS
  0
ENDTAB
  0
TABLE
  2
STYLE
  5
3
100
AcDbSymbolTable
 70
     1
  0
STYLE
  5
F
100
AcDbSymbolTableRecord
100
AcDbTextStyleTableRecord
  2
STANDARD
 70
     0
 40
0.0
 41
1.0
 50
0.0
 71
     0
 42
0.2
  3
txt
  4
BIGFONT
  0
ENDTAB
  0
TABLE
  2
VIEW
  5
6
100
AcDbSymbolTable
 70
     0
  0
ENDTAB
  0
TABLE
  2
UCS
  5
7
100
AcDbSymbolTable
 70
     0
  0
ENDTAB
  0
TABLE
  2
APPID
  5
9
100
AcDbSymbolTable
 70
     1
  0
APPID
  5
10
100
AcDbSymbolTableRecord
100
AcDbRegAppTableRecord
  2
ACAD
 70
     0
  0
ENDTAB
  0
TABLE
  2
DIMSTYLE
  5
A
100
AcDbSymbolTable
 70
     1
  0
DIMSTYLE
105
D8
102
{ACAD_XDICTIONARY
360
26D
102
}
102
{ACAD_REACTORS
330
10E
330
11C
330
129
330
138
330
145
330
152
330
163
330
170
330
186
330
194
330
1C2
330
1D3
102
}
100
AcDbSymbolTableRecord
100
AcDbDimStyleTableRecord
  2
STANDARD
 70
     0
  3

  4

  5
OPEN30
  6

  7

 40
1.0
 41
2.0
 42
1.0
 43
10.0
 44
1.0
 45
0.0
 46
0.0
 47
0.0
 48
0.0
140
3.0
141
2.0
142
0.0
143
25.4
144
1.0
145
0.0
146
1.0
147
1.0
 71
     0
 72
     0
 73
     0
 74
     0
 75
     0
 76
     0
 77
     1
 78
     8
170
     0
171
     2
172
     1
173
     0
174
     0
175
     0
176
     1
177
     1
178
     1
270
     2
271
     2
272
     2
273
     2
274
     2
340
F
275
     0
280
     0
281
     0
282
     0
283
     1
284
     0
285
     0
286
     0
287
     3
288
     0
  0
ENDTAB
  0
TABLE
  2
BLOCK_RECORD
  5
1
100
AcDbSymbolTable
 70
    13
  0
BLOCK_RECORD
  5
18
102
{ACAD_XDICTIONARY
360
20D
102
}
100
AcDbSymbolTableRecord
100
AcDbBlockTableRecord
  2
*MODEL_SPACE
  0
BLOCK_RECORD
  5
15
102
{ACAD_XDICTIONARY
360
20B
102
}
100
AcDbSymbolTableRecord
100
AcDbBlockTableRecord
  2
*PAPER_SPACE
  0
BLOCK_RECORD
  5
E7
102
{ACAD_XDICTIONARY
360
244
102
}
100
AcDbSymbolTableRecord
100
AcDbBlockTableRecord
  2
_OPEN30
  0
BLOCK_RECORD
  5
10F
100
AcDbSymbolTableRecord
100
AcDbBlockTableRecord
  2
*D1
  0
BLOCK_RECORD
  5
11D
100
AcDbSymbolTableRecord
100
AcDbBlockTableRecord
  2
*D2
  0
BLOCK_RECORD
  5
12A
100
AcDbSymbolTableRecord
100
AcDbBlockTableRecord
  2
*D3
  0
BLOCK_RECORD
  5
139
100
AcDbSymbolTableRecord
100
AcDbBlockTableRecord
  2
*D4
  0
BLOCK_RECORD
  5
146
100
AcDbSymbolTableRecord
100
AcDbBlockTableRecord
  2
*D5
  0
BLOCK_RECORD
  5
153
100
AcDbSymbolTableRecord
100
AcDbBlockTableRecord
  2
*D6
  0
BLOCK_RECORD
  5
164
100
AcDbSymbolTableRecord
100
AcDbBlockTableRecord
  2
*D7
  0
BLOCK_RECORD
  5
171
100
AcDbSymbolTableRecord
100
AcDbBlockTableRecord
  2
*D8
  0
BLOCK_RECORD
  5
187
100
AcDbSymbolTableRecord
100
AcDbBlockTableRecord
  2
*D9
  0
BLOCK_RECORD
  5
195
100
AcDbSymbolTableRecord
100
AcDbBlockTableRecord
  2
*D10
  0
BLOCK_RECORD
  5
1C3
100
AcDbSymbolTableRecord
100
AcDbBlockTableRecord
  2
*D11
  0
BLOCK_RECORD
  5
1D4
100
AcDbSymbolTableRecord
100
AcDbBlockTableRecord
  2
*D12
  0
ENDTAB
  0
ENDSEC
  0
SECTION
  2
BLOCKS
  0
BLOCK
  5
19
100
AcDbEntity
  8
0
100
AcDbBlockBegin
  2
*MODEL_SPACE
 70
     0
 10
0.0
 20
0.0
 30
0.0
  3
*MODEL_SPACE
  1

  0
ENDBLK
  5
1A
100
AcDbEntity
  8
0
100
AcDbBlockEnd
  0
BLOCK
  5
16
100
AcDbEntity
 67
     1
  8
0
100
AcDbBlockBegin
  2
*PAPER_SPACE
 70
     0
 10
0.0
 20
0.0
 30
0.0
  3
*PAPER_SPACE
  1

  0
ENDBLK
  5
17
100
AcDbEntity
 67
     1
  8
0
100
AcDbBlockEnd
  0
BLOCK
  5
EB
100
AcDbEntity
  8
0
100
AcDbBlockBegin
  2
_OPEN30
 70
     0
 10
0.0
 20
0.0
 30
0.0
  3
_OPEN30
  1

  0
LINE
  5
E8
100
AcDbEntity
  8
0
  6
BYBLOCK
 62
     0
100
AcDbLine
 10
-1.0
 20
0.267949
 30
0.0
 11
0.0
 21
0.0
 31
0.0
1001
ACAD
1000
RTLwPs
1070
   158
  0
LINE
  5
E9
100
AcDbEntity
  8
0
  6
BYBLOCK
 62
     0
100
AcDbLine
 10
0.0
 20
0.0
 30
0.0
 11
-1.0
 21
-0.267949
 31
0.0
1001
ACAD
1000
RTLwPs
1070
   158
  0
LINE
  5
EA
100
AcDbEntity
  8
0
  6
BYBLOCK
 62
     0
100
AcDbLine
 10
0.0
 20
0.0
 30
0.0
 11
-1.0
 21
0.0
 31
0.0
1001
ACAD
1000
RTLwPs
1070
   158
  0
ENDBLK
  5
EC
100
AcDbEntity
  8
0
100
AcDbBlockEnd
  0
BLOCK
  5
11A
100
AcDbEntity
  8
0
100
AcDbBlockBegin
  2
*D1
 70
     1
 10
0.0
 20
0.0
 30
0.0
  3
*D1
  1

  0
LINE
  5
110
100
AcDbEntity
  8
寸法
  6
CONTINUOUS
 62
     1
100
AcDbLine
 10
114.689366
 20
-50.745782
 30
0.0
 11
121.0
 21
-50.745782
 31
0.0
1001
ACAD
1000
RTLwPs
1070
   158
  0
LINE
  5
111
100
AcDbEntity
  8
寸法
  6
CONTINUOUS
 62
     1
100
AcDbLine
 10
113.089024
 20
-59.20578
 30
0.0
 11
121.0
 21
-59.20578
 31
0.0
1001
ACAD
1000
RTLwPs
1070
   158
  0
LINE
  5
112
100
AcDbEntity
  8
寸法
  6
CONTINUOUS
 62
     1
100
AcDbLine
 10
120.0
 20
-52.745782
 30
0.0
 11
120.0
 21
-57.20578
 31
0.0
1001
ACAD
1000
RTLwPs
1070
   158
  0
LINE
  5
113
100
AcDbEntity
  8
寸法
  6
CONTINUOUS
 62
     1
100
AcDbLine
 10
120.0
 20
-59.20578
 30
0.0
 11
120.0
 21
-72.20578
 31
0.0
1001
ACAD
1000
RTLwPs
1070
   158
  0
INSERT
  5
114
100
AcDbEntity
  8
寸法
  6
CONTINUOUS
 62
     1
100
AcDbBlockReference
  2
_OPEN30
 10
120.0
 20
-50.745782
 30
0.0
 41
2.0
 42
2.0
 43
2.0
 50
90.0
1001
ACAD
1000
RTLwPs
1070
   158
  0
INSERT
  5
115
100
AcDbEntity
  8
寸法
  6
CONTINUOUS
 62
     1
100
AcDbBlockReference
  2
_OPEN30
 10
120.0
 20
-59.20578
 30
0.0
 41
2.0
 42
2.0
 43
2.0
 50
270.0
1001
ACAD
1000
RTLwPs
1070
   158
  0
MTEXT
  5
116
100
AcDbEntity
  8
寸法
  6
CONTINUOUS
 62
     1
100
AcDbMText
 10
117.5
 20
-66.70578
 30
0.0
 40
3.0
 41
0.0
 71
     5
 72
     1
  1
\A1;8.46
 11
0.0
 21
1.0
 31
0.0
1001
ACAD
1000
MTEXTBEGIN
1070
    73
1070
     1
1070
    44
1040
1.0
1070
    74
1070
     0
1000
MTEXTEND
1000
MTEXTBEGIN
1070
    73
1070
     1
1070
    44
1040
1.0
1070
    74
1070
     0
1000
MTEXTEND
  0
POINT
  5
117
100
AcDbEntity
  8
DEFPOINTS
  6
CONTINUOUS
 62
     0
100
AcDbPoint
 10
113.689366
 20
-50.745782
 30
0.0
  0
POINT
  5
118
100
AcDbEntity
  8
DEFPOINTS
  6
CONTINUOUS
 62
     0
100
AcDbPoint
 10
112.089024
 20
-59.20578
 30
0.0
  0
POINT
  5
119
100
AcDbEntity
  8
DEFPOINTS
  6
CONTINUOUS
 62
     0
100
AcDbPoint
 10
120.0
 20
-59.20578
 30
0.0
  0
ENDBLK
  5
11B
100
AcDbEntity
  8
0
100
AcDbBlockEnd
  0
BLOCK
  5
127
100
AcDbEntity
  8
0
100
AcDbBlockBegin
  2
*D2
 70
     1
 10
0.0
 20
0.0
 30
0.0
  3
*D2
  1

  0
LINE
  5
11E
100
AcDbEntity
  8
寸法
  6
CONTINUOUS
 62
     1
100
AcDbLine
 10
53.80396
 20
-47.705814
 30
0.0
 11
53.80396
 21
-29.0
 31
0.0
1001
ACAD
1000
RTLwPs
1070
   158
  0
LINE
  5
11F
100
AcDbEntity
  8
寸法
  6
CONTINUOUS
 62
     1
100
AcDbLine
 10
31.803956
 20
-37.205811
 30
0.0
 11
31.803956
 21
-29.0
 31
0.0
1001
ACAD
1000
RTLwPs
1070
   158
  0
LINE
  5
120
100
AcDbEntity
  8
寸法
  6
CONTINUOUS
 62
     1
100
AcDbLine
 10
51.80396
 20
-30.0
 30
0.0
 11
33.803956
 21
-30.0
 31
0.0
1001
ACAD
1000
RTLwPs
1070
   158
  0
INSERT
  5
121
100
AcDbEntity
  8
寸法
  6
CONTINUOUS
 62
     1
100
AcDbBlockReference
  2
_OPEN30
 10
53.80396
 20
-30.0
 30
0.0
 41
2.0
 42
2.0
 43
2.0
1001
ACAD
1000
RTLwPs
1070
   158
  0
INSERT
  5
122
100
AcDbEntity
  8
寸法
  6
CONTINUOUS
 62
     1
100
AcDbBlockReference
  2
_OPEN30
 10
31.803956
 20
-30.0
 30
0.0
 41
2.0
 42
2.0
 43
2.0
 50
180.0
1001
ACAD
1000
RTLwPs
1070
   158
  0
MTEXT
  5
123
100
AcDbEntity
  8
寸法
  6
CONTINUOUS
 62
     1
100
AcDbMText
 10
42.803958
 20
-27.5
 30
0.0
 40
3.0
 41
0.0
 71
     5
 72
     1
  1
\A1;22
1001
ACAD
1000
MTEXTBEGIN
1070
    73
1070
     1
1070
    44
1040
1.0
1070
    74
1070
     0
1000
MTEXTEND
1000
MTEXTBEGIN
1070
    73
1070
     1
1070
    44
1040
1.0
1070
    74
1070
     0
1000
MTEXTEND
  0
POINT
  5
124
100
AcDbEntity
  8
DEFPOINTS
  6
CONTINUOUS
 62
     0
100
AcDbPoint
 10
53.80396
 20
-48.705814
 30
0.0
  0
POINT
  5
125
100
AcDbEntity
  8
DEFPOINTS
  6
CONTINUOUS
 62
     0
100
AcDbPoint
 10
31.803956
 20
-38.205811
 30
0.0
  0
POINT
  5
126
100
AcDbEntity
  8
DEFPOINTS
  6
CONTINUOUS
 62
     0
100
AcDbPoint
 10
31.803956
 20
-30.0
 30
0.0
  0
ENDBLK
  5
128
100
AcDbEntity
  8
0
100
AcDbBlockEnd
  0
BLOCK
  5
136
100
AcDbEntity
  8
0
100
AcDbBlockBegin
  2
*D3
 70
     1
 10
0.0
 20
0.0
 30
0.0
  3
*D3
  1

  0
LINE
  5
12B
100
AcDbEntity
  8
寸法
  6
CONTINUOUS
 62
     1
100
AcDbLine
 10
33.553956
 20
-63.205811
 30
0.0
 11
33.553956
 21
-71.0
 31
0.0
1001
ACAD
1000
RTLwPs
1070
   158
  0
LINE
  5
12C
100
AcDbEntity
  8
寸法
  6
CONTINUOUS
 62
     1
100
AcDbLine
 10
30.053956
 20
-63.205811
 30
0.0
 11
30.053956
 21
-71.0
 31
0.0
1001
ACAD
1000
RTLwPs
1070
   158
  0
LINE
  5
12D
100
AcDbEntity
  8
寸法
  6
CONTINUOUS
 62
     1
100
AcDbLine
 10
35.553956
 20
-70.0
 30
0.0
 11
37.553956
 21
-70.0
 31
0.0
1001
ACAD
1000
RTLwPs
1070
   158
  0
LINE
  5
12E
100
AcDbEntity
  8
寸法
  6
CONTINUOUS
 62
     1
100
AcDbLine
 10
28.053956
 20
-70.0
 30
0.0
 11
18.053956
 21
-70.0
 31
0.0
1001
ACAD
1000
RTLwPs
1070
   158
  0
LINE
  5
12F
100
AcDbEntity
  8
寸法
  6
CONTINUOUS
 62
     1
100
AcDbLine
 10
33.553956
 20
-70.0
 30
0.0
 11
30.053956
 21
-70.0
 31
0.0
1001
ACAD
1000
RTLwPs
1070
   158
  0
INSERT
  5
130
100
AcDbEntity
  8
寸法
  6
CONTINUOUS
 62
     1
100
AcDbBlockReference
  2
_OPEN30
 10
33.553956
 20
-70.0
 30
0.0
 41
2.0
 42
2.0
 43
2.0
 50
180.0
1001
ACAD
1000
RTLwPs
1070
   158
  0
INSERT
  5
131
100
AcDbEntity
  8
寸法
  6
CONTINUOUS
 62
     1
100
AcDbBlockReference
  2
_OPEN30
 10
30.053956
 20
-70.0
 30
0.0
 41
2.0
 42
2.0
 43
2.0
1001
ACAD
1000
RTLwPs
1070
   158
  0
MTEXT
  5
132
100
AcDbEntity
  8
寸法
  6
CONTINUOUS
 62
     1
100
AcDbMText
 10
22.053956
 20
-67.5
 30
0.0
 40
3.0
 41
0.0
 71
     5
 72
     1
  1
\A1;3.5
1001
ACAD
1000
MTEXTBEGIN
1070
    73
1070
     1
1070
    44
1040
1.0
1070
    74
1070
     0
1000
MTEXTEND
1000
MTEXTBEGIN
1070
    73
1070
     1
1070
    44
1040
1.0
1070
    74
1070
     0
1000
MTEXTEND
  0
POINT
  5
133
100
AcDbEntity
  8
DEFPOINTS
  6
CONTINUOUS
 62
     0
100
AcDbPoint
 10
33.553956
 20
-62.205811
 30
0.0
  0
POINT
  5
134
100
AcDbEntity
  8
DEFPOINTS
  6
CONTINUOUS
 62
     0
100
AcDbPoint
 10
30.053956
 20
-62.205811
 30
0.0
  0
POINT
  5
135
100
AcDbEntity
  8
DEFPOINTS
  6
CONTINUOUS
 62
     0
100
AcDbPoint
 10
30.053956
 20
-70.0
 30
0.0
  0
ENDBLK
  5
137
100
AcDbEntity
  8
0
100
AcDbBlockEnd
  0
BLOCK
  5
143
100
AcDbEntity
  8
0
100
AcDbBlockBegin
  2
*D4
 70
     1
 10
0.0
 20
0.0
 30
0.0
  3
*D4
  1

  0
LINE
  5
13A
100
AcDbEntity
  8
寸法
  6
CONTINUOUS
 62
     1
100
AcDbLine
 10
46.803956
 20
-41.205811
 30
0.0
 11
71.0
 21
-41.205811
 31
0.0
1001
ACAD
1000
RTLwPs
1070
   158
  0
LINE
  5
13B
100
AcDbEntity
  8
寸法
  6
CONTINUOUS
 62
     1
100
AcDbLine
 10
46.803956
 20
-59.205811
 30
0.0
 11
71.0
 21
-59.205811
 31
0.0
1001
ACAD
1000
RTLwPs
1070
   158
  0
LINE
  5
13C
100
AcDbEntity
  8
寸法
  6
CONTINUOUS
 62
     1
100
AcDbLine
 10
70.0
 20
-43.205811
 30
0.0
 11
70.0
 21
-57.205811
 31
0.0
1001
ACAD
1000
RTLwPs
1070
   158
  0
INSERT
  5
13D
100
AcDbEntity
  8
寸法
  6
CONTINUOUS
 62
     1
100
AcDbBlockReference
  2
_OPEN30
 10
70.0
 20
-41.205811
 30
0.0
 41
2.0
 42
2.0
 43
2.0
 50
90.0
1001
ACAD
1000
RTLwPs
1070
   158
  0
INSERT
  5
13E
100
AcDbEntity
  8
寸法
  6
CONTINUOUS
 62
     1
100
AcDbBlockReference
  2
_OPEN30
 10
70.0
 20
-59.205811
 30
0.0
 41
2.0
 42
2.0
 43
2.0
 50
270.0
1001
ACAD
1000
RTLwPs
1070
   158
  0
MTEXT
  5
13F
100
AcDbEntity
  8
寸法
  6
CONTINUOUS
 62
     1
100
AcDbMText
 10
67.5
 20
-50.205811
 30
0.0
 40
3.0
 41
0.0
 71
     5
 72
     1
  1
\A1;18
 11
0.0
 21
1.0
 31
0.0
1001
ACAD
1000
MTEXTBEGIN
1070
    73
1070
     1
1070
    44
1040
1.0
1070
    74
1070
     0
1000
MTEXTEND
1000
MTEXTBEGIN
1070
    73
1070
     1
1070
    44
1040
1.0
1070
    74
1070
     0
1000
MTEXTEND
  0
POINT
  5
140
100
AcDbEntity
  8
DEFPOINTS
  6
CONTINUOUS
 62
     0
100
AcDbPoint
 10
45.803956
 20
-41.205811
 30
0.0
  0
POINT
  5
141
100
AcDbEntity
  8
DEFPOINTS
  6
CONTINUOUS
 62
     0
100
AcDbPoint
 10
45.803956
 20
-59.205811
 30
0.0
  0
POINT
  5
142
100
AcDbEntity
  8
DEFPOINTS
  6
CONTINUOUS
 62
     0
100
AcDbPoint
 10
70.0
 20
-59.205811
 30
0.0
  0
ENDBLK
  5
144
100
AcDbEntity
  8
0
100
AcDbBlockEnd
  0
BLOCK
  5
150
100
AcDbEntity
  8
0
100
AcDbBlockBegin
  2
*D5
 70
     1
 10
0.0
 20
0.0
 30
0.0
  3
*D5
  1

  0
LINE
  5
147
100
AcDbEntity
  8
寸法
  6
CONTINUOUS
 62
     1
100
AcDbLine
 10
-7.164893
 20
-43.202534
 30
0.0
 11
-21.0
 21
-43.202534
 31
0.0
1001
ACAD
1000
RTLwPs
1070
   158
  0
LINE
  5
148
100
AcDbEntity
  8
寸法
  6
CONTINUOUS
 62
     1
100
AcDbLine
 10
-5.514366
 20
-59.20578
 30
0.0
 11
-21.0
 21
-59.20578
 31
0.0
1001
ACAD
1000
RTLwPs
1070
   158
  0
LINE
  5
149
100
AcDbEntity
  8
寸法
  6
CONTINUOUS
 62
     1
100
AcDbLine
 10
-20.0
 20
-45.202534
 30
0.0
 11
-20.0
 21
-57.20578
 31
0.0
1001
ACAD
1000
RTLwPs
1070
   158
  0
INSERT
  5
14A
100
AcDbEntity
  8
寸法
  6
CONTINUOUS
 62
     1
100
AcDbBlockReference
  2
_OPEN30
 10
-20.0
 20
-43.202534
 30
0.0
 41
2.0
 42
2.0
 43
2.0
 50
90.0
1001
ACAD
1000
RTLwPs
1070
   158
  0
INSERT
  5
14B
100
AcDbEntity
  8
寸法
  6
CONTINUOUS
 62
     1
100
AcDbBlockReference
  2
_OPEN30
 10
-20.0
 20
-59.20578
 30
0.0
 41
2.0
 42
2.0
 43
2.0
 50
270.0
1001
ACAD
1000
RTLwPs
1070
   158
  0
MTEXT
  5
14C
100
AcDbEntity
  8
寸法
  6
CONTINUOUS
 62
     1
100
AcDbMText
 10
-22.5
 20
-51.204157
 30
0.0
 40
3.0
 41
0.0
 71
     5
 72
     1
  1
\A1;16
 11
0.0
 21
1.0
 31
0.0
1001
ACAD
1000
MTEXTBEGIN
1070
    73
1070
     1
1070
    44
1040
1.0
1070
    74
1070
     0
1000
MTEXTEND
1000
MTEXTBEGIN
1070
    73
1070
     1
1070
    44
1040
1.0
1070
    74
1070
     0
1000
MTEXTEND
  0
POINT
  5
14D
100
AcDbEntity
  8
DEFPOINTS
  6
CONTINUOUS
 62
     0
100
AcDbPoint
 10
-6.164893
 20
-43.202534
 30
0.0
  0
POINT
  5
14E
100
AcDbEntity
  8
DEFPOINTS
  6
CONTINUOUS
 62
     0
100
AcDbPoint
 10
-4.514366
 20
-59.20578
 30
0.0
  0
POINT
  5
14F
100
AcDbEntity
  8
DEFPOINTS
  6
CONTINUOUS
 62
     0
100
AcDbPoint
 10
-20.0
 20
-59.20578
 30
0.0
  0
ENDBLK
  5
151
100
AcDbEntity
  8
0
100
AcDbBlockEnd
  0
BLOCK
  5
161
100
AcDbEntity
  8
0
100
AcDbBlockBegin
  2
*D6
 70
     1
 10
0.0
 20
0.0
 30
0.0
  3
*D6
  1

  0
LINE
  5
271
100
AcDbEntity
  8
寸法
  6
CONTINUOUS
 62
     1
100
AcDbLine
 10
8.978345
 20
-41.205811
 30
0.0
 11
-31.129563
 21
-41.205811
 31
0.0
  0
LINE
  5
272
100
AcDbEntity
  8
寸法
  6
CONTINUOUS
 62
     1
100
AcDbLine
 10
-7.190602
 20
-43.010339
 30
0.0
 11
-30.90437
 21
-45.502756
 31
0.0
  0
ARC
  5
273
100
AcDbEntity
  8
寸法
  6
CONTINUOUS
 62
     1
100
AcDbCircle
 10
9.978345
 20
-41.205811
 30
0.0
 40
40.107908
100
AcDbArc
 50
177.142622
 51
180.0
  0
LINE
  5
274
100
AcDbEntity
  8
寸法
  6
CONTINUOUS
 62
     1
100
AcDbLine
 10
-30.079697
 20
-39.206433
 30
0.0
 11
-29.650988
 21
-30.617125
 31
0.0
  0
ARC
  5
275
100
AcDbEntity
  8
寸法
  6
CONTINUOUS
 62
     1
100
AcDbCircle
 10
9.978345
 20
-41.205811
 30
0.0
 40
40.107908
100
AcDbArc
 50
182.857378
 51
183.14262
  0
INSERT
  5
276
100
AcDbEntity
  8
寸法
  6
CONTINUOUS
 62
     1
100
AcDbBlockReference
  2
_OPEN30
 10
-30.129563
 20
-41.205811
 30
0.0
 41
2.0
 42
2.0
 43
2.0
 50
91.428689
  0
INSERT
  5
277
100
AcDbEntity
  8
寸法
  6
CONTINUOUS
 62
     1
100
AcDbBlockReference
  2
_OPEN30
 10
-29.909848
 20
-45.398228
 30
0.0
 41
2.0
 42
2.0
 43
2.0
 50
274.571309
  0
MTEXT
  5
278
100
AcDbEntity
  8
寸法
  6
CONTINUOUS
 62
     1
100
AcDbMText
 10
-27.368451
 20
-35.036404
 30
0.0
 40
3.0
 41
0.0
 71
     5
 72
     1
  1
\A1;6°
 11
-0.04985
 21
-0.998757
 31
0.0
  0
POINT
  5
279
100
AcDbEntity
  8
DEFPOINTS
  6
CONTINUOUS
 62
     0
100
AcDbPoint
 10
-30.031862
 20
-44.003596
 30
0.0
  0
POINT
  5
27A
100
AcDbEntity
  8
DEFPOINTS
  6
CONTINUOUS
 62
     0
100
AcDbPoint
 10
9.978345
 20
-41.205811
 30
0.0
  0
POINT
  5
27B
100
AcDbEntity
  8
DEFPOINTS
  6
CONTINUOUS
 62
     0
100
AcDbPoint
 10
-6.19608
 20
-42.905811
 30
0.0
  0
POINT
  5
27C
100
AcDbEntity
  8
DEFPOINTS
  6
CONTINUOUS
 62
     0
100
AcDbPoint
 10
9.978345
 20
-41.205811
 30
0.0
  0
POINT
  5
27D
100
AcDbEntity
  8
DEFPOINTS
  6
CONTINUOUS
 62
     0
100
AcDbPoint
 10
45.803956
 20
-41.205811
 30
0.0
  0
ENDBLK
  5
162
100
AcDbEntity
  8
0
100
AcDbBlockEnd
  0
BLOCK
  5
16E
100
AcDbEntity
  8
0
100
AcDbBlockBegin
  2
*D7
 70
     1
 10
0.0
 20
0.0
 30
0.0
  3
*D7
  1

  0
LINE
  5
165
100
AcDbEntity
  8
寸法
  6
CONTINUOUS
 62
     1
100
AcDbLine
 10
53.803941
 20
15.770231
 30
0.0
 11
53.803941
 21
-11.0
 31
0.0
1001
ACAD
1000
RTLwPs
1070
   158
  0
LINE
  5
166
100
AcDbEntity
  8
寸法
  6
CONTINUOUS
 62
     1
100
AcDbLine
 10
-6.195983
 20
5.770217
 30
0.0
 11
-6.195983
 21
-11.0
 31
0.0
1001
ACAD
1000
RTLwPs
1070
   158
  0
LINE
  5
167
100
AcDbEntity
  8
寸法
  6
CONTINUOUS
 62
     1
100
AcDbLine
 10
51.803941
 20
-10.0
 30
0.0
 11
-4.195983
 21
-10.0
 31
0.0
1001
ACAD
1000
RTLwPs
1070
   158
  0
INSERT
  5
168
100
AcDbEntity
  8
寸法
  6
CONTINUOUS
 62
     1
100
AcDbBlockReference
  2
_OPEN30
 10
53.803941
 20
-10.0
 30
0.0
 41
2.0
 42
2.0
 43
2.0
1001
ACAD
1000
RTLwPs
1070
   158
  0
INSERT
  5
169
100
AcDbEntity
  8
寸法
  6
CONTINUOUS
 62
     1
100
AcDbBlockReference
  2
_OPEN30
 10
-6.195983
 20
-10.0
 30
0.0
 41
2.0
 42
2.0
 43
2.0
 50
180.0
1001
ACAD
1000
RTLwPs
1070
   158
  0
MTEXT
  5
16A
100
AcDbEntity
  8
寸法
  6
CONTINUOUS
 62
     1
100
AcDbMText
 10
23.803979
 20
-7.5
 30
0.0
 40
3.0
 41
0.0
 71
     5
 72
     1
  1
\A1;60
1001
ACAD
1000
MTEXTBEGIN
1070
    73
1070
     1
1070
    44
1040
1.0
1070
    74
1070
     0
1000
MTEXTEND
1000
MTEXTBEGIN
1070
    73
1070
     1
1070
    44
1040
1.0
1070
    74
1070
     0
1000
MTEXTEND
  0
POINT
  5
16B
100
AcDbEntity
  8
DEFPOINTS
  6
CONTINUOUS
 62
     0
100
AcDbPoint
 10
53.803941
 20
16.770231
 30
0.0
  0
POINT
  5
16C
100
AcDbEntity
  8
DEFPOINTS
  6
CONTINUOUS
 62
     0
100
AcDbPoint
 10
-6.195983
 20
6.770217
 30
0.0
  0
POINT
  5
16D
100
AcDbEntity
  8
DEFPOINTS
  6
CONTINUOUS
 62
     0
100
AcDbPoint
 10
-6.195983
 20
-10.0
 30
0.0
  0
ENDBLK
  5
16F
100
AcDbEntity
  8
0
100
AcDbBlockEnd
  0
BLOCK
  5
17B
100
AcDbEntity
  8
0
100
AcDbBlockBegin
  2
*D8
 70
     1
 10
0.0
 20
0.0
 30
0.0
  3
*D8
  1

  0
LINE
  5
27E
100
AcDbEntity
  8
寸法
  6
CONTINUOUS
 62
     1
100
AcDbLine
 10
53.803941
 20
15.770231
 30
0.0
 11
53.803941
 21
-1.0
 31
0.0
  0
LINE
  5
27F
100
AcDbEntity
  8
寸法
  6
CONTINUOUS
 62
     1
100
AcDbLine
 10
45.803941
 20
9.053217
 30
0.0
 11
45.803941
 21
-1.0
 31
0.0
  0
LINE
  5
280
100
AcDbEntity
  8
寸法
  6
CONTINUOUS
 62
     1
100
AcDbLine
 10
51.803941
 20
0.0
 30
0.0
 11
47.803941
 21
0.0
 31
0.0
  0
INSERT
  5
281
100
AcDbEntity
  8
寸法
  6
CONTINUOUS
 62
     1
100
AcDbBlockReference
  2
_OPEN30
 10
53.803941
 20
0.0
 30
0.0
 41
2.0
 42
2.0
 43
2.0
  0
INSERT
  5
282
100
AcDbEntity
  8
寸法
  6
CONTINUOUS
 62
     1
100
AcDbBlockReference
  2
_OPEN30
 10
45.803941
 20
0.0
 30
0.0
 41
2.0
 42
2.0
 43
2.0
 50
180.0
  0
MTEXT
  5
283
100
AcDbEntity
  8
寸法
  6
CONTINUOUS
 62
     1
100
AcDbMText
 10
49.803941
 20
2.5
 30
0.0
 40
3.0
 41
0.0
 71
     5
 72
     1
  1
\A1;8
  0
POINT
  5
284
100
AcDbEntity
  8
DEFPOINTS
  6
CONTINUOUS
 62
     0
100
AcDbPoint
 10
53.803941
 20
16.770231
 30
0.0
  0
POINT
  5
285
100
AcDbEntity
  8
DEFPOINTS
  6
CONTINUOUS
 62
     0
100
AcDbPoint
 10
45.803941
 20
10.053217
 30
0.0
  0
POINT
  5
286
100
AcDbEntity
  8
DEFPOINTS
  6
CONTINUOUS
 62
     0
100
AcDbPoint
 10
45.803941
 20
0.0
 30
0.0
  0
ENDBLK
  5
17C
100
AcDbEntity
  8
0
100
AcDbBlockEnd
  0
BLOCK
  5
191
100
AcDbEntity
  8
0
100
AcDbBlockBegin
  2
*D9
 70
     1
 10
0.0
 20
0.0
 30
0.0
  3
*D9
  1

  0
LINE
  5
188
100
AcDbEntity
  8
寸法
  6
CONTINUOUS
 62
     1
100
AcDbLine
 10
-7.195983
 20
25.770217
 30
0.0
 11
-21.0
 21
25.770217
 31
0.0
1001
ACAD
1000
RTLwPs
1070
   158
  0
LINE
  5
189
100
AcDbEntity
  8
寸法
  6
CONTINUOUS
 62
     1
100
AcDbLine
 10
-7.195983
 20
6.770324
 30
0.0
 11
-21.0
 21
6.770324
 31
0.0
1001
ACAD
1000
RTLwPs
1070
   158
  0
LINE
  5
18A
100
AcDbEntity
  8
寸法
  6
CONTINUOUS
 62
     1
100
AcDbLine
 10
-20.0
 20
23.770217
 30
0.0
 11
-20.0
 21
8.770324
 31
0.0
1001
ACAD
1000
RTLwPs
1070
   158
  0
INSERT
  5
18B
100
AcDbEntity
  8
寸法
  6
CONTINUOUS
 62
     1
100
AcDbBlockReference
  2
_OPEN30
 10
-20.0
 20
25.770217
 30
0.0
 41
2.0
 42
2.0
 43
2.0
 50
90.0
1001
ACAD
1000
RTLwPs
1070
   158
  0
INSERT
  5
18C
100
AcDbEntity
  8
寸法
  6
CONTINUOUS
 62
     1
100
AcDbBlockReference
  2
_OPEN30
 10
-20.0
 20
6.770324
 30
0.0
 41
2.0
 42
2.0
 43
2.0
 50
270.0
1001
ACAD
1000
RTLwPs
1070
   158
  0
MTEXT
  5
18D
100
AcDbEntity
  8
寸法
  6
CONTINUOUS
 62
     1
100
AcDbMText
 10
-22.5
 20
16.27027
 30
0.0
 40
3.0
 41
0.0
 71
     5
 72
     1
  1
\A1;19
 11
0.0
 21
1.0
 31
0.0
1001
ACAD
1000
MTEXTBEGIN
1070
    73
1070
     1
1070
    44
1040
1.0
1070
    74
1070
     0
1000
MTEXTEND
1000
MTEXTBEGIN
1070
    73
1070
     1
1070
    44
1040
1.0
1070
    74
1070
     0
1000
MTEXTEND
  0
POINT
  5
18E
100
AcDbEntity
  8
DEFPOINTS
  6
CONTINUOUS
 62
     0
100
AcDbPoint
 10
-6.195983
 20
25.770217
 30
0.0
  0
POINT
  5
18F
100
AcDbEntity
  8
DEFPOINTS
  6
CONTINUOUS
 62
     0
100
AcDbPoint
 10
-6.195983
 20
6.770324
 30
0.0
  0
POINT
  5
190
100
AcDbEntity
  8
DEFPOINTS
  6
CONTINUOUS
 62
     0
100
AcDbPoint
 10
-20.0
 20
6.770324
 30
0.0
  0
ENDBLK
  5
192
100
AcDbEntity
  8
0
100
AcDbBlockEnd
  0
BLOCK
  5
1A1
100
AcDbEntity
  8
0
100
AcDbBlockBegin
  2
*D10
 70
     1
 10
0.0
 20
0.0
 30
0.0
  3
*D10
  1

  0
ARC
  5
287
100
AcDbEntity
  8
寸法
  6
CONTINUOUS
 62
     1
100
AcDbCircle
 10
-6.195983
 20
6.770324
 30
0.0
 40
6.189311
100
AcDbArc
 50
108.595941
 51
161.404058
  0
INSERT
  5
288
100
AcDbEntity
  8
寸法
  6
CONTINUOUS
 62
     1
100
AcDbBlockReference
  2
_OPEN30
 10
-6.195983
 20
12.959635
 30
0.0
 41
2.0
 42
2.0
 43
2.0
 50
9.29797
  0
INSERT
  5
289
100
AcDbEntity
  8
寸法
  6
CONTINUOUS
 62
     1
100
AcDbBlockReference
  2
_OPEN30
 10
-12.385294
 20
6.770324
 30
0.0
 41
2.0
 42
2.0
 43
2.0
 50
260.702029
  0
MTEXT
  5
28A
100
AcDbEntity
  8
寸法
  6
CONTINUOUS
 62
     1
100
AcDbMText
 10
-11.345774
 20
13.769165
 30
0.0
 40
3.0
 41
0.0
 71
     5
 72
     1
  1
\A1;90°
 11
0.805454
 21
0.592658
 31
0.0
  0
POINT
  5
28B
100
AcDbEntity
  8
DEFPOINTS
  6
CONTINUOUS
 62
     0
100
AcDbPoint
 10
-11.556084
 20
9.864979
 30
0.0
  0
POINT
  5
28C
100
AcDbEntity
  8
DEFPOINTS
  6
CONTINUOUS
 62
     0
100
AcDbPoint
 10
-6.195983
 20
25.770217
 30
0.0
  0
POINT
  5
28D
100
AcDbEntity
  8
DEFPOINTS
  6
CONTINUOUS
 62
     0
100
AcDbPoint
 10
-6.195983
 20
6.770324
 30
0.0
  0
POINT
  5
28E
100
AcDbEntity
  8
DEFPOINTS
  6
CONTINUOUS
 62
     0
100
AcDbPoint
 10
-31.815173
 20
6.770324
 30
0.0
  0
POINT
  5
28F
100
AcDbEntity
  8
DEFPOINTS
  6
CONTINUOUS
 62
     0
100
AcDbPoint
 10
-6.195983
 20
6.770217
 30
0.0
  0
ENDBLK
  5
1A2
100
AcDbEntity
  8
0
100
AcDbBlockEnd
  0
BLOCK
  5
1D1
100
AcDbEntity
  8
0
100
AcDbBlockBegin
  2
*D11
 70
     1
 10
0.0
 20
0.0
 30
0.0
  3
*D11
  1

  0
LINE
  5
290
100
AcDbEntity
  8
寸法
  6
CONTINUOUS
 62
     1
100
AcDbLine
 10
-58.477565
 20
5.770339
 30
0.0
 11
-58.477565
 21
-8.027191
 31
0.0
  0
LINE
  5
291
100
AcDbEntity
  8
寸法
  6
CONTINUOUS
 62
     1
100
AcDbLine
 10
-54.965412
 20
5.780055
 30
0.0
 11
-53.077994
 21
-7.649617
 31
0.0
  0
ARC
  5
292
100
AcDbEntity
  8
寸法
  6
CONTINUOUS
 62
     1
100
AcDbCircle
 10
-58.477565
 20
30.770323
 30
0.0
 40
37.797515
100
AcDbArc
 50
266.967924
 51
270.0
  0
LINE
  5
293
100
AcDbEntity
  8
寸法
  6
CONTINUOUS
 62
     1
100
AcDbLine
 10
-60.476865
 20
-6.974278
 30
0.0
 11
-69.064825
 21
-6.519381
 31
0.0
  0
ARC
  5
294
100
AcDbEntity
  8
寸法
  6
CONTINUOUS
 62
     1
100
AcDbCircle
 10
-58.477565
 20
30.770323
 30
0.0
 40
37.797515
100
AcDbArc
 50
273.032076
 51
274.967924
  0
INSERT
  5
295
100
AcDbEntity
  8
寸法
  6
CONTINUOUS
 62
     1
100
AcDbBlockReference
  2
_OPEN30
 10
-58.477565
 20
-7.027191
 30
0.0
 41
2.0
 42
2.0
 43
2.0
 50
181.516038
  0
INSERT
  5
296
100
AcDbEntity
  8
寸法
  6
CONTINUOUS
 62
     1
100
AcDbBlockReference
  2
_OPEN30
 10
-53.217167
 20
-6.659348
 30
0.0
 41
2.0
 42
2.0
 43
2.0
 50
6.483962
  0
MTEXT
  5
297
100
AcDbEntity
  8
寸法
  6
CONTINUOUS
 62
     1
100
AcDbMText
 10
-64.638607
 20
-4.250329
 30
0.0
 40
3.0
 41
0.0
 71
     5
 72
     1
  1
\A1;8°
 11
0.9986
 21
-0.052895
 31
0.0
  0
POINT
  5
298
100
AcDbEntity
  8
DEFPOINTS
  6
CONTINUOUS
 62
     0
100
AcDbPoint
 10
-54.964291
 20
-6.863558
 30
0.0
  0
POINT
  5
299
100
AcDbEntity
  8
DEFPOINTS
  6
CONTINUOUS
 62
     0
100
AcDbPoint
 10
-58.477565
 20
30.770323
 30
0.0
  0
POINT
  5
29A
100
AcDbEntity
  8
DEFPOINTS
  6
CONTINUOUS
 62
     0
100
AcDbPoint
 10
-55.104585
 20
6.770323
 30
0.0
  0
POINT
  5
29B
100
AcDbEntity
  8
DEFPOINTS
  6
CONTINUOUS
 62
     0
100
AcDbPoint
 10
-58.477565
 20
30.770323
 30
0.0
  0
POINT
  5
29C
100
AcDbEntity
  8
DEFPOINTS
  6
CONTINUOUS
 62
     0
100
AcDbPoint
 10
-58.477565
 20
6.770339
 30
0.0
  0
ENDBLK
  5
1D2
100
AcDbEntity
  8
0
100
AcDbBlockEnd
  0
BLOCK
  5
1DB
100
AcDbEntity
  8
0
100
AcDbBlockBegin
  2
*D12
 70
     1
 10
0.0
 20
0.0
 30
0.0
  3
*D12
  1

  0
LINE
  5
1DD
100
AcDbEntity
  8
寸法
  6
CONTINUOUS
 62
     1
100
AcDbLine
 10
-94.388365
 20
18.343963
 30
0.0
 11
-83.048112
 21
22.268077
 31
0.0
1001
ACAD
1000
RTLwPs
1070
   158
  0
MTEXT
  5
1DE
100
AcDbEntity
  8
寸法
  6
CONTINUOUS
 62
     1
100
AcDbMText
 10
-90.480783
 20
22.341563
 30
0.0
 40
3.0
 41
0.0
 71
     5
 72
     1
  1
\A1;%%c48
 11
0.945021
 21
0.327009
 31
0.0
1001
ACAD
1000
MTEXTBEGIN
1070
    73
1070
     1
1070
    44
1040
1.0
1070
    74
1070
     0
1000
MTEXTEND
1000
MTEXTBEGIN
1070
    73
1070
     1
1070
    44
1040
1.0
1070
    74
1070
     0
1000
MTEXTEND
  0
LINE
  5
1DF
100
AcDbEntity
  8
寸法
  6
CONTINUOUS
 62
     1
100
AcDbLine
 10
-58.477565
 20
30.770323
 30
0.0
 11
-81.15807
 21
22.922096
 31
0.0
1001
ACAD
1000
RTLwPs
1070
   158
  0
INSERT
  5
1E0
100
AcDbEntity
  8
寸法
  6
CONTINUOUS
 62
     1
100
AcDbBlockReference
  2
_OPEN30
 10
-81.15807
 20
22.922096
 30
0.0
 41
2.0
 42
2.0
 43
2.0
 50
19.087363
1001
ACAD
1000
RTLwPs
1070
   158
  0
POINT
  5
1E1
100
AcDbEntity
  8
DEFPOINTS
  6
CONTINUOUS
 62
     0
100
AcDbPoint
 10
-81.15807
 20
22.922096
 30
0.0
  0
POINT
  5
1E2
100
AcDbEntity
  8
DEFPOINTS
  6
CONTINUOUS
 62
     0
100
AcDbPoint
 10
-58.477565
 20
30.770323
 30
0.0
  0
ENDBLK
  5
1DC
100
AcDbEntity
  8
0
100
AcDbBlockEnd
  0
ENDSEC
  0
SECTION
  2
ENTITIES
  0
POINT
  5
24
100
AcDbEntity
  8
0
  6
CONTINUOUS
 62
     7
100
AcDbPoint
 10
-6.195983
 20
6.770217
 30
0.0
  0
POINT
  5
25
100
AcDbEntity
  8
0
  6
CONTINUOUS
 62
     7
100
AcDbPoint
 10
-6.19608
 20
-43.205811
 30
0.0
  0
POINT
  5
26
100
AcDbEntity
  8
0
  6
CONTINUOUS
 62
     7
100
AcDbPoint
 10
-54.060939
 20
6.770323
 30
0.0
  0
POINT
  5
27
100
AcDbEntity
  8
0
  6
CONTINUOUS
 62
     7
100
AcDbPoint
 10
98.783376
 20
-59.20578
 30
0.0
  0
LINE
  5
28
100
AcDbEntity
  8
0
  6
CONTINUOUS
 62
     7
100
AcDbLine
 10
-6.195983
 20
25.770217
 30
0.0
 11
45.803941
 21
25.770217
 31
0.0
  0
LINE
  5
29
100
AcDbEntity
  8
0
  6
CONTINUOUS
 62
     7
100
AcDbLine
 10
-4.514364
 20
-59.205811
 30
0.0
 11
45.803956
 21
-59.205811
 31
0.0
  0
LINE
  5
2A
100
AcDbEntity
  8
0
  6
CONTINUOUS
 62
     7
100
AcDbLine
 10
45.803956
 20
-41.205811
 30
0.0
 11
45.803956
 21
-59.205811
 31
0.0
  0
LINE
  5
2B
100
AcDbEntity
  8
0
  6
CONTINUOUS
 62
     7
100
AcDbLine
 10
9.978345
 20
-41.205811
 30
0.0
 11
45.803956
 21
-41.205811
 31
0.0
  0
LINE
  5
2C
100
AcDbEntity
  8
0
  6
CONTINUOUS
 62
     7
100
AcDbLine
 10
10.803956
 20
11.270231
 30
0.0
 11
10.803956
 21
8.995113
 31
0.0
  0
LINE
  5
2D
100
AcDbEntity
  8
0
  6
CONTINUOUS
 62
     7
100
AcDbLine
 10
-68.448176
 20
25.770232
 30
0.0
 11
-53.560939
 21
25.770232
 31
0.0
  0
LINE
  5
2E
100
AcDbEntity
  8
0
  6
CONTINUOUS
 62
     7
100
AcDbLine
 10
-52.060939
 20
24.270278
 30
0.0
 11
-52.060939
 21
9.448522
 31
0.0
  0
LINE
  5
2F
100
AcDbEntity
  8
0
  6
CONTINUOUS
 62
     7
100
AcDbLine
 10
-53.560836
 20
25.770273
 30
0.0
 11
-52.060866
 21
24.270303
 31
0.0
  0
LINE
  5
30
100
AcDbEntity
  8
0
  6
CENTER
 62
     1
 48
0.5
100
AcDbLine
 10
31.803956
 20
-38.205811
 30
0.0
 11
31.803956
 21
-62.205811
 31
0.0
  0
LINE
  5
31
100
AcDbEntity
  8
0
  6
CENTER
 62
     1
 48
0.5
100
AcDbLine
 10
19.303956
 20
-48.700455
 30
0.0
 11
44.303956
 21
-48.700455
 31
0.0
  0
LINE
  5
32
100
AcDbEntity
  8
0
  6
CENTER
 62
     1
 48
0.5
100
AcDbLine
 10
2.80397
 20
-51.205811
 30
0.0
 11
10.803956
 21
-51.205811
 31
0.0
  0
LINE
  5
33
100
AcDbEntity
  8
0
  6
CONTINUOUS
 62
     7
100
AcDbLine
 10
45.803941
 20
25.770217
 30
0.0
 11
45.803941
 21
10.181315
 31
0.0
  0
LINE
  5
34
100
AcDbEntity
  8
0
  6
CONTINUOUS
 62
     7
100
AcDbLine
 10
11.803956
 20
12.270231
 30
0.0
 11
45.803941
 21
12.270231
 31
0.0
  0
LINE
  5
35
100
AcDbEntity
  8
0
  6
CENTER
 62
     1
 48
0.5
100
AcDbLine
 10
31.803971
 20
28.770202
 30
0.0
 11
31.803971
 21
7.446227
 31
0.0
  0
LINE
  5
36
100
AcDbEntity
  8
0
  6
CONTINUOUS
 62
     7
100
AcDbLine
 10
-58.477565
 20
23.276756
 30
0.0
 11
-58.477565
 21
6.770339
 31
0.0
  0
LINE
  5
37
100
AcDbEntity
  8
0
  6
CONTINUOUS
 62
     7
100
AcDbLine
 10
-54.060923
 20
6.770323
 30
0.0
 11
-58.477549
 21
6.770323
 31
0.0
  0
LINE
  5
38
100
AcDbEntity
  8
0
  6
CONTINUOUS
 62
     7
100
AcDbLine
 10
-54.060939
 20
25.770232
 30
0.0
 11
-54.060939
 21
6.770339
 31
0.0
  0
LINE
  5
39
100
AcDbEntity
  8
0
  6
CONTINUOUS
 62
     7
100
AcDbLine
 10
-6.19608
 20
-43.205334
 30
0.0
 11
-4.514366
 21
-59.20578
 31
0.0
  0
LINE
  5
3A
100
AcDbEntity
  8
0
  6
CONTINUOUS
 62
     7
100
AcDbLine
 10
-6.195983
 20
25.770217
 30
0.0
 11
-6.195983
 21
6.770217
 31
0.0
  0
LINE
  5
3B
100
AcDbEntity
  8
0
  6
CONTINUOUS
 62
     7
100
AcDbLine
 10
-4.464012
 20
7.770278
 30
0.0
 11
-3.195984
 21
7.770278
 31
0.0
  0
LINE
  5
3C
100
AcDbEntity
  8
0
  6
CONTINUOUS
 62
     7
100
AcDbLine
 10
-6.195983
 20
6.770324
 30
0.0
 11
8.099
 21
15.023535
 31
0.0
  0
LINE
  5
3D
100
AcDbEntity
  8
0
  6
CONTINUOUS
 62
     7
100
AcDbLine
 10
-6.19598
 20
23.276756
 30
0.0
 11
8.099004
 21
15.023543
 31
0.0
  0
LINE
  5
3E
100
AcDbEntity
  8
0
  6
CONTINUOUS
 62
     7
100
AcDbLine
 10
9.978345
 20
24.270232
 30
0.0
 11
45.803941
 21
24.270232
 31
0.0
  0
LINE
  5
3F
100
AcDbEntity
  8
0
  6
CONTINUOUS
 62
     7
100
AcDbLine
 10
-5.694297
 20
-47.979469
 30
0.0
 11
-3.930918
 21
-47.794132
 31
0.0
  0
LINE
  5
40
100
AcDbEntity
  8
0
  6
CONTINUOUS
 62
     7
100
AcDbLine
 10
3.699013
 20
17.563884
 30
0.0
 11
5.899
 21
18.834047
 31
0.0
  0
LINE
  5
41
100
AcDbEntity
  8
0
  6
CENTER
 62
     1
 48
0.5
100
AcDbLine
 10
-4.930986
 20
15.02354
 30
0.0
 11
2.069014
 21
15.02354
 31
0.0
  0
LINE
  5
42
100
AcDbEntity
  8
0
  6
CENTER
 62
     1
 48
0.5
100
AcDbLine
 10
-1.430986
 20
18.523541
 30
0.0
 11
-1.430986
 21
11.52354
 31
0.0
  0
LINE
  5
43
100
AcDbEntity
  8
0
  6
CONTINUOUS
 62
     7
100
AcDbLine
 10
-3.195985
 20
7.770277
 30
0.0
 11
10.803956
 21
8.995113
 31
0.0
  0
LINE
  5
44
100
AcDbEntity
  8
0
  6
CONTINUOUS
 62
     7
100
AcDbLine
 10
-4.463837
 20
-42.723743
 30
0.0
 11
-3.93092
 21
-47.794117
 31
0.0
  0
LINE
  5
45
100
AcDbEntity
  8
0
  6
CONTINUOUS
 62
     7
100
AcDbLine
 10
-70.060939
 20
24.157472
 30
0.0
 11
-68.448176
 21
25.770232
 31
0.0
  0
LINE
  5
46
100
AcDbEntity
  8
0
  6
CONTINUOUS
 62
     7
100
AcDbLine
 10
53.803941
 20
20.770231
 30
0.0
 11
53.803941
 21
16.770231
 31
0.0
  0
LINE
  5
47
100
AcDbEntity
  8
0
  6
CENTER
 62
     1
 48
0.5
100
AcDbLine
 10
41.597543
 20
18.770231
 30
0.0
 11
55.734616
 21
18.770231
 31
0.0
  0
LINE
  5
48
100
AcDbEntity
  8
0
  6
CONTINUOUS
 62
     7
100
AcDbLine
 10
48.803941
 20
22.770231
 30
0.0
 11
48.803941
 21
14.770231
 31
0.0
  0
LINE
  5
49
100
AcDbEntity
  8
0
  6
CONTINUOUS
 62
     7
100
AcDbLine
 10
45.803956
 20
16.270231
 30
0.0
 11
48.803941
 21
16.270231
 31
0.0
  0
LINE
  5
4A
100
AcDbEntity
  8
0
  6
CONTINUOUS
 62
     7
100
AcDbLine
 10
45.803956
 20
21.270231
 30
0.0
 11
48.803941
 21
21.270231
 31
0.0
  0
LINE
  5
4B
100
AcDbEntity
  8
0
  6
CONTINUOUS
 62
     7
100
AcDbLine
 10
51.303941
 20
23.270232
 30
0.0
 11
53.803945
 21
20.770231
 31
0.0
  0
LINE
  5
4C
100
AcDbEntity
  8
0
  6
CONTINUOUS
 62
     7
100
AcDbLine
 10
51.303941
 20
14.270232
 30
0.0
 11
53.803941
 21
16.770232
 31
0.0
  0
LINE
  5
4D
100
AcDbEntity
  8
0
  6
CONTINUOUS
 62
     7
100
AcDbLine
 10
49.303941
 20
14.270231
 30
0.0
 11
51.303941
 21
14.270231
 31
0.0
  0
LINE
  5
4E
100
AcDbEntity
  8
0
  6
CONTINUOUS
 62
     7
100
AcDbLine
 10
49.303941
 20
23.270232
 30
0.0
 11
51.303941
 21
23.270232
 31
0.0
  0
LINE
  5
4F
100
AcDbEntity
  8
0
  6
CONTINUOUS
 62
     7
100
AcDbLine
 10
49.303937
 20
23.270227
 30
0.0
 11
48.803941
 21
22.770229
 31
0.0
  0
LINE
  5
50
100
AcDbEntity
  8
0
  6
CONTINUOUS
 62
     7
100
AcDbLine
 10
48.803945
 20
14.770231
 30
0.0
 11
49.303945
 21
14.270233
 31
0.0
  0
LINE
  5
51
100
AcDbEntity
  8
0
  6
CONTINUOUS
 62
     7
100
AcDbLine
 10
49.303941
 20
23.270232
 30
0.0
 11
49.303941
 21
14.270231
 31
0.0
  0
LINE
  5
52
100
AcDbEntity
  8
0
  6
CONTINUOUS
 62
     7
100
AcDbLine
 10
51.303941
 20
23.270232
 30
0.0
 11
51.303941
 21
14.270231
 31
0.0
  0
LINE
  5
53
100
AcDbEntity
  8
0
  6
CONTINUOUS
 62
     7
100
AcDbLine
 10
45.803956
 20
16.770231
 30
0.0
 11
48.803941
 21
16.770231
 31
0.0
  0
LINE
  5
54
100
AcDbEntity
  8
0
  6
CONTINUOUS
 62
     7
100
AcDbLine
 10
45.803956
 20
20.770231
 30
0.0
 11
48.803941
 21
20.770231
 31
0.0
  0
LINE
  5
55
100
AcDbEntity
  8
0
  6
CONTINUOUS
 62
     7
100
AcDbLine
 10
53.803956
 20
-48.705811
 30
0.0
 11
53.803956
 21
-52.705811
 31
0.0
  0
LINE
  5
56
100
AcDbEntity
  8
0
  6
CENTER
 62
     1
 48
0.5
100
AcDbLine
 10
42.749345
 20
-50.705811
 30
0.0
 11
55.734631
 21
-50.705811
 31
0.0
  0
LINE
  5
57
100
AcDbEntity
  8
0
  6
CONTINUOUS
 62
     7
100
AcDbLine
 10
48.803956
 20
-46.705811
 30
0.0
 11
48.803956
 21
-54.705811
 31
0.0
  0
LINE
  5
58
100
AcDbEntity
  8
0
  6
CONTINUOUS
 62
     7
100
AcDbLine
 10
45.803956
 20
-53.205811
 30
0.0
 11
48.803956
 21
-53.205811
 31
0.0
  0
LINE
  5
59
100
AcDbEntity
  8
0
  6
CONTINUOUS
 62
     7
100
AcDbLine
 10
45.803956
 20
-48.205811
 30
0.0
 11
48.803956
 21
-48.205811
 31
0.0
  0
LINE
  5
5A
100
AcDbEntity
  8
0
  6
CONTINUOUS
 62
     7
100
AcDbLine
 10
51.303956
 20
-46.205811
 30
0.0
 11
53.80396
 21
-48.705814
 31
0.0
  0
LINE
  5
5B
100
AcDbEntity
  8
0
  6
CONTINUOUS
 62
     7
100
AcDbLine
 10
51.303956
 20
-55.205811
 30
0.0
 11
53.803956
 21
-52.705811
 31
0.0
  0
LINE
  5
5C
100
AcDbEntity
  8
0
  6
CONTINUOUS
 62
     7
100
AcDbLine
 10
49.303956
 20
-55.205811
 30
0.0
 11
51.303956
 21
-55.205811
 31
0.0
  0
LINE
  5
5D
100
AcDbEntity
  8
0
  6
CONTINUOUS
 62
     7
100
AcDbLine
 10
49.303956
 20
-46.205811
 30
0.0
 11
51.303956
 21
-46.205811
 31
0.0
  0
LINE
  5
5E
100
AcDbEntity
  8
0
  6
CONTINUOUS
 62
     7
100
AcDbLine
 10
49.303952
 20
-46.205811
 30
0.0
 11
48.803952
 21
-46.705811
 31
0.0
  0
LINE
  5
5F
100
AcDbEntity
  8
0
  6
CONTINUOUS
 62
     7
100
AcDbLine
 10
48.803956
 20
-54.705807
 30
0.0
 11
49.303956
 21
-55.205807
 31
0.0
  0
LINE
  5
60
100
AcDbEntity
  8
0
  6
CONTINUOUS
 62
     7
100
AcDbLine
 10
49.303956
 20
-46.205811
 30
0.0
 11
49.303956
 21
-55.205811
 31
0.0
  0
LINE
  5
61
100
AcDbEntity
  8
0
  6
CONTINUOUS
 62
     7
100
AcDbLine
 10
51.303956
 20
-46.205811
 30
0.0
 11
51.303956
 21
-55.205811
 31
0.0
  0
LINE
  5
62
100
AcDbEntity
  8
0
  6
CONTINUOUS
 62
     7
100
AcDbLine
 10
45.803956
 20
-52.705811
 30
0.0
 11
48.803956
 21
-52.705811
 31
0.0
  0
LINE
  5
63
100
AcDbEntity
  8
0
  6
CONTINUOUS
 62
     7
100
AcDbLine
 10
45.803956
 20
-48.705811
 30
0.0
 11
48.803956
 21
-48.705811
 31
0.0
  0
LINE
  5
64
100
AcDbEntity
  8
0
  6
CONTINUOUS
 62
     7
100
AcDbLine
 10
-58.477565
 20
23.276756
 30
0.0
 11
-54.060939
 21
23.276756
 31
0.0
  0
LINE
  5
65
100
AcDbEntity
  8
0
  6
CONTINUOUS
 62
     7
100
AcDbLine
 10
-54.060939
 20
23.276754
 30
0.0
 11
-52.3026
 21
15.023542
 31
0.0
  0
LINE
  5
66
100
AcDbEntity
  8
0
  6
CONTINUOUS
 62
     7
100
AcDbLine
 10
-52.302596
 20
15.023542
 30
0.0
 11
-54.060939
 21
6.770338
 31
0.0
  0
LINE
  5
67
100
AcDbEntity
  8
0
  6
CENTER
 62
     1
 48
0.5
100
AcDbLine
 10
30.053956
 20
-38.205811
 30
0.0
 11
30.053956
 21
-62.205811
 31
0.0
  0
LINE
  5
68
100
AcDbEntity
  8
0
  6
CENTER
 62
     1
 48
0.5
100
AcDbLine
 10
33.553956
 20
-38.205811
 30
0.0
 11
33.553956
 21
-62.205811
 31
0.0
  0
LINE
  5
6A
100
AcDbEntity
  8
0
  6
CONTINUOUS
 62
     7
100
AcDbLine
 10
100.189366
 20
-41.20578
 30
0.0
 11
112.189366
 21
-41.20578
 31
0.0
  0
LINE
  5
6B
100
AcDbEntity
  8
0
  6
CONTINUOUS
 62
     7
100
AcDbLine
 10
113.689366
 20
-42.70578
 30
0.0
 11
113.689366
 21
-57.577271
 31
0.0
  0
LINE
  5
6C
100
AcDbEntity
  8
0
  6
CONTINUOUS
 62
     7
100
AcDbLine
 10
100.189296
 20
-41.205688
 30
0.0
 11
97.972606
 21
-56.978226
 31
0.0
  0
LINE
  5
6D
100
AcDbEntity
  8
0
  6
CONTINUOUS
 62
     7
100
AcDbLine
 10
107.997536
 20
-43.129509
 30
0.0
 11
106.118696
 21
-56.498127
 31
0.0
  0
LINE
  5
6E
100
AcDbEntity
  8
0
  6
CONTINUOUS
 62
     7
100
AcDbLine
 10
112.189206
 20
-41.205814
 30
0.0
 11
113.689216
 21
-42.705814
 31
0.0
  0
LINE
  5
6F
100
AcDbEntity
  8
0
  6
CONTINUOUS
 62
     7
100
AcDbLine
 10
98.783376
 20
-59.20578
 30
0.0
 11
112.089024
 21
-59.20578
 31
0.0
  0
LINE
  5
70
100
AcDbEntity
  8
0
  6
CONTINUOUS
 62
     7
100
AcDbLine
 10
112.089024
 20
-59.20578
 30
0.0
 11
113.689346
 21
-57.577278
 31
0.0
  0
LINE
  5
71
100
AcDbEntity
  8
0
  6
CONTINUOUS
 62
     7
100
AcDbLine
 10
-70.060939
 20
24.157472
 30
0.0
 11
-70.060939
 21
10.864064
 31
0.0
  0
LINE
  5
72
100
AcDbEntity
  8
0
  6
CONTINUOUS
 62
     7
100
AcDbLine
 10
-58.477565
 20
7.770323
 30
0.0
 11
-61.560954
 21
7.770323
 31
0.0
  0
LINE
  5
73
100
AcDbEntity
  8
0
  6
CONTINUOUS
 62
     7
100
AcDbLine
 10
-70.060939
 20
10.864065
 30
0.0
 11
-61.560954
 21
7.770323
 31
0.0
  0
LINE
  5
74
100
AcDbEntity
  8
0
  6
CONTINUOUS
 62
     7
100
AcDbLine
 10
-52.060939
 20
9.448523
 30
0.0
 11
-53.801513
 21
7.988007
 31
0.0
  0
LINE
  5
75
100
AcDbEntity
  8
0
  6
CONTINUOUS
 62
     7
100
AcDbLine
 10
97.972606
 20
-56.978222
 30
0.0
 11
98.783376
 21
-59.20578
 31
0.0
  0
LINE
  5
77
100
AcDbEntity
  8
0
  6
CONTINUOUS
 62
     7
100
AcDbLine
 10
11.803956
 20
-56.978222
 30
0.0
 11
45.803956
 21
-56.978222
 31
0.0
  0
LINE
  5
78
100
AcDbEntity
  8
0
  6
CONTINUOUS
 62
     7
100
AcDbLine
 10
11.86206
 20
10.053217
 30
0.0
 11
45.803941
 21
10.053217
 31
0.0
  0
LINE
  5
79
100
AcDbEntity
  8
0
  6
CONTINUOUS
 62
     7
100
AcDbLine
 10
10.803956
 20
-41.205811
 30
0.0
 11
10.803956
 21
-55.978222
 31
0.0
  0
LINE
  5
7A
100
AcDbEntity
  8
0
  6
CENTER
 62
     1
 48
0.5
100
AcDbLine
 10
6.80397
 20
-46.102051
 30
0.0
 11
6.80397
 21
-57.195133
 31
0.0
  0
LINE
  5
7B
100
AcDbEntity
  8
0
  6
CONTINUOUS
 62
     7
100
AcDbLine
 10
-5.407748
 20
-50.705811
 30
0.0
 11
-3.19608
 21
-50.705811
 31
0.0
  0
LINE
  5
7C
100
AcDbEntity
  8
0
  6
CONTINUOUS
 62
     7
100
AcDbLine
 10
-3.196074
 20
-50.705788
 30
0.0
 11
4.194623
 21
-52.686119
 31
0.0
  0
LINE
  5
7D
100
AcDbEntity
  8
0
  6
CONTINUOUS
 62
     7
100
AcDbLine
 10
8.323576
 20
-53.792469
 30
0.0
 11
10.803956
 21
-54.457085
 31
0.0
  0
LINE
  5
7E
100
AcDbEntity
  8
0
  6
CONTINUOUS
 62
     7
100
AcDbLine
 10
-6.19603
 20
-43.205807
 30
0.0
 11
-4.43265
 21
-43.02047
 31
0.0
  0
LINE
  5
7F
100
AcDbEntity
  8
0
  6
CONTINUOUS
 62
     7
100
AcDbLine
 10
-6.19608
 20
-42.905811
 30
0.0
 11
9.978345
 21
-41.205811
 31
0.0
  0
LINE
  5
80
100
AcDbEntity
  8
0
  6
CONTINUOUS
 62
     7
100
AcDbLine
 10
9.978345
 20
24.270232
 30
0.0
 11
9.978345
 21
8.922881
 31
0.0
  0
LINE
  5
81
100
AcDbEntity
  8
0
  6
CONTINUOUS
 62
     7
100
AcDbLine
 10
9.978345
 20
24.270232
 30
0.0
 11
-6.195983
 21
25.770217
 31
0.0
  0
LINE
  5
82
100
AcDbEntity
  8
0
  6
CENTER
 62
     1
 48
0.5
100
AcDbLine
 10
93.841626
 20
-47.956364
 30
0.0
 11
119.201096
 21
-51.520405
 31
0.0
  0
LINE
  5
83
100
AcDbEntity
  8
0
  6
CONTINUOUS
 62
     7
100
AcDbLine
 10
100.075396
 20
-42.016125
 30
0.0
 11
107.997536
 21
-43.129509
 31
0.0
  0
LINE
  5
84
100
AcDbEntity
  8
0
  6
CONTINUOUS
 62
     7
100
AcDbLine
 10
98.196556
 20
-55.384743
 30
0.0
 11
106.118696
 21
-56.498127
 31
0.0
  0
LINE
  5
85
100
AcDbEntity
  8
0
  6
CONTINUOUS
 62
     7
100
AcDbLine
 10
107.642646
 20
-45.654694
 30
0.0
 11
113.689366
 21
-46.504505
 31
0.0
  0
LINE
  5
86
100
AcDbEntity
  8
0
  6
CONTINUOUS
 62
     7
100
AcDbLine
 10
106.473586
 20
-53.972946
 30
0.0
 11
113.689366
 21
-54.987057
 31
0.0
  0
LINE
  5
87
100
AcDbEntity
  8
0
  6
CONTINUOUS
 62
     7
100
AcDbLine
 10
29.988267
 20
-42.016125
 30
0.0
 11
33.553956
 21
-42.016125
 31
0.0
  0
LINE
  5
88
100
AcDbEntity
  8
0
  6
CONTINUOUS
 62
     7
100
AcDbLine
 10
29.988267
 20
-55.384743
 30
0.0
 11
33.553956
 21
-55.384743
 31
0.0
  0
LINE
  5
89
100
AcDbEntity
  8
0
  6
CONTINUOUS
 62
     7
100
AcDbLine
 10
29.988267
 20
-43.129509
 30
0.0
 11
33.553956
 21
-43.129509
 31
0.0
  0
LINE
  5
8A
100
AcDbEntity
  8
0
  6
CONTINUOUS
 62
     7
100
AcDbLine
 10
30.013081
 20
-45.654694
 30
0.0
 11
33.553956
 21
-45.654694
 31
0.0
  0
LINE
  5
8B
100
AcDbEntity
  8
0
  6
CONTINUOUS
 62
     7
100
AcDbLine
 10
30.013081
 20
-53.972942
 30
0.0
 11
33.553956
 21
-53.972942
 31
0.0
  0
LINE
  5
8C
100
AcDbEntity
  8
0
  6
CONTINUOUS
 62
     7
100
AcDbLine
 10
30.095231
 20
-46.504505
 30
0.0
 11
33.553956
 21
-46.504505
 31
0.0
  0
LINE
  5
8D
100
AcDbEntity
  8
0
  6
CONTINUOUS
 62
     7
100
AcDbLine
 10
30.053956
 20
12.156217
 30
0.0
 11
33.553971
 21
12.156217
 31
0.0
  0
LINE
  5
8E
100
AcDbEntity
  8
0
  6
CONTINUOUS
 62
     7
100
AcDbLine
 10
30.053971
 20
10.277217
 30
0.0
 11
33.553971
 21
10.277217
 31
0.0
  0
LINE
  5
8F
100
AcDbEntity
  8
0
  6
CONTINUOUS
 62
     7
100
AcDbLine
 10
-3.19608
 20
-42.590496
 30
0.0
 11
-3.19608
 21
-50.705811
 31
0.0
  0
LINE
  5
90
100
AcDbEntity
  8
0
  6
CONTINUOUS
 62
     7
100
AcDbLine
 10
-6.19608
 20
-42.905811
 30
0.0
 11
-6.164893
 21
-43.202534
 31
0.0
  0
CIRCLE
  5
91
100
AcDbEntity
  8
0
  6
CONTINUOUS
 62
     7
100
AcDbCircle
 10
6.80397
 20
-51.205811
 30
0.0
 40
3.0
  0
CIRCLE
  5
92
100
AcDbEntity
  8
0
  6
CONTINUOUS
 62
     7
100
AcDbCircle
 10
6.80397
 20
-51.205811
 30
0.0
 40
2.5
  0
ARC
  5
93
100
AcDbEntity
  8
0
  6
CONTINUOUS
 62
     7
100
AcDbCircle
 10
11.803956
 20
11.270231
 30
0.0
 40
1.0
100
AcDbArc
 50
89.999927
 51
179.99991
  0
ARC
  5
94
100
AcDbEntity
  8
0
  6
CONTINUOUS
 62
     7
100
AcDbCircle
 10
6.999021
 20
16.928786
 30
0.0
 40
2.2
100
AcDbArc
 50
300.00007
 51
119.99992
  0
CIRCLE
  5
95
100
AcDbEntity
  8
0
  6
CONTINUOUS
 62
     7
100
AcDbCircle
 10
-1.430986
 20
15.02354
 30
0.0
 40
1.975
  0
ARC
  5
96
100
AcDbEntity
  8
0
  6
CONTINUOUS
 62
     7
100
AcDbCircle
 10
11.86206
 20
8.995113
 30
0.0
 40
1.058104
100
AcDbArc
 50
90.000003
 51
180.00001
  0
ARC
  5
97
100
AcDbEntity
  8
0
  6
CONTINUOUS
 62
     7
100
AcDbCircle
 10
11.803956
 20
-55.978222
 30
0.0
 40
1.0
100
AcDbArc
 50
179.99999
 51
270.0
  0
ARC
  5
98
100
AcDbEntity
  8
0
  6
CONTINUOUS
 62
     7
100
AcDbCircle
 10
29.988267
 20
-48.700432
 30
0.0
 40
6.68431
100
AcDbArc
 50
90.000003
 51
270.0
  0
ARC
  5
99
100
AcDbEntity
  8
0
  6
CONTINUOUS
 62
     7
100
AcDbCircle
 10
29.988267
 20
-49.813816
 30
0.0
 40
6.68431
100
AcDbArc
 50
90.000003
 51
175.22267
  0
ARC
  5
9A
100
AcDbEntity
  8
0
  6
CONTINUOUS
 62
     7
100
AcDbCircle
 10
30.013081
 20
-49.813816
 30
0.0
 40
4.159126
100
AcDbArc
 50
90.000003
 51
270.0
  0
ARC
  5
9B
100
AcDbEntity
  8
0
  6
CONTINUOUS
 62
     7
100
AcDbCircle
 10
30.095231
 20
-50.745781
 30
0.0
 40
4.241276
100
AcDbArc
 50
90.000003
 51
173.66122
  0
ARC
  5
9C
100
AcDbEntity
  8
0
  6
CONTINUOUS
 62
     7
100
AcDbCircle
 10
33.619645
 20
-49.813816
 30
0.0
 40
6.68431
100
AcDbArc
 50
4.777324
 51
90.000003
  0
ARC
  5
9D
100
AcDbEntity
  8
0
  6
CONTINUOUS
 62
     7
100
AcDbCircle
 10
33.619645
 20
-48.700432
 30
0.0
 40
6.68431
100
AcDbArc
 50
270.0
 51
90.000003
  0
ARC
  5
9E
100
AcDbEntity
  8
0
  6
CONTINUOUS
 62
     7
100
AcDbCircle
 10
33.59483
 20
-49.813816
 30
0.0
 40
4.159126
100
AcDbArc
 50
270.0
 51
90.000003
  0
ARC
  5
9F
100
AcDbEntity
  8
0
  6
CONTINUOUS
 62
     7
100
AcDbCircle
 10
33.512681
 20
-50.745781
 30
0.0
 40
4.241276
100
AcDbArc
 50
6.338777
 51
90.000003
  0
LWPOLYLINE
  5
A0
100
AcDbEntity
  8
0
  6
CONTINUOUS
 62
     7
100
AcDbPolyline
 90
       17
 70
     0
 43
0.0
 10
30.053956
 20
12.156217
 42
0.004503
 10
29.186768
 20
12.148431
 42
0.004726
 10
28.320973
 20
12.124726
 42
0.005259
 10
27.45397
 20
12.083725
 42
0.006242
 10
26.588768
 20
12.02297
 42
0.008141
 10
25.725345
 20
11.937605
 42
0.012345
 10
24.865132
 20
11.817613
 42
0.025463
 10
24.016826
 20
11.636945
 42
0.208889
 10
23.303962
 20
11.215423
 42
0.205854
 10
24.018434
 20
10.796042
 42
0.025393
 10
24.865478
 20
10.615762
 42
0.012315
 10
25.723172
 20
10.496081
 42
0.008135
 10
26.58497
 20
10.41078
 42
0.006246
 10
27.449852
 20
10.349948
 42
0.005258
 10
28.316091
 20
10.308889
 42
0.004734
 10
29.183057
 20
10.285069
 42
0.004504
 10
30.05034
 20
10.277217
  0
LWPOLYLINE
  5
B3
100
AcDbEntity
  8
0
  6
CONTINUOUS
 62
     7
100
AcDbPolyline
 90
       17
 70
     0
 43
0.0
 10
33.553986
 20
12.156217
 42
-0.004503
 10
34.421175
 20
12.148431
 42
-0.004726
 10
35.28697
 20
12.124726
 42
-0.005259
 10
36.153973
 20
12.083725
 42
-0.006242
 10
37.019175
 20
12.02297
 42
-0.008141
 10
37.882598
 20
11.937605
 42
-0.012345
 10
38.74281
 20
11.817613
 42
-0.025463
 10
39.591116
 20
11.636945
 42
-0.208889
 10
40.30398
 20
11.215423
 42
-0.205854
 10
39.589508
 20
10.796042
 42
-0.025393
 10
38.742465
 20
10.615762
 42
-0.012315
 10
37.88477
 20
10.496081
 42
-0.008135
 10
37.022973
 20
10.41078
 42
-0.006246
 10
36.158091
 20
10.349948
 42
-0.005258
 10
35.291852
 20
10.308889
 42
-0.004734
 10
34.424885
 20
10.285069
 42
-0.004504
 10
33.557602
 20
10.277217
  0
LINE
  5
C6
100
AcDbEntity
  8
0
  6
CONTINUOUS
 62
     7
100
AcDbLine
 10
111.921166
 20
-59.20578
 30
0.0
 11
113.689366
 21
-57.437567
 31
0.0
  0
LINE
  5
C7
100
AcDbEntity
  8
0
  6
CONTINUOUS
 62
     7
100
AcDbLine
 10
109.6761
 20
-59.20578
 30
0.0
 11
113.689366
 21
-55.192501
 31
0.0
  0
LINE
  5
C8
100
AcDbEntity
  8
0
  6
CONTINUOUS
 62
     7
100
AcDbLine
 10
107.431033
 20
-59.20578
 30
0.0
 11
111.901076
 21
-54.735728
 31
0.0
  0
LINE
  5
C9
100
AcDbEntity
  8
0
  6
CONTINUOUS
 62
     7
100
AcDbLine
 10
105.185978
 20
-59.20578
 30
0.0
 11
109.932666
 21
-54.459085
 31
0.0
  0
LINE
  5
CA
100
AcDbEntity
  8
0
  6
CONTINUOUS
 62
     7
100
AcDbLine
 10
102.940912
 20
-59.20578
 30
0.0
 11
105.706496
 21
-56.440195
 31
0.0
  0
LINE
  5
CB
100
AcDbEntity
  8
0
  6
CONTINUOUS
 62
     7
100
AcDbLine
 10
106.195576
 20
-55.951111
 30
0.0
 11
107.964246
 21
-54.182441
 31
0.0
  0
LINE
  5
CC
100
AcDbEntity
  8
0
  6
CONTINUOUS
 62
     7
100
AcDbLine
 10
100.695856
 20
-59.20578
 30
0.0
 11
103.738076
 21
-56.163552
 31
0.0
  0
LINE
  5
CD
100
AcDbEntity
  8
0
  6
CONTINUOUS
 62
     7
100
AcDbLine
 10
98.694626
 20
-58.961947
 30
0.0
 11
101.769656
 21
-55.886909
 31
0.0
  0
LINE
  5
CE
100
AcDbEntity
  8
0
  6
CONTINUOUS
 62
     7
100
AcDbLine
 10
98.095536
 20
-57.31597
 30
0.0
 11
99.801236
 21
-55.610266
 31
0.0
  0
LINE
  5
CF
100
AcDbEntity
  8
0
  6
CONTINUOUS
 62
     7
100
AcDbLine
 10
113.433116
 20
-46.468491
 30
0.0
 11
113.689356
 21
-46.212248
 31
0.0
  0
LINE
  5
D0
100
AcDbEntity
  8
0
  6
CONTINUOUS
 62
     7
100
AcDbLine
 10
111.464696
 20
-46.191848
 30
0.0
 11
113.689266
 21
-43.967272
 31
0.0
  0
LINE
  5
D1
100
AcDbEntity
  8
0
  6
CONTINUOUS
 62
     7
100
AcDbLine
 10
109.496276
 20
-45.915204
 30
0.0
 11
113.197466
 21
-42.214005
 31
0.0
  0
LINE
  5
D2
100
AcDbEntity
  8
0
  6
CONTINUOUS
 62
     7
100
AcDbLine
 10
107.664056
 20
-45.502363
 30
0.0
 11
111.960636
 21
-41.20578
 31
0.0
  0
LINE
  5
D3
100
AcDbEntity
  8
0
  6
CONTINUOUS
 62
     7
100
AcDbLine
 10
107.817186
 20
-43.104163
 30
0.0
 11
109.715566
 21
-41.20578
 31
0.0
  0
LINE
  5
D4
100
AcDbEntity
  8
0
  6
CONTINUOUS
 62
     7
100
AcDbLine
 10
105.848776
 20
-42.82752
 30
0.0
 11
107.470506
 21
-41.20578
 31
0.0
  0
LINE
  5
D5
100
AcDbEntity
  8
0
  6
CONTINUOUS
 62
     7
100
AcDbLine
 10
103.880356
 20
-42.550876
 30
0.0
 11
105.225446
 21
-41.20578
 31
0.0
  0
LINE
  5
D6
100
AcDbEntity
  8
0
  6
CONTINUOUS
 62
     7
100
AcDbLine
 10
101.911936
 20
-42.274233
 30
0.0
 11
102.980386
 21
-41.20578
 31
0.0
  0
LINE
  5
D7
100
AcDbEntity
  8
0
  6
CONTINUOUS
 62
     7
100
AcDbLine
 10
100.100016
 20
-41.84109
 30
0.0
 11
100.735326
 21
-41.20578
 31
0.0
  0
TEXT
  5
DA
100
AcDbEntity
  8
0
  6
CONTINUOUS
100
AcDbText
 10
18.395918
 20
-92.101855
 30
0.0
 40
6.0
  1
BU255R
100
AcDbText
  0
LINE
  5
103
102
{ACAD_REACTORS
330
10D
102
}
100
AcDbEntity
  8
寸法
  6
CONTINUOUS
 62
     1
100
AcDbLine
 10
120.191364
 20
-51.659578
 30
0.0
 11
132.986149
 21
-53.457768
 31
0.0
  0
LINE
  5
104
102
{ACAD_REACTORS
330
10D
102
}
100
AcDbEntity
  8
寸法
  6
CONTINUOUS
 62
     1
100
AcDbLine
 10
113.689366
 20
-50.745782
 30
0.0
 11
133.17579
 21
-50.745782
 31
0.0
  0
ARC
  5
105
102
{ACAD_REACTORS
330
10D
102
}
100
AcDbEntity
  8
寸法
  6
CONTINUOUS
 62
     1
100
AcDbCircle
 10
113.689366
 20
-50.745782
 30
0.0
 40
18.486423
100
AcDbArc
 50
339.578313
 51
352.0
  0
LINE
  5
106
102
{ACAD_REACTORS
330
10D
102
}
100
AcDbEntity
  8
寸法
  6
CONTINUOUS
 62
     1
100
AcDbLine
 10
131.013918
 20
-57.19619
 30
0.0
 11
128.013147
 21
-65.25568
 31
0.0
  0
ARC
  5
107
102
{ACAD_REACTORS
330
10D
102
}
100
AcDbEntity
  8
寸法
  6
CONTINUOUS
 62
     1
100
AcDbCircle
 10
113.689366
 20
-50.745782
 30
0.0
 40
18.486423
100
AcDbArc
 50
339.596571
 51
345.798286
  0
ARC
  5
108
102
{ACAD_REACTORS
330
10D
102
}
100
AcDbEntity
  8
寸法
  6
CONTINUOUS
 62
     1
100
AcDbCircle
 10
113.689366
 20
-50.745782
 30
0.0
 40
18.486423
100
AcDbArc
 50
6.201714
 51
12.403429
  0
ARC
  5
109
102
{ACAD_REACTORS
330
10D
102
}
100
AcDbEntity
  8
寸法
  6
CONTINUOUS
 62
     1
100
AcDbCircle
 10
113.689366
 20
-50.745782
 30
0.0
 40
18.486423
100
AcDbArc
 50
352.0
 51
0.0
  0
INSERT
  5
10A
102
{ACAD_REACTORS
330
10D
102
}
100
AcDbEntity
  8
寸法
  6
CONTINUOUS
 62
     1
100
AcDbBlockReference
  2
_OPEN30
 10
131.995881
 20
-53.318595
 30
0.0
 41
2.0
 42
2.0
 43
2.0
 50
78.899143
  0
INSERT
  5
10B
102
{ACAD_REACTORS
330
10D
102
}
100
AcDbEntity
  8
寸法
  6
CONTINUOUS
 62
     1
100
AcDbBlockReference
  2
_OPEN30
 10
132.17579
 20
-50.745782
 30
0.0
 41
2.0
 42
2.0
 43
2.0
 50
273.100857
  0
MTEXT
  5
10C
102
{ACAD_REACTORS
330
10D
102
}
100
AcDbEntity
  8
寸法
  6
CONTINUOUS
 62
     1
100
AcDbMText
 10
127.170657
 20
-60.353618
 30
0.0
 40
3.0
 41
0.0
 71
     5
 72
     1
  1
\A1;8°
 11
0.348927
 21
0.93715
 31
0.0
1001
ACAD
1000
MTEXTBEGIN
1070
    73
1070
     1
1070
    44
1040
1.0
1070
    74
1070
     0
1000
MTEXTEND
1000
MTEXTBEGIN
1070
    73
1070
     1
1070
    44
1040
1.0
1070
    74
1070
     0
1000
MTEXTEND
  0
DIMENSION
  5
10E
100
AcDbEntity
  8
寸法
  6
CONTINUOUS
100
AcDbDimension
  2
*D1
 10
120.0
 20
-59.20578
 30
0.0
 11
117.5
 21
-66.70578
 31
0.0
 70
    32
  3
STANDARD
100
AcDbAlignedDimension
 13
113.689366
 23
-50.745782
 33
0.0
 14
112.089024
 24
-59.20578
 34
0.0
 50
90.0
100
AcDbRotatedDimension
  0
DIMENSION
  5
11C
100
AcDbEntity
  8
寸法
  6
CONTINUOUS
100
AcDbDimension
  2
*D2
 10
31.803956
 20
-30.0
 30
0.0
 11
42.803958
 21
-27.5
 31
0.0
 70
    32
  3
STANDARD
100
AcDbAlignedDimension
 13
53.80396
 23
-48.705814
 33
0.0
 14
31.803956
 24
-38.205811
 34
0.0
100
AcDbRotatedDimension
  0
DIMENSION
  5
129
100
AcDbEntity
  8
寸法
  6
CONTINUOUS
100
AcDbDimension
  2
*D3
 10
30.053956
 20
-70.0
 30
0.0
 11
22.053956
 21
-67.5
 31
0.0
 70
    32
  3
STANDARD
100
AcDbAlignedDimension
 13
33.553956
 23
-62.205811
 33
0.0
 14
30.053956
 24
-62.205811
 34
0.0
100
AcDbRotatedDimension
  0
DIMENSION
  5
138
100
AcDbEntity
  8
寸法
  6
CONTINUOUS
100
AcDbDimension
  2
*D4
 10
70.0
 20
-59.205811
 30
0.0
 11
67.5
 21
-50.205811
 31
0.0
 70
    32
  3
STANDARD
100
AcDbAlignedDimension
 13
45.803956
 23
-41.205811
 33
0.0
 14
45.803956
 24
-59.205811
 34
0.0
 50
90.0
100
AcDbRotatedDimension
  0
DIMENSION
  5
145
100
AcDbEntity
  8
寸法
  6
CONTINUOUS
100
AcDbDimension
  2
*D5
 10
-20.0
 20
-59.20578
 30
0.0
 11
-22.5
 21
-51.204157
 31
0.0
 70
    32
  3
STANDARD
100
AcDbAlignedDimension
 13
-6.164893
 23
-43.202534
 33
0.0
 14
-4.514366
 24
-59.20578
 34
0.0
 50
90.0
100
AcDbRotatedDimension
  0
DIMENSION
  5
152
100
AcDbEntity
  8
寸法
  6
CONTINUOUS
100
AcDbDimension
  2
*D6
 10
45.803956
 20
-41.205811
 30
0.0
 11
-27.368451
 21
-35.036404
 31
0.0
 70
    34
  3
STANDARD
100
AcDb2LineAngularDimension
 13
-6.19608
 23
-42.905811
 33
0.0
 14
9.978345
 24
-41.205811
 34
0.0
 15
9.978345
 25
-41.205811
 35
0.0
 16
-30.031862
 26
-44.003596
 36
0.0
1001
ACAD
1000
DSTYLE
1002
{
1070
   271
1070
     0
1070
   271
1070
     0
1002
}
  0
DIMENSION
  5
163
100
AcDbEntity
  8
寸法
  6
CONTINUOUS
100
AcDbDimension
  2
*D7
 10
-6.195983
 20
-10.0
 30
0.0
 11
23.803979
 21
-7.5
 31
0.0
 70
    32
  3
STANDARD
100
AcDbAlignedDimension
 13
53.803941
 23
16.770231
 33
0.0
 14
-6.195983
 24
6.770217
 34
0.0
100
AcDbRotatedDimension
  0
DIMENSION
  5
170
100
AcDbEntity
  8
寸法
  6
CONTINUOUS
100
AcDbDimension
  2
*D8
 10
45.803941
 20
0.0
 30
0.0
 11
49.803941
 21
2.5
 31
0.0
 70
    32
  3
STANDARD
100
AcDbAlignedDimension
 13
53.803941
 23
16.770231
 33
0.0
 14
45.803941
 24
10.053217
 34
0.0
100
AcDbRotatedDimension
1001
ACAD
1000
DSTYLE
1002
{
1070
   287
1070
     4
1070
   287
1070
     4
1070
   279
1070
     1
1002
}
  0
DIMENSION
  5
186
100
AcDbEntity
  8
寸法
  6
CONTINUOUS
100
AcDbDimension
  2
*D9
 10
-20.0
 20
6.770324
 30
0.0
 11
-22.5
 21
16.27027
 31
0.0
 70
    32
  3
STANDARD
100
AcDbAlignedDimension
 13
-6.195983
 23
25.770217
 33
0.0
 14
-6.195983
 24
6.770324
 34
0.0
 50
90.0
100
AcDbRotatedDimension
  0
DIMENSION
  5
194
100
AcDbEntity
  8
寸法
  6
CONTINUOUS
100
AcDbDimension
  2
*D10
 10
-6.195983
 20
6.770217
 30
0.0
 11
-9.864128
 21
11.75553
 31
0.0
 70
   162
  3
STANDARD
100
AcDb2LineAngularDimension
 13
-6.195983
 23
6.770324
 33
0.0
 14
-31.815173
 24
6.770324
 34
0.0
 15
-6.195983
 25
25.770217
 35
0.0
 16
-11.556084
 26
9.864979
 36
0.0
1001
ACAD
1000
DSTYLE
1002
{
1070
   271
1070
     0
1070
   271
1070
     0
1002
}
  0
LINE
  5
1BE
100
AcDbEntity
  8
0
  6
CENTER
 62
     1
 48
0.5
100
AcDbLine
 10
-55.104585
 20
6.770323
 30
0.0
 11
-58.477565
 21
30.770323
 31
0.0
  0
ARC
  5
1C0
100
AcDbEntity
  8
0
  6
CENTER
 62
     1
 48
0.5
100
AcDbCircle
 10
-58.477565
 20
30.770323
 30
0.0
 40
24.0
100
AcDbArc
 50
180.0
 51
0.0
  0
LINE
  5
1C1
100
AcDbEntity
  8
0
  6
CONTINUOUS
100
AcDbLine
 10
-58.477565
 20
30.770323
 30
0.0
 11
-58.477565
 21
6.770339
 31
0.0
  0
DIMENSION
  5
1C2
100
AcDbEntity
  8
寸法
  6
CONTINUOUS
100
AcDbDimension
  2
*D11
 10
-58.477565
 20
6.770339
 30
0.0
 11
-64.638607
 21
-4.250329
 31
0.0
 70
    34
  3
STANDARD
100
AcDb2LineAngularDimension
 13
-55.104585
 23
6.770323
 33
0.0
 14
-58.477565
 24
30.770323
 34
0.0
 15
-58.477565
 25
30.770323
 35
0.0
 16
-54.964291
 26
-6.863558
 36
0.0
1001
ACAD
1000
DSTYLE
1002
{
1070
   271
1070
     0
1070
   271
1070
     0
1002
}
  0
DIMENSION
  5
1D3
100
AcDbEntity
  8
寸法
  6
CONTINUOUS
100
AcDbDimension
  2
*D12
 10
-58.477565
 20
30.770323
 30
0.0
 11
-90.480783
 21
22.341563
 31
0.0
 70
    36
  1
%%c48
  3
STANDARD
100
AcDbRadialDimension
 15
-81.15807
 25
22.922096
 35
0.0
 40
0.0
1001
ACAD
1000
DSTYLE
1002
{
1070
   288
1070
     1
1002
}
  0
ENDSEC
  0
SECTION
  2
OBJECTS
  0
DICTIONARY
  5
C
100
AcDbDictionary
  3
ACAD_GROUP
350
D
  3
ACAD_LAYOUT
350
DF
  3
ACAD_MLINESTYLE
350
1B
  3
ACAD_PLOTSETTINGS
350
E0
  3
ACAD_PLOTSTYLENAME
350
DD
  3
ACDBHEADERROUNDTRIPXREC
350
24A
  0
DICTIONARY
  5
246
100
AcDbDictionary
280
     1
  3
ACAD_XREC_ROUNDTRIP
360
247
  0
DICTIONARY
  5
26D
100
AcDbDictionary
280
     1
  3
ACAD_XREC_ROUNDTRIP
360
26E
  0
DICTIONARY
  5
20D
100
AcDbDictionary
280
     1
  3
ACAD_LAYOUTSELFREF
360
26C
  0
DICTIONARY
  5
20B
100
AcDbDictionary
280
     1
  3
ACAD_LAYOUTSELFREF
360
26B
  0
DICTIONARY
  5
244
100
AcDbDictionary
280
     1
  3
ACAD_XREC_ROUNDTRIP
360
245
  0
DICTIONARY
  5
D
102
{ACAD_REACTORS
330
C
102
}
100
AcDbDictionary
  3
*A1
350
10D
  0
DICTIONARY
  5
DF
102
{ACAD_XDICTIONARY
360
26F
102
}
102
{ACAD_REACTORS
330
C
102
}
100
AcDbDictionary
  3
MODEL
350
E1
  3
ﾚｲｱｳﾄ1
350
E2
  0
DICTIONARY
  5
1B
102
{ACAD_REACTORS
330
C
102
}
100
AcDbDictionary
  3
STANDARD
350
1C
  0
DICTIONARY
  5
E0
102
{ACAD_REACTORS
330
C
102
}
100
AcDbDictionary
  0
ACAD_PROXY_OBJECT
  5
DD
102
{ACAD_REACTORS
330
C
102
}
100
AcDbProxyObject
 90
      499
 91
      500
 93
       86
310
405010041939BDC9B585B0
350
DE
340
DE
 94
        0
  0
DICTIONARY
  5
24A
102
{ACAD_REACTORS
330
C
102
}
100
AcDbDictionary
  3
CEPSNTYPE
350
254
  3
DIMSTYLEDATA
350
258
  3
FINGERPRINTGUID
350
255
  3
HYPERLINKBASE
350
24D
  3
INSUNITS
350
253
  3
LAYOUTDICT
350
24F
  3
LWETCUNION
350
252
  3
PLOTSETDICT
350
250
  3
PLOTSTYLNAMDICT
350
251
  3
PSVPSCALE
350
257
  3
PUCSBASE
350
25B
  3
PUCSORGBACK
350
261
  3
PUCSORGBOTTOM
350
25D
  3
PUCSORGFRONT
350
260
  3
PUCSORGLEFT
350
25E
  3
PUCSORGRIGHT
350
25F
  3
PUCSORGTOP
350
25C
  3
PUCSORTHOREF
350
259
  3
PUCSORTHOVIEW
350
25A
  3
STYLESHEET
350
24E
  3
TSTACKALIGN
350
24B
  3
TSTACKSIZE
350
24C
  3
UCSBASE
350
264
  3
UCSORGBACK
350
26A
  3
UCSORGBOTTOM
350
266
  3
UCSORGFRONT
350
269
  3
UCSORGLEFT
350
267
  3
UCSORGRIGHT
350
268
  3
UCSORGTOP
350
265
  3
UCSORTHOREF
350
262
  3
UCSORTHOVIEW
350
263
  3
VERSIONGUID
350
256
  0
XRECORD
  5
247
102
{ACAD_REACTORS
330
246
102
}
100
AcDbXrecord
102
EXTNAMES
  1
DEFPOINTS
  2
Defpoints
102
PLOTBIT
280
     0
  0
XRECORD
  5
26E
102
{ACAD_REACTORS
330
26D
102
}
100
AcDbXrecord
102
ACADR14ROUNDTRIP
1000
DSTYLE
1002
{
1070
   341
340
E7
1070
   342
340
E7
1002
}
  0
XRECORD
  5
26C
102
{ACAD_REACTORS
330
20D
102
}
100
AcDbXrecord
340
18
  0
XRECORD
  5
26B
102
{ACAD_REACTORS
330
20B
102
}
100
AcDbXrecord
340
15
  0
XRECORD
  5
245
102
{ACAD_REACTORS
330
244
102
}
100
AcDbXrecord
102
EXTNAMES
  1
_OPEN30
  2
_Open30
  0
GROUP
  5
10D
102
{ACAD_REACTORS
330
D
102
}
100
AcDbGroup
300

 70
     1
 71
     1
340
104
340
10C
340
106
340
109
340
103
340
107
340
105
340
10A
340
108
340
10B
  0
DICTIONARY
  5
26F
100
AcDbDictionary
280
     1
  3
ACAD_XREC_ROUNDTRIP
360
270
  0
ACAD_PROXY_OBJECT
  5
E1
102
{ACAD_REACTORS
330
DF
102
}
100
AcDbProxyObject
 90
      499
 91
      502
 93
      548
310
90E4550534F4E20504D2D32303030432C01AAAAAAAAA5A69054D6F64656C901A800000000000000000000000000000000000000000000A1000000000000008902A6A6AAAAD
330
18
330
0
340
0
340
0
 94
        0
  0
ACAD_PROXY_OBJECT
  5
E2
102
{ACAD_REACTORS
330
DF
102
}
100
AcDbProxyObject
 90
      499
 91
      502
 93
      964
310
90E4550534F4E20504D2D32303030432C00AAAAAA416AA59106906DAB2B1B3C43140501A800000000000000000000000000000000000000000000A1000000000000008902A6A6A10232D5E076BC5510408CB5781DAF154410232D5E076BC5510408CB5781DAF15C410232D5E076BC5710408CB5781DAF15C45
330
15
330
0
340
0
340
0
 94
        0
  0
MLINESTYLE
  5
1C
102
{ACAD_REACTORS
330
1B
102
}
100
AcDbMlineStyle
  2
STANDARD
 70
     0
  3

 62
   256
 51
90.0
 52
90.0
 71
     2
 49
0.5
 62
   256
  6
BYLAYER
 49
-0.5
 62
   256
  6
BYLAYER
  0
ACAD_PROXY_OBJECT
  5
DE
102
{ACAD_REACTORS
330
DD
102
}
100
AcDbProxyObject
 90
      499
 91
      501
 93
        0
 94
        0
  0
XRECORD
  5
254
102
{ACAD_REACTORS
330
24A
102
}
100
AcDbXrecord
 90
        0
  0
XRECORD
  5
258
102
{ACAD_REACTORS
330
24A
102
}
100
AcDbXrecord
1000
DSTYLE
1002
{
1070
   341
340
E7
1070
   342
340
E7
1002
}
  0
XRECORD
  5
255
102
{ACAD_REACTORS
330
24A
102
}
100
AcDbXrecord
  1
{B7A9E88A-B963-4023-B7DD-4761BFFE4D79}
  0
XRECORD
  5
24D
102
{ACAD_REACTORS
330
24A
102
}
100
AcDbXrecord
  1

  0
XRECORD
  5
253
102
{ACAD_REACTORS
330
24A
102
}
100
AcDbXrecord
 90
        0
  0
XRECORD
  5
24F
102
{ACAD_REACTORS
330
24A
102
}
100
AcDbXrecord
340
DF
  0
XRECORD
  5
252
102
{ACAD_REACTORS
330
24A
102
}
100
AcDbXrecord
 90
    14877
  0
XRECORD
  5
250
102
{ACAD_REACTORS
330
24A
102
}
100
AcDbXrecord
340
E0
  0
XRECORD
  5
251
102
{ACAD_REACTORS
330
24A
102
}
100
AcDbXrecord
340
DD
  0
XRECORD
  5
257
102
{ACAD_REACTORS
330
24A
102
}
100
AcDbXrecord
 40
0.0
  0
XRECORD
  5
25B
102
{ACAD_REACTORS
330
24A
102
}
100
AcDbXrecord
340
0
  0
XRECORD
  5
261
102
{ACAD_REACTORS
330
24A
102
}
100
AcDbXrecord
 10
0.0
 20
0.0
 30
0.0
  0
XRECORD
  5
25D
102
{ACAD_REACTORS
330
24A
102
}
100
AcDbXrecord
 10
0.0
 20
0.0
 30
0.0
  0
XRECORD
  5
260
102
{ACAD_REACTORS
330
24A
102
}
100
AcDbXrecord
 10
0.0
 20
0.0
 30
0.0
  0
XRECORD
  5
25E
102
{ACAD_REACTORS
330
24A
102
}
100
AcDbXrecord
 10
0.0
 20
0.0
 30
0.0
  0
XRECORD
  5
25F
102
{ACAD_REACTORS
330
24A
102
}
100
AcDbXrecord
 10
0.0
 20
0.0
 30
0.0
  0
XRECORD
  5
25C
102
{ACAD_REACTORS
330
24A
102
}
100
AcDbXrecord
 10
0.0
 20
0.0
 30
0.0
  0
XRECORD
  5
259
102
{ACAD_REACTORS
330
24A
102
}
100
AcDbXrecord
340
0
  0
XRECORD
  5
25A
102
{ACAD_REACTORS
330
24A
102
}
100
AcDbXrecord
 70
     0
  0
XRECORD
  5
24E
102
{ACAD_REACTORS
330
24A
102
}
100
AcDbXrecord
  1

  0
XRECORD
  5
24B
102
{ACAD_REACTORS
330
24A
102
}
100
AcDbXrecord
 90
        1
  0
XRECORD
  5
24C
102
{ACAD_REACTORS
330
24A
102
}
100
AcDbXrecord
 90
       70
  0
XRECORD
  5
264
102
{ACAD_REACTORS
330
24A
102
}
100
AcDbXrecord
340
0
  0
XRECORD
  5
26A
102
{ACAD_REACTORS
330
24A
102
}
100
AcDbXrecord
 10
0.0
 20
0.0
 30
0.0
  0
XRECORD
  5
266
102
{ACAD_REACTORS
330
24A
102
}
100
AcDbXrecord
 10
0.0
 20
0.0
 30
0.0
  0
XRECORD
  5
269
102
{ACAD_REACTORS
330
24A
102
}
100
AcDbXrecord
 10
0.0
 20
0.0
 30
0.0
  0
XRECORD
  5
267
102
{ACAD_REACTORS
330
24A
102
}
100
AcDbXrecord
 10
0.0
 20
0.0
 30
0.0
  0
XRECORD
  5
268
102
{ACAD_REACTORS
330
24A
102
}
100
AcDbXrecord
 10
0.0
 20
0.0
 30
0.0
  0
XRECORD
  5
265
102
{ACAD_REACTORS
330
24A
102
}
100
AcDbXrecord
 10
0.0
 20
0.0
 30
0.0
  0
XRECORD
  5
262
102
{ACAD_REACTORS
330
24A
102
}
100
AcDbXrecord
340
0
  0
XRECORD
  5
263
102
{ACAD_REACTORS
330
24A
102
}
100
AcDbXrecord
 70
     0
  0
XRECORD
  5
256
102
{ACAD_REACTORS
330
24A
102
}
100
AcDbXrecord
  1
{C4D4230A-B51A-41FA-8F3D-A8D4AECA65C8}
  0
XRECORD
  5
270
102
{ACAD_REACTORS
330
26F
102
}
100
AcDbXrecord
102
EXTNAMES
  1
MODEL
  2
Model
  0
ENDSEC
  0
EOF
