  0
SECTION
  2
HEADER
  9
$ACADVER
  1
AC1014
  9
$ACADMAINTVER
 70
     0
  9
$DWGCODEPAGE
  3
ANSI_932
  9
$INSBASE
 10
0.0
 20
0.0
 30
0.0
  9
$EXTMIN
 10
-96.426884
 20
-98.077722
 30
0.0
  9
$EXTMAX
 10
150.282104
 20
27.5
 30
0.0
  9
$LIMMIN
 10
-140.0
 20
-140.0
  9
$LIMMAX
 10
230.0
 20
80.0
  9
$ORTHOMODE
 70
     1
  9
$REGENMODE
 70
     1
  9
$FILLMODE
 70
     1
  9
$QTEXTMODE
 70
     0
  9
$MIRRTEXT
 70
     1
  9
$DRAGMODE
 70
     2
  9
$LTSCALE
 40
1.0
  9
$OSMODE
 70
    33
  9
$ATTMODE
 70
     1
  9
$TEXTSIZE
 40
0.2
  9
$TRACEWID
 40
0.05
  9
$TEXTSTYLE
  7
STANDARD
  9
$CLAYER
  8
寸法
  9
$CELTYPE
  6
CONTINUOUS
  9
$CECOLOR
 62
   256
  9
$CELTSCALE
 40
1.0
  9
$DELOBJ
 70
     1
  9
$DISPSILH
 70
     0
  9
$DIMSCALE
 40
1.0
  9
$DIMASZ
 40
2.0
  9
$DIMEXO
 40
1.0
  9
$DIMDLI
 40
10.0
  9
$DIMRND
 40
0.0
  9
$DIMDLE
 40
0.0
  9
$DIMEXE
 40
1.0
  9
$DIMTP
 40
0.0
  9
$DIMTM
 40
0.0
  9
$DIMTXT
 40
3.0
  9
$DIMCEN
 40
2.0
  9
$DIMTSZ
 40
0.0
  9
$DIMTOL
 70
     0
  9
$DIMLIM
 70
     0
  9
$DIMTIH
 70
     0
  9
$DIMTOH
 70
     0
  9
$DIMSE1
 70
     0
  9
$DIMSE2
 70
     0
  9
$DIMTAD
 70
     1
  9
$DIMZIN
 70
     8
  9
$DIMBLK
  1
OPEN30
  9
$DIMASO
 70
     1
  9
$DIMSHO
 70
     1
  9
$DIMPOST
  1

  9
$DIMAPOST
  1

  9
$DIMALT
 70
     0
  9
$DIMALTD
 70
     2
  9
$DIMALTF
 40
25.4
  9
$DIMLFAC
 40
1.0
  9
$DIMTOFL
 70
     1
  9
$DIMTVP
 40
0.0
  9
$DIMTIX
 70
     0
  9
$DIMSOXD
 70
     0
  9
$DIMSAH
 70
     0
  9
$DIMBLK1
  1

  9
$DIMBLK2
  1

  9
$DIMSTYLE
  2
STANDARD
  9
$DIMCLRD
 70
     1
  9
$DIMCLRE
 70
     1
  9
$DIMCLRT
 70
     1
  9
$DIMTFAC
 40
1.0
  9
$DIMGAP
 40
1.0
  9
$DIMJUST
 70
     0
  9
$DIMSD1
 70
     0
  9
$DIMSD2
 70
     0
  9
$DIMTOLJ
 70
     1
  9
$DIMTZIN
 70
     0
  9
$DIMALTZ
 70
     0
  9
$DIMALTTZ
 70
     0
  9
$DIMFIT
 70
     3
  9
$DIMUPT
 70
     0
  9
$DIMUNIT
 70
     2
  9
$DIMDEC
 70
     2
  9
$DIMTDEC
 70
     2
  9
$DIMALTU
 70
     2
  9
$DIMALTTD
 70
     2
  9
$DIMTXSTY
  7
STANDARD
  9
$DIMAUNIT
 70
     0
  9
$LUNITS
 70
     2
  9
$LUPREC
 70
     4
  9
$SKETCHINC
 40
0.1
  9
$FILLETRAD
 40
0.0
  9
$AUNITS
 70
     0
  9
$AUPREC
 70
     0
  9
$MENU
  1
acad
  9
$ELEVATION
 40
0.0
  9
$PELEVATION
 40
0.0
  9
$THICKNESS
 40
0.0
  9
$LIMCHECK
 70
     0
  9
$BLIPMODE
 70
     0
  9
$CHAMFERA
 40
0.0
  9
$CHAMFERB
 40
0.0
  9
$CHAMFERC
 40
0.0
  9
$CHAMFERD
 40
0.0
  9
$SKPOLY
 70
     0
  9
$TDCREATE
 40
2444972.375000000
  9
$TDUPDATE
 40
2451977.429641203
  9
$TDINDWG
 40
0.0079527778
  9
$TDUSRTIMER
 40
0.0079527778
  9
$USRTIMER
 70
     1
  9
$ANGBASE
 50
0.0
  9
$ANGDIR
 70
     0
  9
$PDMODE
 70
     0
  9
$PDSIZE
 40
0.0
  9
$PLINEWID
 40
0.0
  9
$COORDS
 70
     1
  9
$SPLFRAME
 70
     0
  9
$SPLINETYPE
 70
     6
  9
$SPLINESEGS
 70
     8
  9
$ATTDIA
 70
     0
  9
$ATTREQ
 70
     1
  9
$HANDLING
 70
     1
  9
$HANDSEED
  5
360
  9
$SURFTAB1
 70
     6
  9
$SURFTAB2
 70
     6
  9
$SURFTYPE
 70
     6
  9
$SURFU
 70
     6
  9
$SURFV
 70
     6
  9
$UCSNAME
  2

  9
$UCSORG
 10
0.0
 20
0.0
 30
0.0
  9
$UCSXDIR
 10
1.0
 20
0.0
 30
0.0
  9
$UCSYDIR
 10
0.0
 20
1.0
 30
0.0
  9
$PUCSNAME
  2

  9
$PUCSORG
 10
0.0
 20
0.0
 30
0.0
  9
$PUCSXDIR
 10
1.0
 20
0.0
 30
0.0
  9
$PUCSYDIR
 10
0.0
 20
1.0
 30
0.0
  9
$USERI1
 70
     0
  9
$USERI2
 70
     0
  9
$USERI3
 70
     0
  9
$USERI4
 70
     0
  9
$USERI5
 70
     0
  9
$USERR1
 40
0.0
  9
$USERR2
 40
0.0
  9
$USERR3
 40
0.0
  9
$USERR4
 40
0.0
  9
$USERR5
 40
0.0
  9
$WORLDVIEW
 70
     1
  9
$SHADEDGE
 70
     3
  9
$SHADEDIF
 70
    70
  9
$TILEMODE
 70
     1
  9
$MAXACTVP
 70
    48
  9
$PINSBASE
 10
0.0
 20
0.0
 30
0.0
  9
$PLIMCHECK
 70
     0
  9
$PEXTMIN
 10
1.000000E+20
 20
1.000000E+20
 30
1.000000E+20
  9
$PEXTMAX
 10
-1.000000E+20
 20
-1.000000E+20
 30
-1.000000E+20
  9
$PLIMMIN
 10
0.0
 20
0.0
  9
$PLIMMAX
 10
12.0
 20
9.0
  9
$UNITMODE
 70
     0
  9
$VISRETAIN
 70
     1
  9
$PLINEGEN
 70
     0
  9
$PSLTSCALE
 70
     1
  9
$TREEDEPTH
 70
  3020
  9
$PICKSTYLE
 70
     1
  9
$CMLSTYLE
  2
STANDARD
  9
$CMLJUST
 70
     0
  9
$CMLSCALE
 40
1.0
  9
$PROXYGRAPHICS
 70
     1
  9
$MEASUREMENT
 70
     0
  0
ENDSEC
  0
SECTION
  2
CLASSES
  0
CLASS
  1
ACDBDICTIONARYWDFLT
  2
AcDbDictionaryWithDefault
  3
AutoCAD 2000
 90
        0
280
     0
281
     0
  0
CLASS
  1
ACDBPLACEHOLDER
  2
AcDbPlaceHolder
  3
AutoCAD 2000
 90
        0
280
     0
281
     0
  0
CLASS
  1
LAYOUT
  2
AcDbLayout
  3
AutoCAD 2000
 90
        0
280
     0
281
     0
  0
CLASS
  1
LONG_TRANSACTION
  2
AcDbLongTransaction
  3
AutoCAD 2000
 90
        0
280
     0
281
     0
  0
CLASS
  1
LWPOLYLINE
  2
AcDbPolyline
  3
"AutoCAD"
 90
        0
280
     0
281
     1
  0
CLASS
  1
HATCH
  2
AcDbHatch
  3
"ACAD_SEDONA"
 90
        0
280
     0
281
     1
  0
CLASS
  1
XRECORD
  2
AcDbXrecord
  3
"<Built In>"
 90
        0
280
     0
281
     0
  0
CLASS
  1
LONG_TRANSACTION
  2
AcDbLongTransaction
  3
AutoCAD 2000
 90
        0
280
     0
281
     0
  0
CLASS
  1
LWPOLYLINE
  2
AcDbPolyline
  3
"AutoCAD"
 90
        0
280
     0
281
     1
  0
CLASS
  1
HATCH
  2
AcDbHatch
  3
"ACAD_SEDONA"
 90
        0
280
     0
281
     1
  0
CLASS
  1
XRECORD
  2
AcDbXrecord
  3
"<Built In>"
 90
        0
280
     0
281
     0
  0
ENDSEC
  0
SECTION
  2
TABLES
  0
TABLE
  2
VPORT
  5
8
100
AcDbSymbolTable
 70
     2
  0
VPORT
  5
35F
100
AcDbSymbolTableRecord
100
AcDbViewportTableRecord
  2
*ACTIVE
 70
     0
 10
0.0
 20
0.0
 11
1.0
 21
1.0
 12
66.646327
 22
-17.414902
 13
0.0
 23
0.0
 14
10.0
 24
10.0
 15
10.0
 25
10.0
 16
0.0
 26
0.0
 36
1.0
 17
0.0
 27
0.0
 37
0.0
 40
198.219743
 41
1.710425
 42
50.0
 43
0.0
 44
0.0
 50
0.0
 51
0.0
 71
     0
 72
   100
 73
     1
 74
     1
 75
     0
 76
     0
 77
     0
 78
     0
  0
ENDTAB
  0
TABLE
  2
LTYPE
  5
5
100
AcDbSymbolTable
 70
     5
  0
LTYPE
  5
12
100
AcDbSymbolTableRecord
100
AcDbLinetypeTableRecord
  2
BYBLOCK
 70
     0
  3

 72
    65
 73
     0
 40
0.0
  0
LTYPE
  5
13
100
AcDbSymbolTableRecord
100
AcDbLinetypeTableRecord
  2
BYLAYER
 70
     0
  3

 72
    65
 73
     0
 40
0.0
  0
LTYPE
  5
14
100
AcDbSymbolTableRecord
100
AcDbLinetypeTableRecord
  2
CONTINUOUS
 70
     0
  3
Solid line
 72
    65
 73
     0
 40
0.0
  0
LTYPE
  5
1F
100
AcDbSymbolTableRecord
100
AcDbLinetypeTableRecord
  2
DASHED
 70
     0
  3
__ __ __ __ __ __ __ __ __ __ __ __ __ __ __
 72
    65
 73
     2
 40
3.5
 49
2.0
 74
     0
 49
-1.5
 74
     0
  0
LTYPE
  5
20
100
AcDbSymbolTableRecord
100
AcDbLinetypeTableRecord
  2
CENTER
 70
     0
  3
____ _ ____ _ ____ _ ____ _ ____ _ ____ _ ____
 72
    65
 73
     4
 40
17.5
 49
13.0
 74
     0
 49
-1.5
 74
     0
 49
1.5
 74
     0
 49
-1.5
 74
     0
  0
LTYPE
  5
21
100
AcDbSymbolTableRecord
100
AcDbLinetypeTableRecord
  2
PHANTOM
 70
     0
  3
_____ _ _ _____ _ _ _____ _ _ _____ _ _ ____  
 72
    65
 73
     6
 40
15.5
 49
8.0
 74
     0
 49
-1.5
 74
     0
 49
1.5
 74
     0
 49
-1.5
 74
     0
 49
1.5
 74
     0
 49
-1.5
 74
     0
  0
LTYPE
  5
22
100
AcDbSymbolTableRecord
100
AcDbLinetypeTableRecord
  2
DOT
 70
     0
  3
. . . . . . . . . . . . . . . . . . . . . . . .
 72
    65
 73
     2
 40
0.25
 49
0.0
 74
     0
 49
-0.25
 74
     0
  0
ENDTAB
  0
TABLE
  2
LAYER
  5
2
100
AcDbSymbolTable
 70
     3
  0
LAYER
  5
E
100
AcDbSymbolTableRecord
100
AcDbLayerTableRecord
  2
0
 70
     0
 62
     7
  6
CONTINUOUS
  0
LAYER
  5
163
100
AcDbSymbolTableRecord
100
AcDbLayerTableRecord
  2
寸法
 70
     0
 62
     1
  6
CONTINUOUS
  0
LAYER
  5
16D
102
{ACAD_XDICTIONARY
360
2FF
102
}
100
AcDbSymbolTableRecord
100
AcDbLayerTableRecord
  2
DEFPOINTS
 70
     0
 62
     7
  6
CONTINUOUS
  0
ENDTAB
  0
TABLE
  2
STYLE
  5
3
100
AcDbSymbolTable
 70
     1
  0
STYLE
  5
F
100
AcDbSymbolTableRecord
100
AcDbTextStyleTableRecord
  2
STANDARD
 70
     0
 40
0.0
 41
1.0
 50
0.0
 71
     0
 42
0.2
  3
txt
  4
BIGFONT
  0
ENDTAB
  0
TABLE
  2
VIEW
  5
6
100
AcDbSymbolTable
 70
     0
  0
ENDTAB
  0
TABLE
  2
UCS
  5
7
100
AcDbSymbolTable
 70
     0
  0
ENDTAB
  0
TABLE
  2
APPID
  5
9
100
AcDbSymbolTable
 70
     1
  0
APPID
  5
10
100
AcDbSymbolTableRecord
100
AcDbRegAppTableRecord
  2
ACAD
 70
     0
  0
ENDTAB
  0
TABLE
  2
DIMSTYLE
  5
A
100
AcDbSymbolTable
 70
     1
  0
DIMSTYLE
105
155
102
{ACAD_XDICTIONARY
360
326
102
}
102
{ACAD_REACTORS
330
18B
330
1AD
330
1CD
330
1DA
330
1E9
330
1F6
330
212
330
21F
330
235
330
243
330
27B
330
28C
102
}
100
AcDbSymbolTableRecord
100
AcDbDimStyleTableRecord
  2
STANDARD
 70
     0
  3

  4

  5
OPEN30
  6

  7

 40
1.0
 41
2.0
 42
1.0
 43
10.0
 44
1.0
 45
0.0
 46
0.0
 47
0.0
 48
0.0
140
3.0
141
2.0
142
0.0
143
25.4
144
1.0
145
0.0
146
1.0
147
1.0
 71
     0
 72
     0
 73
     0
 74
     0
 75
     0
 76
     0
 77
     1
 78
     8
170
     0
171
     2
172
     1
173
     0
174
     0
175
     0
176
     1
177
     1
178
     1
270
     2
271
     2
272
     2
273
     2
274
     2
340
F
275
     0
280
     0
281
     0
282
     0
283
     1
284
     0
285
     0
286
     0
287
     3
288
     0
  0
ENDTAB
  0
TABLE
  2
BLOCK_RECORD
  5
1
100
AcDbSymbolTable
 70
    13
  0
BLOCK_RECORD
  5
18
102
{ACAD_XDICTIONARY
360
2C6
102
}
100
AcDbSymbolTableRecord
100
AcDbBlockTableRecord
  2
*MODEL_SPACE
  0
BLOCK_RECORD
  5
15
102
{ACAD_XDICTIONARY
360
2C4
102
}
100
AcDbSymbolTableRecord
100
AcDbBlockTableRecord
  2
*PAPER_SPACE
  0
BLOCK_RECORD
  5
164
102
{ACAD_XDICTIONARY
360
2FD
102
}
100
AcDbSymbolTableRecord
100
AcDbBlockTableRecord
  2
_OPEN30
  0
BLOCK_RECORD
  5
18C
100
AcDbSymbolTableRecord
100
AcDbBlockTableRecord
  2
*D1
  0
BLOCK_RECORD
  5
1AE
100
AcDbSymbolTableRecord
100
AcDbBlockTableRecord
  2
*D2
  0
BLOCK_RECORD
  5
1CE
100
AcDbSymbolTableRecord
100
AcDbBlockTableRecord
  2
*D3
  0
BLOCK_RECORD
  5
1DB
100
AcDbSymbolTableRecord
100
AcDbBlockTableRecord
  2
*D4
  0
BLOCK_RECORD
  5
1EA
100
AcDbSymbolTableRecord
100
AcDbBlockTableRecord
  2
*D5
  0
BLOCK_RECORD
  5
1F7
100
AcDbSymbolTableRecord
100
AcDbBlockTableRecord
  2
*D6
  0
BLOCK_RECORD
  5
213
100
AcDbSymbolTableRecord
100
AcDbBlockTableRecord
  2
*D7
  0
BLOCK_RECORD
  5
220
100
AcDbSymbolTableRecord
100
AcDbBlockTableRecord
  2
*D8
  0
BLOCK_RECORD
  5
236
100
AcDbSymbolTableRecord
100
AcDbBlockTableRecord
  2
*D9
  0
BLOCK_RECORD
  5
244
100
AcDbSymbolTableRecord
100
AcDbBlockTableRecord
  2
*D10
  0
BLOCK_RECORD
  5
27C
100
AcDbSymbolTableRecord
100
AcDbBlockTableRecord
  2
*D11
  0
BLOCK_RECORD
  5
28D
100
AcDbSymbolTableRecord
100
AcDbBlockTableRecord
  2
*D12
  0
ENDTAB
  0
ENDSEC
  0
SECTION
  2
BLOCKS
  0
BLOCK
  5
19
100
AcDbEntity
  8
0
100
AcDbBlockBegin
  2
*MODEL_SPACE
 70
     0
 10
0.0
 20
0.0
 30
0.0
  3
*MODEL_SPACE
  1

  0
ENDBLK
  5
1A
100
AcDbEntity
  8
0
100
AcDbBlockEnd
  0
BLOCK
  5
16
100
AcDbEntity
 67
     1
  8
0
100
AcDbBlockBegin
  2
*PAPER_SPACE
 70
     0
 10
0.0
 20
0.0
 30
0.0
  3
*PAPER_SPACE
  1

  0
ENDBLK
  5
17
100
AcDbEntity
 67
     1
  8
0
100
AcDbBlockEnd
  0
BLOCK
  5
168
100
AcDbEntity
  8
0
100
AcDbBlockBegin
  2
_OPEN30
 70
     0
 10
0.0
 20
0.0
 30
0.0
  3
_OPEN30
  1

  0
LINE
  5
165
100
AcDbEntity
  8
0
  6
BYBLOCK
 62
     0
100
AcDbLine
 10
-1.0
 20
0.267949
 30
0.0
 11
0.0
 21
0.0
 31
0.0
1001
ACAD
1000
RTLwPs
1070
   158
  0
LINE
  5
166
100
AcDbEntity
  8
0
  6
BYBLOCK
 62
     0
100
AcDbLine
 10
0.0
 20
0.0
 30
0.0
 11
-1.0
 21
-0.267949
 31
0.0
1001
ACAD
1000
RTLwPs
1070
   158
  0
LINE
  5
167
100
AcDbEntity
  8
0
  6
BYBLOCK
 62
     0
100
AcDbLine
 10
0.0
 20
0.0
 30
0.0
 11
-1.0
 21
0.0
 31
0.0
1001
ACAD
1000
RTLwPs
1070
   158
  0
ENDBLK
  5
169
100
AcDbEntity
  8
0
100
AcDbBlockEnd
  0
BLOCK
  5
197
100
AcDbEntity
  8
0
100
AcDbBlockBegin
  2
*D1
 70
     1
 10
0.0
 20
0.0
 30
0.0
  3
*D1
  1

  0
LINE
  5
1BA
100
AcDbEntity
  8
寸法
  6
CONTINUOUS
 62
     1
100
AcDbLine
 10
127.075548
 20
-53.35805
 30
0.0
 11
134.170958
 21
-53.35805
 31
0.0
1001
ACAD
1000
RTLwPs
1070
   158
  0
LINE
  5
1BB
100
AcDbEntity
  8
寸法
  6
CONTINUOUS
 62
     1
100
AcDbLine
 10
125.932445
 20
-61.81805
 30
0.0
 11
134.170958
 21
-61.81805
 31
0.0
1001
ACAD
1000
RTLwPs
1070
   158
  0
LINE
  5
1BC
100
AcDbEntity
  8
寸法
  6
CONTINUOUS
 62
     1
100
AcDbLine
 10
133.170958
 20
-55.35805
 30
0.0
 11
133.170958
 21
-59.81805
 31
0.0
1001
ACAD
1000
RTLwPs
1070
   158
  0
LINE
  5
1BD
100
AcDbEntity
  8
寸法
  6
CONTINUOUS
 62
     1
100
AcDbLine
 10
133.170958
 20
-61.81805
 30
0.0
 11
133.170958
 21
-74.81805
 31
0.0
1001
ACAD
1000
RTLwPs
1070
   158
  0
INSERT
  5
1BE
100
AcDbEntity
  8
寸法
  6
CONTINUOUS
 62
     1
100
AcDbBlockReference
  2
_OPEN30
 10
133.170958
 20
-53.35805
 30
0.0
 41
2.0
 42
2.0
 43
2.0
 50
90.0
1001
ACAD
1000
RTLwPs
1070
   158
  0
INSERT
  5
1BF
100
AcDbEntity
  8
寸法
  6
CONTINUOUS
 62
     1
100
AcDbBlockReference
  2
_OPEN30
 10
133.170958
 20
-61.81805
 30
0.0
 41
2.0
 42
2.0
 43
2.0
 50
270.0
1001
ACAD
1000
RTLwPs
1070
   158
  0
MTEXT
  5
1C0
100
AcDbEntity
  8
寸法
  6
CONTINUOUS
 62
     1
100
AcDbMText
 10
130.670958
 20
-69.31805
 30
0.0
 40
3.0
 41
0.0
 71
     5
 72
     1
  1
\A1;8.46
 11
0.0
 21
1.0
 31
0.0
1001
ACAD
1000
MTEXTBEGIN
1070
    73
1070
     1
1070
    44
1040
1.0
1070
    74
1070
     0
1000
MTEXTEND
1000
MTEXTBEGIN
1070
    73
1070
     1
1070
    44
1040
1.0
1070
    74
1070
     0
1000
MTEXTEND
  0
POINT
  5
1C1
100
AcDbEntity
  8
DEFPOINTS
  6
CONTINUOUS
 62
     0
100
AcDbPoint
 10
126.075548
 20
-53.35805
 30
0.0
  0
POINT
  5
1C2
100
AcDbEntity
  8
DEFPOINTS
  6
CONTINUOUS
 62
     0
100
AcDbPoint
 10
124.932445
 20
-61.81805
 30
0.0
  0
POINT
  5
1C3
100
AcDbEntity
  8
DEFPOINTS
  6
CONTINUOUS
 62
     0
100
AcDbPoint
 10
133.170958
 20
-61.81805
 30
0.0
  0
ENDBLK
  5
198
100
AcDbEntity
  8
0
100
AcDbBlockEnd
  0
BLOCK
  5
1B8
100
AcDbEntity
  8
0
100
AcDbBlockBegin
  2
*D2
 70
     1
 10
0.0
 20
0.0
 30
0.0
  3
*D2
  1

  0
LINE
  5
1C4
100
AcDbEntity
  8
寸法
  6
CONTINUOUS
 62
     1
100
AcDbLine
 10
64.170958
 20
-40.81805
 30
0.0
 11
81.0
 21
-40.81805
 31
0.0
1001
ACAD
1000
RTLwPs
1070
   158
  0
LINE
  5
1C5
100
AcDbEntity
  8
寸法
  6
CONTINUOUS
 62
     1
100
AcDbLine
 10
64.170958
 20
-61.81805
 30
0.0
 11
81.0
 21
-61.81805
 31
0.0
1001
ACAD
1000
RTLwPs
1070
   158
  0
LINE
  5
1C6
100
AcDbEntity
  8
寸法
  6
CONTINUOUS
 62
     1
100
AcDbLine
 10
80.0
 20
-42.81805
 30
0.0
 11
80.0
 21
-59.81805
 31
0.0
1001
ACAD
1000
RTLwPs
1070
   158
  0
INSERT
  5
1C7
100
AcDbEntity
  8
寸法
  6
CONTINUOUS
 62
     1
100
AcDbBlockReference
  2
_OPEN30
 10
80.0
 20
-40.81805
 30
0.0
 41
2.0
 42
2.0
 43
2.0
 50
90.0
1001
ACAD
1000
RTLwPs
1070
   158
  0
INSERT
  5
1C8
100
AcDbEntity
  8
寸法
  6
CONTINUOUS
 62
     1
100
AcDbBlockReference
  2
_OPEN30
 10
80.0
 20
-61.81805
 30
0.0
 41
2.0
 42
2.0
 43
2.0
 50
270.0
1001
ACAD
1000
RTLwPs
1070
   158
  0
MTEXT
  5
1C9
100
AcDbEntity
  8
寸法
  6
CONTINUOUS
 62
     1
100
AcDbMText
 10
77.5
 20
-51.31805
 30
0.0
 40
3.0
 41
0.0
 71
     5
 72
     1
  1
\A1;21
 11
0.0
 21
1.0
 31
0.0
1001
ACAD
1000
MTEXTBEGIN
1070
    73
1070
     1
1070
    44
1040
1.0
1070
    74
1070
     0
1000
MTEXTEND
1000
MTEXTBEGIN
1070
    73
1070
     1
1070
    44
1040
1.0
1070
    74
1070
     0
1000
MTEXTEND
  0
POINT
  5
1CA
100
AcDbEntity
  8
DEFPOINTS
  6
CONTINUOUS
 62
     0
100
AcDbPoint
 10
63.170958
 20
-40.81805
 30
0.0
  0
POINT
  5
1CB
100
AcDbEntity
  8
DEFPOINTS
  6
CONTINUOUS
 62
     0
100
AcDbPoint
 10
63.170958
 20
-61.81805
 30
0.0
  0
POINT
  5
1CC
100
AcDbEntity
  8
DEFPOINTS
  6
CONTINUOUS
 62
     0
100
AcDbPoint
 10
80.0
 20
-61.81805
 30
0.0
  0
ENDBLK
  5
1B9
100
AcDbEntity
  8
0
100
AcDbBlockEnd
  0
BLOCK
  5
1D8
100
AcDbEntity
  8
0
100
AcDbBlockBegin
  2
*D3
 70
     1
 10
0.0
 20
0.0
 30
0.0
  3
*D3
  1

  0
LINE
  5
1CF
100
AcDbEntity
  8
寸法
  6
CONTINUOUS
 62
     1
100
AcDbLine
 10
2.202145
 20
-43.814773
 30
0.0
 11
-11.0
 21
-43.814773
 31
0.0
1001
ACAD
1000
RTLwPs
1070
   158
  0
LINE
  5
1D0
100
AcDbEntity
  8
寸法
  6
CONTINUOUS
 62
     1
100
AcDbLine
 10
4.062834
 20
-61.81805
 30
0.0
 11
-11.0
 21
-61.81805
 31
0.0
1001
ACAD
1000
RTLwPs
1070
   158
  0
LINE
  5
1D1
100
AcDbEntity
  8
寸法
  6
CONTINUOUS
 62
     1
100
AcDbLine
 10
-10.0
 20
-45.814773
 30
0.0
 11
-10.0
 21
-59.81805
 31
0.0
1001
ACAD
1000
RTLwPs
1070
   158
  0
INSERT
  5
1D2
100
AcDbEntity
  8
寸法
  6
CONTINUOUS
 62
     1
100
AcDbBlockReference
  2
_OPEN30
 10
-10.0
 20
-43.814773
 30
0.0
 41
2.0
 42
2.0
 43
2.0
 50
90.0
1001
ACAD
1000
RTLwPs
1070
   158
  0
INSERT
  5
1D3
100
AcDbEntity
  8
寸法
  6
CONTINUOUS
 62
     1
100
AcDbBlockReference
  2
_OPEN30
 10
-10.0
 20
-61.81805
 30
0.0
 41
2.0
 42
2.0
 43
2.0
 50
270.0
1001
ACAD
1000
RTLwPs
1070
   158
  0
MTEXT
  5
1D4
100
AcDbEntity
  8
寸法
  6
CONTINUOUS
 62
     1
100
AcDbMText
 10
-12.5
 20
-52.816411
 30
0.0
 40
3.0
 41
0.0
 71
     5
 72
     1
  1
\A1;18
 11
0.0
 21
1.0
 31
0.0
1001
ACAD
1000
MTEXTBEGIN
1070
    73
1070
     1
1070
    44
1040
1.0
1070
    74
1070
     0
1000
MTEXTEND
1000
MTEXTBEGIN
1070
    73
1070
     1
1070
    44
1040
1.0
1070
    74
1070
     0
1000
MTEXTEND
  0
POINT
  5
1D5
100
AcDbEntity
  8
DEFPOINTS
  6
CONTINUOUS
 62
     0
100
AcDbPoint
 10
3.202145
 20
-43.814773
 30
0.0
  0
POINT
  5
1D6
100
AcDbEntity
  8
DEFPOINTS
  6
CONTINUOUS
 62
     0
100
AcDbPoint
 10
5.062834
 20
-61.81805
 30
0.0
  0
POINT
  5
1D7
100
AcDbEntity
  8
DEFPOINTS
  6
CONTINUOUS
 62
     0
100
AcDbPoint
 10
-10.0
 20
-61.81805
 30
0.0
  0
ENDBLK
  5
1D9
100
AcDbEntity
  8
0
100
AcDbBlockEnd
  0
BLOCK
  5
1E7
100
AcDbEntity
  8
0
100
AcDbBlockBegin
  2
*D4
 70
     1
 10
0.0
 20
0.0
 30
0.0
  3
*D4
  1

  0
LINE
  5
207
100
AcDbEntity
  8
寸法
  6
CONTINUOUS
 62
     1
100
AcDbLine
 10
50.920958
 20
-66.406581
 30
0.0
 11
50.920958
 21
-71.0
 31
0.0
1001
ACAD
1000
RTLwPs
1070
   158
  0
LINE
  5
208
100
AcDbEntity
  8
寸法
  6
CONTINUOUS
 62
     1
100
AcDbLine
 10
47.420958
 20
-66.406581
 30
0.0
 11
47.420958
 21
-71.0
 31
0.0
1001
ACAD
1000
RTLwPs
1070
   158
  0
LINE
  5
209
100
AcDbEntity
  8
寸法
  6
CONTINUOUS
 62
     1
100
AcDbLine
 10
52.920958
 20
-70.0
 30
0.0
 11
54.920958
 21
-70.0
 31
0.0
1001
ACAD
1000
RTLwPs
1070
   158
  0
LINE
  5
20A
100
AcDbEntity
  8
寸法
  6
CONTINUOUS
 62
     1
100
AcDbLine
 10
45.420958
 20
-70.0
 30
0.0
 11
35.420958
 21
-70.0
 31
0.0
1001
ACAD
1000
RTLwPs
1070
   158
  0
LINE
  5
20B
100
AcDbEntity
  8
寸法
  6
CONTINUOUS
 62
     1
100
AcDbLine
 10
50.920958
 20
-70.0
 30
0.0
 11
47.420958
 21
-70.0
 31
0.0
1001
ACAD
1000
RTLwPs
1070
   158
  0
INSERT
  5
20C
100
AcDbEntity
  8
寸法
  6
CONTINUOUS
 62
     1
100
AcDbBlockReference
  2
_OPEN30
 10
50.920958
 20
-70.0
 30
0.0
 41
2.0
 42
2.0
 43
2.0
 50
180.0
1001
ACAD
1000
RTLwPs
1070
   158
  0
INSERT
  5
20D
100
AcDbEntity
  8
寸法
  6
CONTINUOUS
 62
     1
100
AcDbBlockReference
  2
_OPEN30
 10
47.420958
 20
-70.0
 30
0.0
 41
2.0
 42
2.0
 43
2.0
1001
ACAD
1000
RTLwPs
1070
   158
  0
MTEXT
  5
20E
100
AcDbEntity
  8
寸法
  6
CONTINUOUS
 62
     1
100
AcDbMText
 10
39.420958
 20
-67.5
 30
0.0
 40
3.0
 41
0.0
 71
     5
 72
     1
  1
\A1;3.5
1001
ACAD
1000
MTEXTBEGIN
1070
    73
1070
     1
1070
    44
1040
1.0
1070
    74
1070
     0
1000
MTEXTEND
1000
MTEXTBEGIN
1070
    73
1070
     1
1070
    44
1040
1.0
1070
    74
1070
     0
1000
MTEXTEND
  0
POINT
  5
20F
100
AcDbEntity
  8
DEFPOINTS
  6
CONTINUOUS
 62
     0
100
AcDbPoint
 10
50.920958
 20
-65.406581
 30
0.0
  0
POINT
  5
210
100
AcDbEntity
  8
DEFPOINTS
  6
CONTINUOUS
 62
     0
100
AcDbPoint
 10
47.420958
 20
-65.406581
 30
0.0
  0
POINT
  5
211
100
AcDbEntity
  8
DEFPOINTS
  6
CONTINUOUS
 62
     0
100
AcDbPoint
 10
47.420958
 20
-70.0
 30
0.0
  0
ENDBLK
  5
1E8
100
AcDbEntity
  8
0
100
AcDbBlockEnd
  0
BLOCK
  5
1F4
100
AcDbEntity
  8
0
100
AcDbBlockBegin
  2
*D5
 70
     1
 10
0.0
 20
0.0
 30
0.0
  3
*D5
  1

  0
LINE
  5
1EB
100
AcDbEntity
  8
寸法
  6
CONTINUOUS
 62
     1
100
AcDbLine
 10
71.170958
 20
-48.318057
 30
0.0
 11
71.170958
 21
-29.0
 31
0.0
1001
ACAD
1000
RTLwPs
1070
   158
  0
LINE
  5
1EC
100
AcDbEntity
  8
寸法
  6
CONTINUOUS
 62
     1
100
AcDbLine
 10
49.170958
 20
-35.673865
 30
0.0
 11
49.170958
 21
-29.0
 31
0.0
1001
ACAD
1000
RTLwPs
1070
   158
  0
LINE
  5
1ED
100
AcDbEntity
  8
寸法
  6
CONTINUOUS
 62
     1
100
AcDbLine
 10
69.170958
 20
-30.0
 30
0.0
 11
51.170958
 21
-30.0
 31
0.0
1001
ACAD
1000
RTLwPs
1070
   158
  0
INSERT
  5
1EE
100
AcDbEntity
  8
寸法
  6
CONTINUOUS
 62
     1
100
AcDbBlockReference
  2
_OPEN30
 10
71.170958
 20
-30.0
 30
0.0
 41
2.0
 42
2.0
 43
2.0
1001
ACAD
1000
RTLwPs
1070
   158
  0
INSERT
  5
1EF
100
AcDbEntity
  8
寸法
  6
CONTINUOUS
 62
     1
100
AcDbBlockReference
  2
_OPEN30
 10
49.170958
 20
-30.0
 30
0.0
 41
2.0
 42
2.0
 43
2.0
 50
180.0
1001
ACAD
1000
RTLwPs
1070
   158
  0
MTEXT
  5
1F0
100
AcDbEntity
  8
寸法
  6
CONTINUOUS
 62
     1
100
AcDbMText
 10
60.170958
 20
-27.5
 30
0.0
 40
3.0
 41
0.0
 71
     5
 72
     1
  1
\A1;22
1001
ACAD
1000
MTEXTBEGIN
1070
    73
1070
     1
1070
    44
1040
1.0
1070
    74
1070
     0
1000
MTEXTEND
1000
MTEXTBEGIN
1070
    73
1070
     1
1070
    44
1040
1.0
1070
    74
1070
     0
1000
MTEXTEND
  0
POINT
  5
1F1
100
AcDbEntity
  8
DEFPOINTS
  6
CONTINUOUS
 62
     0
100
AcDbPoint
 10
71.170958
 20
-49.318057
 30
0.0
  0
POINT
  5
1F2
100
AcDbEntity
  8
DEFPOINTS
  6
CONTINUOUS
 62
     0
100
AcDbPoint
 10
49.170958
 20
-36.673865
 30
0.0
  0
POINT
  5
1F3
100
AcDbEntity
  8
DEFPOINTS
  6
CONTINUOUS
 62
     0
100
AcDbPoint
 10
49.170958
 20
-30.0
 30
0.0
  0
ENDBLK
  5
1F5
100
AcDbEntity
  8
0
100
AcDbBlockEnd
  0
BLOCK
  5
205
100
AcDbEntity
  8
0
100
AcDbBlockBegin
  2
*D6
 70
     1
 10
0.0
 20
0.0
 30
0.0
  3
*D6
  1

  0
LINE
  5
32A
100
AcDbEntity
  8
寸法
  6
CONTINUOUS
 62
     1
100
AcDbLine
 10
27.859742
 20
-40.81805
 30
0.0
 11
-20.934886
 21
-40.81805
 31
0.0
  0
LINE
  5
32B
100
AcDbEntity
  8
寸法
  6
CONTINUOUS
 62
     1
100
AcDbLine
 10
2.176436
 20
-43.622575
 30
0.0
 11
-20.662106
 21
-46.023
 31
0.0
  0
ARC
  5
32C
100
AcDbEntity
  8
寸法
  6
CONTINUOUS
 62
     1
100
AcDbCircle
 10
28.859744
 20
-40.81805
 30
0.0
 40
48.79463
100
AcDbArc
 50
177.651389
 51
180.0
  0
LINE
  5
32D
100
AcDbEntity
  8
寸法
  6
CONTINUOUS
 62
     1
100
AcDbLine
 10
-19.893898
 20
-38.81847
 30
0.0
 11
-19.541474
 21
-30.225694
 31
0.0
  0
ARC
  5
32E
100
AcDbEntity
  8
寸法
  6
CONTINUOUS
 62
     1
100
AcDbCircle
 10
28.859744
 20
-40.81805
 30
0.0
 40
48.79463
100
AcDbArc
 50
182.348611
 51
183.651382
  0
INSERT
  5
32F
100
AcDbEntity
  8
寸法
  6
CONTINUOUS
 62
     1
100
AcDbBlockReference
  2
_OPEN30
 10
-19.934886
 20
-40.81805
 30
0.0
 41
2.0
 42
2.0
 43
2.0
 50
91.174305
  0
INSERT
  5
330
100
AcDbEntity
  8
寸法
  6
CONTINUOUS
 62
     1
100
AcDbBlockReference
  2
_OPEN30
 10
-19.667584
 20
-45.918472
 30
0.0
 41
2.0
 42
2.0
 43
2.0
 50
274.825688
  0
MTEXT
  5
331
100
AcDbEntity
  8
寸法
  6
CONTINUOUS
 62
     1
100
AcDbMText
 10
-17.219786
 20
-34.624531
 30
0.0
 40
3.0
 41
0.0
 71
     5
 72
     1
  1
\A1;6°
 11
-0.04098
 21
-0.99916
 31
0.0
  0
POINT
  5
332
100
AcDbEntity
  8
DEFPOINTS
  6
CONTINUOUS
 62
     0
100
AcDbPoint
 10
-19.816025
 20
-44.221787
 30
0.0
  0
POINT
  5
333
100
AcDbEntity
  8
DEFPOINTS
  6
CONTINUOUS
 62
     0
100
AcDbPoint
 10
28.859742
 20
-40.81805
 30
0.0
  0
POINT
  5
334
100
AcDbEntity
  8
DEFPOINTS
  6
CONTINUOUS
 62
     0
100
AcDbPoint
 10
3.170958
 20
-43.518047
 30
0.0
  0
POINT
  5
335
100
AcDbEntity
  8
DEFPOINTS
  6
CONTINUOUS
 62
     0
100
AcDbPoint
 10
28.859744
 20
-40.81805
 30
0.0
  0
POINT
  5
336
100
AcDbEntity
  8
DEFPOINTS
  6
CONTINUOUS
 62
     0
100
AcDbPoint
 10
63.170958
 20
-40.81805
 30
0.0
  0
ENDBLK
  5
206
100
AcDbEntity
  8
0
100
AcDbBlockEnd
  0
BLOCK
  5
21D
100
AcDbEntity
  8
0
100
AcDbBlockBegin
  2
*D7
 70
     1
 10
0.0
 20
0.0
 30
0.0
  3
*D7
  1

  0
LINE
  5
214
100
AcDbEntity
  8
寸法
  6
CONTINUOUS
 62
     1
100
AcDbLine
 10
71.170958
 20
9.0
 30
0.0
 11
71.170958
 21
-21.0
 31
0.0
1001
ACAD
1000
RTLwPs
1070
   158
  0
LINE
  5
215
100
AcDbEntity
  8
寸法
  6
CONTINUOUS
 62
     1
100
AcDbLine
 10
3.170958
 20
-0.999999
 30
0.0
 11
3.170958
 21
-21.0
 31
0.0
1001
ACAD
1000
RTLwPs
1070
   158
  0
LINE
  5
216
100
AcDbEntity
  8
寸法
  6
CONTINUOUS
 62
     1
100
AcDbLine
 10
69.170958
 20
-20.0
 30
0.0
 11
5.170958
 21
-20.0
 31
0.0
1001
ACAD
1000
RTLwPs
1070
   158
  0
INSERT
  5
217
100
AcDbEntity
  8
寸法
  6
CONTINUOUS
 62
     1
100
AcDbBlockReference
  2
_OPEN30
 10
71.170958
 20
-20.0
 30
0.0
 41
2.0
 42
2.0
 43
2.0
1001
ACAD
1000
RTLwPs
1070
   158
  0
INSERT
  5
218
100
AcDbEntity
  8
寸法
  6
CONTINUOUS
 62
     1
100
AcDbBlockReference
  2
_OPEN30
 10
3.170958
 20
-20.0
 30
0.0
 41
2.0
 42
2.0
 43
2.0
 50
180.0
1001
ACAD
1000
RTLwPs
1070
   158
  0
MTEXT
  5
219
100
AcDbEntity
  8
寸法
  6
CONTINUOUS
 62
     1
100
AcDbMText
 10
37.170958
 20
-17.5
 30
0.0
 40
3.0
 41
0.0
 71
     5
 72
     1
  1
\A1;68
1001
ACAD
1000
MTEXTBEGIN
1070
    73
1070
     1
1070
    44
1040
1.0
1070
    74
1070
     0
1000
MTEXTEND
1000
MTEXTBEGIN
1070
    73
1070
     1
1070
    44
1040
1.0
1070
    74
1070
     0
1000
MTEXTEND
  0
POINT
  5
21A
100
AcDbEntity
  8
DEFPOINTS
  6
CONTINUOUS
 62
     0
100
AcDbPoint
 10
71.170958
 20
10.0
 30
0.0
  0
POINT
  5
21B
100
AcDbEntity
  8
DEFPOINTS
  6
CONTINUOUS
 62
     0
100
AcDbPoint
 10
3.170958
 20
0.000001
 30
0.0
  0
POINT
  5
21C
100
AcDbEntity
  8
DEFPOINTS
  6
CONTINUOUS
 62
     0
100
AcDbPoint
 10
3.170958
 20
-20.0
 30
0.0
  0
ENDBLK
  5
21E
100
AcDbEntity
  8
0
100
AcDbBlockEnd
  0
BLOCK
  5
22A
100
AcDbEntity
  8
0
100
AcDbBlockBegin
  2
*D8
 70
     1
 10
0.0
 20
0.0
 30
0.0
  3
*D8
  1

  0
LINE
  5
337
100
AcDbEntity
  8
寸法
  6
CONTINUOUS
 62
     1
100
AcDbLine
 10
71.170958
 20
9.0
 30
0.0
 11
71.170958
 21
-11.0
 31
0.0
  0
LINE
  5
338
100
AcDbEntity
  8
寸法
  6
CONTINUOUS
 62
     1
100
AcDbLine
 10
63.170958
 20
2.543002
 30
0.0
 11
63.170958
 21
-11.0
 31
0.0
  0
LINE
  5
339
100
AcDbEntity
  8
寸法
  6
CONTINUOUS
 62
     1
100
AcDbLine
 10
69.170958
 20
-10.0
 30
0.0
 11
65.170958
 21
-10.0
 31
0.0
  0
INSERT
  5
33A
100
AcDbEntity
  8
寸法
  6
CONTINUOUS
 62
     1
100
AcDbBlockReference
  2
_OPEN30
 10
71.170958
 20
-10.0
 30
0.0
 41
2.0
 42
2.0
 43
2.0
  0
INSERT
  5
33B
100
AcDbEntity
  8
寸法
  6
CONTINUOUS
 62
     1
100
AcDbBlockReference
  2
_OPEN30
 10
63.170958
 20
-10.0
 30
0.0
 41
2.0
 42
2.0
 43
2.0
 50
180.0
  0
MTEXT
  5
33C
100
AcDbEntity
  8
寸法
  6
CONTINUOUS
 62
     1
100
AcDbMText
 10
67.170958
 20
-7.5
 30
0.0
 40
3.0
 41
0.0
 71
     5
 72
     1
  1
\A1;8
  0
POINT
  5
33D
100
AcDbEntity
  8
DEFPOINTS
  6
CONTINUOUS
 62
     0
100
AcDbPoint
 10
71.170958
 20
10.0
 30
0.0
  0
POINT
  5
33E
100
AcDbEntity
  8
DEFPOINTS
  6
CONTINUOUS
 62
     0
100
AcDbPoint
 10
63.170958
 20
3.543002
 30
0.0
  0
POINT
  5
33F
100
AcDbEntity
  8
DEFPOINTS
  6
CONTINUOUS
 62
     0
100
AcDbPoint
 10
63.170958
 20
-10.0
 30
0.0
  0
ENDBLK
  5
22B
100
AcDbEntity
  8
0
100
AcDbBlockEnd
  0
BLOCK
  5
240
100
AcDbEntity
  8
0
100
AcDbBlockBegin
  2
*D9
 70
     1
 10
0.0
 20
0.0
 30
0.0
  3
*D9
  1

  0
LINE
  5
237
100
AcDbEntity
  8
寸法
  6
CONTINUOUS
 62
     1
100
AcDbLine
 10
2.170958
 20
23.000002
 30
0.0
 11
-11.0
 21
23.000002
 31
0.0
1001
ACAD
1000
RTLwPs
1070
   158
  0
LINE
  5
238
100
AcDbEntity
  8
寸法
  6
CONTINUOUS
 62
     1
100
AcDbLine
 10
2.170958
 20
0.000002
 30
0.0
 11
-11.0
 21
0.000002
 31
0.0
1001
ACAD
1000
RTLwPs
1070
   158
  0
LINE
  5
239
100
AcDbEntity
  8
寸法
  6
CONTINUOUS
 62
     1
100
AcDbLine
 10
-10.0
 20
21.000002
 30
0.0
 11
-10.0
 21
2.000002
 31
0.0
1001
ACAD
1000
RTLwPs
1070
   158
  0
INSERT
  5
23A
100
AcDbEntity
  8
寸法
  6
CONTINUOUS
 62
     1
100
AcDbBlockReference
  2
_OPEN30
 10
-10.0
 20
23.000002
 30
0.0
 41
2.0
 42
2.0
 43
2.0
 50
90.0
1001
ACAD
1000
RTLwPs
1070
   158
  0
INSERT
  5
23B
100
AcDbEntity
  8
寸法
  6
CONTINUOUS
 62
     1
100
AcDbBlockReference
  2
_OPEN30
 10
-10.0
 20
0.000002
 30
0.0
 41
2.0
 42
2.0
 43
2.0
 50
270.0
1001
ACAD
1000
RTLwPs
1070
   158
  0
MTEXT
  5
23C
100
AcDbEntity
  8
寸法
  6
CONTINUOUS
 62
     1
100
AcDbMText
 10
-12.5
 20
11.500002
 30
0.0
 40
3.0
 41
0.0
 71
     5
 72
     1
  1
\A1;23
 11
0.0
 21
1.0
 31
0.0
1001
ACAD
1000
MTEXTBEGIN
1070
    73
1070
     1
1070
    44
1040
1.0
1070
    74
1070
     0
1000
MTEXTEND
1000
MTEXTBEGIN
1070
    73
1070
     1
1070
    44
1040
1.0
1070
    74
1070
     0
1000
MTEXTEND
  0
POINT
  5
23D
100
AcDbEntity
  8
DEFPOINTS
  6
CONTINUOUS
 62
     0
100
AcDbPoint
 10
3.170958
 20
23.000002
 30
0.0
  0
POINT
  5
23E
100
AcDbEntity
  8
DEFPOINTS
  6
CONTINUOUS
 62
     0
100
AcDbPoint
 10
3.170958
 20
0.000002
 30
0.0
  0
POINT
  5
23F
100
AcDbEntity
  8
DEFPOINTS
  6
CONTINUOUS
 62
     0
100
AcDbPoint
 10
-10.0
 20
0.000002
 30
0.0
  0
ENDBLK
  5
241
100
AcDbEntity
  8
0
100
AcDbBlockEnd
  0
BLOCK
  5
250
100
AcDbEntity
  8
0
100
AcDbBlockBegin
  2
*D10
 70
     1
 10
0.0
 20
0.0
 30
0.0
  3
*D10
  1

  0
ARC
  5
340
100
AcDbEntity
  8
寸法
  6
CONTINUOUS
 62
     1
100
AcDbCircle
 10
3.170958
 20
0.000001
 30
0.0
 40
6.439363
100
AcDbArc
 50
107.867796
 51
162.132204
  0
INSERT
  5
341
100
AcDbEntity
  8
寸法
  6
CONTINUOUS
 62
     1
100
AcDbBlockReference
  2
_OPEN30
 10
3.170958
 20
6.439364
 30
0.0
 41
2.0
 42
2.0
 43
2.0
 50
8.933898
  0
INSERT
  5
342
100
AcDbEntity
  8
寸法
  6
CONTINUOUS
 62
     1
100
AcDbBlockReference
  2
_OPEN30
 10
-3.268405
 20
0.000001
 30
0.0
 41
2.0
 42
2.0
 43
2.0
 50
261.066102
  0
MTEXT
  5
343
100
AcDbEntity
  8
寸法
  6
CONTINUOUS
 62
     1
100
AcDbMText
 10
-1.915303
 20
7.351339
 30
0.0
 40
3.0
 41
0.0
 71
     5
 72
     1
  1
\A1;90°
 11
0.822356
 21
0.568973
 31
0.0
  0
POINT
  5
344
100
AcDbEntity
  8
DEFPOINTS
  6
CONTINUOUS
 62
     0
100
AcDbPoint
 10
-2.405694
 20
3.219683
 30
0.0
  0
POINT
  5
345
100
AcDbEntity
  8
DEFPOINTS
  6
CONTINUOUS
 62
     0
100
AcDbPoint
 10
3.170958
 20
23.000002
 30
0.0
  0
POINT
  5
346
100
AcDbEntity
  8
DEFPOINTS
  6
CONTINUOUS
 62
     0
100
AcDbPoint
 10
3.170958
 20
0.000001
 30
0.0
  0
POINT
  5
347
100
AcDbEntity
  8
DEFPOINTS
  6
CONTINUOUS
 62
     0
100
AcDbPoint
 10
-31.275692
 20
0.000001
 30
0.0
  0
POINT
  5
348
100
AcDbEntity
  8
DEFPOINTS
  6
CONTINUOUS
 62
     0
100
AcDbPoint
 10
3.170958
 20
0.000002
 30
0.0
  0
ENDBLK
  5
251
100
AcDbEntity
  8
0
100
AcDbBlockEnd
  0
BLOCK
  5
28A
100
AcDbEntity
  8
0
100
AcDbBlockBegin
  2
*D11
 70
     1
 10
0.0
 20
0.0
 30
0.0
  3
*D11
  1

  0
LINE
  5
349
100
AcDbEntity
  8
寸法
  6
CONTINUOUS
 62
     1
100
AcDbLine
 10
-56.831429
 20
-1.0
 30
0.0
 11
-56.831429
 21
-17.106223
 31
0.0
  0
LINE
  5
34A
100
AcDbEntity
  8
寸法
  6
CONTINUOUS
 62
     1
100
AcDbLine
 10
-52.827383
 20
-0.990268
 30
0.0
 11
-50.623443
 21
-16.672119
 31
0.0
  0
ARC
  5
34B
100
AcDbEntity
  8
寸法
  6
CONTINUOUS
 62
     1
100
AcDbCircle
 10
-56.831429
 20
27.5
 30
0.0
 40
43.606223
100
AcDbArc
 50
267.371898
 51
270.0
  0
LINE
  5
34C
100
AcDbEntity
  8
寸法
  6
CONTINUOUS
 62
     1
100
AcDbLine
 10
-58.830903
 20
-16.060358
 30
0.0
 11
-67.421858
 21
-15.666023
 31
0.0
  0
ARC
  5
34D
100
AcDbEntity
  8
寸法
  6
CONTINUOUS
 62
     1
100
AcDbCircle
 10
-56.831429
 20
27.5
 30
0.0
 40
43.606223
100
AcDbArc
 50
272.628102
 51
275.371898
  0
INSERT
  5
34E
100
AcDbEntity
  8
寸法
  6
CONTINUOUS
 62
     1
100
AcDbBlockReference
  2
_OPEN30
 10
-56.831429
 20
-16.106223
 30
0.0
 41
2.0
 42
2.0
 43
2.0
 50
181.314051
  0
INSERT
  5
34F
100
AcDbEntity
  8
寸法
  6
CONTINUOUS
 62
     1
100
AcDbBlockReference
  2
_OPEN30
 10
-50.762616
 20
-15.681851
 30
0.0
 41
2.0
 42
2.0
 43
2.0
 50
6.685949
  0
MTEXT
  5
350
100
AcDbEntity
  8
寸法
  6
CONTINUOUS
 62
     1
100
AcDbMText
 10
-63.011748
 20
-13.36582
 30
0.0
 40
3.0
 41
0.0
 71
     5
 72
     1
  1
\A1;8°
 11
0.998948
 21
-0.045853
 31
0.0
  0
POINT
  5
351
100
AcDbEntity
  8
DEFPOINTS
  6
CONTINUOUS
 62
     0
100
AcDbPoint
 10
-52.778237
 20
-15.917443
 30
0.0
  0
POINT
  5
352
100
AcDbEntity
  8
DEFPOINTS
  6
CONTINUOUS
 62
     0
100
AcDbPoint
 10
-56.831429
 20
27.5
 30
0.0
  0
POINT
  5
353
100
AcDbEntity
  8
DEFPOINTS
  6
CONTINUOUS
 62
     0
100
AcDbPoint
 10
-52.966556
 20
0.0
 30
0.0
  0
POINT
  5
354
100
AcDbEntity
  8
DEFPOINTS
  6
CONTINUOUS
 62
     0
100
AcDbPoint
 10
-56.831429
 20
27.5
 30
0.0
  0
POINT
  5
355
100
AcDbEntity
  8
DEFPOINTS
  6
CONTINUOUS
 62
     0
100
AcDbPoint
 10
-56.831429
 20
0.0
 30
0.0
  0
ENDBLK
  5
28B
100
AcDbEntity
  8
0
100
AcDbBlockEnd
  0
BLOCK
  5
294
100
AcDbEntity
  8
0
100
AcDbBlockBegin
  2
*D12
 70
     1
 10
0.0
 20
0.0
 30
0.0
  3
*D12
  1

  0
LINE
  5
296
100
AcDbEntity
  8
寸法
  6
CONTINUOUS
 62
     1
100
AcDbLine
 10
-96.426884
 20
15.072212
 30
0.0
 11
-84.977596
 21
18.665789
 31
0.0
1001
ACAD
1000
RTLwPs
1070
   158
  0
MTEXT
  5
297
100
AcDbEntity
  8
寸法
  6
CONTINUOUS
 62
     1
100
AcDbMText
 10
-92.405009
 20
18.954804
 30
0.0
 40
3.0
 41
0.0
 71
     5
 72
     1
  1
\A1;%%c55
 11
0.954107
 21
0.299465
 31
0.0
1001
ACAD
1000
MTEXTBEGIN
1070
    73
1070
     1
1070
    44
1040
1.0
1070
    74
1070
     0
1000
MTEXTEND
1000
MTEXTBEGIN
1070
    73
1070
     1
1070
    44
1040
1.0
1070
    74
1070
     0
1000
MTEXTEND
  0
LINE
  5
298
100
AcDbEntity
  8
寸法
  6
CONTINUOUS
 62
     1
100
AcDbLine
 10
-56.831429
 20
27.5
 30
0.0
 11
-83.069381
 21
19.264719
 31
0.0
1001
ACAD
1000
RTLwPs
1070
   158
  0
INSERT
  5
299
100
AcDbEntity
  8
寸法
  6
CONTINUOUS
 62
     1
100
AcDbBlockReference
  2
_OPEN30
 10
-83.069381
 20
19.264719
 30
0.0
 41
2.0
 42
2.0
 43
2.0
 50
17.425459
1001
ACAD
1000
RTLwPs
1070
   158
  0
POINT
  5
29A
100
AcDbEntity
  8
DEFPOINTS
  6
CONTINUOUS
 62
     0
100
AcDbPoint
 10
-83.069381
 20
19.264719
 30
0.0
  0
POINT
  5
29B
100
AcDbEntity
  8
DEFPOINTS
  6
CONTINUOUS
 62
     0
100
AcDbPoint
 10
-56.831429
 20
27.5
 30
0.0
  0
ENDBLK
  5
295
100
AcDbEntity
  8
0
100
AcDbBlockEnd
  0
ENDSEC
  0
SECTION
  2
ENTITIES
  0
POINT
  5
24
100
AcDbEntity
  8
0
  6
CONTINUOUS
 62
     7
100
AcDbPoint
 10
3.170958
 20
-43.81805
 30
0.0
  0
POINT
  5
25
100
AcDbEntity
  8
0
  6
CONTINUOUS
 62
     7
100
AcDbPoint
 10
3.170958
 20
0.000001
 30
0.0
  0
POINT
  5
26
100
AcDbEntity
  8
0
  6
CONTINUOUS
 62
     7
100
AcDbPoint
 10
-52.03143
 20
0.0
 30
0.0
  0
POINT
  5
27
100
AcDbEntity
  8
0
  6
CONTINUOUS
 62
     7
100
AcDbPoint
 10
107.903188
 20
-61.833533
 30
0.0
  0
LINE
  5
28
100
AcDbEntity
  8
0
  6
CONTINUOUS
 62
     7
100
AcDbLine
 10
3.170958
 20
23.000002
 30
0.0
 11
3.170958
 21
0.000002
 31
0.0
  0
LINE
  5
29
100
AcDbEntity
  8
0
  6
CONTINUOUS
 62
     7
100
AcDbLine
 10
3.170958
 20
0.000001
 30
0.0
 11
22.220959
 21
10.998525
 31
0.0
  0
LINE
  5
2A
100
AcDbEntity
  8
0
  6
CONTINUOUS
 62
     7
100
AcDbLine
 10
3.170957
 20
21.997046
 30
0.0
 11
22.220957
 21
10.998522
 31
0.0
  0
LINE
  5
2B
100
AcDbEntity
  8
0
  6
CONTINUOUS
 62
     7
100
AcDbLine
 10
-59.53143
 20
1.0
 30
0.0
 11
-56.831429
 21
1.0
 31
0.0
  0
LINE
  5
2C
100
AcDbEntity
  8
0
  6
CONTINUOUS
 62
     7
100
AcDbLine
 10
23.170958
 20
5.0
 30
0.0
 11
23.170958
 21
2.487308
 31
0.0
  0
LINE
  5
2D
100
AcDbEntity
  8
0
  6
CONTINUOUS
 62
     7
100
AcDbLine
 10
63.170958
 20
23.000002
 30
0.0
 11
63.170958
 21
3.543002
 31
0.0
  0
LINE
  5
2E
100
AcDbEntity
  8
0
  6
CONTINUOUS
 62
     7
100
AcDbLine
 10
24.170958
 20
6.000002
 30
0.0
 11
63.170958
 21
6.000002
 31
0.0
  0
LINE
  5
2F
100
AcDbEntity
  8
0
  6
CONTINUOUS
 62
     7
100
AcDbLine
 10
28.859742
 20
22.000002
 30
0.0
 11
63.170958
 21
22.000002
 31
0.0
  0
LINE
  5
30
100
AcDbEntity
  8
0
  6
CONTINUOUS
 62
     7
100
AcDbLine
 10
126.075548
 20
-41.81805
 30
0.0
 11
126.075548
 21
-60.674945
 31
0.0
  0
LINE
  5
31
100
AcDbEntity
  8
0
  6
CONTINUOUS
 62
     7
100
AcDbLine
 10
106.618098
 20
-58.302776
 30
0.0
 11
109.075418
 21
-40.81805
 31
0.0
  0
LINE
  5
32
100
AcDbEntity
  8
0
  6
CONTINUOUS
 62
     7
100
AcDbLine
 10
5.062834
 20
-61.81805
 30
0.0
 11
63.170958
 21
-61.81805
 31
0.0
  0
LINE
  5
33
100
AcDbEntity
  8
0
  6
CONTINUOUS
 62
     7
100
AcDbLine
 10
17.820959
 20
13.538865
 30
0.0
 11
20.02096
 21
14.809036
 31
0.0
  0
LINE
  5
34
100
AcDbEntity
  8
0
  6
CONTINUOUS
 62
     7
100
AcDbLine
 10
-49.03143
 20
22.000002
 30
0.0
 11
-49.03143
 21
1.650577
 31
0.0
  0
LINE
  5
35
100
AcDbEntity
  8
0
  6
CONTINUOUS
 62
     7
100
AcDbLine
 10
-68.53143
 20
23.000002
 30
0.0
 11
-50.03143
 21
23.000002
 31
0.0
  0
LINE
  5
36
100
AcDbEntity
  8
0
  6
CONTINUOUS
 62
     7
100
AcDbLine
 10
-70.03143
 20
21.500002
 30
0.0
 11
-70.03143
 21
4.821689
 31
0.0
  0
LINE
  5
37
100
AcDbEntity
  8
0
  6
CONTINUOUS
 62
     7
100
AcDbLine
 10
-50.03143
 20
23.0
 30
0.0
 11
-49.03143
 21
22.0
 31
0.0
  0
LINE
  5
38
100
AcDbEntity
  8
0
  6
CONTINUOUS
 62
     7
100
AcDbLine
 10
-68.53143
 20
23.0
 30
0.0
 11
-70.03143
 21
21.500002
 31
0.0
  0
LINE
  5
39
100
AcDbEntity
  8
0
  6
CONTINUOUS
 62
     7
100
AcDbLine
 10
-70.03143
 20
4.82169
 30
0.0
 11
-59.53143
 21
1.000002
 31
0.0
  0
LINE
  5
3A
100
AcDbEntity
  8
0
  6
CONTINUOUS
 62
     7
100
AcDbLine
 10
4.903007
 20
1.0
 30
0.0
 11
6.170958
 21
1.0
 31
0.0
  0
LINE
  5
3B
100
AcDbEntity
  8
0
  6
CONTINUOUS
 62
     7
100
AcDbLine
 10
-56.831429
 20
0.0
 30
0.0
 11
-52.03143
 21
0.0
 31
0.0
  0
LINE
  5
3C
100
AcDbEntity
  8
0
  6
CONTINUOUS
 62
     7
100
AcDbLine
 10
-52.03143
 20
23.000002
 30
0.0
 11
-52.03143
 21
0.0
 31
0.0
  0
LINE
  5
3D
100
AcDbEntity
  8
0
  6
CONTINUOUS
 62
     7
100
AcDbLine
 10
-56.831429
 20
21.997046
 30
0.0
 11
-56.831429
 21
0.0
 31
0.0
  0
LINE
  5
3E
100
AcDbEntity
  8
0
  6
CONTINUOUS
 62
     7
100
AcDbLine
 10
63.170958
 20
-40.81805
 30
0.0
 11
63.170958
 21
-61.81805
 31
0.0
  0
LINE
  5
3F
100
AcDbEntity
  8
0
  6
CONTINUOUS
 62
     7
100
AcDbLine
 10
107.897548
 20
-61.81805
 30
0.0
 11
124.932445
 21
-61.81805
 31
0.0
  0
LINE
  5
40
100
AcDbEntity
  8
0
  6
CENTER
 62
     1
 48
0.5
100
AcDbLine
 10
14.170958
 20
-51.81805
 30
0.0
 11
24.170958
 21
-51.81805
 31
0.0
  0
LINE
  5
41
100
AcDbEntity
  8
0
  6
CENTER
 62
     1
 48
0.5
100
AcDbLine
 10
59.031767
 20
-51.31805
 30
0.0
 11
74.906767
 21
-51.31805
 31
0.0
  0
LINE
  5
42
100
AcDbEntity
  8
0
  6
CENTER
 62
     1
 48
0.5
100
AcDbLine
 10
49.170958
 20
25.843548
 30
0.0
 11
49.170958
 21
-0.259809
 31
0.0
  0
LINE
  5
43
100
AcDbEntity
  8
0
  6
CENTER
 62
     1
 48
0.5
100
AcDbLine
 10
19.170958
 20
-46.611179
 30
0.0
 11
19.170958
 21
-56.81805
 31
0.0
  0
LINE
  5
44
100
AcDbEntity
  8
0
  6
CENTER
 62
     1
 48
0.5
100
AcDbLine
 10
60.344267
 20
12.000002
 30
0.0
 11
72.344267
 21
12.000002
 31
0.0
  0
LINE
  5
45
100
AcDbEntity
  8
0
  6
CONTINUOUS
 62
     7
100
AcDbLine
 10
71.170958
 20
14.000001
 30
0.0
 11
71.170958
 21
10.000002
 31
0.0
  0
LINE
  5
46
100
AcDbEntity
  8
0
  6
CONTINUOUS
 62
     7
100
AcDbLine
 10
63.170958
 20
9.500002
 30
0.0
 11
66.170958
 21
9.500002
 31
0.0
  0
LINE
  5
47
100
AcDbEntity
  8
0
  6
CONTINUOUS
 62
     7
100
AcDbLine
 10
63.170958
 20
14.500001
 30
0.0
 11
66.170958
 21
14.500001
 31
0.0
  0
LINE
  5
48
100
AcDbEntity
  8
0
  6
CONTINUOUS
 62
     7
100
AcDbLine
 10
68.670958
 20
16.499996
 30
0.0
 11
71.170958
 21
13.999999
 31
0.0
  0
LINE
  5
49
100
AcDbEntity
  8
0
  6
CONTINUOUS
 62
     7
100
AcDbLine
 10
68.670958
 20
7.5
 30
0.0
 11
71.170958
 21
10.0
 31
0.0
  0
LINE
  5
4A
100
AcDbEntity
  8
0
  6
CONTINUOUS
 62
     7
100
AcDbLine
 10
66.670958
 20
7.500002
 30
0.0
 11
68.670958
 21
7.500002
 31
0.0
  0
LINE
  5
4B
100
AcDbEntity
  8
0
  6
CONTINUOUS
 62
     7
100
AcDbLine
 10
66.670958
 20
16.5
 30
0.0
 11
68.670958
 21
16.5
 31
0.0
  0
LINE
  5
4C
100
AcDbEntity
  8
0
  6
CONTINUOUS
 62
     7
100
AcDbLine
 10
66.670958
 20
16.499996
 30
0.0
 11
66.170958
 21
15.999998
 31
0.0
  0
LINE
  5
4D
100
AcDbEntity
  8
0
  6
CONTINUOUS
 62
     7
100
AcDbLine
 10
66.170958
 20
8.000007
 30
0.0
 11
66.670958
 21
7.500006
 31
0.0
  0
LINE
  5
4E
100
AcDbEntity
  8
0
  6
CONTINUOUS
 62
     7
100
AcDbLine
 10
66.670958
 20
16.5
 30
0.0
 11
66.670958
 21
7.500001
 31
0.0
  0
LINE
  5
4F
100
AcDbEntity
  8
0
  6
CONTINUOUS
 62
     7
100
AcDbLine
 10
68.670958
 20
16.5
 30
0.0
 11
68.670958
 21
7.500002
 31
0.0
  0
LINE
  5
50
100
AcDbEntity
  8
0
  6
CONTINUOUS
 62
     7
100
AcDbLine
 10
63.170958
 20
10.000002
 30
0.0
 11
66.170958
 21
10.000002
 31
0.0
  0
LINE
  5
51
100
AcDbEntity
  8
0
  6
CONTINUOUS
 62
     7
100
AcDbLine
 10
63.170958
 20
14.000001
 30
0.0
 11
66.170958
 21
14.000001
 31
0.0
  0
LINE
  5
52
100
AcDbEntity
  8
0
  6
CONTINUOUS
 62
     7
100
AcDbLine
 10
71.170958
 20
-49.318057
 30
0.0
 11
71.170958
 21
-53.31805
 31
0.0
  0
LINE
  5
53
100
AcDbEntity
  8
0
  6
CONTINUOUS
 62
     7
100
AcDbLine
 10
66.170958
 20
-47.318057
 30
0.0
 11
66.170958
 21
-55.31805
 31
0.0
  0
LINE
  5
54
100
AcDbEntity
  8
0
  6
CONTINUOUS
 62
     7
100
AcDbLine
 10
63.170958
 20
-53.81805
 30
0.0
 11
66.170958
 21
-53.81805
 31
0.0
  0
LINE
  5
55
100
AcDbEntity
  8
0
  6
CONTINUOUS
 62
     7
100
AcDbLine
 10
63.170958
 20
-48.818057
 30
0.0
 11
66.170958
 21
-48.818057
 31
0.0
  0
LINE
  5
56
100
AcDbEntity
  8
0
  6
CONTINUOUS
 62
     7
100
AcDbLine
 10
68.670958
 20
-46.818057
 30
0.0
 11
71.170966
 21
-49.318061
 31
0.0
  0
LINE
  5
57
100
AcDbEntity
  8
0
  6
CONTINUOUS
 62
     7
100
AcDbLine
 10
68.670958
 20
-55.818061
 30
0.0
 11
71.170958
 21
-53.318057
 31
0.0
  0
LINE
  5
58
100
AcDbEntity
  8
0
  6
CONTINUOUS
 62
     7
100
AcDbLine
 10
66.670958
 20
-55.81805
 30
0.0
 11
68.670958
 21
-55.81805
 31
0.0
  0
LINE
  5
59
100
AcDbEntity
  8
0
  6
CONTINUOUS
 62
     7
100
AcDbLine
 10
66.670958
 20
-46.818057
 30
0.0
 11
68.670958
 21
-46.818057
 31
0.0
  0
LINE
  5
5A
100
AcDbEntity
  8
0
  6
CONTINUOUS
 62
     7
100
AcDbLine
 10
66.670954
 20
-46.818057
 30
0.0
 11
66.170958
 21
-47.318057
 31
0.0
  0
LINE
  5
5B
100
AcDbEntity
  8
0
  6
CONTINUOUS
 62
     7
100
AcDbLine
 10
66.170962
 20
-55.318053
 30
0.0
 11
66.670962
 21
-55.818057
 31
0.0
  0
LINE
  5
5C
100
AcDbEntity
  8
0
  6
CONTINUOUS
 62
     7
100
AcDbLine
 10
66.670958
 20
-46.818057
 30
0.0
 11
66.670958
 21
-55.81805
 31
0.0
  0
LINE
  5
5D
100
AcDbEntity
  8
0
  6
CONTINUOUS
 62
     7
100
AcDbLine
 10
68.670958
 20
-46.818057
 30
0.0
 11
68.670958
 21
-55.81805
 31
0.0
  0
LINE
  5
5E
100
AcDbEntity
  8
0
  6
CONTINUOUS
 62
     7
100
AcDbLine
 10
63.170958
 20
-53.31805
 30
0.0
 11
66.170958
 21
-53.31805
 31
0.0
  0
LINE
  5
5F
100
AcDbEntity
  8
0
  6
CONTINUOUS
 62
     7
100
AcDbLine
 10
63.170958
 20
-49.318057
 30
0.0
 11
66.170958
 21
-49.318057
 31
0.0
  0
LINE
  5
60
100
AcDbEntity
  8
0
  6
CONTINUOUS
 62
     7
100
AcDbLine
 10
6.170958
 20
1.000001
 30
0.0
 11
23.17096
 21
2.487309
 31
0.0
  0
LINE
  5
62
100
AcDbEntity
  8
0
  6
CONTINUOUS
 62
     7
100
AcDbLine
 10
126.075548
 20
-60.674945
 30
0.0
 11
124.932445
 21
-61.81805
 31
0.0
  0
LINE
  5
63
100
AcDbEntity
  8
0
  6
CONTINUOUS
 62
     7
100
AcDbLine
 10
114.659168
 20
-58.569919
 30
0.0
 11
116.538008
 21
-45.201301
 31
0.0
  0
LINE
  5
64
100
AcDbEntity
  8
0
  6
CONTINUOUS
 62
     7
100
AcDbLine
 10
66.170958
 20
15.999998
 30
0.0
 11
66.170958
 21
8.000007
 31
0.0
  0
LINE
  5
65
100
AcDbEntity
  8
0
  6
CENTER
 62
     1
 48
0.5
100
AcDbLine
 10
49.170958
 20
-36.673865
 30
0.0
 11
49.170958
 21
-65.406581
 31
0.0
  0
LINE
  5
66
100
AcDbEntity
  8
0
  6
CENTER
 62
     1
 48
0.5
100
AcDbLine
 10
47.420958
 20
-36.673865
 30
0.0
 11
47.420958
 21
-65.406581
 31
0.0
  0
LINE
  5
67
100
AcDbEntity
  8
0
  6
CENTER
 62
     1
 48
0.5
100
AcDbLine
 10
50.920958
 20
-36.673865
 30
0.0
 11
50.920958
 21
-65.406581
 31
0.0
  0
LINE
  5
68
100
AcDbEntity
  8
0
  6
CONTINUOUS
 62
     7
100
AcDbLine
 10
23.17096
 20
-41.415965
 30
0.0
 11
23.17096
 21
-57.302776
 31
0.0
  0
LINE
  5
69
100
AcDbEntity
  8
0
  6
CONTINUOUS
 62
     7
100
AcDbLine
 10
3.958571
 20
-51.31805
 30
0.0
 11
6.170958
 21
-51.31805
 31
0.0
  0
LINE
  5
6A
100
AcDbEntity
  8
0
  6
CONTINUOUS
 62
     7
100
AcDbLine
 10
-52.03143
 20
0.000003
 30
0.0
 11
-50.029195
 21
10.998525
 31
0.0
  0
LINE
  5
6B
100
AcDbEntity
  8
0
  6
CONTINUOUS
 62
     7
100
AcDbLine
 10
-51.849385
 20
1.000001
 30
0.0
 11
-49.03143
 21
1.650577
 31
0.0
  0
LINE
  5
6D
100
AcDbEntity
  8
0
  6
CENTER
 62
     1
 48
0.5
100
AcDbLine
 10
9.520957
 20
14.578523
 30
0.0
 11
9.520957
 21
7.418523
 31
0.0
  0
LINE
  5
6E
100
AcDbEntity
  8
0
  6
CENTER
 62
     1
 48
0.5
100
AcDbLine
 10
5.940957
 20
10.998523
 30
0.0
 11
13.100957
 21
10.998523
 31
0.0
  0
LINE
  5
70
100
AcDbEntity
  8
0
  6
CONTINUOUS
 62
     7
100
AcDbLine
 10
3.170958
 20
23.000002
 30
0.0
 11
63.170958
 21
23.000002
 31
0.0
  0
LINE
  5
71
100
AcDbEntity
  8
0
  6
CONTINUOUS
 62
     7
100
AcDbLine
 10
-56.831429
 20
21.997046
 30
0.0
 11
-52.03143
 21
21.997046
 31
0.0
  0
LINE
  5
72
100
AcDbEntity
  8
0
  6
CONTINUOUS
 62
     7
100
AcDbLine
 10
-52.03143
 20
21.997046
 30
0.0
 11
-50.029195
 21
10.998524
 31
0.0
  0
LINE
  5
73
100
AcDbEntity
  8
0
  6
CONTINUOUS
 62
     7
100
AcDbLine
 10
3.170958
 20
-43.81805
 30
0.0
 11
4.934366
 21
-43.632709
 31
0.0
  0
LINE
  5
74
100
AcDbEntity
  8
0
  6
CONTINUOUS
 62
     7
100
AcDbLine
 10
6.170958
 20
-43.202735
 30
0.0
 11
6.170958
 21
-51.31805
 31
0.0
  0
LINE
  5
75
100
AcDbEntity
  8
0
  6
CONTINUOUS
 62
     7
100
AcDbLine
 10
23.170958
 20
-56.476455
 30
0.0
 11
6.170959
 21
-51.31805
 31
0.0
  0
LINE
  5
76
100
AcDbEntity
  8
0
  6
CONTINUOUS
 62
     7
100
AcDbLine
 10
107.897548
 20
-61.81805
 30
0.0
 11
106.618098
 21
-58.302772
 31
0.0
  0
LINE
  5
77
100
AcDbEntity
  8
0
  6
CONTINUOUS
 62
     7
100
AcDbLine
 10
24.17096
 20
-58.302776
 30
0.0
 11
63.170958
 21
-58.302776
 31
0.0
  0
LINE
  5
78
100
AcDbEntity
  8
0
  6
CONTINUOUS
 62
     7
100
AcDbLine
 10
24.226651
 20
3.543002
 30
0.0
 11
63.170958
 21
3.543002
 31
0.0
  0
LINE
  5
79
100
AcDbEntity
  8
0
  6
CONTINUOUS
 62
     7
100
AcDbLine
 10
3.170958
 20
-43.81805
 30
0.0
 11
5.062834
 21
-61.81805
 31
0.0
  0
LINE
  5
7A
100
AcDbEntity
  8
0
  6
CONTINUOUS
 62
     7
100
AcDbLine
 10
4.903179
 20
-43.335982
 30
0.0
 11
5.436102
 21
-48.406413
 31
0.0
  0
LINE
  5
7B
100
AcDbEntity
  8
0
  6
CONTINUOUS
 62
     7
100
AcDbLine
 10
3.672694
 20
-48.591754
 30
0.0
 11
5.436102
 21
-48.406413
 31
0.0
  0
LINE
  5
7C
100
AcDbEntity
  8
0
  6
CONTINUOUS
 62
     7
100
AcDbLine
 10
28.859742
 20
-40.81805
 30
0.0
 11
63.170958
 21
-40.81805
 31
0.0
  0
LINE
  5
7D
100
AcDbEntity
  8
0
  6
CONTINUOUS
 62
     7
100
AcDbLine
 10
109.075418
 20
-40.81805
 30
0.0
 11
125.075548
 21
-40.81805
 31
0.0
  0
LINE
  5
7E
100
AcDbEntity
  8
0
  6
CONTINUOUS
 62
     7
100
AcDbLine
 10
125.075548
 20
-40.81805
 30
0.0
 11
126.075548
 21
-41.81805
 31
0.0
  0
LINE
  5
7F
100
AcDbEntity
  8
0
  6
CONTINUOUS
 62
     7
100
AcDbLine
 10
3.170958
 20
-43.518047
 30
0.0
 11
28.859744
 21
-40.81805
 31
0.0
  0
LINE
  5
80
100
AcDbEntity
  8
0
  6
CONTINUOUS
 62
     7
100
AcDbLine
 10
28.859742
 20
22.000002
 30
0.0
 11
28.859742
 21
6.000002
 31
0.0
  0
LINE
  5
81
100
AcDbEntity
  8
0
  6
CONTINUOUS
 62
     7
100
AcDbLine
 10
28.859742
 20
22.000002
 30
0.0
 11
3.170958
 21
23.000002
 31
0.0
  0
LINE
  5
82
100
AcDbEntity
  8
0
  6
CONTINUOUS
 62
     7
100
AcDbLine
 10
3.170958
 20
-43.518047
 30
0.0
 11
3.202145
 21
-43.814773
 31
0.0
  0
LINE
  5
83
100
AcDbEntity
  8
0
  6
CENTER
 62
     1
 48
0.5
100
AcDbLine
 10
101.529982
 20
-49.908393
 30
0.0
 11
133.829998
 21
-54.447868
 31
0.0
  0
LINE
  5
84
100
AcDbEntity
  8
0
  6
CONTINUOUS
 62
     7
100
AcDbLine
 10
106.737028
 20
-57.456535
 30
0.0
 11
114.659168
 21
-58.569919
 31
0.0
  0
LINE
  5
85
100
AcDbEntity
  8
0
  6
CONTINUOUS
 62
     7
100
AcDbLine
 10
108.615868
 20
-44.087913
 30
0.0
 11
116.538008
 21
-45.201301
 31
0.0
  0
LINE
  5
86
100
AcDbEntity
  8
0
  6
CONTINUOUS
 62
     7
100
AcDbLine
 10
115.014058
 20
-56.044734
 30
0.0
 11
126.075558
 21
-57.599326
 31
0.0
  0
LINE
  5
87
100
AcDbEntity
  8
0
  6
CONTINUOUS
 62
     7
100
AcDbLine
 10
116.183118
 20
-47.726482
 30
0.0
 11
126.075548
 21
-49.116771
 31
0.0
  0
LINE
  5
88
100
AcDbEntity
  8
0
  6
CONTINUOUS
 62
     7
100
AcDbLine
 10
47.420958
 20
-44.087913
 30
0.0
 11
50.920958
 21
-44.087913
 31
0.0
  0
LINE
  5
89
100
AcDbEntity
  8
0
  6
CONTINUOUS
 62
     7
100
AcDbLine
 10
47.420958
 20
-45.201301
 30
0.0
 11
50.920958
 21
-45.201301
 31
0.0
  0
LINE
  5
8A
100
AcDbEntity
  8
0
  6
CONTINUOUS
 62
     7
100
AcDbLine
 10
47.420958
 20
-47.726482
 30
0.0
 11
50.920958
 21
-47.726482
 31
0.0
  0
LINE
  5
8B
100
AcDbEntity
  8
0
  6
CONTINUOUS
 62
     7
100
AcDbLine
 10
47.420958
 20
-49.116775
 30
0.0
 11
50.920958
 21
-49.116775
 31
0.0
  0
LINE
  5
8C
100
AcDbEntity
  8
0
  6
CONTINUOUS
 62
     7
100
AcDbLine
 10
47.420958
 20
-56.044734
 30
0.0
 11
50.920958
 21
-56.044734
 31
0.0
  0
LINE
  5
8D
100
AcDbEntity
  8
0
  6
CONTINUOUS
 62
     7
100
AcDbLine
 10
47.420958
 20
-57.456535
 30
0.0
 11
50.920958
 21
-57.456535
 31
0.0
  0
ARC
  5
8E
100
AcDbEntity
  8
0
  6
CONTINUOUS
 62
     7
100
AcDbCircle
 10
24.170958
 20
5.0
 30
0.0
 40
1.0
100
AcDbArc
 50
90.000003
 51
180.00001
  0
ARC
  5
8F
100
AcDbEntity
  8
0
  6
CONTINUOUS
 62
     7
100
AcDbCircle
 10
21.120957
 20
12.90378
 30
0.0
 40
2.2
100
AcDbArc
 50
300.0
 51
120.0
  0
CIRCLE
  5
90
100
AcDbEntity
  8
0
  6
CONTINUOUS
 62
     7
100
AcDbCircle
 10
19.170958
 20
-51.81805
 30
0.0
 40
3.0
  0
CIRCLE
  5
91
100
AcDbEntity
  8
0
  6
CONTINUOUS
 62
     7
100
AcDbCircle
 10
19.170958
 20
-51.81805
 30
0.0
 40
2.7
  0
CIRCLE
  5
92
100
AcDbEntity
  8
0
  6
CONTINUOUS
 62
     7
100
AcDbCircle
 10
9.520957
 20
10.998523
 30
0.0
 40
2.58
  0
ARC
  5
93
100
AcDbEntity
  8
0
  6
CONTINUOUS
 62
     7
100
AcDbCircle
 10
24.17096
 20
-57.302776
 30
0.0
 40
1.0
100
AcDbArc
 50
179.99999
 51
270.0
  0
ARC
  5
94
100
AcDbEntity
  8
0
  6
CONTINUOUS
 62
     7
100
AcDbCircle
 10
24.226651
 20
2.487308
 30
0.0
 40
1.055693
100
AcDbArc
 50
90.000003
 51
180.00001
  0
LWPOLYLINE
  5
95
100
AcDbEntity
  8
0
  6
CONTINUOUS
 62
     7
100
AcDbPolyline
 90
       17
 70
     0
 43
0.0
 10
47.420958
 20
-44.087913
 42
0.048416
 10
46.110535
 20
-44.215085
 42
0.048522
 10
44.849076
 20
-44.59213
 42
0.048718
 10
43.684111
 20
-45.205676
 42
0.048977
 10
42.660242
 20
-46.033598
 42
0.049271
 10
41.817353
 20
-47.045589
 42
0.049546
 10
41.189257
 20
-48.203552
 42
0.049752
 10
40.801768
 20
-49.462663
 42
0.049813
 10
40.670958
 20
-50.772224
 42
0.049822
 10
40.801815
 20
-52.082016
 42
0.049704
 10
41.188862
 20
-53.339957
 42
0.04952
 10
41.81639
 20
-54.497438
 42
0.049257
 10
42.658757
 20
-55.509386
 42
0.048988
 10
43.682588
 20
-56.337768
 42
0.048743
 10
44.848016
 20
-56.951884
 42
0.048553
 10
46.110242
 20
-57.329305
 42
0.048427
 10
47.420958
 20
-57.456535
  0
LWPOLYLINE
  5
A8
100
AcDbEntity
  8
0
  6
CONTINUOUS
 62
     7
100
AcDbPolyline
 90
       17
 70
     0
 43
0.0
 10
47.420958
 20
-45.201301
 42
0.020581
 10
46.809981
 20
-45.226454
 42
0.020698
 10
46.20235
 20
-45.301986
 42
0.020877
 10
45.603063
 20
-45.427708
 42
0.021141
 10
45.016485
 20
-45.603255
 42
0.021493
 10
44.446986
 20
-45.8281
 42
0.021926
 10
43.899104
 20
-46.10148
 42
0.022437
 10
43.377554
 20
-46.422339
 42
0.023014
 10
42.887229
 20
-46.789234
 42
0.023645
 10
42.433175
 20
-47.200244
 42
0.024311
 10
42.020526
 20
-47.652871
 42
0.024989
 10
41.65441
 20
-48.143938
 42
0.025651
 10
41.339808
 20
-48.66951
 42
0.026261
 10
41.08137
 20
-49.224844
 42
0.026786
 10
40.883207
 20
-49.804387
 42
0.027191
 10
40.748659
 20
-50.401846
 42
0.027446
 10
40.680088
 20
-51.010326
  0
LWPOLYLINE
  5
BB
100
AcDbEntity
  8
0
  6
CONTINUOUS
 62
     7
100
AcDbPolyline
 90
       17
 70
     0
 43
0.0
 10
47.420958
 20
-47.726482
 42
0.048369
 10
46.60637
 20
-47.805457
 42
0.048522
 10
45.821419
 20
-48.039914
 42
0.048718
 10
45.096478
 20
-48.421538
 42
0.048977
 10
44.459306
 20
-48.936567
 42
0.04927
 10
43.934721
 20
-49.566149
 42
0.049546
 10
43.543765
 20
-50.286583
 42
0.049752
 10
43.302509
 20
-51.069983
 42
0.049862
 10
43.220957
 20
-51.885608
 42
0.049822
 10
43.302379
 20
-52.70059
 42
0.049704
 10
43.543209
 20
-53.483308
 42
0.04952
 10
43.933671
 20
-54.203519
 42
0.049257
 10
44.45781
 20
-54.833175
 42
0.048988
 10
45.094861
 20
-55.348613
 42
0.048743
 10
45.820016
 20
-55.730729
 42
0.048553
 10
46.605401
 20
-55.965569
 42
0.048427
 10
47.420958
 20
-56.044734
  0
LWPOLYLINE
  5
CE
100
AcDbEntity
  8
0
  6
CONTINUOUS
 62
     7
100
AcDbPolyline
 90
       17
 70
     0
 43
0.0
 10
47.420958
 20
-49.116775
 42
0.017504
 10
47.065093
 20
-49.129231
 42
0.017622
 10
46.711036
 20
-49.166618
 42
0.017865
 10
46.360548
 20
-49.228999
 42
0.018235
 10
46.015468
 20
-49.316487
 42
0.018737
 10
45.677765
 20
-49.429224
 42
0.019377
 10
45.349582
 20
-49.567352
 42
0.020159
 10
45.033282
 20
-49.730982
 42
0.021086
 10
44.731485
 20
-49.92013
 42
0.022157
 10
44.447106
 20
-50.134656
 42
0.023362
 10
44.183371
 20
-50.374157
 42
0.024678
 10
43.943806
 20
-50.637856
 42
0.026066
 10
43.732185
 20
-50.924457
 42
0.027459
 10
43.552408
 20
-51.231997
 42
0.028771
 10
43.408302
 20
-51.557723
 42
0.029891
 10
43.303344
 20
-51.898014
 42
0.030708
 10
43.24033
 20
-52.248426
  0
LWPOLYLINE
  5
E1
100
AcDbEntity
  8
0
  6
CONTINUOUS
 62
     7
100
AcDbPolyline
 90
       17
 70
     0
 43
0.0
 10
50.920958
 20
-44.087913
 42
-0.048416
 10
52.231381
 20
-44.215085
 42
-0.048522
 10
53.49284
 20
-44.59213
 42
-0.048718
 10
54.657805
 20
-45.205676
 42
-0.048977
 10
55.681674
 20
-46.033598
 42
-0.049271
 10
56.524563
 20
-47.045589
 42
-0.049546
 10
57.152659
 20
-48.203552
 42
-0.049752
 10
57.540148
 20
-49.462663
 42
-0.049813
 10
57.670958
 20
-50.772224
 42
-0.049822
 10
57.540101
 20
-52.082016
 42
-0.049704
 10
57.153054
 20
-53.339957
 42
-0.04952
 10
56.525526
 20
-54.497438
 42
-0.049257
 10
55.683159
 20
-55.509386
 42
-0.048988
 10
54.659328
 20
-56.337768
 42
-0.048743
 10
53.4939
 20
-56.951884
 42
-0.048553
 10
52.231674
 20
-57.329305
 42
-0.048427
 10
50.920958
 20
-57.456535
  0
LWPOLYLINE
  5
F4
100
AcDbEntity
  8
0
  6
CONTINUOUS
 62
     7
100
AcDbPolyline
 90
       17
 70
     0
 43
0.0
 10
50.920958
 20
-45.201301
 42
-0.020581
 10
51.531935
 20
-45.226454
 42
-0.020698
 10
52.139566
 20
-45.301986
 42
-0.020877
 10
52.738853
 20
-45.427708
 42
-0.021141
 10
53.325431
 20
-45.603255
 42
-0.021493
 10
53.89493
 20
-45.8281
 42
-0.021926
 10
54.442812
 20
-46.10148
 42
-0.022437
 10
54.964362
 20
-46.422339
 42
-0.023014
 10
55.454687
 20
-46.789234
 42
-0.023645
 10
55.908741
 20
-47.200244
 42
-0.024311
 10
56.32139
 20
-47.652871
 42
-0.024989
 10
56.687506
 20
-48.143938
 42
-0.025651
 10
57.002108
 20
-48.66951
 42
-0.026261
 10
57.260546
 20
-49.224844
 42
-0.026786
 10
57.458709
 20
-49.804387
 42
-0.027191
 10
57.593257
 20
-50.401846
 42
-0.027446
 10
57.661828
 20
-51.010326
  0
LWPOLYLINE
  5
107
100
AcDbEntity
  8
0
  6
CONTINUOUS
 62
     7
100
AcDbPolyline
 90
       17
 70
     0
 43
0.0
 10
50.920958
 20
-47.726482
 42
-0.048369
 10
51.735546
 20
-47.805457
 42
-0.048522
 10
52.520497
 20
-48.039914
 42
-0.048718
 10
53.245438
 20
-48.421538
 42
-0.048977
 10
53.88261
 20
-48.936567
 42
-0.04927
 10
54.407195
 20
-49.566149
 42
-0.049546
 10
54.798151
 20
-50.286583
 42
-0.049752
 10
55.039407
 20
-51.069983
 42
-0.049862
 10
55.120959
 20
-51.885608
 42
-0.049822
 10
55.039537
 20
-52.70059
 42
-0.049704
 10
54.798707
 20
-53.483308
 42
-0.04952
 10
54.408245
 20
-54.203519
 42
-0.049257
 10
53.884106
 20
-54.833175
 42
-0.048988
 10
53.247055
 20
-55.348613
 42
-0.048743
 10
52.5219
 20
-55.730729
 42
-0.048553
 10
51.736515
 20
-55.965569
 42
-0.048427
 10
50.920958
 20
-56.044734
  0
LWPOLYLINE
  5
11A
100
AcDbEntity
  8
0
  6
CONTINUOUS
 62
     7
100
AcDbPolyline
 90
       17
 70
     0
 43
0.0
 10
50.920958
 20
-49.116775
 42
-0.017504
 10
51.276823
 20
-49.129231
 42
-0.017622
 10
51.63088
 20
-49.166618
 42
-0.017865
 10
51.981368
 20
-49.228999
 42
-0.018235
 10
52.326448
 20
-49.316487
 42
-0.018737
 10
52.664151
 20
-49.429224
 42
-0.019377
 10
52.992334
 20
-49.567352
 42
-0.020159
 10
53.308634
 20
-49.730982
 42
-0.021086
 10
53.610431
 20
-49.92013
 42
-0.022157
 10
53.89481
 20
-50.134656
 42
-0.023362
 10
54.158545
 20
-50.374157
 42
-0.024678
 10
54.39811
 20
-50.637856
 42
-0.026066
 10
54.609731
 20
-50.924457
 42
-0.027459
 10
54.789508
 20
-51.231997
 42
-0.028771
 10
54.933614
 20
-51.557723
 42
-0.029891
 10
55.038572
 20
-51.898014
 42
-0.030708
 10
55.101586
 20
-52.248426
  0
LWPOLYLINE
  5
12D
100
AcDbEntity
  8
0
  6
CONTINUOUS
 62
     7
100
AcDbPolyline
 90
       16
 70
     1
 43
0.0
 10
57.670958
 20
4.600895
 42
0.13236
 10
55.655171
 20
5.208301
 42
0.015599
 10
53.500024
 20
5.409347
 42
0.008969
 10
51.337246
 20
5.509292
 42
0.007248
 10
49.170958
 20
5.540313
 42
0.007243
 10
47.006055
 20
5.509333
 42
0.00897
 10
44.84259
 20
5.409393
 42
0.015605
 10
42.686383
 20
5.208254
 42
0.132457
 10
40.670958
 20
4.600895
 42
0.13236
 10
42.686745
 20
3.993488
 42
0.015599
 10
44.841892
 20
3.792442
 42
0.008969
 10
47.00467
 20
3.692497
 42
0.007248
 10
49.170958
 20
3.661476
 42
0.007243
 10
51.335861
 20
3.692457
 42
0.00897
 10
53.499326
 20
3.792397
 42
0.015605
 10
55.655533
 20
3.993535
 42
0.132457
  0
LINE
  5
13F
100
AcDbEntity
  8
0
  6
CONTINUOUS
 62
     7
100
AcDbLine
 10
123.978831
 20
-61.81805
 30
0.0
 11
126.075548
 21
-59.721324
 31
0.0
  0
LINE
  5
140
100
AcDbEntity
  8
0
  6
CONTINUOUS
 62
     7
100
AcDbLine
 10
121.733766
 20
-61.81805
 30
0.0
 11
125.967648
 21
-57.584161
 31
0.0
  0
LINE
  5
141
100
AcDbEntity
  8
0
  6
CONTINUOUS
 62
     7
100
AcDbLine
 10
119.488712
 20
-61.81805
 30
0.0
 11
123.999228
 21
-57.307518
 31
0.0
  0
LINE
  5
142
100
AcDbEntity
  8
0
  6
CONTINUOUS
 62
     7
100
AcDbLine
 10
117.243647
 20
-61.81805
 30
0.0
 11
122.030808
 21
-57.030875
 31
0.0
  0
LINE
  5
143
100
AcDbEntity
  8
0
  6
CONTINUOUS
 62
     7
100
AcDbLine
 10
114.998582
 20
-61.81805
 30
0.0
 11
120.062388
 21
-56.754231
 31
0.0
  0
LINE
  5
144
100
AcDbEntity
  8
0
  6
CONTINUOUS
 62
     7
100
AcDbLine
 10
112.753518
 20
-61.81805
 30
0.0
 11
118.093978
 21
-56.477588
 31
0.0
  0
LINE
  5
145
100
AcDbEntity
  8
0
  6
CONTINUOUS
 62
     7
100
AcDbLine
 10
110.508463
 20
-61.81805
 30
0.0
 11
113.867808
 21
-58.4587
 31
0.0
  0
LINE
  5
146
100
AcDbEntity
  8
0
  6
CONTINUOUS
 62
     7
100
AcDbLine
 10
114.806758
 20
-57.519739
 30
0.0
 11
116.125558
 21
-56.200945
 31
0.0
  0
LINE
  5
147
100
AcDbEntity
  8
0
  6
CONTINUOUS
 62
     7
100
AcDbLine
 10
108.263398
 20
-61.81805
 30
0.0
 11
111.899388
 21
-58.182056
 31
0.0
  0
LINE
  5
148
100
AcDbEntity
  8
0
  6
CONTINUOUS
 62
     7
100
AcDbLine
 10
107.396088
 20
-60.440295
 30
0.0
 11
109.930968
 21
-57.905413
 31
0.0
  0
LINE
  5
149
100
AcDbEntity
  8
0
  6
CONTINUOUS
 62
     7
100
AcDbLine
 10
106.796998
 20
-58.794318
 30
0.0
 11
107.962548
 21
-57.62877
 31
0.0
  0
LINE
  5
14A
100
AcDbEntity
  8
0
  6
CONTINUOUS
 62
     7
100
AcDbLine
 10
125.531268
 20
-49.04028
 30
0.0
 11
126.075548
 21
-48.495993
 31
0.0
  0
LINE
  5
14B
100
AcDbEntity
  8
0
  6
CONTINUOUS
 62
     7
100
AcDbLine
 10
123.562848
 20
-48.763637
 30
0.0
 11
126.075548
 21
-46.250927
 31
0.0
  0
LINE
  5
14C
100
AcDbEntity
  8
0
  6
CONTINUOUS
 62
     7
100
AcDbLine
 10
121.594428
 20
-48.486993
 30
0.0
 11
126.075548
 21
-44.00586
 31
0.0
  0
LINE
  5
14D
100
AcDbEntity
  8
0
  6
CONTINUOUS
 62
     7
100
AcDbLine
 10
119.626008
 20
-48.210349
 30
0.0
 11
126.046928
 21
-41.789422
 31
0.0
  0
LINE
  5
14E
100
AcDbEntity
  8
0
  6
CONTINUOUS
 62
     7
100
AcDbLine
 10
117.657588
 20
-47.933706
 30
0.0
 11
124.773238
 21
-40.81805
 31
0.0
  0
LINE
  5
14F
100
AcDbEntity
  8
0
  6
CONTINUOUS
 62
     7
100
AcDbLine
 10
116.275238
 20
-47.070992
 30
0.0
 11
122.528168
 21
-40.81805
 31
0.0
  0
LINE
  5
150
100
AcDbEntity
  8
0
  6
CONTINUOUS
 62
     7
100
AcDbLine
 10
115.978498
 20
-45.122667
 30
0.0
 11
120.283108
 21
-40.81805
 31
0.0
  0
LINE
  5
151
100
AcDbEntity
  8
0
  6
CONTINUOUS
 62
     7
100
AcDbLine
 10
114.010078
 20
-44.846023
 30
0.0
 11
118.038048
 21
-40.81805
 31
0.0
  0
LINE
  5
152
100
AcDbEntity
  8
0
  6
CONTINUOUS
 62
     7
100
AcDbLine
 10
112.041668
 20
-44.569379
 30
0.0
 11
115.792988
 21
-40.81805
 31
0.0
  0
LINE
  5
153
100
AcDbEntity
  8
0
  6
CONTINUOUS
 62
     7
100
AcDbLine
 10
110.073248
 20
-44.292735
 30
0.0
 11
113.547928
 21
-40.81805
 31
0.0
  0
LINE
  5
154
100
AcDbEntity
  8
0
  6
CONTINUOUS
 62
     7
100
AcDbLine
 10
108.711178
 20
-43.409741
 30
0.0
 11
111.302858
 21
-40.81805
 31
0.0
  0
TEXT
  5
157
100
AcDbEntity
  8
0
  6
CONTINUOUS
100
AcDbText
 10
17.31787
 20
-98.077722
 30
0.0
 40
6.0
  1
BU256R
100
AcDbText
  0
LINE
  5
180
102
{ACAD_REACTORS
330
18A
102
}
100
AcDbEntity
  8
寸法
  6
CONTINUOUS
 62
     1
100
AcDbLine
 10
134.820266
 20
-54.587041
 30
0.0
 11
150.046527
 21
-56.726954
 31
0.0
  0
LINE
  5
181
102
{ACAD_REACTORS
330
18A
102
}
100
AcDbEntity
  8
寸法
  6
CONTINUOUS
 62
     1
100
AcDbLine
 10
126.075548
 20
-53.35805
 30
0.0
 11
150.282104
 21
-53.35805
 31
0.0
  0
ARC
  5
182
102
{ACAD_REACTORS
330
18A
102
}
100
AcDbEntity
  8
寸法
  6
CONTINUOUS
 62
     1
100
AcDbCircle
 10
126.075548
 20
-53.35805
 30
0.0
 40
23.206556
100
AcDbArc
 50
342.111935
 51
351.999993
  0
LINE
  5
183
102
{ACAD_REACTORS
330
18A
102
}
100
AcDbEntity
  8
寸法
  6
CONTINUOUS
 62
     1
100
AcDbLine
 10
148.160262
 20
-60.486138
 30
0.0
 11
146.077729
 21
-66.938383
 31
0.0
  0
ARC
  5
184
102
{ACAD_REACTORS
330
18A
102
}
100
AcDbEntity
  8
寸法
  6
CONTINUOUS
 62
     1
100
AcDbCircle
 10
126.075548
 20
-53.35805
 30
0.0
 40
23.206556
100
AcDbArc
 50
342.121143
 51
347.060568
  0
ARC
  5
185
102
{ACAD_REACTORS
330
18A
102
}
100
AcDbEntity
  8
寸法
  6
CONTINUOUS
 62
     1
100
AcDbCircle
 10
126.075548
 20
-53.35805
 30
0.0
 40
23.206556
100
AcDbArc
 50
4.939425
 51
9.878851
  0
ARC
  5
186
102
{ACAD_REACTORS
330
18A
102
}
100
AcDbEntity
  8
寸法
  6
CONTINUOUS
 62
     1
100
AcDbCircle
 10
126.075548
 20
-53.35805
 30
0.0
 40
23.206556
100
AcDbArc
 50
351.999993
 51
0.0
  0
INSERT
  5
187
102
{ACAD_REACTORS
330
18A
102
}
100
AcDbEntity
  8
寸法
  6
CONTINUOUS
 62
     1
100
AcDbBlockReference
  2
_OPEN30
 10
149.056259
 20
-56.587781
 30
0.0
 41
2.0
 42
2.0
 43
2.0
 50
79.530281
  0
INSERT
  5
188
102
{ACAD_REACTORS
330
18A
102
}
100
AcDbEntity
  8
寸法
  6
CONTINUOUS
 62
     1
100
AcDbBlockReference
  2
_OPEN30
 10
149.282104
 20
-53.35805
 30
0.0
 41
2.0
 42
2.0
 43
2.0
 50
272.469713
  0
MTEXT
  5
189
102
{ACAD_REACTORS
330
18A
102
}
100
AcDbEntity
  8
寸法
  6
CONTINUOUS
 62
     1
100
AcDbMText
 10
145.605859
 20
-63.223879
 30
0.0
 40
3.0
 41
0.0
 71
     5
 72
     1
  1
\A1;8°
 11
0.307158
 21
0.951658
 31
0.0
1001
ACAD
1000
MTEXTBEGIN
1070
    73
1070
     1
1070
    44
1040
1.0
1070
    74
1070
     0
1000
MTEXTEND
1000
MTEXTBEGIN
1070
    73
1070
     1
1070
    44
1040
1.0
1070
    74
1070
     0
1000
MTEXTEND
  0
DIMENSION
  5
18B
100
AcDbEntity
  8
寸法
  6
CONTINUOUS
100
AcDbDimension
  2
*D1
 10
133.170958
 20
-61.81805
 30
0.0
 11
130.670958
 21
-69.31805
 31
0.0
 70
    32
  3
STANDARD
100
AcDbAlignedDimension
 13
126.075548
 23
-53.35805
 33
0.0
 14
124.932445
 24
-61.81805
 34
0.0
 50
90.0
100
AcDbRotatedDimension
  0
DIMENSION
  5
1AD
100
AcDbEntity
  8
寸法
  6
CONTINUOUS
100
AcDbDimension
  2
*D2
 10
80.0
 20
-61.81805
 30
0.0
 11
77.5
 21
-51.31805
 31
0.0
 70
    32
  3
STANDARD
100
AcDbAlignedDimension
 13
63.170958
 23
-40.81805
 33
0.0
 14
63.170958
 24
-61.81805
 34
0.0
 50
90.0
100
AcDbRotatedDimension
  0
DIMENSION
  5
1CD
100
AcDbEntity
  8
寸法
  6
CONTINUOUS
100
AcDbDimension
  2
*D3
 10
-10.0
 20
-61.81805
 30
0.0
 11
-12.5
 21
-52.816411
 31
0.0
 70
    32
  3
STANDARD
100
AcDbAlignedDimension
 13
3.202145
 23
-43.814773
 33
0.0
 14
5.062834
 24
-61.81805
 34
0.0
 50
90.0
100
AcDbRotatedDimension
  0
DIMENSION
  5
1DA
100
AcDbEntity
  8
寸法
  6
CONTINUOUS
100
AcDbDimension
  2
*D4
 10
47.420958
 20
-70.0
 30
0.0
 11
39.420958
 21
-67.5
 31
0.0
 70
    32
  3
STANDARD
100
AcDbAlignedDimension
 13
50.920958
 23
-65.406581
 33
0.0
 14
47.420958
 24
-65.406581
 34
0.0
100
AcDbRotatedDimension
  0
DIMENSION
  5
1E9
100
AcDbEntity
  8
寸法
  6
CONTINUOUS
100
AcDbDimension
  2
*D5
 10
49.170958
 20
-30.0
 30
0.0
 11
60.170958
 21
-27.5
 31
0.0
 70
    32
  3
STANDARD
100
AcDbAlignedDimension
 13
71.170958
 23
-49.318057
 33
0.0
 14
49.170958
 24
-36.673865
 34
0.0
100
AcDbRotatedDimension
  0
DIMENSION
  5
1F6
100
AcDbEntity
  8
寸法
  6
CONTINUOUS
100
AcDbDimension
  2
*D6
 10
63.170958
 20
-40.81805
 30
0.0
 11
-17.219786
 21
-34.624531
 31
0.0
 70
    34
  3
STANDARD
100
AcDb2LineAngularDimension
 13
3.170958
 23
-43.518047
 33
0.0
 14
28.859744
 24
-40.81805
 34
0.0
 15
28.859742
 25
-40.81805
 35
0.0
 16
-19.816025
 26
-44.221787
 36
0.0
1001
ACAD
1000
DSTYLE
1002
{
1070
   271
1070
     0
1070
   271
1070
     0
1002
}
  0
DIMENSION
  5
212
100
AcDbEntity
  8
寸法
  6
CONTINUOUS
100
AcDbDimension
  2
*D7
 10
3.170958
 20
-20.0
 30
0.0
 11
37.170958
 21
-17.5
 31
0.0
 70
    32
  3
STANDARD
100
AcDbAlignedDimension
 13
71.170958
 23
10.0
 33
0.0
 14
3.170958
 24
0.000001
 34
0.0
100
AcDbRotatedDimension
  0
DIMENSION
  5
21F
100
AcDbEntity
  8
寸法
  6
CONTINUOUS
100
AcDbDimension
  2
*D8
 10
63.170958
 20
-10.0
 30
0.0
 11
67.170958
 21
-7.5
 31
0.0
 70
    32
  3
STANDARD
100
AcDbAlignedDimension
 13
71.170958
 23
10.0
 33
0.0
 14
63.170958
 24
3.543002
 34
0.0
100
AcDbRotatedDimension
1001
ACAD
1000
DSTYLE
1002
{
1070
   287
1070
     4
1070
   287
1070
     4
1070
   279
1070
     1
1002
}
  0
DIMENSION
  5
235
100
AcDbEntity
  8
寸法
  6
CONTINUOUS
100
AcDbDimension
  2
*D9
 10
-10.0
 20
0.000002
 30
0.0
 11
-12.5
 21
11.500002
 31
0.0
 70
    32
  3
STANDARD
100
AcDbAlignedDimension
 13
3.170958
 23
23.000002
 33
0.0
 14
3.170958
 24
0.000002
 34
0.0
 50
90.0
100
AcDbRotatedDimension
  0
DIMENSION
  5
243
100
AcDbEntity
  8
寸法
  6
CONTINUOUS
100
AcDbDimension
  2
*D10
 10
3.170958
 20
0.000002
 30
0.0
 11
-0.492869
 21
5.295449
 31
0.0
 70
   162
  3
STANDARD
100
AcDb2LineAngularDimension
 13
3.170958
 23
0.000001
 33
0.0
 14
-31.275692
 24
0.000001
 34
0.0
 15
3.170958
 25
23.000002
 35
0.0
 16
-2.405694
 26
3.219683
 36
0.0
1001
ACAD
1000
DSTYLE
1002
{
1070
   271
1070
     0
1070
   271
1070
     0
1002
}
  0
LINE
  5
276
100
AcDbEntity
  8
0
  6
CENTER
 62
     1
 48
0.5
100
AcDbLine
 10
-52.966556
 20
0.0
 30
0.0
 11
-56.831429
 21
27.5
 31
0.0
  0
ARC
  5
278
100
AcDbEntity
  8
0
  6
CENTER
 62
     1
 48
0.5
100
AcDbCircle
 10
-56.831429
 20
27.5
 30
0.0
 40
27.5
100
AcDbArc
 50
180.0
 51
0.0
  0
LINE
  5
27A
100
AcDbEntity
  8
0
  6
CONTINUOUS
100
AcDbLine
 10
-56.831429
 20
27.5
 30
0.0
 11
-56.831429
 21
0.0
 31
0.0
  0
DIMENSION
  5
27B
100
AcDbEntity
  8
寸法
  6
CONTINUOUS
100
AcDbDimension
  2
*D11
 10
-56.831429
 20
0.0
 30
0.0
 11
-63.011748
 21
-13.36582
 31
0.0
 70
    34
  3
STANDARD
100
AcDb2LineAngularDimension
 13
-52.966556
 23
0.0
 33
0.0
 14
-56.831429
 24
27.5
 34
0.0
 15
-56.831429
 25
27.5
 35
0.0
 16
-52.778237
 26
-15.917443
 36
0.0
1001
ACAD
1000
DSTYLE
1002
{
1070
   271
1070
     0
1070
   271
1070
     0
1002
}
  0
DIMENSION
  5
28C
100
AcDbEntity
  8
寸法
  6
CONTINUOUS
100
AcDbDimension
  2
*D12
 10
-56.831429
 20
27.5
 30
0.0
 11
-92.405009
 21
18.954804
 31
0.0
 70
    36
  1
%%c55
  3
STANDARD
100
AcDbRadialDimension
 15
-83.069381
 25
19.264719
 35
0.0
 40
0.0
1001
ACAD
1000
DSTYLE
1002
{
1070
   288
1070
     1
1002
}
  0
ENDSEC
  0
SECTION
  2
OBJECTS
  0
DICTIONARY
  5
C
100
AcDbDictionary
  3
ACAD_GROUP
350
D
  3
ACAD_LAYOUT
350
15C
  3
ACAD_MLINESTYLE
350
1B
  3
ACAD_PLOTSETTINGS
350
15D
  3
ACAD_PLOTSTYLENAME
350
15A
  3
ACDBHEADERROUNDTRIPXREC
350
303
  0
DICTIONARY
  5
2FF
100
AcDbDictionary
280
     1
  3
ACAD_XREC_ROUNDTRIP
360
300
  0
DICTIONARY
  5
326
100
AcDbDictionary
280
     1
  3
ACAD_XREC_ROUNDTRIP
360
327
  0
DICTIONARY
  5
2C6
100
AcDbDictionary
280
     1
  3
ACAD_LAYOUTSELFREF
360
325
  0
DICTIONARY
  5
2C4
100
AcDbDictionary
280
     1
  3
ACAD_LAYOUTSELFREF
360
324
  0
DICTIONARY
  5
2FD
100
AcDbDictionary
280
     1
  3
ACAD_XREC_ROUNDTRIP
360
2FE
  0
DICTIONARY
  5
D
102
{ACAD_REACTORS
330
C
102
}
100
AcDbDictionary
  3
*A1
350
18A
  0
DICTIONARY
  5
15C
102
{ACAD_XDICTIONARY
360
328
102
}
102
{ACAD_REACTORS
330
C
102
}
100
AcDbDictionary
  3
MODEL
350
15E
  3
ﾚｲｱｳﾄ1
350
15F
  0
DICTIONARY
  5
1B
102
{ACAD_REACTORS
330
C
102
}
100
AcDbDictionary
  3
STANDARD
350
1C
  0
DICTIONARY
  5
15D
102
{ACAD_REACTORS
330
C
102
}
100
AcDbDictionary
  0
ACAD_PROXY_OBJECT
  5
15A
102
{ACAD_REACTORS
330
C
102
}
100
AcDbProxyObject
 90
      499
 91
      500
 93
       86
310
405010041939BDC9B585B0
350
15B
340
15B
 94
        0
  0
DICTIONARY
  5
303
102
{ACAD_REACTORS
330
C
102
}
100
AcDbDictionary
  3
CEPSNTYPE
350
30D
  3
DIMSTYLEDATA
350
311
  3
FINGERPRINTGUID
350
30E
  3
HYPERLINKBASE
350
306
  3
INSUNITS
350
30C
  3
LAYOUTDICT
350
308
  3
LWETCUNION
350
30B
  3
PLOTSETDICT
350
309
  3
PLOTSTYLNAMDICT
350
30A
  3
PSVPSCALE
350
310
  3
PUCSBASE
350
314
  3
PUCSORGBACK
350
31A
  3
PUCSORGBOTTOM
350
316
  3
PUCSORGFRONT
350
319
  3
PUCSORGLEFT
350
317
  3
PUCSORGRIGHT
350
318
  3
PUCSORGTOP
350
315
  3
PUCSORTHOREF
350
312
  3
PUCSORTHOVIEW
350
313
  3
STYLESHEET
350
307
  3
TSTACKALIGN
350
304
  3
TSTACKSIZE
350
305
  3
UCSBASE
350
31D
  3
UCSORGBACK
350
323
  3
UCSORGBOTTOM
350
31F
  3
UCSORGFRONT
350
322
  3
UCSORGLEFT
350
320
  3
UCSORGRIGHT
350
321
  3
UCSORGTOP
350
31E
  3
UCSORTHOREF
350
31B
  3
UCSORTHOVIEW
350
31C
  3
VERSIONGUID
350
30F
  0
XRECORD
  5
300
102
{ACAD_REACTORS
330
2FF
102
}
100
AcDbXrecord
102
EXTNAMES
  1
DEFPOINTS
  2
Defpoints
102
PLOTBIT
280
     0
  0
XRECORD
  5
327
102
{ACAD_REACTORS
330
326
102
}
100
AcDbXrecord
102
ACADR14ROUNDTRIP
1000
DSTYLE
1002
{
1070
   341
340
164
1070
   342
340
164
1002
}
  0
XRECORD
  5
325
102
{ACAD_REACTORS
330
2C6
102
}
100
AcDbXrecord
340
18
  0
XRECORD
  5
324
102
{ACAD_REACTORS
330
2C4
102
}
100
AcDbXrecord
340
15
  0
XRECORD
  5
2FE
102
{ACAD_REACTORS
330
2FD
102
}
100
AcDbXrecord
102
EXTNAMES
  1
_OPEN30
  2
_Open30
  0
GROUP
  5
18A
102
{ACAD_REACTORS
330
D
102
}
100
AcDbGroup
300

 70
     1
 71
     1
340
189
340
183
340
181
340
180
340
187
340
182
340
184
340
188
340
186
340
185
  0
DICTIONARY
  5
328
100
AcDbDictionary
280
     1
  3
ACAD_XREC_ROUNDTRIP
360
329
  0
ACAD_PROXY_OBJECT
  5
15E
102
{ACAD_REACTORS
330
15C
102
}
100
AcDbProxyObject
 90
      499
 91
      502
 93
      548
310
90E4550534F4E20504D2D32303030432C01AAAAAAAAA5A69054D6F64656C901A800000000000000000000000000000000000000000000A1000000000000008902A6A6AAAAF
330
18
330
0
340
0
340
0
 94
        0
  0
ACAD_PROXY_OBJECT
  5
15F
102
{ACAD_REACTORS
330
15C
102
}
100
AcDbProxyObject
 90
      499
 91
      502
 93
      964
310
90E4550534F4E20504D2D32303030432C00AAAAAA416AA59106906DAB2B1B3C43140501A800000000000000000000000000000000000000000000A1000000000000008902A6A6A10232D5E076BC5510408CB5781DAF154410232D5E076BC5510408CB5781DAF15C410232D5E076BC5710408CB5781DAF15C4E
330
15
330
0
340
0
340
0
 94
        0
  0
MLINESTYLE
  5
1C
102
{ACAD_REACTORS
330
1B
102
}
100
AcDbMlineStyle
  2
STANDARD
 70
     0
  3

 62
   256
 51
90.0
 52
90.0
 71
     2
 49
0.5
 62
   256
  6
BYLAYER
 49
-0.5
 62
   256
  6
BYLAYER
  0
ACAD_PROXY_OBJECT
  5
15B
102
{ACAD_REACTORS
330
15A
102
}
100
AcDbProxyObject
 90
      499
 91
      501
 93
        0
 94
        0
  0
XRECORD
  5
30D
102
{ACAD_REACTORS
330
303
102
}
100
AcDbXrecord
 90
        0
  0
XRECORD
  5
311
102
{ACAD_REACTORS
330
303
102
}
100
AcDbXrecord
1000
DSTYLE
1002
{
1070
   341
340
164
1070
   342
340
164
1002
}
  0
XRECORD
  5
30E
102
{ACAD_REACTORS
330
303
102
}
100
AcDbXrecord
  1
{A6CB176C-F0CD-47A4-8B92-BFD3D5D91CCC}
  0
XRECORD
  5
306
102
{ACAD_REACTORS
330
303
102
}
100
AcDbXrecord
  1

  0
XRECORD
  5
30C
102
{ACAD_REACTORS
330
303
102
}
100
AcDbXrecord
 90
        0
  0
XRECORD
  5
308
102
{ACAD_REACTORS
330
303
102
}
100
AcDbXrecord
340
15C
  0
XRECORD
  5
30B
102
{ACAD_REACTORS
330
303
102
}
100
AcDbXrecord
 90
    14877
  0
XRECORD
  5
309
102
{ACAD_REACTORS
330
303
102
}
100
AcDbXrecord
340
15D
  0
XRECORD
  5
30A
102
{ACAD_REACTORS
330
303
102
}
100
AcDbXrecord
340
15A
  0
XRECORD
  5
310
102
{ACAD_REACTORS
330
303
102
}
100
AcDbXrecord
 40
0.0
  0
XRECORD
  5
314
102
{ACAD_REACTORS
330
303
102
}
100
AcDbXrecord
340
0
  0
XRECORD
  5
31A
102
{ACAD_REACTORS
330
303
102
}
100
AcDbXrecord
 10
0.0
 20
0.0
 30
0.0
  0
XRECORD
  5
316
102
{ACAD_REACTORS
330
303
102
}
100
AcDbXrecord
 10
0.0
 20
0.0
 30
0.0
  0
XRECORD
  5
319
102
{ACAD_REACTORS
330
303
102
}
100
AcDbXrecord
 10
0.0
 20
0.0
 30
0.0
  0
XRECORD
  5
317
102
{ACAD_REACTORS
330
303
102
}
100
AcDbXrecord
 10
0.0
 20
0.0
 30
0.0
  0
XRECORD
  5
318
102
{ACAD_REACTORS
330
303
102
}
100
AcDbXrecord
 10
0.0
 20
0.0
 30
0.0
  0
XRECORD
  5
315
102
{ACAD_REACTORS
330
303
102
}
100
AcDbXrecord
 10
0.0
 20
0.0
 30
0.0
  0
XRECORD
  5
312
102
{ACAD_REACTORS
330
303
102
}
100
AcDbXrecord
340
0
  0
XRECORD
  5
313
102
{ACAD_REACTORS
330
303
102
}
100
AcDbXrecord
 70
     0
  0
XRECORD
  5
307
102
{ACAD_REACTORS
330
303
102
}
100
AcDbXrecord
  1

  0
XRECORD
  5
304
102
{ACAD_REACTORS
330
303
102
}
100
AcDbXrecord
 90
        1
  0
XRECORD
  5
305
102
{ACAD_REACTORS
330
303
102
}
100
AcDbXrecord
 90
       70
  0
XRECORD
  5
31D
102
{ACAD_REACTORS
330
303
102
}
100
AcDbXrecord
340
0
  0
XRECORD
  5
323
102
{ACAD_REACTORS
330
303
102
}
100
AcDbXrecord
 10
0.0
 20
0.0
 30
0.0
  0
XRECORD
  5
31F
102
{ACAD_REACTORS
330
303
102
}
100
AcDbXrecord
 10
0.0
 20
0.0
 30
0.0
  0
XRECORD
  5
322
102
{ACAD_REACTORS
330
303
102
}
100
AcDbXrecord
 10
0.0
 20
0.0
 30
0.0
  0
XRECORD
  5
320
102
{ACAD_REACTORS
330
303
102
}
100
AcDbXrecord
 10
0.0
 20
0.0
 30
0.0
  0
XRECORD
  5
321
102
{ACAD_REACTORS
330
303
102
}
100
AcDbXrecord
 10
0.0
 20
0.0
 30
0.0
  0
XRECORD
  5
31E
102
{ACAD_REACTORS
330
303
102
}
100
AcDbXrecord
 10
0.0
 20
0.0
 30
0.0
  0
XRECORD
  5
31B
102
{ACAD_REACTORS
330
303
102
}
100
AcDbXrecord
340
0
  0
XRECORD
  5
31C
102
{ACAD_REACTORS
330
303
102
}
100
AcDbXrecord
 70
     0
  0
XRECORD
  5
30F
102
{ACAD_REACTORS
330
303
102
}
100
AcDbXrecord
  1
{E44CC435-1277-438C-94CF-E6630189FD53}
  0
XRECORD
  5
329
102
{ACAD_REACTORS
330
328
102
}
100
AcDbXrecord
102
EXTNAMES
  1
MODEL
  2
Model
  0
ENDSEC
  0
EOF
