  0
SECTION
  2
HEADER
  9
$ACADVER
  1
AC1014
  9
$ACADMAINTVER
 70
     0
  9
$DWGCODEPAGE
  3
ANSI_932
  9
$INSBASE
 10
0.0
 20
0.0
 30
0.0
  9
$EXTMIN
 10
-68.466119
 20
-78.464822
 30
0.0
  9
$EXTMAX
 10
117.012837
 20
40.172164
 30
0.0
  9
$LIMMIN
 10
-100.0
 20
-110.0
  9
$LIMMAX
 10
170.0
 20
50.0
  9
$ORTHOMODE
 70
     1
  9
$REGENMODE
 70
     1
  9
$FILLMODE
 70
     1
  9
$QTEXTMODE
 70
     0
  9
$MIRRTEXT
 70
     1
  9
$DRAGMODE
 70
     2
  9
$LTSCALE
 40
1.0
  9
$OSMODE
 70
    33
  9
$ATTMODE
 70
     1
  9
$TEXTSIZE
 40
0.2
  9
$TRACEWID
 40
0.05
  9
$TEXTSTYLE
  7
STANDARD
  9
$CLAYER
  8
寸法
  9
$CELTYPE
  6
CONTINUOUS
  9
$CECOLOR
 62
   256
  9
$CELTSCALE
 40
1.0
  9
$DELOBJ
 70
     1
  9
$DISPSILH
 70
     0
  9
$DIMSCALE
 40
1.0
  9
$DIMASZ
 40
2.0
  9
$DIMEXO
 40
1.0
  9
$DIMDLI
 40
10.0
  9
$DIMRND
 40
0.0
  9
$DIMDLE
 40
0.0
  9
$DIMEXE
 40
1.0
  9
$DIMTP
 40
0.0
  9
$DIMTM
 40
0.0
  9
$DIMTXT
 40
3.0
  9
$DIMCEN
 40
2.0
  9
$DIMTSZ
 40
0.0
  9
$DIMTOL
 70
     0
  9
$DIMLIM
 70
     0
  9
$DIMTIH
 70
     0
  9
$DIMTOH
 70
     0
  9
$DIMSE1
 70
     0
  9
$DIMSE2
 70
     0
  9
$DIMTAD
 70
     1
  9
$DIMZIN
 70
     8
  9
$DIMBLK
  1
OPEN30
  9
$DIMASO
 70
     1
  9
$DIMSHO
 70
     1
  9
$DIMPOST
  1

  9
$DIMAPOST
  1

  9
$DIMALT
 70
     0
  9
$DIMALTD
 70
     2
  9
$DIMALTF
 40
25.4
  9
$DIMLFAC
 40
1.0
  9
$DIMTOFL
 70
     1
  9
$DIMTVP
 40
0.0
  9
$DIMTIX
 70
     0
  9
$DIMSOXD
 70
     0
  9
$DIMSAH
 70
     0
  9
$DIMBLK1
  1

  9
$DIMBLK2
  1

  9
$DIMSTYLE
  2
STANDARD
  9
$DIMCLRD
 70
     1
  9
$DIMCLRE
 70
     1
  9
$DIMCLRT
 70
     1
  9
$DIMTFAC
 40
1.0
  9
$DIMGAP
 40
1.0
  9
$DIMJUST
 70
     0
  9
$DIMSD1
 70
     0
  9
$DIMSD2
 70
     0
  9
$DIMTOLJ
 70
     1
  9
$DIMTZIN
 70
     0
  9
$DIMALTZ
 70
     0
  9
$DIMALTTZ
 70
     0
  9
$DIMFIT
 70
     3
  9
$DIMUPT
 70
     0
  9
$DIMUNIT
 70
     2
  9
$DIMDEC
 70
     2
  9
$DIMTDEC
 70
     2
  9
$DIMALTU
 70
     2
  9
$DIMALTTD
 70
     2
  9
$DIMTXSTY
  7
STANDARD
  9
$DIMAUNIT
 70
     0
  9
$LUNITS
 70
     2
  9
$LUPREC
 70
     4
  9
$SKETCHINC
 40
0.1
  9
$FILLETRAD
 40
0.0
  9
$AUNITS
 70
     0
  9
$AUPREC
 70
     0
  9
$MENU
  1
acad
  9
$ELEVATION
 40
0.0
  9
$PELEVATION
 40
0.0
  9
$THICKNESS
 40
0.0
  9
$LIMCHECK
 70
     0
  9
$BLIPMODE
 70
     0
  9
$CHAMFERA
 40
0.0
  9
$CHAMFERB
 40
0.0
  9
$CHAMFERC
 40
0.0
  9
$CHAMFERD
 40
0.0
  9
$SKPOLY
 70
     0
  9
$TDCREATE
 40
2444972.375000000
  9
$TDUPDATE
 40
2451977.429907407
  9
$TDINDWG
 40
0.0079932870
  9
$TDUSRTIMER
 40
0.0079932870
  9
$USRTIMER
 70
     1
  9
$ANGBASE
 50
0.0
  9
$ANGDIR
 70
     0
  9
$PDMODE
 70
     0
  9
$PDSIZE
 40
0.0
  9
$PLINEWID
 40
0.0
  9
$COORDS
 70
     1
  9
$SPLFRAME
 70
     0
  9
$SPLINETYPE
 70
     6
  9
$SPLINESEGS
 70
     8
  9
$ATTDIA
 70
     0
  9
$ATTREQ
 70
     1
  9
$HANDLING
 70
     1
  9
$HANDSEED
  5
344
  9
$SURFTAB1
 70
     6
  9
$SURFTAB2
 70
     6
  9
$SURFTYPE
 70
     6
  9
$SURFU
 70
     6
  9
$SURFV
 70
     6
  9
$UCSNAME
  2

  9
$UCSORG
 10
0.0
 20
0.0
 30
0.0
  9
$UCSXDIR
 10
1.0
 20
0.0
 30
0.0
  9
$UCSYDIR
 10
0.0
 20
1.0
 30
0.0
  9
$PUCSNAME
  2

  9
$PUCSORG
 10
0.0
 20
0.0
 30
0.0
  9
$PUCSXDIR
 10
1.0
 20
0.0
 30
0.0
  9
$PUCSYDIR
 10
0.0
 20
1.0
 30
0.0
  9
$USERI1
 70
     0
  9
$USERI2
 70
     0
  9
$USERI3
 70
     0
  9
$USERI4
 70
     0
  9
$USERI5
 70
     0
  9
$USERR1
 40
0.0
  9
$USERR2
 40
0.0
  9
$USERR3
 40
0.0
  9
$USERR4
 40
0.0
  9
$USERR5
 40
0.0
  9
$WORLDVIEW
 70
     1
  9
$SHADEDGE
 70
     3
  9
$SHADEDIF
 70
    70
  9
$TILEMODE
 70
     1
  9
$MAXACTVP
 70
    48
  9
$PINSBASE
 10
0.0
 20
0.0
 30
0.0
  9
$PLIMCHECK
 70
     0
  9
$PEXTMIN
 10
1.000000E+20
 20
1.000000E+20
 30
1.000000E+20
  9
$PEXTMAX
 10
-1.000000E+20
 20
-1.000000E+20
 30
-1.000000E+20
  9
$PLIMMIN
 10
0.0
 20
0.0
  9
$PLIMMAX
 10
12.0
 20
9.0
  9
$UNITMODE
 70
     0
  9
$VISRETAIN
 70
     1
  9
$PLINEGEN
 70
     0
  9
$PSLTSCALE
 70
     1
  9
$TREEDEPTH
 70
  3020
  9
$PICKSTYLE
 70
     1
  9
$CMLSTYLE
  2
STANDARD
  9
$CMLJUST
 70
     0
  9
$CMLSCALE
 40
1.0
  9
$PROXYGRAPHICS
 70
     1
  9
$MEASUREMENT
 70
     0
  0
ENDSEC
  0
SECTION
  2
CLASSES
  0
CLASS
  1
ACDBDICTIONARYWDFLT
  2
AcDbDictionaryWithDefault
  3
AutoCAD 2000
 90
        0
280
     0
281
     0
  0
CLASS
  1
ACDBPLACEHOLDER
  2
AcDbPlaceHolder
  3
AutoCAD 2000
 90
        0
280
     0
281
     0
  0
CLASS
  1
LAYOUT
  2
AcDbLayout
  3
AutoCAD 2000
 90
        0
280
     0
281
     0
  0
CLASS
  1
LONG_TRANSACTION
  2
AcDbLongTransaction
  3
AutoCAD 2000
 90
        0
280
     0
281
     0
  0
CLASS
  1
LWPOLYLINE
  2
AcDbPolyline
  3
"AutoCAD"
 90
        0
280
     0
281
     1
  0
CLASS
  1
HATCH
  2
AcDbHatch
  3
"ACAD_SEDONA"
 90
        0
280
     0
281
     1
  0
CLASS
  1
XRECORD
  2
AcDbXrecord
  3
"<Built In>"
 90
        0
280
     0
281
     0
  0
CLASS
  1
LONG_TRANSACTION
  2
AcDbLongTransaction
  3
AutoCAD 2000
 90
        0
280
     0
281
     0
  0
CLASS
  1
LWPOLYLINE
  2
AcDbPolyline
  3
"AutoCAD"
 90
        0
280
     0
281
     1
  0
CLASS
  1
HATCH
  2
AcDbHatch
  3
"ACAD_SEDONA"
 90
        0
280
     0
281
     1
  0
CLASS
  1
XRECORD
  2
AcDbXrecord
  3
"<Built In>"
 90
        0
280
     0
281
     0
  0
ENDSEC
  0
SECTION
  2
TABLES
  0
TABLE
  2
VPORT
  5
8
100
AcDbSymbolTable
 70
     2
  0
VPORT
  5
343
100
AcDbSymbolTableRecord
100
AcDbViewportTableRecord
  2
*ACTIVE
 70
     0
 10
0.0
 20
0.0
 11
1.0
 21
1.0
 12
28.331866
 22
-21.094952
 13
0.0
 23
0.0
 14
10.0
 24
10.0
 15
10.0
 25
10.0
 16
0.0
 26
0.0
 36
1.0
 17
0.0
 27
0.0
 37
0.0
 40
180.199766
 41
1.710425
 42
50.0
 43
0.0
 44
0.0
 50
0.0
 51
0.0
 71
     0
 72
   100
 73
     1
 74
     1
 75
     0
 76
     0
 77
     0
 78
     0
  0
ENDTAB
  0
TABLE
  2
LTYPE
  5
5
100
AcDbSymbolTable
 70
     5
  0
LTYPE
  5
12
100
AcDbSymbolTableRecord
100
AcDbLinetypeTableRecord
  2
BYBLOCK
 70
     0
  3

 72
    65
 73
     0
 40
0.0
  0
LTYPE
  5
13
100
AcDbSymbolTableRecord
100
AcDbLinetypeTableRecord
  2
BYLAYER
 70
     0
  3

 72
    65
 73
     0
 40
0.0
  0
LTYPE
  5
14
100
AcDbSymbolTableRecord
100
AcDbLinetypeTableRecord
  2
CONTINUOUS
 70
     0
  3
Solid line
 72
    65
 73
     0
 40
0.0
  0
LTYPE
  5
1F
100
AcDbSymbolTableRecord
100
AcDbLinetypeTableRecord
  2
DASHED
 70
     0
  3
__ __ __ __ __ __ __ __ __ __ __ __ __ __ __
 72
    65
 73
     2
 40
3.5
 49
2.0
 74
     0
 49
-1.5
 74
     0
  0
LTYPE
  5
20
100
AcDbSymbolTableRecord
100
AcDbLinetypeTableRecord
  2
CENTER
 70
     0
  3
____ _ ____ _ ____ _ ____ _ ____ _ ____ _ ____
 72
    65
 73
     4
 40
17.5
 49
13.0
 74
     0
 49
-1.5
 74
     0
 49
1.5
 74
     0
 49
-1.5
 74
     0
  0
LTYPE
  5
21
100
AcDbSymbolTableRecord
100
AcDbLinetypeTableRecord
  2
PHANTOM
 70
     0
  3
_____ _ _ _____ _ _ _____ _ _ _____ _ _ ____  
 72
    65
 73
     6
 40
15.5
 49
8.0
 74
     0
 49
-1.5
 74
     0
 49
1.5
 74
     0
 49
-1.5
 74
     0
 49
1.5
 74
     0
 49
-1.5
 74
     0
  0
LTYPE
  5
22
100
AcDbSymbolTableRecord
100
AcDbLinetypeTableRecord
  2
DOT
 70
     0
  3
. . . . . . . . . . . . . . . . . . . . . . . .
 72
    65
 73
     2
 40
0.25
 49
0.0
 74
     0
 49
-0.25
 74
     0
  0
ENDTAB
  0
TABLE
  2
LAYER
  5
2
100
AcDbSymbolTable
 70
     3
  0
LAYER
  5
E
100
AcDbSymbolTableRecord
100
AcDbLayerTableRecord
  2
0
 70
     0
 62
     7
  6
CONTINUOUS
  0
LAYER
  5
158
100
AcDbSymbolTableRecord
100
AcDbLayerTableRecord
  2
寸法
 70
     0
 62
     1
  6
CONTINUOUS
  0
LAYER
  5
162
102
{ACAD_XDICTIONARY
360
2D9
102
}
100
AcDbSymbolTableRecord
100
AcDbLayerTableRecord
  2
DEFPOINTS
 70
     0
 62
     7
  6
CONTINUOUS
  0
ENDTAB
  0
TABLE
  2
STYLE
  5
3
100
AcDbSymbolTable
 70
     1
  0
STYLE
  5
F
100
AcDbSymbolTableRecord
100
AcDbTextStyleTableRecord
  2
STANDARD
 70
     0
 40
0.0
 41
1.0
 50
0.0
 71
     0
 42
0.2
  3
txt
  4
BIGFONT
  0
ENDTAB
  0
TABLE
  2
VIEW
  5
6
100
AcDbSymbolTable
 70
     0
  0
ENDTAB
  0
TABLE
  2
UCS
  5
7
100
AcDbSymbolTable
 70
     0
  0
ENDTAB
  0
TABLE
  2
APPID
  5
9
100
AcDbSymbolTable
 70
     1
  0
APPID
  5
10
100
AcDbSymbolTableRecord
100
AcDbRegAppTableRecord
  2
ACAD
 70
     0
  0
ENDTAB
  0
TABLE
  2
DIMSTYLE
  5
A
100
AcDbSymbolTable
 70
     1
  0
DIMSTYLE
105
14A
102
{ACAD_XDICTIONARY
360
300
102
}
102
{ACAD_REACTORS
330
175
330
1A5
330
1B2
330
1BF
330
1CE
330
1DB
330
1EE
330
1FB
330
211
330
232
330
249
330
25C
102
}
100
AcDbSymbolTableRecord
100
AcDbDimStyleTableRecord
  2
STANDARD
 70
     0
  3

  4

  5
OPEN30
  6

  7

 40
1.0
 41
2.0
 42
1.0
 43
10.0
 44
1.0
 45
0.0
 46
0.0
 47
0.0
 48
0.0
140
3.0
141
2.0
142
0.0
143
25.4
144
1.0
145
0.0
146
1.0
147
1.0
 71
     0
 72
     0
 73
     0
 74
     0
 75
     0
 76
     0
 77
     1
 78
     8
170
     0
171
     2
172
     1
173
     0
174
     0
175
     0
176
     1
177
     1
178
     1
270
     2
271
     2
272
     2
273
     2
274
     2
340
F
275
     0
280
     0
281
     0
282
     0
283
     1
284
     0
285
     0
286
     0
287
     3
288
     0
  0
ENDTAB
  0
TABLE
  2
BLOCK_RECORD
  5
1
100
AcDbSymbolTable
 70
    13
  0
BLOCK_RECORD
  5
18
102
{ACAD_XDICTIONARY
360
296
102
}
100
AcDbSymbolTableRecord
100
AcDbBlockTableRecord
  2
*MODEL_SPACE
  0
BLOCK_RECORD
  5
15
102
{ACAD_XDICTIONARY
360
294
102
}
100
AcDbSymbolTableRecord
100
AcDbBlockTableRecord
  2
*PAPER_SPACE
  0
BLOCK_RECORD
  5
159
102
{ACAD_XDICTIONARY
360
2D7
102
}
100
AcDbSymbolTableRecord
100
AcDbBlockTableRecord
  2
_OPEN30
  0
BLOCK_RECORD
  5
176
100
AcDbSymbolTableRecord
100
AcDbBlockTableRecord
  2
*D1
  0
BLOCK_RECORD
  5
1A6
100
AcDbSymbolTableRecord
100
AcDbBlockTableRecord
  2
*D2
  0
BLOCK_RECORD
  5
1B3
100
AcDbSymbolTableRecord
100
AcDbBlockTableRecord
  2
*D3
  0
BLOCK_RECORD
  5
1C0
100
AcDbSymbolTableRecord
100
AcDbBlockTableRecord
  2
*D4
  0
BLOCK_RECORD
  5
1CF
100
AcDbSymbolTableRecord
100
AcDbBlockTableRecord
  2
*D5
  0
BLOCK_RECORD
  5
1DC
100
AcDbSymbolTableRecord
100
AcDbBlockTableRecord
  2
*D6
  0
BLOCK_RECORD
  5
1EF
100
AcDbSymbolTableRecord
100
AcDbBlockTableRecord
  2
*D7
  0
BLOCK_RECORD
  5
1FC
100
AcDbSymbolTableRecord
100
AcDbBlockTableRecord
  2
*D8
  0
BLOCK_RECORD
  5
212
100
AcDbSymbolTableRecord
100
AcDbBlockTableRecord
  2
*D9
  0
BLOCK_RECORD
  5
233
100
AcDbSymbolTableRecord
100
AcDbBlockTableRecord
  2
*D10
  0
BLOCK_RECORD
  5
24A
100
AcDbSymbolTableRecord
100
AcDbBlockTableRecord
  2
*D11
  0
BLOCK_RECORD
  5
25D
100
AcDbSymbolTableRecord
100
AcDbBlockTableRecord
  2
*D12
  0
ENDTAB
  0
ENDSEC
  0
SECTION
  2
BLOCKS
  0
BLOCK
  5
19
100
AcDbEntity
  8
0
100
AcDbBlockBegin
  2
*MODEL_SPACE
 70
     0
 10
0.0
 20
0.0
 30
0.0
  3
*MODEL_SPACE
  1

  0
ENDBLK
  5
1A
100
AcDbEntity
  8
0
100
AcDbBlockEnd
  0
BLOCK
  5
16
100
AcDbEntity
 67
     1
  8
0
100
AcDbBlockBegin
  2
*PAPER_SPACE
 70
     0
 10
0.0
 20
0.0
 30
0.0
  3
*PAPER_SPACE
  1

  0
ENDBLK
  5
17
100
AcDbEntity
 67
     1
  8
0
100
AcDbBlockEnd
  0
BLOCK
  5
15D
100
AcDbEntity
  8
0
100
AcDbBlockBegin
  2
_OPEN30
 70
     0
 10
0.0
 20
0.0
 30
0.0
  3
_OPEN30
  1

  0
LINE
  5
15A
100
AcDbEntity
  8
0
  6
BYBLOCK
 62
     0
100
AcDbLine
 10
-1.0
 20
0.267949
 30
0.0
 11
0.0
 21
0.0
 31
0.0
1001
ACAD
1000
RTLwPs
1070
   158
  0
LINE
  5
15B
100
AcDbEntity
  8
0
  6
BYBLOCK
 62
     0
100
AcDbLine
 10
0.0
 20
0.0
 30
0.0
 11
-1.0
 21
-0.267949
 31
0.0
1001
ACAD
1000
RTLwPs
1070
   158
  0
LINE
  5
15C
100
AcDbEntity
  8
0
  6
BYBLOCK
 62
     0
100
AcDbLine
 10
0.0
 20
0.0
 30
0.0
 11
-1.0
 21
0.0
 31
0.0
1001
ACAD
1000
RTLwPs
1070
   158
  0
ENDBLK
  5
15E
100
AcDbEntity
  8
0
100
AcDbBlockEnd
  0
BLOCK
  5
182
100
AcDbEntity
  8
0
100
AcDbBlockBegin
  2
*D1
 70
     1
 10
0.0
 20
0.0
 30
0.0
  3
*D1
  1

  0
LINE
  5
19A
100
AcDbEntity
  8
寸法
  6
CONTINUOUS
 62
     1
100
AcDbLine
 10
101.427394
 20
-37.549284
 30
0.0
 11
105.012065
 21
-37.549284
 31
0.0
1001
ACAD
1000
RTLwPs
1070
   158
  0
LINE
  5
19B
100
AcDbEntity
  8
寸法
  6
CONTINUOUS
 62
     1
100
AcDbLine
 10
100.362304
 20
-43.199282
 30
0.0
 11
105.012065
 21
-43.199282
 31
0.0
1001
ACAD
1000
RTLwPs
1070
   158
  0
LINE
  5
19C
100
AcDbEntity
  8
寸法
  6
CONTINUOUS
 62
     1
100
AcDbLine
 10
104.012065
 20
-35.549284
 30
0.0
 11
104.012065
 21
-33.549284
 31
0.0
1001
ACAD
1000
RTLwPs
1070
   158
  0
LINE
  5
19D
100
AcDbEntity
  8
寸法
  6
CONTINUOUS
 62
     1
100
AcDbLine
 10
104.012065
 20
-45.199282
 30
0.0
 11
104.012065
 21
-58.199282
 31
0.0
1001
ACAD
1000
RTLwPs
1070
   158
  0
LINE
  5
19E
100
AcDbEntity
  8
寸法
  6
CONTINUOUS
 62
     1
100
AcDbLine
 10
104.012065
 20
-37.549284
 30
0.0
 11
104.012065
 21
-43.199282
 31
0.0
1001
ACAD
1000
RTLwPs
1070
   158
  0
INSERT
  5
19F
100
AcDbEntity
  8
寸法
  6
CONTINUOUS
 62
     1
100
AcDbBlockReference
  2
_OPEN30
 10
104.012065
 20
-37.549284
 30
0.0
 41
2.0
 42
2.0
 43
2.0
 50
270.0
1001
ACAD
1000
RTLwPs
1070
   158
  0
INSERT
  5
1A0
100
AcDbEntity
  8
寸法
  6
CONTINUOUS
 62
     1
100
AcDbBlockReference
  2
_OPEN30
 10
104.012065
 20
-43.199282
 30
0.0
 41
2.0
 42
2.0
 43
2.0
 50
90.0
1001
ACAD
1000
RTLwPs
1070
   158
  0
MTEXT
  5
1A1
100
AcDbEntity
  8
寸法
  6
CONTINUOUS
 62
     1
100
AcDbMText
 10
101.512065
 20
-52.699282
 30
0.0
 40
3.0
 41
0.0
 71
     5
 72
     1
  1
\A1;5.65
 11
0.0
 21
1.0
 31
0.0
1001
ACAD
1000
MTEXTBEGIN
1070
    73
1070
     1
1070
    44
1040
1.0
1070
    74
1070
     0
1000
MTEXTEND
1000
MTEXTBEGIN
1070
    73
1070
     1
1070
    44
1040
1.0
1070
    74
1070
     0
1000
MTEXTEND
  0
POINT
  5
1A2
100
AcDbEntity
  8
DEFPOINTS
  6
CONTINUOUS
 62
     0
100
AcDbPoint
 10
100.427394
 20
-37.549284
 30
0.0
  0
POINT
  5
1A3
100
AcDbEntity
  8
DEFPOINTS
  6
CONTINUOUS
 62
     0
100
AcDbPoint
 10
99.362304
 20
-43.199282
 30
0.0
  0
POINT
  5
1A4
100
AcDbEntity
  8
DEFPOINTS
  6
CONTINUOUS
 62
     0
100
AcDbPoint
 10
104.012065
 20
-43.199282
 30
0.0
  0
ENDBLK
  5
183
100
AcDbEntity
  8
0
100
AcDbBlockEnd
  0
BLOCK
  5
1B0
100
AcDbEntity
  8
0
100
AcDbBlockBegin
  2
*D2
 70
     1
 10
0.0
 20
0.0
 30
0.0
  3
*D2
  1

  0
LINE
  5
1A7
100
AcDbEntity
  8
寸法
  6
CONTINUOUS
 62
     1
100
AcDbLine
 10
43.012065
 20
-31.699282
 30
0.0
 11
61.0
 21
-31.699282
 31
0.0
1001
ACAD
1000
RTLwPs
1070
   158
  0
LINE
  5
1A8
100
AcDbEntity
  8
寸法
  6
CONTINUOUS
 62
     1
100
AcDbLine
 10
43.012065
 20
-43.199282
 30
0.0
 11
61.0
 21
-43.199282
 31
0.0
1001
ACAD
1000
RTLwPs
1070
   158
  0
LINE
  5
1A9
100
AcDbEntity
  8
寸法
  6
CONTINUOUS
 62
     1
100
AcDbLine
 10
60.0
 20
-33.699282
 30
0.0
 11
60.0
 21
-41.199282
 31
0.0
1001
ACAD
1000
RTLwPs
1070
   158
  0
INSERT
  5
1AA
100
AcDbEntity
  8
寸法
  6
CONTINUOUS
 62
     1
100
AcDbBlockReference
  2
_OPEN30
 10
60.0
 20
-31.699282
 30
0.0
 41
2.0
 42
2.0
 43
2.0
 50
90.0
1001
ACAD
1000
RTLwPs
1070
   158
  0
INSERT
  5
1AB
100
AcDbEntity
  8
寸法
  6
CONTINUOUS
 62
     1
100
AcDbBlockReference
  2
_OPEN30
 10
60.0
 20
-43.199282
 30
0.0
 41
2.0
 42
2.0
 43
2.0
 50
270.0
1001
ACAD
1000
RTLwPs
1070
   158
  0
MTEXT
  5
1AC
100
AcDbEntity
  8
寸法
  6
CONTINUOUS
 62
     1
100
AcDbMText
 10
57.5
 20
-37.449282
 30
0.0
 40
3.0
 41
0.0
 71
     5
 72
     1
  1
\A1;11.5
 11
0.0
 21
1.0
 31
0.0
1001
ACAD
1000
MTEXTBEGIN
1070
    73
1070
     1
1070
    44
1040
1.0
1070
    74
1070
     0
1000
MTEXTEND
1000
MTEXTBEGIN
1070
    73
1070
     1
1070
    44
1040
1.0
1070
    74
1070
     0
1000
MTEXTEND
  0
POINT
  5
1AD
100
AcDbEntity
  8
DEFPOINTS
  6
CONTINUOUS
 62
     0
100
AcDbPoint
 10
42.012065
 20
-31.699282
 30
0.0
  0
POINT
  5
1AE
100
AcDbEntity
  8
DEFPOINTS
  6
CONTINUOUS
 62
     0
100
AcDbPoint
 10
42.012065
 20
-43.199282
 30
0.0
  0
POINT
  5
1AF
100
AcDbEntity
  8
DEFPOINTS
  6
CONTINUOUS
 62
     0
100
AcDbPoint
 10
60.0
 20
-43.199282
 30
0.0
  0
ENDBLK
  5
1B1
100
AcDbEntity
  8
0
100
AcDbBlockEnd
  0
BLOCK
  5
1BD
100
AcDbEntity
  8
0
100
AcDbBlockBegin
  2
*D3
 70
     1
 10
0.0
 20
0.0
 30
0.0
  3
*D3
  1

  0
LINE
  5
1B4
100
AcDbEntity
  8
寸法
  6
CONTINUOUS
 62
     1
100
AcDbLine
 10
3.012065
 20
-33.199282
 30
0.0
 11
-11.0
 21
-33.199282
 31
0.0
1001
ACAD
1000
RTLwPs
1070
   158
  0
LINE
  5
1B5
100
AcDbEntity
  8
寸法
  6
CONTINUOUS
 62
     1
100
AcDbLine
 10
4.063107
 20
-43.199282
 30
0.0
 11
-11.0
 21
-43.199282
 31
0.0
1001
ACAD
1000
RTLwPs
1070
   158
  0
LINE
  5
1B6
100
AcDbEntity
  8
寸法
  6
CONTINUOUS
 62
     1
100
AcDbLine
 10
-10.0
 20
-35.199282
 30
0.0
 11
-10.0
 21
-41.199282
 31
0.0
1001
ACAD
1000
RTLwPs
1070
   158
  0
INSERT
  5
1B7
100
AcDbEntity
  8
寸法
  6
CONTINUOUS
 62
     1
100
AcDbBlockReference
  2
_OPEN30
 10
-10.0
 20
-33.199282
 30
0.0
 41
2.0
 42
2.0
 43
2.0
 50
90.0
1001
ACAD
1000
RTLwPs
1070
   158
  0
INSERT
  5
1B8
100
AcDbEntity
  8
寸法
  6
CONTINUOUS
 62
     1
100
AcDbBlockReference
  2
_OPEN30
 10
-10.0
 20
-43.199282
 30
0.0
 41
2.0
 42
2.0
 43
2.0
 50
270.0
1001
ACAD
1000
RTLwPs
1070
   158
  0
MTEXT
  5
1B9
100
AcDbEntity
  8
寸法
  6
CONTINUOUS
 62
     1
100
AcDbMText
 10
-12.5
 20
-38.199282
 30
0.0
 40
3.0
 41
0.0
 71
     5
 72
     1
  1
\A1;10
 11
0.0
 21
1.0
 31
0.0
1001
ACAD
1000
MTEXTBEGIN
1070
    73
1070
     1
1070
    44
1040
1.0
1070
    74
1070
     0
1000
MTEXTEND
1000
MTEXTBEGIN
1070
    73
1070
     1
1070
    44
1040
1.0
1070
    74
1070
     0
1000
MTEXTEND
  0
POINT
  5
1BA
100
AcDbEntity
  8
DEFPOINTS
  6
CONTINUOUS
 62
     0
100
AcDbPoint
 10
4.012065
 20
-33.199282
 30
0.0
  0
POINT
  5
1BB
100
AcDbEntity
  8
DEFPOINTS
  6
CONTINUOUS
 62
     0
100
AcDbPoint
 10
5.063107
 20
-43.199282
 30
0.0
  0
POINT
  5
1BC
100
AcDbEntity
  8
DEFPOINTS
  6
CONTINUOUS
 62
     0
100
AcDbPoint
 10
-10.0
 20
-43.199282
 30
0.0
  0
ENDBLK
  5
1BE
100
AcDbEntity
  8
0
100
AcDbBlockEnd
  0
BLOCK
  5
1CC
100
AcDbEntity
  8
0
100
AcDbBlockBegin
  2
*D4
 70
     1
 10
0.0
 20
0.0
 30
0.0
  3
*D4
  1

  0
LINE
  5
1C1
100
AcDbEntity
  8
寸法
  6
CONTINUOUS
 62
     1
100
AcDbLine
 10
32.262065
 20
-45.169188
 30
0.0
 11
32.262065
 21
-51.0
 31
0.0
1001
ACAD
1000
RTLwPs
1070
   158
  0
LINE
  5
1C2
100
AcDbEntity
  8
寸法
  6
CONTINUOUS
 62
     1
100
AcDbLine
 10
29.762065
 20
-45.169188
 30
0.0
 11
29.762065
 21
-51.0
 31
0.0
1001
ACAD
1000
RTLwPs
1070
   158
  0
LINE
  5
1C3
100
AcDbEntity
  8
寸法
  6
CONTINUOUS
 62
     1
100
AcDbLine
 10
34.262065
 20
-50.0
 30
0.0
 11
36.262065
 21
-50.0
 31
0.0
1001
ACAD
1000
RTLwPs
1070
   158
  0
LINE
  5
1C4
100
AcDbEntity
  8
寸法
  6
CONTINUOUS
 62
     1
100
AcDbLine
 10
27.762065
 20
-50.0
 30
0.0
 11
17.762065
 21
-50.0
 31
0.0
1001
ACAD
1000
RTLwPs
1070
   158
  0
LINE
  5
1C5
100
AcDbEntity
  8
寸法
  6
CONTINUOUS
 62
     1
100
AcDbLine
 10
32.262065
 20
-50.0
 30
0.0
 11
29.762065
 21
-50.0
 31
0.0
1001
ACAD
1000
RTLwPs
1070
   158
  0
INSERT
  5
1C6
100
AcDbEntity
  8
寸法
  6
CONTINUOUS
 62
     1
100
AcDbBlockReference
  2
_OPEN30
 10
32.262065
 20
-50.0
 30
0.0
 41
2.0
 42
2.0
 43
2.0
 50
180.0
1001
ACAD
1000
RTLwPs
1070
   158
  0
INSERT
  5
1C7
100
AcDbEntity
  8
寸法
  6
CONTINUOUS
 62
     1
100
AcDbBlockReference
  2
_OPEN30
 10
29.762065
 20
-50.0
 30
0.0
 41
2.0
 42
2.0
 43
2.0
1001
ACAD
1000
RTLwPs
1070
   158
  0
MTEXT
  5
1C8
100
AcDbEntity
  8
寸法
  6
CONTINUOUS
 62
     1
100
AcDbMText
 10
21.762065
 20
-47.5
 30
0.0
 40
3.0
 41
0.0
 71
     5
 72
     1
  1
\A1;2.5
1001
ACAD
1000
MTEXTBEGIN
1070
    73
1070
     1
1070
    44
1040
1.0
1070
    74
1070
     0
1000
MTEXTEND
1000
MTEXTBEGIN
1070
    73
1070
     1
1070
    44
1040
1.0
1070
    74
1070
     0
1000
MTEXTEND
  0
POINT
  5
1C9
100
AcDbEntity
  8
DEFPOINTS
  6
CONTINUOUS
 62
     0
100
AcDbPoint
 10
32.262065
 20
-44.169188
 30
0.0
  0
POINT
  5
1CA
100
AcDbEntity
  8
DEFPOINTS
  6
CONTINUOUS
 62
     0
100
AcDbPoint
 10
29.762065
 20
-44.169188
 30
0.0
  0
POINT
  5
1CB
100
AcDbEntity
  8
DEFPOINTS
  6
CONTINUOUS
 62
     0
100
AcDbPoint
 10
29.762065
 20
-50.0
 30
0.0
  0
ENDBLK
  5
1CD
100
AcDbEntity
  8
0
100
AcDbBlockEnd
  0
BLOCK
  5
1D9
100
AcDbEntity
  8
0
100
AcDbBlockBegin
  2
*D5
 70
     1
 10
0.0
 20
0.0
 30
0.0
  3
*D5
  1

  0
LINE
  5
1D0
100
AcDbEntity
  8
寸法
  6
CONTINUOUS
 62
     1
100
AcDbLine
 10
50.012065
 20
-34.699282
 30
0.0
 11
50.012065
 21
-19.0
 31
0.0
1001
ACAD
1000
RTLwPs
1070
   158
  0
LINE
  5
1D1
100
AcDbEntity
  8
寸法
  6
CONTINUOUS
 62
     1
100
AcDbLine
 10
31.012065
 20
-29.052561
 30
0.0
 11
31.012065
 21
-19.0
 31
0.0
1001
ACAD
1000
RTLwPs
1070
   158
  0
LINE
  5
1D2
100
AcDbEntity
  8
寸法
  6
CONTINUOUS
 62
     1
100
AcDbLine
 10
48.012065
 20
-20.0
 30
0.0
 11
33.012065
 21
-20.0
 31
0.0
1001
ACAD
1000
RTLwPs
1070
   158
  0
INSERT
  5
1D3
100
AcDbEntity
  8
寸法
  6
CONTINUOUS
 62
     1
100
AcDbBlockReference
  2
_OPEN30
 10
50.012065
 20
-20.0
 30
0.0
 41
2.0
 42
2.0
 43
2.0
1001
ACAD
1000
RTLwPs
1070
   158
  0
INSERT
  5
1D4
100
AcDbEntity
  8
寸法
  6
CONTINUOUS
 62
     1
100
AcDbBlockReference
  2
_OPEN30
 10
31.012065
 20
-20.0
 30
0.0
 41
2.0
 42
2.0
 43
2.0
 50
180.0
1001
ACAD
1000
RTLwPs
1070
   158
  0
MTEXT
  5
1D5
100
AcDbEntity
  8
寸法
  6
CONTINUOUS
 62
     1
100
AcDbMText
 10
40.512065
 20
-17.5
 30
0.0
 40
3.0
 41
0.0
 71
     5
 72
     1
  1
\A1;19
1001
ACAD
1000
MTEXTBEGIN
1070
    73
1070
     1
1070
    44
1040
1.0
1070
    74
1070
     0
1000
MTEXTEND
1000
MTEXTBEGIN
1070
    73
1070
     1
1070
    44
1040
1.0
1070
    74
1070
     0
1000
MTEXTEND
  0
POINT
  5
1D6
100
AcDbEntity
  8
DEFPOINTS
  6
CONTINUOUS
 62
     0
100
AcDbPoint
 10
50.012065
 20
-35.699282
 30
0.0
  0
POINT
  5
1D7
100
AcDbEntity
  8
DEFPOINTS
  6
CONTINUOUS
 62
     0
100
AcDbPoint
 10
31.012065
 20
-30.052561
 30
0.0
  0
POINT
  5
1D8
100
AcDbEntity
  8
DEFPOINTS
  6
CONTINUOUS
 62
     0
100
AcDbPoint
 10
31.012065
 20
-20.0
 30
0.0
  0
ENDBLK
  5
1DA
100
AcDbEntity
  8
0
100
AcDbBlockEnd
  0
BLOCK
  5
1EC
100
AcDbEntity
  8
0
100
AcDbBlockBegin
  2
*D6
 70
     1
 10
0.0
 20
0.0
 30
0.0
  3
*D6
  1

  0
LINE
  5
304
100
AcDbEntity
  8
寸法
  6
CONTINUOUS
 62
     1
100
AcDbLine
 10
14.42931
 20
-31.699282
 30
0.0
 11
-20.90039
 21
-31.699282
 31
0.0
  0
LINE
  5
305
100
AcDbEntity
  8
寸法
  6
CONTINUOUS
 62
     1
100
AcDbLine
 10
3.017543
 20
-33.303809
 30
0.0
 11
-20.68574
 21
-35.795096
 31
0.0
  0
ARC
  5
306
100
AcDbEntity
  8
寸法
  6
CONTINUOUS
 62
     1
100
AcDbCircle
 10
18.283775
 20
-31.699282
 30
0.0
 40
38.184165
100
AcDbArc
 50
173.995206
 51
180.0
  0
LINE
  5
307
100
AcDbEntity
  8
寸法
  6
CONTINUOUS
 62
     1
100
AcDbLine
 10
-19.690879
 20
-27.704772
 30
0.0
 11
-18.791219
 21
-19.151959
 31
0.0
  0
ARC
  5
308
100
AcDbEntity
  8
寸法
  6
CONTINUOUS
 62
     1
100
AcDbCircle
 10
18.283775
 20
-31.699282
 30
0.0
 40
38.184165
100
AcDbArc
 50
173.997268
 51
176.998634
  0
ARC
  5
309
100
AcDbEntity
  8
寸法
  6
CONTINUOUS
 62
     1
100
AcDbCircle
 10
18.283775
 20
-31.699282
 30
0.0
 40
38.184165
100
AcDbArc
 50
189.001298
 51
192.002664
  0
ARC
  5
30A
100
AcDbEntity
  8
寸法
  6
CONTINUOUS
 62
     1
100
AcDbCircle
 10
18.283775
 20
-31.699282
 30
0.0
 40
38.184165
100
AcDbArc
 50
180.0
 51
185.999932
  0
INSERT
  5
30B
100
AcDbEntity
  8
寸法
  6
CONTINUOUS
 62
     1
100
AcDbBlockReference
  2
_OPEN30
 10
-19.90039
 20
-31.699282
 30
0.0
 41
2.0
 42
2.0
 43
2.0
 50
268.499317
  0
INSERT
  5
30C
100
AcDbEntity
  8
寸法
  6
CONTINUOUS
 62
     1
100
AcDbBlockReference
  2
_OPEN30
 10
-19.691218
 20
-35.690569
 30
0.0
 41
2.0
 42
2.0
 43
2.0
 50
97.500615
  0
MTEXT
  5
30D
100
AcDbEntity
  8
寸法
  6
CONTINUOUS
 62
     1
100
AcDbMText
 10
-16.754766
 20
-23.689895
 30
0.0
 40
3.0
 41
0.0
 71
     5
 72
     1
  1
\A1;6°
 11
-0.104612
 21
-0.994513
 31
0.0
  0
POINT
  5
30E
100
AcDbEntity
  8
DEFPOINTS
  6
CONTINUOUS
 62
     0
100
AcDbPoint
 10
-19.807377
 20
-34.362844
 30
0.0
  0
POINT
  5
30F
100
AcDbEntity
  8
DEFPOINTS
  6
CONTINUOUS
 62
     0
100
AcDbPoint
 10
15.42931
 20
-31.699282
 30
0.0
  0
POINT
  5
310
100
AcDbEntity
  8
DEFPOINTS
  6
CONTINUOUS
 62
     0
100
AcDbPoint
 10
4.012065
 20
-33.199282
 30
0.0
  0
POINT
  5
311
100
AcDbEntity
  8
DEFPOINTS
  6
CONTINUOUS
 62
     0
100
AcDbPoint
 10
6.187759
 20
-32.97061
 30
0.0
  0
POINT
  5
312
100
AcDbEntity
  8
DEFPOINTS
  6
CONTINUOUS
 62
     0
100
AcDbPoint
 10
42.012065
 20
-31.699282
 30
0.0
  0
ENDBLK
  5
1ED
100
AcDbEntity
  8
0
100
AcDbBlockEnd
  0
BLOCK
  5
1F9
100
AcDbEntity
  8
0
100
AcDbBlockBegin
  2
*D7
 70
     1
 10
0.0
 20
0.0
 30
0.0
  3
*D7
  1

  0
LINE
  5
1F0
100
AcDbEntity
  8
寸法
  6
CONTINUOUS
 62
     1
100
AcDbLine
 10
50.012065
 20
20.54606
 30
0.0
 11
50.012065
 21
-1.0
 31
0.0
1001
ACAD
1000
RTLwPs
1070
   158
  0
LINE
  5
1F1
100
AcDbEntity
  8
寸法
  6
CONTINUOUS
 62
     1
100
AcDbLine
 10
4.012065
 20
15.546061
 30
0.0
 11
4.012065
 21
-1.0
 31
0.0
1001
ACAD
1000
RTLwPs
1070
   158
  0
LINE
  5
1F2
100
AcDbEntity
  8
寸法
  6
CONTINUOUS
 62
     1
100
AcDbLine
 10
48.012065
 20
0.0
 30
0.0
 11
6.012065
 21
0.0
 31
0.0
1001
ACAD
1000
RTLwPs
1070
   158
  0
INSERT
  5
1F3
100
AcDbEntity
  8
寸法
  6
CONTINUOUS
 62
     1
100
AcDbBlockReference
  2
_OPEN30
 10
50.012065
 20
0.0
 30
0.0
 41
2.0
 42
2.0
 43
2.0
1001
ACAD
1000
RTLwPs
1070
   158
  0
INSERT
  5
1F4
100
AcDbEntity
  8
寸法
  6
CONTINUOUS
 62
     1
100
AcDbBlockReference
  2
_OPEN30
 10
4.012065
 20
0.0
 30
0.0
 41
2.0
 42
2.0
 43
2.0
 50
180.0
1001
ACAD
1000
RTLwPs
1070
   158
  0
MTEXT
  5
1F5
100
AcDbEntity
  8
寸法
  6
CONTINUOUS
 62
     1
100
AcDbMText
 10
27.012065
 20
2.5
 30
0.0
 40
3.0
 41
0.0
 71
     5
 72
     1
  1
\A1;46
1001
ACAD
1000
MTEXTBEGIN
1070
    73
1070
     1
1070
    44
1040
1.0
1070
    74
1070
     0
1000
MTEXTEND
1000
MTEXTBEGIN
1070
    73
1070
     1
1070
    44
1040
1.0
1070
    74
1070
     0
1000
MTEXTEND
  0
POINT
  5
1F6
100
AcDbEntity
  8
DEFPOINTS
  6
CONTINUOUS
 62
     0
100
AcDbPoint
 10
50.012065
 20
21.54606
 30
0.0
  0
POINT
  5
1F7
100
AcDbEntity
  8
DEFPOINTS
  6
CONTINUOUS
 62
     0
100
AcDbPoint
 10
4.012065
 20
16.546061
 30
0.0
  0
POINT
  5
1F8
100
AcDbEntity
  8
DEFPOINTS
  6
CONTINUOUS
 62
     0
100
AcDbPoint
 10
4.012065
 20
0.0
 30
0.0
  0
ENDBLK
  5
1FA
100
AcDbEntity
  8
0
100
AcDbBlockEnd
  0
BLOCK
  5
206
100
AcDbEntity
  8
0
100
AcDbBlockBegin
  2
*D8
 70
     1
 10
0.0
 20
0.0
 30
0.0
  3
*D8
  1

  0
LINE
  5
313
100
AcDbEntity
  8
寸法
  6
CONTINUOUS
 62
     1
100
AcDbLine
 10
50.012065
 20
20.54606
 30
0.0
 11
50.012065
 21
9.0
 31
0.0
  0
LINE
  5
314
100
AcDbEntity
  8
寸法
  6
CONTINUOUS
 62
     1
100
AcDbLine
 10
42.012065
 20
17.330061
 30
0.0
 11
42.012065
 21
9.0
 31
0.0
  0
LINE
  5
315
100
AcDbEntity
  8
寸法
  6
CONTINUOUS
 62
     1
100
AcDbLine
 10
48.012065
 20
10.0
 30
0.0
 11
44.012065
 21
10.0
 31
0.0
  0
INSERT
  5
316
100
AcDbEntity
  8
寸法
  6
CONTINUOUS
 62
     1
100
AcDbBlockReference
  2
_OPEN30
 10
50.012065
 20
10.0
 30
0.0
 41
2.0
 42
2.0
 43
2.0
  0
INSERT
  5
317
100
AcDbEntity
  8
寸法
  6
CONTINUOUS
 62
     1
100
AcDbBlockReference
  2
_OPEN30
 10
42.012065
 20
10.0
 30
0.0
 41
2.0
 42
2.0
 43
2.0
 50
180.0
  0
MTEXT
  5
318
100
AcDbEntity
  8
寸法
  6
CONTINUOUS
 62
     1
100
AcDbMText
 10
46.012065
 20
12.5
 30
0.0
 40
3.0
 41
0.0
 71
     5
 72
     1
  1
\A1;8
  0
POINT
  5
319
100
AcDbEntity
  8
DEFPOINTS
  6
CONTINUOUS
 62
     0
100
AcDbPoint
 10
50.012065
 20
21.54606
 30
0.0
  0
POINT
  5
31A
100
AcDbEntity
  8
DEFPOINTS
  6
CONTINUOUS
 62
     0
100
AcDbPoint
 10
42.012065
 20
18.330061
 30
0.0
  0
POINT
  5
31B
100
AcDbEntity
  8
DEFPOINTS
  6
CONTINUOUS
 62
     0
100
AcDbPoint
 10
42.012065
 20
10.0
 30
0.0
  0
ENDBLK
  5
207
100
AcDbEntity
  8
0
100
AcDbBlockEnd
  0
BLOCK
  5
21C
100
AcDbEntity
  8
0
100
AcDbBlockBegin
  2
*D9
 70
     1
 10
0.0
 20
0.0
 30
0.0
  3
*D9
  1

  0
LINE
  5
213
100
AcDbEntity
  8
寸法
  6
CONTINUOUS
 62
     1
100
AcDbLine
 10
4.061929
 20
28.546061
 30
0.0
 11
-11.0
 21
28.546061
 31
0.0
1001
ACAD
1000
RTLwPs
1070
   158
  0
LINE
  5
214
100
AcDbEntity
  8
寸法
  6
CONTINUOUS
 62
     1
100
AcDbLine
 10
3.012065
 20
16.546061
 30
0.0
 11
-11.0
 21
16.546061
 31
0.0
1001
ACAD
1000
RTLwPs
1070
   158
  0
LINE
  5
215
100
AcDbEntity
  8
寸法
  6
CONTINUOUS
 62
     1
100
AcDbLine
 10
-10.0
 20
26.546061
 30
0.0
 11
-10.0
 21
18.546061
 31
0.0
1001
ACAD
1000
RTLwPs
1070
   158
  0
INSERT
  5
216
100
AcDbEntity
  8
寸法
  6
CONTINUOUS
 62
     1
100
AcDbBlockReference
  2
_OPEN30
 10
-10.0
 20
28.546061
 30
0.0
 41
2.0
 42
2.0
 43
2.0
 50
90.0
1001
ACAD
1000
RTLwPs
1070
   158
  0
INSERT
  5
217
100
AcDbEntity
  8
寸法
  6
CONTINUOUS
 62
     1
100
AcDbBlockReference
  2
_OPEN30
 10
-10.0
 20
16.546061
 30
0.0
 41
2.0
 42
2.0
 43
2.0
 50
270.0
1001
ACAD
1000
RTLwPs
1070
   158
  0
MTEXT
  5
218
100
AcDbEntity
  8
寸法
  6
CONTINUOUS
 62
     1
100
AcDbMText
 10
-12.5
 20
22.546061
 30
0.0
 40
3.0
 41
0.0
 71
     5
 72
     1
  1
\A1;12
 11
0.0
 21
1.0
 31
0.0
1001
ACAD
1000
MTEXTBEGIN
1070
    73
1070
     1
1070
    44
1040
1.0
1070
    74
1070
     0
1000
MTEXTEND
1000
MTEXTBEGIN
1070
    73
1070
     1
1070
    44
1040
1.0
1070
    74
1070
     0
1000
MTEXTEND
  0
POINT
  5
219
100
AcDbEntity
  8
DEFPOINTS
  6
CONTINUOUS
 62
     0
100
AcDbPoint
 10
5.061929
 20
28.546061
 30
0.0
  0
POINT
  5
21A
100
AcDbEntity
  8
DEFPOINTS
  6
CONTINUOUS
 62
     0
100
AcDbPoint
 10
4.012065
 20
16.546061
 30
0.0
  0
POINT
  5
21B
100
AcDbEntity
  8
DEFPOINTS
  6
CONTINUOUS
 62
     0
100
AcDbPoint
 10
-10.0
 20
16.546061
 30
0.0
  0
ENDBLK
  5
21D
100
AcDbEntity
  8
0
100
AcDbBlockEnd
  0
BLOCK
  5
243
100
AcDbEntity
  8
0
100
AcDbBlockBegin
  2
*D10
 70
     1
 10
0.0
 20
0.0
 30
0.0
  3
*D10
  1

  0
LINE
  5
31C
100
AcDbEntity
  8
寸法
  6
CONTINUOUS
 62
     1
100
AcDbLine
 10
5.14509
 20
29.496592
 30
0.0
 11
5.917734
 21
38.327957
 31
0.0
  0
LINE
  5
31D
100
AcDbEntity
  8
寸法
  6
CONTINUOUS
 62
     1
100
AcDbLine
 10
4.012065
 20
20.464212
 30
0.0
 11
4.012065
 21
38.411161
 31
0.0
  0
ARC
  5
31E
100
AcDbEntity
  8
寸法
  6
CONTINUOUS
 62
     1
100
AcDbCircle
 10
4.012065
 20
16.546061
 30
0.0
 40
20.8651
100
AcDbArc
 50
73.999068
 51
85.0
  0
LINE
  5
31F
100
AcDbEntity
  8
寸法
  6
CONTINUOUS
 62
     1
100
AcDbLine
 10
9.763592
 20
36.602788
 30
0.0
 11
18.030404
 21
34.232173
 31
0.0
  0
ARC
  5
320
100
AcDbEntity
  8
寸法
  6
CONTINUOUS
 62
     1
100
AcDbCircle
 10
4.012065
 20
16.546061
 30
0.0
 40
20.8651
100
AcDbArc
 50
74.011749
 51
79.505874
  0
ARC
  5
321
100
AcDbEntity
  8
寸法
  6
CONTINUOUS
 62
     1
100
AcDbCircle
 10
4.012065
 20
16.546061
 30
0.0
 40
20.8651
100
AcDbArc
 50
95.494125
 51
100.988251
  0
ARC
  5
322
100
AcDbEntity
  8
寸法
  6
CONTINUOUS
 62
     1
100
AcDbCircle
 10
4.012065
 20
16.546061
 30
0.0
 40
20.8651
100
AcDbArc
 50
85.0
 51
90.0
  0
INSERT
  5
323
100
AcDbEntity
  8
寸法
  6
CONTINUOUS
 62
     1
100
AcDbBlockReference
  2
_OPEN30
 10
5.830578
 20
37.331763
 30
0.0
 41
2.0
 42
2.0
 43
2.0
 50
172.252937
  0
INSERT
  5
324
100
AcDbEntity
  8
寸法
  6
CONTINUOUS
 62
     1
100
AcDbBlockReference
  2
_OPEN30
 10
4.012065
 20
37.411161
 30
0.0
 41
2.0
 42
2.0
 43
2.0
 50
2.747063
  0
MTEXT
  5
325
100
AcDbEntity
  8
寸法
  6
CONTINUOUS
 62
     1
100
AcDbMText
 10
14.58613
 20
37.820624
 30
0.0
 40
3.0
 41
0.0
 71
     5
 72
     1
  1
\A1;5°
 11
0.961257
 21
-0.275653
 31
0.0
  0
POINT
  5
326
100
AcDbEntity
  8
DEFPOINTS
  6
CONTINUOUS
 62
     0
100
AcDbPoint
 10
4.61892
 20
37.402334
 30
0.0
  0
POINT
  5
327
100
AcDbEntity
  8
DEFPOINTS
  6
CONTINUOUS
 62
     0
100
AcDbPoint
 10
4.012065
 20
16.546061
 30
0.0
  0
POINT
  5
328
100
AcDbEntity
  8
DEFPOINTS
  6
CONTINUOUS
 62
     0
100
AcDbPoint
 10
5.057934
 20
28.500397
 30
0.0
  0
POINT
  5
329
100
AcDbEntity
  8
DEFPOINTS
  6
CONTINUOUS
 62
     0
100
AcDbPoint
 10
4.012065
 20
16.546061
 30
0.0
  0
POINT
  5
32A
100
AcDbEntity
  8
DEFPOINTS
  6
CONTINUOUS
 62
     0
100
AcDbPoint
 10
4.012065
 20
19.464212
 30
0.0
  0
ENDBLK
  5
244
100
AcDbEntity
  8
0
100
AcDbBlockEnd
  0
BLOCK
  5
25A
100
AcDbEntity
  8
0
100
AcDbBlockBegin
  2
*D11
 70
     1
 10
0.0
 20
0.0
 30
0.0
  3
*D11
  1

  0
LINE
  5
32B
100
AcDbEntity
  8
寸法
  6
CONTINUOUS
 62
     1
100
AcDbLine
 10
-41.191061
 20
15.546061
 30
0.0
 11
-41.191061
 21
5.333785
 31
0.0
  0
LINE
  5
32C
100
AcDbEntity
  8
寸法
  6
CONTINUOUS
 62
     1
100
AcDbLine
 10
-38.943775
 20
15.555793
 30
0.0
 11
-37.543017
 21
5.588881
 31
0.0
  0
ARC
  5
32D
100
AcDbEntity
  8
寸法
  6
CONTINUOUS
 62
     1
100
AcDbCircle
 10
-41.191061
 20
31.546061
 30
0.0
 40
25.212276
100
AcDbArc
 50
260.900299
 51
270.0
  0
LINE
  5
32E
100
AcDbEntity
  8
寸法
  6
CONTINUOUS
 62
     1
100
AcDbLine
 10
-45.178456
 20
6.65109
 30
0.0
 11
-53.670222
 21
8.011205
 31
0.0
  0
ARC
  5
32F
100
AcDbEntity
  8
寸法
  6
CONTINUOUS
 62
     1
100
AcDbCircle
 10
-41.191061
 20
31.546061
 30
0.0
 40
25.212276
100
AcDbArc
 50
260.907475
 51
265.453738
  0
ARC
  5
330
100
AcDbEntity
  8
寸法
  6
CONTINUOUS
 62
     1
100
AcDbCircle
 10
-41.191061
 20
31.546061
 30
0.0
 40
25.212276
100
AcDbArc
 50
282.546262
 51
287.092525
  0
ARC
  5
331
100
AcDbEntity
  8
寸法
  6
CONTINUOUS
 62
     1
100
AcDbCircle
 10
-41.191061
 20
31.546061
 30
0.0
 40
25.212276
100
AcDbArc
 50
270.0
 51
278.0
  0
INSERT
  5
332
100
AcDbEntity
  8
寸法
  6
CONTINUOUS
 62
     1
100
AcDbBlockReference
  2
_OPEN30
 10
-41.191061
 20
6.333785
 30
0.0
 41
2.0
 42
2.0
 43
2.0
 50
357.726869
  0
INSERT
  5
333
100
AcDbEntity
  8
寸法
  6
CONTINUOUS
 62
     1
100
AcDbBlockReference
  2
_OPEN30
 10
-37.68219
 20
6.579149
 30
0.0
 41
2.0
 42
2.0
 43
2.0
 50
190.273131
  0
MTEXT
  5
334
100
AcDbEntity
  8
寸法
  6
CONTINUOUS
 62
     1
100
AcDbMText
 10
-49.028956
 20
9.799684
 30
0.0
 40
3.0
 41
0.0
 71
     5
 72
     1
  1
\A1;8°
 11
0.987415
 21
-0.158153
 31
0.0
  0
POINT
  5
335
100
AcDbEntity
  8
DEFPOINTS
  6
CONTINUOUS
 62
     0
100
AcDbPoint
 10
-38.847583
 20
6.442934
 30
0.0
  0
POINT
  5
336
100
AcDbEntity
  8
DEFPOINTS
  6
CONTINUOUS
 62
     0
100
AcDbPoint
 10
-41.191061
 20
31.546061
 30
0.0
  0
POINT
  5
337
100
AcDbEntity
  8
DEFPOINTS
  6
CONTINUOUS
 62
     0
100
AcDbPoint
 10
-39.082948
 20
16.546061
 30
0.0
  0
POINT
  5
338
100
AcDbEntity
  8
DEFPOINTS
  6
CONTINUOUS
 62
     0
100
AcDbPoint
 10
-41.191061
 20
31.546061
 30
0.0
  0
POINT
  5
339
100
AcDbEntity
  8
DEFPOINTS
  6
CONTINUOUS
 62
     0
100
AcDbPoint
 10
-41.191061
 20
16.546061
 30
0.0
  0
ENDBLK
  5
25B
100
AcDbEntity
  8
0
100
AcDbBlockEnd
  0
BLOCK
  5
264
100
AcDbEntity
  8
0
100
AcDbBlockBegin
  2
*D12
 70
     1
 10
0.0
 20
0.0
 30
0.0
  3
*D12
  1

  0
LINE
  5
266
100
AcDbEntity
  8
寸法
  6
CONTINUOUS
 62
     1
100
AcDbLine
 10
-68.461754
 20
22.413981
 30
0.0
 11
-57.556927
 21
26.065658
 31
0.0
1001
ACAD
1000
RTLwPs
1070
   158
  0
MTEXT
  5
267
100
AcDbEntity
  8
寸法
  6
CONTINUOUS
 62
     1
100
AcDbMText
 10
-64.751429
 20
26.292897
 30
0.0
 40
3.0
 41
0.0
 71
     5
 72
     1
  1
\A1;%%c30
 11
0.948246
 21
0.317537
 31
0.0
1001
ACAD
1000
MTEXTBEGIN
1070
    73
1070
     1
1070
    44
1040
1.0
1070
    74
1070
     0
1000
MTEXTEND
1000
MTEXTBEGIN
1070
    73
1070
     1
1070
    44
1040
1.0
1070
    74
1070
     0
1000
MTEXTEND
  0
LINE
  5
268
100
AcDbEntity
  8
寸法
  6
CONTINUOUS
 62
     1
100
AcDbLine
 10
-41.191061
 20
31.546061
 30
0.0
 11
-55.660435
 21
26.700732
 31
0.0
1001
ACAD
1000
RTLwPs
1070
   158
  0
INSERT
  5
269
100
AcDbEntity
  8
寸法
  6
CONTINUOUS
 62
     1
100
AcDbBlockReference
  2
_OPEN30
 10
-55.660435
 20
26.700732
 30
0.0
 41
2.0
 42
2.0
 43
2.0
 50
18.514045
1001
ACAD
1000
RTLwPs
1070
   158
  0
POINT
  5
26A
100
AcDbEntity
  8
DEFPOINTS
  6
CONTINUOUS
 62
     0
100
AcDbPoint
 10
-55.660435
 20
26.700732
 30
0.0
  0
POINT
  5
26B
100
AcDbEntity
  8
DEFPOINTS
  6
CONTINUOUS
 62
     0
100
AcDbPoint
 10
-41.191061
 20
31.546061
 30
0.0
  0
ENDBLK
  5
265
100
AcDbEntity
  8
0
100
AcDbBlockEnd
  0
ENDSEC
  0
SECTION
  2
ENTITIES
  0
POINT
  5
24
100
AcDbEntity
  8
0
  6
CONTINUOUS
 62
     7
100
AcDbPoint
 10
-38.391062
 20
16.546061
 30
0.0
  0
POINT
  5
25
100
AcDbEntity
  8
0
  6
CONTINUOUS
 62
     7
100
AcDbPoint
 10
4.012065
 20
16.546061
 30
0.0
  0
POINT
  5
26
100
AcDbEntity
  8
0
  6
CONTINUOUS
 62
     7
100
AcDbPoint
 10
4.012065
 20
-33.199282
 30
0.0
  0
POINT
  5
27
100
AcDbEntity
  8
0
  6
CONTINUOUS
 62
     7
100
AcDbPoint
 10
91.247302
 20
-43.199282
 30
0.0
  0
LINE
  5
28
100
AcDbEntity
  8
0
  6
CONTINUOUS
 62
     7
100
AcDbLine
 10
5.057934
 20
28.500397
 30
0.0
 11
4.012065
 21
16.546061
 31
0.0
  0
LINE
  5
29
100
AcDbEntity
  8
0
  6
CONTINUOUS
 62
     7
100
AcDbLine
 10
4.012065
 20
16.546061
 30
0.0
 11
13.980112
 21
21.194238
 31
0.0
  0
LINE
  5
2A
100
AcDbEntity
  8
0
  6
CONTINUOUS
 62
     7
100
AcDbLine
 10
4.970649
 20
27.502731
 30
0.0
 11
13.980111
 21
21.194237
 31
0.0
  0
LINE
  5
2B
100
AcDbEntity
  8
0
  6
CONTINUOUS
 62
     7
100
AcDbLine
 10
5.061929
 20
28.546061
 30
0.0
 11
42.012065
 21
28.546061
 31
0.0
  0
LINE
  5
2C
100
AcDbEntity
  8
0
  6
CONTINUOUS
 62
     7
100
AcDbLine
 10
42.012065
 20
28.546061
 30
0.0
 11
42.012065
 21
18.330061
 31
0.0
  0
LINE
  5
2D
100
AcDbEntity
  8
0
  6
CONTINUOUS
 62
     7
100
AcDbLine
 10
17.012065
 20
18.546061
 30
0.0
 11
17.012065
 21
18.24597
 31
0.0
  0
LINE
  5
2E
100
AcDbEntity
  8
0
  6
CONTINUOUS
 62
     7
100
AcDbLine
 10
6.156572
 20
17.546061
 30
0.0
 11
9.012065
 21
17.546061
 31
0.0
  0
LINE
  5
2F
100
AcDbEntity
  8
0
  6
CONTINUOUS
 62
     7
100
AcDbLine
 10
9.012065
 20
17.546061
 30
0.0
 11
17.012065
 21
18.24597
 31
0.0
  0
LINE
  5
30
100
AcDbEntity
  8
0
  6
CONTINUOUS
 62
     7
100
AcDbLine
 10
15.42931
 20
27.546061
 30
0.0
 11
42.012065
 21
27.546061
 31
0.0
  0
LINE
  5
31
100
AcDbEntity
  8
0
  6
CONTINUOUS
 62
     7
100
AcDbLine
 10
50.012065
 20
25.546061
 30
0.0
 11
50.012065
 21
21.546061
 31
0.0
  0
LINE
  5
32
100
AcDbEntity
  8
0
  6
CENTER
 62
     1
 48
0.5
100
AcDbLine
 10
40.180324
 20
23.546061
 30
0.0
 11
51.942741
 21
23.546061
 31
0.0
  0
LINE
  5
33
100
AcDbEntity
  8
0
  6
CONTINUOUS
 62
     7
100
AcDbLine
 10
45.012065
 20
27.546061
 30
0.0
 11
45.012065
 21
19.546061
 31
0.0
  0
LINE
  5
34
100
AcDbEntity
  8
0
  6
CONTINUOUS
 62
     7
100
AcDbLine
 10
42.012065
 20
21.046061
 30
0.0
 11
45.012065
 21
21.046061
 31
0.0
  0
LINE
  5
35
100
AcDbEntity
  8
0
  6
CONTINUOUS
 62
     7
100
AcDbLine
 10
42.012065
 20
26.046061
 30
0.0
 11
45.012065
 21
26.046061
 31
0.0
  0
LINE
  5
36
100
AcDbEntity
  8
0
  6
CONTINUOUS
 62
     7
100
AcDbLine
 10
47.512065
 20
28.046062
 30
0.0
 11
50.012065
 21
25.546062
 31
0.0
  0
LINE
  5
37
100
AcDbEntity
  8
0
  6
CONTINUOUS
 62
     7
100
AcDbLine
 10
47.512065
 20
19.04606
 30
0.0
 11
50.012065
 21
21.54606
 31
0.0
  0
LINE
  5
38
100
AcDbEntity
  8
0
  6
CONTINUOUS
 62
     7
100
AcDbLine
 10
45.512065
 20
19.046061
 30
0.0
 11
47.512065
 21
19.046061
 31
0.0
  0
LINE
  5
39
100
AcDbEntity
  8
0
  6
CONTINUOUS
 62
     7
100
AcDbLine
 10
45.512065
 20
28.046061
 30
0.0
 11
47.512065
 21
28.046061
 31
0.0
  0
LINE
  5
3A
100
AcDbEntity
  8
0
  6
CONTINUOUS
 62
     7
100
AcDbLine
 10
45.512061
 20
28.046058
 30
0.0
 11
45.012065
 21
27.54606
 31
0.0
  0
LINE
  5
3B
100
AcDbEntity
  8
0
  6
CONTINUOUS
 62
     7
100
AcDbLine
 10
45.012069
 20
19.546063
 30
0.0
 11
45.512069
 21
19.046063
 31
0.0
  0
LINE
  5
3C
100
AcDbEntity
  8
0
  6
CONTINUOUS
 62
     7
100
AcDbLine
 10
45.512065
 20
28.046061
 30
0.0
 11
45.512065
 21
19.04606
 31
0.0
  0
LINE
  5
3D
100
AcDbEntity
  8
0
  6
CONTINUOUS
 62
     7
100
AcDbLine
 10
47.512065
 20
28.046061
 30
0.0
 11
47.512065
 21
19.046061
 31
0.0
  0
LINE
  5
3E
100
AcDbEntity
  8
0
  6
CONTINUOUS
 62
     7
100
AcDbLine
 10
42.012065
 20
21.546061
 30
0.0
 11
45.012065
 21
21.546061
 31
0.0
  0
LINE
  5
3F
100
AcDbEntity
  8
0
  6
CONTINUOUS
 62
     7
100
AcDbLine
 10
42.012065
 20
25.546061
 30
0.0
 11
45.012065
 21
25.546061
 31
0.0
  0
LINE
  5
40
100
AcDbEntity
  8
0
  6
CONTINUOUS
 62
     7
100
AcDbLine
 10
-48.39106
 20
27.546061
 30
0.0
 11
-48.39106
 21
19.365912
 31
0.0
  0
LINE
  5
41
100
AcDbEntity
  8
0
  6
CONTINUOUS
 62
     7
100
AcDbLine
 10
-36.89106
 20
27.546061
 30
0.0
 11
-36.89106
 21
18.546061
 31
0.0
  0
LINE
  5
42
100
AcDbEntity
  8
0
  6
CONTINUOUS
 62
     7
100
AcDbLine
 10
-47.39106
 20
28.546061
 30
0.0
 11
-37.89106
 21
28.546061
 31
0.0
  0
LINE
  5
43
100
AcDbEntity
  8
0
  6
CONTINUOUS
 62
     7
100
AcDbLine
 10
-41.191061
 20
16.546061
 30
0.0
 11
-38.391062
 21
16.546061
 31
0.0
  0
LINE
  5
44
100
AcDbEntity
  8
0
  6
CONTINUOUS
 62
     7
100
AcDbLine
 10
-48.39106
 20
27.546061
 30
0.0
 11
-47.39106
 21
28.546061
 31
0.0
  0
LINE
  5
45
100
AcDbEntity
  8
0
  6
CONTINUOUS
 62
     7
100
AcDbLine
 10
-36.891062
 20
27.546061
 30
0.0
 11
-37.89106
 21
28.546061
 31
0.0
  0
LINE
  5
46
100
AcDbEntity
  8
0
  6
CONTINUOUS
 62
     7
100
AcDbLine
 10
42.012065
 20
-31.699282
 30
0.0
 11
42.012065
 21
-43.199282
 31
0.0
  0
LINE
  5
47
100
AcDbEntity
  8
0
  6
CONTINUOUS
 62
     7
100
AcDbLine
 10
15.42931
 20
-31.699282
 30
0.0
 11
42.012065
 21
-31.699282
 31
0.0
  0
LINE
  5
48
100
AcDbEntity
  8
0
  6
CONTINUOUS
 62
     7
100
AcDbLine
 10
5.063107
 20
-43.199282
 30
0.0
 11
42.012065
 21
-43.199282
 31
0.0
  0
LINE
  5
49
100
AcDbEntity
  8
0
  6
CONTINUOUS
 62
     7
100
AcDbLine
 10
4.012065
 20
-33.199282
 30
0.0
 11
6.187759
 21
-32.97061
 31
0.0
  0
LINE
  5
4A
100
AcDbEntity
  8
0
  6
CONTINUOUS
 62
     7
100
AcDbLine
 10
5.063107
 20
-43.199282
 30
0.0
 11
4.012065
 21
-33.199282
 31
0.0
  0
LINE
  5
4B
100
AcDbEntity
  8
0
  6
CONTINUOUS
 62
     7
100
AcDbLine
 10
4.537586
 20
-38.199282
 30
0.0
 11
9.012065
 21
-38.199282
 31
0.0
  0
LINE
  5
4C
100
AcDbEntity
  8
0
  6
CONTINUOUS
 62
     7
100
AcDbLine
 10
4.304745
 20
-35.983943
 30
0.0
 11
6.480438
 21
-35.755271
 31
0.0
  0
LINE
  5
4D
100
AcDbEntity
  8
0
  6
CENTER
 62
     1
 48
0.5
100
AcDbLine
 10
31.012065
 20
-30.052561
 30
0.0
 11
31.012065
 21
-44.169188
 31
0.0
  0
LINE
  5
4E
100
AcDbEntity
  8
0
  6
CENTER
 62
     1
 48
0.5
100
AcDbLine
 10
32.262065
 20
-30.052561
 30
0.0
 11
32.262065
 21
-44.169188
 31
0.0
  0
LINE
  5
4F
100
AcDbEntity
  8
0
  6
CENTER
 62
     1
 48
0.5
100
AcDbLine
 10
29.762065
 20
-30.052561
 30
0.0
 11
29.762065
 21
-44.169188
 31
0.0
  0
LINE
  5
50
100
AcDbEntity
  8
0
  6
CONTINUOUS
 62
     7
100
AcDbLine
 10
50.012065
 20
-35.699282
 30
0.0
 11
50.012065
 21
-39.699282
 31
0.0
  0
LINE
  5
51
100
AcDbEntity
  8
0
  6
CENTER
 62
     1
 48
0.5
100
AcDbLine
 10
40.180324
 20
-37.699282
 30
0.0
 11
51.942741
 21
-37.699282
 31
0.0
  0
LINE
  5
52
100
AcDbEntity
  8
0
  6
CONTINUOUS
 62
     7
100
AcDbLine
 10
45.012065
 20
-33.699282
 30
0.0
 11
45.012065
 21
-41.699282
 31
0.0
  0
LINE
  5
53
100
AcDbEntity
  8
0
  6
CONTINUOUS
 62
     7
100
AcDbLine
 10
42.012065
 20
-40.199282
 30
0.0
 11
45.012065
 21
-40.199282
 31
0.0
  0
LINE
  5
54
100
AcDbEntity
  8
0
  6
CONTINUOUS
 62
     7
100
AcDbLine
 10
42.012065
 20
-35.199282
 30
0.0
 11
45.012065
 21
-35.199282
 31
0.0
  0
LINE
  5
55
100
AcDbEntity
  8
0
  6
CONTINUOUS
 62
     7
100
AcDbLine
 10
47.512065
 20
-33.199282
 30
0.0
 11
50.012065
 21
-35.699282
 31
0.0
  0
LINE
  5
56
100
AcDbEntity
  8
0
  6
CONTINUOUS
 62
     7
100
AcDbLine
 10
47.512061
 20
-42.199282
 30
0.0
 11
50.012065
 21
-39.699282
 31
0.0
  0
LINE
  5
57
100
AcDbEntity
  8
0
  6
CONTINUOUS
 62
     7
100
AcDbLine
 10
45.512065
 20
-42.199282
 30
0.0
 11
47.512065
 21
-42.199282
 31
0.0
  0
LINE
  5
58
100
AcDbEntity
  8
0
  6
CONTINUOUS
 62
     7
100
AcDbLine
 10
45.512065
 20
-33.199282
 30
0.0
 11
47.512065
 21
-33.199282
 31
0.0
  0
LINE
  5
59
100
AcDbEntity
  8
0
  6
CONTINUOUS
 62
     7
100
AcDbLine
 10
45.512061
 20
-33.199286
 30
0.0
 11
45.012065
 21
-33.699282
 31
0.0
  0
LINE
  5
5A
100
AcDbEntity
  8
0
  6
CONTINUOUS
 62
     7
100
AcDbLine
 10
45.012069
 20
-41.699282
 30
0.0
 11
45.512065
 21
-42.199278
 31
0.0
  0
LINE
  5
5B
100
AcDbEntity
  8
0
  6
CONTINUOUS
 62
     7
100
AcDbLine
 10
45.512065
 20
-33.199282
 30
0.0
 11
45.512065
 21
-42.199282
 31
0.0
  0
LINE
  5
5C
100
AcDbEntity
  8
0
  6
CONTINUOUS
 62
     7
100
AcDbLine
 10
47.512065
 20
-33.199282
 30
0.0
 11
47.512065
 21
-42.199282
 31
0.0
  0
LINE
  5
5D
100
AcDbEntity
  8
0
  6
CONTINUOUS
 62
     7
100
AcDbLine
 10
42.012065
 20
-39.699282
 30
0.0
 11
45.012065
 21
-39.699282
 31
0.0
  0
LINE
  5
5E
100
AcDbEntity
  8
0
  6
CONTINUOUS
 62
     7
100
AcDbLine
 10
42.012065
 20
-35.699282
 30
0.0
 11
45.012065
 21
-35.699282
 31
0.0
  0
LINE
  5
5F
100
AcDbEntity
  8
0
  6
CONTINUOUS
 62
     7
100
AcDbLine
 10
-38.391062
 20
28.546061
 30
0.0
 11
-38.391062
 21
16.546061
 31
0.0
  0
LINE
  5
60
100
AcDbEntity
  8
0
  6
CONTINUOUS
 62
     7
100
AcDbLine
 10
-41.191061
 20
27.502731
 30
0.0
 11
-41.191061
 21
16.546061
 31
0.0
  0
LINE
  5
61
100
AcDbEntity
  8
0
  6
CONTINUOUS
 62
     7
100
AcDbLine
 10
-43.391062
 20
17.546061
 30
0.0
 11
-41.191061
 21
17.546061
 31
0.0
  0
LINE
  5
62
100
AcDbEntity
  8
0
  6
CONTINUOUS
 62
     7
100
AcDbLine
 10
-48.39106
 20
19.365912
 30
0.0
 11
-43.39106
 21
17.546061
 31
0.0
  0
LINE
  5
63
100
AcDbEntity
  8
0
  6
CONTINUOUS
 62
     7
100
AcDbLine
 10
-36.89106
 20
18.546061
 30
0.0
 11
-37.89106
 21
17.546062
 31
0.0
  0
LINE
  5
64
100
AcDbEntity
  8
0
  6
CONTINUOUS
 62
     7
100
AcDbLine
 10
-38.171139
 20
17.546061
 30
0.0
 11
-37.89106
 21
17.546061
 31
0.0
  0
LINE
  5
65
100
AcDbEntity
  8
0
  6
CENTER
 62
     1
 48
0.5
100
AcDbLine
 10
17.512065
 20
-38.199282
 30
0.0
 11
10.512065
 21
-38.199282
 31
0.0
  0
LINE
  5
66
100
AcDbEntity
  8
0
  6
CENTER
 62
     1
 48
0.5
100
AcDbLine
 10
14.012065
 20
-34.699282
 30
0.0
 11
14.012065
 21
-41.699282
 31
0.0
  0
LINE
  5
67
100
AcDbEntity
  8
0
  6
CONTINUOUS
 62
     7
100
AcDbLine
 10
9.012065
 20
-32.373763
 30
0.0
 11
9.012065
 21
-38.199282
 31
0.0
  0
LINE
  5
68
100
AcDbEntity
  8
0
  6
CONTINUOUS
 62
     7
100
AcDbLine
 10
-41.191061
 20
27.502731
 30
0.0
 11
-38.391062
 21
27.502731
 31
0.0
  0
LINE
  5
69
100
AcDbEntity
  8
0
  6
CONTINUOUS
 62
     7
100
AcDbLine
 10
-38.391062
 20
16.546061
 30
0.0
 11
-37.368822
 21
21.194237
 31
0.0
  0
LINE
  5
6A
100
AcDbEntity
  8
0
  6
CONTINUOUS
 62
     7
100
AcDbLine
 10
-37.368822
 20
21.194237
 30
0.0
 11
-38.391062
 21
27.502731
 31
0.0
  0
LINE
  5
6B
100
AcDbEntity
  8
0
  6
CENTER
 62
     1
 48
0.5
100
AcDbLine
 10
7.654275
 20
24.127676
 30
0.0
 11
7.654275
 21
19.367676
 31
0.0
  0
LINE
  5
6C
100
AcDbEntity
  8
0
  6
CENTER
 62
     1
 48
0.5
100
AcDbLine
 10
5.274275
 20
21.747676
 30
0.0
 11
10.034275
 21
21.747676
 31
0.0
  0
LINE
  5
6E
100
AcDbEntity
  8
0
  6
CONTINUOUS
 62
     7
100
AcDbLine
 10
91.427394
 20
-31.699282
 30
0.0
 11
99.427394
 21
-31.699282
 31
0.0
  0
LINE
  5
6F
100
AcDbEntity
  8
0
  6
CONTINUOUS
 62
     7
100
AcDbLine
 10
100.427394
 20
-32.699282
 30
0.0
 11
100.427394
 21
-42.134207
 31
0.0
  0
LINE
  5
70
100
AcDbEntity
  8
0
  6
CONTINUOUS
 62
     7
100
AcDbLine
 10
90.211223
 20
-40.352706
 30
0.0
 11
91.427386
 21
-31.699282
 31
0.0
  0
LINE
  5
71
100
AcDbEntity
  8
0
  6
CONTINUOUS
 62
     7
100
AcDbLine
 10
99.427386
 20
-31.699282
 30
0.0
 11
100.427394
 21
-32.699282
 31
0.0
  0
LINE
  5
72
100
AcDbEntity
  8
0
  6
CONTINUOUS
 62
     7
100
AcDbLine
 10
100.427386
 20
-42.134204
 30
0.0
 11
99.362304
 21
-43.199282
 31
0.0
  0
LINE
  5
73
100
AcDbEntity
  8
0
  6
CONTINUOUS
 62
     7
100
AcDbLine
 10
91.247294
 20
-43.199282
 30
0.0
 11
99.362304
 21
-43.199282
 31
0.0
  0
LINE
  5
75
100
AcDbEntity
  8
0
  6
CONTINUOUS
 62
     7
100
AcDbLine
 10
18.012065
 20
19.546061
 30
0.0
 11
42.012065
 21
19.546061
 31
0.0
  0
LINE
  5
76
100
AcDbEntity
  8
0
  6
CONTINUOUS
 62
     7
100
AcDbLine
 10
91.247294
 20
-43.199278
 30
0.0
 11
90.21123
 21
-40.352706
 31
0.0
  0
LINE
  5
77
100
AcDbEntity
  8
0
  6
CONTINUOUS
 62
     7
100
AcDbLine
 10
17.012065
 20
18.330061
 30
0.0
 11
42.012065
 21
18.330061
 31
0.0
  0
LINE
  5
78
100
AcDbEntity
  8
0
  6
CONTINUOUS
 62
     7
100
AcDbLine
 10
95.148364
 20
-41.149626
 30
0.0
 11
96.345256
 21
-32.633319
 31
0.0
  0
LINE
  5
79
100
AcDbEntity
  8
0
  6
CENTER
 62
     1
 48
0.5
100
AcDbLine
 10
31.012065
 20
30.409069
 30
0.0
 11
31.012065
 21
16.513498
 31
0.0
  0
LINE
  5
7A
100
AcDbEntity
  8
0
  6
CONTINUOUS
 62
     7
100
AcDbLine
 10
17.012065
 20
-31.699282
 30
0.0
 11
17.012065
 21
-40.352706
 31
0.0
  0
LINE
  5
7B
100
AcDbEntity
  8
0
  6
CONTINUOUS
 62
     7
100
AcDbLine
 10
9.012065
 20
-38.199282
 30
0.0
 11
12.206324
 21
-39.059107
 31
0.0
  0
LINE
  5
7C
100
AcDbEntity
  8
0
  6
CONTINUOUS
 62
     7
100
AcDbLine
 10
15.142192
 20
-39.849379
 30
0.0
 11
17.012065
 21
-40.352706
 31
0.0
  0
LINE
  5
7D
100
AcDbEntity
  8
0
  6
CONTINUOUS
 62
     7
100
AcDbLine
 10
4.970821
 20
-32.798514
 30
0.0
 11
5.002008
 21
-33.095236
 31
0.0
  0
LINE
  5
7E
100
AcDbEntity
  8
0
  6
CONTINUOUS
 62
     7
100
AcDbLine
 10
4.970821
 20
-32.798514
 30
0.0
 11
15.42931
 21
-31.699282
 31
0.0
  0
LINE
  5
7F
100
AcDbEntity
  8
0
  6
PHANTOM
 62
     7
100
AcDbLine
 10
4.012065
 20
-32.899283
 30
0.0
 11
4.970821
 21
-32.798514
 31
0.0
  0
LINE
  5
80
100
AcDbEntity
  8
0
  6
CONTINUOUS
 62
     7
100
AcDbLine
 10
15.42931
 20
27.546061
 30
0.0
 11
15.42931
 21
18.107497
 31
0.0
  0
LINE
  5
81
100
AcDbEntity
  8
0
  6
CONTINUOUS
 62
     7
100
AcDbLine
 10
15.42931
 20
27.546061
 30
0.0
 11
9.010195
 21
28.546061
 31
0.0
  0
LINE
  5
82
100
AcDbEntity
  8
0
  6
CONTINUOUS
 62
     7
100
AcDbLine
 10
6.480438
 20
-35.755271
 30
0.0
 11
6.1564
 21
-32.672251
 31
0.0
  0
LINE
  5
83
100
AcDbEntity
  8
0
  6
CENTER
 62
     1
 48
0.5
100
AcDbLine
 10
84.212901
 20
-35.270487
 30
0.0
 11
106.990115
 21
-38.471614
 31
0.0
  0
LINE
  5
84
100
AcDbEntity
  8
0
  6
CONTINUOUS
 62
     7
100
AcDbLine
 10
90.250758
 20
-40.46131
 30
0.0
 11
95.148364
 21
-41.149626
 31
0.0
  0
LINE
  5
85
100
AcDbEntity
  8
0
  6
CONTINUOUS
 62
     7
100
AcDbLine
 10
91.393916
 20
-31.937453
 30
0.0
 11
96.345256
 21
-32.633319
 31
0.0
  0
LINE
  5
86
100
AcDbEntity
  8
0
  6
CONTINUOUS
 62
     7
100
AcDbLine
 10
96.115619
 20
-34.26726
 30
0.0
 11
100.427394
 21
-34.87324
 31
0.0
  0
LINE
  5
87
100
AcDbEntity
  8
0
  6
CONTINUOUS
 62
     7
100
AcDbLine
 10
95.378001
 20
-39.515685
 30
0.0
 11
100.427394
 21
-40.225329
 31
0.0
  0
LINE
  5
88
100
AcDbEntity
  8
0
  6
CONTINUOUS
 62
     7
100
AcDbLine
 10
29.762065
 20
-40.46131
 30
0.0
 11
32.262065
 21
-40.46131
 31
0.0
  0
LINE
  5
89
100
AcDbEntity
  8
0
  6
CONTINUOUS
 62
     7
100
AcDbLine
 10
29.762065
 20
-39.515681
 30
0.0
 11
32.262065
 21
-39.515681
 31
0.0
  0
LINE
  5
8A
100
AcDbEntity
  8
0
  6
CONTINUOUS
 62
     7
100
AcDbLine
 10
29.762065
 20
-34.87324
 30
0.0
 11
32.262065
 21
-34.87324
 31
0.0
  0
LINE
  5
8B
100
AcDbEntity
  8
0
  6
CONTINUOUS
 62
     7
100
AcDbLine
 10
29.762065
 20
-34.26726
 30
0.0
 11
32.262065
 21
-34.26726
 31
0.0
  0
LINE
  5
8C
100
AcDbEntity
  8
0
  6
CONTINUOUS
 62
     7
100
AcDbLine
 10
29.762065
 20
-32.633319
 30
0.0
 11
32.262065
 21
-32.633319
 31
0.0
  0
LINE
  5
8D
100
AcDbEntity
  8
0
  6
CONTINUOUS
 62
     7
100
AcDbLine
 10
29.762065
 20
-31.937453
 30
0.0
 11
32.262065
 21
-31.937453
 31
0.0
  0
LINE
  5
8E
100
AcDbEntity
  8
0
  6
CONTINUOUS
 62
     7
100
AcDbLine
 10
17.012065
 20
-40.352706
 30
0.0
 11
28.796456
 21
-40.352706
 31
0.0
  0
LINE
  5
8F
100
AcDbEntity
  8
0
  6
CONTINUOUS
 62
     7
100
AcDbLine
 10
33.227674
 20
-40.352706
 30
0.0
 11
42.012065
 21
-40.352706
 31
0.0
  0
ARC
  5
90
100
AcDbEntity
  8
0
  6
CONTINUOUS
 62
     7
100
AcDbCircle
 10
12.751384
 20
22.054602
 30
0.0
 40
1.5
100
AcDbArc
 50
325.0
 51
145.0
  0
CIRCLE
  5
91
100
AcDbEntity
  8
0
  6
CONTINUOUS
 62
     7
100
AcDbCircle
 10
14.012065
 20
-38.199282
 30
0.0
 40
2.0
  0
CIRCLE
  5
92
100
AcDbEntity
  8
0
  6
CONTINUOUS
 62
     7
100
AcDbCircle
 10
14.012065
 20
-38.199282
 30
0.0
 40
1.8
  0
CIRCLE
  5
93
100
AcDbEntity
  8
0
  6
CONTINUOUS
 62
     7
100
AcDbCircle
 10
7.654275
 20
21.747676
 30
0.0
 40
1.38
  0
ARC
  5
94
100
AcDbEntity
  8
0
  6
CONTINUOUS
 62
     7
100
AcDbCircle
 10
18.012065
 20
18.546061
 30
0.0
 40
1.0
100
AcDbArc
 50
90.000003
 51
180.00001
  0
LWPOLYLINE
  5
95
100
AcDbEntity
  8
0
  6
CONTINUOUS
 62
     7
100
AcDbPolyline
 90
       17
 70
     0
 43
0.0
 10
29.762065
 20
-31.937453
 42
0.048431
 10
28.927748
 20
-32.018446
 42
0.048575
 10
28.123849
 20
-32.258875
 42
0.048755
 10
27.381532
 20
-32.650156
 42
0.048991
 10
26.729241
 20
-33.178096
 42
0.049259
 10
26.192346
 20
-33.823296
 42
0.04951
 10
25.79231
 20
-34.561427
 42
0.049697
 10
25.545493
 20
-35.363924
 42
0.049799
 10
25.462066
 20
-36.199381
 42
0.049757
 10
25.545355
 20
-37.034154
 42
0.049651
 10
25.791736
 20
-37.835968
 42
0.049484
 10
26.191265
 20
-38.573871
 42
0.049246
 10
26.727704
 20
-39.219151
 42
0.049001
 10
27.379872
 20
-39.747512
 42
0.04878
 10
28.122408
 20
-40.1393
 42
0.048607
 10
28.926759
 20
-40.380123
 42
0.048489
 10
29.762065
 20
-40.46131
  0
LWPOLYLINE
  5
A8
100
AcDbEntity
  8
0
  6
CONTINUOUS
 62
     7
100
AcDbPolyline
 90
       17
 70
     0
 43
0.0
 10
29.762065
 20
-32.633319
 42
0.02067
 10
29.372226
 20
-32.649437
 42
0.020786
 10
28.984518
 20
-32.69784
 42
0.020963
 10
28.602168
 20
-32.778402
 42
0.021222
 10
28.227993
 20
-32.890876
 42
0.021566
 10
27.864802
 20
-33.034907
 42
0.021991
 10
27.5155
 20
-33.209985
 42
0.02249
 10
27.183105
 20
-33.415408
 42
0.023054
 10
26.870741
 20
-33.650226
 42
0.023669
 10
26.581618
 20
-33.913181
 42
0.024318
 10
26.318998
 20
-34.202646
 42
0.024977
 10
26.086127
 20
-34.516566
 42
0.025618
 10
25.88615
 20
-34.852408
 42
0.026209
 10
25.721995
 20
-35.207131
 42
0.026716
 10
25.596245
 20
-35.577189
 42
0.027105
 10
25.51099
 20
-35.958578
 42
0.02735
 10
25.467706
 20
-36.346917
  0
LWPOLYLINE
  5
BB
100
AcDbEntity
  8
0
  6
CONTINUOUS
 62
     7
100
AcDbPolyline
 90
       17
 70
     0
 43
0.0
 10
29.762065
 20
-34.26726
 42
0.048369
 10
29.248099
 20
-34.31709
 42
0.048522
 10
28.752832
 20
-34.465021
 42
0.048718
 10
28.295429
 20
-34.705807
 42
0.048977
 10
27.893404
 20
-35.030766
 42
0.04927
 10
27.562416
 20
-35.428002
 42
0.049546
 10
27.315742
 20
-35.882562
 42
0.049752
 10
27.163521
 20
-36.37685
 42
0.049862
 10
27.112065
 20
-36.891471
 42
0.049751
 10
27.163294
 20
-37.404967
 42
0.049704
 10
27.315106
 20
-37.898866
 42
0.04952
 10
27.561342
 20
-38.353354
 42
0.049258
 10
27.891938
 20
-38.75073
 42
0.048988
 10
28.293796
 20
-39.076058
 42
0.048744
 10
28.751267
 20
-39.317281
 42
0.048553
 10
29.246767
 20
-39.46559
 42
0.048496
 10
29.762065
 20
-39.515681
  0
LWPOLYLINE
  5
CE
100
AcDbEntity
  8
0
  6
CONTINUOUS
 62
     7
100
AcDbPolyline
 90
       17
 70
     0
 43
0.0
 10
29.762065
 20
-34.87324
 42
0.019231
 10
29.529787
 20
-34.882174
 42
0.019313
 10
29.299142
 20
-34.908932
 42
0.019548
 10
29.070934
 20
-34.953573
 42
0.019858
 10
28.846958
 20
-35.016033
 42
0.020275
 10
28.628705
 20
-35.096243
 42
0.020795
 10
28.41775
 20
-35.194088
 42
0.021417
 10
28.215775
 20
-35.309377
 42
0.022135
 10
28.024569
 20
-35.441806
 42
0.022938
 10
27.846039
 20
-35.59092
 42
0.023809
 10
27.682191
 20
-35.756058
 42
0.024721
 10
27.535105
 20
-35.936301
 42
0.02564
 10
27.406885
 20
-36.130419
 42
0.026521
 10
27.299579
 20
-36.336825
 42
0.027311
 10
27.215081
 20
-36.553549
 42
0.027952
 10
27.155015
 20
-36.778243
 42
0.028393
 10
27.120608
 20
-37.008231
  0
LWPOLYLINE
  5
E1
100
AcDbEntity
  8
0
  6
CONTINUOUS
 62
     7
100
AcDbPolyline
 90
       17
 70
     0
 43
0.0
 10
32.262065
 20
-31.937453
 42
-0.048431
 10
33.096382
 20
-32.018446
 42
-0.048575
 10
33.900281
 20
-32.258875
 42
-0.048755
 10
34.642598
 20
-32.650156
 42
-0.048991
 10
35.294889
 20
-33.178096
 42
-0.049259
 10
35.831784
 20
-33.823296
 42
-0.04951
 10
36.23182
 20
-34.561427
 42
-0.049697
 10
36.478637
 20
-35.363924
 42
-0.049799
 10
36.562064
 20
-36.199381
 42
-0.049757
 10
36.478775
 20
-37.034154
 42
-0.049651
 10
36.232394
 20
-37.835968
 42
-0.049484
 10
35.832865
 20
-38.573871
 42
-0.049246
 10
35.296426
 20
-39.219151
 42
-0.049001
 10
34.644258
 20
-39.747512
 42
-0.04878
 10
33.901722
 20
-40.1393
 42
-0.048607
 10
33.097371
 20
-40.380123
 42
-0.048489
 10
32.262065
 20
-40.46131
  0
LWPOLYLINE
  5
F4
100
AcDbEntity
  8
0
  6
CONTINUOUS
 62
     7
100
AcDbPolyline
 90
       17
 70
     0
 43
0.0
 10
32.262065
 20
-32.633319
 42
-0.02067
 10
32.651904
 20
-32.649437
 42
-0.020786
 10
33.039612
 20
-32.69784
 42
-0.020963
 10
33.421962
 20
-32.778402
 42
-0.021222
 10
33.796137
 20
-32.890876
 42
-0.021566
 10
34.159328
 20
-33.034907
 42
-0.021991
 10
34.50863
 20
-33.209985
 42
-0.02249
 10
34.841025
 20
-33.415408
 42
-0.023054
 10
35.153389
 20
-33.650226
 42
-0.023669
 10
35.442512
 20
-33.913181
 42
-0.024318
 10
35.705132
 20
-34.202646
 42
-0.024977
 10
35.938003
 20
-34.516566
 42
-0.025618
 10
36.13798
 20
-34.852408
 42
-0.026209
 10
36.302135
 20
-35.207131
 42
-0.026716
 10
36.427885
 20
-35.577189
 42
-0.027105
 10
36.51314
 20
-35.958578
 42
-0.02735
 10
36.556424
 20
-36.346917
  0
LWPOLYLINE
  5
107
100
AcDbEntity
  8
0
  6
CONTINUOUS
 62
     7
100
AcDbPolyline
 90
       17
 70
     0
 43
0.0
 10
32.262065
 20
-34.26726
 42
-0.048369
 10
32.776031
 20
-34.31709
 42
-0.048522
 10
33.271298
 20
-34.465021
 42
-0.048718
 10
33.728701
 20
-34.705807
 42
-0.048977
 10
34.130726
 20
-35.030766
 42
-0.04927
 10
34.461714
 20
-35.428002
 42
-0.049546
 10
34.708388
 20
-35.882562
 42
-0.049752
 10
34.860609
 20
-36.37685
 42
-0.049862
 10
34.912065
 20
-36.891471
 42
-0.049751
 10
34.860836
 20
-37.404967
 42
-0.049704
 10
34.709024
 20
-37.898866
 42
-0.04952
 10
34.462788
 20
-38.353354
 42
-0.049258
 10
34.132192
 20
-38.75073
 42
-0.048988
 10
33.730334
 20
-39.076058
 42
-0.048744
 10
33.272863
 20
-39.317281
 42
-0.048553
 10
32.777363
 20
-39.46559
 42
-0.048496
 10
32.262065
 20
-39.515681
  0
LWPOLYLINE
  5
11A
100
AcDbEntity
  8
0
  6
CONTINUOUS
 62
     7
100
AcDbPolyline
 90
       17
 70
     0
 43
0.0
 10
32.262065
 20
-34.87324
 42
-0.019231
 10
32.494343
 20
-34.882174
 42
-0.019313
 10
32.724988
 20
-34.908932
 42
-0.019548
 10
32.953196
 20
-34.953573
 42
-0.019858
 10
33.177172
 20
-35.016033
 42
-0.020275
 10
33.395425
 20
-35.096243
 42
-0.020795
 10
33.60638
 20
-35.194088
 42
-0.021417
 10
33.808355
 20
-35.309377
 42
-0.022135
 10
33.999561
 20
-35.441806
 42
-0.022938
 10
34.178091
 20
-35.59092
 42
-0.023809
 10
34.341939
 20
-35.756058
 42
-0.024721
 10
34.489025
 20
-35.936301
 42
-0.02564
 10
34.617245
 20
-36.130419
 42
-0.026521
 10
34.724551
 20
-36.336825
 42
-0.027311
 10
34.809049
 20
-36.553549
 42
-0.027952
 10
34.869115
 20
-36.778243
 42
-0.028393
 10
34.903522
 20
-37.008231
  0
LWPOLYLINE
  5
12D
100
AcDbEntity
  8
0
  6
CONTINUOUS
 62
     7
100
AcDbPolyline
 90
       16
 70
     1
 43
0.0
 10
36.562064
 20
18.941002
 42
0.123935
 10
35.238644
 20
19.311448
 42
0.014474
 10
33.833528
 20
19.433209
 42
0.008336
 10
32.424093
 20
19.493771
 42
0.006742
 10
31.012065
 20
19.51258
 42
0.006735
 10
29.601434
 20
19.493809
 42
0.008336
 10
28.191551
 20
19.433267
 42
0.014476
 10
26.785745
 20
19.311479
 42
0.124039
 10
25.462066
 20
18.941002
 42
0.123935
 10
26.785486
 20
18.570557
 42
0.014474
 10
28.190602
 20
18.448796
 42
0.008336
 10
29.600037
 20
18.388233
 42
0.006742
 10
31.012065
 20
18.369425
 42
0.006735
 10
32.422696
 20
18.388196
 42
0.008336
 10
33.832579
 20
18.448738
 42
0.014476
 10
35.238385
 20
18.570525
 42
0.124039
  0
LINE
  5
13F
100
AcDbEntity
  8
0
  6
CONTINUOUS
 62
     7
100
AcDbLine
 10
97.415478
 20
-43.199282
 30
0.0
 11
100.394104
 21
-40.22065
 31
0.0
  0
LINE
  5
140
100
AcDbEntity
  8
0
  6
CONTINUOUS
 62
     7
100
AcDbLine
 10
95.170417
 20
-43.199282
 30
0.0
 11
98.425685
 21
-39.944006
 31
0.0
  0
LINE
  5
141
100
AcDbEntity
  8
0
  6
CONTINUOUS
 62
     7
100
AcDbLine
 10
92.925354
 20
-43.199282
 30
0.0
 11
94.996371
 21
-41.128261
 31
0.0
  0
LINE
  5
142
100
AcDbEntity
  8
0
  6
CONTINUOUS
 62
     7
100
AcDbLine
 10
95.176712
 20
-40.94792
 30
0.0
 11
96.457267
 21
-39.667362
 31
0.0
  0
LINE
  5
143
100
AcDbEntity
  8
0
  6
CONTINUOUS
 62
     7
100
AcDbLine
 10
91.095993
 20
-42.783581
 30
0.0
 11
93.027952
 21
-40.851618
 31
0.0
  0
LINE
  5
144
100
AcDbEntity
  8
0
  6
CONTINUOUS
 62
     7
100
AcDbLine
 10
90.496907
 20
-41.137601
 30
0.0
 11
91.059532
 21
-40.574976
 31
0.0
  0
LINE
  5
145
100
AcDbEntity
  8
0
  6
CONTINUOUS
 62
     7
100
AcDbLine
 10
99.181427
 20
-34.698131
 30
0.0
 11
100.427394
 21
-33.452161
 31
0.0
  0
LINE
  5
146
100
AcDbEntity
  8
0
  6
CONTINUOUS
 62
     7
100
AcDbLine
 10
97.213007
 20
-34.421488
 30
0.0
 11
99.681298
 21
-31.953192
 31
0.0
  0
LINE
  5
147
100
AcDbEntity
  8
0
  6
CONTINUOUS
 62
     7
100
AcDbLine
 10
96.278071
 20
-33.11136
 30
0.0
 11
97.690146
 21
-31.699282
 31
0.0
  0
LINE
  5
148
100
AcDbEntity
  8
0
  6
CONTINUOUS
 62
     7
100
AcDbLine
 10
94.737066
 20
-32.407302
 30
0.0
 11
95.445084
 21
-31.699282
 31
0.0
  0
LINE
  5
149
100
AcDbEntity
  8
0
  6
CONTINUOUS
 62
     7
100
AcDbLine
 10
92.768647
 20
-32.130659
 30
0.0
 11
93.200022
 21
-31.699282
 31
0.0
  0
TEXT
  5
14C
100
AcDbEntity
  8
0
  6
CONTINUOUS
100
AcDbText
 10
13.601836
 20
-78.464822
 30
0.0
 40
6.0
  1
BU293R
100
AcDbText
  0
DIMENSION
  5
175
100
AcDbEntity
  8
寸法
  6
CONTINUOUS
100
AcDbDimension
  2
*D1
 10
104.012065
 20
-43.199282
 30
0.0
 11
101.512065
 21
-52.699282
 31
0.0
 70
    32
  3
STANDARD
100
AcDbAlignedDimension
 13
100.427394
 23
-37.549284
 33
0.0
 14
99.362304
 24
-43.199282
 34
0.0
 50
90.0
100
AcDbRotatedDimension
  0
LINE
  5
184
102
{ACAD_REACTORS
330
18E
102
}
100
AcDbEntity
  8
寸法
  6
CONTINUOUS
 62
     1
100
AcDbLine
 10
107.980383
 20
-38.610787
 30
0.0
 11
116.851429
 21
-39.85753
 31
0.0
  0
LINE
  5
185
102
{ACAD_REACTORS
330
18E
102
}
100
AcDbEntity
  8
寸法
  6
CONTINUOUS
 62
     1
100
AcDbLine
 10
100.427394
 20
-37.549284
 30
0.0
 11
117.012837
 21
-37.549284
 31
0.0
  0
ARC
  5
186
102
{ACAD_REACTORS
330
18E
102
}
100
AcDbEntity
  8
寸法
  6
CONTINUOUS
 62
     1
100
AcDbCircle
 10
100.427394
 20
-37.549284
 30
0.0
 40
15.585443
100
AcDbArc
 50
337.254397
 51
352.000004
  0
LINE
  5
187
102
{ACAD_REACTORS
330
18E
102
}
100
AcDbEntity
  8
寸法
  6
CONTINUOUS
 62
     1
100
AcDbLine
 10
114.800767
 20
-43.575243
 30
0.0
 11
111.475662
 21
-51.506426
 31
0.0
  0
ARC
  5
188
102
{ACAD_REACTORS
330
18E
102
}
100
AcDbEntity
  8
寸法
  6
CONTINUOUS
 62
     1
100
AcDbCircle
 10
100.427394
 20
-37.549284
 30
0.0
 40
15.585443
100
AcDbArc
 50
337.284949
 51
344.642476
  0
ARC
  5
189
100
AcDbEntity
  8
寸法
  6
CONTINUOUS
 62
     1
100
AcDbCircle
 10
100.427394
 20
-37.549284
 30
0.0
 40
15.585443
100
AcDbArc
 50
7.357528
 51
14.715055
  0
ARC
  5
18A
102
{ACAD_REACTORS
330
18E
102
}
100
AcDbEntity
  8
寸法
  6
CONTINUOUS
 62
     1
100
AcDbCircle
 10
100.427394
 20
-37.549284
 30
0.0
 40
15.585443
100
AcDbArc
 50
352.000004
 51
0.0
  0
INSERT
  5
18B
102
{ACAD_REACTORS
330
18E
102
}
100
AcDbEntity
  8
寸法
  6
CONTINUOUS
 62
     1
100
AcDbBlockReference
  2
_OPEN30
 10
115.861161
 20
-39.718357
 30
0.0
 41
2.0
 42
2.0
 43
2.0
 50
78.32124
  0
INSERT
  5
18C
102
{ACAD_REACTORS
330
18E
102
}
100
AcDbEntity
  8
寸法
  6
CONTINUOUS
 62
     1
100
AcDbBlockReference
  2
_OPEN30
 10
116.012837
 20
-37.549284
 30
0.0
 41
2.0
 42
2.0
 43
2.0
 50
273.678764
  0
MTEXT
  5
18D
102
{ACAD_REACTORS
330
18E
102
}
100
AcDbEntity
  8
寸法
  6
CONTINUOUS
 62
     1
100
AcDbMText
 10
110.832638
 20
-46.574234
 30
0.0
 40
3.0
 41
0.0
 71
     5
 72
     1
  1
\A1;8°
 11
0.38664
 21
0.922231
 31
0.0
1001
ACAD
1000
MTEXTBEGIN
1070
    73
1070
     1
1070
    44
1040
1.0
1070
    74
1070
     0
1000
MTEXTEND
1000
MTEXTBEGIN
1070
    73
1070
     1
1070
    44
1040
1.0
1070
    74
1070
     0
1000
MTEXTEND
  0
DIMENSION
  5
1A5
100
AcDbEntity
  8
寸法
  6
CONTINUOUS
100
AcDbDimension
  2
*D2
 10
60.0
 20
-43.199282
 30
0.0
 11
57.5
 21
-37.449282
 31
0.0
 70
    32
  3
STANDARD
100
AcDbAlignedDimension
 13
42.012065
 23
-31.699282
 33
0.0
 14
42.012065
 24
-43.199282
 34
0.0
 50
90.0
100
AcDbRotatedDimension
  0
DIMENSION
  5
1B2
100
AcDbEntity
  8
寸法
  6
CONTINUOUS
100
AcDbDimension
  2
*D3
 10
-10.0
 20
-43.199282
 30
0.0
 11
-12.5
 21
-38.199282
 31
0.0
 70
    32
  3
STANDARD
100
AcDbAlignedDimension
 13
4.012065
 23
-33.199282
 33
0.0
 14
5.063107
 24
-43.199282
 34
0.0
 50
90.0
100
AcDbRotatedDimension
  0
DIMENSION
  5
1BF
100
AcDbEntity
  8
寸法
  6
CONTINUOUS
100
AcDbDimension
  2
*D4
 10
29.762065
 20
-50.0
 30
0.0
 11
21.762065
 21
-47.5
 31
0.0
 70
    32
  3
STANDARD
100
AcDbAlignedDimension
 13
32.262065
 23
-44.169188
 33
0.0
 14
29.762065
 24
-44.169188
 34
0.0
100
AcDbRotatedDimension
  0
DIMENSION
  5
1CE
100
AcDbEntity
  8
寸法
  6
CONTINUOUS
100
AcDbDimension
  2
*D5
 10
31.012065
 20
-20.0
 30
0.0
 11
40.512065
 21
-17.5
 31
0.0
 70
    32
  3
STANDARD
100
AcDbAlignedDimension
 13
50.012065
 23
-35.699282
 33
0.0
 14
31.012065
 24
-30.052561
 34
0.0
100
AcDbRotatedDimension
  0
DIMENSION
  5
1DB
100
AcDbEntity
  8
寸法
  6
CONTINUOUS
100
AcDbDimension
  2
*D6
 10
42.012065
 20
-31.699282
 30
0.0
 11
-16.754766
 21
-23.689895
 31
0.0
 70
    34
  3
STANDARD
100
AcDb2LineAngularDimension
 13
4.012065
 23
-33.199282
 33
0.0
 14
6.187759
 24
-32.97061
 34
0.0
 15
15.42931
 25
-31.699282
 35
0.0
 16
-19.807377
 26
-34.362844
 36
0.0
1001
ACAD
1000
DSTYLE
1002
{
1070
   271
1070
     0
1070
   271
1070
     0
1002
}
  0
DIMENSION
  5
1EE
100
AcDbEntity
  8
寸法
  6
CONTINUOUS
100
AcDbDimension
  2
*D7
 10
4.012065
 20
0.0
 30
0.0
 11
27.012065
 21
2.5
 31
0.0
 70
    32
  3
STANDARD
100
AcDbAlignedDimension
 13
50.012065
 23
21.54606
 33
0.0
 14
4.012065
 24
16.546061
 34
0.0
100
AcDbRotatedDimension
  0
DIMENSION
  5
1FB
100
AcDbEntity
  8
寸法
  6
CONTINUOUS
100
AcDbDimension
  2
*D8
 10
42.012065
 20
10.0
 30
0.0
 11
46.012065
 21
12.5
 31
0.0
 70
    32
  3
STANDARD
100
AcDbAlignedDimension
 13
50.012065
 23
21.54606
 33
0.0
 14
42.012065
 24
18.330061
 34
0.0
100
AcDbRotatedDimension
1001
ACAD
1000
DSTYLE
1002
{
1070
   287
1070
     4
1070
   287
1070
     4
1070
   279
1070
     1
1002
}
  0
DIMENSION
  5
211
100
AcDbEntity
  8
寸法
  6
CONTINUOUS
100
AcDbDimension
  2
*D9
 10
-10.0
 20
16.546061
 30
0.0
 11
-12.5
 21
22.546061
 31
0.0
 70
    32
  3
STANDARD
100
AcDbAlignedDimension
 13
5.061929
 23
28.546061
 33
0.0
 14
4.012065
 24
16.546061
 34
0.0
 50
90.0
100
AcDbRotatedDimension
  0
DIMENSION
  5
232
100
AcDbEntity
  8
寸法
  6
CONTINUOUS
100
AcDbDimension
  2
*D10
 10
4.012065
 20
19.464212
 30
0.0
 11
14.58613
 21
37.820624
 31
0.0
 70
    34
  3
STANDARD
100
AcDb2LineAngularDimension
 13
5.057934
 23
28.500397
 33
0.0
 14
4.012065
 24
16.546061
 34
0.0
 15
4.012065
 25
16.546061
 35
0.0
 16
4.61892
 26
37.402334
 36
0.0
1001
ACAD
1000
DSTYLE
1002
{
1070
   271
1070
     0
1070
   271
1070
     0
1002
}
  0
LINE
  5
245
100
AcDbEntity
  8
0
  6
CENTER
 62
     1
 48
0.5
100
AcDbLine
 10
-39.082948
 20
16.546061
 30
0.0
 11
-41.191061
 21
31.546061
 31
0.0
  0
ARC
  5
247
100
AcDbEntity
  8
0
  6
CENTER
 62
     1
 48
0.5
100
AcDbCircle
 10
-41.191061
 20
31.546061
 30
0.0
 40
15.259095
100
AcDbArc
 50
180.0
 51
0.0
  0
LINE
  5
248
100
AcDbEntity
  8
0
  6
CONTINUOUS
100
AcDbLine
 10
-41.191061
 20
31.546061
 30
0.0
 11
-41.191061
 21
16.546061
 31
0.0
  0
DIMENSION
  5
249
100
AcDbEntity
  8
寸法
  6
CONTINUOUS
100
AcDbDimension
  2
*D11
 10
-41.191061
 20
16.546061
 30
0.0
 11
-49.028956
 21
9.799684
 31
0.0
 70
    34
  3
STANDARD
100
AcDb2LineAngularDimension
 13
-39.082948
 23
16.546061
 33
0.0
 14
-41.191061
 24
31.546061
 34
0.0
 15
-41.191061
 25
31.546061
 35
0.0
 16
-38.847583
 26
6.442934
 36
0.0
1001
ACAD
1000
DSTYLE
1002
{
1070
   271
1070
     0
1070
   271
1070
     0
1002
}
  0
DIMENSION
  5
25C
100
AcDbEntity
  8
寸法
  6
CONTINUOUS
100
AcDbDimension
  2
*D12
 10
-41.191061
 20
31.546061
 30
0.0
 11
-64.751429
 21
26.292897
 31
0.0
 70
    36
  1
%%c30
  3
STANDARD
100
AcDbRadialDimension
 15
-55.660435
 25
26.700732
 35
0.0
 40
0.0
1001
ACAD
1000
DSTYLE
1002
{
1070
   288
1070
     1
1002
}
  0
ENDSEC
  0
SECTION
  2
OBJECTS
  0
DICTIONARY
  5
C
100
AcDbDictionary
  3
ACAD_GROUP
350
D
  3
ACAD_LAYOUT
350
151
  3
ACAD_MLINESTYLE
350
1B
  3
ACAD_PLOTSETTINGS
350
152
  3
ACAD_PLOTSTYLENAME
350
14F
  3
ACDBHEADERROUNDTRIPXREC
350
2DD
  0
DICTIONARY
  5
2D9
100
AcDbDictionary
280
     1
  3
ACAD_XREC_ROUNDTRIP
360
2DA
  0
DICTIONARY
  5
300
100
AcDbDictionary
280
     1
  3
ACAD_XREC_ROUNDTRIP
360
301
  0
DICTIONARY
  5
296
100
AcDbDictionary
280
     1
  3
ACAD_LAYOUTSELFREF
360
2FF
  0
DICTIONARY
  5
294
100
AcDbDictionary
280
     1
  3
ACAD_LAYOUTSELFREF
360
2FE
  0
DICTIONARY
  5
2D7
100
AcDbDictionary
280
     1
  3
ACAD_XREC_ROUNDTRIP
360
2D8
  0
DICTIONARY
  5
D
102
{ACAD_REACTORS
330
C
102
}
100
AcDbDictionary
  3
*A1
350
18E
  0
DICTIONARY
  5
151
102
{ACAD_XDICTIONARY
360
302
102
}
102
{ACAD_REACTORS
330
C
102
}
100
AcDbDictionary
  3
MODEL
350
153
  3
ﾚｲｱｳﾄ1
350
154
  0
DICTIONARY
  5
1B
102
{ACAD_REACTORS
330
C
102
}
100
AcDbDictionary
  3
STANDARD
350
1C
  0
DICTIONARY
  5
152
102
{ACAD_REACTORS
330
C
102
}
100
AcDbDictionary
  0
ACAD_PROXY_OBJECT
  5
14F
102
{ACAD_REACTORS
330
C
102
}
100
AcDbProxyObject
 90
      499
 91
      500
 93
       86
310
405010041939BDC9B585B1
350
150
340
150
 94
        0
  0
DICTIONARY
  5
2DD
102
{ACAD_REACTORS
330
C
102
}
100
AcDbDictionary
  3
CEPSNTYPE
350
2E7
  3
DIMSTYLEDATA
350
2EB
  3
FINGERPRINTGUID
350
2E8
  3
HYPERLINKBASE
350
2E0
  3
INSUNITS
350
2E6
  3
LAYOUTDICT
350
2E2
  3
LWETCUNION
350
2E5
  3
PLOTSETDICT
350
2E3
  3
PLOTSTYLNAMDICT
350
2E4
  3
PSVPSCALE
350
2EA
  3
PUCSBASE
350
2EE
  3
PUCSORGBACK
350
2F4
  3
PUCSORGBOTTOM
350
2F0
  3
PUCSORGFRONT
350
2F3
  3
PUCSORGLEFT
350
2F1
  3
PUCSORGRIGHT
350
2F2
  3
PUCSORGTOP
350
2EF
  3
PUCSORTHOREF
350
2EC
  3
PUCSORTHOVIEW
350
2ED
  3
STYLESHEET
350
2E1
  3
TSTACKALIGN
350
2DE
  3
TSTACKSIZE
350
2DF
  3
UCSBASE
350
2F7
  3
UCSORGBACK
350
2FD
  3
UCSORGBOTTOM
350
2F9
  3
UCSORGFRONT
350
2FC
  3
UCSORGLEFT
350
2FA
  3
UCSORGRIGHT
350
2FB
  3
UCSORGTOP
350
2F8
  3
UCSORTHOREF
350
2F5
  3
UCSORTHOVIEW
350
2F6
  3
VERSIONGUID
350
2E9
  0
XRECORD
  5
2DA
102
{ACAD_REACTORS
330
2D9
102
}
100
AcDbXrecord
102
EXTNAMES
  1
DEFPOINTS
  2
Defpoints
102
PLOTBIT
280
     0
  0
XRECORD
  5
301
102
{ACAD_REACTORS
330
300
102
}
100
AcDbXrecord
102
ACADR14ROUNDTRIP
1000
DSTYLE
1002
{
1070
   341
340
159
1070
   342
340
159
1002
}
  0
XRECORD
  5
2FF
102
{ACAD_REACTORS
330
296
102
}
100
AcDbXrecord
340
18
  0
XRECORD
  5
2FE
102
{ACAD_REACTORS
330
294
102
}
100
AcDbXrecord
340
15
  0
XRECORD
  5
2D8
102
{ACAD_REACTORS
330
2D7
102
}
100
AcDbXrecord
102
EXTNAMES
  1
_OPEN30
  2
_Open30
  0
GROUP
  5
18E
102
{ACAD_REACTORS
330
D
102
}
100
AcDbGroup
300

 70
     1
 71
     1
340
185
340
18D
340
187
340
184
340
18B
340
186
340
188
340
18C
340
18A
  0
DICTIONARY
  5
302
100
AcDbDictionary
280
     1
  3
ACAD_XREC_ROUNDTRIP
360
303
  0
ACAD_PROXY_OBJECT
  5
153
102
{ACAD_REACTORS
330
151
102
}
100
AcDbProxyObject
 90
      499
 91
      502
 93
      548
310
90E4550534F4E20504D2D32303030432C01AAAAAAAAA5A69054D6F64656C901A800000000000000000000000000000000000000000000A1000000000000008902A6A6AAAA5
330
18
330
0
340
0
340
0
 94
        0
  0
ACAD_PROXY_OBJECT
  5
154
102
{ACAD_REACTORS
330
151
102
}
100
AcDbProxyObject
 90
      499
 91
      502
 93
      964
310
90E4550534F4E20504D2D32303030432C00AAAAAA416AA59106906DAB2B1B3C43140501A800000000000000000000000000000000000000000000A1000000000000008902A6A6A10232D5E076BC5510408CB5781DAF154410232D5E076BC5510408CB5781DAF15C410232D5E076BC5710408CB5781DAF15C40
330
15
330
0
340
0
340
0
 94
        0
  0
MLINESTYLE
  5
1C
102
{ACAD_REACTORS
330
1B
102
}
100
AcDbMlineStyle
  2
STANDARD
 70
     0
  3

 62
   256
 51
90.0
 52
90.0
 71
     2
 49
0.5
 62
   256
  6
BYLAYER
 49
-0.5
 62
   256
  6
BYLAYER
  0
ACAD_PROXY_OBJECT
  5
150
102
{ACAD_REACTORS
330
14F
102
}
100
AcDbProxyObject
 90
      499
 91
      501
 93
        0
 94
        0
  0
XRECORD
  5
2E7
102
{ACAD_REACTORS
330
2DD
102
}
100
AcDbXrecord
 90
        0
  0
XRECORD
  5
2EB
102
{ACAD_REACTORS
330
2DD
102
}
100
AcDbXrecord
1000
DSTYLE
1002
{
1070
   341
340
159
1070
   342
340
159
1002
}
  0
XRECORD
  5
2E8
102
{ACAD_REACTORS
330
2DD
102
}
100
AcDbXrecord
  1
{50F1D3F6-D0AF-49A1-B23F-B6F0AC030928}
  0
XRECORD
  5
2E0
102
{ACAD_REACTORS
330
2DD
102
}
100
AcDbXrecord
  1

  0
XRECORD
  5
2E6
102
{ACAD_REACTORS
330
2DD
102
}
100
AcDbXrecord
 90
        0
  0
XRECORD
  5
2E2
102
{ACAD_REACTORS
330
2DD
102
}
100
AcDbXrecord
340
151
  0
XRECORD
  5
2E5
102
{ACAD_REACTORS
330
2DD
102
}
100
AcDbXrecord
 90
    14877
  0
XRECORD
  5
2E3
102
{ACAD_REACTORS
330
2DD
102
}
100
AcDbXrecord
340
152
  0
XRECORD
  5
2E4
102
{ACAD_REACTORS
330
2DD
102
}
100
AcDbXrecord
340
14F
  0
XRECORD
  5
2EA
102
{ACAD_REACTORS
330
2DD
102
}
100
AcDbXrecord
 40
0.0
  0
XRECORD
  5
2EE
102
{ACAD_REACTORS
330
2DD
102
}
100
AcDbXrecord
340
0
  0
XRECORD
  5
2F4
102
{ACAD_REACTORS
330
2DD
102
}
100
AcDbXrecord
 10
0.0
 20
0.0
 30
0.0
  0
XRECORD
  5
2F0
102
{ACAD_REACTORS
330
2DD
102
}
100
AcDbXrecord
 10
0.0
 20
0.0
 30
0.0
  0
XRECORD
  5
2F3
102
{ACAD_REACTORS
330
2DD
102
}
100
AcDbXrecord
 10
0.0
 20
0.0
 30
0.0
  0
XRECORD
  5
2F1
102
{ACAD_REACTORS
330
2DD
102
}
100
AcDbXrecord
 10
0.0
 20
0.0
 30
0.0
  0
XRECORD
  5
2F2
102
{ACAD_REACTORS
330
2DD
102
}
100
AcDbXrecord
 10
0.0
 20
0.0
 30
0.0
  0
XRECORD
  5
2EF
102
{ACAD_REACTORS
330
2DD
102
}
100
AcDbXrecord
 10
0.0
 20
0.0
 30
0.0
  0
XRECORD
  5
2EC
102
{ACAD_REACTORS
330
2DD
102
}
100
AcDbXrecord
340
0
  0
XRECORD
  5
2ED
102
{ACAD_REACTORS
330
2DD
102
}
100
AcDbXrecord
 70
     0
  0
XRECORD
  5
2E1
102
{ACAD_REACTORS
330
2DD
102
}
100
AcDbXrecord
  1

  0
XRECORD
  5
2DE
102
{ACAD_REACTORS
330
2DD
102
}
100
AcDbXrecord
 90
        1
  0
XRECORD
  5
2DF
102
{ACAD_REACTORS
330
2DD
102
}
100
AcDbXrecord
 90
       70
  0
XRECORD
  5
2F7
102
{ACAD_REACTORS
330
2DD
102
}
100
AcDbXrecord
340
0
  0
XRECORD
  5
2FD
102
{ACAD_REACTORS
330
2DD
102
}
100
AcDbXrecord
 10
0.0
 20
0.0
 30
0.0
  0
XRECORD
  5
2F9
102
{ACAD_REACTORS
330
2DD
102
}
100
AcDbXrecord
 10
0.0
 20
0.0
 30
0.0
  0
XRECORD
  5
2FC
102
{ACAD_REACTORS
330
2DD
102
}
100
AcDbXrecord
 10
0.0
 20
0.0
 30
0.0
  0
XRECORD
  5
2FA
102
{ACAD_REACTORS
330
2DD
102
}
100
AcDbXrecord
 10
0.0
 20
0.0
 30
0.0
  0
XRECORD
  5
2FB
102
{ACAD_REACTORS
330
2DD
102
}
100
AcDbXrecord
 10
0.0
 20
0.0
 30
0.0
  0
XRECORD
  5
2F8
102
{ACAD_REACTORS
330
2DD
102
}
100
AcDbXrecord
 10
0.0
 20
0.0
 30
0.0
  0
XRECORD
  5
2F5
102
{ACAD_REACTORS
330
2DD
102
}
100
AcDbXrecord
340
0
  0
XRECORD
  5
2F6
102
{ACAD_REACTORS
330
2DD
102
}
100
AcDbXrecord
 70
     0
  0
XRECORD
  5
2E9
102
{ACAD_REACTORS
330
2DD
102
}
100
AcDbXrecord
  1
{4F96198B-97EE-4E1B-A5FF-98A53CEA6F00}
  0
XRECORD
  5
303
102
{ACAD_REACTORS
330
302
102
}
100
AcDbXrecord
102
EXTNAMES
  1
MODEL
  2
Model
  0
ENDSEC
  0
EOF
