  0
SECTION
  2
HEADER
  9
$ACADVER
  1
AC1014
  9
$ACADMAINTVER
 70
     0
  9
$DWGCODEPAGE
  3
ANSI_932
  9
$INSBASE
 10
0.0
 20
0.0
 30
0.0
  9
$EXTMIN
 10
-60.406573
 20
-76.777792
 30
0.0
  9
$EXTMAX
 10
110.49137
 20
19.0
 30
30.0
  9
$LIMMIN
 10
-150.0
 20
-150.0
  9
$LIMMAX
 10
240.0
 20
80.0
  9
$ORTHOMODE
 70
     1
  9
$REGENMODE
 70
     1
  9
$FILLMODE
 70
     1
  9
$QTEXTMODE
 70
     0
  9
$MIRRTEXT
 70
     1
  9
$DRAGMODE
 70
     2
  9
$LTSCALE
 40
1.0
  9
$OSMODE
 70
    33
  9
$ATTMODE
 70
     1
  9
$TEXTSIZE
 40
0.2
  9
$TRACEWID
 40
0.05
  9
$TEXTSTYLE
  7
STANDARD
  9
$CLAYER
  8
0
  9
$CELTYPE
  6
CONTINUOUS
  9
$CECOLOR
 62
   256
  9
$CELTSCALE
 40
1.0
  9
$DELOBJ
 70
     1
  9
$DISPSILH
 70
     0
  9
$DIMSCALE
 40
1.0
  9
$DIMASZ
 40
2.0
  9
$DIMEXO
 40
1.0
  9
$DIMDLI
 40
10.0
  9
$DIMRND
 40
0.0
  9
$DIMDLE
 40
0.0
  9
$DIMEXE
 40
1.0
  9
$DIMTP
 40
0.0
  9
$DIMTM
 40
0.0
  9
$DIMTXT
 40
3.0
  9
$DIMCEN
 40
2.0
  9
$DIMTSZ
 40
0.0
  9
$DIMTOL
 70
     0
  9
$DIMLIM
 70
     0
  9
$DIMTIH
 70
     0
  9
$DIMTOH
 70
     0
  9
$DIMSE1
 70
     0
  9
$DIMSE2
 70
     0
  9
$DIMTAD
 70
     1
  9
$DIMZIN
 70
     8
  9
$DIMBLK
  1
OPEN30
  9
$DIMASO
 70
     1
  9
$DIMSHO
 70
     1
  9
$DIMPOST
  1

  9
$DIMAPOST
  1

  9
$DIMALT
 70
     0
  9
$DIMALTD
 70
     2
  9
$DIMALTF
 40
25.4
  9
$DIMLFAC
 40
1.0
  9
$DIMTOFL
 70
     1
  9
$DIMTVP
 40
0.0
  9
$DIMTIX
 70
     0
  9
$DIMSOXD
 70
     0
  9
$DIMSAH
 70
     0
  9
$DIMBLK1
  1

  9
$DIMBLK2
  1

  9
$DIMSTYLE
  2
STANDARD
  9
$DIMCLRD
 70
     1
  9
$DIMCLRE
 70
     1
  9
$DIMCLRT
 70
     1
  9
$DIMTFAC
 40
1.0
  9
$DIMGAP
 40
1.0
  9
$DIMJUST
 70
     0
  9
$DIMSD1
 70
     0
  9
$DIMSD2
 70
     0
  9
$DIMTOLJ
 70
     1
  9
$DIMTZIN
 70
     0
  9
$DIMALTZ
 70
     0
  9
$DIMALTTZ
 70
     0
  9
$DIMFIT
 70
     3
  9
$DIMUPT
 70
     0
  9
$DIMUNIT
 70
     2
  9
$DIMDEC
 70
     2
  9
$DIMTDEC
 70
     2
  9
$DIMALTU
 70
     2
  9
$DIMALTTD
 70
     2
  9
$DIMTXSTY
  7
STANDARD
  9
$DIMAUNIT
 70
     0
  9
$LUNITS
 70
     2
  9
$LUPREC
 70
     4
  9
$SKETCHINC
 40
0.1
  9
$FILLETRAD
 40
0.0
  9
$AUNITS
 70
     0
  9
$AUPREC
 70
     0
  9
$MENU
  1
acad
  9
$ELEVATION
 40
0.0
  9
$PELEVATION
 40
0.0
  9
$THICKNESS
 40
0.0
  9
$LIMCHECK
 70
     0
  9
$BLIPMODE
 70
     0
  9
$CHAMFERA
 40
0.0
  9
$CHAMFERB
 40
0.0
  9
$CHAMFERC
 40
0.0
  9
$CHAMFERD
 40
0.0
  9
$SKPOLY
 70
     0
  9
$TDCREATE
 40
2444972.375000000
  9
$TDUPDATE
 40
2451977.447083333
  9
$TDINDWG
 40
0.0155614583
  9
$TDUSRTIMER
 40
0.0155614583
  9
$USRTIMER
 70
     1
  9
$ANGBASE
 50
0.0
  9
$ANGDIR
 70
     0
  9
$PDMODE
 70
     0
  9
$PDSIZE
 40
0.0
  9
$PLINEWID
 40
0.0
  9
$COORDS
 70
     1
  9
$SPLFRAME
 70
     0
  9
$SPLINETYPE
 70
     6
  9
$SPLINESEGS
 70
     8
  9
$ATTDIA
 70
     0
  9
$ATTREQ
 70
     1
  9
$HANDLING
 70
     1
  9
$HANDSEED
  5
38D
  9
$SURFTAB1
 70
     6
  9
$SURFTAB2
 70
     6
  9
$SURFTYPE
 70
     6
  9
$SURFU
 70
     6
  9
$SURFV
 70
     6
  9
$UCSNAME
  2

  9
$UCSORG
 10
0.0
 20
0.0
 30
0.0
  9
$UCSXDIR
 10
1.0
 20
0.0
 30
0.0
  9
$UCSYDIR
 10
0.0
 20
1.0
 30
0.0
  9
$PUCSNAME
  2

  9
$PUCSORG
 10
0.0
 20
0.0
 30
0.0
  9
$PUCSXDIR
 10
1.0
 20
0.0
 30
0.0
  9
$PUCSYDIR
 10
0.0
 20
1.0
 30
0.0
  9
$USERI1
 70
     0
  9
$USERI2
 70
     0
  9
$USERI3
 70
     0
  9
$USERI4
 70
     0
  9
$USERI5
 70
     0
  9
$USERR1
 40
0.0
  9
$USERR2
 40
0.0
  9
$USERR3
 40
0.0
  9
$USERR4
 40
0.0
  9
$USERR5
 40
0.0
  9
$WORLDVIEW
 70
     1
  9
$SHADEDGE
 70
     3
  9
$SHADEDIF
 70
    70
  9
$TILEMODE
 70
     1
  9
$MAXACTVP
 70
    48
  9
$PINSBASE
 10
0.0
 20
0.0
 30
0.0
  9
$PLIMCHECK
 70
     0
  9
$PEXTMIN
 10
1.000000E+20
 20
1.000000E+20
 30
1.000000E+20
  9
$PEXTMAX
 10
-1.000000E+20
 20
-1.000000E+20
 30
-1.000000E+20
  9
$PLIMMIN
 10
0.0
 20
0.0
  9
$PLIMMAX
 10
12.0
 20
9.0
  9
$UNITMODE
 70
     0
  9
$VISRETAIN
 70
     1
  9
$PLINEGEN
 70
     0
  9
$PSLTSCALE
 70
     1
  9
$TREEDEPTH
 70
  3020
  9
$PICKSTYLE
 70
     1
  9
$CMLSTYLE
  2
STANDARD
  9
$CMLJUST
 70
     0
  9
$CMLSCALE
 40
1.0
  9
$PROXYGRAPHICS
 70
     1
  9
$MEASUREMENT
 70
     0
  0
ENDSEC
  0
SECTION
  2
CLASSES
  0
CLASS
  1
ACDBDICTIONARYWDFLT
  2
AcDbDictionaryWithDefault
  3
AutoCAD 2000
 90
        0
280
     0
281
     0
  0
CLASS
  1
ACDBPLACEHOLDER
  2
AcDbPlaceHolder
  3
AutoCAD 2000
 90
        0
280
     0
281
     0
  0
CLASS
  1
LAYOUT
  2
AcDbLayout
  3
AutoCAD 2000
 90
        0
280
     0
281
     0
  0
CLASS
  1
LONG_TRANSACTION
  2
AcDbLongTransaction
  3
AutoCAD 2000
 90
        0
280
     0
281
     0
  0
CLASS
  1
LWPOLYLINE
  2
AcDbPolyline
  3
"AutoCAD"
 90
        0
280
     0
281
     1
  0
CLASS
  1
HATCH
  2
AcDbHatch
  3
"ACAD_SEDONA"
 90
        0
280
     0
281
     1
  0
CLASS
  1
XRECORD
  2
AcDbXrecord
  3
"<Built In>"
 90
        0
280
     0
281
     0
  0
CLASS
  1
LONG_TRANSACTION
  2
AcDbLongTransaction
  3
AutoCAD 2000
 90
        0
280
     0
281
     0
  0
CLASS
  1
LWPOLYLINE
  2
AcDbPolyline
  3
"AutoCAD"
 90
        0
280
     0
281
     1
  0
CLASS
  1
HATCH
  2
AcDbHatch
  3
"ACAD_SEDONA"
 90
        0
280
     0
281
     1
  0
CLASS
  1
XRECORD
  2
AcDbXrecord
  3
"<Built In>"
 90
        0
280
     0
281
     0
  0
ENDSEC
  0
SECTION
  2
TABLES
  0
TABLE
  2
VPORT
  5
8
100
AcDbSymbolTable
 70
     2
  0
VPORT
  5
38C
100
AcDbSymbolTableRecord
100
AcDbViewportTableRecord
  2
*ACTIVE
 70
     0
 10
0.0
 20
0.0
 11
1.0
 21
1.0
 12
-0.612047
 22
-42.673605
 13
0.0
 23
0.0
 14
10.0
 24
10.0
 15
10.0
 25
10.0
 16
0.0
 26
0.0
 36
1.0
 17
0.0
 27
0.0
 37
0.0
 40
182.823338
 41
1.710425
 42
50.0
 43
0.0
 44
0.0
 50
0.0
 51
0.0
 71
     0
 72
   100
 73
     1
 74
     1
 75
     0
 76
     0
 77
     0
 78
     0
  0
ENDTAB
  0
TABLE
  2
LTYPE
  5
5
100
AcDbSymbolTable
 70
     5
  0
LTYPE
  5
12
100
AcDbSymbolTableRecord
100
AcDbLinetypeTableRecord
  2
BYBLOCK
 70
     0
  3

 72
    65
 73
     0
 40
0.0
  0
LTYPE
  5
13
100
AcDbSymbolTableRecord
100
AcDbLinetypeTableRecord
  2
BYLAYER
 70
     0
  3

 72
    65
 73
     0
 40
0.0
  0
LTYPE
  5
14
100
AcDbSymbolTableRecord
100
AcDbLinetypeTableRecord
  2
CONTINUOUS
 70
     0
  3
Solid line
 72
    65
 73
     0
 40
0.0
  0
LTYPE
  5
1F
100
AcDbSymbolTableRecord
100
AcDbLinetypeTableRecord
  2
DASHED
 70
     0
  3
__ __ __ __ __ __ __ __ __ __ __ __ __ __ __
 72
    65
 73
     2
 40
3.5
 49
2.0
 74
     0
 49
-1.5
 74
     0
  0
LTYPE
  5
20
100
AcDbSymbolTableRecord
100
AcDbLinetypeTableRecord
  2
CENTER
 70
     0
  3
____ _ ____ _ ____ _ ____ _ ____ _ ____ _ ____
 72
    65
 73
     4
 40
17.5
 49
13.0
 74
     0
 49
-1.5
 74
     0
 49
1.5
 74
     0
 49
-1.5
 74
     0
  0
LTYPE
  5
21
100
AcDbSymbolTableRecord
100
AcDbLinetypeTableRecord
  2
PHANTOM
 70
     0
  3
_____ _ _ _____ _ _ _____ _ _ _____ _ _ ____  
 72
    65
 73
     6
 40
15.5
 49
8.0
 74
     0
 49
-1.5
 74
     0
 49
1.5
 74
     0
 49
-1.5
 74
     0
 49
1.5
 74
     0
 49
-1.5
 74
     0
  0
LTYPE
  5
22
100
AcDbSymbolTableRecord
100
AcDbLinetypeTableRecord
  2
DOT
 70
     0
  3
. . . . . . . . . . . . . . . . . . . . . . . .
 72
    65
 73
     2
 40
0.25
 49
0.0
 74
     0
 49
-0.25
 74
     0
  0
ENDTAB
  0
TABLE
  2
LAYER
  5
2
100
AcDbSymbolTable
 70
     3
  0
LAYER
  5
E
100
AcDbSymbolTableRecord
100
AcDbLayerTableRecord
  2
0
 70
     0
 62
     7
  6
CONTINUOUS
  0
LAYER
  5
1DB
100
AcDbSymbolTableRecord
100
AcDbLayerTableRecord
  2
寸法
 70
     0
 62
     1
  6
CONTINUOUS
  0
LAYER
  5
1E5
102
{ACAD_XDICTIONARY
360
32E
102
}
100
AcDbSymbolTableRecord
100
AcDbLayerTableRecord
  2
DEFPOINTS
 70
     0
 62
     7
  6
CONTINUOUS
  0
ENDTAB
  0
TABLE
  2
STYLE
  5
3
100
AcDbSymbolTable
 70
     1
  0
STYLE
  5
F
100
AcDbSymbolTableRecord
100
AcDbTextStyleTableRecord
  2
STANDARD
 70
     0
 40
0.0
 41
1.0
 50
0.0
 71
     0
 42
0.2
  3
txt
  4
BIGFONT
  0
ENDTAB
  0
TABLE
  2
VIEW
  5
6
100
AcDbSymbolTable
 70
     0
  0
ENDTAB
  0
TABLE
  2
UCS
  5
7
100
AcDbSymbolTable
 70
     0
  0
ENDTAB
  0
TABLE
  2
APPID
  5
9
100
AcDbSymbolTable
 70
     1
  0
APPID
  5
10
100
AcDbSymbolTableRecord
100
AcDbRegAppTableRecord
  2
ACAD
 70
     0
  0
ENDTAB
  0
TABLE
  2
DIMSTYLE
  5
A
100
AcDbSymbolTable
 70
     1
  0
DIMSTYLE
105
1CD
102
{ACAD_XDICTIONARY
360
355
102
}
102
{ACAD_REACTORS
330
203
330
226
330
235
330
242
330
250
330
25D
330
26A
330
280
330
28D
330
29B
330
2B6
102
}
100
AcDbSymbolTableRecord
100
AcDbDimStyleTableRecord
  2
STANDARD
 70
     0
  3

  4

  5
OPEN30
  6

  7

 40
1.0
 41
2.0
 42
1.0
 43
10.0
 44
1.0
 45
0.0
 46
0.0
 47
0.0
 48
0.0
140
3.0
141
2.0
142
0.0
143
25.4
144
1.0
145
0.0
146
1.0
147
1.0
 71
     0
 72
     0
 73
     0
 74
     0
 75
     0
 76
     0
 77
     1
 78
     8
170
     0
171
     2
172
     1
173
     0
174
     0
175
     0
176
     1
177
     1
178
     1
270
     2
271
     2
272
     2
273
     2
274
     2
340
F
275
     0
280
     0
281
     0
282
     0
283
     1
284
     0
285
     0
286
     0
287
     3
288
     0
  0
ENDTAB
  0
TABLE
  2
BLOCK_RECORD
  5
1
100
AcDbSymbolTable
 70
    12
  0
BLOCK_RECORD
  5
18
102
{ACAD_XDICTIONARY
360
30F
102
}
100
AcDbSymbolTableRecord
100
AcDbBlockTableRecord
  2
*MODEL_SPACE
  0
BLOCK_RECORD
  5
15
102
{ACAD_XDICTIONARY
360
30D
102
}
100
AcDbSymbolTableRecord
100
AcDbBlockTableRecord
  2
*PAPER_SPACE
  0
BLOCK_RECORD
  5
1DC
102
{ACAD_XDICTIONARY
360
32C
102
}
100
AcDbSymbolTableRecord
100
AcDbBlockTableRecord
  2
_OPEN30
  0
BLOCK_RECORD
  5
204
100
AcDbSymbolTableRecord
100
AcDbBlockTableRecord
  2
*D1
  0
BLOCK_RECORD
  5
227
100
AcDbSymbolTableRecord
100
AcDbBlockTableRecord
  2
*D2
  0
BLOCK_RECORD
  5
236
100
AcDbSymbolTableRecord
100
AcDbBlockTableRecord
  2
*D3
  0
BLOCK_RECORD
  5
243
100
AcDbSymbolTableRecord
100
AcDbBlockTableRecord
  2
*D4
  0
BLOCK_RECORD
  5
251
100
AcDbSymbolTableRecord
100
AcDbBlockTableRecord
  2
*D5
  0
BLOCK_RECORD
  5
25E
100
AcDbSymbolTableRecord
100
AcDbBlockTableRecord
  2
*D6
  0
BLOCK_RECORD
  5
26B
100
AcDbSymbolTableRecord
100
AcDbBlockTableRecord
  2
*D7
  0
BLOCK_RECORD
  5
281
100
AcDbSymbolTableRecord
100
AcDbBlockTableRecord
  2
*D8
  0
BLOCK_RECORD
  5
28E
100
AcDbSymbolTableRecord
100
AcDbBlockTableRecord
  2
*D9
  0
BLOCK_RECORD
  5
29C
100
AcDbSymbolTableRecord
100
AcDbBlockTableRecord
  2
*D10
  0
BLOCK_RECORD
  5
2B7
100
AcDbSymbolTableRecord
100
AcDbBlockTableRecord
  2
*D11
  0
ENDTAB
  0
ENDSEC
  0
SECTION
  2
BLOCKS
  0
BLOCK
  5
19
100
AcDbEntity
  8
0
100
AcDbBlockBegin
  2
*MODEL_SPACE
 70
     0
 10
0.0
 20
0.0
 30
0.0
  3
*MODEL_SPACE
  1

  0
ENDBLK
  5
1A
100
AcDbEntity
  8
0
100
AcDbBlockEnd
  0
BLOCK
  5
16
100
AcDbEntity
 67
     1
  8
0
100
AcDbBlockBegin
  2
*PAPER_SPACE
 70
     0
 10
0.0
 20
0.0
 30
0.0
  3
*PAPER_SPACE
  1

  0
ENDBLK
  5
17
100
AcDbEntity
 67
     1
  8
0
100
AcDbBlockEnd
  0
BLOCK
  5
1E0
100
AcDbEntity
  8
0
100
AcDbBlockBegin
  2
_OPEN30
 70
     0
 10
0.0
 20
0.0
 30
0.0
  3
_OPEN30
  1

  0
LINE
  5
1DD
100
AcDbEntity
  8
0
  6
BYBLOCK
 62
     0
100
AcDbLine
 10
-1.0
 20
0.267949
 30
0.0
 11
0.0
 21
0.0
 31
0.0
1001
ACAD
1000
RTLwPs
1070
   158
  0
LINE
  5
1DE
100
AcDbEntity
  8
0
  6
BYBLOCK
 62
     0
100
AcDbLine
 10
0.0
 20
0.0
 30
0.0
 11
-1.0
 21
-0.267949
 31
0.0
1001
ACAD
1000
RTLwPs
1070
   158
  0
LINE
  5
1DF
100
AcDbEntity
  8
0
  6
BYBLOCK
 62
     0
100
AcDbLine
 10
0.0
 20
0.0
 30
0.0
 11
-1.0
 21
0.0
 31
0.0
1001
ACAD
1000
RTLwPs
1070
   158
  0
ENDBLK
  5
1E1
100
AcDbEntity
  8
0
100
AcDbBlockEnd
  0
BLOCK
  5
210
100
AcDbEntity
  8
0
100
AcDbBlockBegin
  2
*D1
 70
     1
 10
0.0
 20
0.0
 30
0.0
  3
*D1
  1

  0
LINE
  5
21B
100
AcDbEntity
  8
寸法
  6
CONTINUOUS
 62
     1
100
AcDbLine
 10
94.497292
 20
-45.505307
 30
0.0
 11
101.0
 21
-45.505307
 31
0.0
1001
ACAD
1000
RTLwPs
1070
   158
  0
LINE
  5
21C
100
AcDbEntity
  8
寸法
  6
CONTINUOUS
 62
     1
100
AcDbLine
 10
93.428727
 20
-50.505313
 30
0.0
 11
101.0
 21
-50.505313
 31
0.0
1001
ACAD
1000
RTLwPs
1070
   158
  0
LINE
  5
21D
100
AcDbEntity
  8
寸法
  6
CONTINUOUS
 62
     1
100
AcDbLine
 10
100.0
 20
-43.505307
 30
0.0
 11
100.0
 21
-41.505307
 31
0.0
1001
ACAD
1000
RTLwPs
1070
   158
  0
LINE
  5
21E
100
AcDbEntity
  8
寸法
  6
CONTINUOUS
 62
     1
100
AcDbLine
 10
100.0
 20
-52.505313
 30
0.0
 11
100.0
 21
-54.505313
 31
0.0
1001
ACAD
1000
RTLwPs
1070
   158
  0
LINE
  5
21F
100
AcDbEntity
  8
寸法
  6
CONTINUOUS
 62
     1
100
AcDbLine
 10
100.0
 20
-45.505307
 30
0.0
 11
100.0
 21
-50.505313
 31
0.0
1001
ACAD
1000
RTLwPs
1070
   158
  0
INSERT
  5
220
100
AcDbEntity
  8
寸法
  6
CONTINUOUS
 62
     1
100
AcDbBlockReference
  2
_OPEN30
 10
100.0
 20
-45.505307
 30
0.0
 41
2.0
 42
2.0
 43
2.0
 50
270.0
1001
ACAD
1000
RTLwPs
1070
   158
  0
INSERT
  5
221
100
AcDbEntity
  8
寸法
  6
CONTINUOUS
 62
     1
100
AcDbBlockReference
  2
_OPEN30
 10
100.0
 20
-50.505313
 30
0.0
 41
2.0
 42
2.0
 43
2.0
 50
90.0
1001
ACAD
1000
RTLwPs
1070
   158
  0
MTEXT
  5
222
100
AcDbEntity
  8
寸法
  6
CONTINUOUS
 62
     1
100
AcDbMText
 10
97.5
 20
-48.00531
 30
0.0
 40
3.0
 41
0.0
 71
     5
 72
     1
  1
\A1;5
 11
0.0
 21
1.0
 31
0.0
1001
ACAD
1000
MTEXTBEGIN
1070
    73
1070
     1
1070
    44
1040
1.0
1070
    74
1070
     0
1000
MTEXTEND
1000
MTEXTBEGIN
1070
    73
1070
     1
1070
    44
1040
1.0
1070
    74
1070
     0
1000
MTEXTEND
  0
POINT
  5
223
100
AcDbEntity
  8
DEFPOINTS
  6
CONTINUOUS
 62
     0
100
AcDbPoint
 10
93.497292
 20
-45.505307
 30
0.0
  0
POINT
  5
224
100
AcDbEntity
  8
DEFPOINTS
  6
CONTINUOUS
 62
     0
100
AcDbPoint
 10
92.428727
 20
-50.505313
 30
0.0
  0
POINT
  5
225
100
AcDbEntity
  8
DEFPOINTS
  6
CONTINUOUS
 62
     0
100
AcDbPoint
 10
100.0
 20
-50.505313
 30
0.0
  0
ENDBLK
  5
211
100
AcDbEntity
  8
0
100
AcDbBlockEnd
  0
BLOCK
  5
233
100
AcDbEntity
  8
0
100
AcDbBlockBegin
  2
*D2
 70
     1
 10
0.0
 20
0.0
 30
0.0
  3
*D2
  1

  0
LINE
  5
228
100
AcDbEntity
  8
寸法
  6
CONTINUOUS
 62
     1
100
AcDbLine
 10
31.0
 20
-54.428722
 30
0.0
 11
31.0
 21
-61.0
 31
0.0
1001
ACAD
1000
RTLwPs
1070
   158
  0
LINE
  5
229
100
AcDbEntity
  8
寸法
  6
CONTINUOUS
 62
     1
100
AcDbLine
 10
29.0
 20
-54.428722
 30
0.0
 11
29.0
 21
-61.0
 31
0.0
1001
ACAD
1000
RTLwPs
1070
   158
  0
LINE
  5
22A
100
AcDbEntity
  8
寸法
  6
CONTINUOUS
 62
     1
100
AcDbLine
 10
33.0
 20
-60.0
 30
0.0
 11
35.0
 21
-60.0
 31
0.0
1001
ACAD
1000
RTLwPs
1070
   158
  0
LINE
  5
22B
100
AcDbEntity
  8
寸法
  6
CONTINUOUS
 62
     1
100
AcDbLine
 10
27.0
 20
-60.0
 30
0.0
 11
21.0
 21
-60.0
 31
0.0
1001
ACAD
1000
RTLwPs
1070
   158
  0
LINE
  5
22C
100
AcDbEntity
  8
寸法
  6
CONTINUOUS
 62
     1
100
AcDbLine
 10
31.0
 20
-60.0
 30
0.0
 11
29.0
 21
-60.0
 31
0.0
1001
ACAD
1000
RTLwPs
1070
   158
  0
INSERT
  5
22D
100
AcDbEntity
  8
寸法
  6
CONTINUOUS
 62
     1
100
AcDbBlockReference
  2
_OPEN30
 10
31.0
 20
-60.0
 30
0.0
 41
2.0
 42
2.0
 43
2.0
 50
180.0
1001
ACAD
1000
RTLwPs
1070
   158
  0
INSERT
  5
22E
100
AcDbEntity
  8
寸法
  6
CONTINUOUS
 62
     1
100
AcDbBlockReference
  2
_OPEN30
 10
29.0
 20
-60.0
 30
0.0
 41
2.0
 42
2.0
 43
2.0
1001
ACAD
1000
RTLwPs
1070
   158
  0
MTEXT
  5
22F
100
AcDbEntity
  8
寸法
  6
CONTINUOUS
 62
     1
100
AcDbMText
 10
23.0
 20
-57.5
 30
0.0
 40
3.0
 41
0.0
 71
     5
 72
     1
  1
\A1;2
1001
ACAD
1000
MTEXTBEGIN
1070
    73
1070
     1
1070
    44
1040
1.0
1070
    74
1070
     0
1000
MTEXTEND
1000
MTEXTBEGIN
1070
    73
1070
     1
1070
    44
1040
1.0
1070
    74
1070
     0
1000
MTEXTEND
  0
POINT
  5
230
100
AcDbEntity
  8
DEFPOINTS
  6
CONTINUOUS
 62
     0
100
AcDbPoint
 10
31.0
 20
-53.428722
 30
0.0
  0
POINT
  5
231
100
AcDbEntity
  8
DEFPOINTS
  6
CONTINUOUS
 62
     0
100
AcDbPoint
 10
29.0
 20
-53.428722
 30
0.0
  0
POINT
  5
232
100
AcDbEntity
  8
DEFPOINTS
  6
CONTINUOUS
 62
     0
100
AcDbPoint
 10
29.0
 20
-60.0
 30
0.0
  0
ENDBLK
  5
234
100
AcDbEntity
  8
0
100
AcDbBlockEnd
  0
BLOCK
  5
240
100
AcDbEntity
  8
0
100
AcDbBlockBegin
  2
*D3
 70
     1
 10
0.0
 20
0.0
 30
0.0
  3
*D3
  1

  0
LINE
  5
237
100
AcDbEntity
  8
寸法
  6
CONTINUOUS
 62
     1
100
AcDbLine
 10
43.0
 20
-38.00531
 30
0.0
 11
61.0
 21
-38.00531
 31
0.0
1001
ACAD
1000
RTLwPs
1070
   158
  0
LINE
  5
238
100
AcDbEntity
  8
寸法
  6
CONTINUOUS
 62
     1
100
AcDbLine
 10
43.0
 20
-50.505313
 30
0.0
 11
61.0
 21
-50.505313
 31
0.0
1001
ACAD
1000
RTLwPs
1070
   158
  0
LINE
  5
239
100
AcDbEntity
  8
寸法
  6
CONTINUOUS
 62
     1
100
AcDbLine
 10
60.0
 20
-40.00531
 30
0.0
 11
60.0
 21
-48.505313
 31
0.0
1001
ACAD
1000
RTLwPs
1070
   158
  0
INSERT
  5
23A
100
AcDbEntity
  8
寸法
  6
CONTINUOUS
 62
     1
100
AcDbBlockReference
  2
_OPEN30
 10
60.0
 20
-38.00531
 30
0.0
 41
2.0
 42
2.0
 43
2.0
 50
90.0
1001
ACAD
1000
RTLwPs
1070
   158
  0
INSERT
  5
23B
100
AcDbEntity
  8
寸法
  6
CONTINUOUS
 62
     1
100
AcDbBlockReference
  2
_OPEN30
 10
60.0
 20
-50.505313
 30
0.0
 41
2.0
 42
2.0
 43
2.0
 50
270.0
1001
ACAD
1000
RTLwPs
1070
   158
  0
MTEXT
  5
23C
100
AcDbEntity
  8
寸法
  6
CONTINUOUS
 62
     1
100
AcDbMText
 10
57.5
 20
-44.255311
 30
0.0
 40
3.0
 41
0.0
 71
     5
 72
     1
  1
\A1;12.5
 11
0.0
 21
1.0
 31
0.0
1001
ACAD
1000
MTEXTBEGIN
1070
    73
1070
     1
1070
    44
1040
1.0
1070
    74
1070
     0
1000
MTEXTEND
1000
MTEXTBEGIN
1070
    73
1070
     1
1070
    44
1040
1.0
1070
    74
1070
     0
1000
MTEXTEND
  0
POINT
  5
23D
100
AcDbEntity
  8
DEFPOINTS
  6
CONTINUOUS
 62
     0
100
AcDbPoint
 10
42.0
 20
-38.00531
 30
0.0
  0
POINT
  5
23E
100
AcDbEntity
  8
DEFPOINTS
  6
CONTINUOUS
 62
     0
100
AcDbPoint
 10
42.0
 20
-50.505313
 30
0.0
  0
POINT
  5
23F
100
AcDbEntity
  8
DEFPOINTS
  6
CONTINUOUS
 62
     0
100
AcDbPoint
 10
60.0
 20
-50.505313
 30
0.0
  0
ENDBLK
  5
241
100
AcDbEntity
  8
0
100
AcDbBlockEnd
  0
BLOCK
  5
381
100
AcDbEntity
  8
0
100
AcDbBlockBegin
  2
*D4
 70
     1
 10
0.0
 20
0.0
 30
0.0
  3
*D4
  1

  0
LINE
  5
382
100
AcDbEntity
  8
0
  6
BYBLOCK
 62
     1
100
AcDbLine
 10
-1.0
 20
-40.50531
 30
0.0
 11
-11.0
 21
-40.50531
 31
0.0
  0
LINE
  5
383
100
AcDbEntity
  8
0
  6
BYBLOCK
 62
     1
100
AcDbLine
 10
-3.0
 20
-50.505313
 30
0.0
 11
-11.0
 21
-50.505313
 31
0.0
  0
LINE
  5
384
100
AcDbEntity
  8
0
  6
BYBLOCK
 62
     1
100
AcDbLine
 10
-10.0
 20
-42.50531
 30
0.0
 11
-10.0
 21
-48.505313
 31
0.0
  0
INSERT
  5
385
100
AcDbEntity
  8
0
  6
BYBLOCK
 62
     1
100
AcDbBlockReference
  2
_OPEN30
 10
-10.0
 20
-40.50531
 30
0.0
 41
2.0
 42
2.0
 43
2.0
 50
90.0
  0
INSERT
  5
386
100
AcDbEntity
  8
0
  6
BYBLOCK
 62
     1
100
AcDbBlockReference
  2
_OPEN30
 10
-10.0
 20
-50.505313
 30
0.0
 41
2.0
 42
2.0
 43
2.0
 50
270.0
  0
MTEXT
  5
387
100
AcDbEntity
  8
0
  6
BYBLOCK
 62
     1
100
AcDbMText
 10
-12.5
 20
-45.505311
 30
0.0
 40
3.0
 41
0.0
 71
     5
 72
     1
  1
\A1;10
 11
0.0
 21
1.0
 31
0.0
  0
POINT
  5
388
100
AcDbEntity
  8
DEFPOINTS
  6
BYBLOCK
 62
     0
100
AcDbPoint
 10
0.0
 20
-40.50531
 30
0.0
  0
POINT
  5
389
100
AcDbEntity
  8
DEFPOINTS
  6
BYBLOCK
 62
     0
100
AcDbPoint
 10
-2.0
 20
-50.505313
 30
0.0
  0
POINT
  5
38A
100
AcDbEntity
  8
DEFPOINTS
  6
BYBLOCK
 62
     0
100
AcDbPoint
 10
-10.0
 20
-50.505313
 30
0.0
  0
ENDBLK
  5
38B
100
AcDbEntity
  8
0
100
AcDbBlockEnd
  0
BLOCK
  5
25B
100
AcDbEntity
  8
0
100
AcDbBlockBegin
  2
*D5
 70
     1
 10
0.0
 20
0.0
 30
0.0
  3
*D5
  1

  0
LINE
  5
252
100
AcDbEntity
  8
寸法
  6
CONTINUOUS
 62
     1
100
AcDbLine
 10
50.0
 20
-41.50531
 30
0.0
 11
50.0
 21
-29.0
 31
0.0
1001
ACAD
1000
RTLwPs
1070
   158
  0
LINE
  5
253
100
AcDbEntity
  8
寸法
  6
CONTINUOUS
 62
     1
100
AcDbLine
 10
30.0
 20
-32.30202
 30
0.0
 11
30.0
 21
-29.0
 31
0.0
1001
ACAD
1000
RTLwPs
1070
   158
  0
LINE
  5
254
100
AcDbEntity
  8
寸法
  6
CONTINUOUS
 62
     1
100
AcDbLine
 10
48.0
 20
-30.0
 30
0.0
 11
32.0
 21
-30.0
 31
0.0
1001
ACAD
1000
RTLwPs
1070
   158
  0
INSERT
  5
255
100
AcDbEntity
  8
寸法
  6
CONTINUOUS
 62
     1
100
AcDbBlockReference
  2
_OPEN30
 10
50.0
 20
-30.0
 30
0.0
 41
2.0
 42
2.0
 43
2.0
1001
ACAD
1000
RTLwPs
1070
   158
  0
INSERT
  5
256
100
AcDbEntity
  8
寸法
  6
CONTINUOUS
 62
     1
100
AcDbBlockReference
  2
_OPEN30
 10
30.0
 20
-30.0
 30
0.0
 41
2.0
 42
2.0
 43
2.0
 50
180.0
1001
ACAD
1000
RTLwPs
1070
   158
  0
MTEXT
  5
257
100
AcDbEntity
  8
寸法
  6
CONTINUOUS
 62
     1
100
AcDbMText
 10
40.0
 20
-27.5
 30
0.0
 40
3.0
 41
0.0
 71
     5
 72
     1
  1
\A1;20
1001
ACAD
1000
MTEXTBEGIN
1070
    73
1070
     1
1070
    44
1040
1.0
1070
    74
1070
     0
1000
MTEXTEND
1000
MTEXTBEGIN
1070
    73
1070
     1
1070
    44
1040
1.0
1070
    74
1070
     0
1000
MTEXTEND
  0
POINT
  5
258
100
AcDbEntity
  8
DEFPOINTS
  6
CONTINUOUS
 62
     0
100
AcDbPoint
 10
50.0
 20
-42.50531
 30
0.0
  0
POINT
  5
259
100
AcDbEntity
  8
DEFPOINTS
  6
CONTINUOUS
 62
     0
100
AcDbPoint
 10
30.0
 20
-33.30202
 30
0.0
  0
POINT
  5
25A
100
AcDbEntity
  8
DEFPOINTS
  6
CONTINUOUS
 62
     0
100
AcDbPoint
 10
30.0
 20
-30.0
 30
0.0
  0
ENDBLK
  5
25C
100
AcDbEntity
  8
0
100
AcDbBlockEnd
  0
BLOCK
  5
268
100
AcDbEntity
  8
0
100
AcDbBlockBegin
  2
*D6
 70
     1
 10
0.0
 20
0.0
 30
0.0
  3
*D6
  1

  0
LINE
  5
25F
100
AcDbEntity
  8
寸法
  6
CONTINUOUS
 62
     1
100
AcDbLine
 10
50.0
 20
5.5
 30
0.0
 11
50.0
 21
-21.0
 31
0.0
1001
ACAD
1000
RTLwPs
1070
   158
  0
LINE
  5
260
100
AcDbEntity
  8
寸法
  6
CONTINUOUS
 62
     1
100
AcDbLine
 10
0.0
 20
-1.0
 30
0.0
 11
0.0
 21
-21.0
 31
0.0
1001
ACAD
1000
RTLwPs
1070
   158
  0
LINE
  5
261
100
AcDbEntity
  8
寸法
  6
CONTINUOUS
 62
     1
100
AcDbLine
 10
48.0
 20
-20.0
 30
0.0
 11
2.0
 21
-20.0
 31
0.0
1001
ACAD
1000
RTLwPs
1070
   158
  0
INSERT
  5
262
100
AcDbEntity
  8
寸法
  6
CONTINUOUS
 62
     1
100
AcDbBlockReference
  2
_OPEN30
 10
50.0
 20
-20.0
 30
0.0
 41
2.0
 42
2.0
 43
2.0
1001
ACAD
1000
RTLwPs
1070
   158
  0
INSERT
  5
263
100
AcDbEntity
  8
寸法
  6
CONTINUOUS
 62
     1
100
AcDbBlockReference
  2
_OPEN30
 10
0.0
 20
-20.0
 30
0.0
 41
2.0
 42
2.0
 43
2.0
 50
180.0
1001
ACAD
1000
RTLwPs
1070
   158
  0
MTEXT
  5
264
100
AcDbEntity
  8
寸法
  6
CONTINUOUS
 62
     1
100
AcDbMText
 10
25.0
 20
-17.5
 30
0.0
 40
3.0
 41
0.0
 71
     5
 72
     1
  1
\A1;50
1001
ACAD
1000
MTEXTBEGIN
1070
    73
1070
     1
1070
    44
1040
1.0
1070
    74
1070
     0
1000
MTEXTEND
1000
MTEXTBEGIN
1070
    73
1070
     1
1070
    44
1040
1.0
1070
    74
1070
     0
1000
MTEXTEND
  0
POINT
  5
265
100
AcDbEntity
  8
DEFPOINTS
  6
CONTINUOUS
 62
     0
100
AcDbPoint
 10
50.0
 20
6.5
 30
0.0
  0
POINT
  5
266
100
AcDbEntity
  8
DEFPOINTS
  6
CONTINUOUS
 62
     0
100
AcDbPoint
 10
0.0
 20
0.0
 30
0.0
  0
POINT
  5
267
100
AcDbEntity
  8
DEFPOINTS
  6
CONTINUOUS
 62
     0
100
AcDbPoint
 10
0.0
 20
-20.0
 30
0.0
  0
ENDBLK
  5
269
100
AcDbEntity
  8
0
100
AcDbBlockEnd
  0
BLOCK
  5
275
100
AcDbEntity
  8
0
100
AcDbBlockBegin
  2
*D7
 70
     1
 10
0.0
 20
0.0
 30
0.0
  3
*D7
  1

  0
LINE
  5
359
100
AcDbEntity
  8
寸法
  6
CONTINUOUS
 62
     1
100
AcDbLine
 10
50.0
 20
5.5
 30
0.0
 11
50.0
 21
-11.0
 31
0.0
  0
LINE
  5
35A
100
AcDbEntity
  8
寸法
  6
CONTINUOUS
 62
     1
100
AcDbLine
 10
42.0
 20
2.0
 30
0.0
 11
42.0
 21
-11.0
 31
0.0
  0
LINE
  5
35B
100
AcDbEntity
  8
寸法
  6
CONTINUOUS
 62
     1
100
AcDbLine
 10
48.0
 20
-10.0
 30
0.0
 11
44.0
 21
-10.0
 31
0.0
  0
INSERT
  5
35C
100
AcDbEntity
  8
寸法
  6
CONTINUOUS
 62
     1
100
AcDbBlockReference
  2
_OPEN30
 10
50.0
 20
-10.0
 30
0.0
 41
2.0
 42
2.0
 43
2.0
  0
INSERT
  5
35D
100
AcDbEntity
  8
寸法
  6
CONTINUOUS
 62
     1
100
AcDbBlockReference
  2
_OPEN30
 10
42.0
 20
-10.0
 30
0.0
 41
2.0
 42
2.0
 43
2.0
 50
180.0
  0
MTEXT
  5
35E
100
AcDbEntity
  8
寸法
  6
CONTINUOUS
 62
     1
100
AcDbMText
 10
46.0
 20
-7.5
 30
0.0
 40
3.0
 41
0.0
 71
     5
 72
     1
  1
\A1;8
  0
POINT
  5
35F
100
AcDbEntity
  8
DEFPOINTS
  6
CONTINUOUS
 62
     0
100
AcDbPoint
 10
50.0
 20
6.5
 30
0.0
  0
POINT
  5
360
100
AcDbEntity
  8
DEFPOINTS
  6
CONTINUOUS
 62
     0
100
AcDbPoint
 10
42.0
 20
3.0
 30
0.0
  0
POINT
  5
361
100
AcDbEntity
  8
DEFPOINTS
  6
CONTINUOUS
 62
     0
100
AcDbPoint
 10
42.0
 20
-10.0
 30
0.0
  0
ENDBLK
  5
276
100
AcDbEntity
  8
0
100
AcDbBlockEnd
  0
BLOCK
  5
28B
100
AcDbEntity
  8
0
100
AcDbBlockBegin
  2
*D8
 70
     1
 10
0.0
 20
0.0
 30
0.0
  3
*D8
  1

  0
LINE
  5
282
100
AcDbEntity
  8
寸法
  6
CONTINUOUS
 62
     1
100
AcDbLine
 10
43.0
 20
14.0
 30
0.0
 11
61.0
 21
14.0
 31
0.0
1001
ACAD
1000
RTLwPs
1070
   158
  0
LINE
  5
283
100
AcDbEntity
  8
寸法
  6
CONTINUOUS
 62
     1
100
AcDbLine
 10
43.0
 20
3.0
 30
0.0
 11
61.0
 21
3.0
 31
0.0
1001
ACAD
1000
RTLwPs
1070
   158
  0
LINE
  5
284
100
AcDbEntity
  8
寸法
  6
CONTINUOUS
 62
     1
100
AcDbLine
 10
60.0
 20
12.0
 30
0.0
 11
60.0
 21
5.0
 31
0.0
1001
ACAD
1000
RTLwPs
1070
   158
  0
INSERT
  5
285
100
AcDbEntity
  8
寸法
  6
CONTINUOUS
 62
     1
100
AcDbBlockReference
  2
_OPEN30
 10
60.0
 20
14.0
 30
0.0
 41
2.0
 42
2.0
 43
2.0
 50
90.0
1001
ACAD
1000
RTLwPs
1070
   158
  0
INSERT
  5
286
100
AcDbEntity
  8
寸法
  6
CONTINUOUS
 62
     1
100
AcDbBlockReference
  2
_OPEN30
 10
60.0
 20
3.0
 30
0.0
 41
2.0
 42
2.0
 43
2.0
 50
270.0
1001
ACAD
1000
RTLwPs
1070
   158
  0
MTEXT
  5
287
100
AcDbEntity
  8
寸法
  6
CONTINUOUS
 62
     1
100
AcDbMText
 10
57.5
 20
8.5
 30
0.0
 40
3.0
 41
0.0
 71
     5
 72
     1
  1
\A1;11
 11
0.0
 21
1.0
 31
0.0
1001
ACAD
1000
MTEXTBEGIN
1070
    73
1070
     1
1070
    44
1040
1.0
1070
    74
1070
     0
1000
MTEXTEND
1000
MTEXTBEGIN
1070
    73
1070
     1
1070
    44
1040
1.0
1070
    74
1070
     0
1000
MTEXTEND
  0
POINT
  5
288
100
AcDbEntity
  8
DEFPOINTS
  6
CONTINUOUS
 62
     0
100
AcDbPoint
 10
42.0
 20
14.0
 30
0.0
  0
POINT
  5
289
100
AcDbEntity
  8
DEFPOINTS
  6
CONTINUOUS
 62
     0
100
AcDbPoint
 10
42.0
 20
3.0
 30
0.0
  0
POINT
  5
28A
100
AcDbEntity
  8
DEFPOINTS
  6
CONTINUOUS
 62
     0
100
AcDbPoint
 10
60.0
 20
3.0
 30
0.0
  0
ENDBLK
  5
28C
100
AcDbEntity
  8
0
100
AcDbBlockEnd
  0
BLOCK
  5
298
100
AcDbEntity
  8
0
100
AcDbBlockBegin
  2
*D9
 70
     1
 10
0.0
 20
0.0
 30
0.0
  3
*D9
  1

  0
LINE
  5
28F
100
AcDbEntity
  8
寸法
  6
CONTINUOUS
 62
     1
100
AcDbLine
 10
-1.0
 20
0.0
 30
0.0
 11
-11.0
 21
0.0
 31
0.0
1001
ACAD
1000
RTLwPs
1070
   158
  0
LINE
  5
290
100
AcDbEntity
  8
寸法
  6
CONTINUOUS
 62
     1
100
AcDbLine
 10
-3.0
 20
14.0
 30
0.0
 11
-11.0
 21
14.0
 31
0.0
1001
ACAD
1000
RTLwPs
1070
   158
  0
LINE
  5
291
100
AcDbEntity
  8
寸法
  6
CONTINUOUS
 62
     1
100
AcDbLine
 10
-10.0
 20
2.0
 30
0.0
 11
-10.0
 21
12.0
 31
0.0
1001
ACAD
1000
RTLwPs
1070
   158
  0
INSERT
  5
292
100
AcDbEntity
  8
寸法
  6
CONTINUOUS
 62
     1
100
AcDbBlockReference
  2
_OPEN30
 10
-10.0
 20
0.0
 30
0.0
 41
2.0
 42
2.0
 43
2.0
 50
270.0
1001
ACAD
1000
RTLwPs
1070
   158
  0
INSERT
  5
293
100
AcDbEntity
  8
寸法
  6
CONTINUOUS
 62
     1
100
AcDbBlockReference
  2
_OPEN30
 10
-10.0
 20
14.0
 30
0.0
 41
2.0
 42
2.0
 43
2.0
 50
90.0
1001
ACAD
1000
RTLwPs
1070
   158
  0
MTEXT
  5
294
100
AcDbEntity
  8
寸法
  6
CONTINUOUS
 62
     1
100
AcDbMText
 10
-12.5
 20
7.0
 30
0.0
 40
3.0
 41
0.0
 71
     5
 72
     1
  1
\A1;14
 11
0.0
 21
1.0
 31
0.0
1001
ACAD
1000
MTEXTBEGIN
1070
    73
1070
     1
1070
    44
1040
1.0
1070
    74
1070
     0
1000
MTEXTEND
1000
MTEXTBEGIN
1070
    73
1070
     1
1070
    44
1040
1.0
1070
    74
1070
     0
1000
MTEXTEND
  0
POINT
  5
295
100
AcDbEntity
  8
DEFPOINTS
  6
CONTINUOUS
 62
     0
100
AcDbPoint
 10
0.0
 20
0.0
 30
0.0
  0
POINT
  5
296
100
AcDbEntity
  8
DEFPOINTS
  6
CONTINUOUS
 62
     0
100
AcDbPoint
 10
-2.0
 20
14.0
 30
0.0
  0
POINT
  5
297
100
AcDbEntity
  8
DEFPOINTS
  6
CONTINUOUS
 62
     0
100
AcDbPoint
 10
-10.0
 20
14.0
 30
0.0
  0
ENDBLK
  5
299
100
AcDbEntity
  8
0
100
AcDbBlockEnd
  0
BLOCK
  5
2A8
100
AcDbEntity
  8
0
100
AcDbBlockBegin
  2
*D10
 70
     1
 10
0.0
 20
0.0
 30
0.0
  3
*D10
  1

  0
ARC
  5
362
100
AcDbEntity
  8
寸法
  6
CONTINUOUS
 62
     1
100
AcDbCircle
 10
0.0
 20
0.0
 30
0.0
 40
3.710176
100
AcDbArc
 50
136.272477
 51
148.727522
  0
INSERT
  5
363
100
AcDbEntity
  8
寸法
  6
CONTINUOUS
 62
     1
100
AcDbBlockReference
  2
_OPEN30
 10
-0.960264
 20
3.583755
 30
0.0
 41
2.0
 42
2.0
 43
2.0
 50
30.636238
  0
INSERT
  5
364
100
AcDbEntity
  8
寸法
  6
CONTINUOUS
 62
     1
100
AcDbBlockReference
  2
_OPEN30
 10
-3.710177
 20
0.0
 30
0.0
 41
2.0
 42
2.0
 43
2.0
 50
254.363761
  0
MTEXT
  5
365
100
AcDbEntity
  8
寸法
  6
CONTINUOUS
 62
     1
100
AcDbMText
 10
-3.680021
 20
5.002373
 30
0.0
 40
3.0
 41
0.0
 71
     5
 72
     1
  1
\A1;75°
 11
0.805512
 21
0.592579
 31
0.0
  0
POINT
  5
366
100
AcDbEntity
  8
DEFPOINTS
  6
CONTINUOUS
 62
     0
100
AcDbPoint
 10
-3.362562
 20
1.567988
 30
0.0
  0
POINT
  5
367
100
AcDbEntity
  8
DEFPOINTS
  6
CONTINUOUS
 62
     0
100
AcDbPoint
 10
0.0
 20
0.0
 30
0.0
  0
POINT
  5
368
100
AcDbEntity
  8
DEFPOINTS
  6
CONTINUOUS
 62
     0
100
AcDbPoint
 10
-2.21002
 20
8.247906
 30
0.0
  0
POINT
  5
369
100
AcDbEntity
  8
DEFPOINTS
  6
CONTINUOUS
 62
     0
100
AcDbPoint
 10
-0.158879
 20
0.592945
 30
0.0
  0
POINT
  5
36A
100
AcDbEntity
  8
DEFPOINTS
  6
CONTINUOUS
 62
     0
100
AcDbPoint
 10
-16.582587
 20
0.0
 30
0.0
  0
ENDBLK
  5
2A9
100
AcDbEntity
  8
0
100
AcDbBlockEnd
  0
BLOCK
  5
2BE
100
AcDbEntity
  8
0
100
AcDbBlockBegin
  2
*D11
 70
     1
 10
0.0
 20
0.0
 30
0.0
  3
*D11
  1

  0
LINE
  5
2C0
100
AcDbEntity
  8
寸法
  6
CONTINUOUS
 62
     1
100
AcDbLine
 10
-60.03232
 20
4.932718
 30
0.0
 11
-49.177232
 21
10.048093
 31
0.0
1001
ACAD
1000
RTLwPs
1070
   158
  0
MTEXT
  5
2C1
100
AcDbEntity
  8
寸法
  6
CONTINUOUS
 62
     1
100
AcDbMText
 10
-56.57507
 20
9.325601
 30
0.0
 40
3.0
 41
0.0
 71
     5
 72
     1
  1
\A1;%%c38
 11
0.904591
 21
0.426281
 31
0.0
1001
ACAD
1000
MTEXTBEGIN
1070
    73
1070
     1
1070
    44
1040
1.0
1070
    74
1070
     0
1000
MTEXTEND
1000
MTEXTBEGIN
1070
    73
1070
     1
1070
    44
1040
1.0
1070
    74
1070
     0
1000
MTEXTEND
  0
LINE
  5
2C2
100
AcDbEntity
  8
寸法
  6
CONTINUOUS
 62
     1
100
AcDbLine
 10
-30.180828
 20
19.0
 30
0.0
 11
-47.368051
 21
10.900655
 31
0.0
1001
ACAD
1000
RTLwPs
1070
   158
  0
INSERT
  5
2C3
100
AcDbEntity
  8
寸法
  6
CONTINUOUS
 62
     1
100
AcDbBlockReference
  2
_OPEN30
 10
-47.368051
 20
10.900655
 30
0.0
 41
2.0
 42
2.0
 43
2.0
 50
25.231791
1001
ACAD
1000
RTLwPs
1070
   158
  0
POINT
  5
2C4
100
AcDbEntity
  8
DEFPOINTS
  6
CONTINUOUS
 62
     0
100
AcDbPoint
 10
-47.368051
 20
10.900655
 30
0.0
  0
POINT
  5
2C5
100
AcDbEntity
  8
DEFPOINTS
  6
CONTINUOUS
 62
     0
100
AcDbPoint
 10
-30.180828
 20
19.0
 30
0.0
  0
ENDBLK
  5
2BF
100
AcDbEntity
  8
0
100
AcDbBlockEnd
  0
ENDSEC
  0
SECTION
  2
ENTITIES
  0
POINT
  5
24
100
AcDbEntity
  8
0
  6
CONTINUOUS
 62
     7
100
AcDbPoint
 10
-30.180828
 20
0.0
 30
0.0
  0
POINT
  5
25
100
AcDbEntity
  8
0
  6
CONTINUOUS
 62
     7
100
AcDbPoint
 10
0.0
 20
-40.50531
 30
0.0
  0
POINT
  5
26
100
AcDbEntity
  8
0
  6
CONTINUOUS
 62
     7
100
AcDbPoint
 10
82.497292
 20
-50.505313
 30
0.0
  0
POINT
  5
27
100
AcDbEntity
  8
0
  6
CONTINUOUS
 62
     7
100
AcDbPoint
 10
0.0
 20
0.0
 30
0.0
  0
LINE
  5
28
100
AcDbEntity
  8
0
  6
CONTINUOUS
 62
     7
100
AcDbLine
 10
93.497292
 20
-39.00531
 30
0.0
 11
93.497292
 21
-49.41793
 31
0.0
  0
LINE
  5
29
100
AcDbEntity
  8
0
  6
CONTINUOUS
 62
     7
100
AcDbLine
 10
82.497292
 20
-50.505313
 30
0.0
 11
92.428727
 21
-50.505313
 31
0.0
  0
LINE
  5
2A
100
AcDbEntity
  8
0
  6
CONTINUOUS
 62
     7
100
AcDbLine
 10
83.497292
 20
-38.00531
 30
0.0
 11
92.497292
 21
-38.00531
 31
0.0
  0
LINE
  5
2B
100
AcDbEntity
  8
0
  6
CONTINUOUS
 62
     7
100
AcDbLine
 10
82.497292
 20
-39.00531
 30
0.0
 11
82.497292
 21
-50.505313
 31
0.0
  0
LINE
  5
2C
100
AcDbEntity
  8
0
  6
CONTINUOUS
 62
     7
100
AcDbLine
 10
83.497292
 20
-38.005306
 30
0.0
 11
82.497292
 21
-39.005306
 31
0.0
  0
LINE
  5
2D
100
AcDbEntity
  8
0
  6
CONTINUOUS
 62
     7
100
AcDbLine
 10
92.497285
 20
-38.00531
 30
0.0
 11
93.497292
 21
-39.00531
 31
0.0
  0
LINE
  5
2E
100
AcDbEntity
  8
0
  6
CENTER
 62
     1
 48
0.5
100
AcDbLine
 10
80.207696
 20
-40.668292
 30
0.0
 11
95.640054
 21
-46.285209
 31
0.0
  0
LINE
  5
2F
100
AcDbEntity
  8
0
  6
CONTINUOUS
 62
     7
100
AcDbLine
 10
82.497292
 20
-47.088573
 30
0.0
 11
87.195756
 21
-48.798675
 31
0.0
  0
LINE
  5
30
100
AcDbEntity
  8
0
  6
CONTINUOUS
 62
     7
100
AcDbLine
 10
88.241181
 20
-38.00531
 30
0.0
 11
90.786965
 21
-38.931899
 31
0.0
  0
LINE
  5
31
100
AcDbEntity
  8
0
  6
CONTINUOUS
 62
     7
100
AcDbLine
 10
90.786965
 20
-38.931899
 30
0.0
 11
87.195756
 21
-48.798675
 31
0.0
  0
LINE
  5
32
100
AcDbEntity
  8
0
  6
CONTINUOUS
 62
     7
100
AcDbLine
 10
90.188432
 20
-40.576362
 30
0.0
 11
93.497292
 21
-41.780689
 31
0.0
  0
LINE
  5
33
100
AcDbEntity
  8
0
  6
CONTINUOUS
 62
     7
100
AcDbLine
 10
87.794289
 20
-47.154212
 30
0.0
 11
93.497292
 21
-49.229934
 31
0.0
  0
LINE
  5
34
100
AcDbEntity
  8
0
  6
CONTINUOUS
 62
     7
100
AcDbLine
 10
-2.0
 20
14.0
 30
0.0
 11
42.0
 21
14.0
 31
0.0
  0
LINE
  5
35
100
AcDbEntity
  8
0
  6
CONTINUOUS
 62
     7
100
AcDbLine
 10
9.664102
 20
3.0
 30
0.0
 11
42.0
 21
3.0
 31
0.0
  0
LINE
  5
36
100
AcDbEntity
  8
0
  6
CONTINUOUS
 62
     7
100
AcDbLine
 10
42.0
 20
14.0
 30
0.0
 11
42.0
 21
3.0
 31
0.0
  0
LINE
  5
37
100
AcDbEntity
  8
0
  6
CENTER
 62
     1
 48
0.5
100
AcDbLine
 10
30.0
 20
16.05187
 30
0.0
 11
30.0
 21
1.046398
 31
0.0
  0
LINE
  5
38
100
AcDbEntity
  8
0
  6
CONTINUOUS
 62
     7
100
AcDbLine
 10
29.0
 20
8.743893
 30
0.0
 11
31.0
 21
8.743893
 31
0.0
  0
LINE
  5
39
100
AcDbEntity
  8
0
  6
CONTINUOUS
 62
     7
100
AcDbLine
 10
20.937744
 20
13.0
 30
0.0
 11
42.0
 21
13.0
 31
0.0
  0
LINE
  5
3A
100
AcDbEntity
  8
0
  6
CONTINUOUS
 62
     7
100
AcDbLine
 10
20.937744
 20
4.000001
 30
0.0
 11
25.507923
 21
4.000001
 31
0.0
  0
LINE
  5
3B
100
AcDbEntity
  8
0
  6
CONTINUOUS
 62
     7
100
AcDbLine
 10
34.492077
 20
4.000001
 30
0.0
 11
42.0
 21
4.000001
 31
0.0
  0
LINE
  5
3C
100
AcDbEntity
  8
0
  6
CENTER
 62
     1
 48
0.5
100
AcDbLine
 10
10.990216
 20
16.068119
 30
0.0
 11
15.338579
 21
-0.160193
 31
0.0
  0
LINE
  5
3D
100
AcDbEntity
  8
0
  6
CONTINUOUS
 62
     7
100
AcDbLine
 10
17.478977
 20
7.968514
 30
0.0
 11
18.376003
 21
8.208871
 31
0.0
  0
LINE
  5
3E
100
AcDbEntity
  8
0
  6
CONTINUOUS
 62
     7
100
AcDbLine
 10
16.754284
 20
10.673107
 30
0.0
 11
17.65131
 21
10.913464
 31
0.0
  0
LINE
  5
3F
100
AcDbEntity
  8
0
  6
CONTINUOUS
 62
     7
100
AcDbLine
 10
2.048139
 20
6.939661
 30
0.0
 11
2.87636
 21
3.848699
 31
0.0
  0
LINE
  5
40
100
AcDbEntity
  8
0
  6
CONTINUOUS
 62
     7
100
AcDbLine
 10
2.048141
 20
6.939663
 30
0.0
 11
10.884634
 21
12.050083
 31
0.0
  0
LINE
  5
41
100
AcDbEntity
  8
0
  6
CONTINUOUS
 62
     7
100
AcDbLine
 10
2.87636
 20
3.848699
 30
0.0
 11
13.084197
 21
3.841191
 31
0.0
  0
LINE
  5
42
100
AcDbEntity
  8
0
  6
CONTINUOUS
 62
     7
100
AcDbLine
 10
29.0
 20
8.296999
 30
0.0
 11
31.0
 21
8.296999
 31
0.0
  0
LINE
  5
43
100
AcDbEntity
  8
0
  6
CONTINUOUS
 62
     7
100
AcDbLine
 10
50.0
 20
10.5
 30
0.0
 11
50.0
 21
6.5
 31
0.0
  0
LINE
  5
44
100
AcDbEntity
  8
0
  6
CENTER
 62
     1
 48
0.5
100
AcDbLine
 10
35.097404
 20
8.5
 30
0.0
 11
51.930676
 21
8.5
 31
0.0
  0
LINE
  5
45
100
AcDbEntity
  8
0
  6
CONTINUOUS
 62
     7
100
AcDbLine
 10
45.0
 20
12.5
 30
0.0
 11
45.0
 21
4.5
 31
0.0
  0
LINE
  5
46
100
AcDbEntity
  8
0
  6
CONTINUOUS
 62
     7
100
AcDbLine
 10
42.0
 20
6.0
 30
0.0
 11
45.0
 21
6.0
 31
0.0
  0
LINE
  5
47
100
AcDbEntity
  8
0
  6
CONTINUOUS
 62
     7
100
AcDbLine
 10
42.0
 20
11.0
 30
0.0
 11
45.0
 21
11.0
 31
0.0
  0
LINE
  5
48
100
AcDbEntity
  8
0
  6
CONTINUOUS
 62
     7
100
AcDbLine
 10
47.500004
 20
13.0
 30
0.0
 11
50.000004
 21
10.5
 31
0.0
  0
LINE
  5
49
100
AcDbEntity
  8
0
  6
CONTINUOUS
 62
     7
100
AcDbLine
 10
47.5
 20
4.0
 30
0.0
 11
50.0
 21
6.5
 31
0.0
  0
LINE
  5
4A
100
AcDbEntity
  8
0
  6
CONTINUOUS
 62
     7
100
AcDbLine
 10
45.5
 20
4.0
 30
0.0
 11
47.5
 21
4.0
 31
0.0
  0
LINE
  5
4B
100
AcDbEntity
  8
0
  6
CONTINUOUS
 62
     7
100
AcDbLine
 10
45.5
 20
13.0
 30
0.0
 11
47.5
 21
13.0
 31
0.0
  0
LINE
  5
4C
100
AcDbEntity
  8
0
  6
CONTINUOUS
 62
     7
100
AcDbLine
 10
45.5
 20
12.999997
 30
0.0
 11
45.0
 21
12.499999
 31
0.0
  0
LINE
  5
4D
100
AcDbEntity
  8
0
  6
CONTINUOUS
 62
     7
100
AcDbLine
 10
45.000004
 20
4.500003
 30
0.0
 11
45.500004
 21
4.000003
 31
0.0
  0
LINE
  5
4E
100
AcDbEntity
  8
0
  6
CONTINUOUS
 62
     7
100
AcDbLine
 10
45.5
 20
13.0
 30
0.0
 11
45.5
 21
4.0
 31
0.0
  0
LINE
  5
4F
100
AcDbEntity
  8
0
  6
CONTINUOUS
 62
     7
100
AcDbLine
 10
47.5
 20
13.0
 30
0.0
 11
47.5
 21
4.0
 31
0.0
  0
LINE
  5
50
100
AcDbEntity
  8
0
  6
CONTINUOUS
 62
     7
100
AcDbLine
 10
42.0
 20
6.5
 30
0.0
 11
45.0
 21
6.5
 31
0.0
  0
LINE
  5
51
100
AcDbEntity
  8
0
  6
CONTINUOUS
 62
     7
100
AcDbLine
 10
42.0
 20
10.5
 30
0.0
 11
45.0
 21
10.5
 31
0.0
  0
LINE
  5
52
100
AcDbEntity
  8
0
  6
CONTINUOUS
 62
     7
100
AcDbLine
 10
-40.180828
 20
13.0
 30
0.0
 11
-40.180828
 21
3.797846
 31
0.0
  0
LINE
  5
53
100
AcDbEntity
  8
0
  6
CONTINUOUS
 62
     7
100
AcDbLine
 10
-39.180828
 20
14.0
 30
0.0
 11
-28.680824
 21
14.0
 31
0.0
  0
LINE
  5
54
100
AcDbEntity
  8
0
  6
CONTINUOUS
 62
     7
100
AcDbLine
 10
-39.180828
 20
14.000001
 30
0.0
 11
-40.180828
 21
13.000002
 31
0.0
  0
LINE
  5
55
100
AcDbEntity
  8
0
  6
CONTINUOUS
 62
     7
100
AcDbLine
 10
-2.0
 20
14.0
 30
0.0
 11
-2.0
 21
9.023597
 31
0.0
  0
LINE
  5
56
100
AcDbEntity
  8
0
  6
CONTINUOUS
 62
     7
100
AcDbLine
 10
-2.21002
 20
8.247906
 30
0.0
 11
-0.158879
 21
0.592945
 31
0.0
  0
LINE
  5
57
100
AcDbEntity
  8
0
  6
CONTINUOUS
 62
     7
100
AcDbLine
 10
6.990423
 20
10.713157
 30
0.0
 11
7.202752
 21
9.920735
 31
0.0
  0
LINE
  5
58
100
AcDbEntity
  8
0
  6
CONTINUOUS
 62
     7
100
AcDbLine
 10
8.47588
 20
2.0784
 30
0.0
 11
0.820917
 21
0.027259
 31
0.0
  0
LINE
  5
59
100
AcDbEntity
  8
0
  6
CONTINUOUS
 62
     7
100
AcDbLine
 10
6.010628
 20
11.278843
 30
0.0
 11
-1.644334
 21
9.227702
 31
0.0
  0
LINE
  5
5A
100
AcDbEntity
  8
0
  6
CENTER
 62
     1
 48
0.5
100
AcDbLine
 10
0.918363
 20
4.980498
 30
0.0
 11
19.672033
 21
10.005528
 31
0.0
  0
LINE
  5
5B
100
AcDbEntity
  8
0
  6
CONTINUOUS
 62
     7
100
AcDbLine
 10
8.830923
 20
3.844319
 30
0.0
 11
9.041564
 21
3.058196
 31
0.0
  0
LINE
  5
5C
100
AcDbEntity
  8
0
  6
CONTINUOUS
 62
     7
100
AcDbLine
 10
1.0
 20
14.0
 30
0.0
 11
2.015938
 21
10.208468
 31
0.0
  0
LINE
  5
5D
100
AcDbEntity
  8
0
  6
CONTINUOUS
 62
     7
100
AcDbLine
 10
1.724693
 20
14.0
 30
0.0
 11
2.692086
 21
10.389642
 31
0.0
  0
LINE
  5
5E
100
AcDbEntity
  8
0
  6
CONTINUOUS
 62
     7
100
AcDbLine
 10
-2.0
 20
-50.505313
 30
0.0
 11
42.0
 21
-50.505313
 31
0.0
  0
LINE
  5
5F
100
AcDbEntity
  8
0
  6
CONTINUOUS
 62
     7
100
AcDbLine
 10
20.937744
 20
-38.00531
 30
0.0
 11
42.0
 21
-38.00531
 31
0.0
  0
LINE
  5
60
100
AcDbEntity
  8
0
  6
CONTINUOUS
 62
     7
100
AcDbLine
 10
42.0
 20
-38.00531
 30
0.0
 11
42.0
 21
-50.505313
 31
0.0
  0
LINE
  5
61
100
AcDbEntity
  8
0
  6
CONTINUOUS
 62
     7
100
AcDbLine
 10
20.83264
 20
-39.00531
 30
0.0
 11
24.959396
 21
-39.00531
 31
0.0
  0
LINE
  5
62
100
AcDbEntity
  8
0
  6
CENTER
 62
     1
 48
0.5
100
AcDbLine
 10
31.0
 20
-34.44852
 30
0.0
 11
31.0
 21
-53.428722
 31
0.0
  0
LINE
  5
63
100
AcDbEntity
  8
0
  6
CENTER
 62
     1
 48
0.5
100
AcDbLine
 10
29.0
 20
-34.44852
 30
0.0
 11
29.0
 21
-53.428722
 31
0.0
  0
LINE
  5
64
100
AcDbEntity
  8
0
  6
CONTINUOUS
 62
     7
100
AcDbLine
 10
29.0
 20
-47.088573
 30
0.0
 11
31.0
 21
-47.088573
 31
0.0
  0
LINE
  5
65
100
AcDbEntity
  8
0
  6
CONTINUOUS
 62
     7
100
AcDbLine
 10
35.040604
 20
-39.00531
 30
0.0
 11
42.0
 21
-39.00531
 31
0.0
  0
LINE
  5
66
100
AcDbEntity
  8
0
  6
CONTINUOUS
 62
     7
100
AcDbLine
 10
29.0
 20
-41.780689
 30
0.0
 11
31.0
 21
-41.780689
 31
0.0
  0
LINE
  5
67
100
AcDbEntity
  8
0
  6
CONTINUOUS
 62
     7
100
AcDbLine
 10
29.0
 20
-40.576362
 30
0.0
 11
31.0
 21
-40.576362
 31
0.0
  0
LINE
  5
68
100
AcDbEntity
  8
0
  6
CENTER
 62
     7
100
AcDbLine
 10
30.0
 20
-33.30202
 30
0.0
 11
30.0
 21
-52.710082
 31
0.0
  0
LINE
  5
69
100
AcDbEntity
  8
0
  6
CONTINUOUS
 62
     7
100
AcDbLine
 10
50.0
 20
-42.505313
 30
0.0
 11
50.0
 21
-46.505313
 31
0.0
  0
LINE
  5
6A
100
AcDbEntity
  8
0
  6
CENTER
 62
     1
 48
0.5
100
AcDbLine
 10
35.097404
 20
-44.505313
 30
0.0
 11
51.930676
 21
-44.505313
 31
0.0
  0
LINE
  5
6B
100
AcDbEntity
  8
0
  6
CONTINUOUS
 62
     7
100
AcDbLine
 10
45.0
 20
-40.505313
 30
0.0
 11
45.0
 21
-48.505313
 31
0.0
  0
LINE
  5
6C
100
AcDbEntity
  8
0
  6
CONTINUOUS
 62
     7
100
AcDbLine
 10
42.0
 20
-47.005313
 30
0.0
 11
45.0
 21
-47.005313
 31
0.0
  0
LINE
  5
6D
100
AcDbEntity
  8
0
  6
CONTINUOUS
 62
     7
100
AcDbLine
 10
42.0
 20
-42.005313
 30
0.0
 11
45.0
 21
-42.005313
 31
0.0
  0
LINE
  5
6E
100
AcDbEntity
  8
0
  6
CONTINUOUS
 62
     7
100
AcDbLine
 10
47.5
 20
-40.005313
 30
0.0
 11
50.0
 21
-42.50531
 31
0.0
  0
LINE
  5
6F
100
AcDbEntity
  8
0
  6
CONTINUOUS
 62
     7
100
AcDbLine
 10
47.5
 20
-49.005313
 30
0.0
 11
50.0
 21
-46.505313
 31
0.0
  0
LINE
  5
70
100
AcDbEntity
  8
0
  6
CONTINUOUS
 62
     7
100
AcDbLine
 10
45.5
 20
-49.005313
 30
0.0
 11
47.5
 21
-49.005313
 31
0.0
  0
LINE
  5
71
100
AcDbEntity
  8
0
  6
CONTINUOUS
 62
     7
100
AcDbLine
 10
45.5
 20
-40.005313
 30
0.0
 11
47.5
 21
-40.005313
 31
0.0
  0
LINE
  5
72
100
AcDbEntity
  8
0
  6
CONTINUOUS
 62
     7
100
AcDbLine
 10
45.499996
 20
-40.005317
 30
0.0
 11
45.0
 21
-40.505313
 31
0.0
  0
LINE
  5
73
100
AcDbEntity
  8
0
  6
CONTINUOUS
 62
     7
100
AcDbLine
 10
45.0
 20
-48.505306
 30
0.0
 11
45.5
 21
-49.005306
 31
0.0
  0
LINE
  5
74
100
AcDbEntity
  8
0
  6
CONTINUOUS
 62
     7
100
AcDbLine
 10
45.5
 20
-40.005313
 30
0.0
 11
45.5
 21
-49.005313
 31
0.0
  0
LINE
  5
75
100
AcDbEntity
  8
0
  6
CONTINUOUS
 62
     7
100
AcDbLine
 10
47.5
 20
-40.005313
 30
0.0
 11
47.5
 21
-49.005313
 31
0.0
  0
LINE
  5
76
100
AcDbEntity
  8
0
  6
CONTINUOUS
 62
     7
100
AcDbLine
 10
42.0
 20
-46.505313
 30
0.0
 11
45.0
 21
-46.505313
 31
0.0
  0
LINE
  5
77
100
AcDbEntity
  8
0
  6
CONTINUOUS
 62
     7
100
AcDbLine
 10
42.0
 20
-42.505313
 30
0.0
 11
45.0
 21
-42.505313
 31
0.0
  0
LINE
  5
78
100
AcDbEntity
  8
0
  6
CENTER
 62
     1
 48
0.5
100
AcDbLine
 10
5.0
 20
-44.582889
 30
0.0
 11
5.0
 21
-49.602741
 31
0.0
  0
LINE
  5
79
100
AcDbEntity
  8
0
  6
CENTER
 62
     1
 48
0.5
100
AcDbLine
 10
1.865266
 20
-47.005313
 30
0.0
 11
8.230459
 21
-47.005313
 31
0.0
  0
LINE
  5
7A
100
AcDbEntity
  8
0
  6
CONTINUOUS
 62
     7
100
AcDbLine
 10
-2.0
 20
-43.492618
 30
0.0
 11
-2.0
 21
-50.505313
 31
0.0
  0
LINE
  5
7B
100
AcDbEntity
  8
0
  6
CONTINUOUS
 62
     7
100
AcDbLine
 10
10.15456
 20
-36.042301
 30
0.0
 11
17.439259
 21
-36.807952
 31
0.0
  0
LINE
  5
7C
100
AcDbEntity
  8
0
  6
CONTINUOUS
 62
     7
100
AcDbLine
 10
2.284909
 20
-38.734447
 30
0.0
 11
3.11313
 21
-38.821495
 31
0.0
  0
LINE
  5
7D
100
AcDbEntity
  8
0
  6
CONTINUOUS
 62
     7
100
AcDbLine
 10
2.284909
 20
-38.734447
 30
0.0
 11
2.075852
 21
-40.723491
 31
0.0
  0
LINE
  5
7E
100
AcDbEntity
  8
0
  6
CONTINUOUS
 62
     7
100
AcDbLine
 10
3.11313
 20
-38.821495
 30
0.0
 11
2.904073
 21
-40.810539
 31
0.0
  0
LINE
  5
7F
100
AcDbEntity
  8
0
  6
CONTINUOUS
 62
     7
100
AcDbLine
 10
17.439259
 20
-36.807952
 30
0.0
 11
16.913458
 21
-41.810611
 31
0.0
  0
LINE
  5
80
100
AcDbEntity
  8
0
  6
CONTINUOUS
 62
     7
100
AcDbLine
 10
17.230202
 20
-38.796997
 30
0.0
 11
19.365479
 21
-39.021423
 31
0.0
  0
LINE
  5
81
100
AcDbEntity
  8
0
  6
CONTINUOUS
 62
     7
100
AcDbLine
 10
19.365479
 20
-39.021423
 30
0.0
 11
19.048735
 21
-42.035037
 31
0.0
  0
LINE
  5
82
100
AcDbEntity
  8
0
  6
CONTINUOUS
 62
     7
100
AcDbLine
 10
2.2
 20
-43.934055
 30
0.0
 11
2.2
 21
-44.505313
 31
0.0
  0
LINE
  5
83
100
AcDbEntity
  8
0
  6
CONTINUOUS
 62
     7
100
AcDbLine
 10
0.214005
 20
-44.505313
 30
0.0
 11
2.2
 21
-44.505313
 31
0.0
  0
LINE
  5
84
100
AcDbEntity
  8
0
  6
CONTINUOUS
 62
     7
100
AcDbLine
 10
-27.680824
 20
13.0
 30
0.0
 11
-27.680824
 21
12.58217
 31
0.0
  0
LINE
  5
85
100
AcDbEntity
  8
0
  6
CONTINUOUS
 62
     7
100
AcDbLine
 10
-30.180828
 20
3.0
 30
0.0
 11
-28.680824
 21
3.0
 31
0.0
  0
LINE
  5
86
100
AcDbEntity
  8
0
  6
CONTINUOUS
 62
     7
100
AcDbLine
 10
-34.180828
 20
1.0
 30
0.0
 11
-33.33585
 21
1.0
 31
0.0
  0
LINE
  5
88
100
AcDbEntity
  8
0
  6
CONTINUOUS
 62
     7
100
AcDbLine
 10
92.428727
 20
-50.505313
 30
0.0
 11
93.497292
 21
-49.417934
 31
0.0
  0
LINE
  5
89
100
AcDbEntity
  8
0
  6
CONTINUOUS
 62
     7
100
AcDbLine
 10
-28.680824
 20
13.999999
 30
0.0
 11
-27.680824
 21
13.0
 31
0.0
  0
LINE
  5
8A
100
AcDbEntity
  8
0
  6
CONTINUOUS
 62
     7
100
AcDbLine
 10
-28.680824
 20
2.999999
 30
0.0
 11
-27.734268
 21
3.946556
 31
0.0
  0
LINE
  5
8B
100
AcDbEntity
  8
0
  6
CONTINUOUS
 62
     7
100
AcDbLine
 10
9.664102
 20
3.0
 30
0.0
 11
9.068753
 21
2.840477
 31
0.0
  0
LINE
  5
8C
100
AcDbEntity
  8
0
  6
CONTINUOUS
 62
     7
100
AcDbLine
 10
-2.237279
 20
-40.27016
 30
0.0
 11
8.880724
 21
-41.438709
 31
0.0
  0
LINE
  5
8D
100
AcDbEntity
  8
0
  6
CONTINUOUS
 62
     7
100
AcDbLine
 10
-2.0
 20
-43.492618
 30
0.0
 11
7.933579
 21
-44.536678
 31
0.0
  0
LINE
  5
8E
100
AcDbEntity
  8
0
  6
CONTINUOUS
 62
     7
100
AcDbLine
 10
9.025805
 20
-40.964172
 30
0.0
 11
19.505478
 21
-42.065631
 31
0.0
  0
LINE
  5
8F
100
AcDbEntity
  8
0
  6
CONTINUOUS
 62
     7
100
AcDbLine
 10
20.604527
 20
-41.17564
 30
0.0
 11
20.937742
 21
-38.00531
 31
0.0
  0
LINE
  5
90
100
AcDbEntity
  8
0
  6
CONTINUOUS
 62
     7
100
AcDbLine
 10
7.933581
 20
-44.536678
 30
0.0
 11
9.025805
 21
-40.964172
 31
0.0
  0
LINE
  5
91
100
AcDbEntity
  8
0
  6
CONTINUOUS
 62
     7
100
AcDbLine
 10
0.145131
 20
-43.718082
 30
0.0
 11
0.738937
 21
-50.505313
 31
0.0
  0
LINE
  5
92
100
AcDbEntity
  8
0
  6
CONTINUOUS
 62
     7
100
AcDbLine
 10
9.664102
 20
-41.031261
 30
0.0
 11
9.664102
 21
-50.505313
 31
0.0
  0
LINE
  5
93
100
AcDbEntity
  8
0
  6
CONTINUOUS
 62
     7
100
AcDbLine
 10
2.2
 20
-44.505313
 30
0.0
 11
3.544575
 21
-45.633544
 31
0.0
  0
LINE
  5
94
100
AcDbEntity
  8
0
  6
CONTINUOUS
 62
     7
100
AcDbLine
 10
6.603656
 20
-48.20042
 30
0.0
 11
9.350521
 21
-50.505313
 31
0.0
  0
LINE
  5
95
100
AcDbEntity
  8
0
  6
CONTINUOUS
 62
     7
100
AcDbLine
 10
28.683388
 20
-38.931899
 30
0.0
 11
31.316612
 21
-38.931899
 31
0.0
  0
LINE
  5
96
100
AcDbEntity
  8
0
  6
CONTINUOUS
 62
     7
100
AcDbLine
 10
20.5
 20
14.0
 30
0.0
 11
20.5
 21
3.0
 31
0.0
  0
LINE
  5
97
100
AcDbEntity
  8
0
  6
CONTINUOUS
 62
     7
100
AcDbLine
 10
20.937742
 20
13.0
 30
0.0
 11
20.5
 21
14.0
 31
0.0
  0
LINE
  5
98
100
AcDbEntity
  8
0
  6
CONTINUOUS
 62
     7
100
AcDbLine
 10
20.937744
 20
4.000001
 30
0.0
 11
20.5
 21
3.0
 31
0.0
  0
LINE
  5
99
100
AcDbEntity
  8
0
  6
CONTINUOUS
 62
     7
100
AcDbLine
 10
20.937744
 20
13.0
 30
0.0
 11
20.937744
 21
4.000001
 31
0.0
  0
LINE
  5
9A
100
AcDbEntity
  8
0
  6
CONTINUOUS
 62
     7
100
AcDbLine
 10
-0.158879
 20
0.592945
 30
0.0
 11
0.0
 21
0.0
 31
0.0
  0
LINE
  5
9B
100
AcDbEntity
  8
0
  6
CONTINUOUS
 62
     7
100
AcDbLine
 10
0.0
 20
-40.50531
 30
0.0
 11
0.282343
 21
-43.732501
 31
0.0
  0
LINE
  5
9C
100
AcDbEntity
  8
0
  6
CONTINUOUS
 62
     7
100
AcDbLine
 10
-2.23728
 20
-40.27016
 30
0.0
 11
-1.954937
 21
-43.497356
 31
0.0
  0
LINE
  5
9D
100
AcDbEntity
  8
0
  6
CONTINUOUS
 62
     7
100
AcDbLine
 10
-30.180828
 20
0.0
 30
0.0
 11
-29.945681
 21
9.023597
 31
0.0
  0
LINE
  5
9E
100
AcDbEntity
  8
0
  6
CONTINUOUS
 62
     7
100
AcDbLine
 10
-33.343647
 20
0.70076
 30
0.0
 11
-33.140705
 21
8.488517
 31
0.0
  0
LINE
  5
9F
100
AcDbEntity
  8
0
  6
CONTINUOUS
 62
     7
100
AcDbLine
 10
-30.180828
 20
0.0
 30
0.0
 11
-33.343647
 21
0.700759
 31
0.0
  0
LINE
  5
A0
100
AcDbEntity
  8
0
  6
CONTINUOUS
 62
     7
100
AcDbLine
 10
-33.140705
 20
8.488518
 30
0.0
 11
-29.945681
 21
9.023597
 31
0.0
  0
LINE
  5
A1
100
AcDbEntity
  8
0
  6
CONTINUOUS
 62
     7
100
AcDbLine
 10
-37.765388
 20
13.999998
 30
0.0
 11
-33.140705
 21
8.488517
 31
0.0
  0
LINE
  5
A2
100
AcDbEntity
  8
0
  6
CONTINUOUS
 62
     7
100
AcDbLine
 10
-29.945681
 20
14.0
 30
0.0
 11
-29.945681
 21
9.023597
 31
0.0
  0
LINE
  5
A3
100
AcDbEntity
  8
0
  6
CONTINUOUS
 62
     7
100
AcDbLine
 10
-40.180828
 20
3.797846
 30
0.0
 11
-34.180828
 21
1.0
 31
0.0
  0
LINE
  5
A4
100
AcDbEntity
  8
0
  6
CONTINUOUS
 62
     7
100
AcDbLine
 10
-30.080534
 20
3.848699
 30
0.0
 11
-28.818882
 21
3.815822
 31
0.0
  0
LINE
  5
A5
100
AcDbEntity
  8
0
  6
CONTINUOUS
 62
     7
100
AcDbLine
 10
-29.999987
 20
6.939661
 30
0.0
 11
-28.738333
 21
6.906783
 31
0.0
  0
LINE
  5
A6
100
AcDbEntity
  8
0
  6
CONTINUOUS
 62
     7
100
AcDbLine
 10
-28.738333
 20
6.906783
 30
0.0
 11
-28.818882
 21
3.815822
 31
0.0
  0
LINE
  5
A7
100
AcDbEntity
  8
0
  6
CONTINUOUS
 62
     7
100
AcDbLine
 10
-25.505686
 20
11.525148
 30
0.0
 11
-25.6306
 21
6.731692
 31
0.0
  0
LINE
  5
A8
100
AcDbEntity
  8
0
  6
CONTINUOUS
 62
     7
100
AcDbLine
 10
-26.479296
 20
12.550859
 30
0.0
 11
-29.945681
 21
12.641191
 31
0.0
  0
LINE
  5
A9
100
AcDbEntity
  8
0
  6
CONTINUOUS
 62
     7
100
AcDbLine
 10
0.0
 20
0.0
 30
0.0
 11
0.613862
 21
0.0
 31
0.0
  0
LINE
  5
AA
100
AcDbEntity
  8
0
  6
CONTINUOUS
 62
     7
100
AcDbLine
 10
1.497343
 20
-40.172901
 30
0.0
 11
2.126768
 21
-40.239055
 31
0.0
  0
LINE
  5
AB
100
AcDbEntity
  8
0
  6
CONTINUOUS
 62
     7
100
AcDbLine
 10
0.978613
 20
-40.608165
 30
0.0
 11
1.497342
 21
-40.172897
 31
0.0
  0
ARC
  5
AC
100
AcDbEntity
  8
0
  6
CONTINUOUS
 62
     7
100
AcDbCircle
 10
18.013655
 20
9.561168
 30
0.0
 40
1.4
100
AcDbArc
 50
284.99999
 51
105.0
  0
ARC
  5
AD
100
AcDbEntity
  8
0
  6
CONTINUOUS
 62
     7
100
AcDbCircle
 10
6.217683
 20
10.506103
 30
0.0
 40
0.8
100
AcDbArc
 50
15.0
 51
105.0
  0
ARC
  5
AE
100
AcDbEntity
  8
0
  6
CONTINUOUS
 62
     7
100
AcDbCircle
 10
8.268825
 20
2.851141
 30
0.0
 40
0.8
100
AcDbArc
 50
285.0
 51
15.0
  0
ARC
  5
AF
100
AcDbEntity
  8
0
  6
CONTINUOUS
 62
     7
100
AcDbCircle
 10
0.613862
 20
0.8
 30
0.0
 40
0.8
100
AcDbArc
 50
195.00001
 51
285.0
  0
ARC
  5
B0
100
AcDbEntity
  8
0
  6
CONTINUOUS
 62
     7
100
AcDbCircle
 10
-1.437279
 20
8.454962
 30
0.0
 40
0.8
100
AcDbArc
 50
105.0
 51
195.0
  0
ARC
  5
B1
100
AcDbEntity
  8
0
  6
CONTINUOUS
 62
     7
100
AcDbCircle
 10
5.0
 20
-47.005313
 30
0.0
 40
2.0
100
AcDbArc
 50
0.0
 51
357.95177
  0
CIRCLE
  5
B2
100
AcDbEntity
  8
0
  6
CONTINUOUS
 62
     7
100
AcDbCircle
 10
5.0
 20
-47.005313
 30
0.0
 40
1.65
  0
ARC
  5
B3
100
AcDbEntity
  8
0
  6
CONTINUOUS
 62
     7
100
AcDbCircle
 10
19.610006
 20
-41.071109
 30
0.0
 40
1.0
100
AcDbArc
 50
264.0
 51
354.0
  0
ARC
  5
B4
100
AcDbEntity
  8
0
  6
CONTINUOUS
 62
     7
100
AcDbCircle
 10
28.683388
 20
-43.865287
 30
0.0
 40
4.933387
100
AcDbArc
 50
90.000003
 51
169.87142
  0
ARC
  5
B5
100
AcDbEntity
  8
0
  6
CONTINUOUS
 62
     7
100
AcDbCircle
 10
31.316612
 20
-43.865287
 30
0.0
 40
4.933387
100
AcDbArc
 50
10.27997
 51
90.000003
  0
ARC
  5
B6
100
AcDbEntity
  8
0
  6
CONTINUOUS
 62
     7
100
AcDbCircle
 10
6.75
 20
11.49
 30
0.0
 40
2.0
100
AcDbArc
 50
337.61722
 51
195.36092
  0
ARC
  5
B7
100
AcDbEntity
  8
0
  6
CONTINUOUS
 62
     7
100
AcDbCircle
 10
-28.629581
 20
6.809843
 30
0.0
 40
3.0
100
AcDbArc
 50
266.38223
 51
358.50726
  0
ARC
  5
B8
100
AcDbEntity
  8
0
  6
CONTINUOUS
 62
     7
100
AcDbCircle
 10
-26.505346
 20
11.551199
 30
0.0
 40
1.0
100
AcDbArc
 50
358.50726
 51
88.507258
  0
ARC
  5
B9
100
AcDbEntity
  8
0
  6
CONTINUOUS
 62
     7
100
AcDbCircle
 10
-28.657284
 20
10.016968
 30
0.0
 40
3.11124
100
AcDbArc
 50
268.50726
 51
358.50726
  0
LWPOLYLINE
  5
BA
100
AcDbEntity
  8
0
  6
CONTINUOUS
 62
     7
100
AcDbPolyline
 90
       17
 70
     0
 43
0.0
 10
29.0
 20
8.743893
 42
0.005977
 10
28.633714
 20
8.739517
 42
0.006057
 10
28.267528
 20
8.726331
 42
0.006222
 10
27.901596
 20
8.704153
 42
0.006482
 10
27.536099
 20
8.672675
 42
0.006856
 10
27.171256
 20
8.631436
 42
0.007375
 10
26.807348
 20
8.57979
 42
0.008087
 10
26.44475
 20
8.516858
 42
0.009065
 10
26.083982
 20
8.441444
 42
0.010368
 10
25.727958
 20
8.352497
 42
0.012294
 10
25.376302
 20
8.247572
 42
0.015183
 10
25.03089
 20
8.123596
 42
0.01979
 10
24.694895
 20
7.975975
 42
0.02778
 10
24.374256
 20
7.797503
 42
0.043246
 10
24.081661
 20
7.57638
 42
0.076382
 10
23.848548
 20
7.294562
 42
0.1336
 10
23.750006
 20
6.945632
  0
LWPOLYLINE
  5
CD
100
AcDbEntity
  8
0
  6
CONTINUOUS
 62
     7
100
AcDbPolyline
 90
       17
 70
     0
 43
0.0
 10
31.0
 20
8.743893
 42
-0.005977
 10
31.366286
 20
8.739517
 42
-0.006057
 10
31.732472
 20
8.726331
 42
-0.006222
 10
32.098404
 20
8.704153
 42
-0.006482
 10
32.463901
 20
8.672675
 42
-0.006856
 10
32.828744
 20
8.631436
 42
-0.007375
 10
33.192652
 20
8.57979
 42
-0.008087
 10
33.55525
 20
8.516858
 42
-0.009065
 10
33.916018
 20
8.441444
 42
-0.010368
 10
34.272042
 20
8.352497
 42
-0.012294
 10
34.623698
 20
8.247572
 42
-0.015183
 10
34.96911
 20
8.123596
 42
-0.01979
 10
35.305105
 20
7.975975
 42
-0.02778
 10
35.625744
 20
7.797503
 42
-0.043246
 10
35.918339
 20
7.57638
 42
-0.076382
 10
36.151452
 20
7.294562
 42
-0.1336
 10
36.249994
 20
6.945632
  0
LWPOLYLINE
  5
E0
100
AcDbEntity
  8
0
  6
CONTINUOUS
 62
     7
100
AcDbPolyline
 90
       17
 70
     0
 43
0.0
 10
31.0
 20
3.0
 42
0.01627
 10
31.45332
 20
3.014746
 42
0.016428
 10
31.904652
 20
3.059059
 42
0.016751
 10
32.352059
 20
3.13318
 42
0.017252
 10
32.793452
 20
3.237522
 42
0.017944
 10
33.226508
 20
3.372652
 42
0.018848
 10
33.648574
 20
3.539267
 42
0.01999
 10
34.056564
 20
3.738157
 42
0.021398
 10
34.446832
 20
3.970127
 42
0.023097
 10
34.815038
 20
4.235882
 42
0.025104
 10
35.156021
 20
4.535845
 42
0.027406
 10
35.463708
 20
4.869864
 42
0.029942
 10
35.73113
 20
5.23682
 42
0.032566
 10
35.950658
 20
5.634129
 42
0.035027
 10
36.114557
 20
6.057233
 42
0.036979
 10
36.215945
 20
6.499303
 42
0.038002
 10
36.249999
 20
6.950682
  0
LWPOLYLINE
  5
F3
100
AcDbEntity
  8
0
  6
CONTINUOUS
 62
     7
100
AcDbPolyline
 90
       17
 70
     0
 43
0.0
 10
29.0
 20
3.0
 42
-0.01627
 10
28.54668
 20
3.014746
 42
-0.016428
 10
28.095348
 20
3.059059
 42
-0.016751
 10
27.647941
 20
3.13318
 42
-0.017252
 10
27.206548
 20
3.237522
 42
-0.017944
 10
26.773492
 20
3.372652
 42
-0.018848
 10
26.351426
 20
3.539267
 42
-0.01999
 10
25.943436
 20
3.738157
 42
-0.021398
 10
25.553168
 20
3.970127
 42
-0.023097
 10
25.184962
 20
4.235882
 42
-0.025104
 10
24.843979
 20
4.535845
 42
-0.027406
 10
24.536292
 20
4.869864
 42
-0.029942
 10
24.26887
 20
5.23682
 42
-0.032566
 10
24.049342
 20
5.634129
 42
-0.035027
 10
23.885443
 20
6.057233
 42
-0.036979
 10
23.784055
 20
6.499303
 42
-0.038002
 10
23.750001
 20
6.950682
  0
LWPOLYLINE
  5
106
100
AcDbEntity
  8
0
  6
CONTINUOUS
 62
     7
100
AcDbPolyline
 90
       17
 70
     0
 43
0.0
 10
31.0
 20
8.296999
 42
0.003449
 10
31.141093
 20
8.297972
 42
0.003464
 10
31.282168
 20
8.300895
 42
0.003495
 10
31.423205
 20
8.305782
 42
0.003541
 10
31.564179
 20
8.312653
 42
0.003605
 10
31.705066
 20
8.32154
 42
0.003687
 10
31.845839
 20
8.332481
 42
0.003789
 10
31.986468
 20
8.345529
 42
0.003915
 10
32.126921
 20
8.360746
 42
0.004067
 10
32.267158
 20
8.378208
 42
0.004249
 10
32.407137
 20
8.398005
 42
0.004467
 10
32.546807
 20
8.420247
 42
0.004729
 10
32.686108
 20
8.445063
 42
0.005043
 10
32.824966
 20
8.472608
 42
0.005423
 10
32.963294
 20
8.503068
 42
0.005885
 10
33.100979
 20
8.536664
 42
0.006454
 10
33.237883
 20
8.573668
  0
LWPOLYLINE
  5
119
100
AcDbEntity
  8
0
  6
CONTINUOUS
 62
     7
100
AcDbPolyline
 90
       17
 70
     0
 43
0.0
 10
29.0
 20
8.296999
 42
-0.003449
 10
28.858907
 20
8.297972
 42
-0.003464
 10
28.717832
 20
8.300895
 42
-0.003495
 10
28.576795
 20
8.305782
 42
-0.003541
 10
28.435821
 20
8.312653
 42
-0.003605
 10
28.294934
 20
8.32154
 42
-0.003687
 10
28.154161
 20
8.332481
 42
-0.003789
 10
28.013532
 20
8.345529
 42
-0.003915
 10
27.873079
 20
8.360746
 42
-0.004067
 10
27.732842
 20
8.378208
 42
-0.004249
 10
27.592863
 20
8.398005
 42
-0.004467
 10
27.453193
 20
8.420247
 42
-0.004729
 10
27.313892
 20
8.445063
 42
-0.005043
 10
27.175034
 20
8.472608
 42
-0.005423
 10
27.036706
 20
8.503068
 42
-0.005885
 10
26.899021
 20
8.536664
 42
-0.006454
 10
26.762117
 20
8.573668
  0
LWPOLYLINE
  5
12C
100
AcDbEntity
  8
0
  6
CONTINUOUS
 62
     7
100
AcDbPolyline
 90
       17
 70
     0
 43
0.0
 10
29.0
 20
-41.780689
 42
0.019782
 10
28.705735
 20
-41.792334
 42
0.019874
 10
28.412684
 20
-41.827325
 42
0.019958
 10
28.123539
 20
-41.885481
 42
0.020133
 10
27.83956
 20
-41.966723
 42
0.020323
 10
27.563089
 20
-42.070641
 42
0.020557
 10
27.296029
 20
-42.196783
 42
0.020829
 10
27.040302
 20
-42.344572
 42
0.021135
 10
26.797849
 20
-42.513281
 42
0.021467
 10
26.570616
 20
-42.702018
 42
0.021818
 10
26.360536
 20
-42.909704
 42
0.022176
 10
26.169503
 20
-43.135059
 42
0.022532
 10
25.999346
 20
-43.376582
 42
0.022872
 10
25.851785
 20
-43.632546
 42
0.023183
 10
25.728391
 20
-43.900999
 42
0.023452
 10
25.630536
 20
-44.179772
 42
0.023667
 10
25.559351
 20
-44.4665
  0
LWPOLYLINE
  5
13F
100
AcDbEntity
  8
0
  6
CONTINUOUS
 62
     7
100
AcDbPolyline
 90
       17
 70
     0
 43
0.0
 10
31.0
 20
-41.780689
 42
-0.019782
 10
31.294265
 20
-41.792334
 42
-0.019874
 10
31.587316
 20
-41.827325
 42
-0.019958
 10
31.876461
 20
-41.885481
 42
-0.020133
 10
32.16044
 20
-41.966723
 42
-0.020323
 10
32.436911
 20
-42.070641
 42
-0.020557
 10
32.703971
 20
-42.196783
 42
-0.020829
 10
32.959698
 20
-42.344572
 42
-0.021135
 10
33.202151
 20
-42.513281
 42
-0.021467
 10
33.429384
 20
-42.702018
 42
-0.021818
 10
33.639464
 20
-42.909704
 42
-0.022176
 10
33.830497
 20
-43.135059
 42
-0.022532
 10
34.000654
 20
-43.376582
 42
-0.022872
 10
34.148215
 20
-43.632546
 42
-0.023183
 10
34.271609
 20
-43.900999
 42
-0.023452
 10
34.369464
 20
-44.179772
 42
-0.023667
 10
34.440649
 20
-44.4665
  0
LWPOLYLINE
  5
152
100
AcDbEntity
  8
0
  6
CONTINUOUS
 62
     7
100
AcDbPolyline
 90
       17
 70
     0
 43
0.0
 10
29.0
 20
-40.576362
 42
0.039748
 10
28.411471
 20
-40.623192
 42
0.040204
 10
27.836996
 20
-40.763244
 42
0.040965
 10
27.292773
 20
-40.994163
 42
0.042059
 10
26.79412
 20
-41.311794
 42
0.043396
 10
26.356611
 20
-41.709618
 42
0.044836
 10
25.995613
 20
-42.178108
 42
0.046194
 10
25.725347
 20
-42.704223
 42
0.047258
 10
25.557551
 20
-43.271305
 42
0.047844
 10
25.500005
 20
-43.859743
 42
0.047792
 10
25.555311
 20
-44.447679
 42
0.047205
 10
25.720642
 20
-45.014558
 42
0.046181
 10
25.988552
 20
-45.541307
 42
0.044844
 10
26.347466
 20
-46.011008
 42
0.043417
 10
26.783274
 20
-46.410468
 42
0.042094
 10
27.280775
 20
-46.730078
 42
0.041005
 10
27.824388
 20
-46.963127
  0
LWPOLYLINE
  5
165
100
AcDbEntity
  8
0
  6
CONTINUOUS
 62
     7
100
AcDbPolyline
 90
       17
 70
     0
 43
0.0
 10
31.0
 20
-40.576362
 42
-0.039748
 10
31.588529
 20
-40.623192
 42
-0.040204
 10
32.163004
 20
-40.763244
 42
-0.040965
 10
32.707227
 20
-40.994163
 42
-0.042059
 10
33.20588
 20
-41.311794
 42
-0.043396
 10
33.643389
 20
-41.709618
 42
-0.044836
 10
34.004387
 20
-42.178108
 42
-0.046194
 10
34.274653
 20
-42.704223
 42
-0.047258
 10
34.442449
 20
-43.271305
 42
-0.047844
 10
34.499995
 20
-43.859743
 42
-0.047792
 10
34.444689
 20
-44.447679
 42
-0.047205
 10
34.279358
 20
-45.014558
 42
-0.046181
 10
34.011448
 20
-45.541307
 42
-0.044844
 10
33.652534
 20
-46.011008
 42
-0.043417
 10
33.216726
 20
-46.410468
 42
-0.042094
 10
32.719225
 20
-46.730078
 42
-0.041005
 10
32.175612
 20
-46.963127
  0
LWPOLYLINE
  5
178
100
AcDbEntity
  8
0
  6
CONTINUOUS
 62
     7
100
AcDbPolyline
 90
       17
 70
     0
 43
0.0
 10
26.161378
 20
-38.005111
 42
0.038903
 10
25.500221
 20
-38.477869
 42
0.040063
 10
24.921483
 20
-39.048765
 42
0.041272
 10
24.442717
 20
-39.705906
 42
0.042396
 10
24.080033
 20
-40.433617
 42
0.043283
 10
23.846754
 20
-41.212416
 42
0.043798
 10
23.751983
 20
-42.019598
 42
0.043827
 10
23.799351
 20
-42.830034
 42
0.043473
 10
23.986911
 20
-43.620455
 42
0.042669
 10
24.307023
 20
-44.366653
 42
0.041646
 10
24.748172
 20
-45.049143
 42
0.040455
 10
25.294904
 20
-45.650384
 42
0.039278
 10
25.930203
 20
-46.157311
 42
0.038226
 10
26.636246
 20
-46.560247
 42
0.037377
 10
27.395031
 20
-46.852388
 42
0.036783
 10
28.188675
 20
-47.029307
 42
0.036495
 10
29.0
 20
-47.088573
  0
LWPOLYLINE
  5
18B
100
AcDbEntity
  8
0
  6
CONTINUOUS
 62
     7
100
AcDbPolyline
 90
       17
 70
     0
 43
0.0
 10
33.838622
 20
-38.005111
 42
-0.038903
 10
34.499779
 20
-38.477869
 42
-0.040063
 10
35.078517
 20
-39.048765
 42
-0.041272
 10
35.557283
 20
-39.705906
 42
-0.042396
 10
35.919967
 20
-40.433617
 42
-0.043283
 10
36.153246
 20
-41.212416
 42
-0.043798
 10
36.248017
 20
-42.019598
 42
-0.043827
 10
36.200649
 20
-42.830034
 42
-0.043473
 10
36.013089
 20
-43.620455
 42
-0.042669
 10
35.692977
 20
-44.366653
 42
-0.041646
 10
35.251828
 20
-45.049143
 42
-0.040455
 10
34.705096
 20
-45.650384
 42
-0.039278
 10
34.069797
 20
-46.157311
 42
-0.038226
 10
33.363754
 20
-46.560247
 42
-0.037377
 10
32.604969
 20
-46.852388
 42
-0.036783
 10
31.811325
 20
-47.029307
 42
-0.036495
 10
31.0
 20
-47.088573
  0
LWPOLYLINE
  5
19E
100
AcDbEntity
  8
0
  6
CONTINUOUS
 62
     7
100
AcDbPolyline
 90
       17
 70
     0
 43
0.0
 10
10.154561
 20
-36.042297
 42
0.00862
 10
9.59699
 20
-35.993387
 42
0.008734
 10
9.03795
 20
-35.963834
 42
0.008971
 10
8.478009
 20
-35.954069
 42
0.009345
 10
7.917789
 20
-35.964802
 42
0.009881
 10
7.358013
 20
-35.997059
 42
0.010621
 10
6.799567
 20
-36.052249
 42
0.011625
 10
6.243594
 20
-36.132256
 42
0.012991
 10
5.691638
 20
-36.239581
 42
0.014798
 10
5.148253
 20
-36.37687
 42
0.017382
 10
4.614795
 20
-36.548697
 42
0.021099
 10
4.096078
 20
-36.760832
 42
0.02662
 10
3.599849
 20
-37.021108
 42
0.035078
 10
3.139268
 20
-37.33994
 42
0.048095
 10
2.737567
 20
-37.729763
 42
0.066537
 10
2.433979
 20
-38.200811
 42
0.083174
 10
2.284568
 20
-38.737727
  0
LWPOLYLINE
  5
1B1
100
AcDbEntity
  8
0
  6
CONTINUOUS
 62
     7
100
AcDbPolyline
 90
       17
 70
     0
 43
0.0
 10
10.982782
 20
-36.129348
 42
0.00862
 10
10.425211
 20
-36.080439
 42
0.008734
 10
9.866171
 20
-36.050885
 42
0.008971
 10
9.30623
 20
-36.04112
 42
0.009345
 10
8.746011
 20
-36.051853
 42
0.009881
 10
8.186234
 20
-36.084111
 42
0.010621
 10
7.627788
 20
-36.139301
 42
0.011625
 10
7.071815
 20
-36.219308
 42
0.012991
 10
6.519859
 20
-36.326632
 42
0.014798
 10
5.976474
 20
-36.463922
 42
0.017382
 10
5.443016
 20
-36.635749
 42
0.021099
 10
4.924299
 20
-36.847884
 42
0.02662
 10
4.42807
 20
-37.10816
 42
0.035078
 10
3.967488
 20
-37.426991
 42
0.048095
 10
3.565788
 20
-37.816815
 42
0.066537
 10
3.2622
 20
-38.287863
 42
0.083174
 10
3.112788
 20
-38.824778
  0
LINE
  5
1C4
100
AcDbEntity
  8
0
  6
CONTINUOUS
 62
     7
100
AcDbLine
 10
90.285466
 20
-50.505313
 30
0.0
 11
92.077576
 21
-48.7132
 31
0.0
  0
LINE
  5
1C5
100
AcDbEntity
  8
0
  6
CONTINUOUS
 62
     7
100
AcDbLine
 10
88.040405
 20
-50.505313
 30
0.0
 11
90.431599
 21
-48.114114
 31
0.0
  0
LINE
  5
1C6
100
AcDbEntity
  8
0
  6
CONTINUOUS
 62
     7
100
AcDbLine
 10
85.795343
 20
-50.505313
 30
0.0
 11
88.785622
 21
-47.515028
 31
0.0
  0
LINE
  5
1C7
100
AcDbEntity
  8
0
  6
CONTINUOUS
 62
     7
100
AcDbLine
 10
83.550295
 20
-50.505299
 30
0.0
 11
85.774287
 21
-48.281302
 31
0.0
  0
LINE
  5
1C8
100
AcDbEntity
  8
0
  6
CONTINUOUS
 62
     7
100
AcDbLine
 10
82.497292
 20
-49.313238
 30
0.0
 11
84.128311
 21
-47.682216
 31
0.0
  0
LINE
  5
1C9
100
AcDbEntity
  8
0
  6
CONTINUOUS
 62
     7
100
AcDbLine
 10
92.601081
 20
-41.454495
 30
0.0
 11
93.497292
 21
-40.558282
 31
0.0
  0
LINE
  5
1CA
100
AcDbEntity
  8
0
  6
CONTINUOUS
 62
     7
100
AcDbLine
 10
90.955105
 20
-40.855408
 30
0.0
 11
93.151246
 21
-38.659263
 31
0.0
  0
LINE
  5
1CB
100
AcDbEntity
  8
0
  6
CONTINUOUS
 62
     7
100
AcDbLine
 10
90.674487
 20
-38.890961
 30
0.0
 11
91.560136
 21
-38.00531
 31
0.0
  0
LINE
  5
1CC
100
AcDbEntity
  8
0
  6
CONTINUOUS
 62
     7
100
AcDbLine
 10
89.02851
 20
-38.291874
 30
0.0
 11
89.315074
 21
-38.00531
 31
0.0
  0
TEXT
  5
1CF
100
AcDbEntity
  8
0
  6
CONTINUOUS
100
AcDbText
 10
8.705803
 20
-76.777792
 30
0.0
 40
6.0
  1
CSKPR10CA
100
AcDbText
  0
DIMENSION
  5
203
100
AcDbEntity
  8
寸法
  6
CONTINUOUS
100
AcDbDimension
  2
*D1
 10
100.0
 20
-50.505313
 30
0.0
 11
97.5
 21
-48.00531
 31
0.0
 70
    32
  3
STANDARD
100
AcDbAlignedDimension
 13
93.497292
 23
-45.505307
 33
0.0
 14
92.428727
 24
-50.505313
 34
0.0
 50
90.0
100
AcDbRotatedDimension
  0
LINE
  5
212
102
{ACAD_REACTORS
330
21A
102
}
100
AcDbEntity
  8
寸法
  6
CONTINUOUS
 62
     1
100
AcDbLine
 10
96.579747
 20
-46.627229
 30
0.0
 11
109.466502
 21
-51.317622
 31
0.0
  0
LINE
  5
213
102
{ACAD_REACTORS
330
21A
102
}
100
AcDbEntity
  8
寸法
  6
CONTINUOUS
 62
     1
100
AcDbLine
 10
93.497292
 20
-45.505307
 30
0.0
 11
110.49137
 21
-45.505307
 31
0.0
  0
ARC
  5
214
102
{ACAD_REACTORS
330
21A
102
}
100
AcDbEntity
  8
寸法
  6
CONTINUOUS
 62
     1
100
AcDbCircle
 10
93.497292
 20
-45.505307
 30
0.0
 40
15.994078
100
AcDbArc
 50
332.830706
 51
340.000006
  0
LINE
  5
215
102
{ACAD_REACTORS
330
21A
102
}
100
AcDbEntity
  8
寸法
  6
CONTINUOUS
 62
     1
100
AcDbLine
 10
107.726603
 20
-52.808542
 30
0.0
 11
102.658108
 21
-62.683782
 31
0.0
  0
ARC
  5
216
102
{ACAD_REACTORS
330
21A
102
}
100
AcDbEntity
  8
寸法
  6
CONTINUOUS
 62
     1
100
AcDbCircle
 10
93.497292
 20
-45.505307
 30
0.0
 40
15.994078
100
AcDbArc
 50
347.169307
 51
352.830699
  0
INSERT
  5
217
102
{ACAD_REACTORS
330
21A
102
}
100
AcDbEntity
  8
寸法
  6
CONTINUOUS
 62
     1
100
AcDbBlockReference
  2
_OPEN30
 10
108.52681
 20
-50.975602
 30
0.0
 41
2.0
 42
2.0
 43
2.0
 50
253.584657
  0
INSERT
  5
218
102
{ACAD_REACTORS
330
21A
102
}
100
AcDbEntity
  8
寸法
  6
CONTINUOUS
 62
     1
100
AcDbBlockReference
  2
_OPEN30
 10
109.49137
 20
-45.505307
 30
0.0
 41
2.0
 42
2.0
 43
2.0
 50
86.41535
  0
MTEXT
  5
219
102
{ACAD_REACTORS
330
21A
102
}
100
AcDbEntity
  8
寸法
  6
CONTINUOUS
 62
     1
100
AcDbMText
 10
102.968202
 20
-56.604609
 30
0.0
 40
3.0
 41
0.0
 71
     5
 72
     1
  1
\A1;20°
 11
0.456621
 21
0.889661
 31
0.0
1001
ACAD
1000
MTEXTBEGIN
1070
    73
1070
     1
1070
    44
1040
1.0
1070
    74
1070
     0
1000
MTEXTEND
1000
MTEXTBEGIN
1070
    73
1070
     1
1070
    44
1040
1.0
1070
    74
1070
     0
1000
MTEXTEND
  0
DIMENSION
  5
226
100
AcDbEntity
  8
寸法
  6
CONTINUOUS
100
AcDbDimension
  2
*D2
 10
29.0
 20
-60.0
 30
0.0
 11
23.0
 21
-57.5
 31
0.0
 70
    32
  3
STANDARD
100
AcDbAlignedDimension
 13
31.0
 23
-53.428722
 33
0.0
 14
29.0
 24
-53.428722
 34
0.0
100
AcDbRotatedDimension
  0
DIMENSION
  5
235
100
AcDbEntity
  8
寸法
  6
CONTINUOUS
100
AcDbDimension
  2
*D3
 10
60.0
 20
-50.505313
 30
0.0
 11
57.5
 21
-44.255311
 31
0.0
 70
    32
  3
STANDARD
100
AcDbAlignedDimension
 13
42.0
 23
-38.00531
 33
0.0
 14
42.0
 24
-50.505313
 34
0.0
 50
90.0
100
AcDbRotatedDimension
  0
DIMENSION
  5
242
100
AcDbEntity
  8
寸法
  6
CONTINUOUS
100
AcDbDimension
  2
*D4
 10
-10.0
 20
-50.505313
 30
0.0
 11
-12.5
 21
-45.505311
 31
0.0
 70
    32
  1
10
  3
STANDARD
100
AcDbAlignedDimension
 13
0.0
 23
-40.50531
 33
0.0
 14
-2.0
 24
-50.505313
 34
0.0
 50
90.0
100
AcDbRotatedDimension
  0
DIMENSION
  5
250
100
AcDbEntity
  8
寸法
  6
CONTINUOUS
100
AcDbDimension
  2
*D5
 10
30.0
 20
-30.0
 30
0.0
 11
40.0
 21
-27.5
 31
0.0
 70
    32
  3
STANDARD
100
AcDbAlignedDimension
 13
50.0
 23
-42.50531
 33
0.0
 14
30.0
 24
-33.30202
 34
0.0
100
AcDbRotatedDimension
  0
DIMENSION
  5
25D
100
AcDbEntity
  8
寸法
  6
CONTINUOUS
100
AcDbDimension
  2
*D6
 10
0.0
 20
-20.0
 30
0.0
 11
25.0
 21
-17.5
 31
0.0
 70
    32
  3
STANDARD
100
AcDbAlignedDimension
 13
50.0
 23
6.5
 33
0.0
 14
0.0
 24
0.0
 34
0.0
100
AcDbRotatedDimension
  0
DIMENSION
  5
26A
100
AcDbEntity
  8
寸法
  6
CONTINUOUS
100
AcDbDimension
  2
*D7
 10
42.0
 20
-10.0
 30
0.0
 11
46.0
 21
-7.5
 31
0.0
 70
    32
  3
STANDARD
100
AcDbAlignedDimension
 13
50.0
 23
6.5
 33
0.0
 14
42.0
 24
3.0
 34
0.0
100
AcDbRotatedDimension
1001
ACAD
1000
DSTYLE
1002
{
1070
   287
1070
     4
1070
   287
1070
     4
1070
   279
1070
     1
1002
}
  0
DIMENSION
  5
280
100
AcDbEntity
  8
寸法
  6
CONTINUOUS
100
AcDbDimension
  2
*D8
 10
60.0
 20
3.0
 30
0.0
 11
57.5
 21
8.5
 31
0.0
 70
    32
  3
STANDARD
100
AcDbAlignedDimension
 13
42.0
 23
14.0
 33
0.0
 14
42.0
 24
3.0
 34
0.0
 50
90.0
100
AcDbRotatedDimension
  0
DIMENSION
  5
28D
100
AcDbEntity
  8
寸法
  6
CONTINUOUS
100
AcDbDimension
  2
*D9
 10
-10.0
 20
14.0
 30
0.0
 11
-12.5
 21
7.0
 31
0.0
 70
    32
  3
STANDARD
100
AcDbAlignedDimension
 13
0.0
 23
0.0
 33
0.0
 14
-2.0
 24
14.0
 34
0.0
 50
90.0
100
AcDbRotatedDimension
  0
DIMENSION
  5
29B
100
AcDbEntity
  8
寸法
  6
CONTINUOUS
100
AcDbDimension
  2
*D10
 10
-16.582587
 20
0.0
 30
0.0
 11
-2.198573
 21
2.988593
 31
0.0
 70
   162
  3
STANDARD
100
AcDb2LineAngularDimension
 13
-2.21002
 23
8.247906
 33
0.0
 14
-0.158879
 24
0.592945
 34
0.0
 15
0.0
 25
0.0
 35
0.0
 16
-3.362562
 26
1.567988
 36
0.0
1001
ACAD
1000
DSTYLE
1002
{
1070
   271
1070
     0
1070
   271
1070
     0
1002
}
  0
LINE
  5
2B3
100
AcDbEntity
  8
0
  6
CENTER
 62
     1
 48
0.5
100
AcDbLine
 10
-30.180828
 20
0.0
 30
0.0
 11
-30.180828
 21
19.0
 31
0.0
  0
ARC
  5
2B5
100
AcDbEntity
  8
0
  6
CENTER
 62
     1
 48
0.5
100
AcDbCircle
 10
-30.180828
 20
19.0
 30
0.0
 40
19.0
100
AcDbArc
 50
180.0
 51
270.0
  0
DIMENSION
  5
2B6
100
AcDbEntity
  8
寸法
  6
CONTINUOUS
100
AcDbDimension
  2
*D11
 10
-30.180828
 20
19.0
 30
0.0
 11
-56.57507
 21
9.325601
 31
0.0
 70
    36
  1
%%c38
  3
STANDARD
100
AcDbRadialDimension
 15
-47.368051
 25
10.900655
 35
0.0
 40
0.0
1001
ACAD
1000
DSTYLE
1002
{
1070
   288
1070
     1
1002
}
  0
MTEXT
  5
2DD
100
AcDbEntity
  8
寸法
  6
CONTINUOUS
 62
     1
100
AcDbMText
 10
-39.771725
 20
-38.005313
 30
0.0
 40
3.0
 41
0.0
 71
     5
 72
     1
  1
0%%d
1001
ACAD
1000
MTEXTBEGIN
1070
    73
1070
     1
1070
    44
1040
1.0
1070
    74
1070
     0
1000
MTEXTEND
1000
MTEXTBEGIN
1070
    73
1070
     1
1070
    44
1040
1.0
1070
    74
1070
     0
1000
MTEXTEND
1000
MTEXTBEGIN
1070
    73
1070
     1
1070
    44
1040
1.0
1070
    74
1070
     0
1000
MTEXTEND
1000
MTEXTBEGIN
1070
    73
1070
     1
1070
    44
1040
1.0
1070
    74
1070
     0
1000
MTEXTEND
  0
MTEXT
  5
2DE
100
AcDbEntity
  8
寸法
  6
CONTINUOUS
 62
     1
100
AcDbMText
 10
-25.34123
 20
-50.192987
 30
0.0
 40
3.0
 41
0.0
 71
     5
 72
     1
  1
+6%%d
1001
ACAD
1000
MTEXTBEGIN
1070
    73
1070
     1
1070
    44
1040
1.0
1070
    74
1070
     0
1000
MTEXTEND
1000
MTEXTBEGIN
1070
    73
1070
     1
1070
    44
1040
1.0
1070
    74
1070
     0
1000
MTEXTEND
1000
MTEXTBEGIN
1070
    73
1070
     1
1070
    44
1040
1.0
1070
    74
1070
     0
1000
MTEXTEND
1000
MTEXTBEGIN
1070
    73
1070
     1
1070
    44
1040
1.0
1070
    74
1070
     0
1000
MTEXTEND
  0
LINE
  5
2DF
100
AcDbEntity
  8
寸法
  6
CONTINUOUS
100
AcDbLine
 10
-40.180828
 20
-40.505313
 30
0.0
 11
-38.766614
 21
-42.954802
 31
30.0
  0
LINE
  5
2E0
100
AcDbEntity
  8
寸法
  6
CONTINUOUS
100
AcDbLine
 10
-40.180828
 20
-40.505313
 30
0.0
 11
-41.595042
 21
-42.954802
 31
30.0
  0
LINE
  5
2E1
100
AcDbEntity
  8
寸法
  6
CONTINUOUS
100
AcDbLine
 10
-30.180828
 20
-50.505313
 30
0.0
 11
-32.630318
 21
-51.919526
 31
30.0
  0
LINE
  5
2E2
100
AcDbEntity
  8
寸法
  6
CONTINUOUS
100
AcDbLine
 10
-30.180828
 20
-50.505313
 30
0.0
 11
-32.630318
 21
-49.091099
 31
30.0
  0
LINE
  5
2E3
100
AcDbEntity
  8
寸法
  6
CONTINUOUS
100
AcDbLine
 10
-40.180828
 20
-50.505313
 30
0.0
 11
-40.180828
 21
-40.505313
 31
0.0
  0
LINE
  5
2E4
100
AcDbEntity
  8
寸法
  6
CONTINUOUS
100
AcDbLine
 10
-40.180828
 20
-50.505313
 30
0.0
 11
-30.180828
 21
-50.505313
 31
0.0
  0
CIRCLE
  5
374
100
AcDbEntity
  8
0
  6
CONTINUOUS
100
AcDbCircle
 10
13.087435
 20
8.241191
 30
0.0
 40
4.399999
  0
ENDSEC
  0
SECTION
  2
OBJECTS
  0
DICTIONARY
  5
C
100
AcDbDictionary
  3
ACAD_GROUP
350
D
  3
ACAD_LAYOUT
350
1D4
  3
ACAD_MLINESTYLE
350
1B
  3
ACAD_PLOTSETTINGS
350
1D5
  3
ACAD_PLOTSTYLENAME
350
1D2
  3
ACDBHEADERROUNDTRIPXREC
350
332
  0
DICTIONARY
  5
32E
100
AcDbDictionary
280
     1
  3
ACAD_XREC_ROUNDTRIP
360
32F
  0
DICTIONARY
  5
355
100
AcDbDictionary
280
     1
  3
ACAD_XREC_ROUNDTRIP
360
356
  0
DICTIONARY
  5
30F
100
AcDbDictionary
280
     1
  3
ACAD_LAYOUTSELFREF
360
354
  0
DICTIONARY
  5
30D
100
AcDbDictionary
280
     1
  3
ACAD_LAYOUTSELFREF
360
353
  0
DICTIONARY
  5
32C
100
AcDbDictionary
280
     1
  3
ACAD_XREC_ROUNDTRIP
360
32D
  0
DICTIONARY
  5
D
102
{ACAD_REACTORS
330
C
102
}
100
AcDbDictionary
  3
*A1
350
21A
  0
DICTIONARY
  5
1D4
102
{ACAD_XDICTIONARY
360
357
102
}
102
{ACAD_REACTORS
330
C
102
}
100
AcDbDictionary
  3
MODEL
350
1D6
  3
ﾚｲｱｳﾄ1
350
1D7
  0
DICTIONARY
  5
1B
102
{ACAD_REACTORS
330
C
102
}
100
AcDbDictionary
  3
STANDARD
350
1C
  0
DICTIONARY
  5
1D5
102
{ACAD_REACTORS
330
C
102
}
100
AcDbDictionary
  0
ACAD_PROXY_OBJECT
  5
1D2
102
{ACAD_REACTORS
330
C
102
}
100
AcDbProxyObject
 90
      499
 91
      500
 93
       86
310
405010041939BDC9B585B0
350
1D3
340
1D3
 94
        0
  0
DICTIONARY
  5
332
102
{ACAD_REACTORS
330
C
102
}
100
AcDbDictionary
  3
CEPSNTYPE
350
33C
  3
DIMSTYLEDATA
350
340
  3
FINGERPRINTGUID
350
33D
  3
HYPERLINKBASE
350
335
  3
INSUNITS
350
33B
  3
LAYOUTDICT
350
337
  3
LWETCUNION
350
33A
  3
PLOTSETDICT
350
338
  3
PLOTSTYLNAMDICT
350
339
  3
PSVPSCALE
350
33F
  3
PUCSBASE
350
343
  3
PUCSORGBACK
350
349
  3
PUCSORGBOTTOM
350
345
  3
PUCSORGFRONT
350
348
  3
PUCSORGLEFT
350
346
  3
PUCSORGRIGHT
350
347
  3
PUCSORGTOP
350
344
  3
PUCSORTHOREF
350
341
  3
PUCSORTHOVIEW
350
342
  3
STYLESHEET
350
336
  3
TSTACKALIGN
350
333
  3
TSTACKSIZE
350
334
  3
UCSBASE
350
34C
  3
UCSORGBACK
350
352
  3
UCSORGBOTTOM
350
34E
  3
UCSORGFRONT
350
351
  3
UCSORGLEFT
350
34F
  3
UCSORGRIGHT
350
350
  3
UCSORGTOP
350
34D
  3
UCSORTHOREF
350
34A
  3
UCSORTHOVIEW
350
34B
  3
VERSIONGUID
350
33E
  0
XRECORD
  5
32F
102
{ACAD_REACTORS
330
32E
102
}
100
AcDbXrecord
102
EXTNAMES
  1
DEFPOINTS
  2
Defpoints
102
PLOTBIT
280
     0
  0
XRECORD
  5
356
102
{ACAD_REACTORS
330
355
102
}
100
AcDbXrecord
102
ACADR14ROUNDTRIP
1000
DSTYLE
1002
{
1070
   341
340
1DC
1070
   342
340
1DC
1002
}
  0
XRECORD
  5
354
102
{ACAD_REACTORS
330
30F
102
}
100
AcDbXrecord
340
18
  0
XRECORD
  5
353
102
{ACAD_REACTORS
330
30D
102
}
100
AcDbXrecord
340
15
  0
XRECORD
  5
32D
102
{ACAD_REACTORS
330
32C
102
}
100
AcDbXrecord
102
EXTNAMES
  1
_OPEN30
  2
_Open30
  0
GROUP
  5
21A
102
{ACAD_REACTORS
330
D
102
}
100
AcDbGroup
300

 70
     1
 71
     1
340
213
340
214
340
212
340
219
340
215
340
217
340
216
340
218
  0
DICTIONARY
  5
357
100
AcDbDictionary
280
     1
  3
ACAD_XREC_ROUNDTRIP
360
358
  0
ACAD_PROXY_OBJECT
  5
1D6
102
{ACAD_REACTORS
330
1D4
102
}
100
AcDbProxyObject
 90
      499
 91
      502
 93
      548
310
90E4550534F4E20504D2D32303030432C01AAAAAAAAA5A69054D6F64656C901A800000000000000000000000000000000000000000000A1000000000000008902A6A6AAAA0
330
18
330
0
340
0
340
0
 94
        0
  0
ACAD_PROXY_OBJECT
  5
1D7
102
{ACAD_REACTORS
330
1D4
102
}
100
AcDbProxyObject
 90
      499
 91
      502
 93
      964
310
90E4550534F4E20504D2D32303030432C00AAAAAA416AA59106906DAB2B1B3C43140501A800000000000000000000000000000000000000000000A1000000000000008902A6A6A10232D5E076BC5510408CB5781DAF154410232D5E076BC5510408CB5781DAF15C410232D5E076BC5710408CB5781DAF15C43
330
15
330
0
340
0
340
0
 94
        0
  0
MLINESTYLE
  5
1C
102
{ACAD_REACTORS
330
1B
102
}
100
AcDbMlineStyle
  2
STANDARD
 70
     0
  3

 62
   256
 51
90.0
 52
90.0
 71
     2
 49
0.5
 62
   256
  6
BYLAYER
 49
-0.5
 62
   256
  6
BYLAYER
  0
ACAD_PROXY_OBJECT
  5
1D3
102
{ACAD_REACTORS
330
1D2
102
}
100
AcDbProxyObject
 90
      499
 91
      501
 93
        0
 94
        0
  0
XRECORD
  5
33C
102
{ACAD_REACTORS
330
332
102
}
100
AcDbXrecord
 90
        0
  0
XRECORD
  5
340
102
{ACAD_REACTORS
330
332
102
}
100
AcDbXrecord
1000
DSTYLE
1002
{
1070
   341
340
1DC
1070
   342
340
1DC
1002
}
  0
XRECORD
  5
33D
102
{ACAD_REACTORS
330
332
102
}
100
AcDbXrecord
  1
{DEED71E5-A83E-421D-BA4C-4C3337755E6B}
  0
XRECORD
  5
335
102
{ACAD_REACTORS
330
332
102
}
100
AcDbXrecord
  1

  0
XRECORD
  5
33B
102
{ACAD_REACTORS
330
332
102
}
100
AcDbXrecord
 90
        0
  0
XRECORD
  5
337
102
{ACAD_REACTORS
330
332
102
}
100
AcDbXrecord
340
1D4
  0
XRECORD
  5
33A
102
{ACAD_REACTORS
330
332
102
}
100
AcDbXrecord
 90
    14877
  0
XRECORD
  5
338
102
{ACAD_REACTORS
330
332
102
}
100
AcDbXrecord
340
1D5
  0
XRECORD
  5
339
102
{ACAD_REACTORS
330
332
102
}
100
AcDbXrecord
340
1D2
  0
XRECORD
  5
33F
102
{ACAD_REACTORS
330
332
102
}
100
AcDbXrecord
 40
0.0
  0
XRECORD
  5
343
102
{ACAD_REACTORS
330
332
102
}
100
AcDbXrecord
340
0
  0
XRECORD
  5
349
102
{ACAD_REACTORS
330
332
102
}
100
AcDbXrecord
 10
0.0
 20
0.0
 30
0.0
  0
XRECORD
  5
345
102
{ACAD_REACTORS
330
332
102
}
100
AcDbXrecord
 10
0.0
 20
0.0
 30
0.0
  0
XRECORD
  5
348
102
{ACAD_REACTORS
330
332
102
}
100
AcDbXrecord
 10
0.0
 20
0.0
 30
0.0
  0
XRECORD
  5
346
102
{ACAD_REACTORS
330
332
102
}
100
AcDbXrecord
 10
0.0
 20
0.0
 30
0.0
  0
XRECORD
  5
347
102
{ACAD_REACTORS
330
332
102
}
100
AcDbXrecord
 10
0.0
 20
0.0
 30
0.0
  0
XRECORD
  5
344
102
{ACAD_REACTORS
330
332
102
}
100
AcDbXrecord
 10
0.0
 20
0.0
 30
0.0
  0
XRECORD
  5
341
102
{ACAD_REACTORS
330
332
102
}
100
AcDbXrecord
340
0
  0
XRECORD
  5
342
102
{ACAD_REACTORS
330
332
102
}
100
AcDbXrecord
 70
     0
  0
XRECORD
  5
336
102
{ACAD_REACTORS
330
332
102
}
100
AcDbXrecord
  1

  0
XRECORD
  5
333
102
{ACAD_REACTORS
330
332
102
}
100
AcDbXrecord
 90
        1
  0
XRECORD
  5
334
102
{ACAD_REACTORS
330
332
102
}
100
AcDbXrecord
 90
       70
  0
XRECORD
  5
34C
102
{ACAD_REACTORS
330
332
102
}
100
AcDbXrecord
340
0
  0
XRECORD
  5
352
102
{ACAD_REACTORS
330
332
102
}
100
AcDbXrecord
 10
0.0
 20
0.0
 30
0.0
  0
XRECORD
  5
34E
102
{ACAD_REACTORS
330
332
102
}
100
AcDbXrecord
 10
0.0
 20
0.0
 30
0.0
  0
XRECORD
  5
351
102
{ACAD_REACTORS
330
332
102
}
100
AcDbXrecord
 10
0.0
 20
0.0
 30
0.0
  0
XRECORD
  5
34F
102
{ACAD_REACTORS
330
332
102
}
100
AcDbXrecord
 10
0.0
 20
0.0
 30
0.0
  0
XRECORD
  5
350
102
{ACAD_REACTORS
330
332
102
}
100
AcDbXrecord
 10
0.0
 20
0.0
 30
0.0
  0
XRECORD
  5
34D
102
{ACAD_REACTORS
330
332
102
}
100
AcDbXrecord
 10
0.0
 20
0.0
 30
0.0
  0
XRECORD
  5
34A
102
{ACAD_REACTORS
330
332
102
}
100
AcDbXrecord
340
0
  0
XRECORD
  5
34B
102
{ACAD_REACTORS
330
332
102
}
100
AcDbXrecord
 70
     0
  0
XRECORD
  5
33E
102
{ACAD_REACTORS
330
332
102
}
100
AcDbXrecord
  1
{92082F32-D011-4CEA-BC92-23C2B52F03C7}
  0
XRECORD
  5
358
102
{ACAD_REACTORS
330
357
102
}
100
AcDbXrecord
102
EXTNAMES
  1
MODEL
  2
Model
  0
ENDSEC
  0
EOF
