  0
SECTION
  2
HEADER
  9
$ACADVER
  1
AC1014
  9
$ACADMAINTVER
 70
     0
  9
$DWGCODEPAGE
  3
ANSI_932
  9
$INSBASE
 10
0.0
 20
0.0
 30
0.0
  9
$EXTMIN
 10
-95.605032
 20
-98.832529
 30
0.0
  9
$EXTMAX
 10
133.130316
 20
30.37636
 30
30.0
  9
$LIMMIN
 10
-160.0
 20
-150.0
  9
$LIMMAX
 10
220.0
 20
90.0
  9
$ORTHOMODE
 70
     1
  9
$REGENMODE
 70
     1
  9
$FILLMODE
 70
     1
  9
$QTEXTMODE
 70
     0
  9
$MIRRTEXT
 70
     1
  9
$DRAGMODE
 70
     2
  9
$LTSCALE
 40
1.0
  9
$OSMODE
 70
    33
  9
$ATTMODE
 70
     1
  9
$TEXTSIZE
 40
0.2
  9
$TRACEWID
 40
0.05
  9
$TEXTSTYLE
  7
STANDARD
  9
$CLAYER
  8
0
  9
$CELTYPE
  6
CONTINUOUS
  9
$CECOLOR
 62
   256
  9
$CELTSCALE
 40
1.0
  9
$DELOBJ
 70
     1
  9
$DISPSILH
 70
     0
  9
$DIMSCALE
 40
1.0
  9
$DIMASZ
 40
2.0
  9
$DIMEXO
 40
1.0
  9
$DIMDLI
 40
10.0
  9
$DIMRND
 40
0.0
  9
$DIMDLE
 40
0.0
  9
$DIMEXE
 40
1.0
  9
$DIMTP
 40
0.0
  9
$DIMTM
 40
0.0
  9
$DIMTXT
 40
3.0
  9
$DIMCEN
 40
2.0
  9
$DIMTSZ
 40
0.0
  9
$DIMTOL
 70
     0
  9
$DIMLIM
 70
     0
  9
$DIMTIH
 70
     0
  9
$DIMTOH
 70
     0
  9
$DIMSE1
 70
     0
  9
$DIMSE2
 70
     0
  9
$DIMTAD
 70
     1
  9
$DIMZIN
 70
     8
  9
$DIMBLK
  1
OPEN30
  9
$DIMASO
 70
     1
  9
$DIMSHO
 70
     1
  9
$DIMPOST
  1

  9
$DIMAPOST
  1

  9
$DIMALT
 70
     0
  9
$DIMALTD
 70
     2
  9
$DIMALTF
 40
25.4
  9
$DIMLFAC
 40
1.0
  9
$DIMTOFL
 70
     1
  9
$DIMTVP
 40
0.0
  9
$DIMTIX
 70
     0
  9
$DIMSOXD
 70
     0
  9
$DIMSAH
 70
     0
  9
$DIMBLK1
  1

  9
$DIMBLK2
  1

  9
$DIMSTYLE
  2
STANDARD
  9
$DIMCLRD
 70
     1
  9
$DIMCLRE
 70
     1
  9
$DIMCLRT
 70
     1
  9
$DIMTFAC
 40
1.0
  9
$DIMGAP
 40
1.0
  9
$DIMJUST
 70
     0
  9
$DIMSD1
 70
     0
  9
$DIMSD2
 70
     0
  9
$DIMTOLJ
 70
     1
  9
$DIMTZIN
 70
     0
  9
$DIMALTZ
 70
     0
  9
$DIMALTTZ
 70
     0
  9
$DIMFIT
 70
     3
  9
$DIMUPT
 70
     0
  9
$DIMUNIT
 70
     2
  9
$DIMDEC
 70
     2
  9
$DIMTDEC
 70
     2
  9
$DIMALTU
 70
     2
  9
$DIMALTTD
 70
     2
  9
$DIMTXSTY
  7
STANDARD
  9
$DIMAUNIT
 70
     0
  9
$LUNITS
 70
     2
  9
$LUPREC
 70
     4
  9
$SKETCHINC
 40
0.1
  9
$FILLETRAD
 40
0.0
  9
$AUNITS
 70
     0
  9
$AUPREC
 70
     0
  9
$MENU
  1
acad
  9
$ELEVATION
 40
0.0
  9
$PELEVATION
 40
0.0
  9
$THICKNESS
 40
0.0
  9
$LIMCHECK
 70
     0
  9
$BLIPMODE
 70
     0
  9
$CHAMFERA
 40
0.0
  9
$CHAMFERB
 40
0.0
  9
$CHAMFERC
 40
0.0
  9
$CHAMFERD
 40
0.0
  9
$SKPOLY
 70
     0
  9
$TDCREATE
 40
2444972.375000000
  9
$TDUPDATE
 40
2451977.439699074
  9
$TDINDWG
 40
0.0122710648
  9
$TDUSRTIMER
 40
0.0122710648
  9
$USRTIMER
 70
     1
  9
$ANGBASE
 50
0.0
  9
$ANGDIR
 70
     0
  9
$PDMODE
 70
     0
  9
$PDSIZE
 40
0.0
  9
$PLINEWID
 40
0.0
  9
$COORDS
 70
     1
  9
$SPLFRAME
 70
     0
  9
$SPLINETYPE
 70
     6
  9
$SPLINESEGS
 70
     8
  9
$ATTDIA
 70
     0
  9
$ATTREQ
 70
     1
  9
$HANDLING
 70
     1
  9
$HANDSEED
  5
3C5
  9
$SURFTAB1
 70
     6
  9
$SURFTAB2
 70
     6
  9
$SURFTYPE
 70
     6
  9
$SURFU
 70
     6
  9
$SURFV
 70
     6
  9
$UCSNAME
  2

  9
$UCSORG
 10
0.0
 20
0.0
 30
0.0
  9
$UCSXDIR
 10
1.0
 20
0.0
 30
0.0
  9
$UCSYDIR
 10
0.0
 20
1.0
 30
0.0
  9
$PUCSNAME
  2

  9
$PUCSORG
 10
0.0
 20
0.0
 30
0.0
  9
$PUCSXDIR
 10
1.0
 20
0.0
 30
0.0
  9
$PUCSYDIR
 10
0.0
 20
1.0
 30
0.0
  9
$USERI1
 70
     0
  9
$USERI2
 70
     0
  9
$USERI3
 70
     0
  9
$USERI4
 70
     0
  9
$USERI5
 70
     0
  9
$USERR1
 40
0.0
  9
$USERR2
 40
0.0
  9
$USERR3
 40
0.0
  9
$USERR4
 40
0.0
  9
$USERR5
 40
0.0
  9
$WORLDVIEW
 70
     1
  9
$SHADEDGE
 70
     3
  9
$SHADEDIF
 70
    70
  9
$TILEMODE
 70
     1
  9
$MAXACTVP
 70
    48
  9
$PINSBASE
 10
0.0
 20
0.0
 30
0.0
  9
$PLIMCHECK
 70
     0
  9
$PEXTMIN
 10
1.000000E+20
 20
1.000000E+20
 30
1.000000E+20
  9
$PEXTMAX
 10
-1.000000E+20
 20
-1.000000E+20
 30
-1.000000E+20
  9
$PLIMMIN
 10
0.0
 20
0.0
  9
$PLIMMAX
 10
12.0
 20
9.0
  9
$UNITMODE
 70
     0
  9
$VISRETAIN
 70
     1
  9
$PLINEGEN
 70
     0
  9
$PSLTSCALE
 70
     1
  9
$TREEDEPTH
 70
  3020
  9
$PICKSTYLE
 70
     1
  9
$CMLSTYLE
  2
STANDARD
  9
$CMLJUST
 70
     0
  9
$CMLSCALE
 40
1.0
  9
$PROXYGRAPHICS
 70
     1
  9
$MEASUREMENT
 70
     0
  0
ENDSEC
  0
SECTION
  2
CLASSES
  0
CLASS
  1
ACDBDICTIONARYWDFLT
  2
AcDbDictionaryWithDefault
  3
AutoCAD 2000
 90
        0
280
     0
281
     0
  0
CLASS
  1
ACDBPLACEHOLDER
  2
AcDbPlaceHolder
  3
AutoCAD 2000
 90
        0
280
     0
281
     0
  0
CLASS
  1
LAYOUT
  2
AcDbLayout
  3
AutoCAD 2000
 90
        0
280
     0
281
     0
  0
CLASS
  1
LONG_TRANSACTION
  2
AcDbLongTransaction
  3
AutoCAD 2000
 90
        0
280
     0
281
     0
  0
CLASS
  1
LWPOLYLINE
  2
AcDbPolyline
  3
"AutoCAD"
 90
        0
280
     0
281
     1
  0
CLASS
  1
HATCH
  2
AcDbHatch
  3
"ACAD_SEDONA"
 90
        0
280
     0
281
     1
  0
CLASS
  1
XRECORD
  2
AcDbXrecord
  3
"<Built In>"
 90
        0
280
     0
281
     0
  0
CLASS
  1
LONG_TRANSACTION
  2
AcDbLongTransaction
  3
AutoCAD 2000
 90
        0
280
     0
281
     0
  0
CLASS
  1
LWPOLYLINE
  2
AcDbPolyline
  3
"AutoCAD"
 90
        0
280
     0
281
     1
  0
CLASS
  1
HATCH
  2
AcDbHatch
  3
"ACAD_SEDONA"
 90
        0
280
     0
281
     1
  0
CLASS
  1
XRECORD
  2
AcDbXrecord
  3
"<Built In>"
 90
        0
280
     0
281
     0
  0
ENDSEC
  0
SECTION
  2
TABLES
  0
TABLE
  2
VPORT
  5
8
100
AcDbSymbolTable
 70
     2
  0
VPORT
  5
3C4
100
AcDbSymbolTableRecord
100
AcDbViewportTableRecord
  2
*ACTIVE
 70
     0
 10
0.0
 20
0.0
 11
1.0
 21
1.0
 12
35.262558
 22
-51.667889
 13
0.0
 23
0.0
 14
10.0
 24
10.0
 15
10.0
 25
10.0
 16
0.0
 26
0.0
 36
1.0
 17
0.0
 27
0.0
 37
0.0
 40
227.866147
 41
1.710425
 42
50.0
 43
0.0
 44
0.0
 50
0.0
 51
0.0
 71
     0
 72
   100
 73
     1
 74
     1
 75
     0
 76
     0
 77
     0
 78
     0
  0
ENDTAB
  0
TABLE
  2
LTYPE
  5
5
100
AcDbSymbolTable
 70
     5
  0
LTYPE
  5
12
100
AcDbSymbolTableRecord
100
AcDbLinetypeTableRecord
  2
BYBLOCK
 70
     0
  3

 72
    65
 73
     0
 40
0.0
  0
LTYPE
  5
13
100
AcDbSymbolTableRecord
100
AcDbLinetypeTableRecord
  2
BYLAYER
 70
     0
  3

 72
    65
 73
     0
 40
0.0
  0
LTYPE
  5
14
100
AcDbSymbolTableRecord
100
AcDbLinetypeTableRecord
  2
CONTINUOUS
 70
     0
  3
Solid line
 72
    65
 73
     0
 40
0.0
  0
LTYPE
  5
1F
100
AcDbSymbolTableRecord
100
AcDbLinetypeTableRecord
  2
DASHED
 70
     0
  3
__ __ __ __ __ __ __ __ __ __ __ __ __ __ __
 72
    65
 73
     2
 40
3.5
 49
2.0
 74
     0
 49
-1.5
 74
     0
  0
LTYPE
  5
20
100
AcDbSymbolTableRecord
100
AcDbLinetypeTableRecord
  2
CENTER
 70
     0
  3
____ _ ____ _ ____ _ ____ _ ____ _ ____ _ ____
 72
    65
 73
     4
 40
17.5
 49
13.0
 74
     0
 49
-1.5
 74
     0
 49
1.5
 74
     0
 49
-1.5
 74
     0
  0
LTYPE
  5
21
100
AcDbSymbolTableRecord
100
AcDbLinetypeTableRecord
  2
PHANTOM
 70
     0
  3
_____ _ _ _____ _ _ _____ _ _ _____ _ _ ____  
 72
    65
 73
     6
 40
15.5
 49
8.0
 74
     0
 49
-1.5
 74
     0
 49
1.5
 74
     0
 49
-1.5
 74
     0
 49
1.5
 74
     0
 49
-1.5
 74
     0
  0
LTYPE
  5
22
100
AcDbSymbolTableRecord
100
AcDbLinetypeTableRecord
  2
DOT
 70
     0
  3
. . . . . . . . . . . . . . . . . . . . . . . .
 72
    65
 73
     2
 40
0.25
 49
0.0
 74
     0
 49
-0.25
 74
     0
  0
ENDTAB
  0
TABLE
  2
LAYER
  5
2
100
AcDbSymbolTable
 70
     3
  0
LAYER
  5
E
100
AcDbSymbolTableRecord
100
AcDbLayerTableRecord
  2
0
 70
     0
 62
     7
  6
CONTINUOUS
  0
LAYER
  5
185
100
AcDbSymbolTableRecord
100
AcDbLayerTableRecord
  2
寸法
 70
     0
 62
     1
  6
CONTINUOUS
  0
LAYER
  5
18F
102
{ACAD_XDICTIONARY
360
382
102
}
100
AcDbSymbolTableRecord
100
AcDbLayerTableRecord
  2
DEFPOINTS
 70
     0
 62
     7
  6
CONTINUOUS
  0
ENDTAB
  0
TABLE
  2
STYLE
  5
3
100
AcDbSymbolTable
 70
     1
  0
STYLE
  5
F
100
AcDbSymbolTableRecord
100
AcDbTextStyleTableRecord
  2
STANDARD
 70
     0
 40
0.0
 41
1.0
 50
0.0
 71
     0
 42
0.2
  3
txt
  4
BIGFONT
  0
ENDTAB
  0
TABLE
  2
VIEW
  5
6
100
AcDbSymbolTable
 70
     0
  0
ENDTAB
  0
TABLE
  2
UCS
  5
7
100
AcDbSymbolTable
 70
     0
  0
ENDTAB
  0
TABLE
  2
APPID
  5
9
100
AcDbSymbolTable
 70
     1
  0
APPID
  5
10
100
AcDbSymbolTableRecord
100
AcDbRegAppTableRecord
  2
ACAD
 70
     0
  0
ENDTAB
  0
TABLE
  2
DIMSTYLE
  5
A
100
AcDbSymbolTable
 70
     1
  0
DIMSTYLE
105
177
102
{ACAD_XDICTIONARY
360
3A9
102
}
102
{ACAD_REACTORS
330
1A9
330
1C3
330
1D0
330
1DD
330
1EC
330
200
330
21A
330
227
330
2A2
330
268
330
295
330
288
330
30B
330
31B
102
}
100
AcDbSymbolTableRecord
100
AcDbDimStyleTableRecord
  2
STANDARD
 70
     0
  3

  4

  5
OPEN30
  6

  7

 40
1.0
 41
2.0
 42
1.0
 43
10.0
 44
1.0
 45
0.0
 46
0.0
 47
0.0
 48
0.0
140
3.0
141
2.0
142
0.0
143
25.4
144
1.0
145
0.0
146
1.0
147
1.0
 71
     0
 72
     0
 73
     0
 74
     0
 75
     0
 76
     0
 77
     1
 78
     8
170
     0
171
     2
172
     1
173
     0
174
     0
175
     0
176
     1
177
     1
178
     1
270
     2
271
     2
272
     2
273
     2
274
     2
340
F
275
     0
280
     0
281
     0
282
     0
283
     1
284
     0
285
     0
286
     0
287
     3
288
     0
  0
ENDTAB
  0
TABLE
  2
BLOCK_RECORD
  5
1
100
AcDbSymbolTable
 70
    15
  0
BLOCK_RECORD
  5
18
102
{ACAD_XDICTIONARY
360
368
102
}
100
AcDbSymbolTableRecord
100
AcDbBlockTableRecord
  2
*MODEL_SPACE
  0
BLOCK_RECORD
  5
15
102
{ACAD_XDICTIONARY
360
366
102
}
100
AcDbSymbolTableRecord
100
AcDbBlockTableRecord
  2
*PAPER_SPACE
  0
BLOCK_RECORD
  5
186
102
{ACAD_XDICTIONARY
360
380
102
}
100
AcDbSymbolTableRecord
100
AcDbBlockTableRecord
  2
_OPEN30
  0
BLOCK_RECORD
  5
1AA
100
AcDbSymbolTableRecord
100
AcDbBlockTableRecord
  2
*D1
  0
BLOCK_RECORD
  5
1C4
100
AcDbSymbolTableRecord
100
AcDbBlockTableRecord
  2
*D2
  0
BLOCK_RECORD
  5
1D1
100
AcDbSymbolTableRecord
100
AcDbBlockTableRecord
  2
*D3
  0
BLOCK_RECORD
  5
1DE
100
AcDbSymbolTableRecord
100
AcDbBlockTableRecord
  2
*D4
  0
BLOCK_RECORD
  5
1ED
100
AcDbSymbolTableRecord
100
AcDbBlockTableRecord
  2
*D5
  0
BLOCK_RECORD
  5
201
100
AcDbSymbolTableRecord
100
AcDbBlockTableRecord
  2
*D6
  0
BLOCK_RECORD
  5
21B
100
AcDbSymbolTableRecord
100
AcDbBlockTableRecord
  2
*D7
  0
BLOCK_RECORD
  5
228
100
AcDbSymbolTableRecord
100
AcDbBlockTableRecord
  2
*D8
  0
BLOCK_RECORD
  5
269
100
AcDbSymbolTableRecord
100
AcDbBlockTableRecord
  2
*D9
  0
BLOCK_RECORD
  5
289
100
AcDbSymbolTableRecord
100
AcDbBlockTableRecord
  2
*D10
  0
BLOCK_RECORD
  5
296
100
AcDbSymbolTableRecord
100
AcDbBlockTableRecord
  2
*D11
  0
BLOCK_RECORD
  5
2A3
100
AcDbSymbolTableRecord
100
AcDbBlockTableRecord
  2
*D12
  0
BLOCK_RECORD
  5
30C
100
AcDbSymbolTableRecord
100
AcDbBlockTableRecord
  2
*D13
  0
BLOCK_RECORD
  5
31C
100
AcDbSymbolTableRecord
100
AcDbBlockTableRecord
  2
*D14
  0
ENDTAB
  0
ENDSEC
  0
SECTION
  2
BLOCKS
  0
BLOCK
  5
19
100
AcDbEntity
  8
0
100
AcDbBlockBegin
  2
*MODEL_SPACE
 70
     0
 10
0.0
 20
0.0
 30
0.0
  3
*MODEL_SPACE
  1

  0
ENDBLK
  5
1A
100
AcDbEntity
  8
0
100
AcDbBlockEnd
  0
BLOCK
  5
16
100
AcDbEntity
 67
     1
  8
0
100
AcDbBlockBegin
  2
*PAPER_SPACE
 70
     0
 10
0.0
 20
0.0
 30
0.0
  3
*PAPER_SPACE
  1

  0
ENDBLK
  5
17
100
AcDbEntity
 67
     1
  8
0
100
AcDbBlockEnd
  0
BLOCK
  5
18A
100
AcDbEntity
  8
0
100
AcDbBlockBegin
  2
_OPEN30
 70
     0
 10
0.0
 20
0.0
 30
0.0
  3
_OPEN30
  1

  0
LINE
  5
187
100
AcDbEntity
  8
0
  6
BYBLOCK
 62
     0
100
AcDbLine
 10
-1.0
 20
0.267949
 30
0.0
 11
0.0
 21
0.0
 31
0.0
1001
ACAD
1000
RTLwPs
1070
   158
  0
LINE
  5
188
100
AcDbEntity
  8
0
  6
BYBLOCK
 62
     0
100
AcDbLine
 10
0.0
 20
0.0
 30
0.0
 11
-1.0
 21
-0.267949
 31
0.0
1001
ACAD
1000
RTLwPs
1070
   158
  0
LINE
  5
189
100
AcDbEntity
  8
0
  6
BYBLOCK
 62
     0
100
AcDbLine
 10
0.0
 20
0.0
 30
0.0
 11
-1.0
 21
0.0
 31
0.0
1001
ACAD
1000
RTLwPs
1070
   158
  0
ENDBLK
  5
18B
100
AcDbEntity
  8
0
100
AcDbBlockEnd
  0
BLOCK
  5
1B6
100
AcDbEntity
  8
0
100
AcDbBlockBegin
  2
*D1
 70
     1
 10
0.0
 20
0.0
 30
0.0
  3
*D1
  1

  0
LINE
  5
1B8
100
AcDbEntity
  8
寸法
  6
CONTINUOUS
 62
     1
100
AcDbLine
 10
107.33672
 20
-61.934891
 30
0.0
 11
121.0
 21
-61.934891
 31
0.0
1001
ACAD
1000
RTLwPs
1070
   158
  0
LINE
  5
1B9
100
AcDbEntity
  8
寸法
  6
CONTINUOUS
 62
     1
100
AcDbLine
 10
106.336711
 20
-67.93489
 30
0.0
 11
121.0
 21
-67.93489
 31
0.0
1001
ACAD
1000
RTLwPs
1070
   158
  0
LINE
  5
1BA
100
AcDbEntity
  8
寸法
  6
CONTINUOUS
 62
     1
100
AcDbLine
 10
120.0
 20
-59.934891
 30
0.0
 11
120.0
 21
-57.934891
 31
0.0
1001
ACAD
1000
RTLwPs
1070
   158
  0
LINE
  5
1BB
100
AcDbEntity
  8
寸法
  6
CONTINUOUS
 62
     1
100
AcDbLine
 10
120.0
 20
-69.93489
 30
0.0
 11
120.0
 21
-71.93489
 31
0.0
1001
ACAD
1000
RTLwPs
1070
   158
  0
LINE
  5
1BC
100
AcDbEntity
  8
寸法
  6
CONTINUOUS
 62
     1
100
AcDbLine
 10
120.0
 20
-61.934891
 30
0.0
 11
120.0
 21
-67.93489
 31
0.0
1001
ACAD
1000
RTLwPs
1070
   158
  0
INSERT
  5
1BD
100
AcDbEntity
  8
寸法
  6
CONTINUOUS
 62
     1
100
AcDbBlockReference
  2
_OPEN30
 10
120.0
 20
-61.934891
 30
0.0
 41
2.0
 42
2.0
 43
2.0
 50
270.0
1001
ACAD
1000
RTLwPs
1070
   158
  0
INSERT
  5
1BE
100
AcDbEntity
  8
寸法
  6
CONTINUOUS
 62
     1
100
AcDbBlockReference
  2
_OPEN30
 10
120.0
 20
-67.93489
 30
0.0
 41
2.0
 42
2.0
 43
2.0
 50
90.0
1001
ACAD
1000
RTLwPs
1070
   158
  0
MTEXT
  5
1BF
100
AcDbEntity
  8
寸法
  6
CONTINUOUS
 62
     1
100
AcDbMText
 10
117.5
 20
-64.93489
 30
0.0
 40
3.0
 41
0.0
 71
     5
 72
     1
  1
\A1;6
 11
0.0
 21
1.0
 31
0.0
1001
ACAD
1000
MTEXTBEGIN
1070
    73
1070
     1
1070
    44
1040
1.0
1070
    74
1070
     0
1000
MTEXTEND
1000
MTEXTBEGIN
1070
    73
1070
     1
1070
    44
1040
1.0
1070
    74
1070
     0
1000
MTEXTEND
  0
POINT
  5
1C0
100
AcDbEntity
  8
DEFPOINTS
  6
CONTINUOUS
 62
     0
100
AcDbPoint
 10
106.33672
 20
-61.934891
 30
0.0
  0
POINT
  5
1C1
100
AcDbEntity
  8
DEFPOINTS
  6
CONTINUOUS
 62
     0
100
AcDbPoint
 10
105.336711
 20
-67.93489
 30
0.0
  0
POINT
  5
1C2
100
AcDbEntity
  8
DEFPOINTS
  6
CONTINUOUS
 62
     0
100
AcDbPoint
 10
120.0
 20
-67.93489
 30
0.0
  0
ENDBLK
  5
1B7
100
AcDbEntity
  8
0
100
AcDbBlockEnd
  0
BLOCK
  5
1CE
100
AcDbEntity
  8
0
100
AcDbBlockBegin
  2
*D2
 70
     1
 10
0.0
 20
0.0
 30
0.0
  3
*D2
  1

  0
LINE
  5
1C5
100
AcDbEntity
  8
寸法
  6
CONTINUOUS
 62
     1
100
AcDbLine
 10
40.0
 20
-52.434894
 30
0.0
 11
61.0
 21
-52.434894
 31
0.0
1001
ACAD
1000
RTLwPs
1070
   158
  0
LINE
  5
1C6
100
AcDbEntity
  8
寸法
  6
CONTINUOUS
 62
     1
100
AcDbLine
 10
40.0
 20
-67.93489
 30
0.0
 11
61.0
 21
-67.93489
 31
0.0
1001
ACAD
1000
RTLwPs
1070
   158
  0
LINE
  5
1C7
100
AcDbEntity
  8
寸法
  6
CONTINUOUS
 62
     1
100
AcDbLine
 10
60.0
 20
-54.434894
 30
0.0
 11
60.0
 21
-65.93489
 31
0.0
1001
ACAD
1000
RTLwPs
1070
   158
  0
INSERT
  5
1C8
100
AcDbEntity
  8
寸法
  6
CONTINUOUS
 62
     1
100
AcDbBlockReference
  2
_OPEN30
 10
60.0
 20
-52.434894
 30
0.0
 41
2.0
 42
2.0
 43
2.0
 50
90.0
1001
ACAD
1000
RTLwPs
1070
   158
  0
INSERT
  5
1C9
100
AcDbEntity
  8
寸法
  6
CONTINUOUS
 62
     1
100
AcDbBlockReference
  2
_OPEN30
 10
60.0
 20
-67.93489
 30
0.0
 41
2.0
 42
2.0
 43
2.0
 50
270.0
1001
ACAD
1000
RTLwPs
1070
   158
  0
MTEXT
  5
1CA
100
AcDbEntity
  8
寸法
  6
CONTINUOUS
 62
     1
100
AcDbMText
 10
57.5
 20
-60.184892
 30
0.0
 40
3.0
 41
0.0
 71
     5
 72
     1
  1
\A1;15.5
 11
0.0
 21
1.0
 31
0.0
1001
ACAD
1000
MTEXTBEGIN
1070
    73
1070
     1
1070
    44
1040
1.0
1070
    74
1070
     0
1000
MTEXTEND
1000
MTEXTBEGIN
1070
    73
1070
     1
1070
    44
1040
1.0
1070
    74
1070
     0
1000
MTEXTEND
  0
POINT
  5
1CB
100
AcDbEntity
  8
DEFPOINTS
  6
CONTINUOUS
 62
     0
100
AcDbPoint
 10
39.0
 20
-52.434894
 30
0.0
  0
POINT
  5
1CC
100
AcDbEntity
  8
DEFPOINTS
  6
CONTINUOUS
 62
     0
100
AcDbPoint
 10
39.0
 20
-67.93489
 30
0.0
  0
POINT
  5
1CD
100
AcDbEntity
  8
DEFPOINTS
  6
CONTINUOUS
 62
     0
100
AcDbPoint
 10
60.0
 20
-67.93489
 30
0.0
  0
ENDBLK
  5
1CF
100
AcDbEntity
  8
0
100
AcDbBlockEnd
  0
BLOCK
  5
1DB
100
AcDbEntity
  8
0
100
AcDbBlockBegin
  2
*D3
 70
     1
 10
0.0
 20
0.0
 30
0.0
  3
*D3
  1

  0
LINE
  5
211
100
AcDbEntity
  8
寸法
  6
CONTINUOUS
 62
     1
100
AcDbLine
 10
-9.19
 20
-54.490768
 30
0.0
 11
-21.0
 21
-54.490768
 31
0.0
1001
ACAD
1000
RTLwPs
1070
   158
  0
LINE
  5
212
100
AcDbEntity
  8
寸法
  6
CONTINUOUS
 62
     1
100
AcDbLine
 10
-4.427489
 20
-67.93489
 30
0.0
 11
-21.0
 21
-67.93489
 31
0.0
1001
ACAD
1000
RTLwPs
1070
   158
  0
LINE
  5
213
100
AcDbEntity
  8
寸法
  6
CONTINUOUS
 62
     1
100
AcDbLine
 10
-20.0
 20
-56.490768
 30
0.0
 11
-20.0
 21
-65.93489
 31
0.0
1001
ACAD
1000
RTLwPs
1070
   158
  0
INSERT
  5
214
100
AcDbEntity
  8
寸法
  6
CONTINUOUS
 62
     1
100
AcDbBlockReference
  2
_OPEN30
 10
-20.0
 20
-54.490768
 30
0.0
 41
2.0
 42
2.0
 43
2.0
 50
90.0
1001
ACAD
1000
RTLwPs
1070
   158
  0
INSERT
  5
215
100
AcDbEntity
  8
寸法
  6
CONTINUOUS
 62
     1
100
AcDbBlockReference
  2
_OPEN30
 10
-20.0
 20
-67.93489
 30
0.0
 41
2.0
 42
2.0
 43
2.0
 50
270.0
1001
ACAD
1000
RTLwPs
1070
   158
  0
MTEXT
  5
216
100
AcDbEntity
  8
寸法
  6
CONTINUOUS
 62
     1
100
AcDbMText
 10
-22.5
 20
-61.212829
 30
0.0
 40
3.0
 41
0.0
 71
     5
 72
     1
  1
\A1;12
 11
0.0
 21
1.0
 31
0.0
1001
ACAD
1000
MTEXTBEGIN
1070
    73
1070
     1
1070
    44
1040
1.0
1070
    74
1070
     0
1000
MTEXTEND
1000
MTEXTBEGIN
1070
    73
1070
     1
1070
    44
1040
1.0
1070
    74
1070
     0
1000
MTEXTEND
  0
POINT
  5
217
100
AcDbEntity
  8
DEFPOINTS
  6
CONTINUOUS
 62
     0
100
AcDbPoint
 10
-8.19
 20
-54.490768
 30
0.0
  0
POINT
  5
218
100
AcDbEntity
  8
DEFPOINTS
  6
CONTINUOUS
 62
     0
100
AcDbPoint
 10
-3.427489
 20
-67.93489
 30
0.0
  0
POINT
  5
219
100
AcDbEntity
  8
DEFPOINTS
  6
CONTINUOUS
 62
     0
100
AcDbPoint
 10
-20.0
 20
-67.93489
 30
0.0
  0
ENDBLK
  5
1DC
100
AcDbEntity
  8
0
100
AcDbBlockEnd
  0
BLOCK
  5
1EA
100
AcDbEntity
  8
0
100
AcDbBlockBegin
  2
*D4
 70
     1
 10
0.0
 20
0.0
 30
0.0
  3
*D4
  1

  0
LINE
  5
1DF
100
AcDbEntity
  8
寸法
  6
CONTINUOUS
 62
     1
100
AcDbLine
 10
28.0
 20
-65.901603
 30
0.0
 11
28.0
 21
-81.0
 31
0.0
1001
ACAD
1000
RTLwPs
1070
   158
  0
LINE
  5
1E0
100
AcDbEntity
  8
寸法
  6
CONTINUOUS
 62
     1
100
AcDbLine
 10
26.0
 20
-65.901603
 30
0.0
 11
26.0
 21
-81.0
 31
0.0
1001
ACAD
1000
RTLwPs
1070
   158
  0
LINE
  5
1E1
100
AcDbEntity
  8
寸法
  6
CONTINUOUS
 62
     1
100
AcDbLine
 10
30.0
 20
-80.0
 30
0.0
 11
32.0
 21
-80.0
 31
0.0
1001
ACAD
1000
RTLwPs
1070
   158
  0
LINE
  5
1E2
100
AcDbEntity
  8
寸法
  6
CONTINUOUS
 62
     1
100
AcDbLine
 10
24.0
 20
-80.0
 30
0.0
 11
18.0
 21
-80.0
 31
0.0
1001
ACAD
1000
RTLwPs
1070
   158
  0
LINE
  5
1E3
100
AcDbEntity
  8
寸法
  6
CONTINUOUS
 62
     1
100
AcDbLine
 10
28.0
 20
-80.0
 30
0.0
 11
26.0
 21
-80.0
 31
0.0
1001
ACAD
1000
RTLwPs
1070
   158
  0
INSERT
  5
1E4
100
AcDbEntity
  8
寸法
  6
CONTINUOUS
 62
     1
100
AcDbBlockReference
  2
_OPEN30
 10
28.0
 20
-80.0
 30
0.0
 41
2.0
 42
2.0
 43
2.0
 50
180.0
1001
ACAD
1000
RTLwPs
1070
   158
  0
INSERT
  5
1E5
100
AcDbEntity
  8
寸法
  6
CONTINUOUS
 62
     1
100
AcDbBlockReference
  2
_OPEN30
 10
26.0
 20
-80.0
 30
0.0
 41
2.0
 42
2.0
 43
2.0
1001
ACAD
1000
RTLwPs
1070
   158
  0
MTEXT
  5
1E6
100
AcDbEntity
  8
寸法
  6
CONTINUOUS
 62
     1
100
AcDbMText
 10
20.0
 20
-77.5
 30
0.0
 40
3.0
 41
0.0
 71
     5
 72
     1
  1
\A1;2
1001
ACAD
1000
MTEXTBEGIN
1070
    73
1070
     1
1070
    44
1040
1.0
1070
    74
1070
     0
1000
MTEXTEND
1000
MTEXTBEGIN
1070
    73
1070
     1
1070
    44
1040
1.0
1070
    74
1070
     0
1000
MTEXTEND
  0
POINT
  5
1E7
100
AcDbEntity
  8
DEFPOINTS
  6
CONTINUOUS
 62
     0
100
AcDbPoint
 10
28.0
 20
-64.901603
 30
0.0
  0
POINT
  5
1E8
100
AcDbEntity
  8
DEFPOINTS
  6
CONTINUOUS
 62
     0
100
AcDbPoint
 10
26.0
 20
-64.901603
 30
0.0
  0
POINT
  5
1E9
100
AcDbEntity
  8
DEFPOINTS
  6
CONTINUOUS
 62
     0
100
AcDbPoint
 10
26.0
 20
-80.0
 30
0.0
  0
ENDBLK
  5
1EB
100
AcDbEntity
  8
0
100
AcDbBlockEnd
  0
BLOCK
  5
1F7
100
AcDbEntity
  8
0
100
AcDbBlockBegin
  2
*D5
 70
     1
 10
0.0
 20
0.0
 30
0.0
  3
*D5
  1

  0
LINE
  5
1EE
100
AcDbEntity
  8
寸法
  6
CONTINUOUS
 62
     1
100
AcDbLine
 10
47.0
 20
-57.43489
 30
0.0
 11
47.0
 21
-39.0
 31
0.0
1001
ACAD
1000
RTLwPs
1070
   158
  0
LINE
  5
1EF
100
AcDbEntity
  8
寸法
  6
CONTINUOUS
 62
     1
100
AcDbLine
 10
27.0
 20
-47.706337
 30
0.0
 11
27.0
 21
-39.0
 31
0.0
1001
ACAD
1000
RTLwPs
1070
   158
  0
LINE
  5
1F0
100
AcDbEntity
  8
寸法
  6
CONTINUOUS
 62
     1
100
AcDbLine
 10
45.0
 20
-40.0
 30
0.0
 11
29.0
 21
-40.0
 31
0.0
1001
ACAD
1000
RTLwPs
1070
   158
  0
INSERT
  5
1F1
100
AcDbEntity
  8
寸法
  6
CONTINUOUS
 62
     1
100
AcDbBlockReference
  2
_OPEN30
 10
47.0
 20
-40.0
 30
0.0
 41
2.0
 42
2.0
 43
2.0
1001
ACAD
1000
RTLwPs
1070
   158
  0
INSERT
  5
1F2
100
AcDbEntity
  8
寸法
  6
CONTINUOUS
 62
     1
100
AcDbBlockReference
  2
_OPEN30
 10
27.0
 20
-40.0
 30
0.0
 41
2.0
 42
2.0
 43
2.0
 50
180.0
1001
ACAD
1000
RTLwPs
1070
   158
  0
MTEXT
  5
1F3
100
AcDbEntity
  8
寸法
  6
CONTINUOUS
 62
     1
100
AcDbMText
 10
37.0
 20
-37.5
 30
0.0
 40
3.0
 41
0.0
 71
     5
 72
     1
  1
\A1;20
1001
ACAD
1000
MTEXTBEGIN
1070
    73
1070
     1
1070
    44
1040
1.0
1070
    74
1070
     0
1000
MTEXTEND
1000
MTEXTBEGIN
1070
    73
1070
     1
1070
    44
1040
1.0
1070
    74
1070
     0
1000
MTEXTEND
  0
POINT
  5
1F4
100
AcDbEntity
  8
DEFPOINTS
  6
CONTINUOUS
 62
     0
100
AcDbPoint
 10
47.0
 20
-58.43489
 30
0.0
  0
POINT
  5
1F5
100
AcDbEntity
  8
DEFPOINTS
  6
CONTINUOUS
 62
     0
100
AcDbPoint
 10
27.0
 20
-48.706337
 30
0.0
  0
POINT
  5
1F6
100
AcDbEntity
  8
DEFPOINTS
  6
CONTINUOUS
 62
     0
100
AcDbPoint
 10
27.0
 20
-40.0
 30
0.0
  0
ENDBLK
  5
1F8
100
AcDbEntity
  8
0
100
AcDbBlockEnd
  0
BLOCK
  5
208
100
AcDbEntity
  8
0
100
AcDbBlockBegin
  2
*D6
 70
     1
 10
0.0
 20
0.0
 30
0.0
  3
*D6
  1

  0
LINE
  5
20B
100
AcDbEntity
  8
0
  6
CONTINUOUS
 62
     1
100
AcDbLine
 10
-10.314371
 20
-87.386964
 30
0.0
 11
-1.081508
 21
-79.721833
 31
0.0
1001
ACAD
1000
RTLwPs
1070
   158
  0
MTEXT
  5
20C
100
AcDbEntity
  8
0
  6
CONTINUOUS
 62
     1
100
AcDbMText
 10
-8.064247
 20
-82.269646
 30
0.0
 40
3.0
 41
0.0
 71
     5
 72
     1
  1
\A1;%%c75
 11
0.769405
 21
0.638761
 31
0.0
1001
ACAD
1000
MTEXTBEGIN
1070
    73
1070
     1
1070
    44
1040
1.0
1070
    74
1070
     0
1000
MTEXTEND
1000
MTEXTBEGIN
1070
    73
1070
     1
1070
    44
1040
1.0
1070
    74
1070
     0
1000
MTEXTEND
  0
LINE
  5
20D
100
AcDbEntity
  8
0
  6
CONTINUOUS
 62
     1
100
AcDbLine
 10
29.31
 20
-54.490776
 30
0.0
 11
0.457303
 21
-78.444311
 31
0.0
1001
ACAD
1000
RTLwPs
1070
   158
  0
INSERT
  5
20E
100
AcDbEntity
  8
0
  6
CONTINUOUS
 62
     1
100
AcDbBlockReference
  2
_OPEN30
 10
0.457303
 20
-78.444311
 30
0.0
 41
2.0
 42
2.0
 43
2.0
 50
39.699487
1001
ACAD
1000
RTLwPs
1070
   158
  0
POINT
  5
20F
100
AcDbEntity
  8
DEFPOINTS
  6
CONTINUOUS
 62
     0
100
AcDbPoint
 10
0.457303
 20
-78.444311
 30
0.0
  0
POINT
  5
210
100
AcDbEntity
  8
DEFPOINTS
  6
CONTINUOUS
 62
     0
100
AcDbPoint
 10
29.31
 20
-54.490776
 30
0.0
  0
ENDBLK
  5
209
100
AcDbEntity
  8
0
100
AcDbBlockEnd
  0
BLOCK
  5
225
100
AcDbEntity
  8
0
100
AcDbBlockBegin
  2
*D7
 70
     1
 10
0.0
 20
0.0
 30
0.0
  3
*D7
  1

  0
LINE
  5
2CE
100
AcDbEntity
  8
寸法
  6
CONTINUOUS
 62
     1
100
AcDbLine
 10
47.0
 20
14.37636
 30
0.0
 11
47.0
 21
-21.0
 31
0.0
1001
ACAD
1000
RTLwPs
1070
   158
  0
LINE
  5
2CF
100
AcDbEntity
  8
寸法
  6
CONTINUOUS
 62
     1
100
AcDbLine
 10
-8.19
 20
12.56636
 30
0.0
 11
-8.19
 21
-21.0
 31
0.0
1001
ACAD
1000
RTLwPs
1070
   158
  0
LINE
  5
2D0
100
AcDbEntity
  8
寸法
  6
CONTINUOUS
 62
     1
100
AcDbLine
 10
45.0
 20
-20.0
 30
0.0
 11
-6.19
 21
-20.0
 31
0.0
1001
ACAD
1000
RTLwPs
1070
   158
  0
INSERT
  5
2D1
100
AcDbEntity
  8
寸法
  6
CONTINUOUS
 62
     1
100
AcDbBlockReference
  2
_OPEN30
 10
47.0
 20
-20.0
 30
0.0
 41
2.0
 42
2.0
 43
2.0
1001
ACAD
1000
RTLwPs
1070
   158
  0
INSERT
  5
2D2
100
AcDbEntity
  8
寸法
  6
CONTINUOUS
 62
     1
100
AcDbBlockReference
  2
_OPEN30
 10
-8.19
 20
-20.0
 30
0.0
 41
2.0
 42
2.0
 43
2.0
 50
180.0
1001
ACAD
1000
RTLwPs
1070
   158
  0
MTEXT
  5
2D3
100
AcDbEntity
  8
寸法
  6
CONTINUOUS
 62
     1
100
AcDbMText
 10
19.405
 20
-17.5
 30
0.0
 40
3.0
 41
0.0
 71
     5
 72
     1
  1
\A1;55.0
1001
ACAD
1000
MTEXTBEGIN
1070
    73
1070
     1
1070
    44
1040
1.0
1070
    74
1070
     0
1000
MTEXTEND
1000
MTEXTBEGIN
1070
    73
1070
     1
1070
    44
1040
1.0
1070
    74
1070
     0
1000
MTEXTEND
  0
POINT
  5
2D4
100
AcDbEntity
  8
DEFPOINTS
  6
CONTINUOUS
 62
     0
100
AcDbPoint
 10
47.0
 20
15.37636
 30
0.0
  0
POINT
  5
2D5
100
AcDbEntity
  8
DEFPOINTS
  6
CONTINUOUS
 62
     0
100
AcDbPoint
 10
-8.19
 20
13.56636
 30
0.0
  0
POINT
  5
2D6
100
AcDbEntity
  8
DEFPOINTS
  6
CONTINUOUS
 62
     0
100
AcDbPoint
 10
-8.19
 20
-20.0
 30
0.0
  0
ENDBLK
  5
226
100
AcDbEntity
  8
0
100
AcDbBlockEnd
  0
BLOCK
  5
232
100
AcDbEntity
  8
0
100
AcDbBlockBegin
  2
*D8
 70
     1
 10
0.0
 20
0.0
 30
0.0
  3
*D8
  1

  0
LINE
  5
2D7
100
AcDbEntity
  8
寸法
  6
CONTINUOUS
 62
     1
100
AcDbLine
 10
47.0
 20
14.37636
 30
0.0
 11
47.0
 21
-11.0
 31
0.0
1001
ACAD
1000
RTLwPs
1070
   158
  0
LINE
  5
2D8
100
AcDbEntity
  8
寸法
  6
CONTINUOUS
 62
     1
100
AcDbLine
 10
0.0
 20
4.37636
 30
0.0
 11
0.0
 21
-11.0
 31
0.0
1001
ACAD
1000
RTLwPs
1070
   158
  0
LINE
  5
2D9
100
AcDbEntity
  8
寸法
  6
CONTINUOUS
 62
     1
100
AcDbLine
 10
45.0
 20
-10.0
 30
0.0
 11
2.0
 21
-10.0
 31
0.0
1001
ACAD
1000
RTLwPs
1070
   158
  0
INSERT
  5
2DA
100
AcDbEntity
  8
寸法
  6
CONTINUOUS
 62
     1
100
AcDbBlockReference
  2
_OPEN30
 10
47.0
 20
-10.0
 30
0.0
 41
2.0
 42
2.0
 43
2.0
1001
ACAD
1000
RTLwPs
1070
   158
  0
INSERT
  5
2DB
100
AcDbEntity
  8
寸法
  6
CONTINUOUS
 62
     1
100
AcDbBlockReference
  2
_OPEN30
 10
0.0
 20
-10.0
 30
0.0
 41
2.0
 42
2.0
 43
2.0
 50
180.0
1001
ACAD
1000
RTLwPs
1070
   158
  0
MTEXT
  5
2DC
100
AcDbEntity
  8
寸法
  6
CONTINUOUS
 62
     1
100
AcDbMText
 10
23.5
 20
-7.5
 30
0.0
 40
3.0
 41
0.0
 71
     5
 72
     1
  1
\A1;47
1001
ACAD
1000
MTEXTBEGIN
1070
    73
1070
     1
1070
    44
1040
1.0
1070
    74
1070
     0
1000
MTEXTEND
1000
MTEXTBEGIN
1070
    73
1070
     1
1070
    44
1040
1.0
1070
    74
1070
     0
1000
MTEXTEND
  0
POINT
  5
2DD
100
AcDbEntity
  8
DEFPOINTS
  6
CONTINUOUS
 62
     0
100
AcDbPoint
 10
47.0
 20
15.37636
 30
0.0
  0
POINT
  5
2DE
100
AcDbEntity
  8
DEFPOINTS
  6
CONTINUOUS
 62
     0
100
AcDbPoint
 10
0.0
 20
5.37636
 30
0.0
  0
POINT
  5
2DF
100
AcDbEntity
  8
DEFPOINTS
  6
CONTINUOUS
 62
     0
100
AcDbPoint
 10
0.0
 20
-10.0
 30
0.0
  0
ENDBLK
  5
233
100
AcDbEntity
  8
0
100
AcDbBlockEnd
  0
BLOCK
  5
273
100
AcDbEntity
  8
0
100
AcDbBlockBegin
  2
*D9
 70
     1
 10
0.0
 20
0.0
 30
0.0
  3
*D9
  1

  0
LINE
  5
2ED
100
AcDbEntity
  8
寸法
  6
CONTINUOUS
 62
     1
100
AcDbLine
 10
47.0
 20
14.37636
 30
0.0
 11
47.0
 21
-1.0
 31
0.0
1001
ACAD
1000
RTLwPs
1070
   158
  0
LINE
  5
2EE
100
AcDbEntity
  8
寸法
  6
CONTINUOUS
 62
     1
100
AcDbLine
 10
39.0
 20
8.37636
 30
0.0
 11
39.0
 21
-1.0
 31
0.0
1001
ACAD
1000
RTLwPs
1070
   158
  0
LINE
  5
2EF
100
AcDbEntity
  8
寸法
  6
CONTINUOUS
 62
     1
100
AcDbLine
 10
45.0
 20
0.0
 30
0.0
 11
41.0
 21
0.0
 31
0.0
1001
ACAD
1000
RTLwPs
1070
   158
  0
INSERT
  5
2F0
100
AcDbEntity
  8
寸法
  6
CONTINUOUS
 62
     1
100
AcDbBlockReference
  2
_OPEN30
 10
47.0
 20
0.0
 30
0.0
 41
2.0
 42
2.0
 43
2.0
1001
ACAD
1000
RTLwPs
1070
   158
  0
INSERT
  5
2F1
100
AcDbEntity
  8
寸法
  6
CONTINUOUS
 62
     1
100
AcDbBlockReference
  2
_OPEN30
 10
39.0
 20
0.0
 30
0.0
 41
2.0
 42
2.0
 43
2.0
 50
180.0
1001
ACAD
1000
RTLwPs
1070
   158
  0
MTEXT
  5
2F2
100
AcDbEntity
  8
寸法
  6
CONTINUOUS
 62
     1
100
AcDbMText
 10
43.0
 20
2.5
 30
0.0
 40
3.0
 41
0.0
 71
     5
 72
     1
  1
\A1;8
1001
ACAD
1000
MTEXTBEGIN
1070
    73
1070
     1
1070
    44
1040
1.0
1070
    74
1070
     0
1000
MTEXTEND
1000
MTEXTBEGIN
1070
    73
1070
     1
1070
    44
1040
1.0
1070
    74
1070
     0
1000
MTEXTEND
  0
POINT
  5
2F3
100
AcDbEntity
  8
DEFPOINTS
  6
CONTINUOUS
 62
     0
100
AcDbPoint
 10
47.0
 20
15.37636
 30
0.0
  0
POINT
  5
2F4
100
AcDbEntity
  8
DEFPOINTS
  6
CONTINUOUS
 62
     0
100
AcDbPoint
 10
39.0
 20
9.37636
 30
0.0
  0
POINT
  5
2F5
100
AcDbEntity
  8
DEFPOINTS
  6
CONTINUOUS
 62
     0
100
AcDbPoint
 10
39.0
 20
0.0
 30
0.0
  0
ENDBLK
  5
274
100
AcDbEntity
  8
0
100
AcDbBlockEnd
  0
BLOCK
  5
293
100
AcDbEntity
  8
0
100
AcDbBlockBegin
  2
*D10
 70
     1
 10
0.0
 20
0.0
 30
0.0
  3
*D10
  1

  0
LINE
  5
2FF
100
AcDbEntity
  8
寸法
  6
CONTINUOUS
 62
     1
100
AcDbLine
 10
2.5
 20
25.37636
 30
0.0
 11
-21.0
 21
25.37636
 31
0.0
1001
ACAD
1000
RTLwPs
1070
   158
  0
LINE
  5
300
100
AcDbEntity
  8
寸法
  6
CONTINUOUS
 62
     1
100
AcDbLine
 10
-9.19
 20
13.56636
 30
0.0
 11
-21.0
 21
13.56636
 31
0.0
1001
ACAD
1000
RTLwPs
1070
   158
  0
LINE
  5
301
100
AcDbEntity
  8
寸法
  6
CONTINUOUS
 62
     1
100
AcDbLine
 10
-20.0
 20
23.37636
 30
0.0
 11
-20.0
 21
15.56636
 31
0.0
1001
ACAD
1000
RTLwPs
1070
   158
  0
INSERT
  5
302
100
AcDbEntity
  8
寸法
  6
CONTINUOUS
 62
     1
100
AcDbBlockReference
  2
_OPEN30
 10
-20.0
 20
25.37636
 30
0.0
 41
2.0
 42
2.0
 43
2.0
 50
90.0
1001
ACAD
1000
RTLwPs
1070
   158
  0
INSERT
  5
303
100
AcDbEntity
  8
寸法
  6
CONTINUOUS
 62
     1
100
AcDbBlockReference
  2
_OPEN30
 10
-20.0
 20
13.56636
 30
0.0
 41
2.0
 42
2.0
 43
2.0
 50
270.0
1001
ACAD
1000
RTLwPs
1070
   158
  0
MTEXT
  5
304
100
AcDbEntity
  8
寸法
  6
CONTINUOUS
 62
     1
100
AcDbMText
 10
-22.5
 20
19.47136
 30
0.0
 40
3.0
 41
0.0
 71
     5
 72
     1
  1
\A1;11.7
 11
0.0
 21
1.0
 31
0.0
1001
ACAD
1000
MTEXTBEGIN
1070
    73
1070
     1
1070
    44
1040
1.0
1070
    74
1070
     0
1000
MTEXTEND
1000
MTEXTBEGIN
1070
    73
1070
     1
1070
    44
1040
1.0
1070
    74
1070
     0
1000
MTEXTEND
  0
POINT
  5
305
100
AcDbEntity
  8
DEFPOINTS
  6
CONTINUOUS
 62
     0
100
AcDbPoint
 10
3.5
 20
25.37636
 30
0.0
  0
POINT
  5
306
100
AcDbEntity
  8
DEFPOINTS
  6
CONTINUOUS
 62
     0
100
AcDbPoint
 10
-8.19
 20
13.56636
 30
0.0
  0
POINT
  5
307
100
AcDbEntity
  8
DEFPOINTS
  6
CONTINUOUS
 62
     0
100
AcDbPoint
 10
-20.0
 20
13.56636
 30
0.0
  0
ENDBLK
  5
294
100
AcDbEntity
  8
0
100
AcDbBlockEnd
  0
BLOCK
  5
2A0
100
AcDbEntity
  8
0
100
AcDbBlockBegin
  2
*D11
 70
     1
 10
0.0
 20
0.0
 30
0.0
  3
*D11
  1

  0
LINE
  5
2F6
100
AcDbEntity
  8
寸法
  6
CONTINUOUS
 62
     1
100
AcDbLine
 10
40.0
 20
25.37636
 30
0.0
 11
61.0
 21
25.37636
 31
0.0
1001
ACAD
1000
RTLwPs
1070
   158
  0
LINE
  5
2F7
100
AcDbEntity
  8
寸法
  6
CONTINUOUS
 62
     1
100
AcDbLine
 10
40.0
 20
9.37636
 30
0.0
 11
61.0
 21
9.37636
 31
0.0
1001
ACAD
1000
RTLwPs
1070
   158
  0
LINE
  5
2F8
100
AcDbEntity
  8
寸法
  6
CONTINUOUS
 62
     1
100
AcDbLine
 10
60.0
 20
23.37636
 30
0.0
 11
60.0
 21
11.37636
 31
0.0
1001
ACAD
1000
RTLwPs
1070
   158
  0
INSERT
  5
2F9
100
AcDbEntity
  8
寸法
  6
CONTINUOUS
 62
     1
100
AcDbBlockReference
  2
_OPEN30
 10
60.0
 20
25.37636
 30
0.0
 41
2.0
 42
2.0
 43
2.0
 50
90.0
1001
ACAD
1000
RTLwPs
1070
   158
  0
INSERT
  5
2FA
100
AcDbEntity
  8
寸法
  6
CONTINUOUS
 62
     1
100
AcDbBlockReference
  2
_OPEN30
 10
60.0
 20
9.37636
 30
0.0
 41
2.0
 42
2.0
 43
2.0
 50
270.0
1001
ACAD
1000
RTLwPs
1070
   158
  0
MTEXT
  5
2FB
100
AcDbEntity
  8
寸法
  6
CONTINUOUS
 62
     1
100
AcDbMText
 10
57.5
 20
17.37636
 30
0.0
 40
3.0
 41
0.0
 71
     5
 72
     1
  1
\A1;16
 11
0.0
 21
1.0
 31
0.0
1001
ACAD
1000
MTEXTBEGIN
1070
    73
1070
     1
1070
    44
1040
1.0
1070
    74
1070
     0
1000
MTEXTEND
1000
MTEXTBEGIN
1070
    73
1070
     1
1070
    44
1040
1.0
1070
    74
1070
     0
1000
MTEXTEND
  0
POINT
  5
2FC
100
AcDbEntity
  8
DEFPOINTS
  6
CONTINUOUS
 62
     0
100
AcDbPoint
 10
39.0
 20
25.37636
 30
0.0
  0
POINT
  5
2FD
100
AcDbEntity
  8
DEFPOINTS
  6
CONTINUOUS
 62
     0
100
AcDbPoint
 10
39.0
 20
9.37636
 30
0.0
  0
POINT
  5
2FE
100
AcDbEntity
  8
DEFPOINTS
  6
CONTINUOUS
 62
     0
100
AcDbPoint
 10
60.0
 20
9.37636
 30
0.0
  0
ENDBLK
  5
2A1
100
AcDbEntity
  8
0
100
AcDbBlockEnd
  0
BLOCK
  5
2B1
100
AcDbEntity
  8
0
100
AcDbBlockBegin
  2
*D12
 70
     1
 10
0.0
 20
0.0
 30
0.0
  3
*D12
  1

  0
LINE
  5
3AD
100
AcDbEntity
  8
寸法
  6
CONTINUOUS
 62
     1
100
AcDbLine
 10
-8.19
 20
12.56636
 30
0.0
 11
-8.19
 21
-3.850218
 31
0.0
  0
LINE
  5
3AE
100
AcDbEntity
  8
寸法
  6
CONTINUOUS
 62
     1
100
AcDbLine
 10
0.472792
 20
4.903568
 30
0.0
 11
4.12538
 21
1.25098
 31
0.0
  0
ARC
  5
3AF
100
AcDbEntity
  8
寸法
  6
CONTINUOUS
 62
     1
100
AcDbCircle
 10
-8.19
 20
13.56636
 30
0.0
 40
16.416578
100
AcDbArc
 50
256.030884
 51
263.015442
  0
ARC
  5
3B0
100
AcDbEntity
  8
寸法
  6
CONTINUOUS
 62
     1
100
AcDbCircle
 10
-8.19
 20
13.56636
 30
0.0
 40
16.416578
100
AcDbArc
 50
321.984558
 51
328.969116
  0
ARC
  5
3B1
100
AcDbEntity
  8
寸法
  6
CONTINUOUS
 62
     1
100
AcDbCircle
 10
-8.19
 20
13.56636
 30
0.0
 40
16.416578
100
AcDbArc
 50
270.0
 51
315.0
  0
INSERT
  5
3B2
100
AcDbEntity
  8
寸法
  6
CONTINUOUS
 62
     1
100
AcDbBlockReference
  2
_OPEN30
 10
-8.19
 20
-2.850218
 30
0.0
 41
2.0
 42
2.0
 43
2.0
 50
356.507721
  0
INSERT
  5
3B3
100
AcDbEntity
  8
寸法
  6
CONTINUOUS
 62
     1
100
AcDbBlockReference
  2
_OPEN30
 10
3.418274
 20
1.958086
 30
0.0
 41
2.0
 42
2.0
 43
2.0
 50
228.492279
  0
MTEXT
  5
3B4
100
AcDbEntity
  8
寸法
  6
CONTINUOUS
 62
     1
100
AcDbMText
 10
-2.864356
 20
0.709118
 30
0.0
 40
3.0
 41
0.0
 71
     5
 72
     1
  1
\A1;45°
 11
0.92388
 21
0.382683
 31
0.0
  0
POINT
  5
3B5
100
AcDbEntity
  8
DEFPOINTS
  6
CONTINUOUS
 62
     0
100
AcDbPoint
 10
-3.941077
 20
-2.290837
 30
0.0
  0
POINT
  5
3B6
100
AcDbEntity
  8
DEFPOINTS
  6
CONTINUOUS
 62
     0
100
AcDbPoint
 10
-8.19
 20
13.897731
 30
0.0
  0
POINT
  5
3B7
100
AcDbEntity
  8
DEFPOINTS
  6
CONTINUOUS
 62
     0
100
AcDbPoint
 10
-8.19
 20
13.56636
 30
0.0
  0
POINT
  5
3B8
100
AcDbEntity
  8
DEFPOINTS
  6
CONTINUOUS
 62
     0
100
AcDbPoint
 10
-0.234315
 20
5.610675
 30
0.0
  0
POINT
  5
3B9
100
AcDbEntity
  8
DEFPOINTS
  6
CONTINUOUS
 62
     0
100
AcDbPoint
 10
-8.19
 20
13.56636
 30
0.0
  0
ENDBLK
  5
2B2
100
AcDbEntity
  8
0
100
AcDbBlockEnd
  0
BLOCK
  5
313
100
AcDbEntity
  8
0
100
AcDbBlockBegin
  2
*D13
 70
     1
 10
0.0
 20
0.0
 30
0.0
  3
*D13
  1

  0
LINE
  5
315
100
AcDbEntity
  8
寸法
  6
CONTINUOUS
 62
     1
100
AcDbLine
 10
-95.557719
 20
17.236871
 30
0.0
 11
-83.504744
 21
21.455928
 31
0.0
1001
ACAD
1000
RTLwPs
1070
   158
  0
MTEXT
  5
316
100
AcDbEntity
  8
寸法
  6
CONTINUOUS
 62
     1
100
AcDbMText
 10
-91.900417
 20
21.165821
 30
0.0
 40
3.0
 41
0.0
 71
     5
 72
     1
  1
\A1;%%c50
 11
0.943846
 21
0.330386
 31
0.0
1001
ACAD
1000
MTEXTBEGIN
1070
    73
1070
     1
1070
    44
1040
1.0
1070
    74
1070
     0
1000
MTEXTEND
1000
MTEXTBEGIN
1070
    73
1070
     1
1070
    44
1040
1.0
1070
    74
1070
     0
1000
MTEXTEND
  0
LINE
  5
317
100
AcDbEntity
  8
寸法
  6
CONTINUOUS
 62
     1
100
AcDbLine
 10
-58.020908
 20
30.37636
 30
0.0
 11
-81.617052
 21
22.116701
 31
0.0
1001
ACAD
1000
RTLwPs
1070
   158
  0
INSERT
  5
318
100
AcDbEntity
  8
寸法
  6
CONTINUOUS
 62
     1
100
AcDbBlockReference
  2
_OPEN30
 10
-81.617052
 20
22.116701
 30
0.0
 41
2.0
 42
2.0
 43
2.0
 50
19.292229
1001
ACAD
1000
RTLwPs
1070
   158
  0
POINT
  5
319
100
AcDbEntity
  8
DEFPOINTS
  6
CONTINUOUS
 62
     0
100
AcDbPoint
 10
-81.617052
 20
22.116701
 30
0.0
  0
POINT
  5
31A
100
AcDbEntity
  8
DEFPOINTS
  6
CONTINUOUS
 62
     0
100
AcDbPoint
 10
-58.020908
 20
30.37636
 30
0.0
  0
ENDBLK
  5
314
100
AcDbEntity
  8
0
100
AcDbBlockEnd
  0
BLOCK
  5
326
100
AcDbEntity
  8
0
100
AcDbBlockBegin
  2
*D14
 70
     1
 10
0.0
 20
0.0
 30
0.0
  3
*D14
  1

  0
LINE
  5
31D
100
AcDbEntity
  8
寸法
  6
CONTINUOUS
 62
     1
100
AcDbLine
 10
-54.520905
 20
25.37636
 30
0.0
 11
-39.0
 21
25.37636
 31
0.0
1001
ACAD
1000
RTLwPs
1070
   158
  0
LINE
  5
31E
100
AcDbEntity
  8
寸法
  6
CONTINUOUS
 62
     1
100
AcDbLine
 10
-57.020905
 20
5.376359
 30
0.0
 11
-39.0
 21
5.376359
 31
0.0
1001
ACAD
1000
RTLwPs
1070
   158
  0
LINE
  5
31F
100
AcDbEntity
  8
寸法
  6
CONTINUOUS
 62
     1
100
AcDbLine
 10
-40.0
 20
23.37636
 30
0.0
 11
-40.0
 21
7.376359
 31
0.0
1001
ACAD
1000
RTLwPs
1070
   158
  0
INSERT
  5
320
100
AcDbEntity
  8
寸法
  6
CONTINUOUS
 62
     1
100
AcDbBlockReference
  2
_OPEN30
 10
-40.0
 20
25.37636
 30
0.0
 41
2.0
 42
2.0
 43
2.0
 50
90.0
1001
ACAD
1000
RTLwPs
1070
   158
  0
INSERT
  5
321
100
AcDbEntity
  8
寸法
  6
CONTINUOUS
 62
     1
100
AcDbBlockReference
  2
_OPEN30
 10
-40.0
 20
5.376359
 30
0.0
 41
2.0
 42
2.0
 43
2.0
 50
270.0
1001
ACAD
1000
RTLwPs
1070
   158
  0
MTEXT
  5
322
100
AcDbEntity
  8
寸法
  6
CONTINUOUS
 62
     1
100
AcDbMText
 10
-42.5
 20
15.376359
 30
0.0
 40
3.0
 41
0.0
 71
     5
 72
     1
  1
\A1;20
 11
0.0
 21
1.0
 31
0.0
1001
ACAD
1000
MTEXTBEGIN
1070
    73
1070
     1
1070
    44
1040
1.0
1070
    74
1070
     0
1000
MTEXTEND
1000
MTEXTBEGIN
1070
    73
1070
     1
1070
    44
1040
1.0
1070
    74
1070
     0
1000
MTEXTEND
  0
POINT
  5
323
100
AcDbEntity
  8
DEFPOINTS
  6
CONTINUOUS
 62
     0
100
AcDbPoint
 10
-55.520905
 20
25.37636
 30
0.0
  0
POINT
  5
324
100
AcDbEntity
  8
DEFPOINTS
  6
CONTINUOUS
 62
     0
100
AcDbPoint
 10
-58.020905
 20
5.376359
 30
0.0
  0
POINT
  5
325
100
AcDbEntity
  8
DEFPOINTS
  6
CONTINUOUS
 62
     0
100
AcDbPoint
 10
-40.0
 20
5.376359
 30
0.0
  0
ENDBLK
  5
327
100
AcDbEntity
  8
0
100
AcDbBlockEnd
  0
ENDSEC
  0
SECTION
  2
ENTITIES
  0
POINT
  5
24
100
AcDbEntity
  8
0
  6
CONTINUOUS
 62
     7
100
AcDbPoint
 10
-58.020905
 20
5.37636
 30
0.0
  0
POINT
  5
25
100
AcDbEntity
  8
0
  6
CONTINUOUS
 62
     7
100
AcDbPoint
 10
0.0
 20
5.37636
 30
0.0
  0
POINT
  5
26
100
AcDbEntity
  8
0
  6
CONTINUOUS
 62
     7
100
AcDbPoint
 10
0.0
 20
-55.93489
 30
0.0
  0
POINT
  5
27
100
AcDbEntity
  8
0
  6
CONTINUOUS
 62
     7
100
AcDbPoint
 10
90.336723
 20
-67.93489
 30
0.0
  0
LINE
  5
28
100
AcDbEntity
  8
0
  6
CONTINUOUS
 62
     7
100
AcDbLine
 10
-8.19
 20
13.56636
 30
0.0
 11
-0.234315
 21
5.610675
 31
0.0
  0
LINE
  5
29
100
AcDbEntity
  8
0
  6
CONTINUOUS
 62
     7
100
AcDbLine
 10
0.897056
 20
5.610675
 30
0.0
 11
6.84037
 21
11.553988
 31
0.0
  0
LINE
  5
2A
100
AcDbEntity
  8
0
  6
CONTINUOUS
 62
     7
100
AcDbLine
 10
3.5
 20
25.37636
 30
0.0
 11
39.0
 21
25.37636
 31
0.0
  0
LINE
  5
2B
100
AcDbEntity
  8
0
  6
CONTINUOUS
 62
     7
100
AcDbLine
 10
0.695685
 20
21.983418
 30
0.0
 11
4.042592
 21
18.636511
 31
0.0
  0
LINE
  5
2C
100
AcDbEntity
  8
0
  6
CONTINUOUS
 62
     7
100
AcDbLine
 10
39.0
 20
25.37636
 30
0.0
 11
39.0
 21
9.37636
 31
0.0
  0
LINE
  5
2D
100
AcDbEntity
  8
0
  6
CONTINUOUS
 62
     7
100
AcDbLine
 10
15.0
 20
9.37636
 30
0.0
 11
39.0
 21
9.37636
 31
0.0
  0
LINE
  5
2E
100
AcDbEntity
  8
0
  6
CONTINUOUS
 62
     7
100
AcDbLine
 10
16.305134
 20
-52.434894
 30
0.0
 11
39.0
 21
-52.434894
 31
0.0
  0
LINE
  5
2F
100
AcDbEntity
  8
0
  6
CONTINUOUS
 62
     7
100
AcDbLine
 10
39.0
 20
-52.434894
 30
0.0
 11
39.0
 21
-67.93489
 31
0.0
  0
LINE
  5
30
100
AcDbEntity
  8
0
  6
CONTINUOUS
 62
     7
100
AcDbLine
 10
-3.427489
 20
-67.93489
 30
0.0
 11
39.0
 21
-67.93489
 31
0.0
  0
LINE
  5
31
100
AcDbEntity
  8
0
  6
CONTINUOUS
 62
     7
100
AcDbLine
 10
90.336723
 20
-53.434894
 30
0.0
 11
90.336723
 21
-67.93489
 31
0.0
  0
LINE
  5
32
100
AcDbEntity
  8
0
  6
CONTINUOUS
 62
     7
100
AcDbLine
 10
106.33672
 20
-53.434894
 30
0.0
 11
106.33672
 21
-66.93489
 31
0.0
  0
LINE
  5
33
100
AcDbEntity
  8
0
  6
CONTINUOUS
 62
     7
100
AcDbLine
 10
90.336723
 20
-67.93489
 30
0.0
 11
105.336711
 21
-67.93489
 31
0.0
  0
LINE
  5
34
100
AcDbEntity
  8
0
  6
CONTINUOUS
 62
     7
100
AcDbLine
 10
91.336723
 20
-52.434894
 30
0.0
 11
105.33672
 21
-52.434894
 31
0.0
  0
LINE
  5
35
100
AcDbEntity
  8
0
  6
CONTINUOUS
 62
     7
100
AcDbLine
 10
91.336723
 20
-52.434894
 30
0.0
 11
90.336723
 21
-53.434894
 31
0.0
  0
LINE
  5
36
100
AcDbEntity
  8
0
  6
CONTINUOUS
 62
     7
100
AcDbLine
 10
105.33672
 20
-52.434894
 30
0.0
 11
106.33672
 21
-53.434894
 31
0.0
  0
LINE
  5
37
100
AcDbEntity
  8
0
  6
CONTINUOUS
 62
     7
100
AcDbLine
 10
105.336711
 20
-67.93489
 30
0.0
 11
106.33672
 21
-66.93489
 31
0.0
  0
LINE
  5
38
100
AcDbEntity
  8
0
  6
CENTER
 62
     1
 48
0.5
100
AcDbLine
 10
88.36467
 20
-55.3936
 30
0.0
 11
111.41307
 21
-63.782531
 31
0.0
  0
LINE
  5
39
100
AcDbEntity
  8
0
  6
CENTER
 62
     1
 48
0.5
100
AcDbLine
 10
4.0
 20
-61.599044
 30
0.0
 11
4.0
 21
-67.93489
 31
0.0
  0
LINE
  5
3A
100
AcDbEntity
  8
0
  6
CENTER
 62
     1
 48
0.5
100
AcDbLine
 10
0.58958
 20
-64.93489
 30
0.0
 11
7.128542
 21
-64.93489
 31
0.0
  0
LINE
  5
3B
100
AcDbEntity
  8
0
  6
CONTINUOUS
 62
     7
100
AcDbLine
 10
1.662742
 20
6.37636
 30
0.0
 11
12.0
 21
6.37636
 31
0.0
  0
LINE
  5
3C
100
AcDbEntity
  8
0
  6
CONTINUOUS
 62
     7
100
AcDbLine
 10
16.305134
 20
10.37636
 30
0.0
 11
22.721552
 21
10.37636
 31
0.0
  0
LINE
  5
3D
100
AcDbEntity
  8
0
  6
CONTINUOUS
 62
     7
100
AcDbLine
 10
16.305134
 20
24.37636
 30
0.0
 11
39.0
 21
24.37636
 31
0.0
  0
LINE
  5
3E
100
AcDbEntity
  8
0
  6
CONTINUOUS
 62
     7
100
AcDbLine
 10
15.0
 20
9.37636
 30
0.0
 11
12.0
 21
6.37636
 31
0.0
  0
LINE
  5
3F
100
AcDbEntity
  8
0
  6
CONTINUOUS
 62
     7
100
AcDbLine
 10
47.0
 20
19.37636
 30
0.0
 11
47.0
 21
15.37636
 31
0.0
  0
LINE
  5
40
100
AcDbEntity
  8
0
  6
CENTER
 62
     1
 48
0.5
100
AcDbLine
 10
36.333008
 20
17.37636
 30
0.0
 11
48.930676
 21
17.37636
 31
0.0
  0
LINE
  5
41
100
AcDbEntity
  8
0
  6
CONTINUOUS
 62
     7
100
AcDbLine
 10
42.0
 20
21.37636
 30
0.0
 11
42.0
 21
13.37636
 31
0.0
  0
LINE
  5
42
100
AcDbEntity
  8
0
  6
CONTINUOUS
 62
     7
100
AcDbLine
 10
39.0
 20
14.87636
 30
0.0
 11
42.0
 21
14.87636
 31
0.0
  0
LINE
  5
43
100
AcDbEntity
  8
0
  6
CONTINUOUS
 62
     7
100
AcDbLine
 10
39.0
 20
19.87636
 30
0.0
 11
42.0
 21
19.87636
 31
0.0
  0
LINE
  5
44
100
AcDbEntity
  8
0
  6
CONTINUOUS
 62
     7
100
AcDbLine
 10
44.5
 20
21.87636
 30
0.0
 11
47.0
 21
19.376361
 31
0.0
  0
LINE
  5
45
100
AcDbEntity
  8
0
  6
CONTINUOUS
 62
     7
100
AcDbLine
 10
44.499996
 20
12.876358
 30
0.0
 11
46.999996
 21
15.376358
 31
0.0
  0
LINE
  5
46
100
AcDbEntity
  8
0
  6
CONTINUOUS
 62
     7
100
AcDbLine
 10
42.5
 20
12.87636
 30
0.0
 11
44.5
 21
12.87636
 31
0.0
  0
LINE
  5
47
100
AcDbEntity
  8
0
  6
CONTINUOUS
 62
     7
100
AcDbLine
 10
42.5
 20
21.87636
 30
0.0
 11
44.5
 21
21.87636
 31
0.0
  0
LINE
  5
48
100
AcDbEntity
  8
0
  6
CONTINUOUS
 62
     7
100
AcDbLine
 10
42.5
 20
21.876356
 30
0.0
 11
42.0
 21
21.376358
 31
0.0
  0
LINE
  5
49
100
AcDbEntity
  8
0
  6
CONTINUOUS
 62
     7
100
AcDbLine
 10
42.000004
 20
13.376361
 30
0.0
 11
42.500004
 21
12.876362
 31
0.0
  0
LINE
  5
4A
100
AcDbEntity
  8
0
  6
CONTINUOUS
 62
     7
100
AcDbLine
 10
42.5
 20
21.87636
 30
0.0
 11
42.5
 21
12.876359
 31
0.0
  0
LINE
  5
4B
100
AcDbEntity
  8
0
  6
CONTINUOUS
 62
     7
100
AcDbLine
 10
44.5
 20
21.87636
 30
0.0
 11
44.5
 21
12.87636
 31
0.0
  0
LINE
  5
4C
100
AcDbEntity
  8
0
  6
CONTINUOUS
 62
     7
100
AcDbLine
 10
39.0
 20
19.87636
 30
0.0
 11
39.0
 21
14.87636
 31
0.0
  0
LINE
  5
4D
100
AcDbEntity
  8
0
  6
CONTINUOUS
 62
     7
100
AcDbLine
 10
39.0
 20
15.37636
 30
0.0
 11
42.0
 21
15.37636
 31
0.0
  0
LINE
  5
4E
100
AcDbEntity
  8
0
  6
CONTINUOUS
 62
     7
100
AcDbLine
 10
39.0
 20
19.37636
 30
0.0
 11
42.0
 21
19.37636
 31
0.0
  0
LINE
  5
4F
100
AcDbEntity
  8
0
  6
CONTINUOUS
 62
     7
100
AcDbLine
 10
47.0
 20
-58.43489
 30
0.0
 11
47.0
 21
-62.43489
 31
0.0
  0
LINE
  5
50
100
AcDbEntity
  8
0
  6
CENTER
 62
     1
 48
0.5
100
AcDbLine
 10
36.097404
 20
-60.43489
 30
0.0
 11
48.930676
 21
-60.43489
 31
0.0
  0
LINE
  5
51
100
AcDbEntity
  8
0
  6
CONTINUOUS
 62
     7
100
AcDbLine
 10
42.0
 20
-56.43489
 30
0.0
 11
42.0
 21
-64.43489
 31
0.0
  0
LINE
  5
52
100
AcDbEntity
  8
0
  6
CONTINUOUS
 62
     7
100
AcDbLine
 10
39.0
 20
-62.93489
 30
0.0
 11
42.0
 21
-62.93489
 31
0.0
  0
LINE
  5
53
100
AcDbEntity
  8
0
  6
CONTINUOUS
 62
     7
100
AcDbLine
 10
39.0
 20
-57.93489
 30
0.0
 11
42.0
 21
-57.93489
 31
0.0
  0
LINE
  5
54
100
AcDbEntity
  8
0
  6
CONTINUOUS
 62
     7
100
AcDbLine
 10
44.5
 20
-55.93489
 30
0.0
 11
46.999996
 21
-58.43489
 31
0.0
  0
LINE
  5
55
100
AcDbEntity
  8
0
  6
CONTINUOUS
 62
     7
100
AcDbLine
 10
44.499996
 20
-64.93489
 30
0.0
 11
46.999996
 21
-62.43489
 31
0.0
  0
LINE
  5
56
100
AcDbEntity
  8
0
  6
CONTINUOUS
 62
     7
100
AcDbLine
 10
42.5
 20
-64.93489
 30
0.0
 11
44.5
 21
-64.93489
 31
0.0
  0
LINE
  5
57
100
AcDbEntity
  8
0
  6
CONTINUOUS
 62
     7
100
AcDbLine
 10
42.5
 20
-55.93489
 30
0.0
 11
44.5
 21
-55.93489
 31
0.0
  0
LINE
  5
58
100
AcDbEntity
  8
0
  6
CONTINUOUS
 62
     7
100
AcDbLine
 10
42.499992
 20
-55.93489
 30
0.0
 11
41.999996
 21
-56.43489
 31
0.0
  0
LINE
  5
59
100
AcDbEntity
  8
0
  6
CONTINUOUS
 62
     7
100
AcDbLine
 10
42.000011
 20
-64.434898
 30
0.0
 11
42.500004
 21
-64.93489
 31
0.0
  0
LINE
  5
5A
100
AcDbEntity
  8
0
  6
CONTINUOUS
 62
     7
100
AcDbLine
 10
42.5
 20
-55.93489
 30
0.0
 11
42.5
 21
-64.93489
 31
0.0
  0
LINE
  5
5B
100
AcDbEntity
  8
0
  6
CONTINUOUS
 62
     7
100
AcDbLine
 10
44.5
 20
-55.93489
 30
0.0
 11
44.5
 21
-64.93489
 31
0.0
  0
LINE
  5
5C
100
AcDbEntity
  8
0
  6
CONTINUOUS
 62
     7
100
AcDbLine
 10
39.0
 20
-57.93489
 30
0.0
 11
39.0
 21
-62.93489
 31
0.0
  0
LINE
  5
5D
100
AcDbEntity
  8
0
  6
CONTINUOUS
 62
     7
100
AcDbLine
 10
39.0
 20
-62.43489
 30
0.0
 11
42.0
 21
-62.43489
 31
0.0
  0
LINE
  5
5E
100
AcDbEntity
  8
0
  6
CONTINUOUS
 62
     7
100
AcDbLine
 10
39.0
 20
-58.43489
 30
0.0
 11
42.0
 21
-58.43489
 31
0.0
  0
LINE
  5
5F
100
AcDbEntity
  8
0
  6
CENTER
 62
     1
 48
0.5
100
AcDbLine
 10
27.0
 20
18.372124
 30
0.0
 11
27.0
 21
8.015005
 31
0.0
  0
LINE
  5
60
100
AcDbEntity
  8
0
  6
CONTINUOUS
 62
     7
100
AcDbLine
 10
16.128807
 20
-53.434894
 30
0.0
 11
22.126381
 21
-53.434894
 31
0.0
  0
LINE
  5
61
100
AcDbEntity
  8
0
  6
CONTINUOUS
 62
     7
100
AcDbLine
 10
31.87322
 20
-53.434894
 30
0.0
 11
39.0
 21
-53.434894
 31
0.0
  0
LINE
  5
62
100
AcDbEntity
  8
0
  6
CONTINUOUS
 62
     7
100
AcDbLine
 10
12.0
 20
-57.494934
 30
0.0
 11
12.0
 21
-61.93489
 31
0.0
  0
LINE
  5
63
100
AcDbEntity
  8
0
  6
CONTINUOUS
 62
     7
100
AcDbLine
 10
21.721552
 20
9.37636
 30
0.0
 11
22.72155
 21
10.37636
 31
0.0
  0
LINE
  5
64
100
AcDbEntity
  8
0
  6
CONTINUOUS
 62
     7
100
AcDbLine
 10
31.278448
 20
10.37636
 30
0.0
 11
32.278446
 21
9.37636
 31
0.0
  0
LINE
  5
65
100
AcDbEntity
  8
0
  6
CONTINUOUS
 62
     7
100
AcDbLine
 10
31.278448
 20
10.37636
 30
0.0
 11
39.0
 21
10.37636
 31
0.0
  0
LINE
  5
66
100
AcDbEntity
  8
0
  6
CONTINUOUS
 62
     7
100
AcDbLine
 10
-69.020905
 20
25.37636
 30
0.0
 11
-55.520905
 21
25.37636
 31
0.0
  0
LINE
  5
67
100
AcDbEntity
  8
0
  6
CONTINUOUS
 62
     7
100
AcDbLine
 10
-70.020905
 20
24.37636
 30
0.0
 11
-70.020905
 21
9.174206
 31
0.0
  0
LINE
  5
68
100
AcDbEntity
  8
0
  6
CONTINUOUS
 62
     7
100
AcDbLine
 10
-69.020905
 20
25.37636
 30
0.0
 11
-70.020905
 21
24.376362
 31
0.0
  0
LINE
  5
69
100
AcDbEntity
  8
0
  6
CONTINUOUS
 62
     7
100
AcDbLine
 10
-55.520905
 20
25.376362
 30
0.0
 11
-54.520905
 21
24.37636
 31
0.0
  0
LINE
  5
6A
100
AcDbEntity
  8
0
  6
CONTINUOUS
 62
     7
100
AcDbLine
 10
-57.343021
 20
9.37636
 30
0.0
 11
-55.520905
 21
9.37636
 31
0.0
  0
LINE
  5
6B
100
AcDbEntity
  8
0
  6
CONTINUOUS
 62
     7
100
AcDbLine
 10
-55.520905
 20
9.376359
 30
0.0
 11
-54.520905
 21
10.37636
 31
0.0
  0
LINE
  5
6C
100
AcDbEntity
  8
0
  6
CONTINUOUS
 62
     7
100
AcDbLine
 10
-54.520905
 20
10.37636
 30
0.0
 11
-54.520905
 21
12.018718
 31
0.0
  0
LINE
  5
6D
100
AcDbEntity
  8
0
  6
CONTINUOUS
 62
     7
100
AcDbLine
 10
-54.520905
 20
23.341034
 30
0.0
 11
-54.520905
 21
24.37636
 31
0.0
  0
LINE
  5
6F
100
AcDbEntity
  8
0
  6
CONTINUOUS
 62
     7
100
AcDbLine
 10
0.338038
 20
22.214397
 30
0.0
 11
3.500001
 21
25.37636
 31
0.0
  0
LINE
  5
70
100
AcDbEntity
  8
0
  6
CONTINUOUS
 62
     7
100
AcDbLine
 10
-8.19
 20
-54.490768
 30
0.0
 11
1.662742
 21
-56.228073
 31
0.0
  0
LINE
  5
71
100
AcDbEntity
  8
0
  6
CONTINUOUS
 62
     7
100
AcDbLine
 10
-7.412878
 20
-57.856857
 30
0.0
 11
1.11054
 21
-59.359764
 31
0.0
  0
LINE
  5
72
100
AcDbEntity
  8
0
  6
CONTINUOUS
 62
     7
100
AcDbLine
 10
2.296917
 20
-55.784019
 30
0.0
 11
14.325191
 21
-57.90493
 31
0.0
  0
LINE
  5
73
100
AcDbEntity
  8
0
  6
CONTINUOUS
 62
     7
100
AcDbLine
 10
16.305134
 20
-52.434894
 30
0.0
 11
15.483648
 21
-57.093765
 31
0.0
  0
LINE
  5
74
100
AcDbEntity
  8
0
  6
CONTINUOUS
 62
     7
100
AcDbLine
 10
-0.965766
 20
-58.99366
 30
0.0
 11
-0.965766
 21
-61.43489
 31
0.0
  0
LINE
  5
75
100
AcDbEntity
  8
0
  6
CONTINUOUS
 62
     7
100
AcDbLine
 10
-8.19
 20
-54.490776
 30
0.0
 11
-7.412878
 21
-57.856857
 31
0.0
  0
LINE
  5
76
100
AcDbEntity
  8
0
  6
CONTINUOUS
 62
     7
100
AcDbLine
 10
-7.279097
 20
-57.880447
 30
0.0
 11
-6.458489
 21
-61.43489
 31
0.0
  0
LINE
  5
77
100
AcDbEntity
  8
0
  6
CONTINUOUS
 62
     7
100
AcDbLine
 10
-3.411594
 20
-67.968978
 30
0.0
 11
-6.458489
 21
-61.43489
 31
0.0
  0
LINE
  5
78
100
AcDbEntity
  8
0
  6
CONTINUOUS
 62
     7
100
AcDbLine
 10
0.18036
 20
-67.93489
 30
0.0
 11
-0.965766
 21
-61.43489
 31
0.0
  0
LINE
  5
79
100
AcDbEntity
  8
0
  6
CONTINUOUS
 62
     7
100
AcDbLine
 10
15.0
 20
-57.785476
 30
0.0
 11
15.0
 21
-67.93489
 31
0.0
  0
LINE
  5
7A
100
AcDbEntity
  8
0
  6
CONTINUOUS
 62
     7
100
AcDbLine
 10
15.31
 20
25.37636
 30
0.0
 11
15.31
 21
23.473332
 31
0.0
  0
LINE
  5
7B
100
AcDbEntity
  8
0
  6
CONTINUOUS
 62
     7
100
AcDbLine
 10
16.305134
 20
24.37636
 30
0.0
 11
16.305134
 21
23.205454
 31
0.0
  0
LINE
  5
7C
100
AcDbEntity
  8
0
  6
CONTINUOUS
 62
     7
100
AcDbLine
 10
16.305132
 20
10.37636
 30
0.0
 11
15.309999
 21
9.370916
 31
0.0
  0
LINE
  5
7D
100
AcDbEntity
  8
0
  6
CONTINUOUS
 62
     7
100
AcDbLine
 10
16.305132
 20
24.37636
 30
0.0
 11
15.309999
 21
25.37636
 31
0.0
  0
LINE
  5
7E
100
AcDbEntity
  8
0
  6
CONTINUOUS
 62
     7
100
AcDbLine
 10
16.305134
 20
11.928623
 30
0.0
 11
16.305134
 21
10.37636
 31
0.0
  0
LINE
  5
7F
100
AcDbEntity
  8
0
  6
CONTINUOUS
 62
     7
100
AcDbLine
 10
15.31
 20
11.660747
 30
0.0
 11
15.31
 21
9.370915
 31
0.0
  0
LINE
  5
80
100
AcDbEntity
  8
0
  6
CONTINUOUS
 62
     7
100
AcDbLine
 10
95.63372
 20
-61.763938
 30
0.0
 11
106.33672
 21
-65.659515
 31
0.0
  0
LINE
  5
81
100
AcDbEntity
  8
0
  6
CONTINUOUS
 62
     7
100
AcDbLine
 10
98.027863
 20
-55.186088
 30
0.0
 11
106.33672
 21
-58.210266
 31
0.0
  0
LINE
  5
82
100
AcDbEntity
  8
0
  6
CONTINUOUS
 62
     7
100
AcDbLine
 10
90.336723
 20
-61.698295
 30
0.0
 11
95.035187
 21
-63.408401
 31
0.0
  0
LINE
  5
83
100
AcDbEntity
  8
0
  6
CONTINUOUS
 62
     7
100
AcDbLine
 10
95.58567
 20
-52.434894
 30
0.0
 11
98.626396
 21
-53.541626
 31
0.0
  0
LINE
  5
84
100
AcDbEntity
  8
0
  6
CONTINUOUS
 62
     7
100
AcDbLine
 10
98.626396
 20
-53.541626
 30
0.0
 11
95.035187
 21
-63.408401
 31
0.0
  0
LINE
  5
85
100
AcDbEntity
  8
0
  6
CENTER
 62
     1
 48
0.5
100
AcDbLine
 10
26.0
 20
-49.995067
 30
0.0
 11
26.0
 21
-64.901603
 31
0.0
  0
LINE
  5
86
100
AcDbEntity
  8
0
  6
CENTER
 62
     1
 48
0.5
100
AcDbLine
 10
28.0
 20
-49.995067
 30
0.0
 11
28.0
 21
-64.901603
 31
0.0
  0
LINE
  5
87
100
AcDbEntity
  8
0
  6
CONTINUOUS
 62
     7
100
AcDbLine
 10
26.0
 20
-61.698303
 30
0.0
 11
28.0
 21
-61.698303
 31
0.0
  0
LINE
  5
88
100
AcDbEntity
  8
0
  6
CONTINUOUS
 62
     7
100
AcDbLine
 10
26.0
 20
-53.541629
 30
0.0
 11
28.0
 21
-53.541629
 31
0.0
  0
LINE
  5
89
100
AcDbEntity
  8
0
  6
CONTINUOUS
 62
     7
100
AcDbLine
 10
26.0
 20
-55.186088
 30
0.0
 11
28.0
 21
-55.186088
 31
0.0
  0
LINE
  5
8A
100
AcDbEntity
  8
0
  6
CONTINUOUS
 62
     7
100
AcDbLine
 10
26.0
 20
-58.210266
 30
0.0
 11
28.0
 21
-58.210266
 31
0.0
  0
LINE
  5
8B
100
AcDbEntity
  8
0
  6
CENTER
 62
     1
 48
0.5
100
AcDbLine
 10
12.019802
 20
25.823158
 30
0.0
 11
16.555923
 21
8.894125
 31
0.0
  0
LINE
  5
8C
100
AcDbEntity
  8
0
  6
CENTER
 62
     1
 48
0.5
100
AcDbLine
 10
-2.144792
 20
13.160538
 30
0.0
 11
24.481674
 21
20.295078
 31
0.0
  0
LINE
  5
8D
100
AcDbEntity
  8
0
  6
CONTINUOUS
 62
     7
100
AcDbLine
 10
0.967821
 20
16.84157
 30
0.0
 11
2.391326
 21
11.528978
 31
0.0
  0
LINE
  5
8E
100
AcDbEntity
  8
0
  6
CONTINUOUS
 62
     7
100
AcDbLine
 10
0.967821
 20
16.841571
 30
0.0
 11
11.245797
 21
22.751368
 31
0.0
  0
LINE
  5
8F
100
AcDbEntity
  8
0
  6
CONTINUOUS
 62
     7
100
AcDbLine
 10
2.391326
 20
11.528978
 30
0.0
 11
14.247215
 21
11.549931
 31
0.0
  0
LINE
  5
90
100
AcDbEntity
  8
0
  6
CONTINUOUS
 62
     7
100
AcDbLine
 10
19.242153
 20
20.858177
 30
0.0
 11
19.637001
 21
20.963977
 31
0.0
  0
LINE
  5
91
100
AcDbEntity
  8
0
  6
CONTINUOUS
 62
     7
100
AcDbLine
 10
20.225664
 20
17.187659
 30
0.0
 11
20.620514
 21
17.293459
 31
0.0
  0
LINE
  5
92
100
AcDbEntity
  8
0
  6
CENTER
 62
     7
100
AcDbLine
 10
19.481709
 20
21.543531
 30
0.0
 11
20.775805
 21
16.713903
 31
0.0
  0
LINE
  5
93
100
AcDbEntity
  8
0
  6
CONTINUOUS
 62
     7
100
AcDbLine
 10
6.414656
 20
-49.957981
 30
0.0
 11
20.236609
 21
-52.395164
 31
0.0
  0
LINE
  5
94
100
AcDbEntity
  8
0
  6
CONTINUOUS
 62
     7
100
AcDbLine
 10
1.471153
 20
-52.335674
 30
0.0
 11
2.894658
 21
-52.586677
 31
0.0
  0
LINE
  5
95
100
AcDbEntity
  8
0
  6
CONTINUOUS
 62
     7
100
AcDbLine
 10
1.471153
 20
-52.335674
 30
0.0
 11
0.811291
 21
-56.077941
 31
0.0
  0
LINE
  5
96
100
AcDbEntity
  8
0
  6
CONTINUOUS
 62
     7
100
AcDbLine
 10
2.894658
 20
-52.586677
 30
0.0
 11
2.329857
 21
-55.789825
 31
0.0
  0
LINE
  5
97
100
AcDbEntity
  8
0
  6
CONTINUOUS
 62
     7
100
AcDbLine
 10
-64.020905
 20
6.37636
 30
0.0
 11
-59.779896
 21
6.37636
 31
0.0
  0
LINE
  5
98
100
AcDbEntity
  8
0
  6
CONTINUOUS
 62
     7
100
AcDbLine
 10
-64.020905
 20
13.897731
 30
0.0
 11
-64.020905
 21
6.37636
 31
0.0
  0
LINE
  5
99
100
AcDbEntity
  8
0
  6
CONTINUOUS
 62
     7
100
AcDbLine
 10
-6.225334
 20
-61.93489
 30
0.0
 11
12.0
 21
-61.93489
 31
0.0
  0
LINE
  5
9A
100
AcDbEntity
  8
0
  6
CONTINUOUS
 62
     7
100
AcDbLine
 10
11.999999
 20
-61.93489
 30
0.0
 11
15.0
 21
-67.93489
 31
0.0
  0
LINE
  5
9B
100
AcDbEntity
  8
0
  6
CONTINUOUS
 62
     7
100
AcDbLine
 10
-70.020905
 20
9.174206
 30
0.0
 11
-64.020905
 21
6.37636
 31
0.0
  0
LINE
  5
9C
100
AcDbEntity
  8
0
  6
CONTINUOUS
 62
     7
100
AcDbLine
 10
-0.234315
 20
5.610675
 30
0.0
 11
0.0
 21
5.37636
 31
0.0
  0
LINE
  5
9D
100
AcDbEntity
  8
0
  6
CONTINUOUS
 62
     7
100
AcDbLine
 10
-7.955685
 20
14.463416
 30
0.0
 11
-0.435685
 21
21.983416
 31
0.0
  0
LINE
  5
9E
100
AcDbEntity
  8
0
  6
CONTINUOUS
 62
     7
100
AcDbLine
 10
-64.020905
 20
13.897731
 30
0.0
 11
-56.576782
 21
13.897731
 31
0.0
  0
LINE
  5
9F
100
AcDbEntity
  8
0
  6
CONTINUOUS
 62
     7
100
AcDbLine
 10
1.662742
 20
-56.228073
 30
0.0
 11
1.11054
 21
-59.359764
 31
0.0
  0
LINE
  5
A0
100
AcDbEntity
  8
0
  6
CONTINUOUS
 62
     7
100
AcDbLine
 10
1.662742
 20
-56.228073
 30
0.0
 11
2.296918
 21
-55.784019
 31
0.0
  0
LINE
  5
A1
100
AcDbEntity
  8
0
  6
CONTINUOUS
 62
     7
100
AcDbLine
 10
-58.020908
 20
5.37636
 30
0.0
 11
-56.576786
 21
13.897731
 31
0.0
  0
LINE
  5
A2
100
AcDbEntity
  8
0
  6
CONTINUOUS
 62
     7
100
AcDbLine
 10
-60.962807
 20
7.048855
 30
0.0
 11
-59.802124
 21
13.897731
 31
0.0
  0
LINE
  5
A3
100
AcDbEntity
  8
0
  6
CONTINUOUS
 62
     7
100
AcDbLine
 10
-58.020905
 20
5.376359
 30
0.0
 11
-60.962807
 21
7.048854
 31
0.0
  0
LINE
  5
A4
100
AcDbEntity
  8
0
  6
CONTINUOUS
 62
     7
100
AcDbLine
 10
-56.576782
 20
13.897731
 30
0.0
 11
-58.569157
 21
25.37636
 31
0.0
  0
LINE
  5
A5
100
AcDbEntity
  8
0
  6
CONTINUOUS
 62
     7
100
AcDbLine
 10
-59.802124
 20
13.89773
 30
0.0
 11
-60.954113
 21
20.534679
 31
0.0
  0
LINE
  5
A6
100
AcDbEntity
  8
0
  6
CONTINUOUS
 62
     7
100
AcDbLine
 10
-60.954113
 20
20.534679
 30
0.0
 11
-58.020901
 21
22.217732
 31
0.0
  0
LINE
  5
A7
100
AcDbEntity
  8
0
  6
CONTINUOUS
 62
     7
100
AcDbLine
 10
-64.020905
 20
13.89773
 30
0.0
 11
-70.020905
 21
17.14435
 31
0.0
  0
LINE
  5
A8
100
AcDbEntity
  8
0
  6
CONTINUOUS
 62
     7
100
AcDbLine
 10
0.0
 20
-55.93489
 30
0.0
 11
-0.552201
 21
-59.066574
 31
0.0
  0
LINE
  5
A9
100
AcDbEntity
  8
0
  6
CONTINUOUS
 62
     7
100
AcDbLine
 10
-57.087753
 20
16.841571
 30
0.0
 11
-56.087936
 21
17.015111
 31
0.0
  0
LINE
  5
AA
100
AcDbEntity
  8
0
  6
CONTINUOUS
 62
     7
100
AcDbLine
 10
-56.978218
 20
11.528977
 30
0.0
 11
-55.189579
 21
11.839435
 31
0.0
  0
LINE
  5
AB
100
AcDbEntity
  8
0
  6
CONTINUOUS
 62
     7
100
AcDbLine
 10
-56.087936
 20
17.015111
 30
0.0
 11
-55.189579
 21
11.839435
 31
0.0
  0
LINE
  5
AC
100
AcDbEntity
  8
0
  6
CONTINUOUS
 62
     7
100
AcDbLine
 10
-53.317436
 20
23.549921
 30
0.0
 11
-52.000282
 21
15.961406
 31
0.0
  0
LINE
  5
AD
100
AcDbEntity
  8
0
  6
CONTINUOUS
 62
     7
100
AcDbLine
 10
-53.317436
 20
23.549921
 30
0.0
 11
-58.107815
 21
22.718445
 31
0.0
  0
LINE
  5
AE
100
AcDbEntity
  8
0
  6
CONTINUOUS
 62
     7
100
AcDbLine
 10
20.236609
 20
-52.395164
 30
0.0
 11
20.229603
 21
-52.434894
 31
0.0
  0
LINE
  5
AF
100
AcDbEntity
  8
0
  6
CENTER
 62
     1
 48
0.5
100
AcDbLine
 10
27.0
 20
-48.706337
 30
0.0
 11
27.0
 21
-64.901603
 31
0.0
  0
LINE
  5
B0
100
AcDbEntity
  8
0
  6
CONTINUOUS
 62
     7
100
AcDbLine
 10
0.0
 20
5.37636
 30
0.0
 11
0.331371
 21
5.37636
 31
0.0
  0
ARC
  5
B1
100
AcDbEntity
  8
0
  6
CONTINUOUS
 62
     7
100
AcDbCircle
 10
0.331371
 20
6.17636
 30
0.0
 40
0.8
100
AcDbArc
 50
225.0
 51
315.0
  0
CIRCLE
  5
B2
100
AcDbEntity
  8
0
  6
CONTINUOUS
 62
     7
100
AcDbCircle
 10
4.0
 20
-64.93489
 30
0.0
 40
2.0
  0
CIRCLE
  5
B3
100
AcDbEntity
  8
0
  6
CONTINUOUS
 62
     7
100
AcDbCircle
 10
4.0
 20
-64.93489
 30
0.0
 40
1.8
  0
ARC
  5
B4
100
AcDbEntity
  8
0
  6
CONTINUOUS
 62
     7
100
AcDbCircle
 10
14.49884
 20
-56.92012
 30
0.0
 40
1.0
100
AcDbArc
 50
260.0
 51
350.0
  0
ARC
  5
B5
100
AcDbEntity
  8
0
  6
CONTINUOUS
 62
     7
100
AcDbCircle
 10
20.128756
 20
19.128718
 30
0.0
 40
1.9
100
AcDbArc
 50
284.99999
 51
105.0
  0
ARC
  5
B6
100
AcDbEntity
  8
0
  6
CONTINUOUS
 62
     7
100
AcDbCircle
 10
5.754944
 20
-54.914268
 30
0.0
 40
5.0
100
AcDbArc
 50
77.581851
 51
148.95451
  0
ARC
  5
B7
100
AcDbEntity
  8
0
  6
CONTINUOUS
 62
     7
100
AcDbCircle
 10
7.178449
 20
-55.165267
 30
0.0
 40
5.0
100
AcDbArc
 50
77.581216
 51
148.95451
  0
ARC
  5
B8
100
AcDbEntity
  8
0
  6
CONTINUOUS
 62
     7
100
AcDbCircle
 10
-7.39
 20
13.897731
 30
0.0
 40
0.8
100
AcDbArc
 50
135.0
 51
225.0
  0
ARC
  5
B9
100
AcDbEntity
  8
0
  6
CONTINUOUS
 62
     7
100
AcDbCircle
 10
0.13
 20
21.41773
 30
0.0
 40
0.8
100
AcDbArc
 50
45.000001
 51
135.0
  0
ARC
  5
BA
100
AcDbEntity
  8
0
  6
CONTINUOUS
 62
     7
100
AcDbCircle
 10
-55.847519
 20
15.629995
 30
0.0
 40
3.847237
100
AcDbArc
 50
279.84686
 51
9.846858
  0
ARC
  5
BB
100
AcDbEntity
  8
0
  6
CONTINUOUS
 62
     7
100
AcDbCircle
 10
-56.745872
 20
20.805671
 30
0.0
 40
3.847236
100
AcDbArc
 50
279.84686
 51
9.846858
  0
LWPOLYLINE
  5
BC
100
AcDbEntity
  8
0
  6
CONTINUOUS
 62
     7
100
AcDbPolyline
 90
       17
 70
     0
 43
0.0
 10
31.278448
 20
10.37636
 42
0.049114
 10
31.196282
 20
11.210825
 42
0.049112
 10
30.952954
 20
12.013208
 42
0.049121
 10
30.55772
 20
12.752859
 42
0.049123
 10
30.025776
 20
13.401224
 42
0.049135
 10
29.377404
 20
13.933476
 42
0.049147
 10
28.637449
 20
14.329066
 42
0.04915
 10
27.834465
 20
14.572643
 42
0.049114
 10
27.0
 20
14.654809
 42
0.049114
 10
26.165535
 20
14.572643
 42
0.049112
 10
25.363152
 20
14.329315
 42
0.049121
 10
24.623501
 20
13.934081
 42
0.049123
 10
23.975136
 20
13.402136
 42
0.049135
 10
23.442885
 20
12.753764
 42
0.049147
 10
23.047294
 20
12.013809
 42
0.04915
 10
22.803717
 20
11.210825
 42
0.049114
 10
22.721552
 20
10.37636
  0
LWPOLYLINE
  5
CF
100
AcDbEntity
  8
0
  6
CONTINUOUS
 62
     7
100
AcDbPolyline
 90
       17
 70
     0
 43
0.0
 10
23.481861
 20
-52.436053
 42
0.039531
 10
22.770787
 20
-52.875144
 42
0.040699
 10
22.138828
 20
-53.422216
 42
0.041973
 10
21.60537
 20
-54.065898
 42
0.043212
 10
21.188677
 20
-54.790738
 42
0.044252
 10
20.904478
 20
-55.576972
 42
0.04493
 10
20.764309
 20
-56.400931
 42
0.045066
 10
20.773895
 20
-57.235071
 42
0.044835
 10
20.932695
 20
-58.055042
 42
0.044057
 10
21.233743
 20
-58.833369
 42
0.043087
 10
21.666195
 20
-59.549426
 42
0.041793
 10
22.212771
 20
-60.181496
 42
0.040539
 10
22.855585
 20
-60.715556
 42
0.039407
 10
23.57533
 20
-61.140644
 42
0.03849
 10
24.352431
 20
-61.449076
 42
0.037847
 10
25.167426
 20
-61.635872
 42
0.037461
 10
26.0
 20
-61.698303
  0
LWPOLYLINE
  5
E2
100
AcDbEntity
  8
0
  6
CONTINUOUS
 62
     7
100
AcDbPolyline
 90
       17
 70
     0
 43
0.0
 10
28.0
 20
-61.698303
 42
0.037495
 10
28.833333
 20
-61.635757
 42
0.037841
 10
29.648176
 20
-61.448887
 42
0.038481
 10
30.425043
 20
-61.140461
 42
0.039407
 10
31.144732
 20
-60.715333
 42
0.040554
 10
31.787711
 20
-60.181024
 42
0.041822
 10
32.33452
 20
-59.548443
 42
0.043074
 10
32.766674
 20
-58.832521
 42
0.044149
 10
33.068035
 20
-58.052508
 42
0.04488
 10
33.226452
 20
-57.231653
 42
0.045165
 10
33.235275
 20
-56.395681
 42
0.044901
 10
33.094303
 20
-55.572366
 42
0.044162
 10
32.809999
 20
-54.787891
 42
0.043163
 10
32.39334
 20
-54.064043
 42
0.041958
 10
31.859746
 20
-53.420762
 42
0.040696
 10
31.227561
 20
-52.873934
 42
0.039544
 10
30.516026
 20
-52.434968
  0
LWPOLYLINE
  5
F5
100
AcDbEntity
  8
0
  6
CONTINUOUS
 62
     7
100
AcDbPolyline
 90
       17
 70
     0
 43
0.0
 10
33.170675
 20
-57.620656
 42
0.023795
 10
33.068052
 20
-57.18748
 42
0.023583
 10
32.924911
 20
-56.765973
 42
0.02335
 10
32.742637
 20
-56.359161
 42
0.023053
 10
32.523311
 20
-55.970746
 42
0.022732
 10
32.269163
 20
-55.60368
 42
0.022354
 10
31.983238
 20
-55.261277
 42
0.021992
 10
31.66811
 20
-54.945537
 42
0.021637
 10
31.326658
 20
-54.658446
 42
0.021301
 10
30.961826
 20
-54.401679
 42
0.020992
 10
30.576587
 20
-54.176633
 42
0.020716
 10
30.173918
 20
-53.984446
 42
0.020478
 10
29.756781
 20
-53.826032
 42
0.020283
 10
29.328121
 20
-53.702099
 42
0.020134
 10
28.890855
 20
-53.613173
 42
0.020032
 10
28.447885
 20
-53.559615
 42
0.01998
 10
28.002078
 20
-53.54163
  0
LWPOLYLINE
  5
108
100
AcDbEntity
  8
0
  6
CONTINUOUS
 62
     7
100
AcDbPolyline
 90
       17
 70
     0
 43
0.0
 10
26.0
 20
-53.541629
 42
0.019916
 10
25.555614
 20
-53.559334
 42
0.020009
 10
25.113098
 20
-53.612535
 42
0.0201
 10
24.676475
 20
-53.700972
 42
0.020274
 10
24.247862
 20
-53.824485
 42
0.020468
 10
23.830742
 20
-53.982457
 42
0.020705
 10
23.428028
 20
-54.174193
 42
0.020983
 10
23.042665
 20
-54.398798
 42
0.021294
 10
22.677626
 20
-54.655152
 42
0.021632
 10
22.335886
 20
-54.941874
 42
0.021989
 10
22.020403
 20
-55.257297
 42
0.022353
 10
21.734073
 20
-55.599437
 42
0.022712
 10
21.479683
 20
-55.965976
 42
0.023055
 10
21.259852
 20
-56.354242
 42
0.023367
 10
21.076961
 20
-56.761217
 42
0.023635
 10
20.93308
 20
-57.183552
 42
0.023846
 10
20.829898
 20
-57.617602
  0
LWPOLYLINE
  5
11B
100
AcDbEntity
  8
0
  6
CONTINUOUS
 62
     7
100
AcDbPolyline
 90
       17
 70
     0
 43
0.0
 10
29.175021
 20
-61.573055
 42
0.040985
 10
29.718432
 20
-61.340228
 42
0.042085
 10
30.215942
 20
-61.020801
 42
0.043426
 10
30.651973
 20
-60.621351
 42
0.044866
 10
31.011171
 20
-60.151476
 42
0.046221
 10
31.279356
 20
-59.624295
 42
0.047277
 10
31.444855
 20
-59.056539
 42
0.047769
 10
31.499994
 20
-58.468871
 42
0.047786
 10
31.442468
 20
-57.881137
 42
0.04719
 10
31.275016
 20
-57.314855
 42
0.046158
 10
31.005175
 20
-56.789076
 42
0.044816
 10
30.644594
 20
-56.320651
 42
0.043389
 10
30.207412
 20
-55.92269
 42
0.04207
 10
29.708843
 20
-55.604739
 42
0.040987
 10
29.164471
 20
-55.373456
 42
0.040221
 10
28.589831
 20
-55.233127
 42
0.039837
 10
28.0
 20
-55.186088
  0
LWPOLYLINE
  5
12E
100
AcDbEntity
  8
0
  6
CONTINUOUS
 62
     7
100
AcDbPolyline
 90
       17
 70
     0
 43
0.0
 10
26.0
 20
-55.186088
 42
0.039748
 10
25.411471
 20
-55.232918
 42
0.040204
 10
24.836996
 20
-55.37297
 42
0.040965
 10
24.292773
 20
-55.60389
 42
0.042059
 10
23.79412
 20
-55.921522
 42
0.043396
 10
23.356611
 20
-56.319346
 42
0.044836
 10
22.995614
 20
-56.787836
 42
0.046194
 10
22.725347
 20
-57.313951
 42
0.047258
 10
22.557552
 20
-57.881034
 42
0.047844
 10
22.500005
 20
-58.469471
 42
0.047792
 10
22.555311
 20
-59.057408
 42
0.047205
 10
22.720641
 20
-59.624288
 42
0.046181
 10
22.988552
 20
-60.151037
 42
0.044844
 10
23.347465
 20
-60.620738
 42
0.043417
 10
23.783274
 20
-61.020198
 42
0.042094
 10
24.280775
 20
-61.339808
 42
0.041005
 10
24.824388
 20
-61.572857
  0
LWPOLYLINE
  5
141
100
AcDbEntity
  8
0
  6
CONTINUOUS
 62
     7
100
AcDbPolyline
 90
       17
 70
     0
 43
0.0
 10
31.108134
 20
-59.987043
 42
0.018086
 10
30.987711
 20
-59.786065
 42
0.017926
 10
30.852725
 20
-59.593685
 42
0.017671
 10
30.704659
 20
-59.411715
 42
0.017446
 10
30.544189
 20
-59.240582
 42
0.017222
 10
30.372247
 20
-59.080975
 42
0.017005
 10
30.189788
 20
-58.933497
 42
0.016797
 10
29.997778
 20
-58.798676
 42
0.016603
 10
29.797191
 20
-58.676965
 42
0.016424
 10
29.589001
 20
-58.568754
 42
0.016263
 10
29.374181
 20
-58.474368
 42
0.016122
 10
29.153696
 20
-58.39408
 42
0.016003
 10
28.928509
 20
-58.328111
 42
0.015905
 10
28.699573
 20
-58.276634
 42
0.015832
 10
28.467837
 20
-58.23978
 42
0.015782
 10
28.234244
 20
-58.21764
 42
0.015738
 10
28.0
 20
-58.210266
  0
LWPOLYLINE
  5
154
100
AcDbEntity
  8
0
  6
CONTINUOUS
 62
     7
100
AcDbPolyline
 90
       17
 70
     0
 43
0.0
 10
26.0
 20
-58.210266
 42
0.015701
 10
25.7663
 20
-58.217606
 42
0.015757
 10
25.533058
 20
-58.239667
 42
0.015824
 10
25.301425
 20
-58.276442
 42
0.015864
 10
25.073059
 20
-58.327706
 42
0.015998
 10
24.84789
 20
-58.39356
 42
0.016118
 10
24.627419
 20
-58.473727
 42
0.016258
 10
24.412598
 20
-58.567988
 42
0.01642
 10
24.20439
 20
-58.676077
 42
0.016599
 10
24.003763
 20
-58.79767
 42
0.016795
 10
23.81169
 20
-58.932384
 42
0.017003
 10
23.629146
 20
-59.079769
 42
0.017222
 10
23.457103
 20
-59.239298
 42
0.017447
 10
23.296517
 20
-59.41037
 42
0.017673
 10
23.148326
 20
-59.592296
 42
0.017897
 10
23.013436
 20
-59.784301
 42
0.018112
 10
22.892707
 20
-59.985518
  0
LINE
  5
167
100
AcDbEntity
  8
0
  6
CONTINUOUS
 62
     7
100
AcDbLine
 10
104.240661
 20
-67.93489
 30
0.0
 11
106.33672
 21
-65.838822
 31
0.0
  0
LINE
  5
168
100
AcDbEntity
  8
0
  6
CONTINUOUS
 62
     7
100
AcDbLine
 10
101.995596
 20
-67.93489
 30
0.0
 11
104.82221
 21
-65.108275
 31
0.0
  0
LINE
  5
169
100
AcDbEntity
  8
0
  6
CONTINUOUS
 62
     7
100
AcDbLine
 10
99.750535
 20
-67.93489
 30
0.0
 11
103.17623
 21
-64.509189
 31
0.0
  0
LINE
  5
16A
100
AcDbEntity
  8
0
  6
CONTINUOUS
 62
     7
100
AcDbLine
 10
97.505473
 20
-67.93489
 30
0.0
 11
101.53025
 21
-63.910102
 31
0.0
  0
LINE
  5
16B
100
AcDbEntity
  8
0
  6
CONTINUOUS
 62
     7
100
AcDbLine
 10
95.260412
 20
-67.93489
 30
0.0
 11
99.884277
 21
-63.311015
 31
0.0
  0
LINE
  5
16C
100
AcDbEntity
  8
0
  6
CONTINUOUS
 62
     7
100
AcDbLine
 10
93.021324
 20
-67.928916
 30
0.0
 11
98.238301
 21
-62.711929
 31
0.0
  0
LINE
  5
16D
100
AcDbEntity
  8
0
  6
CONTINUOUS
 62
     7
100
AcDbLine
 10
90.770288
 20
-67.93489
 30
0.0
 11
96.592325
 21
-62.112842
 31
0.0
  0
LINE
  5
16E
100
AcDbEntity
  8
0
  6
CONTINUOUS
 62
     7
100
AcDbLine
 10
90.336723
 20
-66.123389
 30
0.0
 11
93.580989
 21
-62.879117
 31
0.0
  0
LINE
  5
16F
100
AcDbEntity
  8
0
  6
CONTINUOUS
 62
     7
100
AcDbLine
 10
90.336723
 20
-63.878323
 30
0.0
 11
91.935012
 21
-62.280031
 31
0.0
  0
LINE
  5
170
100
AcDbEntity
  8
0
  6
CONTINUOUS
 62
     7
100
AcDbLine
 10
105.34571
 20
-57.849568
 30
0.0
 11
106.33672
 21
-56.858556
 31
0.0
  0
LINE
  5
171
100
AcDbEntity
  8
0
  6
CONTINUOUS
 62
     7
100
AcDbLine
 10
103.69974
 20
-57.250481
 30
0.0
 11
106.33672
 21
-54.61349
 31
0.0
  0
LINE
  5
172
100
AcDbEntity
  8
0
  6
CONTINUOUS
 62
     7
100
AcDbLine
 10
102.05376
 20
-56.651395
 30
0.0
 11
105.80349
 21
-52.901659
 31
0.0
  0
LINE
  5
173
100
AcDbEntity
  8
0
  6
CONTINUOUS
 62
     7
100
AcDbLine
 10
100.40778
 20
-56.052309
 30
0.0
 11
104.02519
 21
-52.434894
 31
0.0
  0
LINE
  5
174
100
AcDbEntity
  8
0
  6
CONTINUOUS
 62
     7
100
AcDbLine
 10
98.761808
 20
-55.453222
 30
0.0
 11
101.78013
 21
-52.434894
 31
0.0
  0
LINE
  5
175
100
AcDbEntity
  8
0
  6
CONTINUOUS
 62
     7
100
AcDbLine
 10
98.481187
 20
-53.488777
 30
0.0
 11
99.535068
 21
-52.434894
 31
0.0
  0
LINE
  5
176
100
AcDbEntity
  8
0
  6
CONTINUOUS
 62
     7
100
AcDbLine
 10
96.835211
 20
-52.88969
 30
0.0
 11
97.290006
 21
-52.434894
 31
0.0
  0
TEXT
  5
179
100
AcDbEntity
  8
0
  6
CONTINUOUS
100
AcDbText
 10
6.280953
 20
-98.832529
 30
0.0
 40
6.0
  1
CSSER12CA
100
AcDbText
  0
LINE
  5
1A0
102
{ACAD_REACTORS
330
1A8
102
}
100
AcDbEntity
  8
寸法
  6
CONTINUOUS
 62
     1
100
AcDbLine
 10
112.352763
 20
-64.124551
 30
0.0
 11
131.514464
 21
-71.09884
 31
0.0
  0
LINE
  5
1A1
102
{ACAD_REACTORS
330
1A8
102
}
100
AcDbEntity
  8
寸法
  6
CONTINUOUS
 62
     1
100
AcDbLine
 10
106.33672
 20
-61.934891
 30
0.0
 11
133.130316
 21
-61.934891
 31
0.0
  0
ARC
  5
1A2
102
{ACAD_REACTORS
330
1A8
102
}
100
AcDbEntity
  8
寸法
  6
CONTINUOUS
 62
     1
100
AcDbCircle
 10
106.33672
 20
-61.934891
 30
0.0
 40
25.793596
100
AcDbArc
 50
335.556251
 51
340.000001
  0
LINE
  5
1A3
102
{ACAD_REACTORS
330
1A8
102
}
100
AcDbEntity
  8
寸法
  6
CONTINUOUS
 62
     1
100
AcDbLine
 10
129.818383
 20
-72.608272
 30
0.0
 11
125.225207
 21
-82.713357
 31
0.0
  0
ARC
  5
1A4
102
{ACAD_REACTORS
330
1A8
102
}
100
AcDbEntity
  8
寸法
  6
CONTINUOUS
 62
     1
100
AcDbCircle
 10
106.33672
 20
-61.934891
 30
0.0
 40
25.793596
100
AcDbArc
 50
344.443751
 51
355.55625
  0
INSERT
  5
1A5
102
{ACAD_REACTORS
330
1A8
102
}
100
AcDbEntity
  8
寸法
  6
CONTINUOUS
 62
     1
100
AcDbBlockReference
  2
_OPEN30
 10
130.574772
 20
-70.75682
 30
0.0
 41
2.0
 42
2.0
 43
2.0
 50
252.221876
  0
INSERT
  5
1A6
102
{ACAD_REACTORS
330
1A8
102
}
100
AcDbEntity
  8
寸法
  6
CONTINUOUS
 62
     1
100
AcDbBlockReference
  2
_OPEN30
 10
132.130316
 20
-61.934891
 30
0.0
 41
2.0
 42
2.0
 43
2.0
 50
87.778125
  0
MTEXT
  5
1A7
102
{ACAD_REACTORS
330
1A8
102
}
100
AcDbEntity
  8
寸法
  6
CONTINUOUS
 62
     1
100
AcDbMText
 10
125.245875
 20
-76.626315
 30
0.0
 40
3.0
 41
0.0
 71
     5
 72
     1
  1
\A1;20°
 11
0.4138
 21
0.910368
 31
0.0
1001
ACAD
1000
MTEXTBEGIN
1070
    73
1070
     1
1070
    44
1040
1.0
1070
    74
1070
     0
1000
MTEXTEND
1000
MTEXTBEGIN
1070
    73
1070
     1
1070
    44
1040
1.0
1070
    74
1070
     0
1000
MTEXTEND
  0
DIMENSION
  5
1A9
100
AcDbEntity
  8
寸法
  6
CONTINUOUS
100
AcDbDimension
  2
*D1
 10
120.0
 20
-67.93489
 30
0.0
 11
117.5
 21
-64.93489
 31
0.0
 70
    32
  3
STANDARD
100
AcDbAlignedDimension
 13
106.33672
 23
-61.934891
 33
0.0
 14
105.336711
 24
-67.93489
 34
0.0
 50
90.0
100
AcDbRotatedDimension
  0
DIMENSION
  5
1C3
100
AcDbEntity
  8
寸法
  6
CONTINUOUS
100
AcDbDimension
  2
*D2
 10
60.0
 20
-67.93489
 30
0.0
 11
57.5
 21
-60.184892
 31
0.0
 70
    32
  3
STANDARD
100
AcDbAlignedDimension
 13
39.0
 23
-52.434894
 33
0.0
 14
39.0
 24
-67.93489
 34
0.0
 50
90.0
100
AcDbRotatedDimension
  0
DIMENSION
  5
1D0
100
AcDbEntity
  8
寸法
  6
CONTINUOUS
100
AcDbDimension
  2
*D3
 10
-20.0
 20
-67.93489
 30
0.0
 11
-22.5
 21
-61.212829
 31
0.0
 70
    32
  1
12
  3
STANDARD
100
AcDbAlignedDimension
 13
-8.19
 23
-54.490768
 33
0.0
 14
-3.427489
 24
-67.93489
 34
0.0
 50
90.0
100
AcDbRotatedDimension
  0
DIMENSION
  5
1DD
100
AcDbEntity
  8
寸法
  6
CONTINUOUS
100
AcDbDimension
  2
*D4
 10
26.0
 20
-80.0
 30
0.0
 11
20.0
 21
-77.5
 31
0.0
 70
    32
  3
STANDARD
100
AcDbAlignedDimension
 13
28.0
 23
-64.901603
 33
0.0
 14
26.0
 24
-64.901603
 34
0.0
100
AcDbRotatedDimension
  0
DIMENSION
  5
1EC
100
AcDbEntity
  8
寸法
  6
CONTINUOUS
100
AcDbDimension
  2
*D5
 10
27.0
 20
-40.0
 30
0.0
 11
37.0
 21
-37.5
 31
0.0
 70
    32
  3
STANDARD
100
AcDbAlignedDimension
 13
47.0
 23
-58.43489
 33
0.0
 14
27.0
 24
-48.706337
 34
0.0
100
AcDbRotatedDimension
  0
ARC
  5
1FF
100
AcDbEntity
  8
0
  6
CENTER
 62
     1
 48
0.5
100
AcDbCircle
 10
29.31
 20
-54.490776
 30
0.0
 40
37.5
100
AcDbArc
 50
179.999988
 51
233.875501
  0
DIMENSION
  5
200
100
AcDbEntity
  8
0
  6
CONTINUOUS
100
AcDbDimension
  2
*D6
 10
29.31
 20
-54.490776
 30
0.0
 11
-8.064247
 21
-82.269646
 31
0.0
 70
    36
  1
%%c75
  3
STANDARD
100
AcDbRadialDimension
 15
0.457303
 25
-78.444311
 35
0.0
 40
0.0
1001
ACAD
1000
DSTYLE
1002
{
1070
   288
1070
     1
1002
}
  0
DIMENSION
  5
21A
100
AcDbEntity
  8
寸法
  6
CONTINUOUS
100
AcDbDimension
  2
*D7
 10
-8.19
 20
-20.0
 30
0.0
 11
19.405
 21
-17.5
 31
0.0
 70
    32
  1
55.0
  3
STANDARD
100
AcDbAlignedDimension
 13
47.0
 23
15.37636
 33
0.0
 14
-8.19
 24
13.56636
 34
0.0
100
AcDbRotatedDimension
  0
DIMENSION
  5
227
100
AcDbEntity
  8
寸法
  6
CONTINUOUS
100
AcDbDimension
  2
*D8
 10
0.0
 20
-10.0
 30
0.0
 11
23.5
 21
-7.5
 31
0.0
 70
    32
  3
STANDARD
100
AcDbAlignedDimension
 13
47.0
 23
15.37636
 33
0.0
 14
0.0
 24
5.37636
 34
0.0
100
AcDbRotatedDimension
  0
DIMENSION
  5
268
100
AcDbEntity
  8
寸法
  6
CONTINUOUS
100
AcDbDimension
  2
*D9
 10
39.0
 20
0.0
 30
0.0
 11
43.0
 21
2.5
 31
0.0
 70
    32
  3
STANDARD
100
AcDbAlignedDimension
 13
47.0
 23
15.37636
 33
0.0
 14
39.0
 24
9.37636
 34
0.0
100
AcDbRotatedDimension
  0
LINE
  5
287
100
AcDbEntity
  8
0
  6
CONTINUOUS
100
AcDbLine
 10
-8.19
 20
13.897731
 30
0.0
 11
-8.19
 21
13.56636
 31
0.0
  0
DIMENSION
  5
288
100
AcDbEntity
  8
寸法
  6
CONTINUOUS
100
AcDbDimension
  2
*D10
 10
-20.0
 20
13.56636
 30
0.0
 11
-22.5
 21
19.47136
 31
0.0
 70
    32
  1
11.7
  3
STANDARD
100
AcDbAlignedDimension
 13
3.5
 23
25.37636
 33
0.0
 14
-8.19
 24
13.56636
 34
0.0
 50
90.0
100
AcDbRotatedDimension
  0
DIMENSION
  5
295
100
AcDbEntity
  8
寸法
  6
CONTINUOUS
100
AcDbDimension
  2
*D11
 10
60.0
 20
9.37636
 30
0.0
 11
57.5
 21
17.37636
 31
0.0
 70
    32
  3
STANDARD
100
AcDbAlignedDimension
 13
39.0
 23
25.37636
 33
0.0
 14
39.0
 24
9.37636
 34
0.0
 50
90.0
100
AcDbRotatedDimension
  0
DIMENSION
  5
2A2
100
AcDbEntity
  8
寸法
  6
CONTINUOUS
100
AcDbDimension
  2
*D12
 10
-8.19
 20
13.56636
 30
0.0
 11
-2.864356
 21
0.709118
 31
0.0
 70
    34
  3
STANDARD
100
AcDb2LineAngularDimension
 13
-8.19
 23
13.56636
 33
0.0
 14
-0.234315
 24
5.610675
 34
0.0
 15
-8.19
 25
13.897731
 35
0.0
 16
-3.941077
 26
-2.290837
 36
0.0
1001
ACAD
1000
DSTYLE
1002
{
1070
   271
1070
     0
1070
   271
1070
     0
1002
}
  0
LINE
  5
308
100
AcDbEntity
  8
0
  6
CENTER
 62
     1
 48
0.5
100
AcDbLine
 10
-58.020908
 20
5.37636
 30
0.0
 11
-58.020908
 21
30.37636
 31
0.0
  0
ARC
  5
30A
100
AcDbEntity
  8
0
  6
CENTER
 62
     1
 48
0.5
100
AcDbCircle
 10
-58.020908
 20
30.37636
 30
0.0
 40
25.0
100
AcDbArc
 50
180.0
 51
270.0
  0
DIMENSION
  5
30B
100
AcDbEntity
  8
寸法
  6
CONTINUOUS
100
AcDbDimension
  2
*D13
 10
-58.020908
 20
30.37636
 30
0.0
 11
-91.074451
 21
18.806207
 31
0.0
 70
   164
  1
%%c50
  3
STANDARD
100
AcDbRadialDimension
 15
-81.617052
 25
22.116701
 35
0.0
 40
0.0
1001
ACAD
1000
DSTYLE
1002
{
1070
   288
1070
     1
1002
}
  0
DIMENSION
  5
31B
100
AcDbEntity
  8
寸法
  6
CONTINUOUS
100
AcDbDimension
  2
*D14
 10
-40.0
 20
5.376359
 30
0.0
 11
-42.5
 21
15.376359
 31
0.0
 70
    32
  3
STANDARD
100
AcDbAlignedDimension
 13
-55.520905
 23
25.37636
 33
0.0
 14
-58.020905
 24
5.376359
 34
0.0
 50
90.0
100
AcDbRotatedDimension
  0
MTEXT
  5
336
100
AcDbEntity
  8
寸法
  6
CONTINUOUS
 62
     1
100
AcDbMText
 10
-55.181307
 20
-67.656652
 30
0.0
 40
3.0
 41
0.0
 71
     5
 72
     1
  1
10%%d
1001
ACAD
1000
MTEXTBEGIN
1070
    73
1070
     1
1070
    44
1040
1.0
1070
    74
1070
     0
1000
MTEXTEND
1000
MTEXTBEGIN
1070
    73
1070
     1
1070
    44
1040
1.0
1070
    74
1070
     0
1000
MTEXTEND
1000
MTEXTBEGIN
1070
    73
1070
     1
1070
    44
1040
1.0
1070
    74
1070
     0
1000
MTEXTEND
1000
MTEXTBEGIN
1070
    73
1070
     1
1070
    44
1040
1.0
1070
    74
1070
     0
1000
MTEXTEND
1000
MTEXTBEGIN
1070
    73
1070
     1
1070
    44
1040
1.0
1070
    74
1070
     0
1000
MTEXTEND
  0
MTEXT
  5
337
100
AcDbEntity
  8
寸法
  6
CONTINUOUS
 62
     1
100
AcDbMText
 10
-69.611802
 20
-55.468978
 30
0.0
 40
3.0
 41
0.0
 71
     5
 72
     1
  1
0%%d
1001
ACAD
1000
MTEXTBEGIN
1070
    73
1070
     1
1070
    44
1040
1.0
1070
    74
1070
     0
1000
MTEXTEND
1000
MTEXTBEGIN
1070
    73
1070
     1
1070
    44
1040
1.0
1070
    74
1070
     0
1000
MTEXTEND
1000
MTEXTBEGIN
1070
    73
1070
     1
1070
    44
1040
1.0
1070
    74
1070
     0
1000
MTEXTEND
1000
MTEXTBEGIN
1070
    73
1070
     1
1070
    44
1040
1.0
1070
    74
1070
     0
1000
MTEXTEND
1000
MTEXTBEGIN
1070
    73
1070
     1
1070
    44
1040
1.0
1070
    74
1070
     0
1000
MTEXTEND
  0
LINE
  5
338
100
AcDbEntity
  8
寸法
  6
CONTINUOUS
100
AcDbLine
 10
-60.020905
 20
-67.968978
 30
0.0
 11
-62.470395
 21
-66.554764
 31
30.0
  0
LINE
  5
339
100
AcDbEntity
  8
寸法
  6
CONTINUOUS
100
AcDbLine
 10
-60.020905
 20
-67.968978
 30
0.0
 11
-62.470395
 21
-69.383192
 31
30.0
  0
LINE
  5
33A
100
AcDbEntity
  8
寸法
  6
CONTINUOUS
100
AcDbLine
 10
-70.020905
 20
-57.968978
 30
0.0
 11
-71.435119
 21
-60.418468
 31
30.0
  0
LINE
  5
33B
100
AcDbEntity
  8
寸法
  6
CONTINUOUS
100
AcDbLine
 10
-70.020905
 20
-57.968978
 30
0.0
 11
-68.606691
 21
-60.418468
 31
30.0
  0
LINE
  5
33C
100
AcDbEntity
  8
寸法
  6
CONTINUOUS
100
AcDbLine
 10
-70.020905
 20
-67.968978
 30
0.0
 11
-70.020905
 21
-57.968978
 31
0.0
  0
LINE
  5
33D
100
AcDbEntity
  8
寸法
  6
CONTINUOUS
100
AcDbLine
 10
-70.020905
 20
-67.968978
 30
0.0
 11
-60.020905
 21
-67.968978
 31
0.0
  0
CIRCLE
  5
3BE
100
AcDbEntity
  8
0
  6
CONTINUOUS
100
AcDbCircle
 10
14.236609
 20
17.549921
 30
0.0
 40
6.0
  0
ENDSEC
  0
SECTION
  2
OBJECTS
  0
DICTIONARY
  5
C
100
AcDbDictionary
  3
ACAD_GROUP
350
D
  3
ACAD_LAYOUT
350
17E
  3
ACAD_MLINESTYLE
350
1B
  3
ACAD_PLOTSETTINGS
350
17F
  3
ACAD_PLOTSTYLENAME
350
17C
  3
ACDBHEADERROUNDTRIPXREC
350
386
  0
DICTIONARY
  5
382
100
AcDbDictionary
280
     1
  3
ACAD_XREC_ROUNDTRIP
360
383
  0
DICTIONARY
  5
3A9
100
AcDbDictionary
280
     1
  3
ACAD_XREC_ROUNDTRIP
360
3AA
  0
DICTIONARY
  5
368
100
AcDbDictionary
280
     1
  3
ACAD_LAYOUTSELFREF
360
3A8
  0
DICTIONARY
  5
366
100
AcDbDictionary
280
     1
  3
ACAD_LAYOUTSELFREF
360
3A7
  0
DICTIONARY
  5
380
100
AcDbDictionary
280
     1
  3
ACAD_XREC_ROUNDTRIP
360
381
  0
DICTIONARY
  5
D
102
{ACAD_REACTORS
330
C
102
}
100
AcDbDictionary
  3
*A1
350
1A8
  0
DICTIONARY
  5
17E
102
{ACAD_XDICTIONARY
360
3AB
102
}
102
{ACAD_REACTORS
330
C
102
}
100
AcDbDictionary
  3
MODEL
350
180
  3
ﾚｲｱｳﾄ1
350
181
  0
DICTIONARY
  5
1B
102
{ACAD_REACTORS
330
C
102
}
100
AcDbDictionary
  3
STANDARD
350
1C
  0
DICTIONARY
  5
17F
102
{ACAD_REACTORS
330
C
102
}
100
AcDbDictionary
  0
ACAD_PROXY_OBJECT
  5
17C
102
{ACAD_REACTORS
330
C
102
}
100
AcDbProxyObject
 90
      499
 91
      500
 93
       86
310
405010041939BDC9B585B0
350
17D
340
17D
 94
        0
  0
DICTIONARY
  5
386
102
{ACAD_REACTORS
330
C
102
}
100
AcDbDictionary
  3
CEPSNTYPE
350
390
  3
DIMSTYLEDATA
350
394
  3
FINGERPRINTGUID
350
391
  3
HYPERLINKBASE
350
389
  3
INSUNITS
350
38F
  3
LAYOUTDICT
350
38B
  3
LWETCUNION
350
38E
  3
PLOTSETDICT
350
38C
  3
PLOTSTYLNAMDICT
350
38D
  3
PSVPSCALE
350
393
  3
PUCSBASE
350
397
  3
PUCSORGBACK
350
39D
  3
PUCSORGBOTTOM
350
399
  3
PUCSORGFRONT
350
39C
  3
PUCSORGLEFT
350
39A
  3
PUCSORGRIGHT
350
39B
  3
PUCSORGTOP
350
398
  3
PUCSORTHOREF
350
395
  3
PUCSORTHOVIEW
350
396
  3
STYLESHEET
350
38A
  3
TSTACKALIGN
350
387
  3
TSTACKSIZE
350
388
  3
UCSBASE
350
3A0
  3
UCSORGBACK
350
3A6
  3
UCSORGBOTTOM
350
3A2
  3
UCSORGFRONT
350
3A5
  3
UCSORGLEFT
350
3A3
  3
UCSORGRIGHT
350
3A4
  3
UCSORGTOP
350
3A1
  3
UCSORTHOREF
350
39E
  3
UCSORTHOVIEW
350
39F
  3
VERSIONGUID
350
392
  0
XRECORD
  5
383
102
{ACAD_REACTORS
330
382
102
}
100
AcDbXrecord
102
EXTNAMES
  1
DEFPOINTS
  2
Defpoints
102
PLOTBIT
280
     0
  0
XRECORD
  5
3AA
102
{ACAD_REACTORS
330
3A9
102
}
100
AcDbXrecord
102
ACADR14ROUNDTRIP
1000
DSTYLE
1002
{
1070
   341
340
186
1070
   342
340
186
1002
}
  0
XRECORD
  5
3A8
102
{ACAD_REACTORS
330
368
102
}
100
AcDbXrecord
340
18
  0
XRECORD
  5
3A7
102
{ACAD_REACTORS
330
366
102
}
100
AcDbXrecord
340
15
  0
XRECORD
  5
381
102
{ACAD_REACTORS
330
380
102
}
100
AcDbXrecord
102
EXTNAMES
  1
_OPEN30
  2
_Open30
  0
GROUP
  5
1A8
102
{ACAD_REACTORS
330
D
102
}
100
AcDbGroup
300

 70
     1
 71
     1
340
1A1
340
1A4
340
1A0
340
1A3
340
1A7
340
1A5
340
1A2
340
1A6
  0
DICTIONARY
  5
3AB
100
AcDbDictionary
280
     1
  3
ACAD_XREC_ROUNDTRIP
360
3AC
  0
ACAD_PROXY_OBJECT
  5
180
102
{ACAD_REACTORS
330
17E
102
}
100
AcDbProxyObject
 90
      499
 91
      502
 93
      548
310
90E4550534F4E20504D2D32303030432C01AAAAAAAAA5A69054D6F64656C901A800000000000000000000000000000000000000000000A1000000000000008902A6A6AAAAD
330
18
330
0
340
0
340
0
 94
        0
  0
ACAD_PROXY_OBJECT
  5
181
102
{ACAD_REACTORS
330
17E
102
}
100
AcDbProxyObject
 90
      499
 91
      502
 93
      964
310
90E4550534F4E20504D2D32303030432C00AAAAAA416AA59106906DAB2B1B3C43140501A800000000000000000000000000000000000000000000A1000000000000008902A6A6A10232D5E076BC5510408CB5781DAF154410232D5E076BC5510408CB5781DAF15C410232D5E076BC5710408CB5781DAF15C4F
330
15
330
0
340
0
340
0
 94
        0
  0
MLINESTYLE
  5
1C
102
{ACAD_REACTORS
330
1B
102
}
100
AcDbMlineStyle
  2
STANDARD
 70
     0
  3

 62
   256
 51
90.0
 52
90.0
 71
     2
 49
0.5
 62
   256
  6
BYLAYER
 49
-0.5
 62
   256
  6
BYLAYER
  0
ACAD_PROXY_OBJECT
  5
17D
102
{ACAD_REACTORS
330
17C
102
}
100
AcDbProxyObject
 90
      499
 91
      501
 93
        0
 94
        0
  0
XRECORD
  5
390
102
{ACAD_REACTORS
330
386
102
}
100
AcDbXrecord
 90
        0
  0
XRECORD
  5
394
102
{ACAD_REACTORS
330
386
102
}
100
AcDbXrecord
1000
DSTYLE
1002
{
1070
   341
340
186
1070
   342
340
186
1002
}
  0
XRECORD
  5
391
102
{ACAD_REACTORS
330
386
102
}
100
AcDbXrecord
  1
{51429E17-08EC-44CC-9A91-455EA0FC1C60}
  0
XRECORD
  5
389
102
{ACAD_REACTORS
330
386
102
}
100
AcDbXrecord
  1

  0
XRECORD
  5
38F
102
{ACAD_REACTORS
330
386
102
}
100
AcDbXrecord
 90
        0
  0
XRECORD
  5
38B
102
{ACAD_REACTORS
330
386
102
}
100
AcDbXrecord
340
17E
  0
XRECORD
  5
38E
102
{ACAD_REACTORS
330
386
102
}
100
AcDbXrecord
 90
    14877
  0
XRECORD
  5
38C
102
{ACAD_REACTORS
330
386
102
}
100
AcDbXrecord
340
17F
  0
XRECORD
  5
38D
102
{ACAD_REACTORS
330
386
102
}
100
AcDbXrecord
340
17C
  0
XRECORD
  5
393
102
{ACAD_REACTORS
330
386
102
}
100
AcDbXrecord
 40
0.0
  0
XRECORD
  5
397
102
{ACAD_REACTORS
330
386
102
}
100
AcDbXrecord
340
0
  0
XRECORD
  5
39D
102
{ACAD_REACTORS
330
386
102
}
100
AcDbXrecord
 10
0.0
 20
0.0
 30
0.0
  0
XRECORD
  5
399
102
{ACAD_REACTORS
330
386
102
}
100
AcDbXrecord
 10
0.0
 20
0.0
 30
0.0
  0
XRECORD
  5
39C
102
{ACAD_REACTORS
330
386
102
}
100
AcDbXrecord
 10
0.0
 20
0.0
 30
0.0
  0
XRECORD
  5
39A
102
{ACAD_REACTORS
330
386
102
}
100
AcDbXrecord
 10
0.0
 20
0.0
 30
0.0
  0
XRECORD
  5
39B
102
{ACAD_REACTORS
330
386
102
}
100
AcDbXrecord
 10
0.0
 20
0.0
 30
0.0
  0
XRECORD
  5
398
102
{ACAD_REACTORS
330
386
102
}
100
AcDbXrecord
 10
0.0
 20
0.0
 30
0.0
  0
XRECORD
  5
395
102
{ACAD_REACTORS
330
386
102
}
100
AcDbXrecord
340
0
  0
XRECORD
  5
396
102
{ACAD_REACTORS
330
386
102
}
100
AcDbXrecord
 70
     0
  0
XRECORD
  5
38A
102
{ACAD_REACTORS
330
386
102
}
100
AcDbXrecord
  1

  0
XRECORD
  5
387
102
{ACAD_REACTORS
330
386
102
}
100
AcDbXrecord
 90
        1
  0
XRECORD
  5
388
102
{ACAD_REACTORS
330
386
102
}
100
AcDbXrecord
 90
       70
  0
XRECORD
  5
3A0
102
{ACAD_REACTORS
330
386
102
}
100
AcDbXrecord
340
0
  0
XRECORD
  5
3A6
102
{ACAD_REACTORS
330
386
102
}
100
AcDbXrecord
 10
0.0
 20
0.0
 30
0.0
  0
XRECORD
  5
3A2
102
{ACAD_REACTORS
330
386
102
}
100
AcDbXrecord
 10
0.0
 20
0.0
 30
0.0
  0
XRECORD
  5
3A5
102
{ACAD_REACTORS
330
386
102
}
100
AcDbXrecord
 10
0.0
 20
0.0
 30
0.0
  0
XRECORD
  5
3A3
102
{ACAD_REACTORS
330
386
102
}
100
AcDbXrecord
 10
0.0
 20
0.0
 30
0.0
  0
XRECORD
  5
3A4
102
{ACAD_REACTORS
330
386
102
}
100
AcDbXrecord
 10
0.0
 20
0.0
 30
0.0
  0
XRECORD
  5
3A1
102
{ACAD_REACTORS
330
386
102
}
100
AcDbXrecord
 10
0.0
 20
0.0
 30
0.0
  0
XRECORD
  5
39E
102
{ACAD_REACTORS
330
386
102
}
100
AcDbXrecord
340
0
  0
XRECORD
  5
39F
102
{ACAD_REACTORS
330
386
102
}
100
AcDbXrecord
 70
     0
  0
XRECORD
  5
392
102
{ACAD_REACTORS
330
386
102
}
100
AcDbXrecord
  1
{588FCB99-0300-4B1C-B4D8-5FF2A0733484}
  0
XRECORD
  5
3AC
102
{ACAD_REACTORS
330
3AB
102
}
100
AcDbXrecord
102
EXTNAMES
  1
MODEL
  2
Model
  0
ENDSEC
  0
EOF
