  0
SECTION
  2
HEADER
  9
$ACADVER
  1
AC1014
  9
$ACADMAINTVER
 70
     0
  9
$DWGCODEPAGE
  3
ANSI_932
  9
$INSBASE
 10
0.0
 20
0.0
 30
0.0
  9
$EXTMIN
 10
-92.436955
 20
-85.702959
 30
0.0
  9
$EXTMAX
 10
124.301287
 20
31.810931
 30
30.0
  9
$LIMMIN
 10
-99.229157
 20
-97.194572
  9
$LIMMAX
 10
125.721607
 20
44.405061
  9
$ORTHOMODE
 70
     1
  9
$REGENMODE
 70
     1
  9
$FILLMODE
 70
     1
  9
$QTEXTMODE
 70
     0
  9
$MIRRTEXT
 70
     1
  9
$DRAGMODE
 70
     2
  9
$LTSCALE
 40
1.0
  9
$OSMODE
 70
    33
  9
$ATTMODE
 70
     1
  9
$TEXTSIZE
 40
0.2
  9
$TRACEWID
 40
0.05
  9
$TEXTSTYLE
  7
STANDARD
  9
$CLAYER
  8
0
  9
$CELTYPE
  6
CONTINUOUS
  9
$CECOLOR
 62
   256
  9
$CELTSCALE
 40
1.0
  9
$DELOBJ
 70
     1
  9
$DISPSILH
 70
     0
  9
$DIMSCALE
 40
1.0
  9
$DIMASZ
 40
2.0
  9
$DIMEXO
 40
1.0
  9
$DIMDLI
 40
10.0
  9
$DIMRND
 40
0.0
  9
$DIMDLE
 40
0.0
  9
$DIMEXE
 40
1.0
  9
$DIMTP
 40
0.0
  9
$DIMTM
 40
0.0
  9
$DIMTXT
 40
3.0
  9
$DIMCEN
 40
2.0
  9
$DIMTSZ
 40
0.0
  9
$DIMTOL
 70
     0
  9
$DIMLIM
 70
     0
  9
$DIMTIH
 70
     0
  9
$DIMTOH
 70
     0
  9
$DIMSE1
 70
     0
  9
$DIMSE2
 70
     0
  9
$DIMTAD
 70
     1
  9
$DIMZIN
 70
     8
  9
$DIMBLK
  1
OPEN30
  9
$DIMASO
 70
     1
  9
$DIMSHO
 70
     1
  9
$DIMPOST
  1

  9
$DIMAPOST
  1

  9
$DIMALT
 70
     0
  9
$DIMALTD
 70
     2
  9
$DIMALTF
 40
25.4
  9
$DIMLFAC
 40
1.0
  9
$DIMTOFL
 70
     1
  9
$DIMTVP
 40
0.0
  9
$DIMTIX
 70
     0
  9
$DIMSOXD
 70
     0
  9
$DIMSAH
 70
     0
  9
$DIMBLK1
  1

  9
$DIMBLK2
  1

  9
$DIMSTYLE
  2
STANDARD
  9
$DIMCLRD
 70
     1
  9
$DIMCLRE
 70
     1
  9
$DIMCLRT
 70
     1
  9
$DIMTFAC
 40
1.0
  9
$DIMGAP
 40
1.0
  9
$DIMJUST
 70
     0
  9
$DIMSD1
 70
     0
  9
$DIMSD2
 70
     0
  9
$DIMTOLJ
 70
     1
  9
$DIMTZIN
 70
     0
  9
$DIMALTZ
 70
     0
  9
$DIMALTTZ
 70
     0
  9
$DIMFIT
 70
     3
  9
$DIMUPT
 70
     0
  9
$DIMUNIT
 70
     2
  9
$DIMDEC
 70
     2
  9
$DIMTDEC
 70
     2
  9
$DIMALTU
 70
     2
  9
$DIMALTTD
 70
     2
  9
$DIMTXSTY
  7
STANDARD
  9
$DIMAUNIT
 70
     0
  9
$LUNITS
 70
     2
  9
$LUPREC
 70
     4
  9
$SKETCHINC
 40
0.1
  9
$FILLETRAD
 40
0.0
  9
$AUNITS
 70
     0
  9
$AUPREC
 70
     0
  9
$MENU
  1
acad
  9
$ELEVATION
 40
0.0
  9
$PELEVATION
 40
0.0
  9
$THICKNESS
 40
0.0
  9
$LIMCHECK
 70
     0
  9
$BLIPMODE
 70
     0
  9
$CHAMFERA
 40
0.0
  9
$CHAMFERB
 40
0.0
  9
$CHAMFERC
 40
0.0
  9
$CHAMFERD
 40
0.0
  9
$SKPOLY
 70
     0
  9
$TDCREATE
 40
2444972.375000000
  9
$TDUPDATE
 40
2451977.440590277
  9
$TDINDWG
 40
0.0142435185
  9
$TDUSRTIMER
 40
0.0142435185
  9
$USRTIMER
 70
     1
  9
$ANGBASE
 50
0.0
  9
$ANGDIR
 70
     0
  9
$PDMODE
 70
     0
  9
$PDSIZE
 40
0.0
  9
$PLINEWID
 40
0.0
  9
$COORDS
 70
     1
  9
$SPLFRAME
 70
     0
  9
$SPLINETYPE
 70
     6
  9
$SPLINESEGS
 70
     8
  9
$ATTDIA
 70
     0
  9
$ATTREQ
 70
     1
  9
$HANDLING
 70
     1
  9
$HANDSEED
  5
368
  9
$SURFTAB1
 70
     6
  9
$SURFTAB2
 70
     6
  9
$SURFTYPE
 70
     6
  9
$SURFU
 70
     6
  9
$SURFV
 70
     6
  9
$UCSNAME
  2

  9
$UCSORG
 10
0.0
 20
0.0
 30
0.0
  9
$UCSXDIR
 10
1.0
 20
0.0
 30
0.0
  9
$UCSYDIR
 10
0.0
 20
1.0
 30
0.0
  9
$PUCSNAME
  2

  9
$PUCSORG
 10
0.0
 20
0.0
 30
0.0
  9
$PUCSXDIR
 10
1.0
 20
0.0
 30
0.0
  9
$PUCSYDIR
 10
0.0
 20
1.0
 30
0.0
  9
$USERI1
 70
     0
  9
$USERI2
 70
     0
  9
$USERI3
 70
     0
  9
$USERI4
 70
     0
  9
$USERI5
 70
     0
  9
$USERR1
 40
0.0
  9
$USERR2
 40
0.0
  9
$USERR3
 40
0.0
  9
$USERR4
 40
0.0
  9
$USERR5
 40
0.0
  9
$WORLDVIEW
 70
     1
  9
$SHADEDGE
 70
     3
  9
$SHADEDIF
 70
    70
  9
$TILEMODE
 70
     1
  9
$MAXACTVP
 70
    48
  9
$PINSBASE
 10
0.0
 20
0.0
 30
0.0
  9
$PLIMCHECK
 70
     0
  9
$PEXTMIN
 10
1.000000E+20
 20
1.000000E+20
 30
1.000000E+20
  9
$PEXTMAX
 10
-1.000000E+20
 20
-1.000000E+20
 30
-1.000000E+20
  9
$PLIMMIN
 10
0.0
 20
0.0
  9
$PLIMMAX
 10
12.0
 20
9.0
  9
$UNITMODE
 70
     0
  9
$VISRETAIN
 70
     1
  9
$PLINEGEN
 70
     0
  9
$PSLTSCALE
 70
     1
  9
$TREEDEPTH
 70
  3020
  9
$PICKSTYLE
 70
     1
  9
$CMLSTYLE
  2
STANDARD
  9
$CMLJUST
 70
     0
  9
$CMLSCALE
 40
1.0
  9
$PROXYGRAPHICS
 70
     1
  9
$MEASUREMENT
 70
     0
  0
ENDSEC
  0
SECTION
  2
CLASSES
  0
CLASS
  1
ACDBDICTIONARYWDFLT
  2
AcDbDictionaryWithDefault
  3
AutoCAD 2000
 90
        0
280
     0
281
     0
  0
CLASS
  1
ACDBPLACEHOLDER
  2
AcDbPlaceHolder
  3
AutoCAD 2000
 90
        0
280
     0
281
     0
  0
CLASS
  1
LAYOUT
  2
AcDbLayout
  3
AutoCAD 2000
 90
        0
280
     0
281
     0
  0
CLASS
  1
LONG_TRANSACTION
  2
AcDbLongTransaction
  3
AutoCAD 2000
 90
        0
280
     0
281
     0
  0
CLASS
  1
LWPOLYLINE
  2
AcDbPolyline
  3
"AutoCAD"
 90
        0
280
     0
281
     1
  0
CLASS
  1
HATCH
  2
AcDbHatch
  3
"ACAD_SEDONA"
 90
        0
280
     0
281
     1
  0
CLASS
  1
XRECORD
  2
AcDbXrecord
  3
"<Built In>"
 90
        0
280
     0
281
     0
  0
CLASS
  1
LONG_TRANSACTION
  2
AcDbLongTransaction
  3
AutoCAD 2000
 90
        0
280
     0
281
     0
  0
CLASS
  1
LWPOLYLINE
  2
AcDbPolyline
  3
"AutoCAD"
 90
        0
280
     0
281
     1
  0
CLASS
  1
HATCH
  2
AcDbHatch
  3
"ACAD_SEDONA"
 90
        0
280
     0
281
     1
  0
CLASS
  1
XRECORD
  2
AcDbXrecord
  3
"<Built In>"
 90
        0
280
     0
281
     0
  0
ENDSEC
  0
SECTION
  2
TABLES
  0
TABLE
  2
VPORT
  5
8
100
AcDbSymbolTable
 70
     2
  0
VPORT
  5
367
100
AcDbSymbolTableRecord
100
AcDbViewportTableRecord
  2
*ACTIVE
 70
     0
 10
0.0
 20
0.0
 11
1.0
 21
1.0
 12
31.835711
 22
-20.567482
 13
0.0
 23
0.0
 14
10.0
 24
10.0
 15
10.0
 25
10.0
 16
0.0
 26
0.0
 36
1.0
 17
0.0
 27
0.0
 37
0.0
 40
153.25418
 41
1.710425
 42
50.0
 43
0.0
 44
0.0
 50
0.0
 51
0.0
 71
     0
 72
   100
 73
     1
 74
     1
 75
     0
 76
     0
 77
     0
 78
     0
  0
ENDTAB
  0
TABLE
  2
LTYPE
  5
5
100
AcDbSymbolTable
 70
     5
  0
LTYPE
  5
12
100
AcDbSymbolTableRecord
100
AcDbLinetypeTableRecord
  2
BYBLOCK
 70
     0
  3

 72
    65
 73
     0
 40
0.0
  0
LTYPE
  5
13
100
AcDbSymbolTableRecord
100
AcDbLinetypeTableRecord
  2
BYLAYER
 70
     0
  3

 72
    65
 73
     0
 40
0.0
  0
LTYPE
  5
14
100
AcDbSymbolTableRecord
100
AcDbLinetypeTableRecord
  2
CONTINUOUS
 70
     0
  3
Solid line
 72
    65
 73
     0
 40
0.0
  0
LTYPE
  5
1F
100
AcDbSymbolTableRecord
100
AcDbLinetypeTableRecord
  2
DASHED
 70
     0
  3
__ __ __ __ __ __ __ __ __ __ __ __ __ __ __
 72
    65
 73
     2
 40
3.5
 49
2.0
 74
     0
 49
-1.5
 74
     0
  0
LTYPE
  5
20
100
AcDbSymbolTableRecord
100
AcDbLinetypeTableRecord
  2
CENTER
 70
     0
  3
____ _ ____ _ ____ _ ____ _ ____ _ ____ _ ____
 72
    65
 73
     4
 40
17.5
 49
13.0
 74
     0
 49
-1.5
 74
     0
 49
1.5
 74
     0
 49
-1.5
 74
     0
  0
LTYPE
  5
21
100
AcDbSymbolTableRecord
100
AcDbLinetypeTableRecord
  2
PHANTOM
 70
     0
  3
_____ _ _ _____ _ _ _____ _ _ _____ _ _ ____  
 72
    65
 73
     6
 40
15.5
 49
8.0
 74
     0
 49
-1.5
 74
     0
 49
1.5
 74
     0
 49
-1.5
 74
     0
 49
1.5
 74
     0
 49
-1.5
 74
     0
  0
LTYPE
  5
22
100
AcDbSymbolTableRecord
100
AcDbLinetypeTableRecord
  2
DOT
 70
     0
  3
. . . . . . . . . . . . . . . . . . . . . . . .
 72
    65
 73
     2
 40
0.25
 49
0.0
 74
     0
 49
-0.25
 74
     0
  0
ENDTAB
  0
TABLE
  2
LAYER
  5
2
100
AcDbSymbolTable
 70
     3
  0
LAYER
  5
E
100
AcDbSymbolTableRecord
100
AcDbLayerTableRecord
  2
0
 70
     0
 62
     7
  6
CONTINUOUS
  0
LAYER
  5
186
100
AcDbSymbolTableRecord
100
AcDbLayerTableRecord
  2
寸法
 70
     0
 62
     1
  6
CONTINUOUS
  0
LAYER
  5
190
102
{ACAD_XDICTIONARY
360
313
102
}
100
AcDbSymbolTableRecord
100
AcDbLayerTableRecord
  2
DEFPOINTS
 70
     0
 62
     7
  6
CONTINUOUS
  0
ENDTAB
  0
TABLE
  2
STYLE
  5
3
100
AcDbSymbolTable
 70
     1
  0
STYLE
  5
F
100
AcDbSymbolTableRecord
100
AcDbTextStyleTableRecord
  2
STANDARD
 70
     0
 40
0.0
 41
1.0
 50
0.0
 71
     0
 42
0.2
  3
txt
  4
BIGFONT
  0
ENDTAB
  0
TABLE
  2
VIEW
  5
6
100
AcDbSymbolTable
 70
     0
  0
ENDTAB
  0
TABLE
  2
UCS
  5
7
100
AcDbSymbolTable
 70
     0
  0
ENDTAB
  0
TABLE
  2
APPID
  5
9
100
AcDbSymbolTable
 70
     1
  0
APPID
  5
10
100
AcDbSymbolTableRecord
100
AcDbRegAppTableRecord
  2
ACAD
 70
     0
  0
ENDTAB
  0
TABLE
  2
DIMSTYLE
  5
A
100
AcDbSymbolTable
 70
     1
  0
DIMSTYLE
105
178
102
{ACAD_XDICTIONARY
360
33A
102
}
102
{ACAD_REACTORS
330
1AA
330
1C4
330
1D1
330
1DE
330
1ED
330
1FA
330
207
330
214
330
233
330
240
330
24F
330
277
330
281
330
299
102
}
100
AcDbSymbolTableRecord
100
AcDbDimStyleTableRecord
  2
STANDARD
 70
     0
  3

  4

  5
OPEN30
  6

  7

 40
1.0
 41
2.0
 42
1.0
 43
10.0
 44
1.0
 45
0.0
 46
0.0
 47
0.0
 48
0.0
140
3.0
141
2.0
142
0.0
143
25.4
144
1.0
145
0.0
146
1.0
147
1.0
 71
     0
 72
     0
 73
     0
 74
     0
 75
     0
 76
     0
 77
     1
 78
     8
170
     0
171
     2
172
     1
173
     0
174
     0
175
     0
176
     1
177
     1
178
     1
270
     2
271
     2
272
     2
273
     2
274
     2
340
F
275
     0
280
     0
281
     0
282
     0
283
     1
284
     0
285
     0
286
     0
287
     3
288
     0
  0
ENDTAB
  0
TABLE
  2
BLOCK_RECORD
  5
1
100
AcDbSymbolTable
 70
    15
  0
BLOCK_RECORD
  5
18
102
{ACAD_XDICTIONARY
360
2E9
102
}
100
AcDbSymbolTableRecord
100
AcDbBlockTableRecord
  2
*MODEL_SPACE
  0
BLOCK_RECORD
  5
15
102
{ACAD_XDICTIONARY
360
2E7
102
}
100
AcDbSymbolTableRecord
100
AcDbBlockTableRecord
  2
*PAPER_SPACE
  0
BLOCK_RECORD
  5
187
102
{ACAD_XDICTIONARY
360
311
102
}
100
AcDbSymbolTableRecord
100
AcDbBlockTableRecord
  2
_OPEN30
  0
BLOCK_RECORD
  5
1AB
100
AcDbSymbolTableRecord
100
AcDbBlockTableRecord
  2
*D1
  0
BLOCK_RECORD
  5
1C5
100
AcDbSymbolTableRecord
100
AcDbBlockTableRecord
  2
*D2
  0
BLOCK_RECORD
  5
1D2
100
AcDbSymbolTableRecord
100
AcDbBlockTableRecord
  2
*D3
  0
BLOCK_RECORD
  5
1DF
100
AcDbSymbolTableRecord
100
AcDbBlockTableRecord
  2
*D4
  0
BLOCK_RECORD
  5
1EE
100
AcDbSymbolTableRecord
100
AcDbBlockTableRecord
  2
*D5
  0
BLOCK_RECORD
  5
1FB
100
AcDbSymbolTableRecord
100
AcDbBlockTableRecord
  2
*D6
  0
BLOCK_RECORD
  5
208
100
AcDbSymbolTableRecord
100
AcDbBlockTableRecord
  2
*D7
  0
BLOCK_RECORD
  5
215
100
AcDbSymbolTableRecord
100
AcDbBlockTableRecord
  2
*D8
  0
BLOCK_RECORD
  5
234
100
AcDbSymbolTableRecord
100
AcDbBlockTableRecord
  2
*D9
  0
BLOCK_RECORD
  5
241
100
AcDbSymbolTableRecord
100
AcDbBlockTableRecord
  2
*D10
  0
BLOCK_RECORD
  5
250
100
AcDbSymbolTableRecord
100
AcDbBlockTableRecord
  2
*D11
  0
BLOCK_RECORD
  5
278
100
AcDbSymbolTableRecord
100
AcDbBlockTableRecord
  2
*D12
  0
BLOCK_RECORD
  5
282
100
AcDbSymbolTableRecord
100
AcDbBlockTableRecord
  2
*D13
  0
BLOCK_RECORD
  5
29A
100
AcDbSymbolTableRecord
100
AcDbBlockTableRecord
  2
*D14
  0
ENDTAB
  0
ENDSEC
  0
SECTION
  2
BLOCKS
  0
BLOCK
  5
19
100
AcDbEntity
  8
0
100
AcDbBlockBegin
  2
*MODEL_SPACE
 70
     0
 10
0.0
 20
0.0
 30
0.0
  3
*MODEL_SPACE
  1

  0
ENDBLK
  5
1A
100
AcDbEntity
  8
0
100
AcDbBlockEnd
  0
BLOCK
  5
16
100
AcDbEntity
 67
     1
  8
0
100
AcDbBlockBegin
  2
*PAPER_SPACE
 70
     0
 10
0.0
 20
0.0
 30
0.0
  3
*PAPER_SPACE
  1

  0
ENDBLK
  5
17
100
AcDbEntity
 67
     1
  8
0
100
AcDbBlockEnd
  0
BLOCK
  5
18B
100
AcDbEntity
  8
0
100
AcDbBlockBegin
  2
_OPEN30
 70
     0
 10
0.0
 20
0.0
 30
0.0
  3
_OPEN30
  1

  0
LINE
  5
188
100
AcDbEntity
  8
0
  6
BYBLOCK
 62
     0
100
AcDbLine
 10
-1.0
 20
0.267949
 30
0.0
 11
0.0
 21
0.0
 31
0.0
1001
ACAD
1000
RTLwPs
1070
   158
  0
LINE
  5
189
100
AcDbEntity
  8
0
  6
BYBLOCK
 62
     0
100
AcDbLine
 10
0.0
 20
0.0
 30
0.0
 11
-1.0
 21
-0.267949
 31
0.0
1001
ACAD
1000
RTLwPs
1070
   158
  0
LINE
  5
18A
100
AcDbEntity
  8
0
  6
BYBLOCK
 62
     0
100
AcDbLine
 10
0.0
 20
0.0
 30
0.0
 11
-1.0
 21
0.0
 31
0.0
1001
ACAD
1000
RTLwPs
1070
   158
  0
ENDBLK
  5
18C
100
AcDbEntity
  8
0
100
AcDbBlockEnd
  0
BLOCK
  5
1B7
100
AcDbEntity
  8
0
100
AcDbBlockBegin
  2
*D1
 70
     1
 10
0.0
 20
0.0
 30
0.0
  3
*D1
  1

  0
LINE
  5
1B9
100
AcDbEntity
  8
寸法
  6
CONTINUOUS
 62
     1
100
AcDbLine
 10
105.54078
 20
-51.308256
 30
0.0
 11
111.0
 21
-51.308256
 31
0.0
1001
ACAD
1000
RTLwPs
1070
   158
  0
LINE
  5
1BA
100
AcDbEntity
  8
寸法
  6
CONTINUOUS
 62
     1
100
AcDbLine
 10
104.418597
 20
-57.308253
 30
0.0
 11
111.0
 21
-57.308253
 31
0.0
1001
ACAD
1000
RTLwPs
1070
   158
  0
LINE
  5
1BB
100
AcDbEntity
  8
寸法
  6
CONTINUOUS
 62
     1
100
AcDbLine
 10
110.0
 20
-49.308256
 30
0.0
 11
110.0
 21
-47.308256
 31
0.0
1001
ACAD
1000
RTLwPs
1070
   158
  0
LINE
  5
1BC
100
AcDbEntity
  8
寸法
  6
CONTINUOUS
 62
     1
100
AcDbLine
 10
110.0
 20
-59.308253
 30
0.0
 11
110.0
 21
-61.308253
 31
0.0
1001
ACAD
1000
RTLwPs
1070
   158
  0
LINE
  5
1BD
100
AcDbEntity
  8
寸法
  6
CONTINUOUS
 62
     1
100
AcDbLine
 10
110.0
 20
-51.308256
 30
0.0
 11
110.0
 21
-57.308253
 31
0.0
1001
ACAD
1000
RTLwPs
1070
   158
  0
INSERT
  5
1BE
100
AcDbEntity
  8
寸法
  6
CONTINUOUS
 62
     1
100
AcDbBlockReference
  2
_OPEN30
 10
110.0
 20
-51.308256
 30
0.0
 41
2.0
 42
2.0
 43
2.0
 50
270.0
1001
ACAD
1000
RTLwPs
1070
   158
  0
INSERT
  5
1BF
100
AcDbEntity
  8
寸法
  6
CONTINUOUS
 62
     1
100
AcDbBlockReference
  2
_OPEN30
 10
110.0
 20
-57.308253
 30
0.0
 41
2.0
 42
2.0
 43
2.0
 50
90.0
1001
ACAD
1000
RTLwPs
1070
   158
  0
MTEXT
  5
1C0
100
AcDbEntity
  8
寸法
  6
CONTINUOUS
 62
     1
100
AcDbMText
 10
107.5
 20
-54.308255
 30
0.0
 40
3.0
 41
0.0
 71
     5
 72
     1
  1
\A1;6
 11
0.0
 21
1.0
 31
0.0
1001
ACAD
1000
MTEXTBEGIN
1070
    73
1070
     1
1070
    44
1040
1.0
1070
    74
1070
     0
1000
MTEXTEND
1000
MTEXTBEGIN
1070
    73
1070
     1
1070
    44
1040
1.0
1070
    74
1070
     0
1000
MTEXTEND
  0
POINT
  5
1C1
100
AcDbEntity
  8
DEFPOINTS
  6
CONTINUOUS
 62
     0
100
AcDbPoint
 10
104.54078
 20
-51.308256
 30
0.0
  0
POINT
  5
1C2
100
AcDbEntity
  8
DEFPOINTS
  6
CONTINUOUS
 62
     0
100
AcDbPoint
 10
103.418597
 20
-57.308253
 30
0.0
  0
POINT
  5
1C3
100
AcDbEntity
  8
DEFPOINTS
  6
CONTINUOUS
 62
     0
100
AcDbPoint
 10
110.0
 20
-57.308253
 30
0.0
  0
ENDBLK
  5
1B8
100
AcDbEntity
  8
0
100
AcDbBlockEnd
  0
BLOCK
  5
1CF
100
AcDbEntity
  8
0
100
AcDbBlockBegin
  2
*D2
 70
     1
 10
0.0
 20
0.0
 30
0.0
  3
*D2
  1

  0
LINE
  5
1C6
100
AcDbEntity
  8
寸法
  6
CONTINUOUS
 62
     1
100
AcDbLine
 10
40.0
 20
-41.808249
 30
0.0
 11
61.0
 21
-41.808249
 31
0.0
1001
ACAD
1000
RTLwPs
1070
   158
  0
LINE
  5
1C7
100
AcDbEntity
  8
寸法
  6
CONTINUOUS
 62
     1
100
AcDbLine
 10
40.0
 20
-57.308249
 30
0.0
 11
61.0
 21
-57.308249
 31
0.0
1001
ACAD
1000
RTLwPs
1070
   158
  0
LINE
  5
1C8
100
AcDbEntity
  8
寸法
  6
CONTINUOUS
 62
     1
100
AcDbLine
 10
60.0
 20
-43.808249
 30
0.0
 11
60.0
 21
-55.308249
 31
0.0
1001
ACAD
1000
RTLwPs
1070
   158
  0
INSERT
  5
1C9
100
AcDbEntity
  8
寸法
  6
CONTINUOUS
 62
     1
100
AcDbBlockReference
  2
_OPEN30
 10
60.0
 20
-41.808249
 30
0.0
 41
2.0
 42
2.0
 43
2.0
 50
90.0
1001
ACAD
1000
RTLwPs
1070
   158
  0
INSERT
  5
1CA
100
AcDbEntity
  8
寸法
  6
CONTINUOUS
 62
     1
100
AcDbBlockReference
  2
_OPEN30
 10
60.0
 20
-57.308249
 30
0.0
 41
2.0
 42
2.0
 43
2.0
 50
270.0
1001
ACAD
1000
RTLwPs
1070
   158
  0
MTEXT
  5
1CB
100
AcDbEntity
  8
寸法
  6
CONTINUOUS
 62
     1
100
AcDbMText
 10
57.5
 20
-49.558249
 30
0.0
 40
3.0
 41
0.0
 71
     5
 72
     1
  1
\A1;15.5
 11
0.0
 21
1.0
 31
0.0
1001
ACAD
1000
MTEXTBEGIN
1070
    73
1070
     1
1070
    44
1040
1.0
1070
    74
1070
     0
1000
MTEXTEND
1000
MTEXTBEGIN
1070
    73
1070
     1
1070
    44
1040
1.0
1070
    74
1070
     0
1000
MTEXTEND
  0
POINT
  5
1CC
100
AcDbEntity
  8
DEFPOINTS
  6
CONTINUOUS
 62
     0
100
AcDbPoint
 10
39.0
 20
-41.808249
 30
0.0
  0
POINT
  5
1CD
100
AcDbEntity
  8
DEFPOINTS
  6
CONTINUOUS
 62
     0
100
AcDbPoint
 10
39.0
 20
-57.308249
 30
0.0
  0
POINT
  5
1CE
100
AcDbEntity
  8
DEFPOINTS
  6
CONTINUOUS
 62
     0
100
AcDbPoint
 10
60.0
 20
-57.308249
 30
0.0
  0
ENDBLK
  5
1D0
100
AcDbEntity
  8
0
100
AcDbBlockEnd
  0
BLOCK
  5
1DC
100
AcDbEntity
  8
0
100
AcDbBlockBegin
  2
*D3
 70
     1
 10
0.0
 20
0.0
 30
0.0
  3
*D3
  1

  0
LINE
  5
1D3
100
AcDbEntity
  8
寸法
  6
CONTINUOUS
 62
     1
100
AcDbLine
 10
47.0
 20
-46.808245
 30
0.0
 11
47.0
 21
-29.0
 31
0.0
1001
ACAD
1000
RTLwPs
1070
   158
  0
LINE
  5
1D4
100
AcDbEntity
  8
寸法
  6
CONTINUOUS
 62
     1
100
AcDbLine
 10
27.0
 20
-38.190928
 30
0.0
 11
27.0
 21
-29.0
 31
0.0
1001
ACAD
1000
RTLwPs
1070
   158
  0
LINE
  5
1D5
100
AcDbEntity
  8
寸法
  6
CONTINUOUS
 62
     1
100
AcDbLine
 10
45.0
 20
-30.0
 30
0.0
 11
29.0
 21
-30.0
 31
0.0
1001
ACAD
1000
RTLwPs
1070
   158
  0
INSERT
  5
1D6
100
AcDbEntity
  8
寸法
  6
CONTINUOUS
 62
     1
100
AcDbBlockReference
  2
_OPEN30
 10
47.0
 20
-30.0
 30
0.0
 41
2.0
 42
2.0
 43
2.0
1001
ACAD
1000
RTLwPs
1070
   158
  0
INSERT
  5
1D7
100
AcDbEntity
  8
寸法
  6
CONTINUOUS
 62
     1
100
AcDbBlockReference
  2
_OPEN30
 10
27.0
 20
-30.0
 30
0.0
 41
2.0
 42
2.0
 43
2.0
 50
180.0
1001
ACAD
1000
RTLwPs
1070
   158
  0
MTEXT
  5
1D8
100
AcDbEntity
  8
寸法
  6
CONTINUOUS
 62
     1
100
AcDbMText
 10
37.0
 20
-27.5
 30
0.0
 40
3.0
 41
0.0
 71
     5
 72
     1
  1
\A1;20
1001
ACAD
1000
MTEXTBEGIN
1070
    73
1070
     1
1070
    44
1040
1.0
1070
    74
1070
     0
1000
MTEXTEND
1000
MTEXTBEGIN
1070
    73
1070
     1
1070
    44
1040
1.0
1070
    74
1070
     0
1000
MTEXTEND
  0
POINT
  5
1D9
100
AcDbEntity
  8
DEFPOINTS
  6
CONTINUOUS
 62
     0
100
AcDbPoint
 10
47.0
 20
-47.808245
 30
0.0
  0
POINT
  5
1DA
100
AcDbEntity
  8
DEFPOINTS
  6
CONTINUOUS
 62
     0
100
AcDbPoint
 10
27.0
 20
-39.190928
 30
0.0
  0
POINT
  5
1DB
100
AcDbEntity
  8
DEFPOINTS
  6
CONTINUOUS
 62
     0
100
AcDbPoint
 10
27.0
 20
-30.0
 30
0.0
  0
ENDBLK
  5
1DD
100
AcDbEntity
  8
0
100
AcDbBlockEnd
  0
BLOCK
  5
1EB
100
AcDbEntity
  8
0
100
AcDbBlockBegin
  2
*D4
 70
     1
 10
0.0
 20
0.0
 30
0.0
  3
*D4
  1

  0
LINE
  5
1E0
100
AcDbEntity
  8
寸法
  6
CONTINUOUS
 62
     1
100
AcDbLine
 10
28.0
 20
-60.202822
 30
0.0
 11
28.0
 21
-71.0
 31
0.0
1001
ACAD
1000
RTLwPs
1070
   158
  0
LINE
  5
1E1
100
AcDbEntity
  8
寸法
  6
CONTINUOUS
 62
     1
100
AcDbLine
 10
26.0
 20
-60.202822
 30
0.0
 11
26.0
 21
-71.0
 31
0.0
1001
ACAD
1000
RTLwPs
1070
   158
  0
LINE
  5
1E2
100
AcDbEntity
  8
寸法
  6
CONTINUOUS
 62
     1
100
AcDbLine
 10
30.0
 20
-70.0
 30
0.0
 11
32.0
 21
-70.0
 31
0.0
1001
ACAD
1000
RTLwPs
1070
   158
  0
LINE
  5
1E3
100
AcDbEntity
  8
寸法
  6
CONTINUOUS
 62
     1
100
AcDbLine
 10
24.0
 20
-70.0
 30
0.0
 11
18.0
 21
-70.0
 31
0.0
1001
ACAD
1000
RTLwPs
1070
   158
  0
LINE
  5
1E4
100
AcDbEntity
  8
寸法
  6
CONTINUOUS
 62
     1
100
AcDbLine
 10
28.0
 20
-70.0
 30
0.0
 11
26.0
 21
-70.0
 31
0.0
1001
ACAD
1000
RTLwPs
1070
   158
  0
INSERT
  5
1E5
100
AcDbEntity
  8
寸法
  6
CONTINUOUS
 62
     1
100
AcDbBlockReference
  2
_OPEN30
 10
28.0
 20
-70.0
 30
0.0
 41
2.0
 42
2.0
 43
2.0
 50
180.0
1001
ACAD
1000
RTLwPs
1070
   158
  0
INSERT
  5
1E6
100
AcDbEntity
  8
寸法
  6
CONTINUOUS
 62
     1
100
AcDbBlockReference
  2
_OPEN30
 10
26.0
 20
-70.0
 30
0.0
 41
2.0
 42
2.0
 43
2.0
1001
ACAD
1000
RTLwPs
1070
   158
  0
MTEXT
  5
1E7
100
AcDbEntity
  8
寸法
  6
CONTINUOUS
 62
     1
100
AcDbMText
 10
20.0
 20
-67.5
 30
0.0
 40
3.0
 41
0.0
 71
     5
 72
     1
  1
\A1;2
1001
ACAD
1000
MTEXTBEGIN
1070
    73
1070
     1
1070
    44
1040
1.0
1070
    74
1070
     0
1000
MTEXTEND
1000
MTEXTBEGIN
1070
    73
1070
     1
1070
    44
1040
1.0
1070
    74
1070
     0
1000
MTEXTEND
  0
POINT
  5
1E8
100
AcDbEntity
  8
DEFPOINTS
  6
CONTINUOUS
 62
     0
100
AcDbPoint
 10
28.0
 20
-59.202822
 30
0.0
  0
POINT
  5
1E9
100
AcDbEntity
  8
DEFPOINTS
  6
CONTINUOUS
 62
     0
100
AcDbPoint
 10
26.0
 20
-59.202822
 30
0.0
  0
POINT
  5
1EA
100
AcDbEntity
  8
DEFPOINTS
  6
CONTINUOUS
 62
     0
100
AcDbPoint
 10
26.0
 20
-70.0
 30
0.0
  0
ENDBLK
  5
1EC
100
AcDbEntity
  8
0
100
AcDbBlockEnd
  0
BLOCK
  5
1F8
100
AcDbEntity
  8
0
100
AcDbBlockBegin
  2
*D5
 70
     1
 10
0.0
 20
0.0
 30
0.0
  3
*D5
  1

  0
LINE
  5
1EF
100
AcDbEntity
  8
寸法
  6
CONTINUOUS
 62
     1
100
AcDbLine
 10
-9.317514
 20
-45.308249
 30
0.0
 11
-21.0
 21
-45.308249
 31
0.0
1001
ACAD
1000
RTLwPs
1070
   158
  0
LINE
  5
1F0
100
AcDbEntity
  8
寸法
  6
CONTINUOUS
 62
     1
100
AcDbLine
 10
-5.081459
 20
-57.308249
 30
0.0
 11
-21.0
 21
-57.308249
 31
0.0
1001
ACAD
1000
RTLwPs
1070
   158
  0
LINE
  5
1F1
100
AcDbEntity
  8
寸法
  6
CONTINUOUS
 62
     1
100
AcDbLine
 10
-20.0
 20
-47.308249
 30
0.0
 11
-20.0
 21
-55.308249
 31
0.0
1001
ACAD
1000
RTLwPs
1070
   158
  0
INSERT
  5
1F2
100
AcDbEntity
  8
寸法
  6
CONTINUOUS
 62
     1
100
AcDbBlockReference
  2
_OPEN30
 10
-20.0
 20
-45.308249
 30
0.0
 41
2.0
 42
2.0
 43
2.0
 50
90.0
1001
ACAD
1000
RTLwPs
1070
   158
  0
INSERT
  5
1F3
100
AcDbEntity
  8
寸法
  6
CONTINUOUS
 62
     1
100
AcDbBlockReference
  2
_OPEN30
 10
-20.0
 20
-57.308249
 30
0.0
 41
2.0
 42
2.0
 43
2.0
 50
270.0
1001
ACAD
1000
RTLwPs
1070
   158
  0
MTEXT
  5
1F4
100
AcDbEntity
  8
寸法
  6
CONTINUOUS
 62
     1
100
AcDbMText
 10
-22.5
 20
-51.308249
 30
0.0
 40
3.0
 41
0.0
 71
     5
 72
     1
  1
\A1;12
 11
0.0
 21
1.0
 31
0.0
1001
ACAD
1000
MTEXTBEGIN
1070
    73
1070
     1
1070
    44
1040
1.0
1070
    74
1070
     0
1000
MTEXTEND
1000
MTEXTBEGIN
1070
    73
1070
     1
1070
    44
1040
1.0
1070
    74
1070
     0
1000
MTEXTEND
  0
POINT
  5
1F5
100
AcDbEntity
  8
DEFPOINTS
  6
CONTINUOUS
 62
     0
100
AcDbPoint
 10
-8.317514
 20
-45.308249
 30
0.0
  0
POINT
  5
1F6
100
AcDbEntity
  8
DEFPOINTS
  6
CONTINUOUS
 62
     0
100
AcDbPoint
 10
-4.081459
 20
-57.308249
 30
0.0
  0
POINT
  5
1F7
100
AcDbEntity
  8
DEFPOINTS
  6
CONTINUOUS
 62
     0
100
AcDbPoint
 10
-20.0
 20
-57.308249
 30
0.0
  0
ENDBLK
  5
1F9
100
AcDbEntity
  8
0
100
AcDbBlockEnd
  0
BLOCK
  5
205
100
AcDbEntity
  8
0
100
AcDbBlockBegin
  2
*D6
 70
     1
 10
0.0
 20
0.0
 30
0.0
  3
*D6
  1

  0
LINE
  5
1FC
100
AcDbEntity
  8
寸法
  6
CONTINUOUS
 62
     1
100
AcDbLine
 10
47.0
 20
15.81093
 30
0.0
 11
47.0
 21
-21.0
 31
0.0
1001
ACAD
1000
RTLwPs
1070
   158
  0
LINE
  5
1FD
100
AcDbEntity
  8
寸法
  6
CONTINUOUS
 62
     1
100
AcDbLine
 10
-8.317514
 20
14.459816
 30
0.0
 11
-8.317514
 21
-21.0
 31
0.0
1001
ACAD
1000
RTLwPs
1070
   158
  0
LINE
  5
1FE
100
AcDbEntity
  8
寸法
  6
CONTINUOUS
 62
     1
100
AcDbLine
 10
45.0
 20
-20.0
 30
0.0
 11
-6.317514
 21
-20.0
 31
0.0
1001
ACAD
1000
RTLwPs
1070
   158
  0
INSERT
  5
1FF
100
AcDbEntity
  8
寸法
  6
CONTINUOUS
 62
     1
100
AcDbBlockReference
  2
_OPEN30
 10
47.0
 20
-20.0
 30
0.0
 41
2.0
 42
2.0
 43
2.0
1001
ACAD
1000
RTLwPs
1070
   158
  0
INSERT
  5
200
100
AcDbEntity
  8
寸法
  6
CONTINUOUS
 62
     1
100
AcDbBlockReference
  2
_OPEN30
 10
-8.317514
 20
-20.0
 30
0.0
 41
2.0
 42
2.0
 43
2.0
 50
180.0
1001
ACAD
1000
RTLwPs
1070
   158
  0
MTEXT
  5
201
100
AcDbEntity
  8
寸法
  6
CONTINUOUS
 62
     1
100
AcDbMText
 10
19.341243
 20
-17.5
 30
0.0
 40
3.0
 41
0.0
 71
     5
 72
     1
  1
\A1;55.32
1001
ACAD
1000
MTEXTBEGIN
1070
    73
1070
     1
1070
    44
1040
1.0
1070
    74
1070
     0
1000
MTEXTEND
1000
MTEXTBEGIN
1070
    73
1070
     1
1070
    44
1040
1.0
1070
    74
1070
     0
1000
MTEXTEND
  0
POINT
  5
202
100
AcDbEntity
  8
DEFPOINTS
  6
CONTINUOUS
 62
     0
100
AcDbPoint
 10
47.0
 20
16.81093
 30
0.0
  0
POINT
  5
203
100
AcDbEntity
  8
DEFPOINTS
  6
CONTINUOUS
 62
     0
100
AcDbPoint
 10
-8.317514
 20
15.459816
 30
0.0
  0
POINT
  5
204
100
AcDbEntity
  8
DEFPOINTS
  6
CONTINUOUS
 62
     0
100
AcDbPoint
 10
-8.317514
 20
-20.0
 30
0.0
  0
ENDBLK
  5
206
100
AcDbEntity
  8
0
100
AcDbBlockEnd
  0
BLOCK
  5
212
100
AcDbEntity
  8
0
100
AcDbBlockBegin
  2
*D7
 70
     1
 10
0.0
 20
0.0
 30
0.0
  3
*D7
  1

  0
LINE
  5
33E
100
AcDbEntity
  8
寸法
  6
CONTINUOUS
 62
     1
100
AcDbLine
 10
47.0
 20
15.81093
 30
0.0
 11
47.0
 21
-11.0
 31
0.0
  0
LINE
  5
33F
100
AcDbEntity
  8
寸法
  6
CONTINUOUS
 62
     1
100
AcDbLine
 10
0.0
 20
5.81093
 30
0.0
 11
0.0
 21
-11.0
 31
0.0
  0
LINE
  5
340
100
AcDbEntity
  8
寸法
  6
CONTINUOUS
 62
     1
100
AcDbLine
 10
45.0
 20
-10.0
 30
0.0
 11
2.0
 21
-10.0
 31
0.0
  0
INSERT
  5
341
100
AcDbEntity
  8
寸法
  6
CONTINUOUS
 62
     1
100
AcDbBlockReference
  2
_OPEN30
 10
47.0
 20
-10.0
 30
0.0
 41
2.0
 42
2.0
 43
2.0
  0
INSERT
  5
342
100
AcDbEntity
  8
寸法
  6
CONTINUOUS
 62
     1
100
AcDbBlockReference
  2
_OPEN30
 10
0.0
 20
-10.0
 30
0.0
 41
2.0
 42
2.0
 43
2.0
 50
180.0
  0
MTEXT
  5
343
100
AcDbEntity
  8
寸法
  6
CONTINUOUS
 62
     1
100
AcDbMText
 10
23.5
 20
-7.5
 30
0.0
 40
3.0
 41
0.0
 71
     5
 72
     1
  1
\A1;47
  0
POINT
  5
344
100
AcDbEntity
  8
DEFPOINTS
  6
CONTINUOUS
 62
     0
100
AcDbPoint
 10
47.0
 20
16.81093
 30
0.0
  0
POINT
  5
345
100
AcDbEntity
  8
DEFPOINTS
  6
CONTINUOUS
 62
     0
100
AcDbPoint
 10
0.0
 20
6.81093
 30
0.0
  0
POINT
  5
346
100
AcDbEntity
  8
DEFPOINTS
  6
CONTINUOUS
 62
     0
100
AcDbPoint
 10
0.0
 20
-10.0
 30
0.0
  0
ENDBLK
  5
213
100
AcDbEntity
  8
0
100
AcDbBlockEnd
  0
BLOCK
  5
21F
100
AcDbEntity
  8
0
100
AcDbBlockBegin
  2
*D8
 70
     1
 10
0.0
 20
0.0
 30
0.0
  3
*D8
  1

  0
LINE
  5
347
100
AcDbEntity
  8
寸法
  6
CONTINUOUS
 62
     1
100
AcDbLine
 10
47.0
 20
15.81093
 30
0.0
 11
47.0
 21
-1.0
 31
0.0
  0
LINE
  5
348
100
AcDbEntity
  8
寸法
  6
CONTINUOUS
 62
     1
100
AcDbLine
 10
39.0
 20
9.81093
 30
0.0
 11
39.0
 21
-1.0
 31
0.0
  0
LINE
  5
349
100
AcDbEntity
  8
寸法
  6
CONTINUOUS
 62
     1
100
AcDbLine
 10
45.0
 20
0.0
 30
0.0
 11
41.0
 21
0.0
 31
0.0
  0
INSERT
  5
34A
100
AcDbEntity
  8
寸法
  6
CONTINUOUS
 62
     1
100
AcDbBlockReference
  2
_OPEN30
 10
47.0
 20
0.0
 30
0.0
 41
2.0
 42
2.0
 43
2.0
  0
INSERT
  5
34B
100
AcDbEntity
  8
寸法
  6
CONTINUOUS
 62
     1
100
AcDbBlockReference
  2
_OPEN30
 10
39.0
 20
0.0
 30
0.0
 41
2.0
 42
2.0
 43
2.0
 50
180.0
  0
MTEXT
  5
34C
100
AcDbEntity
  8
寸法
  6
CONTINUOUS
 62
     1
100
AcDbMText
 10
43.0
 20
2.5
 30
0.0
 40
3.0
 41
0.0
 71
     5
 72
     1
  1
\A1;8
  0
POINT
  5
34D
100
AcDbEntity
  8
DEFPOINTS
  6
CONTINUOUS
 62
     0
100
AcDbPoint
 10
47.0
 20
16.81093
 30
0.0
  0
POINT
  5
34E
100
AcDbEntity
  8
DEFPOINTS
  6
CONTINUOUS
 62
     0
100
AcDbPoint
 10
39.0
 20
10.81093
 30
0.0
  0
POINT
  5
34F
100
AcDbEntity
  8
DEFPOINTS
  6
CONTINUOUS
 62
     0
100
AcDbPoint
 10
39.0
 20
0.0
 30
0.0
  0
ENDBLK
  5
220
100
AcDbEntity
  8
0
100
AcDbBlockEnd
  0
BLOCK
  5
23E
100
AcDbEntity
  8
0
100
AcDbBlockBegin
  2
*D9
 70
     1
 10
0.0
 20
0.0
 30
0.0
  3
*D9
  1

  0
LINE
  5
235
100
AcDbEntity
  8
寸法
  6
CONTINUOUS
 62
     1
100
AcDbLine
 10
40.0
 20
26.81093
 30
0.0
 11
61.0
 21
26.81093
 31
0.0
1001
ACAD
1000
RTLwPs
1070
   158
  0
LINE
  5
236
100
AcDbEntity
  8
寸法
  6
CONTINUOUS
 62
     1
100
AcDbLine
 10
40.0
 20
10.81093
 30
0.0
 11
61.0
 21
10.81093
 31
0.0
1001
ACAD
1000
RTLwPs
1070
   158
  0
LINE
  5
237
100
AcDbEntity
  8
寸法
  6
CONTINUOUS
 62
     1
100
AcDbLine
 10
60.0
 20
24.81093
 30
0.0
 11
60.0
 21
12.81093
 31
0.0
1001
ACAD
1000
RTLwPs
1070
   158
  0
INSERT
  5
238
100
AcDbEntity
  8
寸法
  6
CONTINUOUS
 62
     1
100
AcDbBlockReference
  2
_OPEN30
 10
60.0
 20
26.81093
 30
0.0
 41
2.0
 42
2.0
 43
2.0
 50
90.0
1001
ACAD
1000
RTLwPs
1070
   158
  0
INSERT
  5
239
100
AcDbEntity
  8
寸法
  6
CONTINUOUS
 62
     1
100
AcDbBlockReference
  2
_OPEN30
 10
60.0
 20
10.81093
 30
0.0
 41
2.0
 42
2.0
 43
2.0
 50
270.0
1001
ACAD
1000
RTLwPs
1070
   158
  0
MTEXT
  5
23A
100
AcDbEntity
  8
寸法
  6
CONTINUOUS
 62
     1
100
AcDbMText
 10
57.5
 20
18.81093
 30
0.0
 40
3.0
 41
0.0
 71
     5
 72
     1
  1
\A1;16
 11
0.0
 21
1.0
 31
0.0
1001
ACAD
1000
MTEXTBEGIN
1070
    73
1070
     1
1070
    44
1040
1.0
1070
    74
1070
     0
1000
MTEXTEND
1000
MTEXTBEGIN
1070
    73
1070
     1
1070
    44
1040
1.0
1070
    74
1070
     0
1000
MTEXTEND
  0
POINT
  5
23B
100
AcDbEntity
  8
DEFPOINTS
  6
CONTINUOUS
 62
     0
100
AcDbPoint
 10
39.0
 20
26.81093
 30
0.0
  0
POINT
  5
23C
100
AcDbEntity
  8
DEFPOINTS
  6
CONTINUOUS
 62
     0
100
AcDbPoint
 10
39.0
 20
10.81093
 30
0.0
  0
POINT
  5
23D
100
AcDbEntity
  8
DEFPOINTS
  6
CONTINUOUS
 62
     0
100
AcDbPoint
 10
60.0
 20
10.81093
 30
0.0
  0
ENDBLK
  5
23F
100
AcDbEntity
  8
0
100
AcDbBlockEnd
  0
BLOCK
  5
24C
100
AcDbEntity
  8
0
100
AcDbBlockBegin
  2
*D10
 70
     1
 10
0.0
 20
0.0
 30
0.0
  3
*D10
  1

  0
LINE
  5
26B
100
AcDbEntity
  8
寸法
  6
CONTINUOUS
 62
     1
100
AcDbLine
 10
2.100001
 20
26.81093
 30
0.0
 11
-21.0
 21
26.81093
 31
0.0
1001
ACAD
1000
RTLwPs
1070
   158
  0
LINE
  5
26C
100
AcDbEntity
  8
寸法
  6
CONTINUOUS
 62
     1
100
AcDbLine
 10
-9.0832
 20
16.025502
 30
0.0
 11
-21.0
 21
16.025502
 31
0.0
1001
ACAD
1000
RTLwPs
1070
   158
  0
LINE
  5
26D
100
AcDbEntity
  8
寸法
  6
CONTINUOUS
 62
     1
100
AcDbLine
 10
-20.0
 20
24.81093
 30
0.0
 11
-20.0
 21
18.025502
 31
0.0
1001
ACAD
1000
RTLwPs
1070
   158
  0
INSERT
  5
26E
100
AcDbEntity
  8
寸法
  6
CONTINUOUS
 62
     1
100
AcDbBlockReference
  2
_OPEN30
 10
-20.0
 20
26.81093
 30
0.0
 41
2.0
 42
2.0
 43
2.0
 50
90.0
1001
ACAD
1000
RTLwPs
1070
   158
  0
INSERT
  5
26F
100
AcDbEntity
  8
寸法
  6
CONTINUOUS
 62
     1
100
AcDbBlockReference
  2
_OPEN30
 10
-20.0
 20
16.025502
 30
0.0
 41
2.0
 42
2.0
 43
2.0
 50
270.0
1001
ACAD
1000
RTLwPs
1070
   158
  0
MTEXT
  5
270
100
AcDbEntity
  8
寸法
  6
CONTINUOUS
 62
     1
100
AcDbMText
 10
-22.5
 20
21.418216
 30
0.0
 40
3.0
 41
0.0
 71
     5
 72
     1
  1
\A1;11.7
 11
0.0
 21
1.0
 31
0.0
1001
ACAD
1000
MTEXTBEGIN
1070
    73
1070
     1
1070
    44
1040
1.0
1070
    74
1070
     0
1000
MTEXTEND
1000
MTEXTBEGIN
1070
    73
1070
     1
1070
    44
1040
1.0
1070
    74
1070
     0
1000
MTEXTEND
  0
POINT
  5
271
100
AcDbEntity
  8
DEFPOINTS
  6
CONTINUOUS
 62
     0
100
AcDbPoint
 10
3.100001
 20
26.81093
 30
0.0
  0
POINT
  5
272
100
AcDbEntity
  8
DEFPOINTS
  6
CONTINUOUS
 62
     0
100
AcDbPoint
 10
-8.0832
 20
16.025502
 30
0.0
  0
POINT
  5
273
100
AcDbEntity
  8
DEFPOINTS
  6
CONTINUOUS
 62
     0
100
AcDbPoint
 10
-20.0
 20
16.025502
 30
0.0
  0
ENDBLK
  5
24D
100
AcDbEntity
  8
0
100
AcDbBlockEnd
  0
BLOCK
  5
25E
100
AcDbEntity
  8
0
100
AcDbBlockBegin
  2
*D11
 70
     1
 10
0.0
 20
0.0
 30
0.0
  3
*D11
  1

  0
LINE
  5
350
100
AcDbEntity
  8
寸法
  6
CONTINUOUS
 62
     1
100
AcDbLine
 10
0.0
 20
4.81093
 30
0.0
 11
0.0
 21
-6.279074
 31
0.0
  0
LINE
  5
351
100
AcDbEntity
  8
寸法
  6
CONTINUOUS
 62
     1
100
AcDbLine
 10
0.707107
 20
6.103824
 30
0.0
 11
9.256031
 21
-2.445101
 31
0.0
  0
ARC
  5
352
100
AcDbEntity
  8
寸法
  6
CONTINUOUS
 62
     1
100
AcDbCircle
 10
0.0
 20
6.81093
 30
0.0
 40
12.090005
100
AcDbArc
 50
279.489047
 51
305.510953
  0
INSERT
  5
353
100
AcDbEntity
  8
寸法
  6
CONTINUOUS
 62
     1
100
AcDbBlockReference
  2
_OPEN30
 10
0.0
 20
-5.279074
 30
0.0
 41
2.0
 42
2.0
 43
2.0
 50
184.744524
  0
INSERT
  5
354
100
AcDbEntity
  8
寸法
  6
CONTINUOUS
 62
     1
100
AcDbBlockReference
  2
_OPEN30
 10
8.548924
 20
-1.737994
 30
0.0
 41
2.0
 42
2.0
 43
2.0
 50
40.255476
  0
MTEXT
  5
355
100
AcDbEntity
  8
寸法
  6
CONTINUOUS
 62
     1
100
AcDbMText
 10
5.043708
 20
-1.345612
 30
0.0
 40
3.0
 41
0.0
 71
     5
 72
     1
  1
\A1;45°
 11
0.850525
 21
0.525934
 31
0.0
  0
POINT
  5
356
100
AcDbEntity
  8
DEFPOINTS
  6
CONTINUOUS
 62
     0
100
AcDbPoint
 10
3.129123
 20
-4.867117
 30
0.0
  0
POINT
  5
357
100
AcDbEntity
  8
DEFPOINTS
  6
CONTINUOUS
 62
     0
100
AcDbPoint
 10
0.0
 20
6.81093
 30
0.0
  0
POINT
  5
358
100
AcDbEntity
  8
DEFPOINTS
  6
CONTINUOUS
 62
     0
100
AcDbPoint
 10
-8.0832
 20
14.89413
 30
0.0
  0
POINT
  5
359
100
AcDbEntity
  8
DEFPOINTS
  6
CONTINUOUS
 62
     0
100
AcDbPoint
 10
-0.234315
 20
7.045245
 30
0.0
  0
POINT
  5
35A
100
AcDbEntity
  8
DEFPOINTS
  6
CONTINUOUS
 62
     0
100
AcDbPoint
 10
0.0
 20
5.81093
 30
0.0
  0
ENDBLK
  5
25F
100
AcDbEntity
  8
0
100
AcDbBlockEnd
  0
BLOCK
  5
27F
100
AcDbEntity
  8
0
100
AcDbBlockBegin
  2
*D12
 70
     1
 10
0.0
 20
0.0
 30
0.0
  3
*D12
  1

  0
LINE
  5
28E
100
AcDbEntity
  8
寸法
  6
CONTINUOUS
 62
     1
100
AcDbLine
 10
-92.337499
 20
17.413393
 30
0.0
 11
-78.617708
 21
22.471417
 31
0.0
1001
ACAD
1000
RTLwPs
1070
   158
  0
MTEXT
  5
28F
100
AcDbEntity
  8
寸法
  6
CONTINUOUS
 62
     1
100
AcDbMText
 10
-88.745494
 20
21.402127
 30
0.0
 40
3.0
 41
0.0
 71
     5
 72
     1
  1
\A1;%%c50
 11
0.938268
 21
0.345908
 31
0.0
1001
ACAD
1000
MTEXTBEGIN
1070
    73
1070
     1
1070
    44
1040
1.0
1070
    74
1070
     0
1000
MTEXTEND
1000
MTEXTBEGIN
1070
    73
1070
     1
1070
    44
1040
1.0
1070
    74
1070
     0
1000
MTEXTEND
  0
LINE
  5
290
100
AcDbEntity
  8
寸法
  6
CONTINUOUS
 62
     1
100
AcDbLine
 10
-53.284459
 20
31.810931
 30
0.0
 11
-76.741171
 21
23.163233
 31
0.0
1001
ACAD
1000
RTLwPs
1070
   158
  0
INSERT
  5
291
100
AcDbEntity
  8
寸法
  6
CONTINUOUS
 62
     1
100
AcDbBlockReference
  2
_OPEN30
 10
-76.741171
 20
23.163233
 30
0.0
 41
2.0
 42
2.0
 43
2.0
 50
20.237228
1001
ACAD
1000
RTLwPs
1070
   158
  0
POINT
  5
292
100
AcDbEntity
  8
DEFPOINTS
  6
CONTINUOUS
 62
     0
100
AcDbPoint
 10
-76.741171
 20
23.163233
 30
0.0
  0
POINT
  5
293
100
AcDbEntity
  8
DEFPOINTS
  6
CONTINUOUS
 62
     0
100
AcDbPoint
 10
-53.284459
 20
31.810931
 30
0.0
  0
ENDBLK
  5
280
100
AcDbEntity
  8
0
100
AcDbBlockEnd
  0
BLOCK
  5
28C
100
AcDbEntity
  8
0
100
AcDbBlockBegin
  2
*D13
 70
     1
 10
0.0
 20
0.0
 30
0.0
  3
*D13
  1

  0
LINE
  5
283
100
AcDbEntity
  8
寸法
  6
CONTINUOUS
 62
     1
100
AcDbLine
 10
-49.784459
 20
26.810932
 30
0.0
 11
-29.0
 21
26.810932
 31
0.0
1001
ACAD
1000
RTLwPs
1070
   158
  0
LINE
  5
284
100
AcDbEntity
  8
寸法
  6
CONTINUOUS
 62
     1
100
AcDbLine
 10
-52.284455
 20
6.81093
 30
0.0
 11
-29.0
 21
6.81093
 31
0.0
1001
ACAD
1000
RTLwPs
1070
   158
  0
LINE
  5
285
100
AcDbEntity
  8
寸法
  6
CONTINUOUS
 62
     1
100
AcDbLine
 10
-30.0
 20
24.810932
 30
0.0
 11
-30.0
 21
8.81093
 31
0.0
1001
ACAD
1000
RTLwPs
1070
   158
  0
INSERT
  5
286
100
AcDbEntity
  8
寸法
  6
CONTINUOUS
 62
     1
100
AcDbBlockReference
  2
_OPEN30
 10
-30.0
 20
26.810932
 30
0.0
 41
2.0
 42
2.0
 43
2.0
 50
90.0
1001
ACAD
1000
RTLwPs
1070
   158
  0
INSERT
  5
287
100
AcDbEntity
  8
寸法
  6
CONTINUOUS
 62
     1
100
AcDbBlockReference
  2
_OPEN30
 10
-30.0
 20
6.81093
 30
0.0
 41
2.0
 42
2.0
 43
2.0
 50
270.0
1001
ACAD
1000
RTLwPs
1070
   158
  0
MTEXT
  5
288
100
AcDbEntity
  8
寸法
  6
CONTINUOUS
 62
     1
100
AcDbMText
 10
-32.5
 20
16.810931
 30
0.0
 40
3.0
 41
0.0
 71
     5
 72
     1
  1
\A1;20
 11
0.0
 21
1.0
 31
0.0
1001
ACAD
1000
MTEXTBEGIN
1070
    73
1070
     1
1070
    44
1040
1.0
1070
    74
1070
     0
1000
MTEXTEND
1000
MTEXTBEGIN
1070
    73
1070
     1
1070
    44
1040
1.0
1070
    74
1070
     0
1000
MTEXTEND
  0
POINT
  5
289
100
AcDbEntity
  8
DEFPOINTS
  6
CONTINUOUS
 62
     0
100
AcDbPoint
 10
-50.784459
 20
26.810932
 30
0.0
  0
POINT
  5
28A
100
AcDbEntity
  8
DEFPOINTS
  6
CONTINUOUS
 62
     0
100
AcDbPoint
 10
-53.284455
 20
6.81093
 30
0.0
  0
POINT
  5
28B
100
AcDbEntity
  8
DEFPOINTS
  6
CONTINUOUS
 62
     0
100
AcDbPoint
 10
-30.0
 20
6.81093
 30
0.0
  0
ENDBLK
  5
28D
100
AcDbEntity
  8
0
100
AcDbBlockEnd
  0
BLOCK
  5
2A1
100
AcDbEntity
  8
0
100
AcDbBlockBegin
  2
*D14
 70
     1
 10
0.0
 20
0.0
 30
0.0
  3
*D14
  1

  0
LINE
  5
2A3
100
AcDbEntity
  8
寸法
  6
CONTINUOUS
 62
     1
100
AcDbLine
 10
-12.051473
 20
-78.660459
 30
0.0
 11
-2.457528
 21
-71.452393
 31
0.0
1001
ACAD
1000
RTLwPs
1070
   158
  0
MTEXT
  5
2A4
100
AcDbEntity
  8
寸法
  6
CONTINUOUS
 62
     1
100
AcDbMText
 10
-9.555676
 20
-73.65836
 30
0.0
 40
3.0
 41
0.0
 71
     5
 72
     1
  1
\A1;%%c75
 11
0.799495
 21
0.600672
 31
0.0
1001
ACAD
1000
MTEXTBEGIN
1070
    73
1070
     1
1070
    44
1040
1.0
1070
    74
1070
     0
1000
MTEXTEND
1000
MTEXTBEGIN
1070
    73
1070
     1
1070
    44
1040
1.0
1070
    74
1070
     0
1000
MTEXTEND
  0
LINE
  5
2A5
100
AcDbEntity
  8
寸法
  6
CONTINUOUS
 62
     1
100
AcDbLine
 10
29.182486
 20
-47.680803
 30
0.0
 11
-0.858537
 21
-70.251048
 31
0.0
1001
ACAD
1000
RTLwPs
1070
   158
  0
INSERT
  5
2A6
100
AcDbEntity
  8
寸法
  6
CONTINUOUS
 62
     1
100
AcDbBlockReference
  2
_OPEN30
 10
-0.858537
 20
-70.251048
 30
0.0
 41
2.0
 42
2.0
 43
2.0
 50
36.918056
1001
ACAD
1000
RTLwPs
1070
   158
  0
POINT
  5
2A7
100
AcDbEntity
  8
DEFPOINTS
  6
CONTINUOUS
 62
     0
100
AcDbPoint
 10
-0.858537
 20
-70.251048
 30
0.0
  0
POINT
  5
2A8
100
AcDbEntity
  8
DEFPOINTS
  6
CONTINUOUS
 62
     0
100
AcDbPoint
 10
29.182486
 20
-47.680803
 30
0.0
  0
ENDBLK
  5
2A2
100
AcDbEntity
  8
0
100
AcDbBlockEnd
  0
ENDSEC
  0
SECTION
  2
ENTITIES
  0
POINT
  5
24
100
AcDbEntity
  8
0
  6
CONTINUOUS
 62
     7
100
AcDbPoint
 10
0.0
 20
6.81093
 30
0.0
  0
POINT
  5
25
100
AcDbEntity
  8
0
  6
CONTINUOUS
 62
     7
100
AcDbPoint
 10
0.0
 20
-45.308249
 30
0.0
  0
POINT
  5
26
100
AcDbEntity
  8
0
  6
CONTINUOUS
 62
     7
100
AcDbPoint
 10
-53.284455
 20
6.81093
 30
0.0
  0
POINT
  5
27
100
AcDbEntity
  8
0
  6
CONTINUOUS
 62
     7
100
AcDbPoint
 10
88.540779
 20
-57.308253
 30
0.0
  0
POINT
  5
28
100
AcDbEntity
  8
0
  6
CONTINUOUS
 62
     7
100
AcDbPoint
 10
93.789703
 20
-41.808249
 30
0.0
  0
LINE
  5
29
100
AcDbEntity
  8
0
  6
CONTINUOUS
 62
     7
100
AcDbLine
 10
-8.0832
 20
14.89413
 30
0.0
 11
-0.234315
 21
7.045245
 31
0.0
  0
LINE
  5
2A
100
AcDbEntity
  8
0
  6
CONTINUOUS
 62
     7
100
AcDbLine
 10
0.897056
 20
7.045245
 30
0.0
 11
7.052736
 21
13.200925
 31
0.0
  0
LINE
  5
2B
100
AcDbEntity
  8
0
  6
CONTINUOUS
 62
     7
100
AcDbLine
 10
4.368002
 20
20.403439
 30
0.0
 11
0.897056
 21
23.874386
 31
0.0
  0
LINE
  5
2C
100
AcDbEntity
  8
0
  6
CONTINUOUS
 62
     7
100
AcDbLine
 10
-8.0832
 20
16.025501
 30
0.0
 11
-0.234315
 21
23.874386
 31
0.0
  0
LINE
  5
2D
100
AcDbEntity
  8
0
  6
CONTINUOUS
 62
     7
100
AcDbLine
 10
39.0
 20
26.81093
 30
0.0
 11
39.0
 21
10.81093
 31
0.0
  0
LINE
  5
2E
100
AcDbEntity
  8
0
  6
CONTINUOUS
 62
     7
100
AcDbLine
 10
3.1
 20
26.81093
 30
0.0
 11
39.0
 21
26.81093
 31
0.0
  0
LINE
  5
2F
100
AcDbEntity
  8
0
  6
CONTINUOUS
 62
     7
100
AcDbLine
 10
15.0
 20
10.81093
 30
0.0
 11
39.0
 21
10.81093
 31
0.0
  0
LINE
  5
30
100
AcDbEntity
  8
0
  6
CENTER
 62
     1
 48
0.5
100
AcDbLine
 10
11.800044
 20
28.677839
 30
0.0
 11
17.118185
 21
8.830275
 31
0.0
  0
LINE
  5
31
100
AcDbEntity
  8
0
  6
CENTER
 62
     1
 48
0.5
100
AcDbLine
 10
-2.045477
 20
14.824422
 30
0.0
 11
28.142473
 21
22.913261
 31
0.0
  0
LINE
  5
32
100
AcDbEntity
  8
0
  6
CONTINUOUS
 62
     7
100
AcDbLine
 10
1.266099
 20
17.762915
 30
0.0
 11
2.291679
 21
13.935399
 31
0.0
  0
LINE
  5
33
100
AcDbEntity
  8
0
  6
CONTINUOUS
 62
     7
100
AcDbLine
 10
1.733556
 20
18.888643
 30
0.0
 11
11.345112
 21
24.415252
 31
0.0
  0
LINE
  5
34
100
AcDbEntity
  8
0
  6
CONTINUOUS
 62
     7
100
AcDbLine
 10
3.259374
 20
13.194221
 30
0.0
 11
14.346531
 21
13.213815
 31
0.0
  0
LINE
  5
35
100
AcDbEntity
  8
0
  6
CONTINUOUS
 62
     7
100
AcDbLine
 10
19.341467
 20
22.522062
 30
0.0
 11
19.736317
 21
22.627862
 31
0.0
  0
LINE
  5
36
100
AcDbEntity
  8
0
  6
CONTINUOUS
 62
     7
100
AcDbLine
 10
20.32498
 20
18.851544
 30
0.0
 11
20.71983
 21
18.957343
 31
0.0
  0
LINE
  5
37
100
AcDbEntity
  8
0
  6
CENTER
 62
     1
 48
0.5
100
AcDbLine
 10
19.581024
 20
23.207416
 30
0.0
 11
20.87512
 21
18.377788
 31
0.0
  0
LINE
  5
38
100
AcDbEntity
  8
0
  6
CONTINUOUS
 62
     7
100
AcDbLine
 10
2.162742
 20
8.31093
 30
0.0
 11
13.556624
 21
8.31093
 31
0.0
  0
LINE
  5
39
100
AcDbEntity
  8
0
  6
CONTINUOUS
 62
     7
100
AcDbLine
 10
13.556624
 20
8.310931
 30
0.0
 11
15.0
 21
10.81093
 31
0.0
  0
LINE
  5
3A
100
AcDbEntity
  8
0
  6
CONTINUOUS
 62
     7
100
AcDbLine
 10
0.530256
 20
24.241186
 30
0.0
 11
3.100001
 21
26.81093
 31
0.0
  0
LINE
  5
3B
100
AcDbEntity
  8
0
  6
CONTINUOUS
 62
     7
100
AcDbLine
 10
47.0
 20
20.81093
 30
0.0
 11
47.0
 21
16.81093
 31
0.0
  0
LINE
  5
3C
100
AcDbEntity
  8
0
  6
CENTER
 62
     1
 48
0.5
100
AcDbLine
 10
35.7365
 20
18.81093
 30
0.0
 11
48.930676
 21
18.81093
 31
0.0
  0
LINE
  5
3D
100
AcDbEntity
  8
0
  6
CONTINUOUS
 62
     7
100
AcDbLine
 10
42.0
 20
22.81093
 30
0.0
 11
42.0
 21
14.81093
 31
0.0
  0
LINE
  5
3E
100
AcDbEntity
  8
0
  6
CONTINUOUS
 62
     7
100
AcDbLine
 10
39.0
 20
16.31093
 30
0.0
 11
42.0
 21
16.31093
 31
0.0
  0
LINE
  5
3F
100
AcDbEntity
  8
0
  6
CONTINUOUS
 62
     7
100
AcDbLine
 10
39.0
 20
21.31093
 30
0.0
 11
42.0
 21
21.31093
 31
0.0
  0
LINE
  5
40
100
AcDbEntity
  8
0
  6
CONTINUOUS
 62
     7
100
AcDbLine
 10
44.5
 20
23.31093
 30
0.0
 11
47.0
 21
20.810931
 31
0.0
  0
LINE
  5
41
100
AcDbEntity
  8
0
  6
CONTINUOUS
 62
     7
100
AcDbLine
 10
44.499996
 20
14.310929
 30
0.0
 11
47.0
 21
16.810931
 31
0.0
  0
LINE
  5
42
100
AcDbEntity
  8
0
  6
CONTINUOUS
 62
     7
100
AcDbLine
 10
42.5
 20
14.31093
 30
0.0
 11
44.5
 21
14.31093
 31
0.0
  0
LINE
  5
43
100
AcDbEntity
  8
0
  6
CONTINUOUS
 62
     7
100
AcDbLine
 10
42.5
 20
23.31093
 30
0.0
 11
44.5
 21
23.31093
 31
0.0
  0
LINE
  5
44
100
AcDbEntity
  8
0
  6
CONTINUOUS
 62
     7
100
AcDbLine
 10
42.5
 20
23.310926
 30
0.0
 11
42.0
 21
22.810928
 31
0.0
  0
LINE
  5
45
100
AcDbEntity
  8
0
  6
CONTINUOUS
 62
     7
100
AcDbLine
 10
42.000004
 20
14.810931
 30
0.0
 11
42.500004
 21
14.310932
 31
0.0
  0
LINE
  5
46
100
AcDbEntity
  8
0
  6
CONTINUOUS
 62
     7
100
AcDbLine
 10
42.5
 20
23.31093
 30
0.0
 11
42.5
 21
14.31093
 31
0.0
  0
LINE
  5
47
100
AcDbEntity
  8
0
  6
CONTINUOUS
 62
     7
100
AcDbLine
 10
44.5
 20
23.31093
 30
0.0
 11
44.5
 21
14.31093
 31
0.0
  0
LINE
  5
48
100
AcDbEntity
  8
0
  6
CONTINUOUS
 62
     7
100
AcDbLine
 10
39.0
 20
16.81093
 30
0.0
 11
42.0
 21
16.81093
 31
0.0
  0
LINE
  5
49
100
AcDbEntity
  8
0
  6
CONTINUOUS
 62
     7
100
AcDbLine
 10
39.0
 20
20.81093
 30
0.0
 11
42.0
 21
20.81093
 31
0.0
  0
LINE
  5
4A
100
AcDbEntity
  8
0
  6
CONTINUOUS
 62
     7
100
AcDbLine
 10
88.540779
 20
-42.808249
 30
0.0
 11
88.540779
 21
-57.308253
 31
0.0
  0
LINE
  5
4B
100
AcDbEntity
  8
0
  6
CONTINUOUS
 62
     7
100
AcDbLine
 10
104.54078
 20
-42.808249
 30
0.0
 11
104.54078
 21
-56.186076
 31
0.0
  0
LINE
  5
4C
100
AcDbEntity
  8
0
  6
CONTINUOUS
 62
     7
100
AcDbLine
 10
89.540779
 20
-41.808249
 30
0.0
 11
103.54078
 21
-41.808249
 31
0.0
  0
LINE
  5
4D
100
AcDbEntity
  8
0
  6
CONTINUOUS
 62
     7
100
AcDbLine
 10
88.540779
 20
-57.308253
 30
0.0
 11
103.418597
 21
-57.308253
 31
0.0
  0
LINE
  5
4E
100
AcDbEntity
  8
0
  6
CONTINUOUS
 62
     7
100
AcDbLine
 10
103.54077
 20
-41.808249
 30
0.0
 11
104.54077
 21
-42.808253
 31
0.0
  0
LINE
  5
50
100
AcDbEntity
  8
0
  6
CONTINUOUS
 62
     7
100
AcDbLine
 10
104.54077
 20
-56.186076
 30
0.0
 11
103.418597
 21
-57.308253
 31
0.0
  0
LINE
  5
51
100
AcDbEntity
  8
0
  6
CENTER
 62
     1
 48
0.5
100
AcDbLine
 10
86.167465
 20
-44.620917
 30
0.0
 11
107.83415
 21
-52.506945
 31
0.0
  0
LINE
  5
52
100
AcDbEntity
  8
0
  6
CONTINUOUS
 62
     7
100
AcDbLine
 10
93.837769
 20
-51.137301
 30
0.0
 11
104.54077
 21
-55.032874
 31
0.0
  0
LINE
  5
53
100
AcDbEntity
  8
0
  6
CONTINUOUS
 62
     7
100
AcDbLine
 10
96.231911
 20
-44.559455
 30
0.0
 11
104.54077
 21
-47.583628
 31
0.0
  0
LINE
  5
54
100
AcDbEntity
  8
0
  6
CONTINUOUS
 62
     7
100
AcDbLine
 10
93.789703
 20
-41.808249
 30
0.0
 11
96.830452
 21
-42.914992
 31
0.0
  0
LINE
  5
55
100
AcDbEntity
  8
0
  6
CONTINUOUS
 62
     7
100
AcDbLine
 10
88.540771
 20
-51.071662
 30
0.0
 11
93.239235
 21
-52.781764
 31
0.0
  0
LINE
  5
56
100
AcDbEntity
  8
0
  6
CONTINUOUS
 62
     7
100
AcDbLine
 10
96.830452
 20
-42.914992
 30
0.0
 11
93.239235
 21
-52.781764
 31
0.0
  0
LINE
  5
57
100
AcDbEntity
  8
0
  6
CENTER
 62
     1
 48
0.5
100
AcDbLine
 10
27.0
 20
28.47331
 30
0.0
 11
27.0
 21
9.138739
 31
0.0
  0
LINE
  5
58
100
AcDbEntity
  8
0
  6
CONTINUOUS
 62
     7
100
AcDbLine
 10
20.351114
 20
25.810924
 30
0.0
 11
39.0
 21
25.810924
 31
0.0
  0
LINE
  5
59
100
AcDbEntity
  8
0
  6
CONTINUOUS
 62
     7
100
AcDbLine
 10
89.540779
 20
-41.808249
 30
0.0
 11
88.540779
 21
-42.808245
 31
0.0
  0
LINE
  5
5A
100
AcDbEntity
  8
0
  6
CONTINUOUS
 62
     7
100
AcDbLine
 10
20.351114
 20
26.81093
 30
0.0
 11
20.351114
 21
22.688614
 31
0.0
  0
LINE
  5
5C
100
AcDbEntity
  8
0
  6
CONTINUOUS
 62
     7
100
AcDbLine
 10
-49.784459
 20
25.81093
 30
0.0
 11
-49.784459
 21
25.213806
 31
0.0
  0
LINE
  5
5D
100
AcDbEntity
  8
0
  6
CONTINUOUS
 62
     7
100
AcDbLine
 10
-65.284455
 20
25.81093
 30
0.0
 11
-65.284455
 21
11.575084
 31
0.0
  0
LINE
  5
5E
100
AcDbEntity
  8
0
  6
CONTINUOUS
 62
     7
100
AcDbLine
 10
-64.284455
 20
26.81093
 30
0.0
 11
-50.784459
 21
26.81093
 31
0.0
  0
LINE
  5
5F
100
AcDbEntity
  8
0
  6
CONTINUOUS
 62
     7
100
AcDbLine
 10
-58.284455
 20
8.31093
 30
0.0
 11
-56.464455
 21
8.31093
 31
0.0
  0
LINE
  5
60
100
AcDbEntity
  8
0
  6
CONTINUOUS
 62
     7
100
AcDbLine
 10
-64.284455
 20
26.81093
 30
0.0
 11
-65.284459
 21
25.81093
 31
0.0
  0
LINE
  5
61
100
AcDbEntity
  8
0
  6
CONTINUOUS
 62
     7
100
AcDbLine
 10
-50.784459
 20
26.810932
 30
0.0
 11
-49.784459
 21
25.81093
 31
0.0
  0
LINE
  5
62
100
AcDbEntity
  8
0
  6
CONTINUOUS
 62
     7
100
AcDbLine
 10
47.0
 20
-47.808249
 30
0.0
 11
47.0
 21
-51.808249
 31
0.0
  0
LINE
  5
63
100
AcDbEntity
  8
0
  6
CENTER
 62
     1
 48
0.5
100
AcDbLine
 10
32.097404
 20
-49.808249
 30
0.0
 11
48.930676
 21
-49.808249
 31
0.0
  0
LINE
  5
64
100
AcDbEntity
  8
0
  6
CONTINUOUS
 62
     7
100
AcDbLine
 10
42.0
 20
-45.808249
 30
0.0
 11
42.0
 21
-53.808249
 31
0.0
  0
LINE
  5
65
100
AcDbEntity
  8
0
  6
CONTINUOUS
 62
     7
100
AcDbLine
 10
39.0
 20
-52.308249
 30
0.0
 11
42.0
 21
-52.308249
 31
0.0
  0
LINE
  5
66
100
AcDbEntity
  8
0
  6
CONTINUOUS
 62
     7
100
AcDbLine
 10
39.0
 20
-47.308249
 30
0.0
 11
42.0
 21
-47.308249
 31
0.0
  0
LINE
  5
67
100
AcDbEntity
  8
0
  6
CONTINUOUS
 62
     7
100
AcDbLine
 10
44.5
 20
-45.308245
 30
0.0
 11
47.0
 21
-47.808245
 31
0.0
  0
LINE
  5
68
100
AcDbEntity
  8
0
  6
CONTINUOUS
 62
     7
100
AcDbLine
 10
44.5
 20
-54.308253
 30
0.0
 11
47.0
 21
-51.808249
 31
0.0
  0
LINE
  5
69
100
AcDbEntity
  8
0
  6
CONTINUOUS
 62
     7
100
AcDbLine
 10
42.5
 20
-54.308249
 30
0.0
 11
44.5
 21
-54.308249
 31
0.0
  0
LINE
  5
6A
100
AcDbEntity
  8
0
  6
CONTINUOUS
 62
     7
100
AcDbLine
 10
42.5
 20
-45.308249
 30
0.0
 11
44.5
 21
-45.308249
 31
0.0
  0
LINE
  5
6B
100
AcDbEntity
  8
0
  6
CONTINUOUS
 62
     7
100
AcDbLine
 10
42.5
 20
-45.308257
 30
0.0
 11
42.000004
 21
-45.808253
 31
0.0
  0
LINE
  5
6C
100
AcDbEntity
  8
0
  6
CONTINUOUS
 62
     7
100
AcDbLine
 10
42.000004
 20
-53.808249
 30
0.0
 11
42.500008
 21
-54.308249
 31
0.0
  0
LINE
  5
6D
100
AcDbEntity
  8
0
  6
CONTINUOUS
 62
     7
100
AcDbLine
 10
42.5
 20
-45.308249
 30
0.0
 11
42.5
 21
-54.308249
 31
0.0
  0
LINE
  5
6E
100
AcDbEntity
  8
0
  6
CONTINUOUS
 62
     7
100
AcDbLine
 10
44.5
 20
-45.308249
 30
0.0
 11
44.5
 21
-54.308249
 31
0.0
  0
LINE
  5
6F
100
AcDbEntity
  8
0
  6
CONTINUOUS
 62
     7
100
AcDbLine
 10
39.0
 20
-51.808249
 30
0.0
 11
42.0
 21
-51.808249
 31
0.0
  0
LINE
  5
70
100
AcDbEntity
  8
0
  6
CONTINUOUS
 62
     7
100
AcDbLine
 10
39.0
 20
-47.808249
 30
0.0
 11
42.0
 21
-47.808249
 31
0.0
  0
LINE
  5
71
100
AcDbEntity
  8
0
  6
CONTINUOUS
 62
     7
100
AcDbLine
 10
15.0
 20
-44.788249
 30
0.0
 11
15.0
 21
-57.308249
 31
0.0
  0
LINE
  5
72
100
AcDbEntity
  8
0
  6
CONTINUOUS
 62
     7
100
AcDbLine
 10
20.451115
 20
-41.808249
 30
0.0
 11
39.0
 21
-41.808249
 31
0.0
  0
LINE
  5
73
100
AcDbEntity
  8
0
  6
CONTINUOUS
 62
     7
100
AcDbLine
 10
-4.081459
 20
-57.308249
 30
0.0
 11
39.0
 21
-57.308249
 31
0.0
  0
LINE
  5
74
100
AcDbEntity
  8
0
  6
CONTINUOUS
 62
     7
100
AcDbLine
 10
39.0
 20
-41.808249
 30
0.0
 11
39.0
 21
-57.308249
 31
0.0
  0
LINE
  5
75
100
AcDbEntity
  8
0
  6
CENTER
 62
     1
 48
0.5
100
AcDbLine
 10
27.0
 20
-39.190928
 30
0.0
 11
27.0
 21
-59.202822
 31
0.0
  0
LINE
  5
76
100
AcDbEntity
  8
0
  6
CENTER
 62
     1
 48
0.5
100
AcDbLine
 10
26.0
 20
-39.190928
 30
0.0
 11
26.0
 21
-59.202822
 31
0.0
  0
LINE
  5
77
100
AcDbEntity
  8
0
  6
CENTER
 62
     1
 48
0.5
100
AcDbLine
 10
28.0
 20
-39.190928
 30
0.0
 11
28.0
 21
-59.202822
 31
0.0
  0
LINE
  5
78
100
AcDbEntity
  8
0
  6
CONTINUOUS
 62
     7
100
AcDbLine
 10
26.0
 20
-51.071662
 30
0.0
 11
28.0
 21
-51.071662
 31
0.0
  0
LINE
  5
79
100
AcDbEntity
  8
0
  6
CONTINUOUS
 62
     7
100
AcDbLine
 10
26.0
 20
-42.914992
 30
0.0
 11
28.0
 21
-42.914992
 31
0.0
  0
LINE
  5
7A
100
AcDbEntity
  8
0
  6
CONTINUOUS
 62
     7
100
AcDbLine
 10
26.0
 20
-44.559455
 30
0.0
 11
28.0
 21
-44.559455
 31
0.0
  0
LINE
  5
7B
100
AcDbEntity
  8
0
  6
CONTINUOUS
 62
     7
100
AcDbLine
 10
26.0
 20
-47.583628
 30
0.0
 11
28.0
 21
-47.583628
 31
0.0
  0
LINE
  5
7C
100
AcDbEntity
  8
0
  6
CONTINUOUS
 62
     7
100
AcDbLine
 10
20.451115
 20
-42.808249
 30
0.0
 11
21.391289
 21
-42.808249
 31
0.0
  0
LINE
  5
7D
100
AcDbEntity
  8
0
  6
CONTINUOUS
 62
     7
100
AcDbLine
 10
32.608353
 20
-42.808249
 30
0.0
 11
39.0
 21
-42.808249
 31
0.0
  0
LINE
  5
7E
100
AcDbEntity
  8
0
  6
CENTER
 62
     1
 48
0.5
100
AcDbLine
 10
4.0
 20
-47.808249
 30
0.0
 11
4.0
 21
-57.808249
 31
0.0
  0
LINE
  5
7F
100
AcDbEntity
  8
0
  6
CENTER
 62
     1
 48
0.5
100
AcDbLine
 10
-1.0
 20
-52.808249
 30
0.0
 11
9.0
 21
-52.808249
 31
0.0
  0
LINE
  5
80
100
AcDbEntity
  8
0
  6
CONTINUOUS
 62
     7
100
AcDbLine
 10
2.162742
 20
-44.788249
 30
0.0
 11
19.451115
 21
-44.788249
 31
0.0
  0
LINE
  5
81
100
AcDbEntity
  8
0
  6
CONTINUOUS
 62
     7
100
AcDbLine
 10
13.556624
 20
-44.788249
 30
0.0
 11
13.556624
 21
-50.308249
 31
0.0
  0
LINE
  5
82
100
AcDbEntity
  8
0
  6
CONTINUOUS
 62
     7
100
AcDbLine
 10
-7.345613
 20
-50.308249
 30
0.0
 11
2.341688
 21
-50.308249
 31
0.0
  0
LINE
  5
83
100
AcDbEntity
  8
0
  6
CONTINUOUS
 62
     7
100
AcDbLine
 10
13.556624
 20
-50.308249
 30
0.0
 11
15.0
 21
-57.308249
 31
0.0
  0
LINE
  5
84
100
AcDbEntity
  8
0
  6
CONTINUOUS
 62
     7
100
AcDbLine
 10
5.658312
 20
-50.308249
 30
0.0
 11
13.556624
 21
-50.308249
 31
0.0
  0
LINE
  5
85
100
AcDbEntity
  8
0
  6
CONTINUOUS
 62
     7
100
AcDbLine
 10
8.335924
 20
-38.308249
 30
0.0
 11
20.335924
 21
-38.308249
 31
0.0
  0
LINE
  5
86
100
AcDbEntity
  8
0
  6
CONTINUOUS
 62
     7
100
AcDbLine
 10
2.490641
 20
-41.488249
 30
0.0
 11
2.490641
 21
-44.788249
 31
0.0
  0
LINE
  5
87
100
AcDbEntity
  8
0
  6
CONTINUOUS
 62
     7
100
AcDbLine
 10
20.335924
 20
-38.308249
 30
0.0
 11
20.335924
 21
-44.254202
 31
0.0
  0
LINE
  5
88
100
AcDbEntity
  8
0
  6
CONTINUOUS
 62
     7
100
AcDbLine
 10
20.335924
 20
-40.308249
 30
0.0
 11
22.128071
 21
-40.308249
 31
0.0
  0
LINE
  5
89
100
AcDbEntity
  8
0
  6
CONTINUOUS
 62
     7
100
AcDbLine
 10
22.128071
 20
-40.308249
 30
0.0
 11
22.128071
 21
-41.808249
 31
0.0
  0
LINE
  5
8A
100
AcDbEntity
  8
0
  6
CONTINUOUS
 62
     7
100
AcDbLine
 10
1.232024
 20
-41.488249
 30
0.0
 11
2.490641
 21
-41.488249
 31
0.0
  0
LINE
  5
8B
100
AcDbEntity
  8
0
  6
CONTINUOUS
 62
     7
100
AcDbLine
 10
-56.464455
 20
23.490572
 30
0.0
 11
-56.464455
 21
7.42906
 31
0.0
  0
LINE
  5
8C
100
AcDbEntity
  8
0
  6
CONTINUOUS
 62
     7
100
AcDbLine
 10
-53.284455
 20
26.81093
 30
0.0
 11
-53.284455
 21
6.81093
 31
0.0
  0
LINE
  5
8D
100
AcDbEntity
  8
0
  6
CONTINUOUS
 62
     7
100
AcDbLine
 10
-58.284455
 20
15.459816
 30
0.0
 11
-53.284455
 21
15.459816
 31
0.0
  0
LINE
  5
8E
100
AcDbEntity
  8
0
  6
CONTINUOUS
 62
     7
100
AcDbLine
 10
-56.464455
 20
7.42906
 30
0.0
 11
-53.284459
 21
6.810931
 31
0.0
  0
LINE
  5
8F
100
AcDbEntity
  8
0
  6
CONTINUOUS
 62
     7
100
AcDbLine
 10
-56.464459
 20
23.49057
 30
0.0
 11
-53.284459
 21
24.1087
 31
0.0
  0
LINE
  5
90
100
AcDbEntity
  8
0
  6
CONTINUOUS
 62
     7
100
AcDbLine
 10
-53.284455
 20
10.81093
 30
0.0
 11
-50.784459
 21
10.81093
 31
0.0
  0
LINE
  5
91
100
AcDbEntity
  8
0
  6
CONTINUOUS
 62
     7
100
AcDbLine
 10
-49.784459
 20
11.810932
 30
0.0
 11
-50.784459
 21
10.810931
 31
0.0
  0
LINE
  5
92
100
AcDbEntity
  8
0
  6
CONTINUOUS
 62
     7
100
AcDbLine
 10
-53.284455
 20
25.213806
 30
0.0
 11
-46.284455
 21
25.213806
 31
0.0
  0
LINE
  5
93
100
AcDbEntity
  8
0
  6
CONTINUOUS
 62
     7
100
AcDbLine
 10
-53.284455
 20
13.192862
 30
0.0
 11
-48.284455
 21
13.192862
 31
0.0
  0
LINE
  5
94
100
AcDbEntity
  8
0
  6
CONTINUOUS
 62
     7
100
AcDbLine
 10
-46.284455
 20
25.213806
 30
0.0
 11
-46.284455
 21
15.192862
 31
0.0
  0
LINE
  5
95
100
AcDbEntity
  8
0
  6
CONTINUOUS
 62
     7
100
AcDbLine
 10
-49.464455
 20
18.505454
 30
0.0
 11
-49.464455
 21
13.192862
 31
0.0
  0
LINE
  5
96
100
AcDbEntity
  8
0
  6
CONTINUOUS
 62
     7
100
AcDbLine
 10
-53.284455
 20
18.505454
 30
0.0
 11
-49.464455
 21
18.505454
 31
0.0
  0
LINE
  5
97
100
AcDbEntity
  8
0
  6
CONTINUOUS
 62
     7
100
AcDbLine
 10
-49.784459
 20
13.192862
 30
0.0
 11
-49.784459
 21
11.81093
 31
0.0
  0
LINE
  5
98
100
AcDbEntity
  8
0
  6
CENTER
 62
     1
 48
0.5
100
AcDbLine
 10
-68.875786
 20
19.213806
 30
0.0
 11
-44.272851
 21
19.213806
 31
0.0
  0
LINE
  5
99
100
AcDbEntity
  8
0
  6
CONTINUOUS
 62
     7
100
AcDbLine
 10
31.121689
 20
11.81093
 30
0.0
 11
39.0
 21
11.81093
 31
0.0
  0
LINE
  5
9A
100
AcDbEntity
  8
0
  6
CONTINUOUS
 62
     7
100
AcDbLine
 10
1.443535
 20
-48.488249
 30
0.0
 11
2.162742
 21
-44.788249
 31
0.0
  0
LINE
  5
9B
100
AcDbEntity
  8
0
  6
CONTINUOUS
 62
     7
100
AcDbLine
 10
20.451115
 20
-41.808249
 30
0.0
 11
20.451115
 21
-43.788249
 31
0.0
  0
LINE
  5
9C
100
AcDbEntity
  8
0
  6
CONTINUOUS
 62
     7
100
AcDbLine
 10
-8.317514
 20
-45.308249
 30
0.0
 11
2.061664
 21
-45.308249
 31
0.0
  0
LINE
  5
9D
100
AcDbEntity
  8
0
  6
CONTINUOUS
 62
     7
100
AcDbLine
 10
-8.317514
 20
-45.308249
 30
0.0
 11
-7.345613
 21
-50.308249
 31
0.0
  0
LINE
  5
9E
100
AcDbEntity
  8
0
  6
CONTINUOUS
 62
     7
100
AcDbLine
 10
-7.699385
 20
-48.488249
 30
0.0
 11
1.443535
 21
-48.488249
 31
0.0
  0
LINE
  5
9F
100
AcDbEntity
  8
0
  6
CONTINUOUS
 62
     7
100
AcDbLine
 10
0.331371
 20
-45.308249
 30
0.0
 11
0.331371
 21
-50.308249
 31
0.0
  0
LINE
  5
A0
100
AcDbEntity
  8
0
  6
CONTINUOUS
 62
     7
100
AcDbLine
 10
0.331372
 20
-50.308249
 30
0.0
 11
1.047586
 21
-52.276034
 31
0.0
  0
LINE
  5
A1
100
AcDbEntity
  8
0
  6
CONTINUOUS
 62
     7
100
AcDbLine
 10
2.080421
 20
-55.113722
 30
0.0
 11
2.879163
 21
-57.308249
 31
0.0
  0
LINE
  5
A2
100
AcDbEntity
  8
0
  6
CONTINUOUS
 62
     7
100
AcDbLine
 10
-7.345613
 20
-50.308249
 30
0.0
 11
-4.08146
 21
-57.308249
 31
0.0
  0
LINE
  5
A3
100
AcDbEntity
  8
0
  6
CONTINUOUS
 62
     7
100
AcDbLine
 10
1.232024
 20
-41.488249
 30
0.0
 11
1.232024
 21
-45.308249
 31
0.0
  0
LINE
  5
A4
100
AcDbEntity
  8
0
  6
CONTINUOUS
 62
     7
100
AcDbLine
 10
-58.284455
 20
15.459816
 30
0.0
 11
-58.284455
 21
8.31093
 31
0.0
  0
LINE
  5
A5
100
AcDbEntity
  8
0
  6
CONTINUOUS
 62
     7
100
AcDbLine
 10
-65.284455
 20
11.575084
 30
0.0
 11
-58.284455
 21
8.310931
 31
0.0
  0
LINE
  5
A6
100
AcDbEntity
  8
0
  6
CONTINUOUS
 62
     7
100
AcDbLine
 10
-65.284455
 20
18.723969
 30
0.0
 11
-58.284455
 21
15.459816
 31
0.0
  0
LINE
  5
A7
100
AcDbEntity
  8
0
  6
CONTINUOUS
 62
     7
100
AcDbLine
 10
22.046682
 20
16.059831
 30
0.0
 11
31.953318
 21
16.059831
 31
0.0
  0
LINE
  5
A8
100
AcDbEntity
  8
0
  6
CONTINUOUS
 62
     7
100
AcDbLine
 10
20.351114
 20
18.858546
 30
0.0
 11
20.351114
 21
10.81093
 31
0.0
  0
LINE
  5
A9
100
AcDbEntity
  8
0
  6
CONTINUOUS
 62
     7
100
AcDbLine
 10
0.0
 20
6.81093
 30
0.0
 11
0.331371
 21
6.81093
 31
0.0
  0
LINE
  5
AA
100
AcDbEntity
  8
0
  6
CONTINUOUS
 62
     7
100
AcDbLine
 10
-0.234315
 20
7.045245
 30
0.0
 11
0.0
 21
6.81093
 31
0.0
  0
ARC
  5
AB
100
AcDbEntity
  8
0
  6
CONTINUOUS
 62
     7
100
AcDbCircle
 10
0.331371
 20
23.3087
 30
0.0
 40
0.8
100
AcDbArc
 50
45.000001
 51
135.0
  0
ARC
  5
AC
100
AcDbEntity
  8
0
  6
CONTINUOUS
 62
     7
100
AcDbCircle
 10
-7.517514
 20
15.459816
 30
0.0
 40
0.8
100
AcDbArc
 50
135.0
 51
225.0
  0
ARC
  5
AD
100
AcDbEntity
  8
0
  6
CONTINUOUS
 62
     7
100
AcDbCircle
 10
0.331371
 20
7.61093
 30
0.0
 40
0.8
100
AcDbArc
 50
225.0
 51
315.0
  0
ARC
  5
AE
100
AcDbEntity
  8
0
  6
CONTINUOUS
 62
     7
100
AcDbCircle
 10
20.228071
 20
20.792602
 30
0.0
 40
1.9
100
AcDbArc
 50
285.0
 51
105.00001
  0
ARC
  5
AF
100
AcDbEntity
  8
0
  6
CONTINUOUS
 62
     7
100
AcDbCircle
 10
2.232024
 20
18.021735
 30
0.0
 40
1.0
100
AcDbArc
 50
119.89874
 51
195.0
  0
ARC
  5
B0
100
AcDbEntity
  8
0
  6
CONTINUOUS
 62
     7
100
AcDbCircle
 10
3.257605
 20
14.194218
 30
0.0
 40
1.0
100
AcDbArc
 50
194.99999
 51
270.10125
  0
CIRCLE
  5
B2
100
AcDbEntity
  8
0
  6
CONTINUOUS
 62
     7
100
AcDbCircle
 10
4.0
 20
-52.808249
 30
0.0
 40
3.0
  0
CIRCLE
  5
B3
100
AcDbEntity
  8
0
  6
CONTINUOUS
 62
     7
100
AcDbCircle
 10
4.0
 20
-52.808249
 30
0.0
 40
2.5
  0
ARC
  5
B4
100
AcDbEntity
  8
0
  6
CONTINUOUS
 62
     7
100
AcDbCircle
 10
19.451115
 20
-43.788249
 30
0.0
 40
1.0
100
AcDbArc
 50
270.0
 51
0.0
  0
ARC
  5
B5
100
AcDbEntity
  8
0
  6
CONTINUOUS
 62
     7
100
AcDbCircle
 10
8.335924
 20
-47.83306
 30
0.0
 40
9.524809
100
AcDbArc
 50
90.000003
 51
138.23054
  0
ARC
  5
B6
100
AcDbEntity
  8
0
  6
CONTINUOUS
 62
     7
100
AcDbCircle
 10
9.355596
 20
-47.308249
 30
0.0
 40
9.0
100
AcDbArc
 50
90.000003
 51
139.70925
  0
ARC
  5
B7
100
AcDbEntity
  8
0
  6
CONTINUOUS
 62
     7
100
AcDbCircle
 10
-48.284455
 20
15.192862
 30
0.0
 40
2.0
100
AcDbArc
 50
270.0
 51
0.0
  0
ARC
  5
B8
100
AcDbEntity
  8
0
  6
CONTINUOUS
 62
     7
100
AcDbCircle
 10
22.046682
 20
14.763148
 30
0.0
 40
1.296683
100
AcDbArc
 50
90.000003
 51
226.6367
  0
ARC
  5
B9
100
AcDbEntity
  8
0
  6
CONTINUOUS
 62
     7
100
AcDbCircle
 10
31.953318
 20
14.763148
 30
0.0
 40
1.296683
100
AcDbArc
 50
313.3633
 51
90.000003
  0
ARC
  5
BA
100
AcDbEntity
  8
0
  6
CONTINUOUS
 62
     7
100
AcDbCircle
 10
27.0
 20
17.989072
 30
0.0
 40
7.178141
100
AcDbArc
 50
215.50258
 51
324.49741
  0
LWPOLYLINE
  5
BB
100
AcDbEntity
  8
0
  6
CONTINUOUS
 62
     7
100
AcDbPolyline
 90
       17
 70
     0
 43
0.0
 10
22.046132
 20
-41.809164
 42
0.035043
 10
21.594905
 20
-42.445269
 42
0.034234
 10
21.23573
 20
-43.137684
 42
0.033585
 10
20.973377
 20
-43.872381
 42
0.033128
 10
20.811011
 20
-44.635454
 42
0.032919
 10
20.75042
 20
-45.414089
 42
0.03283
 10
20.792278
 20
-46.192335
 42
0.033054
 10
20.936034
 20
-46.958816
 42
0.033472
 10
21.18012
 20
-47.69946
 42
0.034089
 10
21.521667
 20
-48.400465
 42
0.034881
 10
21.956337
 20
-49.047942
 42
0.0358
 10
22.477921
 20
-49.627847
 42
0.03678
 10
23.077953
 20
-50.126317
 42
0.037739
 10
23.745385
 20
-50.530234
 42
0.038579
 10
24.466449
 20
-50.827995
 42
0.039202
 10
25.224828
 20
-51.010425
 42
0.039513
 10
26.001913
 20
-51.071661
  0
LWPOLYLINE
  5
CE
100
AcDbEntity
  8
0
  6
CONTINUOUS
 62
     7
100
AcDbPolyline
 90
       17
 70
     0
 43
0.0
 10
28.0
 20
-51.071662
 42
0.039487
 10
28.776564
 20
-51.010204
 42
0.039182
 10
29.534514
 20
-50.827681
 42
0.038527
 10
30.254583
 20
-50.53025
 42
0.037753
 10
30.922257
 20
-50.126168
 42
0.03677
 10
31.522113
 20
-49.627815
 42
0.035797
 10
32.043662
 20
-49.047944
 42
0.034889
 10
32.478422
 20
-48.40031
 42
0.034105
 10
32.82009
 20
-47.698944
 42
0.03349
 10
33.064211
 20
-46.95786
 42
0.033071
 10
33.207888
 20
-46.190947
 42
0.032847
 10
33.249559
 20
-45.412293
 42
0.032824
 10
33.189054
 20
-44.635905
 42
0.033121
 10
33.026787
 20
-43.872962
 42
0.033575
 10
32.764597
 20
-43.138436
 42
0.034227
 10
32.405589
 20
-42.44608
 42
0.035046
 10
31.954418
 20
-41.809834
  0
LWPOLYLINE
  5
E1
100
AcDbEntity
  8
0
  6
CONTINUOUS
 62
     7
100
AcDbPolyline
 90
       17
 70
     0
 43
0.0
 10
33.11863
 20
-46.751657
 42
0.022843
 10
32.998433
 20
-46.339542
 42
0.022659
 10
32.840998
 20
-45.939334
 42
0.022411
 10
32.64799
 20
-45.554546
 42
0.022119
 10
32.421394
 20
-45.188237
 42
0.021787
 10
32.163618
 20
-44.843301
 42
0.02145
 10
31.877019
 20
-44.521915
 42
0.021114
 10
31.564131
 20
-44.226052
 42
0.020788
 10
31.227568
 20
-43.957402
 42
0.020481
 10
30.869987
 20
-43.717397
 42
0.0202
 10
30.494066
 20
-43.507228
 42
0.019949
 10
30.102481
 20
-43.327873
 42
0.019735
 10
29.697894
 20
-43.180114
 42
0.019559
 10
29.282948
 20
-43.064563
 42
0.019424
 10
28.860267
 20
-42.981674
 42
0.019333
 10
28.432457
 20
-42.931758
 42
0.019286
 10
28.002093
 20
-42.914992
  0
LWPOLYLINE
  5
F4
100
AcDbEntity
  8
0
  6
CONTINUOUS
 62
     7
100
AcDbPolyline
 90
       17
 70
     0
 43
0.0
 10
26.0
 20
-42.914992
 42
0.019234
 10
25.570794
 20
-42.931506
 42
0.01932
 10
25.143218
 20
-42.981131
 42
0.019382
 10
24.721365
 20
-43.063544
 42
0.019561
 10
24.306239
 20
-43.178789
 42
0.019736
 10
23.901463
 20
-43.326255
 42
0.019951
 10
23.509655
 20
-43.505342
 42
0.020203
 10
23.133466
 20
-43.715281
 42
0.020486
 10
22.775568
 20
-43.955107
 42
0.020796
 10
22.438645
 20
-44.223642
 42
0.021124
 10
22.125368
 20
-44.51946
 42
0.021462
 10
21.83837
 20
-44.840871
 42
0.0218
 10
21.580203
 20
-45.185895
 42
0.022128
 10
21.353294
 20
-45.552251
 42
0.022433
 10
21.159886
 20
-45.937355
 42
0.022705
 10
21.001984
 20
-46.338322
 42
0.02293
 10
20.881288
 20
-46.751996
  0
LWPOLYLINE
  5
107
100
AcDbEntity
  8
0
  6
CONTINUOUS
 62
     7
100
AcDbPolyline
 90
       17
 70
     0
 43
0.0
 10
29.406215
 20
-50.86017
 42
0.040314
 10
29.919257
 20
-50.598716
 42
0.04146
 10
30.382993
 20
-50.257244
 42
0.042784
 10
30.783031
 20
-49.842814
 42
0.044144
 10
31.105443
 20
-49.365398
 42
0.045362
 10
31.337726
 20
-48.838217
 42
0.046248
 10
31.470058
 20
-48.277658
 42
0.046626
 10
31.496568
 20
-47.702758
 42
0.04647
 10
31.416214
 20
-47.133048
 42
0.045738
 10
31.233004
 20
-46.588458
 42
0.04475
 10
30.954242
 20
-46.084743
 42
0.043447
 10
30.591408
 20
-45.637681
 42
0.042097
 10
30.157755
 20
-45.258831
 42
0.040864
 10
29.667416
 20
-44.95667
 42
0.039858
 10
29.134799
 20
-44.737126
 42
0.039149
 10
28.574244
 20
-44.604023
 42
0.038771
 10
28.0
 20
-44.559455
  0
LWPOLYLINE
  5
11A
100
AcDbEntity
  8
0
  6
CONTINUOUS
 62
     7
100
AcDbPolyline
 90
       17
 70
     0
 43
0.0
 10
26.0
 20
-44.559455
 42
0.038532
 10
25.429259
 20
-44.603478
 42
0.038955
 10
24.871232
 20
-44.735189
 42
0.039649
 10
24.340769
 20
-44.952516
 42
0.040652
 10
23.851819
 20
-45.251812
 42
0.041887
 10
23.418572
 20
-45.627394
 42
0.043237
 10
23.055108
 20
-46.070989
 42
0.044543
 10
22.774644
 20
-46.571266
 42
0.04562
 10
22.588445
 20
-47.113676
 42
0.046288
 10
22.504546
 20
-47.680803
 42
0.0464
 10
22.526595
 20
-48.25305
 42
0.04597
 10
22.65327
 20
-48.810997
 42
0.045153
 10
22.879186
 20
-49.337283
 42
0.043999
 10
23.195104
 20
-49.815581
 42
0.042661
 10
23.588738
 20
-50.232274
 42
0.041358
 10
24.046553
 20
-50.577378
 42
0.040221
 10
24.554428
 20
-50.843671
  0
LWPOLYLINE
  5
12D
100
AcDbEntity
  8
0
  6
CONTINUOUS
 62
     7
100
AcDbPolyline
 90
       17
 70
     0
 43
0.0
 10
26.0
 20
-47.583628
 42
0.017831
 10
25.765579
 20
-47.591992
 42
0.017811
 10
25.532204
 20
-47.617046
 42
0.017649
 10
25.302482
 20
-47.658343
 42
0.017601
 10
25.075693
 20
-47.715857
 42
0.017515
 10
24.853105
 20
-47.789275
 42
0.017396
 10
24.635916
 20
-47.878151
 42
0.017248
 10
24.425245
 20
-47.981926
 42
0.017033
 10
24.22263
 20
-48.099626
 42
0.016949
 10
24.027283
 20
-48.23162
 42
0.016693
 10
23.841905
 20
-48.375939
 42
0.016493
 10
23.666507
 20
-48.532234
 42
0.016294
 10
23.501725
 20
-48.699687
 42
0.016099
 10
23.348126
 20
-48.877458
 42
0.01591
 10
23.206209
 20
-49.064695
 42
0.015731
 10
23.076412
 20
-49.260537
 42
0.015563
 10
22.959112
 20
-49.46412
  0
LWPOLYLINE
  5
140
100
AcDbEntity
  8
0
  6
CONTINUOUS
 62
     7
100
AcDbPolyline
 90
       17
 70
     0
 43
0.0
 10
31.043531
 20
-49.469065
 42
0.015565
 10
30.926494
 20
-49.265243
 42
0.015733
 10
30.796934
 20
-49.069135
 42
0.015913
 10
30.655227
 20
-48.881607
 42
0.016103
 10
30.501807
 20
-48.703523
 42
0.016299
 10
30.337171
 20
-48.535741
 42
0.016499
 10
30.161887
 20
-48.379104
 42
0.0167
 10
29.97659
 20
-48.234436
 42
0.016896
 10
29.781994
 20
-48.102532
 42
0.017085
 10
29.578886
 20
-47.984144
 42
0.017263
 10
29.368129
 20
-47.879976
 42
0.017424
 10
29.150659
 20
-47.790667
 42
0.017566
 10
28.92748
 20
-47.716784
 42
0.017684
 10
28.699658
 20
-47.658807
 42
0.017775
 10
28.46831
 20
-47.61712
 42
0.017837
 10
28.234596
 20
-47.592005
 42
0.017845
 10
28.0
 20
-47.583628
  0
LWPOLYLINE
  5
153
100
AcDbEntity
  8
0
  6
CONTINUOUS
 62
     7
100
AcDbPolyline
 90
       17
 70
     0
 43
0.0
 10
-49.464455
 20
18.505454
 42
0.080147
 10
-48.973365
 20
18.58593
 42
0.064892
 10
-48.525683
 20
18.804432
 42
0.047895
 10
-48.137458
 20
19.117449
 42
0.035394
 10
-47.805468
 20
19.490692
 42
0.027076
 10
-47.521883
 20
19.902604
 42
0.021522
 10
-47.279631
 20
20.33946
 42
0.017806
 10
-47.071904
 20
20.794776
 42
0.015171
 10
-46.894608
 20
21.262541
 42
0.013295
 10
-46.744061
 20
21.739869
 42
0.011907
 10
-46.617809
 20
22.223749
 42
0.010909
 10
-46.51355
 20
22.7137
 42
0.010157
 10
-46.429989
 20
23.207612
 42
0.009611
 10
-46.36599
 20
23.704461
 42
0.00923
 10
-46.320734
 20
24.203388
 42
0.008987
 10
-46.293664
 20
24.703636
 42
0.00887
 10
-46.284458
 20
25.204575
  0
LINE
  5
166
100
AcDbEntity
  8
0
  6
CONTINUOUS
 62
     7
100
AcDbLine
 10
101.262479
 20
-57.308253
 30
0.0
 11
103.80548
 21
-54.765248
 31
0.0
  0
LINE
  5
167
100
AcDbEntity
  8
0
  6
CONTINUOUS
 62
     7
100
AcDbLine
 10
99.017422
 20
-57.308253
 30
0.0
 11
102.15951
 21
-54.166161
 31
0.0
  0
LINE
  5
168
100
AcDbEntity
  8
0
  6
CONTINUOUS
 62
     7
100
AcDbLine
 10
96.772361
 20
-57.308253
 30
0.0
 11
100.51353
 21
-53.567075
 31
0.0
  0
LINE
  5
169
100
AcDbEntity
  8
0
  6
CONTINUOUS
 62
     7
100
AcDbLine
 10
94.527299
 20
-57.308253
 30
0.0
 11
98.867555
 21
-52.967988
 31
0.0
  0
LINE
  5
16A
100
AcDbEntity
  8
0
  6
CONTINUOUS
 62
     7
100
AcDbLine
 10
92.282237
 20
-57.308253
 30
0.0
 11
97.221579
 21
-52.368901
 31
0.0
  0
LINE
  5
16B
100
AcDbEntity
  8
0
  6
CONTINUOUS
 62
     7
100
AcDbLine
 10
90.037175
 20
-57.308253
 30
0.0
 11
95.575603
 21
-51.769815
 31
0.0
  0
LINE
  5
16C
100
AcDbEntity
  8
0
  6
CONTINUOUS
 62
     7
100
AcDbLine
 10
88.540779
 20
-56.559586
 30
0.0
 11
92.564268
 21
-52.536089
 31
0.0
  0
LINE
  5
16D
100
AcDbEntity
  8
0
  6
CONTINUOUS
 62
     7
100
AcDbLine
 10
93.766084
 20
-51.334271
 30
0.0
 11
93.929626
 21
-51.170728
 31
0.0
  0
LINE
  5
16E
100
AcDbEntity
  8
0
  6
CONTINUOUS
 62
     7
100
AcDbLine
 10
88.540779
 20
-54.31452
 30
0.0
 11
90.91829
 21
-51.937004
 31
0.0
  0
LINE
  5
16F
100
AcDbEntity
  8
0
  6
CONTINUOUS
 62
     7
100
AcDbLine
 10
88.540779
 20
-52.069453
 30
0.0
 11
89.272313
 21
-51.337918
 31
0.0
  0
LINE
  5
170
100
AcDbEntity
  8
0
  6
CONTINUOUS
 62
     7
100
AcDbLine
 10
104.32899
 20
-47.506546
 30
0.0
 11
104.54078
 21
-47.294753
 31
0.0
  0
LINE
  5
171
100
AcDbEntity
  8
0
  6
CONTINUOUS
 62
     7
100
AcDbLine
 10
102.68301
 20
-46.907459
 30
0.0
 11
104.54078
 21
-45.049686
 31
0.0
  0
LINE
  5
172
100
AcDbEntity
  8
0
  6
CONTINUOUS
 62
     7
100
AcDbLine
 10
101.03703
 20
-46.308373
 30
0.0
 11
104.53896
 21
-42.806435
 31
0.0
  0
LINE
  5
173
100
AcDbEntity
  8
0
  6
CONTINUOUS
 62
     7
100
AcDbLine
 10
99.391057
 20
-45.709287
 30
0.0
 11
103.29209
 21
-41.808249
 31
0.0
  0
LINE
  5
174
100
AcDbEntity
  8
0
  6
CONTINUOUS
 62
     7
100
AcDbLine
 10
97.74508
 20
-45.1102
 30
0.0
 11
101.04702
 21
-41.808249
 31
0.0
  0
LINE
  5
175
100
AcDbEntity
  8
0
  6
CONTINUOUS
 62
     7
100
AcDbLine
 10
96.335585
 20
-44.274632
 30
0.0
 11
98.801963
 21
-41.808249
 31
0.0
  0
LINE
  5
176
100
AcDbEntity
  8
0
  6
CONTINUOUS
 62
     7
100
AcDbLine
 10
95.818486
 20
-42.546665
 30
0.0
 11
96.556901
 21
-41.808249
 31
0.0
  0
LINE
  5
177
100
AcDbEntity
  8
0
  6
CONTINUOUS
 62
     7
100
AcDbLine
 10
94.172511
 20
-41.947577
 30
0.0
 11
94.311839
 21
-41.808249
 31
0.0
  0
TEXT
  5
17A
100
AcDbEntity
  8
0
  6
CONTINUOUS
100
AcDbText
 10
13.101
 20
-85.702959
 30
0.0
 40
6.0
  1
CSSPR12CA
100
AcDbText
  0
LINE
  5
1A1
102
{ACAD_REACTORS
330
1A9
102
}
100
AcDbEntity
  8
寸法
  6
CONTINUOUS
 62
     1
100
AcDbLine
 10
108.773843
 20
-52.848965
 30
0.0
 11
123.109583
 21
-58.066748
 31
0.0
  0
LINE
  5
1A2
102
{ACAD_REACTORS
330
1A9
102
}
100
AcDbEntity
  8
寸法
  6
CONTINUOUS
 62
     1
100
AcDbLine
 10
104.54078
 20
-51.308256
 30
0.0
 11
124.301287
 21
-51.308256
 31
0.0
  0
ARC
  5
1A3
102
{ACAD_REACTORS
330
1A9
102
}
100
AcDbEntity
  8
寸法
  6
CONTINUOUS
 62
     1
100
AcDbCircle
 10
104.54078
 20
-51.308256
 30
0.0
 40
18.760507
100
AcDbArc
 50
333.888978
 51
340.000001
  0
LINE
  5
1A4
102
{ACAD_REACTORS
330
1A9
102
}
100
AcDbEntity
  8
寸法
  6
CONTINUOUS
 62
     1
100
AcDbLine
 10
121.386645
 20
-59.564979
 30
0.0
 11
116.501403
 21
-69.532146
 31
0.0
  0
ARC
  5
1A5
102
{ACAD_REACTORS
330
1A9
102
}
100
AcDbEntity
  8
寸法
  6
CONTINUOUS
 62
     1
100
AcDbCircle
 10
104.54078
 20
-51.308256
 30
0.0
 40
18.760507
100
AcDbArc
 50
346.111024
 51
353.888977
  0
INSERT
  5
1A6
102
{ACAD_REACTORS
330
1A9
102
}
100
AcDbEntity
  8
寸法
  6
CONTINUOUS
 62
     1
100
AcDbBlockReference
  2
_OPEN30
 10
122.16989
 20
-57.724728
 30
0.0
 41
2.0
 42
2.0
 43
2.0
 50
253.055512
  0
INSERT
  5
1A7
102
{ACAD_REACTORS
330
1A9
102
}
100
AcDbEntity
  8
寸法
  6
CONTINUOUS
 62
     1
100
AcDbBlockReference
  2
_OPEN30
 10
123.301287
 20
-51.308256
 30
0.0
 41
2.0
 42
2.0
 43
2.0
 50
86.944488
  0
MTEXT
  5
1A8
102
{ACAD_REACTORS
330
1A9
102
}
100
AcDbEntity
  8
寸法
  6
CONTINUOUS
 62
     1
100
AcDbMText
 10
116.699166
 20
-63.448283
 30
0.0
 40
3.0
 41
0.0
 71
     5
 72
     1
  1
\A1;20°
 11
0.440112
 21
0.897943
 31
0.0
1001
ACAD
1000
MTEXTBEGIN
1070
    73
1070
     1
1070
    44
1040
1.0
1070
    74
1070
     0
1000
MTEXTEND
1000
MTEXTBEGIN
1070
    73
1070
     1
1070
    44
1040
1.0
1070
    74
1070
     0
1000
MTEXTEND
  0
DIMENSION
  5
1AA
100
AcDbEntity
  8
寸法
  6
CONTINUOUS
100
AcDbDimension
  2
*D1
 10
110.0
 20
-57.308253
 30
0.0
 11
107.5
 21
-54.308255
 31
0.0
 70
    32
  3
STANDARD
100
AcDbAlignedDimension
 13
104.54078
 23
-51.308256
 33
0.0
 14
103.418597
 24
-57.308253
 34
0.0
 50
90.0
100
AcDbRotatedDimension
  0
DIMENSION
  5
1C4
100
AcDbEntity
  8
寸法
  6
CONTINUOUS
100
AcDbDimension
  2
*D2
 10
60.0
 20
-57.308249
 30
0.0
 11
57.5
 21
-49.558249
 31
0.0
 70
    32
  3
STANDARD
100
AcDbAlignedDimension
 13
39.0
 23
-41.808249
 33
0.0
 14
39.0
 24
-57.308249
 34
0.0
 50
90.0
100
AcDbRotatedDimension
  0
DIMENSION
  5
1D1
100
AcDbEntity
  8
寸法
  6
CONTINUOUS
100
AcDbDimension
  2
*D3
 10
27.0
 20
-30.0
 30
0.0
 11
37.0
 21
-27.5
 31
0.0
 70
    32
  3
STANDARD
100
AcDbAlignedDimension
 13
47.0
 23
-47.808245
 33
0.0
 14
27.0
 24
-39.190928
 34
0.0
100
AcDbRotatedDimension
  0
DIMENSION
  5
1DE
100
AcDbEntity
  8
寸法
  6
CONTINUOUS
100
AcDbDimension
  2
*D4
 10
26.0
 20
-70.0
 30
0.0
 11
20.0
 21
-67.5
 31
0.0
 70
    32
  3
STANDARD
100
AcDbAlignedDimension
 13
28.0
 23
-59.202822
 33
0.0
 14
26.0
 24
-59.202822
 34
0.0
100
AcDbRotatedDimension
  0
DIMENSION
  5
1ED
100
AcDbEntity
  8
寸法
  6
CONTINUOUS
100
AcDbDimension
  2
*D5
 10
-20.0
 20
-57.308249
 30
0.0
 11
-22.5
 21
-51.308249
 31
0.0
 70
    32
  3
STANDARD
100
AcDbAlignedDimension
 13
-8.317514
 23
-45.308249
 33
0.0
 14
-4.081459
 24
-57.308249
 34
0.0
 50
90.0
100
AcDbRotatedDimension
  0
DIMENSION
  5
1FA
100
AcDbEntity
  8
寸法
  6
CONTINUOUS
100
AcDbDimension
  2
*D6
 10
-8.317514
 20
-20.0
 30
0.0
 11
19.341243
 21
-17.5
 31
0.0
 70
    32
  3
STANDARD
100
AcDbAlignedDimension
 13
47.0
 23
16.81093
 33
0.0
 14
-8.317514
 24
15.459816
 34
0.0
100
AcDbRotatedDimension
  0
DIMENSION
  5
207
100
AcDbEntity
  8
寸法
  6
CONTINUOUS
100
AcDbDimension
  2
*D7
 10
0.0
 20
-10.0
 30
0.0
 11
23.5
 21
-7.5
 31
0.0
 70
    32
  3
STANDARD
100
AcDbAlignedDimension
 13
47.0
 23
16.81093
 33
0.0
 14
0.0
 24
6.81093
 34
0.0
100
AcDbRotatedDimension
1001
ACAD
1000
DSTYLE
1002
{
1070
   287
1070
     4
1070
   287
1070
     4
1070
   279
1070
     1
1002
}
  0
DIMENSION
  5
214
100
AcDbEntity
  8
寸法
  6
CONTINUOUS
100
AcDbDimension
  2
*D8
 10
39.0
 20
0.0
 30
0.0
 11
43.0
 21
2.5
 31
0.0
 70
    32
  3
STANDARD
100
AcDbAlignedDimension
 13
47.0
 23
16.81093
 33
0.0
 14
39.0
 24
10.81093
 34
0.0
100
AcDbRotatedDimension
1001
ACAD
1000
DSTYLE
1002
{
1070
   287
1070
     4
1070
   287
1070
     4
1070
   279
1070
     1
1002
}
  0
DIMENSION
  5
233
100
AcDbEntity
  8
寸法
  6
CONTINUOUS
100
AcDbDimension
  2
*D9
 10
60.0
 20
10.81093
 30
0.0
 11
57.5
 21
18.81093
 31
0.0
 70
    32
  3
STANDARD
100
AcDbAlignedDimension
 13
39.0
 23
26.81093
 33
0.0
 14
39.0
 24
10.81093
 34
0.0
 50
90.0
100
AcDbRotatedDimension
  0
DIMENSION
  5
240
100
AcDbEntity
  8
寸法
  6
CONTINUOUS
100
AcDbDimension
  2
*D10
 10
-20.0
 20
16.025502
 30
0.0
 11
-22.5
 21
21.418216
 31
0.0
 70
    32
  1
11.7
  3
STANDARD
100
AcDbAlignedDimension
 13
3.100001
 23
26.81093
 33
0.0
 14
-8.0832
 24
16.025502
 34
0.0
 50
90.0
100
AcDbRotatedDimension
  0
LINE
  5
24E
100
AcDbEntity
  8
寸法
  6
CONTINUOUS
100
AcDbLine
 10
0.0
 20
6.81093
 30
0.0
 11
0.0
 21
5.81093
 31
0.0
  0
DIMENSION
  5
24F
100
AcDbEntity
  8
寸法
  6
CONTINUOUS
100
AcDbDimension
  2
*D11
 10
0.0
 20
5.81093
 30
0.0
 11
6.358543
 21
-3.471926
 31
0.0
 70
   162
  3
STANDARD
100
AcDb2LineAngularDimension
 13
-8.0832
 23
14.89413
 33
0.0
 14
-0.234315
 24
7.045245
 34
0.0
 15
0.0
 25
6.81093
 35
0.0
 16
3.129123
 26
-4.867117
 36
0.0
1001
ACAD
1000
DSTYLE
1002
{
1070
   271
1070
     0
1070
   271
1070
     0
1002
}
  0
LINE
  5
274
100
AcDbEntity
  8
0
  6
CONTINUOUS
100
AcDbLine
 10
-53.284459
 20
6.810931
 30
0.0
 11
-53.284459
 21
25.213806
 31
0.0
  0
ARC
  5
276
100
AcDbEntity
  8
0
  6
CENTER
 62
     1
 48
0.5
100
AcDbCircle
 10
-53.284459
 20
31.810931
 30
0.0
 40
25.0
100
AcDbArc
 50
180.0
 51
270.0
  0
DIMENSION
  5
277
100
AcDbEntity
  8
寸法
  6
CONTINUOUS
100
AcDbDimension
  2
*D12
 10
-53.284459
 20
31.810931
 30
0.0
 11
-87.880724
 21
19.056456
 31
0.0
 70
   164
  1
%%c50
  3
STANDARD
100
AcDbRadialDimension
 15
-76.741171
 25
23.163233
 35
0.0
 40
0.0
1001
ACAD
1000
DSTYLE
1002
{
1070
   288
1070
     1
1002
}
  0
DIMENSION
  5
281
100
AcDbEntity
  8
寸法
  6
CONTINUOUS
100
AcDbDimension
  2
*D13
 10
-30.0
 20
6.81093
 30
0.0
 11
-32.5
 21
16.810931
 31
0.0
 70
    32
  3
STANDARD
100
AcDbAlignedDimension
 13
-50.784459
 23
26.810932
 33
0.0
 14
-53.284455
 24
6.81093
 34
0.0
 50
90.0
100
AcDbRotatedDimension
  0
ARC
  5
297
100
AcDbEntity
  8
0
  6
CENTER
 62
     1
 48
0.5
100
AcDbCircle
 10
29.182486
 20
-47.680803
 30
0.0
 40
37.574979
100
AcDbArc
 50
176.37983
 51
236.746606
  0
DIMENSION
  5
299
100
AcDbEntity
  8
寸法
  6
CONTINUOUS
100
AcDbDimension
  2
*D14
 10
29.182486
 20
-47.680803
 30
0.0
 11
-9.555676
 21
-73.65836
 31
0.0
 70
    36
  1
%%c75
  3
STANDARD
100
AcDbRadialDimension
 15
-0.858537
 25
-70.251048
 35
0.0
 40
0.0
1001
ACAD
1000
DSTYLE
1002
{
1070
   288
1070
     1
1002
}
  0
MTEXT
  5
2B7
100
AcDbEntity
  8
寸法
  6
CONTINUOUS
 62
     1
100
AcDbMText
 10
-50.444858
 20
-56.995924
 30
0.0
 40
3.0
 41
0.0
 71
     5
 72
     1
  1
0%%d
1001
ACAD
1000
MTEXTBEGIN
1070
    73
1070
     1
1070
    44
1040
1.0
1070
    74
1070
     0
1000
MTEXTEND
1000
MTEXTBEGIN
1070
    73
1070
     1
1070
    44
1040
1.0
1070
    74
1070
     0
1000
MTEXTEND
1000
MTEXTBEGIN
1070
    73
1070
     1
1070
    44
1040
1.0
1070
    74
1070
     0
1000
MTEXTEND
1000
MTEXTBEGIN
1070
    73
1070
     1
1070
    44
1040
1.0
1070
    74
1070
     0
1000
MTEXTEND
1000
MTEXTBEGIN
1070
    73
1070
     1
1070
    44
1040
1.0
1070
    74
1070
     0
1000
MTEXTEND
1000
MTEXTBEGIN
1070
    73
1070
     1
1070
    44
1040
1.0
1070
    74
1070
     0
1000
MTEXTEND
  0
MTEXT
  5
2B8
100
AcDbEntity
  8
寸法
  6
CONTINUOUS
 62
     1
100
AcDbMText
 10
-64.875353
 20
-44.808249
 30
0.0
 40
3.0
 41
0.0
 71
     5
 72
     1
  1
0%%d
1001
ACAD
1000
MTEXTBEGIN
1070
    73
1070
     1
1070
    44
1040
1.0
1070
    74
1070
     0
1000
MTEXTEND
1000
MTEXTBEGIN
1070
    73
1070
     1
1070
    44
1040
1.0
1070
    74
1070
     0
1000
MTEXTEND
1000
MTEXTBEGIN
1070
    73
1070
     1
1070
    44
1040
1.0
1070
    74
1070
     0
1000
MTEXTEND
1000
MTEXTBEGIN
1070
    73
1070
     1
1070
    44
1040
1.0
1070
    74
1070
     0
1000
MTEXTEND
1000
MTEXTBEGIN
1070
    73
1070
     1
1070
    44
1040
1.0
1070
    74
1070
     0
1000
MTEXTEND
1000
MTEXTBEGIN
1070
    73
1070
     1
1070
    44
1040
1.0
1070
    74
1070
     0
1000
MTEXTEND
  0
LINE
  5
2B9
100
AcDbEntity
  8
寸法
  6
CONTINUOUS
100
AcDbLine
 10
-65.284455
 20
-47.308249
 30
0.0
 11
-63.870242
 21
-49.757739
 31
30.0
  0
LINE
  5
2BA
100
AcDbEntity
  8
寸法
  6
CONTINUOUS
100
AcDbLine
 10
-65.284455
 20
-47.308249
 30
0.0
 11
-66.698669
 21
-49.757739
 31
30.0
  0
LINE
  5
2BB
100
AcDbEntity
  8
寸法
  6
CONTINUOUS
100
AcDbLine
 10
-55.284455
 20
-57.308249
 30
0.0
 11
-57.733945
 21
-58.722463
 31
30.0
  0
LINE
  5
2BC
100
AcDbEntity
  8
寸法
  6
CONTINUOUS
100
AcDbLine
 10
-55.284455
 20
-57.308249
 30
0.0
 11
-57.733945
 21
-55.894036
 31
30.0
  0
LINE
  5
2BD
100
AcDbEntity
  8
寸法
  6
CONTINUOUS
100
AcDbLine
 10
-65.284455
 20
-57.308249
 30
0.0
 11
-65.284455
 21
-47.308249
 31
0.0
  0
LINE
  5
2BE
100
AcDbEntity
  8
寸法
  6
CONTINUOUS
100
AcDbLine
 10
-65.284455
 20
-57.308249
 30
0.0
 11
-55.284455
 21
-57.308249
 31
0.0
  0
LINE
  5
35F
100
AcDbEntity
  8
0
  6
CENTER
 62
     1
 48
0.5
100
AcDbLine
 10
-53.284459
 20
25.213806
 30
0.0
 11
-53.284459
 21
31.810931
 31
0.0
  0
CIRCLE
  5
360
100
AcDbEntity
  8
0
  6
CONTINUOUS
100
AcDbCircle
 10
14.335925
 20
19.213807
 30
0.0
 40
6.0
  0
ENDSEC
  0
SECTION
  2
OBJECTS
  0
DICTIONARY
  5
C
100
AcDbDictionary
  3
ACAD_GROUP
350
D
  3
ACAD_LAYOUT
350
17F
  3
ACAD_MLINESTYLE
350
1B
  3
ACAD_PLOTSETTINGS
350
180
  3
ACAD_PLOTSTYLENAME
350
17D
  3
ACDBHEADERROUNDTRIPXREC
350
317
  0
DICTIONARY
  5
313
100
AcDbDictionary
280
     1
  3
ACAD_XREC_ROUNDTRIP
360
314
  0
DICTIONARY
  5
33A
100
AcDbDictionary
280
     1
  3
ACAD_XREC_ROUNDTRIP
360
33B
  0
DICTIONARY
  5
2E9
100
AcDbDictionary
280
     1
  3
ACAD_LAYOUTSELFREF
360
339
  0
DICTIONARY
  5
2E7
100
AcDbDictionary
280
     1
  3
ACAD_LAYOUTSELFREF
360
338
  0
DICTIONARY
  5
311
100
AcDbDictionary
280
     1
  3
ACAD_XREC_ROUNDTRIP
360
312
  0
DICTIONARY
  5
D
102
{ACAD_REACTORS
330
C
102
}
100
AcDbDictionary
  3
*A1
350
1A9
  0
DICTIONARY
  5
17F
102
{ACAD_XDICTIONARY
360
33C
102
}
102
{ACAD_REACTORS
330
C
102
}
100
AcDbDictionary
  3
MODEL
350
181
  3
ﾚｲｱｳﾄ1
350
182
  0
DICTIONARY
  5
1B
102
{ACAD_REACTORS
330
C
102
}
100
AcDbDictionary
  3
STANDARD
350
1C
  0
DICTIONARY
  5
180
102
{ACAD_REACTORS
330
C
102
}
100
AcDbDictionary
  0
ACAD_PROXY_OBJECT
  5
17D
102
{ACAD_REACTORS
330
C
102
}
100
AcDbProxyObject
 90
      499
 91
      500
 93
       86
310
405010041939BDC9B585B3
350
17E
340
17E
 94
        0
  0
DICTIONARY
  5
317
102
{ACAD_REACTORS
330
C
102
}
100
AcDbDictionary
  3
CEPSNTYPE
350
321
  3
DIMSTYLEDATA
350
325
  3
FINGERPRINTGUID
350
322
  3
HYPERLINKBASE
350
31A
  3
INSUNITS
350
320
  3
LAYOUTDICT
350
31C
  3
LWETCUNION
350
31F
  3
PLOTSETDICT
350
31D
  3
PLOTSTYLNAMDICT
350
31E
  3
PSVPSCALE
350
324
  3
PUCSBASE
350
328
  3
PUCSORGBACK
350
32E
  3
PUCSORGBOTTOM
350
32A
  3
PUCSORGFRONT
350
32D
  3
PUCSORGLEFT
350
32B
  3
PUCSORGRIGHT
350
32C
  3
PUCSORGTOP
350
329
  3
PUCSORTHOREF
350
326
  3
PUCSORTHOVIEW
350
327
  3
STYLESHEET
350
31B
  3
TSTACKALIGN
350
318
  3
TSTACKSIZE
350
319
  3
UCSBASE
350
331
  3
UCSORGBACK
350
337
  3
UCSORGBOTTOM
350
333
  3
UCSORGFRONT
350
336
  3
UCSORGLEFT
350
334
  3
UCSORGRIGHT
350
335
  3
UCSORGTOP
350
332
  3
UCSORTHOREF
350
32F
  3
UCSORTHOVIEW
350
330
  3
VERSIONGUID
350
323
  0
XRECORD
  5
314
102
{ACAD_REACTORS
330
313
102
}
100
AcDbXrecord
102
EXTNAMES
  1
DEFPOINTS
  2
Defpoints
102
PLOTBIT
280
     0
  0
XRECORD
  5
33B
102
{ACAD_REACTORS
330
33A
102
}
100
AcDbXrecord
102
ACADR14ROUNDTRIP
1000
DSTYLE
1002
{
1070
   341
340
187
1070
   342
340
187
1002
}
  0
XRECORD
  5
339
102
{ACAD_REACTORS
330
2E9
102
}
100
AcDbXrecord
340
18
  0
XRECORD
  5
338
102
{ACAD_REACTORS
330
2E7
102
}
100
AcDbXrecord
340
15
  0
XRECORD
  5
312
102
{ACAD_REACTORS
330
311
102
}
100
AcDbXrecord
102
EXTNAMES
  1
_OPEN30
  2
_Open30
  0
GROUP
  5
1A9
102
{ACAD_REACTORS
330
D
102
}
100
AcDbGroup
300

 70
     1
 71
     1
340
1A2
340
1A8
340
1A4
340
1A1
340
1A5
340
1A6
340
1A3
340
1A7
  0
DICTIONARY
  5
33C
100
AcDbDictionary
280
     1
  3
ACAD_XREC_ROUNDTRIP
360
33D
  0
ACAD_PROXY_OBJECT
  5
181
102
{ACAD_REACTORS
330
17F
102
}
100
AcDbProxyObject
 90
      499
 91
      502
 93
      548
310
90E4550534F4E20504D2D32303030432C01AAAAAAAAA5A69054D6F64656C901A800000000000000000000000000000000000000000000A1000000000000008902A6A6AAAA0
330
18
330
0
340
0
340
0
 94
        0
  0
ACAD_PROXY_OBJECT
  5
182
102
{ACAD_REACTORS
330
17F
102
}
100
AcDbProxyObject
 90
      499
 91
      502
 93
      964
310
90E4550534F4E20504D2D32303030432C00AAAAAA416AA59106906DAB2B1B3C43140501A800000000000000000000000000000000000000000000A1000000000000008902A6A6A10232D5E076BC5510408CB5781DAF154410232D5E076BC5510408CB5781DAF15C410232D5E076BC5710408CB5781DAF15C40
330
15
330
0
340
0
340
0
 94
        0
  0
MLINESTYLE
  5
1C
102
{ACAD_REACTORS
330
1B
102
}
100
AcDbMlineStyle
  2
STANDARD
 70
     0
  3

 62
   256
 51
90.0
 52
90.0
 71
     2
 49
0.5
 62
   256
  6
BYLAYER
 49
-0.5
 62
   256
  6
BYLAYER
  0
ACAD_PROXY_OBJECT
  5
17E
102
{ACAD_REACTORS
330
17D
102
}
100
AcDbProxyObject
 90
      499
 91
      501
 93
        0
 94
        0
  0
XRECORD
  5
321
102
{ACAD_REACTORS
330
317
102
}
100
AcDbXrecord
 90
        0
  0
XRECORD
  5
325
102
{ACAD_REACTORS
330
317
102
}
100
AcDbXrecord
1000
DSTYLE
1002
{
1070
   341
340
187
1070
   342
340
187
1002
}
  0
XRECORD
  5
322
102
{ACAD_REACTORS
330
317
102
}
100
AcDbXrecord
  1
{1513ECB5-88A3-4A34-9540-F699D67EE075}
  0
XRECORD
  5
31A
102
{ACAD_REACTORS
330
317
102
}
100
AcDbXrecord
  1

  0
XRECORD
  5
320
102
{ACAD_REACTORS
330
317
102
}
100
AcDbXrecord
 90
        0
  0
XRECORD
  5
31C
102
{ACAD_REACTORS
330
317
102
}
100
AcDbXrecord
340
17F
  0
XRECORD
  5
31F
102
{ACAD_REACTORS
330
317
102
}
100
AcDbXrecord
 90
    14877
  0
XRECORD
  5
31D
102
{ACAD_REACTORS
330
317
102
}
100
AcDbXrecord
340
180
  0
XRECORD
  5
31E
102
{ACAD_REACTORS
330
317
102
}
100
AcDbXrecord
340
17D
  0
XRECORD
  5
324
102
{ACAD_REACTORS
330
317
102
}
100
AcDbXrecord
 40
0.0
  0
XRECORD
  5
328
102
{ACAD_REACTORS
330
317
102
}
100
AcDbXrecord
340
0
  0
XRECORD
  5
32E
102
{ACAD_REACTORS
330
317
102
}
100
AcDbXrecord
 10
0.0
 20
0.0
 30
0.0
  0
XRECORD
  5
32A
102
{ACAD_REACTORS
330
317
102
}
100
AcDbXrecord
 10
0.0
 20
0.0
 30
0.0
  0
XRECORD
  5
32D
102
{ACAD_REACTORS
330
317
102
}
100
AcDbXrecord
 10
0.0
 20
0.0
 30
0.0
  0
XRECORD
  5
32B
102
{ACAD_REACTORS
330
317
102
}
100
AcDbXrecord
 10
0.0
 20
0.0
 30
0.0
  0
XRECORD
  5
32C
102
{ACAD_REACTORS
330
317
102
}
100
AcDbXrecord
 10
0.0
 20
0.0
 30
0.0
  0
XRECORD
  5
329
102
{ACAD_REACTORS
330
317
102
}
100
AcDbXrecord
 10
0.0
 20
0.0
 30
0.0
  0
XRECORD
  5
326
102
{ACAD_REACTORS
330
317
102
}
100
AcDbXrecord
340
0
  0
XRECORD
  5
327
102
{ACAD_REACTORS
330
317
102
}
100
AcDbXrecord
 70
     0
  0
XRECORD
  5
31B
102
{ACAD_REACTORS
330
317
102
}
100
AcDbXrecord
  1

  0
XRECORD
  5
318
102
{ACAD_REACTORS
330
317
102
}
100
AcDbXrecord
 90
        1
  0
XRECORD
  5
319
102
{ACAD_REACTORS
330
317
102
}
100
AcDbXrecord
 90
       70
  0
XRECORD
  5
331
102
{ACAD_REACTORS
330
317
102
}
100
AcDbXrecord
340
0
  0
XRECORD
  5
337
102
{ACAD_REACTORS
330
317
102
}
100
AcDbXrecord
 10
0.0
 20
0.0
 30
0.0
  0
XRECORD
  5
333
102
{ACAD_REACTORS
330
317
102
}
100
AcDbXrecord
 10
0.0
 20
0.0
 30
0.0
  0
XRECORD
  5
336
102
{ACAD_REACTORS
330
317
102
}
100
AcDbXrecord
 10
0.0
 20
0.0
 30
0.0
  0
XRECORD
  5
334
102
{ACAD_REACTORS
330
317
102
}
100
AcDbXrecord
 10
0.0
 20
0.0
 30
0.0
  0
XRECORD
  5
335
102
{ACAD_REACTORS
330
317
102
}
100
AcDbXrecord
 10
0.0
 20
0.0
 30
0.0
  0
XRECORD
  5
332
102
{ACAD_REACTORS
330
317
102
}
100
AcDbXrecord
 10
0.0
 20
0.0
 30
0.0
  0
XRECORD
  5
32F
102
{ACAD_REACTORS
330
317
102
}
100
AcDbXrecord
340
0
  0
XRECORD
  5
330
102
{ACAD_REACTORS
330
317
102
}
100
AcDbXrecord
 70
     0
  0
XRECORD
  5
323
102
{ACAD_REACTORS
330
317
102
}
100
AcDbXrecord
  1
{5A8FE2E8-7356-44E8-A1A5-902E16E569D1}
  0
XRECORD
  5
33D
102
{ACAD_REACTORS
330
33C
102
}
100
AcDbXrecord
102
EXTNAMES
  1
MODEL
  2
Model
  0
ENDSEC
  0
EOF
