  0
SECTION
  2
HEADER
  9
$ACADVER
  1
AC1014
  9
$ACADMAINTVER
 70
     0
  9
$DWGCODEPAGE
  3
ANSI_932
  9
$INSBASE
 10
0.0
 20
0.0
 30
0.0
  9
$EXTMIN
 10
-79.926397
 20
-80.473784
 30
0.0
  9
$EXTMAX
 10
122.725287
 20
35.364811
 30
30.0
  9
$LIMMIN
 10
-139.008902
 20
-123.560835
  9
$LIMMAX
 10
203.677101
 20
93.308085
  9
$ORTHOMODE
 70
     1
  9
$REGENMODE
 70
     1
  9
$FILLMODE
 70
     1
  9
$QTEXTMODE
 70
     0
  9
$MIRRTEXT
 70
     1
  9
$DRAGMODE
 70
     2
  9
$LTSCALE
 40
1.0
  9
$OSMODE
 70
    33
  9
$ATTMODE
 70
     1
  9
$TEXTSIZE
 40
0.2
  9
$TRACEWID
 40
0.05
  9
$TEXTSTYLE
  7
STANDARD
  9
$CLAYER
  8
寸法
  9
$CELTYPE
  6
CONTINUOUS
  9
$CECOLOR
 62
   256
  9
$CELTSCALE
 40
1.0
  9
$DELOBJ
 70
     1
  9
$DISPSILH
 70
     0
  9
$DIMSCALE
 40
1.0
  9
$DIMASZ
 40
2.0
  9
$DIMEXO
 40
1.0
  9
$DIMDLI
 40
10.0
  9
$DIMRND
 40
0.0
  9
$DIMDLE
 40
0.0
  9
$DIMEXE
 40
1.0
  9
$DIMTP
 40
0.0
  9
$DIMTM
 40
0.0
  9
$DIMTXT
 40
3.0
  9
$DIMCEN
 40
2.0
  9
$DIMTSZ
 40
0.0
  9
$DIMTOL
 70
     0
  9
$DIMLIM
 70
     0
  9
$DIMTIH
 70
     0
  9
$DIMTOH
 70
     0
  9
$DIMSE1
 70
     0
  9
$DIMSE2
 70
     0
  9
$DIMTAD
 70
     1
  9
$DIMZIN
 70
     8
  9
$DIMBLK
  1
OPEN90
  9
$DIMASO
 70
     1
  9
$DIMSHO
 70
     1
  9
$DIMPOST
  1

  9
$DIMAPOST
  1

  9
$DIMALT
 70
     0
  9
$DIMALTD
 70
     2
  9
$DIMALTF
 40
25.4
  9
$DIMLFAC
 40
1.0
  9
$DIMTOFL
 70
     1
  9
$DIMTVP
 40
0.0
  9
$DIMTIX
 70
     0
  9
$DIMSOXD
 70
     0
  9
$DIMSAH
 70
     1
  9
$DIMBLK1
  1
_OPEN30
  9
$DIMBLK2
  1
_OPEN30
  9
$DIMSTYLE
  2
STANDARD
  9
$DIMCLRD
 70
     1
  9
$DIMCLRE
 70
     1
  9
$DIMCLRT
 70
     1
  9
$DIMTFAC
 40
1.0
  9
$DIMGAP
 40
1.0
  9
$DIMJUST
 70
     0
  9
$DIMSD1
 70
     0
  9
$DIMSD2
 70
     0
  9
$DIMTOLJ
 70
     1
  9
$DIMTZIN
 70
     0
  9
$DIMALTZ
 70
     0
  9
$DIMALTTZ
 70
     0
  9
$DIMFIT
 70
     3
  9
$DIMUPT
 70
     0
  9
$DIMUNIT
 70
     2
  9
$DIMDEC
 70
     2
  9
$DIMTDEC
 70
     2
  9
$DIMALTU
 70
     2
  9
$DIMALTTD
 70
     2
  9
$DIMTXSTY
  7
STANDARD
  9
$DIMAUNIT
 70
     0
  9
$LUNITS
 70
     2
  9
$LUPREC
 70
     4
  9
$SKETCHINC
 40
0.1
  9
$FILLETRAD
 40
0.0
  9
$AUNITS
 70
     0
  9
$AUPREC
 70
     0
  9
$MENU
  1
acad
  9
$ELEVATION
 40
0.0
  9
$PELEVATION
 40
0.0
  9
$THICKNESS
 40
0.0
  9
$LIMCHECK
 70
     0
  9
$BLIPMODE
 70
     0
  9
$CHAMFERA
 40
0.0
  9
$CHAMFERB
 40
0.0
  9
$CHAMFERC
 40
0.0
  9
$CHAMFERD
 40
0.0
  9
$SKPOLY
 70
     0
  9
$TDCREATE
 40
2444972.375000000
  9
$TDUPDATE
 40
2451977.441423611
  9
$TDINDWG
 40
0.0093123843
  9
$TDUSRTIMER
 40
0.0093123843
  9
$USRTIMER
 70
     1
  9
$ANGBASE
 50
0.0
  9
$ANGDIR
 70
     0
  9
$PDMODE
 70
     0
  9
$PDSIZE
 40
0.0
  9
$PLINEWID
 40
0.0
  9
$COORDS
 70
     1
  9
$SPLFRAME
 70
     0
  9
$SPLINETYPE
 70
     6
  9
$SPLINESEGS
 70
     8
  9
$ATTDIA
 70
     0
  9
$ATTREQ
 70
     1
  9
$HANDLING
 70
     1
  9
$HANDSEED
  5
378
  9
$SURFTAB1
 70
     6
  9
$SURFTAB2
 70
     6
  9
$SURFTYPE
 70
     6
  9
$SURFU
 70
     6
  9
$SURFV
 70
     6
  9
$UCSNAME
  2

  9
$UCSORG
 10
0.0
 20
0.0
 30
0.0
  9
$UCSXDIR
 10
1.0
 20
0.0
 30
0.0
  9
$UCSYDIR
 10
0.0
 20
1.0
 30
0.0
  9
$PUCSNAME
  2

  9
$PUCSORG
 10
0.0
 20
0.0
 30
0.0
  9
$PUCSXDIR
 10
1.0
 20
0.0
 30
0.0
  9
$PUCSYDIR
 10
0.0
 20
1.0
 30
0.0
  9
$USERI1
 70
     0
  9
$USERI2
 70
     0
  9
$USERI3
 70
     0
  9
$USERI4
 70
     0
  9
$USERI5
 70
     0
  9
$USERR1
 40
0.0
  9
$USERR2
 40
0.0
  9
$USERR3
 40
0.0
  9
$USERR4
 40
0.0
  9
$USERR5
 40
0.0
  9
$WORLDVIEW
 70
     1
  9
$SHADEDGE
 70
     3
  9
$SHADEDIF
 70
    70
  9
$TILEMODE
 70
     1
  9
$MAXACTVP
 70
    48
  9
$PINSBASE
 10
0.0
 20
0.0
 30
0.0
  9
$PLIMCHECK
 70
     0
  9
$PEXTMIN
 10
1.000000E+20
 20
1.000000E+20
 30
1.000000E+20
  9
$PEXTMAX
 10
-1.000000E+20
 20
-1.000000E+20
 30
-1.000000E+20
  9
$PLIMMIN
 10
0.0
 20
0.0
  9
$PLIMMAX
 10
12.0
 20
9.0
  9
$UNITMODE
 70
     0
  9
$VISRETAIN
 70
     1
  9
$PLINEGEN
 70
     0
  9
$PSLTSCALE
 70
     1
  9
$TREEDEPTH
 70
  3020
  9
$PICKSTYLE
 70
     1
  9
$CMLSTYLE
  2
STANDARD
  9
$CMLJUST
 70
     0
  9
$CMLSCALE
 40
1.0
  9
$PROXYGRAPHICS
 70
     1
  9
$MEASUREMENT
 70
     0
  0
ENDSEC
  0
SECTION
  2
CLASSES
  0
CLASS
  1
ACDBDICTIONARYWDFLT
  2
AcDbDictionaryWithDefault
  3
AutoCAD 2000
 90
        0
280
     0
281
     0
  0
CLASS
  1
ACDBPLACEHOLDER
  2
AcDbPlaceHolder
  3
AutoCAD 2000
 90
        0
280
     0
281
     0
  0
CLASS
  1
LAYOUT
  2
AcDbLayout
  3
AutoCAD 2000
 90
        0
280
     0
281
     0
  0
CLASS
  1
LONG_TRANSACTION
  2
AcDbLongTransaction
  3
AutoCAD 2000
 90
        0
280
     0
281
     0
  0
CLASS
  1
LWPOLYLINE
  2
AcDbPolyline
  3
"AutoCAD"
 90
        0
280
     0
281
     1
  0
CLASS
  1
HATCH
  2
AcDbHatch
  3
"ACAD_SEDONA"
 90
        0
280
     0
281
     1
  0
CLASS
  1
XRECORD
  2
AcDbXrecord
  3
"<Built In>"
 90
        0
280
     0
281
     0
  0
CLASS
  1
LONG_TRANSACTION
  2
AcDbLongTransaction
  3
AutoCAD 2000
 90
        0
280
     0
281
     0
  0
CLASS
  1
LWPOLYLINE
  2
AcDbPolyline
  3
"AutoCAD"
 90
        0
280
     0
281
     1
  0
CLASS
  1
HATCH
  2
AcDbHatch
  3
"ACAD_SEDONA"
 90
        0
280
     0
281
     1
  0
CLASS
  1
XRECORD
  2
AcDbXrecord
  3
"<Built In>"
 90
        0
280
     0
281
     0
  0
ENDSEC
  0
SECTION
  2
TABLES
  0
TABLE
  2
VPORT
  5
8
100
AcDbSymbolTable
 70
     2
  0
VPORT
  5
377
100
AcDbSymbolTableRecord
100
AcDbViewportTableRecord
  2
*ACTIVE
 70
     0
 10
0.0
 20
0.0
 11
1.0
 21
1.0
 12
15.976112
 22
-39.045911
 13
0.0
 23
0.0
 14
10.0
 24
10.0
 15
10.0
 25
10.0
 16
0.0
 26
0.0
 36
1.0
 17
0.0
 27
0.0
 37
0.0
 40
206.254123
 41
1.710425
 42
50.0
 43
0.0
 44
0.0
 50
0.0
 51
0.0
 71
     0
 72
   100
 73
     1
 74
     1
 75
     0
 76
     0
 77
     0
 78
     0
  0
ENDTAB
  0
TABLE
  2
LTYPE
  5
5
100
AcDbSymbolTable
 70
     5
  0
LTYPE
  5
12
100
AcDbSymbolTableRecord
100
AcDbLinetypeTableRecord
  2
BYBLOCK
 70
     0
  3

 72
    65
 73
     0
 40
0.0
  0
LTYPE
  5
13
100
AcDbSymbolTableRecord
100
AcDbLinetypeTableRecord
  2
BYLAYER
 70
     0
  3

 72
    65
 73
     0
 40
0.0
  0
LTYPE
  5
14
100
AcDbSymbolTableRecord
100
AcDbLinetypeTableRecord
  2
CONTINUOUS
 70
     0
  3
Solid line
 72
    65
 73
     0
 40
0.0
  0
LTYPE
  5
1F
100
AcDbSymbolTableRecord
100
AcDbLinetypeTableRecord
  2
DASHED
 70
     0
  3
__ __ __ __ __ __ __ __ __ __ __ __ __ __ __
 72
    65
 73
     2
 40
3.5
 49
2.0
 74
     0
 49
-1.5
 74
     0
  0
LTYPE
  5
20
100
AcDbSymbolTableRecord
100
AcDbLinetypeTableRecord
  2
CENTER
 70
     0
  3
____ _ ____ _ ____ _ ____ _ ____ _ ____ _ ____
 72
    65
 73
     4
 40
17.5
 49
13.0
 74
     0
 49
-1.5
 74
     0
 49
1.5
 74
     0
 49
-1.5
 74
     0
  0
LTYPE
  5
21
100
AcDbSymbolTableRecord
100
AcDbLinetypeTableRecord
  2
PHANTOM
 70
     0
  3
_____ _ _ _____ _ _ _____ _ _ _____ _ _ ____  
 72
    65
 73
     6
 40
15.5
 49
8.0
 74
     0
 49
-1.5
 74
     0
 49
1.5
 74
     0
 49
-1.5
 74
     0
 49
1.5
 74
     0
 49
-1.5
 74
     0
  0
LTYPE
  5
22
100
AcDbSymbolTableRecord
100
AcDbLinetypeTableRecord
  2
DOT
 70
     0
  3
. . . . . . . . . . . . . . . . . . . . . . . .
 72
    65
 73
     2
 40
0.25
 49
0.0
 74
     0
 49
-0.25
 74
     0
  0
ENDTAB
  0
TABLE
  2
LAYER
  5
2
100
AcDbSymbolTable
 70
     3
  0
LAYER
  5
E
100
AcDbSymbolTableRecord
100
AcDbLayerTableRecord
  2
0
 70
     0
 62
     7
  6
CONTINUOUS
  0
LAYER
  5
17B
100
AcDbSymbolTableRecord
100
AcDbLayerTableRecord
  2
寸法
 70
     0
 62
     1
  6
CONTINUOUS
  0
LAYER
  5
18B
102
{ACAD_XDICTIONARY
360
2B7
102
}
100
AcDbSymbolTableRecord
100
AcDbLayerTableRecord
  2
DEFPOINTS
 70
     0
 62
     7
  6
CONTINUOUS
  0
ENDTAB
  0
TABLE
  2
STYLE
  5
3
100
AcDbSymbolTable
 70
     1
  0
STYLE
  5
F
100
AcDbSymbolTableRecord
100
AcDbTextStyleTableRecord
  2
STANDARD
 70
     0
 40
0.0
 41
1.0
 50
0.0
 71
     0
 42
0.2
  3
txt
  4
BIGFONT
  0
ENDTAB
  0
TABLE
  2
VIEW
  5
6
100
AcDbSymbolTable
 70
     0
  0
ENDTAB
  0
TABLE
  2
UCS
  5
7
100
AcDbSymbolTable
 70
     0
  0
ENDTAB
  0
TABLE
  2
APPID
  5
9
100
AcDbSymbolTable
 70
     1
  0
APPID
  5
10
100
AcDbSymbolTableRecord
100
AcDbRegAppTableRecord
  2
ACAD
 70
     0
  0
ENDTAB
  0
TABLE
  2
DIMSTYLE
  5
A
100
AcDbSymbolTable
 70
     1
  0
DIMSTYLE
105
16D
102
{ACAD_XDICTIONARY
360
2DE
102
}
102
{ACAD_REACTORS
330
1A5
330
1B2
330
1BF
330
1CE
330
1DB
330
1E8
330
1F5
330
202
330
218
330
225
330
243
102
}
100
AcDbSymbolTableRecord
100
AcDbDimStyleTableRecord
  2
STANDARD
 70
     0
  3

  4

  5
OPEN90
  6
_OPEN30
  7
_OPEN30
 40
1.0
 41
2.0
 42
1.0
 43
10.0
 44
1.0
 45
0.0
 46
0.0
 47
0.0
 48
0.0
140
3.0
141
2.0
142
0.0
143
25.4
144
1.0
145
0.0
146
1.0
147
1.0
 71
     0
 72
     0
 73
     0
 74
     0
 75
     0
 76
     0
 77
     1
 78
     8
170
     0
171
     2
172
     1
173
     1
174
     0
175
     0
176
     1
177
     1
178
     1
270
     2
271
     2
272
     2
273
     2
274
     2
340
F
275
     0
280
     0
281
     0
282
     0
283
     1
284
     0
285
     0
286
     0
287
     3
288
     0
  0
ENDTAB
  0
TABLE
  2
BLOCK_RECORD
  5
1
100
AcDbSymbolTable
 70
    13
  0
BLOCK_RECORD
  5
18
102
{ACAD_XDICTIONARY
360
295
102
}
100
AcDbSymbolTableRecord
100
AcDbBlockTableRecord
  2
*MODEL_SPACE
  0
BLOCK_RECORD
  5
15
102
{ACAD_XDICTIONARY
360
293
102
}
100
AcDbSymbolTableRecord
100
AcDbBlockTableRecord
  2
*PAPER_SPACE
  0
BLOCK_RECORD
  5
17C
102
{ACAD_XDICTIONARY
360
2B3
102
}
100
AcDbSymbolTableRecord
100
AcDbBlockTableRecord
  2
_OPEN90
  0
BLOCK_RECORD
  5
182
102
{ACAD_XDICTIONARY
360
2B5
102
}
100
AcDbSymbolTableRecord
100
AcDbBlockTableRecord
  2
_OPEN30
  0
BLOCK_RECORD
  5
1A6
100
AcDbSymbolTableRecord
100
AcDbBlockTableRecord
  2
*D2
  0
BLOCK_RECORD
  5
1B3
100
AcDbSymbolTableRecord
100
AcDbBlockTableRecord
  2
*D3
  0
BLOCK_RECORD
  5
1C0
100
AcDbSymbolTableRecord
100
AcDbBlockTableRecord
  2
*D4
  0
BLOCK_RECORD
  5
1CF
100
AcDbSymbolTableRecord
100
AcDbBlockTableRecord
  2
*D5
  0
BLOCK_RECORD
  5
1DC
100
AcDbSymbolTableRecord
100
AcDbBlockTableRecord
  2
*D6
  0
BLOCK_RECORD
  5
1E9
100
AcDbSymbolTableRecord
100
AcDbBlockTableRecord
  2
*D7
  0
BLOCK_RECORD
  5
1F6
100
AcDbSymbolTableRecord
100
AcDbBlockTableRecord
  2
*D8
  0
BLOCK_RECORD
  5
203
100
AcDbSymbolTableRecord
100
AcDbBlockTableRecord
  2
*D9
  0
BLOCK_RECORD
  5
219
100
AcDbSymbolTableRecord
100
AcDbBlockTableRecord
  2
*D10
  0
BLOCK_RECORD
  5
226
100
AcDbSymbolTableRecord
100
AcDbBlockTableRecord
  2
*D11
  0
BLOCK_RECORD
  5
244
100
AcDbSymbolTableRecord
100
AcDbBlockTableRecord
  2
*D12
  0
ENDTAB
  0
ENDSEC
  0
SECTION
  2
BLOCKS
  0
BLOCK
  5
19
100
AcDbEntity
  8
0
100
AcDbBlockBegin
  2
*MODEL_SPACE
 70
     0
 10
0.0
 20
0.0
 30
0.0
  3
*MODEL_SPACE
  1

  0
ENDBLK
  5
1A
100
AcDbEntity
  8
0
100
AcDbBlockEnd
  0
BLOCK
  5
16
100
AcDbEntity
 67
     1
  8
0
100
AcDbBlockBegin
  2
*PAPER_SPACE
 70
     0
 10
0.0
 20
0.0
 30
0.0
  3
*PAPER_SPACE
  1

  0
ENDBLK
  5
17
100
AcDbEntity
 67
     1
  8
0
100
AcDbBlockEnd
  0
BLOCK
  5
180
100
AcDbEntity
  8
0
100
AcDbBlockBegin
  2
_OPEN90
 70
     0
 10
0.0
 20
0.0
 30
0.0
  3
_OPEN90
  1

  0
LINE
  5
17D
100
AcDbEntity
  8
0
  6
BYBLOCK
 62
     0
100
AcDbLine
 10
-0.5
 20
0.5
 30
0.0
 11
0.0
 21
0.0
 31
0.0
1001
ACAD
1000
RTLwPs
1070
   158
  0
LINE
  5
17E
100
AcDbEntity
  8
0
  6
BYBLOCK
 62
     0
100
AcDbLine
 10
0.0
 20
0.0
 30
0.0
 11
-0.5
 21
-0.5
 31
0.0
1001
ACAD
1000
RTLwPs
1070
   158
  0
LINE
  5
17F
100
AcDbEntity
  8
0
  6
BYBLOCK
 62
     0
100
AcDbLine
 10
0.0
 20
0.0
 30
0.0
 11
-1.0
 21
0.0
 31
0.0
1001
ACAD
1000
RTLwPs
1070
   158
  0
ENDBLK
  5
181
100
AcDbEntity
  8
0
100
AcDbBlockEnd
  0
BLOCK
  5
186
100
AcDbEntity
  8
0
100
AcDbBlockBegin
  2
_OPEN30
 70
     0
 10
0.0
 20
0.0
 30
0.0
  3
_OPEN30
  1

  0
LINE
  5
183
100
AcDbEntity
  8
0
  6
BYBLOCK
 62
     0
100
AcDbLine
 10
-1.0
 20
0.267949
 30
0.0
 11
0.0
 21
0.0
 31
0.0
1001
ACAD
1000
RTLwPs
1070
   158
  0
LINE
  5
184
100
AcDbEntity
  8
0
  6
BYBLOCK
 62
     0
100
AcDbLine
 10
0.0
 20
0.0
 30
0.0
 11
-1.0
 21
-0.267949
 31
0.0
1001
ACAD
1000
RTLwPs
1070
   158
  0
LINE
  5
185
100
AcDbEntity
  8
0
  6
BYBLOCK
 62
     0
100
AcDbLine
 10
0.0
 20
0.0
 30
0.0
 11
-1.0
 21
0.0
 31
0.0
1001
ACAD
1000
RTLwPs
1070
   158
  0
ENDBLK
  5
187
100
AcDbEntity
  8
0
100
AcDbBlockEnd
  0
BLOCK
  5
2F9
100
AcDbEntity
  8
0
100
AcDbBlockBegin
  2
*D2
 70
     1
 10
0.0
 20
0.0
 30
0.0
  3
*D2
  1

  0
LINE
  5
2FA
100
AcDbEntity
  8
0
  6
BYBLOCK
 62
     1
100
AcDbLine
 10
102.0
 20
-43.999999
 30
0.0
 11
111.0
 21
-43.999999
 31
0.0
  0
LINE
  5
2FB
100
AcDbEntity
  8
0
  6
BYBLOCK
 62
     1
100
AcDbLine
 10
100.877823
 20
-50.0
 30
0.0
 11
111.0
 21
-50.0
 31
0.0
  0
LINE
  5
2FC
100
AcDbEntity
  8
0
  6
BYBLOCK
 62
     1
100
AcDbLine
 10
110.0
 20
-45.999999
 30
0.0
 11
110.0
 21
-48.0
 31
0.0
  0
INSERT
  5
2FD
100
AcDbEntity
  8
0
  6
BYBLOCK
 62
     1
100
AcDbBlockReference
  2
_OPEN30
 10
110.0
 20
-43.999999
 30
0.0
 41
2.0
 42
2.0
 43
2.0
 50
90.0
  0
INSERT
  5
2FE
100
AcDbEntity
  8
0
  6
BYBLOCK
 62
     1
100
AcDbBlockReference
  2
_OPEN30
 10
110.0
 20
-50.0
 30
0.0
 41
2.0
 42
2.0
 43
2.0
 50
270.0
  0
MTEXT
  5
2FF
100
AcDbEntity
  8
0
  6
BYBLOCK
 62
     1
100
AcDbMText
 10
107.5
 20
-47.0
 30
0.0
 40
3.0
 41
0.0
 71
     5
 72
     1
  1
\A1;6
 11
0.0
 21
1.0
 31
0.0
  0
POINT
  5
300
100
AcDbEntity
  8
DEFPOINTS
  6
BYBLOCK
 62
     0
100
AcDbPoint
 10
101.0
 20
-43.999999
 30
0.0
  0
POINT
  5
301
100
AcDbEntity
  8
DEFPOINTS
  6
BYBLOCK
 62
     0
100
AcDbPoint
 10
99.877823
 20
-50.0
 30
0.0
  0
POINT
  5
302
100
AcDbEntity
  8
DEFPOINTS
  6
BYBLOCK
 62
     0
100
AcDbPoint
 10
110.0
 20
-50.0
 30
0.0
  0
ENDBLK
  5
303
100
AcDbEntity
  8
0
100
AcDbBlockEnd
  0
BLOCK
  5
304
100
AcDbEntity
  8
0
100
AcDbBlockBegin
  2
*D3
 70
     1
 10
0.0
 20
0.0
 30
0.0
  3
*D3
  1

  0
LINE
  5
305
100
AcDbEntity
  8
0
  6
BYBLOCK
 62
     1
100
AcDbLine
 10
48.0
 20
-34.5
 30
0.0
 11
71.0
 21
-34.5
 31
0.0
  0
LINE
  5
306
100
AcDbEntity
  8
0
  6
BYBLOCK
 62
     1
100
AcDbLine
 10
48.0
 20
-50.0
 30
0.0
 11
71.0
 21
-50.0
 31
0.0
  0
LINE
  5
307
100
AcDbEntity
  8
0
  6
BYBLOCK
 62
     1
100
AcDbLine
 10
70.0
 20
-36.5
 30
0.0
 11
70.0
 21
-48.0
 31
0.0
  0
INSERT
  5
308
100
AcDbEntity
  8
0
  6
BYBLOCK
 62
     1
100
AcDbBlockReference
  2
_OPEN30
 10
70.0
 20
-34.5
 30
0.0
 41
2.0
 42
2.0
 43
2.0
 50
90.0
  0
INSERT
  5
309
100
AcDbEntity
  8
0
  6
BYBLOCK
 62
     1
100
AcDbBlockReference
  2
_OPEN30
 10
70.0
 20
-50.0
 30
0.0
 41
2.0
 42
2.0
 43
2.0
 50
270.0
  0
MTEXT
  5
30A
100
AcDbEntity
  8
0
  6
BYBLOCK
 62
     1
100
AcDbMText
 10
67.5
 20
-42.25
 30
0.0
 40
3.0
 41
0.0
 71
     5
 72
     1
  1
\A1;15.5
 11
0.0
 21
1.0
 31
0.0
  0
POINT
  5
30B
100
AcDbEntity
  8
DEFPOINTS
  6
BYBLOCK
 62
     0
100
AcDbPoint
 10
47.0
 20
-34.5
 30
0.0
  0
POINT
  5
30C
100
AcDbEntity
  8
DEFPOINTS
  6
BYBLOCK
 62
     0
100
AcDbPoint
 10
47.0
 20
-50.0
 30
0.0
  0
POINT
  5
30D
100
AcDbEntity
  8
DEFPOINTS
  6
BYBLOCK
 62
     0
100
AcDbPoint
 10
70.0
 20
-50.0
 30
0.0
  0
ENDBLK
  5
30E
100
AcDbEntity
  8
0
100
AcDbBlockEnd
  0
BLOCK
  5
30F
100
AcDbEntity
  8
0
100
AcDbBlockBegin
  2
*D4
 70
     1
 10
0.0
 20
0.0
 30
0.0
  3
*D4
  1

  0
LINE
  5
310
100
AcDbEntity
  8
0
  6
BYBLOCK
 62
     1
100
AcDbLine
 10
36.0
 20
-45.47084
 30
0.0
 11
36.0
 21
-61.0
 31
0.0
  0
LINE
  5
311
100
AcDbEntity
  8
0
  6
BYBLOCK
 62
     1
100
AcDbLine
 10
34.0
 20
-45.737503
 30
0.0
 11
34.0
 21
-61.0
 31
0.0
  0
LINE
  5
312
100
AcDbEntity
  8
0
  6
BYBLOCK
 62
     1
100
AcDbLine
 10
38.0
 20
-60.0
 30
0.0
 11
40.0
 21
-60.0
 31
0.0
  0
LINE
  5
313
100
AcDbEntity
  8
0
  6
BYBLOCK
 62
     1
100
AcDbLine
 10
32.0
 20
-60.0
 30
0.0
 11
26.0
 21
-60.0
 31
0.0
  0
LINE
  5
314
100
AcDbEntity
  8
0
  6
BYBLOCK
 62
     1
100
AcDbLine
 10
36.0
 20
-60.0
 30
0.0
 11
34.0
 21
-60.0
 31
0.0
  0
INSERT
  5
315
100
AcDbEntity
  8
0
  6
BYBLOCK
 62
     1
100
AcDbBlockReference
  2
_OPEN30
 10
36.0
 20
-60.0
 30
0.0
 41
2.0
 42
2.0
 43
2.0
 50
180.0
  0
INSERT
  5
316
100
AcDbEntity
  8
0
  6
BYBLOCK
 62
     1
100
AcDbBlockReference
  2
_OPEN30
 10
34.0
 20
-60.0
 30
0.0
 41
2.0
 42
2.0
 43
2.0
  0
MTEXT
  5
317
100
AcDbEntity
  8
0
  6
BYBLOCK
 62
     1
100
AcDbMText
 10
28.0
 20
-57.5
 30
0.0
 40
3.0
 41
0.0
 71
     5
 72
     1
  1
\A1;2
  0
POINT
  5
318
100
AcDbEntity
  8
DEFPOINTS
  6
BYBLOCK
 62
     0
100
AcDbPoint
 10
36.0
 20
-44.47084
 30
0.0
  0
POINT
  5
319
100
AcDbEntity
  8
DEFPOINTS
  6
BYBLOCK
 62
     0
100
AcDbPoint
 10
34.0
 20
-44.737503
 30
0.0
  0
POINT
  5
31A
100
AcDbEntity
  8
DEFPOINTS
  6
BYBLOCK
 62
     0
100
AcDbPoint
 10
34.0
 20
-60.0
 30
0.0
  0
ENDBLK
  5
31B
100
AcDbEntity
  8
0
100
AcDbBlockEnd
  0
BLOCK
  5
31C
100
AcDbEntity
  8
0
100
AcDbBlockBegin
  2
*D5
 70
     1
 10
0.0
 20
0.0
 30
0.0
  3
*D5
  1

  0
LINE
  5
31D
100
AcDbEntity
  8
0
  6
BYBLOCK
 62
     1
100
AcDbLine
 10
55.0
 20
-39.5
 30
0.0
 11
55.0
 21
-19.0
 31
0.0
  0
LINE
  5
31E
100
AcDbEntity
  8
0
  6
BYBLOCK
 62
     1
100
AcDbLine
 10
35.0
 20
-29.088745
 30
0.0
 11
35.0
 21
-19.0
 31
0.0
  0
LINE
  5
31F
100
AcDbEntity
  8
0
  6
BYBLOCK
 62
     1
100
AcDbLine
 10
53.0
 20
-20.0
 30
0.0
 11
37.0
 21
-20.0
 31
0.0
  0
INSERT
  5
320
100
AcDbEntity
  8
0
  6
BYBLOCK
 62
     1
100
AcDbBlockReference
  2
_OPEN30
 10
55.0
 20
-20.0
 30
0.0
 41
2.0
 42
2.0
 43
2.0
  0
INSERT
  5
321
100
AcDbEntity
  8
0
  6
BYBLOCK
 62
     1
100
AcDbBlockReference
  2
_OPEN30
 10
35.0
 20
-20.0
 30
0.0
 41
2.0
 42
2.0
 43
2.0
 50
180.0
  0
MTEXT
  5
322
100
AcDbEntity
  8
0
  6
BYBLOCK
 62
     1
100
AcDbMText
 10
45.0
 20
-17.5
 30
0.0
 40
3.0
 41
0.0
 71
     5
 72
     1
  1
\A1;20
  0
POINT
  5
323
100
AcDbEntity
  8
DEFPOINTS
  6
BYBLOCK
 62
     0
100
AcDbPoint
 10
55.0
 20
-40.5
 30
0.0
  0
POINT
  5
324
100
AcDbEntity
  8
DEFPOINTS
  6
BYBLOCK
 62
     0
100
AcDbPoint
 10
35.0
 20
-30.088745
 30
0.0
  0
POINT
  5
325
100
AcDbEntity
  8
DEFPOINTS
  6
BYBLOCK
 62
     0
100
AcDbPoint
 10
35.0
 20
-20.0
 30
0.0
  0
ENDBLK
  5
326
100
AcDbEntity
  8
0
100
AcDbBlockEnd
  0
BLOCK
  5
327
100
AcDbEntity
  8
0
100
AcDbBlockBegin
  2
*D6
 70
     1
 10
0.0
 20
0.0
 30
0.0
  3
*D6
  1

  0
LINE
  5
328
100
AcDbEntity
  8
0
  6
BYBLOCK
 62
     1
100
AcDbLine
 10
-1.000002
 20
-37.999985
 30
0.0
 11
-11.0
 21
-37.999985
 31
0.0
  0
LINE
  5
329
100
AcDbEntity
  8
0
  6
BYBLOCK
 62
     1
100
AcDbLine
 10
-2.0
 20
-50.0
 30
0.0
 11
-11.0
 21
-50.0
 31
0.0
  0
LINE
  5
32A
100
AcDbEntity
  8
0
  6
BYBLOCK
 62
     1
100
AcDbLine
 10
-10.0
 20
-39.999985
 30
0.0
 11
-10.0
 21
-48.0
 31
0.0
  0
INSERT
  5
32B
100
AcDbEntity
  8
0
  6
BYBLOCK
 62
     1
100
AcDbBlockReference
  2
_OPEN30
 10
-10.0
 20
-37.999985
 30
0.0
 41
2.0
 42
2.0
 43
2.0
 50
90.0
  0
INSERT
  5
32C
100
AcDbEntity
  8
0
  6
BYBLOCK
 62
     1
100
AcDbBlockReference
  2
_OPEN30
 10
-10.0
 20
-50.0
 30
0.0
 41
2.0
 42
2.0
 43
2.0
 50
270.0
  0
MTEXT
  5
32D
100
AcDbEntity
  8
0
  6
BYBLOCK
 62
     1
100
AcDbMText
 10
-12.5
 20
-43.999993
 30
0.0
 40
3.0
 41
0.0
 71
     5
 72
     1
  1
\A1;12
 11
0.0
 21
1.0
 31
0.0
  0
POINT
  5
32E
100
AcDbEntity
  8
DEFPOINTS
  6
BYBLOCK
 62
     0
100
AcDbPoint
 10
-0.000002
 20
-37.999985
 30
0.0
  0
POINT
  5
32F
100
AcDbEntity
  8
DEFPOINTS
  6
BYBLOCK
 62
     0
100
AcDbPoint
 10
-1.0
 20
-50.0
 30
0.0
  0
POINT
  5
330
100
AcDbEntity
  8
DEFPOINTS
  6
BYBLOCK
 62
     0
100
AcDbPoint
 10
-10.0
 20
-50.0
 30
0.0
  0
ENDBLK
  5
331
100
AcDbEntity
  8
0
100
AcDbBlockEnd
  0
BLOCK
  5
332
100
AcDbEntity
  8
0
100
AcDbBlockBegin
  2
*D7
 70
     1
 10
0.0
 20
0.0
 30
0.0
  3
*D7
  1

  0
LINE
  5
333
100
AcDbEntity
  8
0
  6
BYBLOCK
 62
     1
100
AcDbLine
 10
48.0
 20
30.36481
 30
0.0
 11
71.0
 21
30.36481
 31
0.0
  0
LINE
  5
334
100
AcDbEntity
  8
0
  6
BYBLOCK
 62
     1
100
AcDbLine
 10
48.0
 20
14.36481
 30
0.0
 11
71.0
 21
14.36481
 31
0.0
  0
LINE
  5
335
100
AcDbEntity
  8
0
  6
BYBLOCK
 62
     1
100
AcDbLine
 10
70.0
 20
28.36481
 30
0.0
 11
70.0
 21
16.36481
 31
0.0
  0
INSERT
  5
336
100
AcDbEntity
  8
0
  6
BYBLOCK
 62
     1
100
AcDbBlockReference
  2
_OPEN30
 10
70.0
 20
30.36481
 30
0.0
 41
2.0
 42
2.0
 43
2.0
 50
90.0
  0
INSERT
  5
337
100
AcDbEntity
  8
0
  6
BYBLOCK
 62
     1
100
AcDbBlockReference
  2
_OPEN30
 10
70.0
 20
14.36481
 30
0.0
 41
2.0
 42
2.0
 43
2.0
 50
270.0
  0
MTEXT
  5
338
100
AcDbEntity
  8
0
  6
BYBLOCK
 62
     1
100
AcDbMText
 10
67.5
 20
22.36481
 30
0.0
 40
3.0
 41
0.0
 71
     5
 72
     1
  1
\A1;16
 11
0.0
 21
1.0
 31
0.0
  0
POINT
  5
339
100
AcDbEntity
  8
DEFPOINTS
  6
BYBLOCK
 62
     0
100
AcDbPoint
 10
47.0
 20
30.36481
 30
0.0
  0
POINT
  5
33A
100
AcDbEntity
  8
DEFPOINTS
  6
BYBLOCK
 62
     0
100
AcDbPoint
 10
47.0
 20
14.36481
 30
0.0
  0
POINT
  5
33B
100
AcDbEntity
  8
DEFPOINTS
  6
BYBLOCK
 62
     0
100
AcDbPoint
 10
70.0
 20
14.36481
 30
0.0
  0
ENDBLK
  5
33C
100
AcDbEntity
  8
0
100
AcDbBlockEnd
  0
BLOCK
  5
33D
100
AcDbEntity
  8
0
100
AcDbBlockBegin
  2
*D8
 70
     1
 10
0.0
 20
0.0
 30
0.0
  3
*D8
  1

  0
LINE
  5
33E
100
AcDbEntity
  8
0
  6
BYBLOCK
 62
     1
100
AcDbLine
 10
55.0
 20
19.36481
 30
0.0
 11
55.0
 21
-11.0
 31
0.0
  0
LINE
  5
33F
100
AcDbEntity
  8
0
  6
BYBLOCK
 62
     1
100
AcDbLine
 10
0.0
 20
9.36481
 30
0.0
 11
0.0
 21
-11.0
 31
0.0
  0
LINE
  5
340
100
AcDbEntity
  8
0
  6
BYBLOCK
 62
     1
100
AcDbLine
 10
53.0
 20
-10.0
 30
0.0
 11
2.0
 21
-10.0
 31
0.0
  0
INSERT
  5
341
100
AcDbEntity
  8
0
  6
BYBLOCK
 62
     1
100
AcDbBlockReference
  2
_OPEN30
 10
55.0
 20
-10.0
 30
0.0
 41
2.0
 42
2.0
 43
2.0
  0
INSERT
  5
342
100
AcDbEntity
  8
0
  6
BYBLOCK
 62
     1
100
AcDbBlockReference
  2
_OPEN30
 10
0.0
 20
-10.0
 30
0.0
 41
2.0
 42
2.0
 43
2.0
 50
180.0
  0
MTEXT
  5
343
100
AcDbEntity
  8
0
  6
BYBLOCK
 62
     1
100
AcDbMText
 10
27.5
 20
-7.5
 30
0.0
 40
3.0
 41
0.0
 71
     5
 72
     1
  1
\A1;55
  0
POINT
  5
344
100
AcDbEntity
  8
DEFPOINTS
  6
BYBLOCK
 62
     0
100
AcDbPoint
 10
55.0
 20
20.36481
 30
0.0
  0
POINT
  5
345
100
AcDbEntity
  8
DEFPOINTS
  6
BYBLOCK
 62
     0
100
AcDbPoint
 10
0.0
 20
10.36481
 30
0.0
  0
POINT
  5
346
100
AcDbEntity
  8
DEFPOINTS
  6
BYBLOCK
 62
     0
100
AcDbPoint
 10
0.0
 20
-10.0
 30
0.0
  0
ENDBLK
  5
347
100
AcDbEntity
  8
0
100
AcDbBlockEnd
  0
BLOCK
  5
348
100
AcDbEntity
  8
0
100
AcDbBlockBegin
  2
*D9
 70
     1
 10
0.0
 20
0.0
 30
0.0
  3
*D9
  1

  0
LINE
  5
349
100
AcDbEntity
  8
0
  6
BYBLOCK
 62
     1
100
AcDbLine
 10
55.0
 20
19.36481
 30
0.0
 11
55.0
 21
-1.0
 31
0.0
  0
LINE
  5
34A
100
AcDbEntity
  8
0
  6
BYBLOCK
 62
     1
100
AcDbLine
 10
47.0
 20
13.36481
 30
0.0
 11
47.0
 21
-1.0
 31
0.0
  0
LINE
  5
34B
100
AcDbEntity
  8
0
  6
BYBLOCK
 62
     1
100
AcDbLine
 10
53.0
 20
0.0
 30
0.0
 11
49.0
 21
0.0
 31
0.0
  0
INSERT
  5
34C
100
AcDbEntity
  8
0
  6
BYBLOCK
 62
     1
100
AcDbBlockReference
  2
_OPEN30
 10
55.0
 20
0.0
 30
0.0
 41
2.0
 42
2.0
 43
2.0
  0
INSERT
  5
34D
100
AcDbEntity
  8
0
  6
BYBLOCK
 62
     1
100
AcDbBlockReference
  2
_OPEN30
 10
47.0
 20
0.0
 30
0.0
 41
2.0
 42
2.0
 43
2.0
 50
180.0
  0
MTEXT
  5
34E
100
AcDbEntity
  8
0
  6
BYBLOCK
 62
     1
100
AcDbMText
 10
51.0
 20
2.5
 30
0.0
 40
3.0
 41
0.0
 71
     5
 72
     1
  1
\A1;8
  0
POINT
  5
34F
100
AcDbEntity
  8
DEFPOINTS
  6
BYBLOCK
 62
     0
100
AcDbPoint
 10
55.0
 20
20.36481
 30
0.0
  0
POINT
  5
350
100
AcDbEntity
  8
DEFPOINTS
  6
BYBLOCK
 62
     0
100
AcDbPoint
 10
47.0
 20
14.36481
 30
0.0
  0
POINT
  5
351
100
AcDbEntity
  8
DEFPOINTS
  6
BYBLOCK
 62
     0
100
AcDbPoint
 10
47.0
 20
0.0
 30
0.0
  0
ENDBLK
  5
352
100
AcDbEntity
  8
0
100
AcDbBlockEnd
  0
BLOCK
  5
353
100
AcDbEntity
  8
0
100
AcDbBlockBegin
  2
*D10
 70
     1
 10
0.0
 20
0.0
 30
0.0
  3
*D10
  1

  0
LINE
  5
354
100
AcDbEntity
  8
0
  6
BYBLOCK
 62
     1
100
AcDbLine
 10
-2.0
 20
30.36481
 30
0.0
 11
-11.0
 21
30.36481
 31
0.0
  0
LINE
  5
355
100
AcDbEntity
  8
0
  6
BYBLOCK
 62
     1
100
AcDbLine
 10
-1.0
 20
10.36481
 30
0.0
 11
-11.0
 21
10.36481
 31
0.0
  0
LINE
  5
356
100
AcDbEntity
  8
0
  6
BYBLOCK
 62
     1
100
AcDbLine
 10
-10.0
 20
28.36481
 30
0.0
 11
-10.0
 21
12.36481
 31
0.0
  0
INSERT
  5
357
100
AcDbEntity
  8
0
  6
BYBLOCK
 62
     1
100
AcDbBlockReference
  2
_OPEN30
 10
-10.0
 20
30.36481
 30
0.0
 41
2.0
 42
2.0
 43
2.0
 50
90.0
  0
INSERT
  5
358
100
AcDbEntity
  8
0
  6
BYBLOCK
 62
     1
100
AcDbBlockReference
  2
_OPEN30
 10
-10.0
 20
10.36481
 30
0.0
 41
2.0
 42
2.0
 43
2.0
 50
270.0
  0
MTEXT
  5
359
100
AcDbEntity
  8
0
  6
BYBLOCK
 62
     1
100
AcDbMText
 10
-12.5
 20
20.36481
 30
0.0
 40
3.0
 41
0.0
 71
     5
 72
     1
  1
\A1;20
 11
0.0
 21
1.0
 31
0.0
  0
POINT
  5
35A
100
AcDbEntity
  8
DEFPOINTS
  6
BYBLOCK
 62
     0
100
AcDbPoint
 10
-1.0
 20
30.36481
 30
0.0
  0
POINT
  5
35B
100
AcDbEntity
  8
DEFPOINTS
  6
BYBLOCK
 62
     0
100
AcDbPoint
 10
0.0
 20
10.36481
 30
0.0
  0
POINT
  5
35C
100
AcDbEntity
  8
DEFPOINTS
  6
BYBLOCK
 62
     0
100
AcDbPoint
 10
-10.0
 20
10.36481
 30
0.0
  0
ENDBLK
  5
35D
100
AcDbEntity
  8
0
100
AcDbBlockEnd
  0
BLOCK
  5
35E
100
AcDbEntity
  8
0
100
AcDbBlockBegin
  2
*D11
 70
     1
 10
0.0
 20
0.0
 30
0.0
  3
*D11
  1

  0
LINE
  5
35F
100
AcDbEntity
  8
0
  6
BYBLOCK
 62
     1
100
AcDbLine
 10
-1.0
 20
10.36481
 30
0.0
 11
-6.595334
 21
10.36481
 31
0.0
  0
ARC
  5
360
100
AcDbEntity
  8
0
  6
BYBLOCK
 62
     1
100
AcDbCircle
 10
0.0
 20
10.36481
 30
0.0
 40
5.595334
100
AcDbArc
 50
115.590463
 51
159.409534
  0
INSERT
  5
361
100
AcDbEntity
  8
0
  6
BYBLOCK
 62
     1
100
AcDbBlockReference
  2
_OPEN30
 10
-0.487665
 20
15.938851
 30
0.0
 41
2.0
 42
2.0
 43
2.0
 50
15.295231
  0
INSERT
  5
362
100
AcDbEntity
  8
0
  6
BYBLOCK
 62
     1
100
AcDbBlockReference
  2
_OPEN30
 10
-5.595334
 20
10.36481
 30
0.0
 41
2.0
 42
2.0
 43
2.0
 50
259.704767
  0
MTEXT
  5
363
100
AcDbEntity
  8
0
  6
BYBLOCK
 62
     1
100
AcDbMText
 10
-4.194508
 20
17.288719
 30
0.0
 40
3.0
 41
0.0
 71
     5
 72
     1
  1
\A1;85°
 11
0.855296
 21
0.518139
 31
0.0
  0
POINT
  5
364
100
AcDbEntity
  8
DEFPOINTS
  6
BYBLOCK
 62
     0
100
AcDbPoint
 10
-4.92502
 20
13.020357
 30
0.0
  0
POINT
  5
365
100
AcDbEntity
  8
DEFPOINTS
  6
BYBLOCK
 62
     0
100
AcDbPoint
 10
0.0
 20
10.36481
 30
0.0
  0
POINT
  5
366
100
AcDbEntity
  8
DEFPOINTS
  6
BYBLOCK
 62
     0
100
AcDbPoint
 10
-0.063891
 20
11.095085
 30
0.0
  0
POINT
  5
367
100
AcDbEntity
  8
DEFPOINTS
  6
BYBLOCK
 62
     0
100
AcDbPoint
 10
-1.031319
 20
22.152843
 30
0.0
  0
POINT
  5
368
100
AcDbEntity
  8
DEFPOINTS
  6
BYBLOCK
 62
     0
100
AcDbPoint
 10
0.733065
 20
10.36481
 30
0.0
  0
ENDBLK
  5
369
100
AcDbEntity
  8
0
100
AcDbBlockEnd
  0
BLOCK
  5
36A
100
AcDbEntity
  8
0
100
AcDbBlockBegin
  2
*D12
 70
     1
 10
0.0
 20
0.0
 30
0.0
  3
*D12
  1

  0
LINE
  5
36B
100
AcDbEntity
  8
0
  6
BYBLOCK
 62
     1
100
AcDbLine
 10
-79.787682
 20
21.599608
 30
0.0
 11
-67.18005
 21
26.426367
 31
0.0
  0
MTEXT
  5
36C
100
AcDbEntity
  8
0
  6
BYBLOCK
 62
     1
100
AcDbMText
 10
-76.245508
 20
25.632659
 30
0.0
 40
3.0
 41
0.0
 71
     5
 72
     1
  1
\A1;\U+220550
 11
0.933899
 21
0.357538
 31
0.0
  0
LINE
  5
36D
100
AcDbEntity
  8
0
  6
BYBLOCK
 62
     1
100
AcDbLine
 10
-43.832583
 20
35.364811
 30
0.0
 11
-67.18005
 21
26.426367
 31
0.0
  0
INSERT
  5
36E
100
AcDbEntity
  8
0
  6
BYBLOCK
 62
     1
100
AcDbBlockReference
  2
_OPEN30
 10
-67.18005
 20
26.426367
 30
0.0
 41
2.0
 42
2.0
 43
2.0
 50
20.949057
  0
POINT
  5
36F
100
AcDbEntity
  8
DEFPOINTS
  6
BYBLOCK
 62
     0
100
AcDbPoint
 10
-67.18005
 20
26.426367
 30
0.0
  0
POINT
  5
370
100
AcDbEntity
  8
DEFPOINTS
  6
BYBLOCK
 62
     0
100
AcDbPoint
 10
-43.832583
 20
35.364811
 30
0.0
  0
ENDBLK
  5
371
100
AcDbEntity
  8
0
100
AcDbBlockEnd
  0
ENDSEC
  0
SECTION
  2
ENTITIES
  0
POINT
  5
24
100
AcDbEntity
  8
0
  6
CONTINUOUS
 62
     7
100
AcDbPoint
 10
-43.832583
 20
10.364811
 30
0.0
  0
POINT
  5
25
100
AcDbEntity
  8
0
  6
CONTINUOUS
 62
     7
100
AcDbPoint
 10
0.0
 20
10.36481
 30
0.0
  0
POINT
  5
26
100
AcDbEntity
  8
0
  6
CONTINUOUS
 62
     7
100
AcDbPoint
 10
85.0
 20
-50.0
 30
0.0
  0
POINT
  5
27
100
AcDbEntity
  8
0
  6
CONTINUOUS
 62
     7
100
AcDbPoint
 10
-0.000002
 20
-37.999989
 30
0.0
  0
LINE
  5
28
100
AcDbEntity
  8
0
  6
CONTINUOUS
 62
     7
100
AcDbLine
 10
47.0
 20
30.36481
 30
0.0
 11
47.0
 21
14.36481
 31
0.0
  0
LINE
  5
29
100
AcDbEntity
  8
0
  6
CENTER
 62
     1
 48
0.5
100
AcDbLine
 10
44.757568
 20
-42.5
 30
0.0
 11
56.581161
 21
-42.5
 31
0.0
  0
LINE
  5
2A
100
AcDbEntity
  8
0
  6
CONTINUOUS
 62
     7
100
AcDbLine
 10
55.0
 20
-40.5
 30
0.0
 11
55.0
 21
-44.5
 31
0.0
  0
LINE
  5
2B
100
AcDbEntity
  8
0
  6
CONTINUOUS
 62
     7
100
AcDbLine
 10
50.0
 20
-38.5
 30
0.0
 11
50.0
 21
-46.5
 31
0.0
  0
LINE
  5
2C
100
AcDbEntity
  8
0
  6
CONTINUOUS
 62
     7
100
AcDbLine
 10
52.500004
 20
-47.000008
 30
0.0
 11
55.000004
 21
-44.500004
 31
0.0
  0
LINE
  5
2D
100
AcDbEntity
  8
0
  6
CONTINUOUS
 62
     7
100
AcDbLine
 10
52.5
 20
-38.0
 30
0.0
 11
55.000004
 21
-40.500004
 31
0.0
  0
LINE
  5
2E
100
AcDbEntity
  8
0
  6
CONTINUOUS
 62
     7
100
AcDbLine
 10
50.5
 20
-38.0
 30
0.0
 11
52.5
 21
-38.0
 31
0.0
  0
LINE
  5
2F
100
AcDbEntity
  8
0
  6
CONTINUOUS
 62
     7
100
AcDbLine
 10
50.5
 20
-47.0
 30
0.0
 11
52.5
 21
-47.0
 31
0.0
  0
LINE
  5
30
100
AcDbEntity
  8
0
  6
CONTINUOUS
 62
     7
100
AcDbLine
 10
50.000004
 20
-46.500004
 30
0.0
 11
50.499992
 21
-46.999992
 31
0.0
  0
LINE
  5
31
100
AcDbEntity
  8
0
  6
CONTINUOUS
 62
     7
100
AcDbLine
 10
50.0
 20
-38.5
 30
0.0
 11
50.5
 21
-38.0
 31
0.0
  0
LINE
  5
32
100
AcDbEntity
  8
0
  6
CONTINUOUS
 62
     7
100
AcDbLine
 10
50.5
 20
-47.0
 30
0.0
 11
50.5
 21
-38.0
 31
0.0
  0
LINE
  5
33
100
AcDbEntity
  8
0
  6
CONTINUOUS
 62
     7
100
AcDbLine
 10
52.5
 20
-38.0
 30
0.0
 11
52.5
 21
-47.0
 31
0.0
  0
LINE
  5
34
100
AcDbEntity
  8
0
  6
CONTINUOUS
 62
     7
100
AcDbLine
 10
47.0
 20
-40.0
 30
0.0
 11
50.0
 21
-40.0
 31
0.0
  0
LINE
  5
35
100
AcDbEntity
  8
0
  6
CONTINUOUS
 62
     7
100
AcDbLine
 10
47.0
 20
-45.0
 30
0.0
 11
50.0
 21
-45.0
 31
0.0
  0
LINE
  5
36
100
AcDbEntity
  8
0
  6
CONTINUOUS
 62
     7
100
AcDbLine
 10
48.5
 20
-40.25
 30
0.0
 11
48.5
 21
-44.75
 31
0.0
  0
LINE
  5
37
100
AcDbEntity
  8
0
  6
CONTINUOUS
 62
     7
100
AcDbLine
 10
47.0
 20
-44.75
 30
0.0
 11
48.5
 21
-44.75
 31
0.0
  0
LINE
  5
38
100
AcDbEntity
  8
0
  6
CONTINUOUS
 62
     7
100
AcDbLine
 10
47.0
 20
-40.25
 30
0.0
 11
48.5
 21
-40.25
 31
0.0
  0
LINE
  5
39
100
AcDbEntity
  8
0
  6
CONTINUOUS
 62
     7
100
AcDbLine
 10
48.499992
 20
-40.249992
 30
0.0
 11
48.933006
 21
-39.999992
 31
0.0
  0
LINE
  5
3A
100
AcDbEntity
  8
0
  6
CONTINUOUS
 62
     7
100
AcDbLine
 10
48.499996
 20
-44.75
 30
0.0
 11
48.93301
 21
-45.0
 31
0.0
  0
LINE
  5
3B
100
AcDbEntity
  8
0
  6
CONTINUOUS
 62
     7
100
AcDbLine
 10
-55.832585
 20
29.36481
 30
0.0
 11
-55.832585
 21
14.662655
 31
0.0
  0
LINE
  5
3C
100
AcDbEntity
  8
0
  6
CENTER
 62
     1
 48
0.5
100
AcDbLine
 10
44.757568
 20
22.36481
 30
0.0
 11
56.581161
 21
22.36481
 31
0.0
  0
LINE
  5
3D
100
AcDbEntity
  8
0
  6
CONTINUOUS
 62
     7
100
AcDbLine
 10
55.0
 20
24.36481
 30
0.0
 11
55.0
 21
20.36481
 31
0.0
  0
LINE
  5
3E
100
AcDbEntity
  8
0
  6
CONTINUOUS
 62
     7
100
AcDbLine
 10
50.0
 20
26.36481
 30
0.0
 11
50.0
 21
18.36481
 31
0.0
  0
LINE
  5
3F
100
AcDbEntity
  8
0
  6
CONTINUOUS
 62
     7
100
AcDbLine
 10
52.499992
 20
17.864818
 30
0.0
 11
54.999985
 21
20.36481
 31
0.0
  0
LINE
  5
40
100
AcDbEntity
  8
0
  6
CONTINUOUS
 62
     7
100
AcDbLine
 10
52.499992
 20
26.864806
 30
0.0
 11
54.999985
 21
24.364815
 31
0.0
  0
LINE
  5
41
100
AcDbEntity
  8
0
  6
CONTINUOUS
 62
     7
100
AcDbLine
 10
50.5
 20
26.86481
 30
0.0
 11
52.5
 21
26.86481
 31
0.0
  0
LINE
  5
42
100
AcDbEntity
  8
0
  6
CONTINUOUS
 62
     7
100
AcDbLine
 10
50.5
 20
17.86481
 30
0.0
 11
52.5
 21
17.86481
 31
0.0
  0
LINE
  5
43
100
AcDbEntity
  8
0
  6
CONTINUOUS
 62
     7
100
AcDbLine
 10
50.0
 20
18.36481
 30
0.0
 11
50.5
 21
17.864809
 31
0.0
  0
LINE
  5
44
100
AcDbEntity
  8
0
  6
CONTINUOUS
 62
     7
100
AcDbLine
 10
49.999989
 20
26.364803
 30
0.0
 11
50.499989
 21
26.864804
 31
0.0
  0
LINE
  5
45
100
AcDbEntity
  8
0
  6
CONTINUOUS
 62
     7
100
AcDbLine
 10
50.5
 20
17.86481
 30
0.0
 11
50.5
 21
26.86481
 31
0.0
  0
LINE
  5
46
100
AcDbEntity
  8
0
  6
CONTINUOUS
 62
     7
100
AcDbLine
 10
52.5
 20
26.86481
 30
0.0
 11
52.5
 21
17.86481
 31
0.0
  0
LINE
  5
47
100
AcDbEntity
  8
0
  6
CONTINUOUS
 62
     7
100
AcDbLine
 10
47.0
 20
24.86481
 30
0.0
 11
50.0
 21
24.86481
 31
0.0
  0
LINE
  5
48
100
AcDbEntity
  8
0
  6
CONTINUOUS
 62
     7
100
AcDbLine
 10
47.0
 20
19.86481
 30
0.0
 11
50.0
 21
19.86481
 31
0.0
  0
LINE
  5
49
100
AcDbEntity
  8
0
  6
CONTINUOUS
 62
     7
100
AcDbLine
 10
48.5
 20
24.61481
 30
0.0
 11
48.5
 21
20.11481
 31
0.0
  0
LINE
  5
4A
100
AcDbEntity
  8
0
  6
CONTINUOUS
 62
     7
100
AcDbLine
 10
47.0
 20
20.11481
 30
0.0
 11
48.5
 21
20.11481
 31
0.0
  0
LINE
  5
4B
100
AcDbEntity
  8
0
  6
CONTINUOUS
 62
     7
100
AcDbLine
 10
47.0
 20
24.61481
 30
0.0
 11
48.5
 21
24.61481
 31
0.0
  0
LINE
  5
4C
100
AcDbEntity
  8
0
  6
CONTINUOUS
 62
     7
100
AcDbLine
 10
48.499996
 20
24.614808
 30
0.0
 11
48.93301
 21
24.864808
 31
0.0
  0
LINE
  5
4D
100
AcDbEntity
  8
0
  6
CONTINUOUS
 62
     7
100
AcDbLine
 10
48.499992
 20
20.114806
 30
0.0
 11
48.933006
 21
19.864806
 31
0.0
  0
LINE
  5
4E
100
AcDbEntity
  8
0
  6
CONTINUOUS
 62
     7
100
AcDbLine
 10
47.0
 20
-34.5
 30
0.0
 11
47.0
 21
-50.0
 31
0.0
  0
LINE
  5
4F
100
AcDbEntity
  8
0
  6
CENTER
 62
     7
100
AcDbLine
 10
35.0
 20
21.176065
 30
0.0
 11
35.0
 21
11.242732
 31
0.0
  0
LINE
  5
50
100
AcDbEntity
  8
0
  6
CENTER
 62
     1
 48
0.5
100
AcDbLine
 10
34.0
 20
-31.355408
 30
0.0
 11
34.0
 21
-44.737503
 31
0.0
  0
LINE
  5
51
100
AcDbEntity
  8
0
  6
CENTER
 62
     1
 48
0.5
100
AcDbLine
 10
35.0
 20
-30.088745
 30
0.0
 11
35.0
 21
-45.870834
 31
0.0
  0
LINE
  5
52
100
AcDbEntity
  8
0
  6
CENTER
 62
     1
 48
0.5
100
AcDbLine
 10
36.0
 20
-31.422073
 30
0.0
 11
36.0
 21
-44.47084
 31
0.0
  0
LINE
  5
53
100
AcDbEntity
  8
0
  6
CONTINUOUS
 62
     7
100
AcDbLine
 10
85.0
 20
-34.5
 30
0.0
 11
85.0
 21
-50.0
 31
0.0
  0
LINE
  5
54
100
AcDbEntity
  8
0
  6
CONTINUOUS
 62
     7
100
AcDbLine
 10
85.0
 20
-50.0
 30
0.0
 11
99.877823
 21
-50.0
 31
0.0
  0
LINE
  5
55
100
AcDbEntity
  8
0
  6
CENTER
 62
     1
 48
0.5
100
AcDbLine
 10
83.175362
 20
-37.512363
 30
0.0
 11
105.09636
 21
-45.490952
 31
0.0
  0
LINE
  5
56
100
AcDbEntity
  8
0
  6
CONTINUOUS
 62
     7
100
AcDbLine
 10
92.691139
 20
-37.251198
 30
0.0
 11
101.0
 21
-40.275375
 31
0.0
  0
LINE
  5
57
100
AcDbEntity
  8
0
  6
CONTINUOUS
 62
     7
100
AcDbLine
 10
90.296997
 20
-43.829048
 30
0.0
 11
101.0
 21
-47.724621
 31
0.0
  0
LINE
  5
58
100
AcDbEntity
  8
0
  6
CONTINUOUS
 62
     7
100
AcDbLine
 10
90.24894
 20
-34.5
 30
0.0
 11
93.28968
 21
-35.606739
 31
0.0
  0
LINE
  5
59
100
AcDbEntity
  8
0
  6
CONTINUOUS
 62
     7
100
AcDbLine
 10
85.0
 20
-43.763409
 30
0.0
 11
89.698463
 21
-45.473511
 31
0.0
  0
LINE
  5
5A
100
AcDbEntity
  8
0
  6
CONTINUOUS
 62
     7
100
AcDbLine
 10
93.28968
 20
-35.606739
 30
0.0
 11
89.698463
 21
-45.473511
 31
0.0
  0
LINE
  5
5B
100
AcDbEntity
  8
0
  6
CONTINUOUS
 62
     7
100
AcDbLine
 10
-1.0
 20
30.36481
 30
0.0
 11
47.0
 21
30.36481
 31
0.0
  0
LINE
  5
5C
100
AcDbEntity
  8
0
  6
CENTER
 62
     1
 48
0.5
100
AcDbLine
 10
15.778646
 20
29.44803
 30
0.0
 11
21.71899
 21
15.453452
 31
0.0
  0
LINE
  5
5D
100
AcDbEntity
  8
0
  6
CONTINUOUS
 62
     7
100
AcDbLine
 10
5.624231
 20
20.099518
 30
0.0
 11
7.773252
 21
15.036741
 31
0.0
  0
LINE
  5
5E
100
AcDbEntity
  8
0
  6
CONTINUOUS
 62
     7
100
AcDbLine
 10
5.62423
 20
20.099517
 30
0.0
 11
14.979652
 21
27.382186
 31
0.0
  0
LINE
  5
5F
100
AcDbEntity
  8
0
  6
CONTINUOUS
 62
     7
100
AcDbLine
 10
7.773251
 20
15.036742
 30
0.0
 11
19.510775
 21
16.707503
 31
0.0
  0
LINE
  5
60
100
AcDbEntity
  8
0
  6
CONTINUOUS
 62
     7
100
AcDbLine
 10
23.161663
 20
26.620309
 30
0.0
 11
23.537949
 21
26.780032
 31
0.0
  0
LINE
  5
61
100
AcDbEntity
  8
0
  6
CONTINUOUS
 62
     7
100
AcDbLine
 10
24.646441
 20
23.122389
 30
0.0
 11
25.022728
 21
23.282113
 31
0.0
  0
LINE
  5
62
100
AcDbEntity
  8
0
  6
CENTER
 62
     7
100
AcDbLine
 10
23.353657
 20
27.214196
 30
0.0
 11
25.257166
 21
22.729811
 31
0.0
  0
LINE
  5
63
100
AcDbEntity
  8
0
  6
CONTINUOUS
 62
     7
100
AcDbLine
 10
21.150803
 20
29.36481
 30
0.0
 11
47.0
 21
29.36481
 31
0.0
  0
LINE
  5
64
100
AcDbEntity
  8
0
  6
CONTINUOUS
 62
     7
100
AcDbLine
 10
21.150803
 20
15.36481
 30
0.0
 11
30.0
 21
15.36481
 31
0.0
  0
LINE
  5
65
100
AcDbEntity
  8
0
  6
CONTINUOUS
 62
     7
100
AcDbLine
 10
21.150803
 20
-34.5
 30
0.0
 11
47.0
 21
-34.5
 31
0.0
  0
LINE
  5
66
100
AcDbEntity
  8
0
  6
CONTINUOUS
 62
     7
100
AcDbLine
 10
101.0
 20
-35.5
 30
0.0
 11
101.0
 21
-48.877823
 31
0.0
  0
LINE
  5
67
100
AcDbEntity
  8
0
  6
CONTINUOUS
 62
     7
100
AcDbLine
 10
85.0
 20
-34.5
 30
0.0
 11
100.0
 21
-34.5
 31
0.0
  0
LINE
  5
68
100
AcDbEntity
  8
0
  6
CONTINUOUS
 62
     7
100
AcDbLine
 10
101.0
 20
-35.5
 30
0.0
 11
100.0
 21
-34.5
 31
0.0
  0
LINE
  5
69
100
AcDbEntity
  8
0
  6
CONTINUOUS
 62
     7
100
AcDbLine
 10
20.974476
 20
-35.5
 30
0.0
 11
30.126385
 21
-35.5
 31
0.0
  0
LINE
  5
6A
100
AcDbEntity
  8
0
  6
CONTINUOUS
 62
     7
100
AcDbLine
 10
39.873615
 20
-35.5
 30
0.0
 11
47.0
 21
-35.5
 31
0.0
  0
LINE
  5
6B
100
AcDbEntity
  8
0
  6
CONTINUOUS
 62
     7
100
AcDbLine
 10
40.0
 20
15.36481
 30
0.0
 11
47.0
 21
15.36481
 31
0.0
  0
LINE
  5
6C
100
AcDbEntity
  8
0
  6
CENTER
 62
     1
 48
0.5
100
AcDbLine
 10
6.0
 20
-42.383331
 30
0.0
 11
6.0
 21
-52.183334
 31
0.0
  0
LINE
  5
6D
100
AcDbEntity
  8
0
  6
CENTER
 62
     1
 48
0.5
100
AcDbLine
 10
0.908854
 20
-47.0
 30
0.0
 11
11.442188
 21
-47.0
 31
0.0
  0
LINE
  5
6E
100
AcDbEntity
  8
0
  6
CONTINUOUS
 62
     7
100
AcDbLine
 10
-54.832585
 20
30.36481
 30
0.0
 11
-41.332585
 21
30.36481
 31
0.0
  0
LINE
  5
6F
100
AcDbEntity
  8
0
  6
CONTINUOUS
 62
     7
100
AcDbLine
 10
-40.332585
 20
16.540867
 30
0.0
 11
-40.332585
 21
15.36481
 31
0.0
  0
LINE
  5
70
100
AcDbEntity
  8
0
  6
CONTINUOUS
 62
     7
100
AcDbLine
 10
-40.332581
 20
29.364806
 30
0.0
 11
-41.332583
 21
30.364808
 31
0.0
  0
LINE
  5
71
100
AcDbEntity
  8
0
  6
CONTINUOUS
 62
     7
100
AcDbLine
 10
-54.832585
 20
30.364808
 30
0.0
 11
-55.832585
 21
29.364808
 31
0.0
  0
LINE
  5
72
100
AcDbEntity
  8
0
  6
CONTINUOUS
 62
     7
100
AcDbLine
 10
-44.53789
 20
14.36481
 30
0.0
 11
-41.332585
 21
14.36481
 31
0.0
  0
LINE
  5
73
100
AcDbEntity
  8
0
  6
CONTINUOUS
 62
     7
100
AcDbLine
 10
-41.332585
 20
14.364809
 30
0.0
 11
-40.332585
 21
15.364809
 31
0.0
  0
LINE
  5
74
100
AcDbEntity
  8
0
  6
CONTINUOUS
 62
     7
100
AcDbLine
 10
-47.35912
 20
30.3648
 30
0.0
 11
-43.832583
 21
10.364811
 31
0.0
  0
LINE
  5
75
100
AcDbEntity
  8
0
  6
CONTINUOUS
 62
     7
100
AcDbLine
 10
-48.89502
 20
20.762479
 30
0.0
 11
-47.165249
 21
10.95245
 31
0.0
  0
LINE
  5
76
100
AcDbEntity
  8
0
  6
CONTINUOUS
 62
     7
100
AcDbLine
 10
-39.792468
 20
27.821296
 30
0.0
 11
-39.084855
 21
23.808223
 31
0.0
  0
LINE
  5
77
100
AcDbEntity
  8
0
  6
CONTINUOUS
 62
     7
100
AcDbLine
 10
-41.747702
 20
20.769802
 30
0.0
 11
-40.854998
 21
15.707026
 31
0.0
  0
LINE
  5
78
100
AcDbEntity
  8
0
  6
CONTINUOUS
 62
     7
100
AcDbLine
 10
-40.332585
 20
29.36481
 30
0.0
 11
-40.332585
 21
28.543332
 31
0.0
  0
LINE
  5
79
100
AcDbEntity
  8
0
  6
CONTINUOUS
 62
     7
100
AcDbLine
 10
0.0
 20
10.36481
 30
0.0
 11
-0.063891
 21
11.095085
 31
0.0
  0
LINE
  5
7A
100
AcDbEntity
  8
0
  6
CONTINUOUS
 62
     7
100
AcDbLine
 10
0.802789
 20
10.367854
 30
0.0
 11
11.860547
 21
11.335282
 31
0.0
  0
LINE
  5
7B
100
AcDbEntity
  8
0
  6
CONTINUOUS
 62
     7
100
AcDbLine
 10
-0.304088
 20
23.019526
 30
0.0
 11
10.600919
 21
23.973589
 31
0.0
  0
LINE
  5
7C
100
AcDbEntity
  8
0
  6
CONTINUOUS
 62
     7
100
AcDbLine
 10
12.2836
 20
15.678761
 30
0.0
 11
12.58778
 21
12.201962
 31
0.0
  0
LINE
  5
7D
100
AcDbEntity
  8
0
  6
CONTINUOUS
 62
     7
100
AcDbLine
 10
17.975088
 20
12.339898
 30
0.0
 11
19.99999
 21
14.364801
 31
0.0
  0
LINE
  5
7E
100
AcDbEntity
  8
0
  6
CONTINUOUS
 62
     7
100
AcDbLine
 10
-1.0
 20
30.36481
 30
0.0
 11
-1.0
 21
22.454517
 31
0.0
  0
LINE
  5
7F
100
AcDbEntity
  8
0
  6
CONTINUOUS
 62
     7
100
AcDbLine
 10
-0.000002
 20
-37.999989
 30
0.0
 11
12.544803
 21
-40.211975
 31
0.0
  0
LINE
  5
80
100
AcDbEntity
  8
0
  6
CONTINUOUS
 62
     7
100
AcDbLine
 10
0.587637
 20
-41.332653
 30
0.0
 11
10.852763
 21
-43.142673
 31
0.0
  0
LINE
  5
81
100
AcDbEntity
  8
0
  6
CONTINUOUS
 62
     7
100
AcDbLine
 10
-1.0
 20
-50.0
 30
0.0
 11
47.0
 21
-50.0
 31
0.0
  0
LINE
  5
83
100
AcDbEntity
  8
0
  6
CONTINUOUS
 62
     7
100
AcDbLine
 10
101.0
 20
-48.877823
 30
0.0
 11
99.877823
 21
-50.0
 31
0.0
  0
LINE
  5
84
100
AcDbEntity
  8
0
  6
CONTINUOUS
 62
     7
100
AcDbLine
 10
34.0
 20
-43.763409
 30
0.0
 11
36.0
 21
-43.763409
 31
0.0
  0
LINE
  5
85
100
AcDbEntity
  8
0
  6
CONTINUOUS
 62
     7
100
AcDbLine
 10
34.0
 20
-35.606739
 30
0.0
 11
36.0
 21
-35.606739
 31
0.0
  0
LINE
  5
86
100
AcDbEntity
  8
0
  6
CONTINUOUS
 62
     7
100
AcDbLine
 10
34.0
 20
-37.251198
 30
0.0
 11
36.0
 21
-37.251198
 31
0.0
  0
LINE
  5
87
100
AcDbEntity
  8
0
  6
CONTINUOUS
 62
     7
100
AcDbLine
 10
34.0
 20
-40.275375
 30
0.0
 11
36.0
 21
-40.275375
 31
0.0
  0
LINE
  5
88
100
AcDbEntity
  8
0
  6
CONTINUOUS
 62
     7
100
AcDbLine
 10
1.887541
 20
23.211267
 30
0.0
 11
1.261687
 21
30.36481
 31
0.0
  0
LINE
  5
89
100
AcDbEntity
  8
0
  6
CONTINUOUS
 62
     7
100
AcDbLine
 10
2.584877
 20
23.272277
 30
0.0
 11
1.964361
 21
30.36481
 31
0.0
  0
LINE
  5
8A
100
AcDbEntity
  8
0
  6
CONTINUOUS
 62
     7
100
AcDbLine
 10
-46.869641
 20
27.588826
 30
0.0
 11
-40.950923
 21
28.632455
 31
0.0
  0
LINE
  5
8B
100
AcDbEntity
  8
0
  6
CONTINUOUS
 62
     7
100
AcDbLine
 10
30.0
 20
15.36481
 30
0.0
 11
29.0
 21
14.36481
 31
0.0
  0
LINE
  5
8C
100
AcDbEntity
  8
0
  6
CENTER
 62
     1
 48
0.5
100
AcDbLine
 10
35.0
 20
25.679868
 30
0.0
 11
35.0
 21
9.428349
 31
0.0
  0
LINE
  5
8D
100
AcDbEntity
  8
0
  6
CONTINUOUS
 62
     7
100
AcDbLine
 10
40.0
 20
15.36481
 30
0.0
 11
41.0
 21
14.36481
 31
0.0
  0
LINE
  5
8E
100
AcDbEntity
  8
0
  6
CONTINUOUS
 62
     7
100
AcDbLine
 10
20.0
 20
14.36481
 30
0.0
 11
47.0
 21
14.36481
 31
0.0
  0
LINE
  5
8F
100
AcDbEntity
  8
0
  6
CENTER
 62
     1
 48
0.5
100
AcDbLine
 10
5.198626
 20
16.931376
 30
0.0
 11
27.935787
 21
26.582726
 31
0.0
  0
LINE
  5
90
100
AcDbEntity
  8
0
  6
CONTINUOUS
 62
     7
100
AcDbLine
 10
-0.063891
 20
11.095085
 30
0.0
 11
-1.031319
 21
22.152843
 31
0.0
  0
LINE
  5
91
100
AcDbEntity
  8
0
  6
CONTINUOUS
 62
     7
100
AcDbLine
 10
13.115217
 20
-39.812565
 30
0.0
 11
19.01519
 21
-40.85289
 31
0.0
  0
LINE
  5
92
100
AcDbEntity
  8
0
  6
CONTINUOUS
 62
     7
100
AcDbLine
 10
19.999998
 20
30.36481
 30
0.0
 11
19.999998
 21
28.497302
 31
0.0
  0
LINE
  5
93
100
AcDbEntity
  8
0
  6
CONTINUOUS
 62
     7
100
AcDbLine
 10
20.173647
 20
-40.041733
 30
0.0
 11
21.150803
 21
-34.5
 31
0.0
  0
LINE
  5
94
100
AcDbEntity
  8
0
  6
CONTINUOUS
 62
     7
100
AcDbLine
 10
12.544802
 20
11.86481
 30
0.0
 11
17.97509
 21
12.339898
 31
0.0
  0
LINE
  5
95
100
AcDbEntity
  8
0
  6
CONTINUOUS
 62
     7
100
AcDbLine
 10
-0.000002
 20
-37.999989
 30
0.0
 11
0.587637
 21
-41.332653
 31
0.0
  0
LINE
  5
96
100
AcDbEntity
  8
0
  6
CONTINUOUS
 62
     7
100
AcDbLine
 10
10.852764
 20
-43.14267
 30
0.0
 11
12.544802
 21
-40.211975
 31
0.0
  0
LINE
  5
97
100
AcDbEntity
  8
0
  6
CONTINUOUS
 62
     7
100
AcDbLine
 10
12.544804
 20
-40.211975
 30
0.0
 11
13.115218
 21
-39.812565
 31
0.0
  0
LINE
  5
98
100
AcDbEntity
  8
0
  6
CONTINUOUS
 62
     7
100
AcDbLine
 10
21.150803
 20
29.36481
 30
0.0
 11
21.150803
 21
28.108615
 31
0.0
  0
LINE
  5
99
100
AcDbEntity
  8
0
  6
CONTINUOUS
 62
     7
100
AcDbLine
 10
21.150803
 20
17.186661
 30
0.0
 11
21.150803
 21
15.36481
 31
0.0
  0
LINE
  5
9A
100
AcDbEntity
  8
0
  6
CONTINUOUS
 62
     7
100
AcDbLine
 10
19.999998
 20
16.797973
 30
0.0
 11
19.999998
 21
14.36481
 31
0.0
  0
LINE
  5
9B
100
AcDbEntity
  8
0
  6
CONTINUOUS
 62
     7
100
AcDbLine
 10
21.150803
 20
29.36481
 30
0.0
 11
19.999998
 21
30.36481
 31
0.0
  0
LINE
  5
9C
100
AcDbEntity
  8
0
  6
CONTINUOUS
 62
     7
100
AcDbLine
 10
21.150803
 20
15.36481
 30
0.0
 11
19.999998
 21
14.364811
 31
0.0
  0
LINE
  5
9D
100
AcDbEntity
  8
0
  6
CONTINUOUS
 62
     7
100
AcDbLine
 10
17.975088
 20
-40.669491
 30
0.0
 11
17.975088
 21
-48.370335
 31
0.0
  0
LINE
  5
9E
100
AcDbEntity
  8
0
  6
CONTINUOUS
 62
     7
100
AcDbLine
 10
20.0
 20
-40.452904
 30
0.0
 11
20.0
 21
-50.0
 31
0.0
  0
LINE
  5
9F
100
AcDbEntity
  8
0
  6
CONTINUOUS
 62
     7
100
AcDbLine
 10
12.544802
 20
-40.211975
 30
0.0
 11
12.544802
 21
-44.0
 31
0.0
  0
LINE
  5
A0
100
AcDbEntity
  8
0
  6
CONTINUOUS
 62
     7
100
AcDbLine
 10
0.847156
 20
-44.0
 30
0.0
 11
12.544802
 21
-44.0
 31
0.0
  0
LINE
  5
A1
100
AcDbEntity
  8
0
  6
CONTINUOUS
 62
     7
100
AcDbLine
 10
12.544803
 20
-44.0
 30
0.0
 11
20.000002
 21
-50.0
 31
0.0
  0
LINE
  5
A2
100
AcDbEntity
  8
0
  6
CONTINUOUS
 62
     7
100
AcDbLine
 10
-0.000002
 20
-37.999985
 30
0.0
 11
-1.034363
 21
-38.376465
 31
0.0
  0
LINE
  5
A3
100
AcDbEntity
  8
0
  6
CONTINUOUS
 62
     7
100
AcDbLine
 10
0.587638
 20
-41.332653
 30
0.0
 11
-0.999999
 21
-41.910507
 31
0.0
  0
LINE
  5
A4
100
AcDbEntity
  8
0
  6
CONTINUOUS
 62
     7
100
AcDbLine
 10
-1.034363
 20
-38.376465
 30
0.0
 11
-1.0
 21
-41.910507
 31
0.0
  0
LINE
  5
A5
100
AcDbEntity
  8
0
  6
CONTINUOUS
 62
     7
100
AcDbLine
 10
-1.0
 20
-41.910507
 30
0.0
 11
-1.0
 21
-50.0
 31
0.0
  0
LINE
  5
A6
100
AcDbEntity
  8
0
  6
CONTINUOUS
 62
     7
100
AcDbLine
 10
0.587637
 20
-41.332657
 30
0.0
 11
1.430926
 21
-50.0
 31
0.0
  0
LINE
  5
A7
100
AcDbEntity
  8
0
  6
CONTINUOUS
 62
     7
100
AcDbLine
 10
13.13462
 20
-33.207989
 30
0.0
 11
21.130033
 21
-34.617794
 31
0.0
  0
LINE
  5
A8
100
AcDbEntity
  8
0
  6
CONTINUOUS
 62
     7
100
AcDbLine
 10
6.285951
 20
-35.238884
 30
0.0
 11
5.62423
 21
-38.991692
 31
0.0
  0
LINE
  5
A9
100
AcDbEntity
  8
0
  6
CONTINUOUS
 62
     7
100
AcDbLine
 10
8.434972
 20
-35.617817
 30
0.0
 11
7.773252
 21
-39.370621
 31
0.0
  0
LINE
  5
AA
100
AcDbEntity
  8
0
  6
CONTINUOUS
 62
     7
100
AcDbLine
 10
6.285951
 20
-35.238884
 30
0.0
 11
8.434972
 21
-35.617817
 31
0.0
  0
LINE
  5
AB
100
AcDbEntity
  8
0
  6
CONTINUOUS
 62
     7
100
AcDbLine
 10
-49.832585
 20
11.86481
 30
0.0
 11
-47.326123
 21
11.86481
 31
0.0
  0
LINE
  5
AC
100
AcDbEntity
  8
0
  6
CONTINUOUS
 62
     7
100
AcDbLine
 10
-55.832585
 20
14.662655
 30
0.0
 11
-49.832585
 21
11.864809
 31
0.0
  0
LINE
  5
AD
100
AcDbEntity
  8
0
  6
CONTINUOUS
 62
     7
100
AcDbLine
 10
-47.165249
 20
10.95245
 30
0.0
 11
-43.832583
 21
10.364811
 31
0.0
  0
LINE
  5
AE
100
AcDbEntity
  8
0
  6
CONTINUOUS
 62
     7
100
AcDbLine
 10
-45.964324
 20
22.454517
 30
0.0
 11
-48.89502
 21
20.76248
 31
0.0
  0
LINE
  5
AF
100
AcDbEntity
  8
0
  6
CONTINUOUS
 62
     7
100
AcDbLine
 10
-52.601849
 20
30.364808
 30
0.0
 11
-45.964326
 21
22.454517
 31
0.0
  0
LINE
  5
B0
100
AcDbEntity
  8
0
  6
CONTINUOUS
 62
     7
100
AcDbLine
 10
-41.747702
 20
20.769802
 30
0.0
 11
-45.549075
 21
20.099517
 31
0.0
  0
LINE
  5
B1
100
AcDbEntity
  8
0
  6
CONTINUOUS
 62
     7
100
AcDbLine
 10
-40.854998
 20
15.707026
 30
0.0
 11
-44.656371
 21
15.036741
 31
0.0
  0
LINE
  5
B2
100
AcDbEntity
  8
0
  6
CONTINUOUS
 62
     7
100
AcDbLine
 10
0.0
 20
10.36481
 30
0.0
 11
0.733065
 21
10.36481
 31
0.0
  0
CIRCLE
  5
B3
100
AcDbEntity
  8
0
  6
CONTINUOUS
 62
     7
100
AcDbCircle
 10
18.665298
 20
22.647638
 30
0.0
 40
6.0
  0
ARC
  5
B4
100
AcDbEntity
  8
0
  6
CONTINUOUS
 62
     7
100
AcDbCircle
 10
24.280365
 20
25.031094
 30
0.0
 40
1.9
100
AcDbArc
 50
293.00011
 51
112.99985
  0
CIRCLE
  5
B5
100
AcDbEntity
  8
0
  6
CONTINUOUS
 62
     7
100
AcDbCircle
 10
18.665298
 20
22.647638
 30
0.0
 40
5.5
  0
CIRCLE
  5
B6
100
AcDbEntity
  8
0
  6
CONTINUOUS
 62
     7
100
AcDbCircle
 10
18.665298
 20
22.647638
 30
0.0
 40
3.767949
  0
ARC
  5
B7
100
AcDbEntity
  8
0
  6
CONTINUOUS
 62
     7
100
AcDbCircle
 10
0.733065
 20
11.16481
 30
0.0
 40
0.8
100
AcDbArc
 50
185.00001
 51
275.00004
  0
ARC
  5
B8
100
AcDbEntity
  8
0
  6
CONTINUOUS
 62
     7
100
AcDbCircle
 10
-0.234363
 20
22.222569
 30
0.0
 40
0.8
100
AcDbArc
 50
94.999954
 51
185.00004
  0
ARC
  5
B9
100
AcDbEntity
  8
0
  6
CONTINUOUS
 62
     7
100
AcDbCircle
 10
11.790824
 20
12.132237
 30
0.0
 40
0.8
100
AcDbArc
 50
274.99999
 51
4.999948
  0
CIRCLE
  5
BA
100
AcDbEntity
  8
0
  6
CONTINUOUS
 62
     7
100
AcDbCircle
 10
6.0
 20
-47.0
 30
0.0
 40
2.0
  0
CIRCLE
  5
BB
100
AcDbEntity
  8
0
  6
CONTINUOUS
 62
     7
100
AcDbCircle
 10
6.0
 20
-47.0
 30
0.0
 40
1.7
  0
ARC
  5
BC
100
AcDbEntity
  8
0
  6
CONTINUOUS
 62
     7
100
AcDbCircle
 10
-40.777276
 20
27.647649
 30
0.0
 40
1.0
100
AcDbArc
 50
9.999997
 51
99.999994
  0
ARC
  5
BD
100
AcDbEntity
  8
0
  6
CONTINUOUS
 62
     7
100
AcDbCircle
 10
35.0
 20
14.36481
 30
0.0
 40
5.25
100
AcDbArc
 50
10.980576
 51
169.01942
  0
ARC
  5
BE
100
AcDbEntity
  8
0
  6
CONTINUOUS
 62
     7
100
AcDbCircle
 10
11.05
 20
24.26481
 30
0.0
 40
2.0
100
AcDbArc
 50
39.218222
 51
192.20883
  0
ARC
  5
BF
100
AcDbEntity
  8
0
  6
CONTINUOUS
 62
     7
100
AcDbCircle
 10
19.188839
 20
-39.868084
 30
0.0
 40
1.0
100
AcDbArc
 50
260.0
 51
350.0
  0
ARC
  5
C0
100
AcDbEntity
  8
0
  6
CONTINUOUS
 62
     7
100
AcDbCircle
 10
11.745435
 20
-41.086452
 30
0.0
 40
8.0
100
AcDbArc
 50
80.000005
 51
133.03426
  0
ARC
  5
C1
100
AcDbEntity
  8
0
  6
CONTINUOUS
 62
     7
100
AcDbCircle
 10
13.894456
 20
-41.465382
 30
0.0
 40
8.0
100
AcDbArc
 50
80.000005
 51
133.03426
  0
ARC
  5
C2
100
AcDbEntity
  8
0
  6
CONTINUOUS
 62
     7
100
AcDbCircle
 10
-49.833733
 20
21.912906
 30
0.0
 40
10.914698
100
AcDbArc
 50
325.34873
 51
9.999996
  0
ARC
  5
C3
100
AcDbEntity
  8
0
  6
CONTINUOUS
 62
     7
100
AcDbCircle
 10
-47.628796
 20
26.193154
 30
0.0
 40
8.0
100
AcDbArc
 50
317.31876
 51
9.999996
  0
LWPOLYLINE
  5
C4
100
AcDbEntity
  8
0
  6
CONTINUOUS
 62
     7
100
AcDbPolyline
 90
       17
 70
     0
 43
0.0
 10
31.481861
 20
-34.501163
 42
0.039531
 10
30.770788
 20
-34.940254
 42
0.040699
 10
30.138828
 20
-35.487326
 42
0.041973
 10
29.60537
 20
-36.131008
 42
0.043212
 10
29.188678
 20
-36.855848
 42
0.044252
 10
28.904478
 20
-37.642081
 42
0.04493
 10
28.764309
 20
-38.466039
 42
0.045066
 10
28.773895
 20
-39.300179
 42
0.044835
 10
28.932695
 20
-40.120151
 42
0.044057
 10
29.233742
 20
-40.898477
 42
0.043087
 10
29.666195
 20
-41.614534
 42
0.041793
 10
30.212771
 20
-42.246604
 42
0.040539
 10
30.855585
 20
-42.780663
 42
0.039407
 10
31.57533
 20
-43.205751
 42
0.03849
 10
32.352431
 20
-43.514182
 42
0.037847
 10
33.167426
 20
-43.700978
 42
0.037461
 10
34.0
 20
-43.763409
  0
LWPOLYLINE
  5
D7
100
AcDbEntity
  8
0
  6
CONTINUOUS
 62
     7
100
AcDbPolyline
 90
       17
 70
     0
 43
0.0
 10
38.518139
 20
-34.501163
 42
-0.039531
 10
39.229212
 20
-34.940254
 42
-0.040699
 10
39.861172
 20
-35.487326
 42
-0.041973
 10
40.39463
 20
-36.131008
 42
-0.043212
 10
40.811322
 20
-36.855848
 42
-0.044252
 10
41.095522
 20
-37.642081
 42
-0.04493
 10
41.235691
 20
-38.466039
 42
-0.045066
 10
41.226105
 20
-39.300179
 42
-0.044835
 10
41.067305
 20
-40.120151
 42
-0.044057
 10
40.766258
 20
-40.898477
 42
-0.043087
 10
40.333805
 20
-41.614534
 42
-0.041793
 10
39.787229
 20
-42.246604
 42
-0.040539
 10
39.144415
 20
-42.780663
 42
-0.039407
 10
38.42467
 20
-43.205751
 42
-0.03849
 10
37.647569
 20
-43.514182
 42
-0.037847
 10
36.832574
 20
-43.700978
 42
-0.037461
 10
36.0
 20
-43.763409
  0
LWPOLYLINE
  5
EA
100
AcDbEntity
  8
0
  6
CONTINUOUS
 62
     7
100
AcDbPolyline
 90
       17
 70
     0
 43
0.0
 10
34.0
 20
-35.606739
 42
0.019916
 10
33.555614
 20
-35.624444
 42
0.020009
 10
33.113098
 20
-35.677645
 42
0.0201
 10
32.676475
 20
-35.766081
 42
0.020274
 10
32.247862
 20
-35.889595
 42
0.020468
 10
31.830742
 20
-36.047567
 42
0.020705
 10
31.428028
 20
-36.239303
 42
0.020983
 10
31.042665
 20
-36.463908
 42
0.021294
 10
30.677626
 20
-36.720262
 42
0.021632
 10
30.335886
 20
-37.006983
 42
0.021989
 10
30.020403
 20
-37.322406
 42
0.022353
 10
29.734073
 20
-37.664547
 42
0.022712
 10
29.479683
 20
-38.031085
 42
0.023055
 10
29.259852
 20
-38.419351
 42
0.023367
 10
29.076961
 20
-38.826327
 42
0.023635
 10
28.93308
 20
-39.248662
 42
0.023846
 10
28.829898
 20
-39.682712
  0
LWPOLYLINE
  5
FD
100
AcDbEntity
  8
0
  6
CONTINUOUS
 62
     7
100
AcDbPolyline
 90
       17
 70
     0
 43
0.0
 10
36.0
 20
-35.606739
 42
-0.019916
 10
36.444386
 20
-35.624444
 42
-0.020009
 10
36.886902
 20
-35.677645
 42
-0.0201
 10
37.323525
 20
-35.766081
 42
-0.020274
 10
37.752138
 20
-35.889595
 42
-0.020468
 10
38.169258
 20
-36.047567
 42
-0.020705
 10
38.571972
 20
-36.239303
 42
-0.020983
 10
38.957335
 20
-36.463908
 42
-0.021294
 10
39.322374
 20
-36.720262
 42
-0.021632
 10
39.664114
 20
-37.006983
 42
-0.021989
 10
39.979597
 20
-37.322406
 42
-0.022353
 10
40.265927
 20
-37.664547
 42
-0.022712
 10
40.520317
 20
-38.031085
 42
-0.023055
 10
40.740148
 20
-38.419351
 42
-0.023367
 10
40.923039
 20
-38.826327
 42
-0.023635
 10
41.06692
 20
-39.248662
 42
-0.023846
 10
41.170102
 20
-39.682712
  0
LWPOLYLINE
  5
110
100
AcDbEntity
  8
0
  6
CONTINUOUS
 62
     7
100
AcDbPolyline
 90
       17
 70
     0
 43
0.0
 10
34.0
 20
-37.251198
 42
0.039748
 10
33.411471
 20
-37.298028
 42
0.040204
 10
32.836996
 20
-37.43808
 42
0.040965
 10
32.292773
 20
-37.669
 42
0.042059
 10
31.794119
 20
-37.986631
 42
0.043396
 10
31.356611
 20
-38.384456
 42
0.044836
 10
30.995613
 20
-38.852946
 42
0.046194
 10
30.725347
 20
-39.379061
 42
0.047258
 10
30.557552
 20
-39.946144
 42
0.047844
 10
30.500005
 20
-40.534581
 42
0.047792
 10
30.555311
 20
-41.122518
 42
0.047205
 10
30.720641
 20
-41.689397
 42
0.046181
 10
30.988552
 20
-42.216146
 42
0.044844
 10
31.347466
 20
-42.685848
 42
0.043417
 10
31.783274
 20
-43.085308
 42
0.042094
 10
32.280775
 20
-43.404917
 42
0.041005
 10
32.824389
 20
-43.637967
  0
LWPOLYLINE
  5
123
100
AcDbEntity
  8
0
  6
CONTINUOUS
 62
     7
100
AcDbPolyline
 90
       17
 70
     0
 43
0.0
 10
36.0
 20
-37.251198
 42
-0.039748
 10
36.588529
 20
-37.298028
 42
-0.040204
 10
37.163004
 20
-37.43808
 42
-0.040965
 10
37.707227
 20
-37.669
 42
-0.042059
 10
38.205881
 20
-37.986631
 42
-0.043396
 10
38.643389
 20
-38.384456
 42
-0.044836
 10
39.004387
 20
-38.852946
 42
-0.046194
 10
39.274653
 20
-39.379061
 42
-0.047258
 10
39.442448
 20
-39.946144
 42
-0.047844
 10
39.499995
 20
-40.534581
 42
-0.047792
 10
39.444689
 20
-41.122518
 42
-0.047205
 10
39.279359
 20
-41.689397
 42
-0.046181
 10
39.011448
 20
-42.216146
 42
-0.044844
 10
38.652534
 20
-42.685848
 42
-0.043417
 10
38.216726
 20
-43.085308
 42
-0.042094
 10
37.719225
 20
-43.404917
 42
-0.041005
 10
37.175611
 20
-43.637967
  0
LWPOLYLINE
  5
136
100
AcDbEntity
  8
0
  6
CONTINUOUS
 62
     7
100
AcDbPolyline
 90
       17
 70
     0
 43
0.0
 10
34.0
 20
-40.275375
 42
0.015701
 10
33.7663
 20
-40.282715
 42
0.015757
 10
33.533058
 20
-40.304776
 42
0.015824
 10
33.301425
 20
-40.341552
 42
0.015864
 10
33.073059
 20
-40.392815
 42
0.015998
 10
32.84789
 20
-40.45867
 42
0.016118
 10
32.627419
 20
-40.538837
 42
0.016258
 10
32.412598
 20
-40.633098
 42
0.01642
 10
32.20439
 20
-40.741186
 42
0.016599
 10
32.003763
 20
-40.86278
 42
0.016795
 10
31.81169
 20
-40.997494
 42
0.017003
 10
31.629146
 20
-41.144878
 42
0.017222
 10
31.457103
 20
-41.304408
 42
0.017447
 10
31.296517
 20
-41.47548
 42
0.017673
 10
31.148326
 20
-41.657406
 42
0.017897
 10
31.013436
 20
-41.849411
 42
0.018112
 10
30.892707
 20
-42.050627
  0
LWPOLYLINE
  5
149
100
AcDbEntity
  8
0
  6
CONTINUOUS
 62
     7
100
AcDbPolyline
 90
       17
 70
     0
 43
0.0
 10
36.0
 20
-40.275375
 42
-0.015701
 10
36.2337
 20
-40.282715
 42
-0.015757
 10
36.466942
 20
-40.304776
 42
-0.015824
 10
36.698575
 20
-40.341552
 42
-0.015864
 10
36.926941
 20
-40.392815
 42
-0.015998
 10
37.15211
 20
-40.45867
 42
-0.016118
 10
37.372581
 20
-40.538837
 42
-0.016258
 10
37.587402
 20
-40.633098
 42
-0.01642
 10
37.79561
 20
-40.741186
 42
-0.016599
 10
37.996237
 20
-40.86278
 42
-0.016795
 10
38.18831
 20
-40.997494
 42
-0.017003
 10
38.370854
 20
-41.144878
 42
-0.017222
 10
38.542897
 20
-41.304408
 42
-0.017447
 10
38.703483
 20
-41.47548
 42
-0.017673
 10
38.851674
 20
-41.657406
 42
-0.017897
 10
38.986564
 20
-41.849411
 42
-0.018112
 10
39.107293
 20
-42.050627
  0
LINE
  5
15C
100
AcDbEntity
  8
0
  6
CONTINUOUS
 62
     7
100
AcDbLine
 10
99.472031
 20
-39.719239
 30
0.0
 11
101.0
 21
-38.191267
 31
0.0
  0
LINE
  5
15D
100
AcDbEntity
  8
0
  6
CONTINUOUS
 62
     7
100
AcDbLine
 10
97.826055
 20
-39.120152
 30
0.0
 11
101.0
 21
-35.946201
 31
0.0
  0
LINE
  5
15E
100
AcDbEntity
  8
0
  6
CONTINUOUS
 62
     7
100
AcDbLine
 10
96.180079
 20
-38.521065
 30
0.0
 11
100.10056
 21
-34.600575
 31
0.0
  0
LINE
  5
15F
100
AcDbEntity
  8
0
  6
CONTINUOUS
 62
     7
100
AcDbLine
 10
94.534103
 20
-37.921978
 30
0.0
 11
97.956075
 21
-34.5
 31
0.0
  0
LINE
  5
160
100
AcDbEntity
  8
0
  6
CONTINUOUS
 62
     7
100
AcDbLine
 10
92.888127
 20
-37.322891
 30
0.0
 11
95.711013
 21
-34.5
 31
0.0
  0
LINE
  5
161
100
AcDbEntity
  8
0
  6
CONTINUOUS
 62
     7
100
AcDbLine
 10
92.607505
 20
-35.358447
 30
0.0
 11
93.465951
 21
-34.5
 31
0.0
  0
LINE
  5
162
100
AcDbEntity
  8
0
  6
CONTINUOUS
 62
     7
100
AcDbLine
 10
90.961527
 20
-34.759362
 30
0.0
 11
91.220889
 21
-34.5
 31
0.0
  0
LINE
  5
163
100
AcDbEntity
  8
0
  6
CONTINUOUS
 62
     7
100
AcDbLine
 10
98.171534
 20
-50.0
 30
0.0
 11
100.5945
 21
-47.577031
 31
0.0
  0
LINE
  5
164
100
AcDbEntity
  8
0
  6
CONTINUOUS
 62
     7
100
AcDbLine
 10
95.926472
 20
-50.0
 30
0.0
 11
98.948522
 21
-46.977944
 31
0.0
  0
LINE
  5
165
100
AcDbEntity
  8
0
  6
CONTINUOUS
 62
     7
100
AcDbLine
 10
93.681411
 20
-50.0
 30
0.0
 11
97.302545
 21
-46.378858
 31
0.0
  0
LINE
  5
166
100
AcDbEntity
  8
0
  6
CONTINUOUS
 62
     7
100
AcDbLine
 10
91.436349
 20
-50.0
 30
0.0
 11
95.656569
 21
-45.779772
 31
0.0
  0
LINE
  5
167
100
AcDbEntity
  8
0
  6
CONTINUOUS
 62
     7
100
AcDbLine
 10
89.191288
 20
-50.0
 30
0.0
 11
94.010592
 21
-45.180686
 31
0.0
  0
LINE
  5
168
100
AcDbEntity
  8
0
  6
CONTINUOUS
 62
     7
100
AcDbLine
 10
86.946225
 20
-50.0
 30
0.0
 11
92.364615
 21
-44.581599
 31
0.0
  0
LINE
  5
169
100
AcDbEntity
  8
0
  6
CONTINUOUS
 62
     7
100
AcDbLine
 10
85.0
 20
-49.701163
 30
0.0
 11
89.35328
 21
-45.347874
 31
0.0
  0
LINE
  5
16A
100
AcDbEntity
  8
0
  6
CONTINUOUS
 62
     7
100
AcDbLine
 10
89.967891
 20
-44.733262
 30
0.0
 11
90.718639
 21
-43.982513
 31
0.0
  0
LINE
  5
16B
100
AcDbEntity
  8
0
  6
CONTINUOUS
 62
     7
100
AcDbLine
 10
85.0
 20
-47.456097
 30
0.0
 11
87.707304
 21
-44.748787
 31
0.0
  0
LINE
  5
16C
100
AcDbEntity
  8
0
  6
CONTINUOUS
 62
     7
100
AcDbLine
 10
85.0
 20
-45.211031
 30
0.0
 11
86.061328
 21
-44.149701
 31
0.0
  0
TEXT
  5
16F
100
AcDbEntity
  8
0
  6
CONTINUOUS
100
AcDbText
 10
18.467471
 20
-80.473784
 30
0.0
 40
6.0
  1
CSYER12CA
100
AcDbText
  0
LINE
  5
19C
102
{ACAD_REACTORS
330
1A4
102
}
100
AcDbEntity
  8
寸法
  6
CONTINUOUS
 62
     1
100
AcDbLine
 10
106.036053
 20
-45.832972
 30
0.0
 11
121.415093
 21
-51.430484
 31
0.0
  0
LINE
  5
19D
102
{ACAD_REACTORS
330
1A4
102
}
100
AcDbEntity
  8
寸法
  6
CONTINUOUS
 62
     1
100
AcDbLine
 10
101.0
 20
-43.999999
 30
0.0
 11
122.725287
 21
-43.999999
 31
0.0
  0
ARC
  5
19E
102
{ACAD_REACTORS
330
1A4
102
}
100
AcDbEntity
  8
寸法
  6
CONTINUOUS
 62
     1
100
AcDbCircle
 10
101.0
 20
-43.999999
 30
0.0
 40
20.725287
100
AcDbArc
 50
334.468787
 51
340.000004
  0
LINE
  5
19F
102
{ACAD_REACTORS
330
1A4
102
}
100
AcDbEntity
  8
寸法
  6
CONTINUOUS
 62
     1
100
AcDbLine
 10
119.701476
 20
-52.932655
 30
0.0
 11
114.917345
 21
-62.948747
 31
0.0
  0
ARC
  5
1A0
102
{ACAD_REACTORS
330
1A4
102
}
100
AcDbEntity
  8
寸法
  6
CONTINUOUS
 62
     1
100
AcDbCircle
 10
101.0
 20
-43.999999
 30
0.0
 40
20.725287
100
AcDbArc
 50
345.531221
 51
354.468783
  0
INSERT
  5
1A1
102
{ACAD_REACTORS
330
1A4
102
}
100
AcDbEntity
  8
寸法
  6
CONTINUOUS
 62
     1
100
AcDbBlockReference
  2
_OPEN90
 10
120.4754
 20
-51.088464
 30
0.0
 41
2.0
 42
2.0
 43
2.0
 50
252.765613
  0
INSERT
  5
1A2
102
{ACAD_REACTORS
330
1A4
102
}
100
AcDbEntity
  8
寸法
  6
CONTINUOUS
 62
     1
100
AcDbBlockReference
  2
_OPEN90
 10
121.725287
 20
-43.999999
 30
0.0
 41
2.0
 42
2.0
 43
2.0
 50
87.234391
  0
MTEXT
  5
1A3
102
{ACAD_REACTORS
330
1A4
102
}
100
AcDbEntity
  8
寸法
  6
CONTINUOUS
 62
     1
100
AcDbMText
 10
115.053534
 20
-56.863194
 30
0.0
 40
3.0
 41
0.0
 71
     5
 72
     1
  1
\A1;20°
 11
0.431003
 21
0.902351
 31
0.0
1001
ACAD
1000
MTEXTBEGIN
1070
    73
1070
     1
1070
    44
1040
1.0
1070
    74
1070
     0
1000
MTEXTEND
1000
MTEXTBEGIN
1070
    73
1070
     1
1070
    44
1040
1.0
1070
    74
1070
     0
1000
MTEXTEND
  0
DIMENSION
  5
1A5
100
AcDbEntity
  8
寸法
  6
CONTINUOUS
100
AcDbDimension
  2
*D2
 10
110.0
 20
-50.0
 30
0.0
 11
107.5
 21
-47.0
 31
0.0
 70
    32
  3
STANDARD
100
AcDbAlignedDimension
 13
101.0
 23
-43.999999
 33
0.0
 14
99.877823
 24
-50.0
 34
0.0
 50
90.0
100
AcDbRotatedDimension
  0
DIMENSION
  5
1B2
100
AcDbEntity
  8
寸法
  6
CONTINUOUS
100
AcDbDimension
  2
*D3
 10
70.0
 20
-50.0
 30
0.0
 11
67.5
 21
-42.25
 31
0.0
 70
    32
  3
STANDARD
100
AcDbAlignedDimension
 13
47.0
 23
-34.5
 33
0.0
 14
47.0
 24
-50.0
 34
0.0
 50
90.0
100
AcDbRotatedDimension
  0
DIMENSION
  5
1BF
100
AcDbEntity
  8
寸法
  6
CONTINUOUS
100
AcDbDimension
  2
*D4
 10
34.0
 20
-60.0
 30
0.0
 11
28.0
 21
-57.5
 31
0.0
 70
    32
  3
STANDARD
100
AcDbAlignedDimension
 13
36.0
 23
-44.47084
 33
0.0
 14
34.0
 24
-44.737503
 34
0.0
100
AcDbRotatedDimension
  0
DIMENSION
  5
1CE
100
AcDbEntity
  8
寸法
  6
CONTINUOUS
100
AcDbDimension
  2
*D5
 10
35.0
 20
-20.0
 30
0.0
 11
45.0
 21
-17.5
 31
0.0
 70
    32
  3
STANDARD
100
AcDbAlignedDimension
 13
55.0
 23
-40.5
 33
0.0
 14
35.0
 24
-30.088745
 34
0.0
100
AcDbRotatedDimension
  0
DIMENSION
  5
1DB
100
AcDbEntity
  8
寸法
  6
CONTINUOUS
100
AcDbDimension
  2
*D6
 10
-10.0
 20
-50.0
 30
0.0
 11
-12.5
 21
-43.999993
 31
0.0
 70
    32
  3
STANDARD
100
AcDbAlignedDimension
 13
-0.000002
 23
-37.999985
 33
0.0
 14
-1.0
 24
-50.0
 34
0.0
 50
90.0
100
AcDbRotatedDimension
  0
DIMENSION
  5
1E8
100
AcDbEntity
  8
寸法
  6
CONTINUOUS
100
AcDbDimension
  2
*D7
 10
70.0
 20
14.36481
 30
0.0
 11
67.5
 21
22.36481
 31
0.0
 70
    32
  3
STANDARD
100
AcDbAlignedDimension
 13
47.0
 23
30.36481
 33
0.0
 14
47.0
 24
14.36481
 34
0.0
 50
90.0
100
AcDbRotatedDimension
  0
DIMENSION
  5
1F5
100
AcDbEntity
  8
寸法
  6
CONTINUOUS
100
AcDbDimension
  2
*D8
 10
0.0
 20
-10.0
 30
0.0
 11
27.5
 21
-7.5
 31
0.0
 70
    32
  3
STANDARD
100
AcDbAlignedDimension
 13
55.0
 23
20.36481
 33
0.0
 14
0.0
 24
10.36481
 34
0.0
100
AcDbRotatedDimension
  0
DIMENSION
  5
202
100
AcDbEntity
  8
寸法
  6
CONTINUOUS
100
AcDbDimension
  2
*D9
 10
47.0
 20
0.0
 30
0.0
 11
51.0
 21
2.5
 31
0.0
 70
    32
  3
STANDARD
100
AcDbAlignedDimension
 13
55.0
 23
20.36481
 33
0.0
 14
47.0
 24
14.36481
 34
0.0
100
AcDbRotatedDimension
1001
ACAD
1000
DSTYLE
1002
{
1070
   287
1070
     4
1070
   287
1070
     4
1070
   279
1070
     1
1002
}
  0
DIMENSION
  5
218
100
AcDbEntity
  8
寸法
  6
CONTINUOUS
100
AcDbDimension
  2
*D10
 10
-10.0
 20
10.36481
 30
0.0
 11
-12.5
 21
20.36481
 31
0.0
 70
    32
  3
STANDARD
100
AcDbAlignedDimension
 13
-1.0
 23
30.36481
 33
0.0
 14
0.0
 24
10.36481
 34
0.0
 50
90.0
100
AcDbRotatedDimension
  0
DIMENSION
  5
225
100
AcDbEntity
  8
寸法
  6
CONTINUOUS
100
AcDbDimension
  2
*D11
 10
0.733065
 20
10.36481
 30
0.0
 11
-2.899161
 21
15.150478
 31
0.0
 70
   162
  3
STANDARD
100
AcDb2LineAngularDimension
 13
-0.063891
 23
11.095085
 33
0.0
 14
-1.031319
 24
22.152843
 34
0.0
 15
0.0
 25
10.36481
 35
0.0
 16
-4.92502
 26
13.020357
 36
0.0
1001
ACAD
1000
DSTYLE
1002
{
1070
   271
1070
     0
1070
   271
1070
     0
1002
}
  0
LINE
  5
23F
100
AcDbEntity
  8
0
  6
CENTER
 62
     1
 48
0.5
100
AcDbLine
 10
-43.832583
 20
10.364811
 30
0.0
 11
-43.832583
 21
35.364811
 31
0.0
  0
ARC
  5
241
100
AcDbEntity
  8
0
  6
CENTER
 62
     1
 48
0.5
100
AcDbCircle
 10
-43.832583
 20
35.364811
 30
0.0
 40
25.0
100
AcDbArc
 50
180.0
 51
270.0
  0
DIMENSION
  5
243
100
AcDbEntity
  8
寸法
  6
CONTINUOUS
100
AcDbDimension
  2
*D12
 10
-43.832583
 20
35.364811
 30
0.0
 11
-76.245508
 21
25.632659
 31
0.0
 70
    36
  1
%%c50
  3
STANDARD
100
AcDbRadialDimension
 15
-67.18005
 25
26.426367
 35
0.0
 40
0.0
1001
ACAD
1000
DSTYLE
1002
{
1070
   288
1070
     1
1002
}
  0
MTEXT
  5
261
100
AcDbEntity
  8
寸法
  6
CONTINUOUS
 62
     1
100
AcDbMText
 10
-55.423482
 20
-37.5
 30
0.0
 40
3.0
 41
0.0
 71
     5
 72
     1
  1
10%%d
1001
ACAD
1000
MTEXTBEGIN
1070
    73
1070
     1
1070
    44
1040
1.0
1070
    74
1070
     0
1000
MTEXTEND
1000
MTEXTBEGIN
1070
    73
1070
     1
1070
    44
1040
1.0
1070
    74
1070
     0
1000
MTEXTEND
1000
MTEXTBEGIN
1070
    73
1070
     1
1070
    44
1040
1.0
1070
    74
1070
     0
1000
MTEXTEND
1000
MTEXTBEGIN
1070
    73
1070
     1
1070
    44
1040
1.0
1070
    74
1070
     0
1000
MTEXTEND
1000
MTEXTBEGIN
1070
    73
1070
     1
1070
    44
1040
1.0
1070
    74
1070
     0
1000
MTEXTEND
1000
MTEXTBEGIN
1070
    73
1070
     1
1070
    44
1040
1.0
1070
    74
1070
     0
1000
MTEXTEND
1000
MTEXTBEGIN
1070
    73
1070
     1
1070
    44
1040
1.0
1070
    74
1070
     0
1000
MTEXTEND
  0
MTEXT
  5
262
100
AcDbEntity
  8
寸法
  6
CONTINUOUS
 62
     1
100
AcDbMText
 10
-40.992987
 20
-49.687674
 30
0.0
 40
3.0
 41
0.0
 71
     5
 72
     1
  1
10%%d
1001
ACAD
1000
MTEXTBEGIN
1070
    73
1070
     1
1070
    44
1040
1.0
1070
    74
1070
     0
1000
MTEXTEND
1000
MTEXTBEGIN
1070
    73
1070
     1
1070
    44
1040
1.0
1070
    74
1070
     0
1000
MTEXTEND
1000
MTEXTBEGIN
1070
    73
1070
     1
1070
    44
1040
1.0
1070
    74
1070
     0
1000
MTEXTEND
1000
MTEXTBEGIN
1070
    73
1070
     1
1070
    44
1040
1.0
1070
    74
1070
     0
1000
MTEXTEND
1000
MTEXTBEGIN
1070
    73
1070
     1
1070
    44
1040
1.0
1070
    74
1070
     0
1000
MTEXTEND
1000
MTEXTBEGIN
1070
    73
1070
     1
1070
    44
1040
1.0
1070
    74
1070
     0
1000
MTEXTEND
1000
MTEXTBEGIN
1070
    73
1070
     1
1070
    44
1040
1.0
1070
    74
1070
     0
1000
MTEXTEND
  0
LINE
  5
263
100
AcDbEntity
  8
寸法
  6
CONTINUOUS
100
AcDbLine
 10
-45.832585
 20
-50.0
 30
0.0
 11
-48.282075
 21
-48.585786
 31
30.0
  0
LINE
  5
264
100
AcDbEntity
  8
寸法
  6
CONTINUOUS
100
AcDbLine
 10
-45.832585
 20
-50.0
 30
0.0
 11
-48.282075
 21
-51.414214
 31
30.0
  0
LINE
  5
265
100
AcDbEntity
  8
寸法
  6
CONTINUOUS
100
AcDbLine
 10
-55.832585
 20
-40.0
 30
0.0
 11
-57.246798
 21
-42.44949
 31
30.0
  0
LINE
  5
266
100
AcDbEntity
  8
寸法
  6
CONTINUOUS
100
AcDbLine
 10
-55.832585
 20
-40.0
 30
0.0
 11
-54.418371
 21
-42.44949
 31
30.0
  0
LINE
  5
267
100
AcDbEntity
  8
寸法
  6
CONTINUOUS
100
AcDbLine
 10
-55.832585
 20
-50.0
 30
0.0
 11
-55.832585
 21
-40.0
 31
0.0
  0
LINE
  5
268
100
AcDbEntity
  8
寸法
  6
CONTINUOUS
100
AcDbLine
 10
-55.832585
 20
-50.0
 30
0.0
 11
-45.832585
 21
-50.0
 31
0.0
  0
ENDSEC
  0
SECTION
  2
OBJECTS
  0
DICTIONARY
  5
C
100
AcDbDictionary
  3
ACAD_GROUP
350
D
  3
ACAD_LAYOUT
350
174
  3
ACAD_MLINESTYLE
350
1B
  3
ACAD_PLOTSETTINGS
350
175
  3
ACAD_PLOTSTYLENAME
350
172
  3
ACDBHEADERROUNDTRIPXREC
350
2BB
  0
DICTIONARY
  5
2B7
100
AcDbDictionary
280
     1
  3
ACAD_XREC_ROUNDTRIP
360
2B8
  0
DICTIONARY
  5
2DE
100
AcDbDictionary
280
     1
  3
ACAD_XREC_ROUNDTRIP
360
2DF
  0
DICTIONARY
  5
295
100
AcDbDictionary
280
     1
  3
ACAD_LAYOUTSELFREF
360
2DD
  0
DICTIONARY
  5
293
100
AcDbDictionary
280
     1
  3
ACAD_LAYOUTSELFREF
360
2DC
  0
DICTIONARY
  5
2B3
100
AcDbDictionary
280
     1
  3
ACAD_XREC_ROUNDTRIP
360
2B4
  0
DICTIONARY
  5
2B5
100
AcDbDictionary
280
     1
  3
ACAD_XREC_ROUNDTRIP
360
2B6
  0
DICTIONARY
  5
D
102
{ACAD_REACTORS
330
C
102
}
100
AcDbDictionary
  3
*A1
350
1A4
  0
DICTIONARY
  5
174
102
{ACAD_XDICTIONARY
360
2E0
102
}
102
{ACAD_REACTORS
330
C
102
}
100
AcDbDictionary
  3
MODEL
350
176
  3
ﾚｲｱｳﾄ1
350
177
  0
DICTIONARY
  5
1B
102
{ACAD_REACTORS
330
C
102
}
100
AcDbDictionary
  3
STANDARD
350
1C
  0
DICTIONARY
  5
175
102
{ACAD_REACTORS
330
C
102
}
100
AcDbDictionary
  0
ACAD_PROXY_OBJECT
  5
172
102
{ACAD_REACTORS
330
C
102
}
100
AcDbProxyObject
 90
      499
 91
      500
 93
       86
310
405010041939BDC9B585B0
350
173
340
173
 94
        0
  0
DICTIONARY
  5
2BB
102
{ACAD_REACTORS
330
C
102
}
100
AcDbDictionary
  3
CEPSNTYPE
350
2C5
  3
DIMSTYLEDATA
350
2C9
  3
FINGERPRINTGUID
350
2C6
  3
HYPERLINKBASE
350
2BE
  3
INSUNITS
350
2C4
  3
LAYOUTDICT
350
2C0
  3
LWETCUNION
350
2C3
  3
PLOTSETDICT
350
2C1
  3
PLOTSTYLNAMDICT
350
2C2
  3
PSVPSCALE
350
2C8
  3
PUCSBASE
350
2CC
  3
PUCSORGBACK
350
2D2
  3
PUCSORGBOTTOM
350
2CE
  3
PUCSORGFRONT
350
2D1
  3
PUCSORGLEFT
350
2CF
  3
PUCSORGRIGHT
350
2D0
  3
PUCSORGTOP
350
2CD
  3
PUCSORTHOREF
350
2CA
  3
PUCSORTHOVIEW
350
2CB
  3
STYLESHEET
350
2BF
  3
TSTACKALIGN
350
2BC
  3
TSTACKSIZE
350
2BD
  3
UCSBASE
350
2D5
  3
UCSORGBACK
350
2DB
  3
UCSORGBOTTOM
350
2D7
  3
UCSORGFRONT
350
2DA
  3
UCSORGLEFT
350
2D8
  3
UCSORGRIGHT
350
2D9
  3
UCSORGTOP
350
2D6
  3
UCSORTHOREF
350
2D3
  3
UCSORTHOVIEW
350
2D4
  3
VERSIONGUID
350
2C7
  0
XRECORD
  5
2B8
102
{ACAD_REACTORS
330
2B7
102
}
100
AcDbXrecord
102
EXTNAMES
  1
DEFPOINTS
  2
Defpoints
102
PLOTBIT
280
     0
  0
XRECORD
  5
2DF
102
{ACAD_REACTORS
330
2DE
102
}
100
AcDbXrecord
102
ACADR14ROUNDTRIP
1000
DSTYLE
1002
{
1070
   341
340
182
1070
   342
340
17C
1002
}
  0
XRECORD
  5
2DD
102
{ACAD_REACTORS
330
295
102
}
100
AcDbXrecord
340
18
  0
XRECORD
  5
2DC
102
{ACAD_REACTORS
330
293
102
}
100
AcDbXrecord
340
15
  0
XRECORD
  5
2B4
102
{ACAD_REACTORS
330
2B3
102
}
100
AcDbXrecord
102
EXTNAMES
  1
_OPEN90
  2
_Open90
  0
XRECORD
  5
2B6
102
{ACAD_REACTORS
330
2B5
102
}
100
AcDbXrecord
102
EXTNAMES
  1
_OPEN30
  2
_Open30
  0
GROUP
  5
1A4
102
{ACAD_REACTORS
330
D
102
}
100
AcDbGroup
300

 70
     1
 71
     1
340
19D
340
19F
340
1A3
340
19C
340
1A0
340
1A1
340
19E
340
1A2
  0
DICTIONARY
  5
2E0
100
AcDbDictionary
280
     1
  3
ACAD_XREC_ROUNDTRIP
360
2E1
  0
ACAD_PROXY_OBJECT
  5
176
102
{ACAD_REACTORS
330
174
102
}
100
AcDbProxyObject
 90
      499
 91
      502
 93
      548
310
90E4550534F4E20504D2D32303030432C01AAAAAAAAA5A69054D6F64656C901A800000000000000000000000000000000000000000000A1000000000000008902A6A6AAAAD
330
18
330
0
340
0
340
0
 94
        0
  0
ACAD_PROXY_OBJECT
  5
177
102
{ACAD_REACTORS
330
174
102
}
100
AcDbProxyObject
 90
      499
 91
      502
 93
      964
310
90E4550534F4E20504D2D32303030432C00AAAAAA416AA59106906DAB2B1B3C43140501A800000000000000000000000000000000000000000000A1000000000000008902A6A6A10232D5E076BC5510408CB5781DAF154410232D5E076BC5510408CB5781DAF15C410232D5E076BC5710408CB5781DAF15C4F
330
15
330
0
340
0
340
0
 94
        0
  0
MLINESTYLE
  5
1C
102
{ACAD_REACTORS
330
1B
102
}
100
AcDbMlineStyle
  2
STANDARD
 70
     0
  3

 62
   256
 51
90.0
 52
90.0
 71
     2
 49
0.5
 62
   256
  6
BYLAYER
 49
-0.5
 62
   256
  6
BYLAYER
  0
ACAD_PROXY_OBJECT
  5
173
102
{ACAD_REACTORS
330
172
102
}
100
AcDbProxyObject
 90
      499
 91
      501
 93
        0
 94
        0
  0
XRECORD
  5
2C5
102
{ACAD_REACTORS
330
2BB
102
}
100
AcDbXrecord
 90
        0
  0
XRECORD
  5
2C9
102
{ACAD_REACTORS
330
2BB
102
}
100
AcDbXrecord
1000
DSTYLE
1002
{
1070
   341
340
182
1070
   342
340
17C
1002
}
  0
XRECORD
  5
2C6
102
{ACAD_REACTORS
330
2BB
102
}
100
AcDbXrecord
  1
{FBABBD84-F3F0-4ED3-96F1-7B2E46944FA7}
  0
XRECORD
  5
2BE
102
{ACAD_REACTORS
330
2BB
102
}
100
AcDbXrecord
  1

  0
XRECORD
  5
2C4
102
{ACAD_REACTORS
330
2BB
102
}
100
AcDbXrecord
 90
        0
  0
XRECORD
  5
2C0
102
{ACAD_REACTORS
330
2BB
102
}
100
AcDbXrecord
340
174
  0
XRECORD
  5
2C3
102
{ACAD_REACTORS
330
2BB
102
}
100
AcDbXrecord
 90
    14877
  0
XRECORD
  5
2C1
102
{ACAD_REACTORS
330
2BB
102
}
100
AcDbXrecord
340
175
  0
XRECORD
  5
2C2
102
{ACAD_REACTORS
330
2BB
102
}
100
AcDbXrecord
340
172
  0
XRECORD
  5
2C8
102
{ACAD_REACTORS
330
2BB
102
}
100
AcDbXrecord
 40
0.0
  0
XRECORD
  5
2CC
102
{ACAD_REACTORS
330
2BB
102
}
100
AcDbXrecord
340
0
  0
XRECORD
  5
2D2
102
{ACAD_REACTORS
330
2BB
102
}
100
AcDbXrecord
 10
0.0
 20
0.0
 30
0.0
  0
XRECORD
  5
2CE
102
{ACAD_REACTORS
330
2BB
102
}
100
AcDbXrecord
 10
0.0
 20
0.0
 30
0.0
  0
XRECORD
  5
2D1
102
{ACAD_REACTORS
330
2BB
102
}
100
AcDbXrecord
 10
0.0
 20
0.0
 30
0.0
  0
XRECORD
  5
2CF
102
{ACAD_REACTORS
330
2BB
102
}
100
AcDbXrecord
 10
0.0
 20
0.0
 30
0.0
  0
XRECORD
  5
2D0
102
{ACAD_REACTORS
330
2BB
102
}
100
AcDbXrecord
 10
0.0
 20
0.0
 30
0.0
  0
XRECORD
  5
2CD
102
{ACAD_REACTORS
330
2BB
102
}
100
AcDbXrecord
 10
0.0
 20
0.0
 30
0.0
  0
XRECORD
  5
2CA
102
{ACAD_REACTORS
330
2BB
102
}
100
AcDbXrecord
340
0
  0
XRECORD
  5
2CB
102
{ACAD_REACTORS
330
2BB
102
}
100
AcDbXrecord
 70
     0
  0
XRECORD
  5
2BF
102
{ACAD_REACTORS
330
2BB
102
}
100
AcDbXrecord
  1

  0
XRECORD
  5
2BC
102
{ACAD_REACTORS
330
2BB
102
}
100
AcDbXrecord
 90
        1
  0
XRECORD
  5
2BD
102
{ACAD_REACTORS
330
2BB
102
}
100
AcDbXrecord
 90
       70
  0
XRECORD
  5
2D5
102
{ACAD_REACTORS
330
2BB
102
}
100
AcDbXrecord
340
0
  0
XRECORD
  5
2DB
102
{ACAD_REACTORS
330
2BB
102
}
100
AcDbXrecord
 10
0.0
 20
0.0
 30
0.0
  0
XRECORD
  5
2D7
102
{ACAD_REACTORS
330
2BB
102
}
100
AcDbXrecord
 10
0.0
 20
0.0
 30
0.0
  0
XRECORD
  5
2DA
102
{ACAD_REACTORS
330
2BB
102
}
100
AcDbXrecord
 10
0.0
 20
0.0
 30
0.0
  0
XRECORD
  5
2D8
102
{ACAD_REACTORS
330
2BB
102
}
100
AcDbXrecord
 10
0.0
 20
0.0
 30
0.0
  0
XRECORD
  5
2D9
102
{ACAD_REACTORS
330
2BB
102
}
100
AcDbXrecord
 10
0.0
 20
0.0
 30
0.0
  0
XRECORD
  5
2D6
102
{ACAD_REACTORS
330
2BB
102
}
100
AcDbXrecord
 10
0.0
 20
0.0
 30
0.0
  0
XRECORD
  5
2D3
102
{ACAD_REACTORS
330
2BB
102
}
100
AcDbXrecord
340
0
  0
XRECORD
  5
2D4
102
{ACAD_REACTORS
330
2BB
102
}
100
AcDbXrecord
 70
     0
  0
XRECORD
  5
2C7
102
{ACAD_REACTORS
330
2BB
102
}
100
AcDbXrecord
  1
{028AA55E-77D5-4E24-8DFF-170697E8888A}
  0
XRECORD
  5
2E1
102
{ACAD_REACTORS
330
2E0
102
}
100
AcDbXrecord
102
EXTNAMES
  1
MODEL
  2
Model
  0
ENDSEC
  0
EOF
