  0
SECTION
  2
HEADER
  9
$ACADVER
  1
AC1014
  9
$ACADMAINTVER
 70
     0
  9
$DWGCODEPAGE
  3
ANSI_932
  9
$INSBASE
 10
0.0
 20
0.0
 30
0.0
  9
$EXTMIN
 10
-61.004573
 20
-67.520126
 30
0.0
  9
$EXTMAX
 10
113.145998
 20
23.541542
 30
30.0
  9
$LIMMIN
 10
-105.325752
 20
-92.817866
  9
$LIMMAX
 10
161.06464
 20
60.2322
  9
$ORTHOMODE
 70
     0
  9
$REGENMODE
 70
     1
  9
$FILLMODE
 70
     1
  9
$QTEXTMODE
 70
     0
  9
$MIRRTEXT
 70
     1
  9
$DRAGMODE
 70
     2
  9
$LTSCALE
 40
1.0
  9
$OSMODE
 70
    33
  9
$ATTMODE
 70
     1
  9
$TEXTSIZE
 40
0.2
  9
$TRACEWID
 40
0.05
  9
$TEXTSTYLE
  7
STANDARD
  9
$CLAYER
  8
寸法
  9
$CELTYPE
  6
CONTINUOUS
  9
$CECOLOR
 62
   256
  9
$CELTSCALE
 40
1.0
  9
$DELOBJ
 70
     1
  9
$DISPSILH
 70
     0
  9
$DIMSCALE
 40
1.0
  9
$DIMASZ
 40
2.0
  9
$DIMEXO
 40
1.0
  9
$DIMDLI
 40
10.0
  9
$DIMRND
 40
0.0
  9
$DIMDLE
 40
0.0
  9
$DIMEXE
 40
1.0
  9
$DIMTP
 40
0.0
  9
$DIMTM
 40
0.0
  9
$DIMTXT
 40
3.0
  9
$DIMCEN
 40
2.0
  9
$DIMTSZ
 40
0.0
  9
$DIMTOL
 70
     0
  9
$DIMLIM
 70
     0
  9
$DIMTIH
 70
     0
  9
$DIMTOH
 70
     0
  9
$DIMSE1
 70
     0
  9
$DIMSE2
 70
     0
  9
$DIMTAD
 70
     1
  9
$DIMZIN
 70
     8
  9
$DIMBLK
  1
OPEN90
  9
$DIMASO
 70
     1
  9
$DIMSHO
 70
     1
  9
$DIMPOST
  1

  9
$DIMAPOST
  1

  9
$DIMALT
 70
     0
  9
$DIMALTD
 70
     2
  9
$DIMALTF
 40
25.4
  9
$DIMLFAC
 40
1.0
  9
$DIMTOFL
 70
     1
  9
$DIMTVP
 40
0.0
  9
$DIMTIX
 70
     0
  9
$DIMSOXD
 70
     0
  9
$DIMSAH
 70
     1
  9
$DIMBLK1
  1
_OPEN30
  9
$DIMBLK2
  1
_OPEN30
  9
$DIMSTYLE
  2
STANDARD
  9
$DIMCLRD
 70
     1
  9
$DIMCLRE
 70
     1
  9
$DIMCLRT
 70
     1
  9
$DIMTFAC
 40
1.0
  9
$DIMGAP
 40
1.0
  9
$DIMJUST
 70
     0
  9
$DIMSD1
 70
     0
  9
$DIMSD2
 70
     0
  9
$DIMTOLJ
 70
     1
  9
$DIMTZIN
 70
     0
  9
$DIMALTZ
 70
     0
  9
$DIMALTTZ
 70
     0
  9
$DIMFIT
 70
     3
  9
$DIMUPT
 70
     0
  9
$DIMUNIT
 70
     2
  9
$DIMDEC
 70
     2
  9
$DIMTDEC
 70
     2
  9
$DIMALTU
 70
     2
  9
$DIMALTTD
 70
     2
  9
$DIMTXSTY
  7
STANDARD
  9
$DIMAUNIT
 70
     0
  9
$LUNITS
 70
     2
  9
$LUPREC
 70
     4
  9
$SKETCHINC
 40
0.1
  9
$FILLETRAD
 40
0.0
  9
$AUNITS
 70
     0
  9
$AUPREC
 70
     0
  9
$MENU
  1
acad
  9
$ELEVATION
 40
0.0
  9
$PELEVATION
 40
0.0
  9
$THICKNESS
 40
0.0
  9
$LIMCHECK
 70
     0
  9
$BLIPMODE
 70
     0
  9
$CHAMFERA
 40
0.0
  9
$CHAMFERB
 40
0.0
  9
$CHAMFERC
 40
0.0
  9
$CHAMFERD
 40
0.0
  9
$SKPOLY
 70
     0
  9
$TDCREATE
 40
2444972.375000000
  9
$TDUPDATE
 40
2451977.442523148
  9
$TDINDWG
 40
0.0108342593
  9
$TDUSRTIMER
 40
0.0108342593
  9
$USRTIMER
 70
     1
  9
$ANGBASE
 50
0.0
  9
$ANGDIR
 70
     0
  9
$PDMODE
 70
     0
  9
$PDSIZE
 40
0.0
  9
$PLINEWID
 40
0.0
  9
$COORDS
 70
     1
  9
$SPLFRAME
 70
     0
  9
$SPLINETYPE
 70
     6
  9
$SPLINESEGS
 70
     8
  9
$ATTDIA
 70
     0
  9
$ATTREQ
 70
     1
  9
$HANDLING
 70
     1
  9
$HANDSEED
  5
40C
  9
$SURFTAB1
 70
     6
  9
$SURFTAB2
 70
     6
  9
$SURFTYPE
 70
     6
  9
$SURFU
 70
     6
  9
$SURFV
 70
     6
  9
$UCSNAME
  2

  9
$UCSORG
 10
0.0
 20
0.0
 30
0.0
  9
$UCSXDIR
 10
1.0
 20
0.0
 30
0.0
  9
$UCSYDIR
 10
0.0
 20
1.0
 30
0.0
  9
$PUCSNAME
  2

  9
$PUCSORG
 10
0.0
 20
0.0
 30
0.0
  9
$PUCSXDIR
 10
1.0
 20
0.0
 30
0.0
  9
$PUCSYDIR
 10
0.0
 20
1.0
 30
0.0
  9
$USERI1
 70
     0
  9
$USERI2
 70
     0
  9
$USERI3
 70
     0
  9
$USERI4
 70
     0
  9
$USERI5
 70
     0
  9
$USERR1
 40
0.0
  9
$USERR2
 40
0.0
  9
$USERR3
 40
0.0
  9
$USERR4
 40
0.0
  9
$USERR5
 40
0.0
  9
$WORLDVIEW
 70
     1
  9
$SHADEDGE
 70
     3
  9
$SHADEDIF
 70
    70
  9
$TILEMODE
 70
     1
  9
$MAXACTVP
 70
    48
  9
$PINSBASE
 10
0.0
 20
0.0
 30
0.0
  9
$PLIMCHECK
 70
     0
  9
$PEXTMIN
 10
1.000000E+20
 20
1.000000E+20
 30
1.000000E+20
  9
$PEXTMAX
 10
-1.000000E+20
 20
-1.000000E+20
 30
-1.000000E+20
  9
$PLIMMIN
 10
0.0
 20
0.0
  9
$PLIMMAX
 10
12.0
 20
9.0
  9
$UNITMODE
 70
     0
  9
$VISRETAIN
 70
     1
  9
$PLINEGEN
 70
     0
  9
$PSLTSCALE
 70
     1
  9
$TREEDEPTH
 70
  3020
  9
$PICKSTYLE
 70
     1
  9
$CMLSTYLE
  2
STANDARD
  9
$CMLJUST
 70
     0
  9
$CMLSCALE
 40
1.0
  9
$PROXYGRAPHICS
 70
     1
  9
$MEASUREMENT
 70
     0
  0
ENDSEC
  0
SECTION
  2
CLASSES
  0
CLASS
  1
ACDBDICTIONARYWDFLT
  2
AcDbDictionaryWithDefault
  3
AutoCAD 2000
 90
        0
280
     0
281
     0
  0
CLASS
  1
ACDBPLACEHOLDER
  2
AcDbPlaceHolder
  3
AutoCAD 2000
 90
        0
280
     0
281
     0
  0
CLASS
  1
LAYOUT
  2
AcDbLayout
  3
AutoCAD 2000
 90
        0
280
     0
281
     0
  0
CLASS
  1
LONG_TRANSACTION
  2
AcDbLongTransaction
  3
AutoCAD 2000
 90
        0
280
     0
281
     0
  0
CLASS
  1
LWPOLYLINE
  2
AcDbPolyline
  3
"AutoCAD"
 90
        0
280
     0
281
     1
  0
CLASS
  1
HATCH
  2
AcDbHatch
  3
"ACAD_SEDONA"
 90
        0
280
     0
281
     1
  0
CLASS
  1
XRECORD
  2
AcDbXrecord
  3
"<Built In>"
 90
        0
280
     0
281
     0
  0
CLASS
  1
LONG_TRANSACTION
  2
AcDbLongTransaction
  3
AutoCAD 2000
 90
        0
280
     0
281
     0
  0
CLASS
  1
LWPOLYLINE
  2
AcDbPolyline
  3
"AutoCAD"
 90
        0
280
     0
281
     1
  0
CLASS
  1
HATCH
  2
AcDbHatch
  3
"ACAD_SEDONA"
 90
        0
280
     0
281
     1
  0
CLASS
  1
XRECORD
  2
AcDbXrecord
  3
"<Built In>"
 90
        0
280
     0
281
     0
  0
ENDSEC
  0
SECTION
  2
TABLES
  0
TABLE
  2
VPORT
  5
8
100
AcDbSymbolTable
 70
     2
  0
VPORT
  5
40B
100
AcDbSymbolTableRecord
100
AcDbViewportTableRecord
  2
*ACTIVE
 70
     0
 10
0.0
 20
0.0
 11
1.0
 21
1.0
 12
63.230634
 22
-29.603358
 13
0.0
 23
0.0
 14
10.0
 24
10.0
 15
10.0
 25
10.0
 16
0.0
 26
0.0
 36
1.0
 17
0.0
 27
0.0
 37
0.0
 40
165.060204
 41
1.710425
 42
50.0
 43
0.0
 44
0.0
 50
0.0
 51
0.0
 71
     0
 72
   100
 73
     1
 74
     1
 75
     0
 76
     0
 77
     0
 78
     0
  0
ENDTAB
  0
TABLE
  2
LTYPE
  5
5
100
AcDbSymbolTable
 70
     5
  0
LTYPE
  5
12
100
AcDbSymbolTableRecord
100
AcDbLinetypeTableRecord
  2
BYBLOCK
 70
     0
  3

 72
    65
 73
     0
 40
0.0
  0
LTYPE
  5
13
100
AcDbSymbolTableRecord
100
AcDbLinetypeTableRecord
  2
BYLAYER
 70
     0
  3

 72
    65
 73
     0
 40
0.0
  0
LTYPE
  5
14
100
AcDbSymbolTableRecord
100
AcDbLinetypeTableRecord
  2
CONTINUOUS
 70
     0
  3
Solid line
 72
    65
 73
     0
 40
0.0
  0
LTYPE
  5
1F
100
AcDbSymbolTableRecord
100
AcDbLinetypeTableRecord
  2
DASHED
 70
     0
  3
__ __ __ __ __ __ __ __ __ __ __ __ __ __ __
 72
    65
 73
     2
 40
3.5
 49
2.0
 74
     0
 49
-1.5
 74
     0
  0
LTYPE
  5
20
100
AcDbSymbolTableRecord
100
AcDbLinetypeTableRecord
  2
CENTER
 70
     0
  3
____ _ ____ _ ____ _ ____ _ ____ _ ____ _ ____
 72
    65
 73
     4
 40
17.5
 49
13.0
 74
     0
 49
-1.5
 74
     0
 49
1.5
 74
     0
 49
-1.5
 74
     0
  0
LTYPE
  5
21
100
AcDbSymbolTableRecord
100
AcDbLinetypeTableRecord
  2
PHANTOM
 70
     0
  3
_____ _ _ _____ _ _ _____ _ _ _____ _ _ ____  
 72
    65
 73
     6
 40
15.5
 49
8.0
 74
     0
 49
-1.5
 74
     0
 49
1.5
 74
     0
 49
-1.5
 74
     0
 49
1.5
 74
     0
 49
-1.5
 74
     0
  0
LTYPE
  5
22
100
AcDbSymbolTableRecord
100
AcDbLinetypeTableRecord
  2
DOT
 70
     0
  3
. . . . . . . . . . . . . . . . . . . . . . . .
 72
    65
 73
     2
 40
0.25
 49
0.0
 74
     0
 49
-0.25
 74
     0
  0
ENDTAB
  0
TABLE
  2
LAYER
  5
2
100
AcDbSymbolTable
 70
     3
  0
LAYER
  5
E
100
AcDbSymbolTableRecord
100
AcDbLayerTableRecord
  2
0
 70
     0
 62
     7
  6
CONTINUOUS
  0
LAYER
  5
1E9
100
AcDbSymbolTableRecord
100
AcDbLayerTableRecord
  2
寸法
 70
     0
 62
     1
  6
CONTINUOUS
  0
LAYER
  5
1F9
102
{ACAD_XDICTIONARY
360
331
102
}
100
AcDbSymbolTableRecord
100
AcDbLayerTableRecord
  2
DEFPOINTS
 70
     0
 62
     7
  6
CONTINUOUS
  0
ENDTAB
  0
TABLE
  2
STYLE
  5
3
100
AcDbSymbolTable
 70
     1
  0
STYLE
  5
F
100
AcDbSymbolTableRecord
100
AcDbTextStyleTableRecord
  2
STANDARD
 70
     0
 40
0.0
 41
1.0
 50
0.0
 71
     0
 42
0.2
  3
txt
  4
BIGFONT
  0
ENDTAB
  0
TABLE
  2
VIEW
  5
6
100
AcDbSymbolTable
 70
     0
  0
ENDTAB
  0
TABLE
  2
UCS
  5
7
100
AcDbSymbolTable
 70
     0
  0
ENDTAB
  0
TABLE
  2
APPID
  5
9
100
AcDbSymbolTable
 70
     1
  0
APPID
  5
10
100
AcDbSymbolTableRecord
100
AcDbRegAppTableRecord
  2
ACAD
 70
     0
  0
ENDTAB
  0
TABLE
  2
DIMSTYLE
  5
A
100
AcDbSymbolTable
 70
     1
  0
DIMSTYLE
105
1DB
102
{ACAD_XDICTIONARY
360
358
102
}
102
{ACAD_REACTORS
330
213
330
22D
330
23A
330
247
330
256
330
263
330
270
330
286
330
293
330
2A0
330
2BD
102
}
100
AcDbSymbolTableRecord
100
AcDbDimStyleTableRecord
  2
STANDARD
 70
     0
  3

  4

  5
OPEN90
  6
_OPEN30
  7
_OPEN30
 40
1.0
 41
2.0
 42
1.0
 43
10.0
 44
1.0
 45
0.0
 46
0.0
 47
0.0
 48
0.0
140
3.0
141
2.0
142
0.0
143
25.4
144
1.0
145
0.0
146
1.0
147
1.0
 71
     0
 72
     0
 73
     0
 74
     0
 75
     0
 76
     0
 77
     1
 78
     8
170
     0
171
     2
172
     1
173
     1
174
     0
175
     0
176
     1
177
     1
178
     1
270
     2
271
     2
272
     2
273
     2
274
     2
340
F
275
     0
280
     0
281
     0
282
     0
283
     1
284
     0
285
     0
286
     0
287
     3
288
     0
  0
ENDTAB
  0
TABLE
  2
BLOCK_RECORD
  5
1
100
AcDbSymbolTable
 70
    13
  0
BLOCK_RECORD
  5
18
102
{ACAD_XDICTIONARY
360
30F
102
}
100
AcDbSymbolTableRecord
100
AcDbBlockTableRecord
  2
*MODEL_SPACE
  0
BLOCK_RECORD
  5
15
102
{ACAD_XDICTIONARY
360
30D
102
}
100
AcDbSymbolTableRecord
100
AcDbBlockTableRecord
  2
*PAPER_SPACE
  0
BLOCK_RECORD
  5
1EA
102
{ACAD_XDICTIONARY
360
32D
102
}
100
AcDbSymbolTableRecord
100
AcDbBlockTableRecord
  2
_OPEN90
  0
BLOCK_RECORD
  5
1F0
102
{ACAD_XDICTIONARY
360
32F
102
}
100
AcDbSymbolTableRecord
100
AcDbBlockTableRecord
  2
_OPEN30
  0
BLOCK_RECORD
  5
214
100
AcDbSymbolTableRecord
100
AcDbBlockTableRecord
  2
*D2
  0
BLOCK_RECORD
  5
22E
100
AcDbSymbolTableRecord
100
AcDbBlockTableRecord
  2
*D3
  0
BLOCK_RECORD
  5
23B
100
AcDbSymbolTableRecord
100
AcDbBlockTableRecord
  2
*D4
  0
BLOCK_RECORD
  5
248
100
AcDbSymbolTableRecord
100
AcDbBlockTableRecord
  2
*D5
  0
BLOCK_RECORD
  5
257
100
AcDbSymbolTableRecord
100
AcDbBlockTableRecord
  2
*D6
  0
BLOCK_RECORD
  5
264
100
AcDbSymbolTableRecord
100
AcDbBlockTableRecord
  2
*D7
  0
BLOCK_RECORD
  5
271
100
AcDbSymbolTableRecord
100
AcDbBlockTableRecord
  2
*D8
  0
BLOCK_RECORD
  5
287
100
AcDbSymbolTableRecord
100
AcDbBlockTableRecord
  2
*D9
  0
BLOCK_RECORD
  5
294
100
AcDbSymbolTableRecord
100
AcDbBlockTableRecord
  2
*D10
  0
BLOCK_RECORD
  5
2A1
100
AcDbSymbolTableRecord
100
AcDbBlockTableRecord
  2
*D11
  0
BLOCK_RECORD
  5
2BE
100
AcDbSymbolTableRecord
100
AcDbBlockTableRecord
  2
*D12
  0
ENDTAB
  0
ENDSEC
  0
SECTION
  2
BLOCKS
  0
BLOCK
  5
19
100
AcDbEntity
  8
0
100
AcDbBlockBegin
  2
*MODEL_SPACE
 70
     0
 10
0.0
 20
0.0
 30
0.0
  3
*MODEL_SPACE
  1

  0
ENDBLK
  5
1A
100
AcDbEntity
  8
0
100
AcDbBlockEnd
  0
BLOCK
  5
16
100
AcDbEntity
 67
     1
  8
0
100
AcDbBlockBegin
  2
*PAPER_SPACE
 70
     0
 10
0.0
 20
0.0
 30
0.0
  3
*PAPER_SPACE
  1

  0
ENDBLK
  5
17
100
AcDbEntity
 67
     1
  8
0
100
AcDbBlockEnd
  0
BLOCK
  5
1EE
100
AcDbEntity
  8
0
100
AcDbBlockBegin
  2
_OPEN90
 70
     0
 10
0.0
 20
0.0
 30
0.0
  3
_OPEN90
  1

  0
LINE
  5
1EB
100
AcDbEntity
  8
0
  6
BYBLOCK
 62
     0
100
AcDbLine
 10
-0.5
 20
0.5
 30
0.0
 11
0.0
 21
0.0
 31
0.0
1001
ACAD
1000
RTLwPs
1070
   158
  0
LINE
  5
1EC
100
AcDbEntity
  8
0
  6
BYBLOCK
 62
     0
100
AcDbLine
 10
0.0
 20
0.0
 30
0.0
 11
-0.5
 21
-0.5
 31
0.0
1001
ACAD
1000
RTLwPs
1070
   158
  0
LINE
  5
1ED
100
AcDbEntity
  8
0
  6
BYBLOCK
 62
     0
100
AcDbLine
 10
0.0
 20
0.0
 30
0.0
 11
-1.0
 21
0.0
 31
0.0
1001
ACAD
1000
RTLwPs
1070
   158
  0
ENDBLK
  5
1EF
100
AcDbEntity
  8
0
100
AcDbBlockEnd
  0
BLOCK
  5
1F4
100
AcDbEntity
  8
0
100
AcDbBlockBegin
  2
_OPEN30
 70
     0
 10
0.0
 20
0.0
 30
0.0
  3
_OPEN30
  1

  0
LINE
  5
1F1
100
AcDbEntity
  8
0
  6
BYBLOCK
 62
     0
100
AcDbLine
 10
-1.0
 20
0.267949
 30
0.0
 11
0.0
 21
0.0
 31
0.0
1001
ACAD
1000
RTLwPs
1070
   158
  0
LINE
  5
1F2
100
AcDbEntity
  8
0
  6
BYBLOCK
 62
     0
100
AcDbLine
 10
0.0
 20
0.0
 30
0.0
 11
-1.0
 21
-0.267949
 31
0.0
1001
ACAD
1000
RTLwPs
1070
   158
  0
LINE
  5
1F3
100
AcDbEntity
  8
0
  6
BYBLOCK
 62
     0
100
AcDbLine
 10
0.0
 20
0.0
 30
0.0
 11
-1.0
 21
0.0
 31
0.0
1001
ACAD
1000
RTLwPs
1070
   158
  0
ENDBLK
  5
1F5
100
AcDbEntity
  8
0
100
AcDbBlockEnd
  0
BLOCK
  5
37F
100
AcDbEntity
  8
0
100
AcDbBlockBegin
  2
*D2
 70
     1
 10
0.0
 20
0.0
 30
0.0
  3
*D2
  1

  0
LINE
  5
380
100
AcDbEntity
  8
0
  6
BYBLOCK
 62
     1
100
AcDbLine
 10
92.0
 20
-38.187685
 30
0.0
 11
101.0
 21
-38.187685
 31
0.0
  0
LINE
  5
381
100
AcDbEntity
  8
0
  6
BYBLOCK
 62
     1
100
AcDbLine
 10
90.931421
 20
-43.187683
 30
0.0
 11
101.0
 21
-43.187683
 31
0.0
  0
LINE
  5
382
100
AcDbEntity
  8
0
  6
BYBLOCK
 62
     1
100
AcDbLine
 10
100.0
 20
-36.187685
 30
0.0
 11
100.0
 21
-34.187685
 31
0.0
  0
LINE
  5
383
100
AcDbEntity
  8
0
  6
BYBLOCK
 62
     1
100
AcDbLine
 10
100.0
 20
-45.187683
 30
0.0
 11
100.0
 21
-47.187683
 31
0.0
  0
LINE
  5
384
100
AcDbEntity
  8
0
  6
BYBLOCK
 62
     1
100
AcDbLine
 10
100.0
 20
-38.187685
 30
0.0
 11
100.0
 21
-43.187683
 31
0.0
  0
INSERT
  5
385
100
AcDbEntity
  8
0
  6
BYBLOCK
 62
     1
100
AcDbBlockReference
  2
_OPEN30
 10
100.0
 20
-38.187685
 30
0.0
 41
2.0
 42
2.0
 43
2.0
 50
270.0
  0
INSERT
  5
386
100
AcDbEntity
  8
0
  6
BYBLOCK
 62
     1
100
AcDbBlockReference
  2
_OPEN30
 10
100.0
 20
-43.187683
 30
0.0
 41
2.0
 42
2.0
 43
2.0
 50
90.0
  0
MTEXT
  5
387
100
AcDbEntity
  8
0
  6
BYBLOCK
 62
     1
100
AcDbMText
 10
97.5
 20
-40.687684
 30
0.0
 40
3.0
 41
0.0
 71
     5
 72
     1
  1
\A1;5
 11
0.0
 21
1.0
 31
0.0
  0
POINT
  5
388
100
AcDbEntity
  8
DEFPOINTS
  6
BYBLOCK
 62
     0
100
AcDbPoint
 10
91.0
 20
-38.187685
 30
0.0
  0
POINT
  5
389
100
AcDbEntity
  8
DEFPOINTS
  6
BYBLOCK
 62
     0
100
AcDbPoint
 10
89.931421
 20
-43.187683
 30
0.0
  0
POINT
  5
38A
100
AcDbEntity
  8
DEFPOINTS
  6
BYBLOCK
 62
     0
100
AcDbPoint
 10
100.0
 20
-43.187683
 30
0.0
  0
ENDBLK
  5
38B
100
AcDbEntity
  8
0
100
AcDbBlockEnd
  0
BLOCK
  5
38C
100
AcDbEntity
  8
0
100
AcDbBlockBegin
  2
*D3
 70
     1
 10
0.0
 20
0.0
 30
0.0
  3
*D3
  1

  0
LINE
  5
38D
100
AcDbEntity
  8
0
  6
BYBLOCK
 62
     1
100
AcDbLine
 10
43.0
 20
-30.687683
 30
0.0
 11
61.0
 21
-30.687683
 31
0.0
  0
LINE
  5
38E
100
AcDbEntity
  8
0
  6
BYBLOCK
 62
     1
100
AcDbLine
 10
43.0
 20
-43.187683
 30
0.0
 11
61.0
 21
-43.187683
 31
0.0
  0
LINE
  5
38F
100
AcDbEntity
  8
0
  6
BYBLOCK
 62
     1
100
AcDbLine
 10
60.0
 20
-32.687683
 30
0.0
 11
60.0
 21
-41.187683
 31
0.0
  0
INSERT
  5
390
100
AcDbEntity
  8
0
  6
BYBLOCK
 62
     1
100
AcDbBlockReference
  2
_OPEN30
 10
60.0
 20
-30.687683
 30
0.0
 41
2.0
 42
2.0
 43
2.0
 50
90.0
  0
INSERT
  5
391
100
AcDbEntity
  8
0
  6
BYBLOCK
 62
     1
100
AcDbBlockReference
  2
_OPEN30
 10
60.0
 20
-43.187683
 30
0.0
 41
2.0
 42
2.0
 43
2.0
 50
270.0
  0
MTEXT
  5
392
100
AcDbEntity
  8
0
  6
BYBLOCK
 62
     1
100
AcDbMText
 10
57.5
 20
-36.937683
 30
0.0
 40
3.0
 41
0.0
 71
     5
 72
     1
  1
\A1;12.5
 11
0.0
 21
1.0
 31
0.0
  0
POINT
  5
393
100
AcDbEntity
  8
DEFPOINTS
  6
BYBLOCK
 62
     0
100
AcDbPoint
 10
42.0
 20
-30.687683
 30
0.0
  0
POINT
  5
394
100
AcDbEntity
  8
DEFPOINTS
  6
BYBLOCK
 62
     0
100
AcDbPoint
 10
42.0
 20
-43.187683
 30
0.0
  0
POINT
  5
395
100
AcDbEntity
  8
DEFPOINTS
  6
BYBLOCK
 62
     0
100
AcDbPoint
 10
60.0
 20
-43.187683
 30
0.0
  0
ENDBLK
  5
396
100
AcDbEntity
  8
0
100
AcDbBlockEnd
  0
BLOCK
  5
397
100
AcDbEntity
  8
0
100
AcDbBlockBegin
  2
*D4
 70
     1
 10
0.0
 20
0.0
 30
0.0
  3
*D4
  1

  0
LINE
  5
398
100
AcDbEntity
  8
0
  6
BYBLOCK
 62
     1
100
AcDbLine
 10
-0.999999
 20
-33.187683
 30
0.0
 11
-11.0
 21
-33.187683
 31
0.0
  0
LINE
  5
399
100
AcDbEntity
  8
0
  6
BYBLOCK
 62
     1
100
AcDbLine
 10
-1.204011
 20
-43.187683
 30
0.0
 11
-11.0
 21
-43.187683
 31
0.0
  0
LINE
  5
39A
100
AcDbEntity
  8
0
  6
BYBLOCK
 62
     1
100
AcDbLine
 10
-10.0
 20
-35.187683
 30
0.0
 11
-10.0
 21
-41.187683
 31
0.0
  0
INSERT
  5
39B
100
AcDbEntity
  8
0
  6
BYBLOCK
 62
     1
100
AcDbBlockReference
  2
_OPEN30
 10
-10.0
 20
-33.187683
 30
0.0
 41
2.0
 42
2.0
 43
2.0
 50
90.0
  0
INSERT
  5
39C
100
AcDbEntity
  8
0
  6
BYBLOCK
 62
     1
100
AcDbBlockReference
  2
_OPEN30
 10
-10.0
 20
-43.187683
 30
0.0
 41
2.0
 42
2.0
 43
2.0
 50
270.0
  0
MTEXT
  5
39D
100
AcDbEntity
  8
0
  6
BYBLOCK
 62
     1
100
AcDbMText
 10
-12.5
 20
-38.187683
 30
0.0
 40
3.0
 41
0.0
 71
     5
 72
     1
  1
\A1;10
 11
0.0
 21
1.0
 31
0.0
  0
POINT
  5
39E
100
AcDbEntity
  8
DEFPOINTS
  6
BYBLOCK
 62
     0
100
AcDbPoint
 10
0.000001
 20
-33.187683
 30
0.0
  0
POINT
  5
39F
100
AcDbEntity
  8
DEFPOINTS
  6
BYBLOCK
 62
     0
100
AcDbPoint
 10
-0.204011
 20
-43.187683
 30
0.0
  0
POINT
  5
3A0
100
AcDbEntity
  8
DEFPOINTS
  6
BYBLOCK
 62
     0
100
AcDbPoint
 10
-10.0
 20
-43.187683
 30
0.0
  0
ENDBLK
  5
3A1
100
AcDbEntity
  8
0
100
AcDbBlockEnd
  0
BLOCK
  5
3A2
100
AcDbEntity
  8
0
100
AcDbBlockBegin
  2
*D5
 70
     1
 10
0.0
 20
0.0
 30
0.0
  3
*D5
  1

  0
LINE
  5
3A3
100
AcDbEntity
  8
0
  6
BYBLOCK
 62
     1
100
AcDbLine
 10
31.0
 20
-41.709762
 30
0.0
 11
31.0
 21
-51.0
 31
0.0
  0
LINE
  5
3A4
100
AcDbEntity
  8
0
  6
BYBLOCK
 62
     1
100
AcDbLine
 10
29.0
 20
-42.071674
 30
0.0
 11
29.0
 21
-51.0
 31
0.0
  0
LINE
  5
3A5
100
AcDbEntity
  8
0
  6
BYBLOCK
 62
     1
100
AcDbLine
 10
33.0
 20
-50.0
 30
0.0
 11
35.0
 21
-50.0
 31
0.0
  0
LINE
  5
3A6
100
AcDbEntity
  8
0
  6
BYBLOCK
 62
     1
100
AcDbLine
 10
27.0
 20
-50.0
 30
0.0
 11
21.0
 21
-50.0
 31
0.0
  0
LINE
  5
3A7
100
AcDbEntity
  8
0
  6
BYBLOCK
 62
     1
100
AcDbLine
 10
31.0
 20
-50.0
 30
0.0
 11
29.0
 21
-50.0
 31
0.0
  0
INSERT
  5
3A8
100
AcDbEntity
  8
0
  6
BYBLOCK
 62
     1
100
AcDbBlockReference
  2
_OPEN30
 10
31.0
 20
-50.0
 30
0.0
 41
2.0
 42
2.0
 43
2.0
 50
180.0
  0
INSERT
  5
3A9
100
AcDbEntity
  8
0
  6
BYBLOCK
 62
     1
100
AcDbBlockReference
  2
_OPEN30
 10
29.0
 20
-50.0
 30
0.0
 41
2.0
 42
2.0
 43
2.0
  0
MTEXT
  5
3AA
100
AcDbEntity
  8
0
  6
BYBLOCK
 62
     1
100
AcDbMText
 10
23.0
 20
-47.5
 30
0.0
 40
3.0
 41
0.0
 71
     5
 72
     1
  1
\A1;2
  0
POINT
  5
3AB
100
AcDbEntity
  8
DEFPOINTS
  6
BYBLOCK
 62
     0
100
AcDbPoint
 10
31.0
 20
-40.709762
 30
0.0
  0
POINT
  5
3AC
100
AcDbEntity
  8
DEFPOINTS
  6
BYBLOCK
 62
     0
100
AcDbPoint
 10
29.0
 20
-41.071674
 30
0.0
  0
POINT
  5
3AD
100
AcDbEntity
  8
DEFPOINTS
  6
BYBLOCK
 62
     0
100
AcDbPoint
 10
29.0
 20
-50.0
 30
0.0
  0
ENDBLK
  5
3AE
100
AcDbEntity
  8
0
100
AcDbBlockEnd
  0
BLOCK
  5
3AF
100
AcDbEntity
  8
0
100
AcDbBlockBegin
  2
*D6
 70
     1
 10
0.0
 20
0.0
 30
0.0
  3
*D6
  1

  0
LINE
  5
3B0
100
AcDbEntity
  8
0
  6
BYBLOCK
 62
     1
100
AcDbLine
 10
50.0
 20
-34.187683
 30
0.0
 11
50.0
 21
-19.0
 31
0.0
  0
LINE
  5
3B1
100
AcDbEntity
  8
0
  6
BYBLOCK
 62
     1
100
AcDbLine
 10
30.0
 20
-27.776428
 30
0.0
 11
30.0
 21
-19.0
 31
0.0
  0
LINE
  5
3B2
100
AcDbEntity
  8
0
  6
BYBLOCK
 62
     1
100
AcDbLine
 10
48.0
 20
-20.0
 30
0.0
 11
32.0
 21
-20.0
 31
0.0
  0
INSERT
  5
3B3
100
AcDbEntity
  8
0
  6
BYBLOCK
 62
     1
100
AcDbBlockReference
  2
_OPEN30
 10
50.0
 20
-20.0
 30
0.0
 41
2.0
 42
2.0
 43
2.0
  0
INSERT
  5
3B4
100
AcDbEntity
  8
0
  6
BYBLOCK
 62
     1
100
AcDbBlockReference
  2
_OPEN30
 10
30.0
 20
-20.0
 30
0.0
 41
2.0
 42
2.0
 43
2.0
 50
180.0
  0
MTEXT
  5
3B5
100
AcDbEntity
  8
0
  6
BYBLOCK
 62
     1
100
AcDbMText
 10
40.0
 20
-17.5
 30
0.0
 40
3.0
 41
0.0
 71
     5
 72
     1
  1
\A1;20
  0
POINT
  5
3B6
100
AcDbEntity
  8
DEFPOINTS
  6
BYBLOCK
 62
     0
100
AcDbPoint
 10
50.0
 20
-35.187683
 30
0.0
  0
POINT
  5
3B7
100
AcDbEntity
  8
DEFPOINTS
  6
BYBLOCK
 62
     0
100
AcDbPoint
 10
30.0
 20
-28.776428
 30
0.0
  0
POINT
  5
3B8
100
AcDbEntity
  8
DEFPOINTS
  6
BYBLOCK
 62
     0
100
AcDbPoint
 10
30.0
 20
-20.0
 30
0.0
  0
ENDBLK
  5
3B9
100
AcDbEntity
  8
0
100
AcDbBlockEnd
  0
BLOCK
  5
3BA
100
AcDbEntity
  8
0
100
AcDbBlockBegin
  2
*D7
 70
     1
 10
0.0
 20
0.0
 30
0.0
  3
*D7
  1

  0
LINE
  5
3BB
100
AcDbEntity
  8
0
  6
BYBLOCK
 62
     1
100
AcDbLine
 10
49.999989
 20
10.041541
 30
0.0
 11
49.999989
 21
-11.0
 31
0.0
  0
LINE
  5
3BC
100
AcDbEntity
  8
0
  6
BYBLOCK
 62
     1
100
AcDbLine
 10
0.000001
 20
3.541536
 30
0.0
 11
0.000001
 21
-11.0
 31
0.0
  0
LINE
  5
3BD
100
AcDbEntity
  8
0
  6
BYBLOCK
 62
     1
100
AcDbLine
 10
47.999989
 20
-10.0
 30
0.0
 11
2.000001
 21
-10.0
 31
0.0
  0
INSERT
  5
3BE
100
AcDbEntity
  8
0
  6
BYBLOCK
 62
     1
100
AcDbBlockReference
  2
_OPEN30
 10
49.999989
 20
-10.0
 30
0.0
 41
2.0
 42
2.0
 43
2.0
  0
INSERT
  5
3BF
100
AcDbEntity
  8
0
  6
BYBLOCK
 62
     1
100
AcDbBlockReference
  2
_OPEN30
 10
0.000001
 20
-10.0
 30
0.0
 41
2.0
 42
2.0
 43
2.0
 50
180.0
  0
MTEXT
  5
3C0
100
AcDbEntity
  8
0
  6
BYBLOCK
 62
     1
100
AcDbMText
 10
24.999995
 20
-7.5
 30
0.0
 40
3.0
 41
0.0
 71
     5
 72
     1
  1
\A1;50
  0
POINT
  5
3C1
100
AcDbEntity
  8
DEFPOINTS
  6
BYBLOCK
 62
     0
100
AcDbPoint
 10
49.999989
 20
11.041541
 30
0.0
  0
POINT
  5
3C2
100
AcDbEntity
  8
DEFPOINTS
  6
BYBLOCK
 62
     0
100
AcDbPoint
 10
0.000001
 20
4.541536
 30
0.0
  0
POINT
  5
3C3
100
AcDbEntity
  8
DEFPOINTS
  6
BYBLOCK
 62
     0
100
AcDbPoint
 10
0.000001
 20
-10.0
 30
0.0
  0
ENDBLK
  5
3C4
100
AcDbEntity
  8
0
100
AcDbBlockEnd
  0
BLOCK
  5
3C5
100
AcDbEntity
  8
0
100
AcDbBlockBegin
  2
*D8
 70
     1
 10
0.0
 20
0.0
 30
0.0
  3
*D8
  1

  0
LINE
  5
3C6
100
AcDbEntity
  8
0
  6
BYBLOCK
 62
     1
100
AcDbLine
 10
49.999989
 20
10.041541
 30
0.0
 11
49.999989
 21
-1.0
 31
0.0
  0
LINE
  5
3C7
100
AcDbEntity
  8
0
  6
BYBLOCK
 62
     1
100
AcDbLine
 10
42.0
 20
6.541545
 30
0.0
 11
42.0
 21
-1.0
 31
0.0
  0
LINE
  5
3C8
100
AcDbEntity
  8
0
  6
BYBLOCK
 62
     1
100
AcDbLine
 10
47.999989
 20
0.0
 30
0.0
 11
44.0
 21
0.0
 31
0.0
  0
INSERT
  5
3C9
100
AcDbEntity
  8
0
  6
BYBLOCK
 62
     1
100
AcDbBlockReference
  2
_OPEN30
 10
49.999989
 20
0.0
 30
0.0
 41
2.0
 42
2.0
 43
2.0
  0
INSERT
  5
3CA
100
AcDbEntity
  8
0
  6
BYBLOCK
 62
     1
100
AcDbBlockReference
  2
_OPEN30
 10
42.0
 20
0.0
 30
0.0
 41
2.0
 42
2.0
 43
2.0
 50
180.0
  0
MTEXT
  5
3CB
100
AcDbEntity
  8
0
  6
BYBLOCK
 62
     1
100
AcDbMText
 10
45.999995
 20
2.5
 30
0.0
 40
3.0
 41
0.0
 71
     5
 72
     1
  1
\A1;8
  0
POINT
  5
3CC
100
AcDbEntity
  8
DEFPOINTS
  6
BYBLOCK
 62
     0
100
AcDbPoint
 10
49.999989
 20
11.041541
 30
0.0
  0
POINT
  5
3CD
100
AcDbEntity
  8
DEFPOINTS
  6
BYBLOCK
 62
     0
100
AcDbPoint
 10
42.0
 20
7.541545
 30
0.0
  0
POINT
  5
3CE
100
AcDbEntity
  8
DEFPOINTS
  6
BYBLOCK
 62
     0
100
AcDbPoint
 10
42.0
 20
0.0
 30
0.0
  0
ENDBLK
  5
3CF
100
AcDbEntity
  8
0
100
AcDbBlockEnd
  0
BLOCK
  5
3D0
100
AcDbEntity
  8
0
100
AcDbBlockBegin
  2
*D9
 70
     1
 10
0.0
 20
0.0
 30
0.0
  3
*D9
  1

  0
LINE
  5
3D1
100
AcDbEntity
  8
0
  6
BYBLOCK
 62
     1
100
AcDbLine
 10
43.0
 20
18.541545
 30
0.0
 11
61.0
 21
18.541545
 31
0.0
  0
LINE
  5
3D2
100
AcDbEntity
  8
0
  6
BYBLOCK
 62
     1
100
AcDbLine
 10
43.0
 20
7.541545
 30
0.0
 11
61.0
 21
7.541545
 31
0.0
  0
LINE
  5
3D3
100
AcDbEntity
  8
0
  6
BYBLOCK
 62
     1
100
AcDbLine
 10
60.0
 20
16.541545
 30
0.0
 11
60.0
 21
9.541545
 31
0.0
  0
INSERT
  5
3D4
100
AcDbEntity
  8
0
  6
BYBLOCK
 62
     1
100
AcDbBlockReference
  2
_OPEN30
 10
60.0
 20
18.541545
 30
0.0
 41
2.0
 42
2.0
 43
2.0
 50
90.0
  0
INSERT
  5
3D5
100
AcDbEntity
  8
0
  6
BYBLOCK
 62
     1
100
AcDbBlockReference
  2
_OPEN30
 10
60.0
 20
7.541545
 30
0.0
 41
2.0
 42
2.0
 43
2.0
 50
270.0
  0
MTEXT
  5
3D6
100
AcDbEntity
  8
0
  6
BYBLOCK
 62
     1
100
AcDbMText
 10
57.5
 20
13.041545
 30
0.0
 40
3.0
 41
0.0
 71
     5
 72
     1
  1
\A1;11
 11
0.0
 21
1.0
 31
0.0
  0
POINT
  5
3D7
100
AcDbEntity
  8
DEFPOINTS
  6
BYBLOCK
 62
     0
100
AcDbPoint
 10
42.0
 20
18.541545
 30
0.0
  0
POINT
  5
3D8
100
AcDbEntity
  8
DEFPOINTS
  6
BYBLOCK
 62
     0
100
AcDbPoint
 10
42.0
 20
7.541545
 30
0.0
  0
POINT
  5
3D9
100
AcDbEntity
  8
DEFPOINTS
  6
BYBLOCK
 62
     0
100
AcDbPoint
 10
60.0
 20
7.541545
 30
0.0
  0
ENDBLK
  5
3DA
100
AcDbEntity
  8
0
100
AcDbBlockEnd
  0
BLOCK
  5
3DB
100
AcDbEntity
  8
0
100
AcDbBlockBegin
  2
*D10
 70
     1
 10
0.0
 20
0.0
 30
0.0
  3
*D10
  1

  0
LINE
  5
3DC
100
AcDbEntity
  8
0
  6
BYBLOCK
 62
     1
100
AcDbLine
 10
-1.5
 20
18.541545
 30
0.0
 11
-11.0
 21
18.541545
 31
0.0
  0
LINE
  5
3DD
100
AcDbEntity
  8
0
  6
BYBLOCK
 62
     1
100
AcDbLine
 10
-0.999999
 20
4.541536
 30
0.0
 11
-11.0
 21
4.541536
 31
0.0
  0
LINE
  5
3DE
100
AcDbEntity
  8
0
  6
BYBLOCK
 62
     1
100
AcDbLine
 10
-10.0
 20
16.541545
 30
0.0
 11
-10.0
 21
6.541536
 31
0.0
  0
INSERT
  5
3DF
100
AcDbEntity
  8
0
  6
BYBLOCK
 62
     1
100
AcDbBlockReference
  2
_OPEN30
 10
-10.0
 20
18.541545
 30
0.0
 41
2.0
 42
2.0
 43
2.0
 50
90.0
  0
INSERT
  5
3E0
100
AcDbEntity
  8
0
  6
BYBLOCK
 62
     1
100
AcDbBlockReference
  2
_OPEN30
 10
-10.0
 20
4.541536
 30
0.0
 41
2.0
 42
2.0
 43
2.0
 50
270.0
  0
MTEXT
  5
3E1
100
AcDbEntity
  8
0
  6
BYBLOCK
 62
     1
100
AcDbMText
 10
-12.5
 20
11.541541
 30
0.0
 40
3.0
 41
0.0
 71
     5
 72
     1
  1
\A1;14
 11
0.0
 21
1.0
 31
0.0
  0
POINT
  5
3E2
100
AcDbEntity
  8
DEFPOINTS
  6
BYBLOCK
 62
     0
100
AcDbPoint
 10
-0.5
 20
18.541545
 30
0.0
  0
POINT
  5
3E3
100
AcDbEntity
  8
DEFPOINTS
  6
BYBLOCK
 62
     0
100
AcDbPoint
 10
0.000001
 20
4.541536
 30
0.0
  0
POINT
  5
3E4
100
AcDbEntity
  8
DEFPOINTS
  6
BYBLOCK
 62
     0
100
AcDbPoint
 10
-10.0
 20
4.541536
 30
0.0
  0
ENDBLK
  5
3E5
100
AcDbEntity
  8
0
100
AcDbBlockEnd
  0
BLOCK
  5
3FA
100
AcDbEntity
  8
0
100
AcDbBlockBegin
  2
*D11
 70
     1
 10
0.0
 20
0.0
 30
0.0
  3
*D11
  1

  0
LINE
  5
3FB
100
AcDbEntity
  8
0
  6
BYBLOCK
 62
     1
100
AcDbLine
 10
-0.999999
 20
4.541536
 30
0.0
 11
-5.905658
 21
4.541535
 31
0.0
  0
ARC
  5
3FC
100
AcDbEntity
  8
0
  6
BYBLOCK
 62
     1
100
AcDbCircle
 10
0.000001
 20
4.541536
 30
0.0
 40
4.905659
100
AcDbArc
 50
118.523931
 51
156.476079
  0
INSERT
  5
3FD
100
AcDbEntity
  8
0
  6
BYBLOCK
 62
     1
100
AcDbBlockReference
  2
_OPEN30
 10
-0.427555
 20
9.428527
 30
0.0
 41
2.0
 42
2.0
 43
2.0
 50
16.761964
  0
INSERT
  5
3FE
100
AcDbEntity
  8
0
  6
BYBLOCK
 62
     1
100
AcDbBlockReference
  2
_OPEN30
 10
-4.905658
 20
4.541535
 30
0.0
 41
2.0
 42
2.0
 43
2.0
 50
258.238046
  0
MTEXT
  5
3FF
100
AcDbEntity
  8
0
  6
BYBLOCK
 62
     1
100
AcDbMText
 10
-3.329212
 20
11.156679
 30
0.0
 40
3.0
 41
0.0
 71
     5
 72
     1
  1
\A1;85°
 11
0.893255
 21
0.44955
 31
0.0
  0
POINT
  5
400
100
AcDbEntity
  8
DEFPOINTS
  6
BYBLOCK
 62
     0
100
AcDbPoint
 10
-4.317967
 20
6.869763
 30
0.0
  0
POINT
  5
401
100
AcDbEntity
  8
DEFPOINTS
  6
BYBLOCK
 62
     0
100
AcDbPoint
 10
0.000001
 20
4.541536
 30
0.0
  0
POINT
  5
402
100
AcDbEntity
  8
DEFPOINTS
  6
BYBLOCK
 62
     0
100
AcDbPoint
 10
-0.063891
 20
5.271821
 30
0.0
  0
POINT
  5
403
100
AcDbEntity
  8
DEFPOINTS
  6
BYBLOCK
 62
     0
100
AcDbPoint
 10
-0.754599
 20
13.166661
 30
0.0
  0
POINT
  5
404
100
AcDbEntity
  8
DEFPOINTS
  6
BYBLOCK
 62
     0
100
AcDbPoint
 10
0.733065
 20
4.541536
 30
0.0
  0
ENDBLK
  5
405
100
AcDbEntity
  8
0
100
AcDbBlockEnd
  0
BLOCK
  5
3F2
100
AcDbEntity
  8
0
100
AcDbBlockBegin
  2
*D12
 70
     1
 10
0.0
 20
0.0
 30
0.0
  3
*D12
  1

  0
LINE
  5
3F3
100
AcDbEntity
  8
0
  6
BYBLOCK
 62
     1
100
AcDbLine
 10
-60.883296
 20
11.913063
 30
0.0
 11
-47.781288
 21
16.846357
 31
0.0
  0
MTEXT
  5
3F4
100
AcDbEntity
  8
0
  6
BYBLOCK
 62
     1
100
AcDbMText
 10
-57.084953
 20
16.014598
 30
0.0
 40
3.0
 41
0.0
 71
     5
 72
     1
  1
\A1;\U+220538
 11
0.935858
 21
0.352378
 31
0.0
  0
LINE
  5
3F5
100
AcDbEntity
  8
0
  6
BYBLOCK
 62
     1
100
AcDbLine
 10
-29.999992
 20
23.541542
 30
0.0
 11
-47.781288
 21
16.846357
 31
0.0
  0
INSERT
  5
3F6
100
AcDbEntity
  8
0
  6
BYBLOCK
 62
     1
100
AcDbBlockReference
  2
_OPEN30
 10
-47.781288
 20
16.846357
 30
0.0
 41
2.0
 42
2.0
 43
2.0
 50
20.632843
  0
POINT
  5
3F7
100
AcDbEntity
  8
DEFPOINTS
  6
BYBLOCK
 62
     0
100
AcDbPoint
 10
-47.781288
 20
16.846357
 30
0.0
  0
POINT
  5
3F8
100
AcDbEntity
  8
DEFPOINTS
  6
BYBLOCK
 62
     0
100
AcDbPoint
 10
-29.999992
 20
23.541542
 30
0.0
  0
ENDBLK
  5
3F9
100
AcDbEntity
  8
0
100
AcDbBlockEnd
  0
ENDSEC
  0
SECTION
  2
ENTITIES
  0
POINT
  5
24
100
AcDbEntity
  8
0
  6
CONTINUOUS
 62
     7
100
AcDbPoint
 10
-29.999992
 20
4.541542
 30
0.0
  0
POINT
  5
25
100
AcDbEntity
  8
0
  6
CONTINUOUS
 62
     7
100
AcDbPoint
 10
80.0
 20
-43.187683
 30
0.0
  0
POINT
  5
26
100
AcDbEntity
  8
0
  6
CONTINUOUS
 62
     7
100
AcDbPoint
 10
0.000001
 20
-33.187683
 30
0.0
  0
POINT
  5
27
100
AcDbEntity
  8
0
  6
CONTINUOUS
 62
     7
100
AcDbPoint
 10
0.000001
 20
4.541536
 30
0.0
  0
LINE
  5
28
100
AcDbEntity
  8
0
  6
CONTINUOUS
 62
     7
100
AcDbLine
 10
-0.5
 20
18.541545
 30
0.0
 11
42.0
 21
18.541545
 31
0.0
  0
LINE
  5
29
100
AcDbEntity
  8
0
  6
CONTINUOUS
 62
     7
100
AcDbLine
 10
42.0
 20
18.541545
 30
0.0
 11
42.0
 21
7.541545
 31
0.0
  0
LINE
  5
2A
100
AcDbEntity
  8
0
  6
CONTINUOUS
 62
     7
100
AcDbLine
 10
15.0
 20
7.541545
 30
0.0
 11
42.0
 21
7.541545
 31
0.0
  0
LINE
  5
2B
100
AcDbEntity
  8
0
  6
CENTER
 62
     1
 48
0.5
100
AcDbLine
 10
39.757568
 20
-37.187683
 30
0.0
 11
51.581161
 21
-37.187683
 31
0.0
  0
LINE
  5
2C
100
AcDbEntity
  8
0
  6
CENTER
 62
     1
 48
0.5
100
AcDbLine
 10
2.197029
 20
9.061413
 30
0.0
 11
21.265984
 21
14.170924
 31
0.0
  0
LINE
  5
2D
100
AcDbEntity
  8
0
  6
CENTER
 62
     1
 48
0.5
100
AcDbLine
 10
12.592072
 20
17.456027
 30
0.0
 11
15.397001
 21
6.987886
 31
0.0
  0
LINE
  5
2E
100
AcDbEntity
  8
0
  6
CONTINUOUS
 62
     7
100
AcDbLine
 10
18.385885
 20
11.949818
 30
0.0
 11
19.282907
 21
12.190174
 31
0.0
  0
LINE
  5
2F
100
AcDbEntity
  8
0
  6
CONTINUOUS
 62
     7
100
AcDbLine
 10
17.661192
 20
14.654409
 30
0.0
 11
18.558214
 21
14.894765
 31
0.0
  0
LINE
  5
30
100
AcDbEntity
  8
0
  6
CONTINUOUS
 62
     7
100
AcDbLine
 10
2.955092
 20
10.920975
 30
0.0
 11
3.783313
 21
7.830015
 31
0.0
  0
LINE
  5
31
100
AcDbEntity
  8
0
  6
CONTINUOUS
 62
     7
100
AcDbLine
 10
2.955096
 20
10.920978
 30
0.0
 11
11.791581
 21
16.031394
 31
0.0
  0
LINE
  5
32
100
AcDbEntity
  8
0
  6
CONTINUOUS
 62
     7
100
AcDbLine
 10
3.783312
 20
7.830016
 30
0.0
 11
13.99115
 21
7.822507
 31
0.0
  0
LINE
  5
33
100
AcDbEntity
  8
0
  6
CONTINUOUS
 62
     7
100
AcDbLine
 10
50.0
 20
-35.187683
 30
0.0
 11
50.0
 21
-39.187683
 31
0.0
  0
LINE
  5
34
100
AcDbEntity
  8
0
  6
CONTINUOUS
 62
     7
100
AcDbLine
 10
45.0
 20
-33.187683
 30
0.0
 11
45.0
 21
-41.187683
 31
0.0
  0
LINE
  5
35
100
AcDbEntity
  8
0
  6
CONTINUOUS
 62
     7
100
AcDbLine
 10
47.499996
 20
-41.687683
 30
0.0
 11
49.999996
 21
-39.187683
 31
0.0
  0
LINE
  5
36
100
AcDbEntity
  8
0
  6
CONTINUOUS
 62
     7
100
AcDbLine
 10
47.499992
 20
-32.687675
 30
0.0
 11
49.999996
 21
-35.187679
 31
0.0
  0
LINE
  5
37
100
AcDbEntity
  8
0
  6
CONTINUOUS
 62
     7
100
AcDbLine
 10
45.5
 20
-32.687683
 30
0.0
 11
47.5
 21
-32.687683
 31
0.0
  0
LINE
  5
38
100
AcDbEntity
  8
0
  6
CONTINUOUS
 62
     7
100
AcDbLine
 10
45.5
 20
-41.687683
 30
0.0
 11
47.5
 21
-41.687683
 31
0.0
  0
LINE
  5
39
100
AcDbEntity
  8
0
  6
CONTINUOUS
 62
     7
100
AcDbLine
 10
44.999996
 20
-41.187679
 30
0.0
 11
45.499996
 21
-41.687679
 31
0.0
  0
LINE
  5
3A
100
AcDbEntity
  8
0
  6
CONTINUOUS
 62
     7
100
AcDbLine
 10
44.999992
 20
-33.187675
 30
0.0
 11
45.499992
 21
-32.687675
 31
0.0
  0
LINE
  5
3B
100
AcDbEntity
  8
0
  6
CONTINUOUS
 62
     7
100
AcDbLine
 10
45.5
 20
-41.687683
 30
0.0
 11
45.5
 21
-32.687683
 31
0.0
  0
LINE
  5
3C
100
AcDbEntity
  8
0
  6
CONTINUOUS
 62
     7
100
AcDbLine
 10
47.5
 20
-32.687683
 30
0.0
 11
47.5
 21
-41.687683
 31
0.0
  0
LINE
  5
3D
100
AcDbEntity
  8
0
  6
CONTINUOUS
 62
     7
100
AcDbLine
 10
42.0
 20
-34.687683
 30
0.0
 11
45.0
 21
-34.687683
 31
0.0
  0
LINE
  5
3E
100
AcDbEntity
  8
0
  6
CONTINUOUS
 62
     7
100
AcDbLine
 10
42.0
 20
-39.687683
 30
0.0
 11
45.0
 21
-39.687683
 31
0.0
  0
LINE
  5
3F
100
AcDbEntity
  8
0
  6
CONTINUOUS
 62
     7
100
AcDbLine
 10
43.5
 20
-34.937683
 30
0.0
 11
43.5
 21
-39.437683
 31
0.0
  0
LINE
  5
40
100
AcDbEntity
  8
0
  6
CONTINUOUS
 62
     7
100
AcDbLine
 10
42.0
 20
-39.437683
 30
0.0
 11
43.5
 21
-39.437683
 31
0.0
  0
LINE
  5
41
100
AcDbEntity
  8
0
  6
CONTINUOUS
 62
     7
100
AcDbLine
 10
42.0
 20
-34.937683
 30
0.0
 11
43.5
 21
-34.937683
 31
0.0
  0
LINE
  5
42
100
AcDbEntity
  8
0
  6
CONTINUOUS
 62
     7
100
AcDbLine
 10
43.499996
 20
-34.937679
 30
0.0
 11
43.93301
 21
-34.687679
 31
0.0
  0
LINE
  5
43
100
AcDbEntity
  8
0
  6
CONTINUOUS
 62
     7
100
AcDbLine
 10
43.500004
 20
-39.437675
 30
0.0
 11
43.933018
 21
-39.687675
 31
0.0
  0
LINE
  5
44
100
AcDbEntity
  8
0
  6
CONTINUOUS
 62
     7
100
AcDbLine
 10
-40.0
 20
17.541545
 30
0.0
 11
-40.0
 21
8.339391
 31
0.0
  0
LINE
  5
45
100
AcDbEntity
  8
0
  6
CONTINUOUS
 62
     7
100
AcDbLine
 10
-27.5
 20
17.541544
 30
0.0
 11
-27.5
 21
16.639368
 31
0.0
  0
LINE
  5
46
100
AcDbEntity
  8
0
  6
CENTER
 62
     1
 48
0.5
100
AcDbLine
 10
39.757568
 20
13.041545
 30
0.0
 11
51.581161
 21
13.041545
 31
0.0
  0
LINE
  5
47
100
AcDbEntity
  8
0
  6
CONTINUOUS
 62
     7
100
AcDbLine
 10
50.0
 20
15.041545
 30
0.0
 11
50.0
 21
11.041545
 31
0.0
  0
LINE
  5
48
100
AcDbEntity
  8
0
  6
CONTINUOUS
 62
     7
100
AcDbLine
 10
45.0
 20
17.041545
 30
0.0
 11
45.0
 21
9.041545
 31
0.0
  0
LINE
  5
49
100
AcDbEntity
  8
0
  6
CONTINUOUS
 62
     7
100
AcDbLine
 10
47.499996
 20
8.541549
 30
0.0
 11
49.999989
 21
11.041541
 31
0.0
  0
LINE
  5
4A
100
AcDbEntity
  8
0
  6
CONTINUOUS
 62
     7
100
AcDbLine
 10
47.499985
 20
17.541548
 30
0.0
 11
49.999989
 21
15.041546
 31
0.0
  0
LINE
  5
4B
100
AcDbEntity
  8
0
  6
CONTINUOUS
 62
     7
100
AcDbLine
 10
45.5
 20
17.541545
 30
0.0
 11
47.5
 21
17.541545
 31
0.0
  0
LINE
  5
4C
100
AcDbEntity
  8
0
  6
CONTINUOUS
 62
     7
100
AcDbLine
 10
45.5
 20
8.541545
 30
0.0
 11
47.5
 21
8.541545
 31
0.0
  0
LINE
  5
4D
100
AcDbEntity
  8
0
  6
CONTINUOUS
 62
     7
100
AcDbLine
 10
44.999996
 20
9.041552
 30
0.0
 11
45.499996
 21
8.541551
 31
0.0
  0
LINE
  5
4E
100
AcDbEntity
  8
0
  6
CONTINUOUS
 62
     7
100
AcDbLine
 10
44.999985
 20
17.041546
 30
0.0
 11
45.499985
 21
17.541546
 31
0.0
  0
LINE
  5
4F
100
AcDbEntity
  8
0
  6
CONTINUOUS
 62
     7
100
AcDbLine
 10
45.5
 20
8.541545
 30
0.0
 11
45.5
 21
17.541545
 31
0.0
  0
LINE
  5
50
100
AcDbEntity
  8
0
  6
CONTINUOUS
 62
     7
100
AcDbLine
 10
47.5
 20
17.541545
 30
0.0
 11
47.5
 21
8.541545
 31
0.0
  0
LINE
  5
51
100
AcDbEntity
  8
0
  6
CONTINUOUS
 62
     7
100
AcDbLine
 10
42.0
 20
15.541545
 30
0.0
 11
45.0
 21
15.541545
 31
0.0
  0
LINE
  5
52
100
AcDbEntity
  8
0
  6
CONTINUOUS
 62
     7
100
AcDbLine
 10
42.0
 20
10.541545
 30
0.0
 11
45.0
 21
10.541545
 31
0.0
  0
LINE
  5
53
100
AcDbEntity
  8
0
  6
CONTINUOUS
 62
     7
100
AcDbLine
 10
43.5
 20
15.291545
 30
0.0
 11
43.5
 21
10.791545
 31
0.0
  0
LINE
  5
54
100
AcDbEntity
  8
0
  6
CONTINUOUS
 62
     7
100
AcDbLine
 10
42.0
 20
10.791545
 30
0.0
 11
43.5
 21
10.791545
 31
0.0
  0
LINE
  5
55
100
AcDbEntity
  8
0
  6
CONTINUOUS
 62
     7
100
AcDbLine
 10
42.0
 20
15.291545
 30
0.0
 11
43.5
 21
15.291545
 31
0.0
  0
LINE
  5
56
100
AcDbEntity
  8
0
  6
CONTINUOUS
 62
     7
100
AcDbLine
 10
43.5
 20
15.291545
 30
0.0
 11
43.93301
 21
15.541545
 31
0.0
  0
LINE
  5
57
100
AcDbEntity
  8
0
  6
CONTINUOUS
 62
     7
100
AcDbLine
 10
43.5
 20
10.791545
 30
0.0
 11
43.93301
 21
10.541545
 31
0.0
  0
LINE
  5
58
100
AcDbEntity
  8
0
  6
CONTINUOUS
 62
     7
100
AcDbLine
 10
42.0
 20
-30.687683
 30
0.0
 11
42.0
 21
-43.187683
 31
0.0
  0
LINE
  5
59
100
AcDbEntity
  8
0
  6
CENTER
 62
     1
 48
0.5
100
AcDbLine
 10
29.0
 20
-30.043091
 30
0.0
 11
29.0
 21
-41.071674
 31
0.0
  0
LINE
  5
5A
100
AcDbEntity
  8
0
  6
CENTER
 62
     1
 48
0.5
100
AcDbLine
 10
30.0
 20
-28.776428
 30
0.0
 11
30.0
 21
-41.201103
 31
0.0
  0
LINE
  5
5B
100
AcDbEntity
  8
0
  6
CENTER
 62
     1
 48
0.5
100
AcDbLine
 10
31.0
 20
-30.109756
 30
0.0
 11
31.0
 21
-40.709762
 31
0.0
  0
LINE
  5
5C
100
AcDbEntity
  8
0
  6
CONTINUOUS
 62
     7
100
AcDbLine
 10
80.0
 20
-31.687683
 30
0.0
 11
80.0
 21
-43.187683
 31
0.0
  0
LINE
  5
5D
100
AcDbEntity
  8
0
  6
CONTINUOUS
 62
     7
100
AcDbLine
 10
91.0
 20
-31.687683
 30
0.0
 11
91.0
 21
-42.1003
 31
0.0
  0
LINE
  5
5E
100
AcDbEntity
  8
0
  6
CONTINUOUS
 62
     7
100
AcDbLine
 10
80.0
 20
-43.187683
 30
0.0
 11
89.931421
 21
-43.187683
 31
0.0
  0
LINE
  5
5F
100
AcDbEntity
  8
0
  6
CENTER
 62
     1
 48
0.5
100
AcDbLine
 10
78.175354
 20
-33.519897
 30
0.0
 11
93.712875
 21
-39.175091
 31
0.0
  0
LINE
  5
60
100
AcDbEntity
  8
0
  6
CONTINUOUS
 62
     7
100
AcDbLine
 10
87.691132
 20
-33.258732
 30
0.0
 11
91.000008
 21
-34.463062
 31
0.0
  0
LINE
  5
61
100
AcDbEntity
  8
0
  6
CONTINUOUS
 62
     7
100
AcDbLine
 10
85.296997
 20
-39.836582
 30
0.0
 11
91.0
 21
-41.912308
 31
0.0
  0
LINE
  5
62
100
AcDbEntity
  8
0
  6
CONTINUOUS
 62
     7
100
AcDbLine
 10
81.0
 20
-30.687683
 30
0.0
 11
90.0
 21
-30.687683
 31
0.0
  0
LINE
  5
63
100
AcDbEntity
  8
0
  6
CONTINUOUS
 62
     7
100
AcDbLine
 10
90.0
 20
-30.687683
 30
0.0
 11
91.0
 21
-31.687687
 31
0.0
  0
LINE
  5
64
100
AcDbEntity
  8
0
  6
CONTINUOUS
 62
     7
100
AcDbLine
 10
85.743889
 20
-30.687679
 30
0.0
 11
88.289673
 21
-31.614269
 31
0.0
  0
LINE
  5
65
100
AcDbEntity
  8
0
  6
CONTINUOUS
 62
     7
100
AcDbLine
 10
80.0
 20
-39.770931
 30
0.0
 11
84.698463
 21
-41.481033
 31
0.0
  0
LINE
  5
66
100
AcDbEntity
  8
0
  6
CONTINUOUS
 62
     7
100
AcDbLine
 10
88.289673
 20
-31.614269
 30
0.0
 11
84.698463
 21
-41.481033
 31
0.0
  0
LINE
  5
67
100
AcDbEntity
  8
0
  6
CONTINUOUS
 62
     7
100
AcDbLine
 10
-0.204011
 20
-43.187683
 30
0.0
 11
42.0
 21
-43.187683
 31
0.0
  0
LINE
  5
68
100
AcDbEntity
  8
0
  6
CONTINUOUS
 62
     7
100
AcDbLine
 10
20.931671
 20
-30.687683
 30
0.0
 11
42.0
 21
-30.687683
 31
0.0
  0
LINE
  5
69
100
AcDbEntity
  8
0
  6
CENTER
 62
     1
 48
0.5
100
AcDbLine
 10
1.936334
 20
-39.687683
 30
0.0
 11
8.1092
 21
-39.687683
 31
0.0
  0
LINE
  5
6A
100
AcDbEntity
  8
0
  6
CENTER
 62
     1
 48
0.5
100
AcDbLine
 10
5.0
 20
-36.776428
 30
0.0
 11
5.0
 21
-42.50975
 31
0.0
  0
LINE
  5
6B
100
AcDbEntity
  8
0
  6
CONTINUOUS
 62
     7
100
AcDbLine
 10
-34.0
 20
5.541545
 30
0.0
 11
-33.179993
 21
5.541545
 31
0.0
  0
LINE
  5
6C
100
AcDbEntity
  8
0
  6
CONTINUOUS
 62
     7
100
AcDbLine
 10
-39.0
 20
18.541545
 30
0.0
 11
-28.5
 21
18.541545
 31
0.0
  0
LINE
  5
6D
100
AcDbEntity
  8
0
  6
CONTINUOUS
 62
     7
100
AcDbLine
 10
-39.999989
 20
17.54155
 30
0.0
 11
-38.999989
 21
18.541551
 31
0.0
  0
LINE
  5
6E
100
AcDbEntity
  8
0
  6
CONTINUOUS
 62
     7
100
AcDbLine
 10
-28.499996
 20
18.541541
 30
0.0
 11
-27.499996
 21
17.54154
 31
0.0
  0
LINE
  5
6F
100
AcDbEntity
  8
0
  6
CONTINUOUS
 62
     7
100
AcDbLine
 10
-39.999996
 20
8.339389
 30
0.0
 11
-33.999992
 21
5.541542
 31
0.0
  0
LINE
  5
70
100
AcDbEntity
  8
0
  6
CONTINUOUS
 62
     7
100
AcDbLine
 10
-30.0
 20
7.541545
 30
0.0
 11
-28.499985
 21
7.541545
 31
0.0
  0
LINE
  5
71
100
AcDbEntity
  8
0
  6
CONTINUOUS
 62
     7
100
AcDbLine
 10
20.931671
 20
17.541545
 30
0.0
 11
42.0
 21
17.541545
 31
0.0
  0
LINE
  5
72
100
AcDbEntity
  8
0
  6
CONTINUOUS
 62
     7
100
AcDbLine
 10
-28.144665
 20
7.896859
 30
0.0
 11
-28.499989
 21
7.541536
 31
0.0
  0
LINE
  5
73
100
AcDbEntity
  8
0
  6
CONTINUOUS
 62
     7
100
AcDbLine
 10
0.000001
 20
4.541536
 30
0.0
 11
-0.063891
 21
5.271821
 31
0.0
  0
LINE
  5
74
100
AcDbEntity
  8
0
  6
CONTINUOUS
 62
     7
100
AcDbLine
 10
-0.027369
 20
14.033342
 30
0.0
 11
7.867471
 21
14.724051
 31
0.0
  0
LINE
  5
75
100
AcDbEntity
  8
0
  6
CONTINUOUS
 62
     7
100
AcDbLine
 10
9.274032
 20
7.825976
 30
0.0
 11
9.424862
 21
6.101977
 31
0.0
  0
LINE
  5
76
100
AcDbEntity
  8
0
  6
CONTINUOUS
 62
     7
100
AcDbLine
 10
0.802789
 20
4.544589
 30
0.0
 11
8.697629
 21
5.235298
 31
0.0
  0
LINE
  5
77
100
AcDbEntity
  8
0
  6
CONTINUOUS
 62
     7
100
AcDbLine
 10
-0.5
 20
18.541545
 30
0.0
 11
-0.5
 21
13.824476
 31
0.0
  0
LINE
  5
78
100
AcDbEntity
  8
0
  6
CONTINUOUS
 62
     7
100
AcDbLine
 10
15.0
 20
7.541545
 30
0.0
 11
15.0
 21
7.022732
 31
0.0
  0
LINE
  5
79
100
AcDbEntity
  8
0
  6
CONTINUOUS
 62
     7
100
AcDbLine
 10
9.259733
 20
5.541545
 30
0.0
 11
9.500005
 21
5.541545
 31
0.0
  0
LINE
  5
7A
100
AcDbEntity
  8
0
  6
CONTINUOUS
 62
     7
100
AcDbLine
 10
9.500004
 20
5.541545
 30
0.0
 11
13.904123
 21
5.926855
 31
0.0
  0
LINE
  5
7B
100
AcDbEntity
  8
0
  6
CONTINUOUS
 62
     7
100
AcDbLine
 10
14.003803
 20
-34.112076
 30
0.0
 11
14.003803
 21
-42.100922
 31
0.0
  0
LINE
  5
7C
100
AcDbEntity
  8
0
  6
CONTINUOUS
 62
     7
100
AcDbLine
 10
15.0
 20
-34.216782
 30
0.0
 11
15.0
 21
-43.187683
 31
0.0
  0
LINE
  5
7D
100
AcDbEntity
  8
0
  6
CONTINUOUS
 62
     7
100
AcDbLine
 10
10.026291
 20
-33.694034
 30
0.0
 11
19.505463
 21
-34.690334
 31
0.0
  0
LINE
  5
7E
100
AcDbEntity
  8
0
  6
CONTINUOUS
 62
     7
100
AcDbLine
 10
20.604528
 20
-33.800327
 30
0.0
 11
20.931681
 21
-30.687679
 31
0.0
  0
LINE
  5
7F
100
AcDbEntity
  8
0
  6
CONTINUOUS
 62
     7
100
AcDbLine
 10
20.931671
 20
17.541545
 30
0.0
 11
20.931671
 21
8.541545
 31
0.0
  0
LINE
  5
81
100
AcDbEntity
  8
0
  6
CONTINUOUS
 62
     7
100
AcDbLine
 10
89.931421
 20
-43.187683
 30
0.0
 11
91.0
 21
-42.1003
 31
0.0
  0
LINE
  5
82
100
AcDbEntity
  8
0
  6
CONTINUOUS
 62
     7
100
AcDbLine
 10
81.0
 20
-30.687679
 30
0.0
 11
80.0
 21
-31.687679
 31
0.0
  0
LINE
  5
83
100
AcDbEntity
  8
0
  6
CONTINUOUS
 62
     7
100
AcDbLine
 10
20.826576
 20
-31.687683
 30
0.0
 11
24.959394
 21
-31.687683
 31
0.0
  0
LINE
  5
84
100
AcDbEntity
  8
0
  6
CONTINUOUS
 62
     7
100
AcDbLine
 10
20.931671
 20
8.541545
 30
0.0
 11
25.507925
 21
8.541545
 31
0.0
  0
LINE
  5
85
100
AcDbEntity
  8
0
  6
CONTINUOUS
 62
     7
100
AcDbLine
 10
29.0
 20
-39.770931
 30
0.0
 11
31.0
 21
-39.770931
 31
0.0
  0
LINE
  5
86
100
AcDbEntity
  8
0
  6
CONTINUOUS
 62
     7
100
AcDbLine
 10
29.0
 20
-31.614269
 30
0.0
 11
31.0
 21
-31.614269
 31
0.0
  0
LINE
  5
87
100
AcDbEntity
  8
0
  6
CONTINUOUS
 62
     7
100
AcDbLine
 10
35.040607
 20
-31.687683
 30
0.0
 11
42.0
 21
-31.687683
 31
0.0
  0
LINE
  5
88
100
AcDbEntity
  8
0
  6
CONTINUOUS
 62
     7
100
AcDbLine
 10
29.0
 20
-33.258732
 30
0.0
 11
31.0
 21
-33.258732
 31
0.0
  0
LINE
  5
89
100
AcDbEntity
  8
0
  6
CONTINUOUS
 62
     7
100
AcDbLine
 10
29.0
 20
-34.463062
 30
0.0
 11
31.0
 21
-34.463062
 31
0.0
  0
LINE
  5
8A
100
AcDbEntity
  8
0
  6
CONTINUOUS
 62
     7
100
AcDbLine
 10
20.5
 20
18.541545
 30
0.0
 11
20.5
 21
7.541545
 31
0.0
  0
LINE
  5
8B
100
AcDbEntity
  8
0
  6
CONTINUOUS
 62
     7
100
AcDbLine
 10
20.5
 20
7.541545
 30
0.0
 11
20.931671
 21
8.541545
 31
0.0
  0
LINE
  5
8C
100
AcDbEntity
  8
0
  6
CONTINUOUS
 62
     7
100
AcDbLine
 10
20.931671
 20
17.541545
 30
0.0
 11
20.5
 21
18.541545
 31
0.0
  0
LINE
  5
8D
100
AcDbEntity
  8
0
  6
CONTINUOUS
 62
     7
100
AcDbLine
 10
2.16426
 20
14.225085
 30
0.0
 11
1.786619
 21
18.541545
 31
0.0
  0
LINE
  5
8E
100
AcDbEntity
  8
0
  6
CONTINUOUS
 62
     7
100
AcDbLine
 10
3.160455
 20
14.31224
 30
0.0
 11
2.790439
 21
18.541545
 31
0.0
  0
LINE
  5
8F
100
AcDbEntity
  8
0
  6
CONTINUOUS
 62
     7
100
AcDbLine
 10
29.0
 20
13.285438
 30
0.0
 11
31.0
 21
13.285438
 31
0.0
  0
LINE
  5
90
100
AcDbEntity
  8
0
  6
CONTINUOUS
 62
     7
100
AcDbLine
 10
29.0
 20
12.838544
 30
0.0
 11
31.0
 21
12.838544
 31
0.0
  0
LINE
  5
91
100
AcDbEntity
  8
0
  6
CENTER
 62
     1
 48
0.5
100
AcDbLine
 10
30.0
 20
20.593415
 30
0.0
 11
30.0
 21
5.587943
 31
0.0
  0
LINE
  5
92
100
AcDbEntity
  8
0
  6
CONTINUOUS
 62
     7
100
AcDbLine
 10
34.492073
 20
8.541545
 30
0.0
 11
42.0
 21
8.541545
 31
0.0
  0
LINE
  5
93
100
AcDbEntity
  8
0
  6
CONTINUOUS
 62
     7
100
AcDbLine
 10
-0.063891
 20
5.271821
 30
0.0
 11
-0.754599
 21
13.166661
 31
0.0
  0
LINE
  5
94
100
AcDbEntity
  8
0
  6
CONTINUOUS
 62
     7
100
AcDbLine
 10
0.381633
 20
-37.187683
 30
0.0
 11
7.635123
 21
-37.187683
 31
0.0
  0
LINE
  5
95
100
AcDbEntity
  8
0
  6
CONTINUOUS
 62
     7
100
AcDbLine
 10
9.500005
 20
-37.187683
 30
0.0
 11
15.000002
 21
-43.187683
 31
0.0
  0
LINE
  5
96
100
AcDbEntity
  8
0
  6
CONTINUOUS
 62
     7
100
AcDbLine
 10
-0.757644
 20
-33.108051
 30
0.0
 11
9.427905
 21
-34.178596
 31
0.0
  0
LINE
  5
97
100
AcDbEntity
  8
0
  6
CONTINUOUS
 62
     7
100
AcDbLine
 10
-0.475301
 20
-36.335243
 30
0.0
 11
8.480762
 21
-37.276565
 31
0.0
  0
LINE
  5
98
100
AcDbEntity
  8
0
  6
CONTINUOUS
 62
     7
100
AcDbLine
 10
9.427905
 20
-34.178596
 30
0.0
 11
10.026291
 21
-33.694034
 31
0.0
  0
LINE
  5
99
100
AcDbEntity
  8
0
  6
CONTINUOUS
 62
     7
100
AcDbLine
 10
8.480762
 20
-37.276565
 30
0.0
 11
9.427906
 21
-34.178596
 31
0.0
  0
LINE
  5
9A
100
AcDbEntity
  8
0
  6
CONTINUOUS
 62
     7
100
AcDbLine
 10
0.000001
 20
-33.187683
 30
0.0
 11
0.282343
 21
-36.414875
 31
0.0
  0
LINE
  5
9B
100
AcDbEntity
  8
0
  6
CONTINUOUS
 62
     7
100
AcDbLine
 10
-0.5
 20
-36.052933
 30
0.0
 11
-0.5
 21
-39.804512
 31
0.0
  0
LINE
  5
9C
100
AcDbEntity
  8
0
  6
CONTINUOUS
 62
     7
100
AcDbLine
 10
0.282344
 20
-36.414875
 30
0.0
 11
1.2342
 21
-43.187683
 31
0.0
  0
LINE
  5
9D
100
AcDbEntity
  8
0
  6
CONTINUOUS
 62
     7
100
AcDbLine
 10
8.507936
 20
-37.187683
 30
0.0
 11
9.500003
 21
-37.187683
 31
0.0
  0
LINE
  5
9E
100
AcDbEntity
  8
0
  6
CONTINUOUS
 62
     7
100
AcDbLine
 10
9.500003
 20
-34.120212
 30
0.0
 11
9.500003
 21
-37.187683
 31
0.0
  0
LINE
  5
9F
100
AcDbEntity
  8
0
  6
CONTINUOUS
 62
     7
100
AcDbLine
 10
-0.757644
 20
-33.108051
 30
0.0
 11
-0.475301
 21
-36.335243
 31
0.0
  0
LINE
  5
A0
100
AcDbEntity
  8
0
  6
CONTINUOUS
 62
     7
100
AcDbLine
 10
11.087714
 20
-28.822754
 30
0.0
 11
18.39439
 21
-29.590717
 31
0.0
  0
LINE
  5
A1
100
AcDbEntity
  8
0
  6
CONTINUOUS
 62
     7
100
AcDbLine
 10
3.164153
 20
-31.509231
 30
0.0
 11
2.955096
 21
-33.498276
 31
0.0
  0
LINE
  5
A2
100
AcDbEntity
  8
0
  6
CONTINUOUS
 62
     7
100
AcDbLine
 10
3.992369
 20
-31.596283
 30
0.0
 11
3.783313
 21
-33.585327
 31
0.0
  0
LINE
  5
A3
100
AcDbEntity
  8
0
  6
CONTINUOUS
 62
     7
100
AcDbLine
 10
3.164153
 20
-31.509231
 30
0.0
 11
3.992369
 21
-31.596283
 31
0.0
  0
LINE
  5
A4
100
AcDbEntity
  8
0
  6
CONTINUOUS
 62
     7
100
AcDbLine
 10
18.185331
 20
-31.579761
 30
0.0
 11
20.320578
 21
-31.804184
 31
0.0
  0
LINE
  5
A5
100
AcDbEntity
  8
0
  6
CONTINUOUS
 62
     7
100
AcDbLine
 10
18.394388
 20
-29.590713
 30
0.0
 11
17.876392
 21
-34.519112
 31
0.0
  0
LINE
  5
A6
100
AcDbEntity
  8
0
  6
CONTINUOUS
 62
     7
100
AcDbLine
 10
20.320578
 20
-31.804184
 30
0.0
 11
20.026192
 21
-34.605076
 31
0.0
  0
LINE
  5
A7
100
AcDbEntity
  8
0
  6
CONTINUOUS
 62
     7
100
AcDbLine
 10
-29.999992
 20
4.541542
 30
0.0
 11
-29.879908
 21
18.541545
 31
0.0
  0
LINE
  5
A8
100
AcDbEntity
  8
0
  6
CONTINUOUS
 62
     7
100
AcDbLine
 10
-33.174572
 20
5.186924
 30
0.0
 11
-33.104359
 21
13.372787
 31
0.0
  0
LINE
  5
A9
100
AcDbEntity
  8
0
  6
CONTINUOUS
 62
     7
100
AcDbLine
 10
-29.999992
 20
4.541542
 30
0.0
 11
-33.174572
 21
5.186924
 31
0.0
  0
LINE
  5
AA
100
AcDbEntity
  8
0
  6
CONTINUOUS
 62
     7
100
AcDbLine
 10
-29.971785
 20
7.830015
 30
0.0
 11
-29.080288
 21
7.822368
 31
0.0
  0
LINE
  5
AB
100
AcDbEntity
  8
0
  6
CONTINUOUS
 62
     7
100
AcDbLine
 10
-29.945272
 20
10.920976
 30
0.0
 11
-29.053776
 21
10.913329
 31
0.0
  0
LINE
  5
AC
100
AcDbEntity
  8
0
  6
CONTINUOUS
 62
     7
100
AcDbLine
 10
-29.053776
 20
10.913329
 30
0.0
 11
-29.080288
 21
7.822368
 31
0.0
  0
LINE
  5
AD
100
AcDbEntity
  8
0
  6
CONTINUOUS
 62
     7
100
AcDbLine
 10
-25.534443
 20
16.622509
 30
0.0
 11
-25.580416
 21
11.262712
 31
0.0
  0
LINE
  5
AE
100
AcDbEntity
  8
0
  6
CONTINUOUS
 62
     7
100
AcDbLine
 10
-25.534443
 20
16.622509
 30
0.0
 11
-29.896048
 21
16.65992
 31
0.0
  0
LINE
  5
AF
100
AcDbEntity
  8
0
  6
CONTINUOUS
 62
     4
100
AcDbLine
 10
15.0
 20
7.022732
 30
0.0
 11
13.904123
 21
5.926855
 31
0.0
  0
LINE
  5
B0
100
AcDbEntity
  8
0
  6
CONTINUOUS
 62
     7
100
AcDbLine
 10
-33.104359
 20
13.372787
 30
0.0
 11
-29.919174
 21
13.963618
 31
0.0
  0
LINE
  5
B1
100
AcDbEntity
  8
0
  6
CONTINUOUS
 62
     7
100
AcDbLine
 10
-36.822186
 20
18.541543
 30
0.0
 11
-33.104359
 21
13.372786
 31
0.0
  0
LINE
  5
B2
100
AcDbEntity
  8
0
  6
CONTINUOUS
 62
     7
100
AcDbLine
 10
2.082621
 20
-32.859131
 30
0.0
 11
3.012006
 21
-32.956814
 31
0.0
  0
LINE
  5
B3
100
AcDbEntity
  8
0
  6
CONTINUOUS
 62
     7
100
AcDbLine
 10
1.502827
 20
-33.345634
 30
0.0
 11
2.082621
 21
-32.859131
 31
0.0
  0
LINE
  5
B4
100
AcDbEntity
  8
0
  6
CONTINUOUS
 62
     7
100
AcDbLine
 10
0.000001
 20
4.541536
 30
0.0
 11
0.733065
 21
4.541536
 31
0.0
  0
LINE
  5
B5
100
AcDbEntity
  8
0
  6
CONTINUOUS
 62
     7
100
AcDbLine
 10
-0.5
 20
-39.804516
 30
0.0
 11
-0.204011
 21
-43.187683
 31
0.0
  0
CIRCLE
  5
B6
100
AcDbEntity
  8
0
  6
CONTINUOUS
 62
     7
100
AcDbCircle
 10
13.99439
 20
12.22251
 30
0.0
 40
4.4
  0
ARC
  5
B7
100
AcDbEntity
  8
0
  6
CONTINUOUS
 62
     7
100
AcDbCircle
 10
18.920578
 20
13.542487
 30
0.0
 40
1.4
100
AcDbArc
 50
285.00004
 51
104.99995
  0
CIRCLE
  5
B8
100
AcDbEntity
  8
0
  6
CONTINUOUS
 62
     7
100
AcDbCircle
 10
5.0
 20
-39.687683
 30
0.0
 40
2.0
  0
CIRCLE
  5
B9
100
AcDbEntity
  8
0
  6
CONTINUOUS
 62
     7
100
AcDbCircle
 10
5.0
 20
-39.687683
 30
0.0
 40
1.799999
  0
CIRCLE
  5
BA
100
AcDbEntity
  8
0
  6
CONTINUOUS
 62
     7
100
AcDbCircle
 10
13.99439
 20
12.22251
 30
0.0
 40
4.25
  0
CIRCLE
  5
BB
100
AcDbEntity
  8
0
  6
CONTINUOUS
 62
     7
100
AcDbCircle
 10
13.99439
 20
12.22251
 30
0.0
 40
2.517949
  0
ARC
  5
BC
100
AcDbEntity
  8
0
  6
CONTINUOUS
 62
     7
100
AcDbCircle
 10
0.733065
 20
5.341545
 30
0.0
 40
0.8
100
AcDbArc
 50
185.00001
 51
275.00004
  0
ARC
  5
BD
100
AcDbEntity
  8
0
  6
CONTINUOUS
 62
     7
100
AcDbCircle
 10
0.042356
 20
13.236386
 30
0.0
 40
0.8
100
AcDbArc
 50
94.999954
 51
185.00004
  0
ARC
  5
BE
100
AcDbEntity
  8
0
  6
CONTINUOUS
 62
     7
100
AcDbCircle
 10
7.937198
 20
13.927095
 30
0.0
 40
0.8
100
AcDbArc
 50
22.280371
 51
95.000008
  0
ARC
  5
BF
100
AcDbEntity
  8
0
  6
CONTINUOUS
 62
     7
100
AcDbCircle
 10
8.627906
 20
6.032253
 30
0.0
 40
0.8
100
AcDbArc
 50
274.99994
 51
4.999941
  0
ARC
  5
C0
100
AcDbEntity
  8
0
  6
CONTINUOUS
 62
     7
100
AcDbCircle
 10
19.610001
 20
-33.695801
 30
0.0
 40
1.0
100
AcDbArc
 50
263.99961
 51
354.0008
  0
ARC
  5
C1
100
AcDbEntity
  8
0
  6
CONTINUOUS
 62
     7
100
AcDbCircle
 10
8.66
 20
14.791545
 30
0.0
 40
2.0
100
AcDbArc
 50
15.727299
 51
184.94741
  0
ARC
  5
C2
100
AcDbEntity
  8
0
  6
CONTINUOUS
 62
     7
100
AcDbCircle
 10
10.04243
 20
-38.767971
 30
0.0
 40
10.0
100
AcDbArc
 50
84.000002
 51
133.4584
  0
ARC
  5
C3
100
AcDbEntity
  8
0
  6
CONTINUOUS
 62
     7
100
AcDbCircle
 10
10.870646
 20
-38.855022
 30
0.0
 40
10.0
100
AcDbArc
 50
84.000002
 51
133.4584
  0
ARC
  5
C4
100
AcDbEntity
  8
0
  6
CONTINUOUS
 62
     7
100
AcDbCircle
 10
-29.050526
 20
11.292476
 30
0.0
 40
3.470236
100
AcDbArc
 50
269.50857
 51
359.50857
  0
ARC
  5
C5
100
AcDbEntity
  8
0
  6
CONTINUOUS
 62
     7
100
AcDbCircle
 10
-29.024012
 20
14.383437
 30
0.0
 40
3.470236
100
AcDbArc
 50
269.50857
 51
359.50857
  0
LWPOLYLINE
  5
C6
100
AcDbEntity
  8
0
  6
CONTINUOUS
 62
     7
100
AcDbPolyline
 90
       17
 70
     0
 43
0.0
 10
26.161378
 20
-30.687483
 42
0.038903
 10
25.500222
 20
-31.16024
 42
0.040063
 10
24.921483
 20
-31.731135
 42
0.041272
 10
24.442718
 20
-32.388275
 42
0.042396
 10
24.080033
 20
-33.115985
 42
0.043283
 10
23.846754
 20
-33.894784
 42
0.043798
 10
23.751983
 20
-34.701964
 42
0.043827
 10
23.799351
 20
-35.5124
 42
0.043473
 10
23.986911
 20
-36.30282
 42
0.042669
 10
24.307024
 20
-37.049018
 42
0.041646
 10
24.748174
 20
-37.731507
 42
0.040455
 10
25.294906
 20
-38.332746
 42
0.039278
 10
25.930205
 20
-38.839672
 42
0.038226
 10
26.636248
 20
-39.242607
 42
0.037377
 10
27.395032
 20
-39.534747
 42
0.036783
 10
28.188676
 20
-39.711666
 42
0.036495
 10
29.0
 20
-39.770931
  0
LWPOLYLINE
  5
D9
100
AcDbEntity
  8
0
  6
CONTINUOUS
 62
     7
100
AcDbPolyline
 90
       17
 70
     0
 43
0.0
 10
33.838622
 20
-30.687483
 42
-0.038903
 10
34.499778
 20
-31.16024
 42
-0.040063
 10
35.078517
 20
-31.731135
 42
-0.041272
 10
35.557282
 20
-32.388275
 42
-0.042396
 10
35.919967
 20
-33.115985
 42
-0.043283
 10
36.153246
 20
-33.894784
 42
-0.043798
 10
36.248017
 20
-34.701964
 42
-0.043827
 10
36.200649
 20
-35.5124
 42
-0.043473
 10
36.013089
 20
-36.30282
 42
-0.042669
 10
35.692976
 20
-37.049018
 42
-0.041646
 10
35.251826
 20
-37.731507
 42
-0.040455
 10
34.705094
 20
-38.332746
 42
-0.039278
 10
34.069795
 20
-38.839672
 42
-0.038226
 10
33.363752
 20
-39.242607
 42
-0.037377
 10
32.604968
 20
-39.534747
 42
-0.036783
 10
31.811324
 20
-39.711666
 42
-0.036495
 10
31.0
 20
-39.770931
  0
LWPOLYLINE
  5
EC
100
AcDbEntity
  8
0
  6
CONTINUOUS
 62
     7
100
AcDbPolyline
 90
       17
 70
     0
 43
0.0
 10
29.0
 20
-31.614269
 42
0.019916
 10
28.555614
 20
-31.631974
 42
0.020009
 10
28.113098
 20
-31.685175
 42
0.0201
 10
27.676475
 20
-31.773612
 42
0.020274
 10
27.247862
 20
-31.897125
 42
0.020468
 10
26.830742
 20
-32.055097
 42
0.020705
 10
26.428028
 20
-32.246833
 42
0.020983
 10
26.042666
 20
-32.471439
 42
0.021294
 10
25.677626
 20
-32.727793
 42
0.021632
 10
25.335887
 20
-33.014514
 42
0.021989
 10
25.020403
 20
-33.329937
 42
0.022353
 10
24.734073
 20
-33.672078
 42
0.022712
 10
24.479683
 20
-34.038616
 42
0.023055
 10
24.259853
 20
-34.426882
 42
0.023367
 10
24.076961
 20
-34.833858
 42
0.023635
 10
23.93308
 20
-35.256193
 42
0.023846
 10
23.829898
 20
-35.690243
  0
LWPOLYLINE
  5
FF
100
AcDbEntity
  8
0
  6
CONTINUOUS
 62
     7
100
AcDbPolyline
 90
       17
 70
     0
 43
0.0
 10
31.0
 20
-31.614269
 42
-0.019916
 10
31.444386
 20
-31.631974
 42
-0.020009
 10
31.886902
 20
-31.685175
 42
-0.0201
 10
32.323525
 20
-31.773612
 42
-0.020274
 10
32.752138
 20
-31.897125
 42
-0.020468
 10
33.169258
 20
-32.055097
 42
-0.020705
 10
33.571972
 20
-32.246833
 42
-0.020983
 10
33.957334
 20
-32.471439
 42
-0.021294
 10
34.322374
 20
-32.727793
 42
-0.021632
 10
34.664113
 20
-33.014514
 42
-0.021989
 10
34.979597
 20
-33.329937
 42
-0.022353
 10
35.265927
 20
-33.672078
 42
-0.022712
 10
35.520317
 20
-34.038616
 42
-0.023055
 10
35.740147
 20
-34.426882
 42
-0.023367
 10
35.923039
 20
-34.833858
 42
-0.023635
 10
36.06692
 20
-35.256193
 42
-0.023846
 10
36.170102
 20
-35.690243
  0
LWPOLYLINE
  5
112
100
AcDbEntity
  8
0
  6
CONTINUOUS
 62
     7
100
AcDbPolyline
 90
       17
 70
     0
 43
0.0
 10
29.0
 20
-33.258732
 42
0.039748
 10
28.411471
 20
-33.305562
 42
0.040204
 10
27.836996
 20
-33.445614
 42
0.040965
 10
27.292773
 20
-33.676533
 42
0.042059
 10
26.794119
 20
-33.994165
 42
0.043396
 10
26.356611
 20
-34.39199
 42
0.044836
 10
25.995613
 20
-34.86048
 42
0.046194
 10
25.725347
 20
-35.386595
 42
0.047258
 10
25.557552
 20
-35.953678
 42
0.047844
 10
25.500005
 20
-36.542115
 42
0.047792
 10
25.555311
 20
-37.130052
 42
0.047205
 10
25.720641
 20
-37.696931
 42
0.046181
 10
25.988552
 20
-38.22368
 42
0.044844
 10
26.347466
 20
-38.693382
 42
0.043417
 10
26.783274
 20
-39.092842
 42
0.042094
 10
27.280775
 20
-39.412451
 42
0.041005
 10
27.824389
 20
-39.645501
  0
LWPOLYLINE
  5
125
100
AcDbEntity
  8
0
  6
CONTINUOUS
 62
     7
100
AcDbPolyline
 90
       17
 70
     0
 43
0.0
 10
31.0
 20
-33.258732
 42
-0.039748
 10
31.588529
 20
-33.305562
 42
-0.040204
 10
32.163004
 20
-33.445614
 42
-0.040965
 10
32.707227
 20
-33.676533
 42
-0.042059
 10
33.205881
 20
-33.994165
 42
-0.043396
 10
33.643389
 20
-34.39199
 42
-0.044836
 10
34.004387
 20
-34.86048
 42
-0.046194
 10
34.274653
 20
-35.386595
 42
-0.047258
 10
34.442448
 20
-35.953678
 42
-0.047844
 10
34.499995
 20
-36.542115
 42
-0.047792
 10
34.444689
 20
-37.130052
 42
-0.047205
 10
34.279359
 20
-37.696931
 42
-0.046181
 10
34.011448
 20
-38.22368
 42
-0.044844
 10
33.652534
 20
-38.693382
 42
-0.043417
 10
33.216726
 20
-39.092842
 42
-0.042094
 10
32.719225
 20
-39.412451
 42
-0.041005
 10
32.175611
 20
-39.645501
  0
LWPOLYLINE
  5
138
100
AcDbEntity
  8
0
  6
CONTINUOUS
 62
     7
100
AcDbPolyline
 90
       17
 70
     0
 43
0.0
 10
29.0
 20
-34.463062
 42
0.019782
 10
28.705735
 20
-34.474707
 42
0.019874
 10
28.412684
 20
-34.509698
 42
0.019958
 10
28.123539
 20
-34.567854
 42
0.020133
 10
27.83956
 20
-34.649096
 42
0.020323
 10
27.563089
 20
-34.753014
 42
0.020557
 10
27.296029
 20
-34.879157
 42
0.020829
 10
27.040302
 20
-35.026946
 42
0.021135
 10
26.797849
 20
-35.195654
 42
0.021467
 10
26.570616
 20
-35.384391
 42
0.021818
 10
26.360536
 20
-35.592078
 42
0.022176
 10
26.169503
 20
-35.817432
 42
0.022532
 10
25.999346
 20
-36.058955
 42
0.022872
 10
25.851785
 20
-36.31492
 42
0.023183
 10
25.728391
 20
-36.583373
 42
0.023452
 10
25.630536
 20
-36.862146
 42
0.023667
 10
25.559351
 20
-37.148874
  0
LWPOLYLINE
  5
14B
100
AcDbEntity
  8
0
  6
CONTINUOUS
 62
     7
100
AcDbPolyline
 90
       17
 70
     0
 43
0.0
 10
31.0
 20
-34.463062
 42
-0.019782
 10
31.294265
 20
-34.474707
 42
-0.019874
 10
31.587316
 20
-34.509698
 42
-0.019958
 10
31.876461
 20
-34.567854
 42
-0.020133
 10
32.16044
 20
-34.649096
 42
-0.020323
 10
32.436911
 20
-34.753014
 42
-0.020557
 10
32.703971
 20
-34.879157
 42
-0.020829
 10
32.959698
 20
-35.026946
 42
-0.021135
 10
33.202151
 20
-35.195654
 42
-0.021467
 10
33.429384
 20
-35.384391
 42
-0.021818
 10
33.639464
 20
-35.592078
 42
-0.022176
 10
33.830497
 20
-35.817432
 42
-0.022532
 10
34.000654
 20
-36.058955
 42
-0.022872
 10
34.148215
 20
-36.31492
 42
-0.023183
 10
34.271609
 20
-36.583373
 42
-0.023452
 10
34.369464
 20
-36.862146
 42
-0.023667
 10
34.440649
 20
-37.148874
  0
LWPOLYLINE
  5
15E
100
AcDbEntity
  8
0
  6
CONTINUOUS
 62
     7
100
AcDbPolyline
 90
       17
 70
     0
 43
0.0
 10
29.0
 20
7.541545
 42
-0.01627
 10
28.54668
 20
7.556291
 42
-0.016428
 10
28.095348
 20
7.600604
 42
-0.016751
 10
27.647941
 20
7.674725
 42
-0.017252
 10
27.206548
 20
7.779067
 42
-0.017944
 10
26.773492
 20
7.914197
 42
-0.018848
 10
26.351426
 20
8.080813
 42
-0.01999
 10
25.943436
 20
8.279702
 42
-0.021398
 10
25.553168
 20
8.511672
 42
-0.023097
 10
25.184962
 20
8.777428
 42
-0.025104
 10
24.843979
 20
9.07739
 42
-0.027406
 10
24.536292
 20
9.411409
 42
-0.029942
 10
24.26887
 20
9.778365
 42
-0.032566
 10
24.049342
 20
10.175674
 42
-0.035027
 10
23.885443
 20
10.598778
 42
-0.036979
 10
23.784055
 20
11.040848
 42
-0.038002
 10
23.750001
 20
11.492227
  0
LWPOLYLINE
  5
171
100
AcDbEntity
  8
0
  6
CONTINUOUS
 62
     7
100
AcDbPolyline
 90
       17
 70
     0
 43
0.0
 10
29.0
 20
13.285438
 42
0.005977
 10
28.633714
 20
13.281062
 42
0.006057
 10
28.267528
 20
13.267876
 42
0.006222
 10
27.901596
 20
13.245699
 42
0.006482
 10
27.536099
 20
13.214221
 42
0.006856
 10
27.171256
 20
13.172981
 42
0.007375
 10
26.807348
 20
13.121335
 42
0.008087
 10
26.44475
 20
13.058404
 42
0.009065
 10
26.083982
 20
12.982989
 42
0.010368
 10
25.727958
 20
12.894042
 42
0.012294
 10
25.376302
 20
12.789117
 42
0.015183
 10
25.03089
 20
12.665141
 42
0.01979
 10
24.694895
 20
12.51752
 42
0.02778
 10
24.374256
 20
12.339048
 42
0.043246
 10
24.081661
 20
12.117925
 42
0.076382
 10
23.848548
 20
11.836107
 42
0.1336
 10
23.750006
 20
11.487177
  0
LWPOLYLINE
  5
184
100
AcDbEntity
  8
0
  6
CONTINUOUS
 62
     7
100
AcDbPolyline
 90
       17
 70
     0
 43
0.0
 10
29.0
 20
12.838544
 42
-0.003449
 10
28.858907
 20
12.839517
 42
-0.003464
 10
28.717832
 20
12.842441
 42
-0.003495
 10
28.576795
 20
12.847327
 42
-0.003541
 10
28.435821
 20
12.854199
 42
-0.003605
 10
28.294934
 20
12.863085
 42
-0.003687
 10
28.154161
 20
12.874027
 42
-0.003789
 10
28.013532
 20
12.887074
 42
-0.003915
 10
27.873079
 20
12.902291
 42
-0.004067
 10
27.732842
 20
12.919753
 42
-0.004249
 10
27.592863
 20
12.93955
 42
-0.004467
 10
27.453193
 20
12.961792
 42
-0.004729
 10
27.313892
 20
12.986608
 42
-0.005043
 10
27.175034
 20
13.014153
 42
-0.005423
 10
27.036706
 20
13.044613
 42
-0.005885
 10
26.899021
 20
13.078209
 42
-0.006454
 10
26.762117
 20
13.115213
  0
LWPOLYLINE
  5
197
100
AcDbEntity
  8
0
  6
CONTINUOUS
 62
     7
100
AcDbPolyline
 90
       17
 70
     0
 43
0.0
 10
31.0
 20
12.838544
 42
0.003449
 10
31.141093
 20
12.839517
 42
0.003464
 10
31.282168
 20
12.842441
 42
0.003495
 10
31.423205
 20
12.847327
 42
0.003541
 10
31.564179
 20
12.854199
 42
0.003605
 10
31.705066
 20
12.863085
 42
0.003687
 10
31.845839
 20
12.874027
 42
0.003789
 10
31.986468
 20
12.887074
 42
0.003915
 10
32.126921
 20
12.902291
 42
0.004067
 10
32.267158
 20
12.919753
 42
0.004249
 10
32.407137
 20
12.93955
 42
0.004467
 10
32.546807
 20
12.961792
 42
0.004729
 10
32.686108
 20
12.986608
 42
0.005043
 10
32.824966
 20
13.014153
 42
0.005423
 10
32.963294
 20
13.044613
 42
0.005885
 10
33.100979
 20
13.078209
 42
0.006454
 10
33.237883
 20
13.115213
  0
LWPOLYLINE
  5
1AA
100
AcDbEntity
  8
0
  6
CONTINUOUS
 62
     7
100
AcDbPolyline
 90
       17
 70
     0
 43
0.0
 10
31.0
 20
13.285438
 42
-0.005977
 10
31.366286
 20
13.281062
 42
-0.006057
 10
31.732472
 20
13.267876
 42
-0.006222
 10
32.098404
 20
13.245699
 42
-0.006482
 10
32.463901
 20
13.214221
 42
-0.006856
 10
32.828744
 20
13.172981
 42
-0.007375
 10
33.192652
 20
13.121335
 42
-0.008087
 10
33.55525
 20
13.058404
 42
-0.009065
 10
33.916018
 20
12.982989
 42
-0.010368
 10
34.272042
 20
12.894042
 42
-0.012294
 10
34.623698
 20
12.789117
 42
-0.015183
 10
34.96911
 20
12.665141
 42
-0.01979
 10
35.305105
 20
12.51752
 42
-0.02778
 10
35.625744
 20
12.339048
 42
-0.043246
 10
35.918339
 20
12.117925
 42
-0.076382
 10
36.151452
 20
11.836107
 42
-0.1336
 10
36.249994
 20
11.487177
  0
LWPOLYLINE
  5
1BD
100
AcDbEntity
  8
0
  6
CONTINUOUS
 62
     7
100
AcDbPolyline
 90
       17
 70
     0
 43
0.0
 10
31.0
 20
7.541545
 42
0.01627
 10
31.45332
 20
7.556291
 42
0.016428
 10
31.904652
 20
7.600604
 42
0.016751
 10
32.352059
 20
7.674725
 42
0.017252
 10
32.793452
 20
7.779067
 42
0.017944
 10
33.226508
 20
7.914197
 42
0.018848
 10
33.648574
 20
8.080813
 42
0.01999
 10
34.056564
 20
8.279702
 42
0.021398
 10
34.446832
 20
8.511672
 42
0.023097
 10
34.815038
 20
8.777428
 42
0.025104
 10
35.156021
 20
9.07739
 42
0.027406
 10
35.463708
 20
9.411409
 42
0.029942
 10
35.73113
 20
9.778365
 42
0.032566
 10
35.950658
 20
10.175674
 42
0.035027
 10
36.114557
 20
10.598778
 42
0.036979
 10
36.215945
 20
11.040848
 42
0.038002
 10
36.249999
 20
11.492227
  0
LINE
  5
1D0
100
AcDbEntity
  8
0
  6
CONTINUOUS
 62
     7
100
AcDbLine
 10
89.486514
 20
-33.912194
 30
0.0
 11
91.0
 21
-32.398705
 31
0.0
  0
LINE
  5
1D1
100
AcDbEntity
  8
0
  6
CONTINUOUS
 62
     7
100
AcDbLine
 10
87.840537
 20
-33.313107
 30
0.0
 11
90.232973
 21
-30.920667
 31
0.0
  0
LINE
  5
1D2
100
AcDbEntity
  8
0
  6
CONTINUOUS
 62
     7
100
AcDbLine
 10
87.55992
 20
-31.348659
 30
0.0
 11
88.220895
 21
-30.687683
 31
0.0
  0
LINE
  5
1D3
100
AcDbEntity
  8
0
  6
CONTINUOUS
 62
     7
100
AcDbLine
 10
85.913938
 20
-30.749578
 30
0.0
 11
85.975833
 21
-30.687683
 31
0.0
  0
LINE
  5
1D4
100
AcDbEntity
  8
0
  6
CONTINUOUS
 62
     7
100
AcDbLine
 10
89.191287
 20
-43.187683
 30
0.0
 11
90.60898
 21
-41.769988
 31
0.0
  0
LINE
  5
1D5
100
AcDbEntity
  8
0
  6
CONTINUOUS
 62
     7
100
AcDbLine
 10
86.946225
 20
-43.187683
 30
0.0
 11
88.963004
 21
-41.170901
 31
0.0
  0
LINE
  5
1D6
100
AcDbEntity
  8
0
  6
CONTINUOUS
 62
     7
100
AcDbLine
 10
84.701163
 20
-43.187683
 30
0.0
 11
87.317028
 21
-40.571814
 31
0.0
  0
LINE
  5
1D7
100
AcDbEntity
  8
0
  6
CONTINUOUS
 62
     7
100
AcDbLine
 10
82.456102
 20
-43.187683
 30
0.0
 11
84.305702
 21
-41.33808
 31
0.0
  0
LINE
  5
1D8
100
AcDbEntity
  8
0
  6
CONTINUOUS
 62
     7
100
AcDbLine
 10
85.005031
 20
-40.638749
 30
0.0
 11
85.671052
 21
-39.972727
 31
0.0
  0
LINE
  5
1D9
100
AcDbEntity
  8
0
  6
CONTINUOUS
 62
     7
100
AcDbLine
 10
80.21104
 20
-43.187683
 30
0.0
 11
82.659726
 21
-40.738993
 31
0.0
  0
LINE
  5
1DA
100
AcDbEntity
  8
0
  6
CONTINUOUS
 62
     7
100
AcDbLine
 10
80.0
 20
-41.153657
 30
0.0
 11
81.013749
 21
-40.139906
 31
0.0
  0
TEXT
  5
1DD
100
AcDbEntity
  8
0
  6
CONTINUOUS
100
AcDbText
 10
8.340959
 20
-67.520126
 30
0.0
 40
6.0
  1
CSYPR10CA
100
AcDbText
  0
LINE
  5
20A
102
{ACAD_REACTORS
330
212
102
}
100
AcDbEntity
  8
寸法
  6
CONTINUOUS
 62
     1
100
AcDbLine
 10
94.652568
 20
-39.517111
 30
0.0
 11
111.810431
 21
-45.762061
 31
0.0
  0
LINE
  5
20B
102
{ACAD_REACTORS
330
212
102
}
100
AcDbEntity
  8
寸法
  6
CONTINUOUS
 62
     1
100
AcDbLine
 10
91.0
 20
-38.187685
 30
0.0
 11
113.145998
 21
-38.187685
 31
0.0
  0
ARC
  5
20C
102
{ACAD_REACTORS
330
212
102
}
100
AcDbEntity
  8
寸法
  6
CONTINUOUS
 62
     1
100
AcDbCircle
 10
91.0
 20
-38.187685
 30
0.0
 40
21.145998
100
AcDbArc
 50
334.578916
 51
340.000004
  0
LINE
  5
20D
102
{ACAD_REACTORS
330
212
102
}
100
AcDbEntity
  8
寸法
  6
CONTINUOUS
 62
     1
100
AcDbLine
 10
110.098587
 20
-47.264975
 30
0.0
 11
105.333718
 21
-57.290244
 31
0.0
  0
ARC
  5
20E
102
{ACAD_REACTORS
330
212
102
}
100
AcDbEntity
  8
寸法
  6
CONTINUOUS
 62
     1
100
AcDbCircle
 10
91.0
 20
-38.187685
 30
0.0
 40
21.145998
100
AcDbArc
 50
345.421092
 51
354.578912
  0
INSERT
  5
20F
102
{ACAD_REACTORS
330
212
102
}
100
AcDbEntity
  8
寸法
  6
CONTINUOUS
 62
     1
100
AcDbBlockReference
  2
_OPEN90
 10
110.870739
 20
-45.420041
 30
0.0
 41
2.0
 42
2.0
 43
2.0
 50
252.710548
  0
INSERT
  5
210
102
{ACAD_REACTORS
330
212
102
}
100
AcDbEntity
  8
寸法
  6
CONTINUOUS
 62
     1
100
AcDbBlockReference
  2
_OPEN90
 10
112.145998
 20
-38.187685
 30
0.0
 41
2.0
 42
2.0
 43
2.0
 50
87.289456
  0
MTEXT
  5
211
102
{ACAD_REACTORS
330
212
102
}
100
AcDbEntity
  8
寸法
  6
CONTINUOUS
 62
     1
100
AcDbMText
 10
105.458209
 20
-51.204441
 30
0.0
 40
3.0
 41
0.0
 71
     5
 72
     1
  1
\A1;20°
 11
0.429268
 21
0.903177
 31
0.0
1001
ACAD
1000
MTEXTBEGIN
1070
    73
1070
     1
1070
    44
1040
1.0
1070
    74
1070
     0
1000
MTEXTEND
1000
MTEXTBEGIN
1070
    73
1070
     1
1070
    44
1040
1.0
1070
    74
1070
     0
1000
MTEXTEND
  0
DIMENSION
  5
213
100
AcDbEntity
  8
寸法
  6
CONTINUOUS
100
AcDbDimension
  2
*D2
 10
100.0
 20
-43.187683
 30
0.0
 11
97.5
 21
-40.687684
 31
0.0
 70
    32
  3
STANDARD
100
AcDbAlignedDimension
 13
91.0
 23
-38.187685
 33
0.0
 14
89.931421
 24
-43.187683
 34
0.0
 50
90.0
100
AcDbRotatedDimension
  0
DIMENSION
  5
22D
100
AcDbEntity
  8
寸法
  6
CONTINUOUS
100
AcDbDimension
  2
*D3
 10
60.0
 20
-43.187683
 30
0.0
 11
57.5
 21
-36.937683
 31
0.0
 70
    32
  3
STANDARD
100
AcDbAlignedDimension
 13
42.0
 23
-30.687683
 33
0.0
 14
42.0
 24
-43.187683
 34
0.0
 50
90.0
100
AcDbRotatedDimension
  0
DIMENSION
  5
23A
100
AcDbEntity
  8
寸法
  6
CONTINUOUS
100
AcDbDimension
  2
*D4
 10
-10.0
 20
-43.187683
 30
0.0
 11
-12.5
 21
-38.187683
 31
0.0
 70
    32
  3
STANDARD
100
AcDbAlignedDimension
 13
0.000001
 23
-33.187683
 33
0.0
 14
-0.204011
 24
-43.187683
 34
0.0
 50
90.0
100
AcDbRotatedDimension
  0
DIMENSION
  5
247
100
AcDbEntity
  8
寸法
  6
CONTINUOUS
100
AcDbDimension
  2
*D5
 10
29.0
 20
-50.0
 30
0.0
 11
23.0
 21
-47.5
 31
0.0
 70
    32
  3
STANDARD
100
AcDbAlignedDimension
 13
31.0
 23
-40.709762
 33
0.0
 14
29.0
 24
-41.071674
 34
0.0
100
AcDbRotatedDimension
  0
DIMENSION
  5
256
100
AcDbEntity
  8
寸法
  6
CONTINUOUS
100
AcDbDimension
  2
*D6
 10
30.0
 20
-20.0
 30
0.0
 11
40.0
 21
-17.5
 31
0.0
 70
    32
  3
STANDARD
100
AcDbAlignedDimension
 13
50.0
 23
-35.187683
 33
0.0
 14
30.0
 24
-28.776428
 34
0.0
100
AcDbRotatedDimension
  0
DIMENSION
  5
263
100
AcDbEntity
  8
寸法
  6
CONTINUOUS
100
AcDbDimension
  2
*D7
 10
0.000001
 20
-10.0
 30
0.0
 11
24.999995
 21
-7.5
 31
0.0
 70
    32
  3
STANDARD
100
AcDbAlignedDimension
 13
49.999989
 23
11.041541
 33
0.0
 14
0.000001
 24
4.541536
 34
0.0
100
AcDbRotatedDimension
  0
DIMENSION
  5
270
100
AcDbEntity
  8
寸法
  6
CONTINUOUS
100
AcDbDimension
  2
*D8
 10
42.0
 20
0.0
 30
0.0
 11
45.999995
 21
2.5
 31
0.0
 70
    32
  3
STANDARD
100
AcDbAlignedDimension
 13
49.999989
 23
11.041541
 33
0.0
 14
42.0
 24
7.541545
 34
0.0
100
AcDbRotatedDimension
1001
ACAD
1000
DSTYLE
1002
{
1070
   287
1070
     4
1070
   287
1070
     4
1070
   279
1070
     1
1002
}
  0
DIMENSION
  5
286
100
AcDbEntity
  8
寸法
  6
CONTINUOUS
100
AcDbDimension
  2
*D9
 10
60.0
 20
7.541545
 30
0.0
 11
57.5
 21
13.041545
 31
0.0
 70
    32
  3
STANDARD
100
AcDbAlignedDimension
 13
42.0
 23
18.541545
 33
0.0
 14
42.0
 24
7.541545
 34
0.0
 50
90.0
100
AcDbRotatedDimension
  0
DIMENSION
  5
293
100
AcDbEntity
  8
寸法
  6
CONTINUOUS
100
AcDbDimension
  2
*D10
 10
-10.0
 20
4.541536
 30
0.0
 11
-12.5
 21
11.541541
 31
0.0
 70
    32
  3
STANDARD
100
AcDbAlignedDimension
 13
-0.5
 23
18.541545
 33
0.0
 14
0.000001
 24
4.541536
 34
0.0
 50
90.0
100
AcDbRotatedDimension
  0
DIMENSION
  5
2A0
100
AcDbEntity
  8
寸法
  6
CONTINUOUS
100
AcDbDimension
  2
*D11
 10
0.733065
 20
4.541536
 30
0.0
 11
-2.205337
 21
8.923541
 31
0.0
 70
   162
  3
STANDARD
100
AcDb2LineAngularDimension
 13
-0.063891
 23
5.271821
 33
0.0
 14
-0.754599
 24
13.166661
 34
0.0
 15
0.000001
 25
4.541536
 35
0.0
 16
-4.317967
 26
6.869763
 36
0.0
1001
ACAD
1000
DSTYLE
1002
{
1002
}
  0
LINE
  5
2BA
100
AcDbEntity
  8
0
  6
CONTINUOUS
100
AcDbLine
 10
-29.999992
 20
4.541542
 30
0.0
 11
-29.999992
 21
7.541545
 31
0.0
  0
ARC
  5
2BC
100
AcDbEntity
  8
0
  6
CENTER
 62
     1
 48
0.5
100
AcDbCircle
 10
-29.999992
 20
23.541542
 30
0.0
 40
19.0
100
AcDbArc
 50
180.0
 51
270.0
  0
DIMENSION
  5
2BD
100
AcDbEntity
  8
寸法
  6
CONTINUOUS
100
AcDbDimension
  2
*D12
 10
-29.999992
 20
23.541542
 30
0.0
 11
-57.084953
 21
16.014598
 31
0.0
 70
    36
  1
%%c38
  3
STANDARD
100
AcDbRadialDimension
 15
-47.781288
 25
16.846357
 35
0.0
 40
0.0
1001
ACAD
1000
DSTYLE
1002
{
1070
   288
1070
     1
1002
}
  0
MTEXT
  5
2DB
100
AcDbEntity
  8
寸法
  6
CONTINUOUS
 62
     1
100
AcDbMText
 10
-39.590893
 20
-30.687683
 30
0.0
 40
3.0
 41
0.0
 71
     5
 72
     1
  1
0%%d
1001
ACAD
1000
MTEXTBEGIN
1070
    73
1070
     1
1070
    44
1040
1.0
1070
    74
1070
     0
1000
MTEXTEND
1000
MTEXTBEGIN
1070
    73
1070
     1
1070
    44
1040
1.0
1070
    74
1070
     0
1000
MTEXTEND
1000
MTEXTBEGIN
1070
    73
1070
     1
1070
    44
1040
1.0
1070
    74
1070
     0
1000
MTEXTEND
1000
MTEXTBEGIN
1070
    73
1070
     1
1070
    44
1040
1.0
1070
    74
1070
     0
1000
MTEXTEND
1000
MTEXTBEGIN
1070
    73
1070
     1
1070
    44
1040
1.0
1070
    74
1070
     0
1000
MTEXTEND
1000
MTEXTBEGIN
1070
    73
1070
     1
1070
    44
1040
1.0
1070
    74
1070
     0
1000
MTEXTEND
1000
MTEXTBEGIN
1070
    73
1070
     1
1070
    44
1040
1.0
1070
    74
1070
     0
1000
MTEXTEND
  0
MTEXT
  5
2DC
100
AcDbEntity
  8
寸法
  6
CONTINUOUS
 62
     1
100
AcDbMText
 10
-25.160398
 20
-42.875357
 30
0.0
 40
3.0
 41
0.0
 71
     5
 72
     1
  1
+6%%d
1001
ACAD
1000
MTEXTBEGIN
1070
    73
1070
     1
1070
    44
1040
1.0
1070
    74
1070
     0
1000
MTEXTEND
1000
MTEXTBEGIN
1070
    73
1070
     1
1070
    44
1040
1.0
1070
    74
1070
     0
1000
MTEXTEND
1000
MTEXTBEGIN
1070
    73
1070
     1
1070
    44
1040
1.0
1070
    74
1070
     0
1000
MTEXTEND
1000
MTEXTBEGIN
1070
    73
1070
     1
1070
    44
1040
1.0
1070
    74
1070
     0
1000
MTEXTEND
1000
MTEXTBEGIN
1070
    73
1070
     1
1070
    44
1040
1.0
1070
    74
1070
     0
1000
MTEXTEND
1000
MTEXTBEGIN
1070
    73
1070
     1
1070
    44
1040
1.0
1070
    74
1070
     0
1000
MTEXTEND
1000
MTEXTBEGIN
1070
    73
1070
     1
1070
    44
1040
1.0
1070
    74
1070
     0
1000
MTEXTEND
  0
LINE
  5
2DD
100
AcDbEntity
  8
寸法
  6
CONTINUOUS
100
AcDbLine
 10
-29.999996
 20
-43.187683
 30
0.0
 11
-32.449486
 21
-41.773469
 31
30.0
  0
LINE
  5
2DE
100
AcDbEntity
  8
寸法
  6
CONTINUOUS
100
AcDbLine
 10
-29.999996
 20
-43.187683
 30
0.0
 11
-32.449486
 21
-44.601896
 31
30.0
  0
LINE
  5
2DF
100
AcDbEntity
  8
寸法
  6
CONTINUOUS
100
AcDbLine
 10
-39.999996
 20
-33.187683
 30
0.0
 11
-41.41421
 21
-35.637172
 31
30.0
  0
LINE
  5
2E0
100
AcDbEntity
  8
寸法
  6
CONTINUOUS
100
AcDbLine
 10
-39.999996
 20
-33.187683
 30
0.0
 11
-38.585782
 21
-35.637172
 31
30.0
  0
LINE
  5
2E1
100
AcDbEntity
  8
寸法
  6
CONTINUOUS
100
AcDbLine
 10
-39.999996
 20
-43.187683
 30
0.0
 11
-39.999996
 21
-33.187683
 31
0.0
  0
LINE
  5
2E2
100
AcDbEntity
  8
寸法
  6
CONTINUOUS
100
AcDbLine
 10
-39.999996
 20
-43.187683
 30
0.0
 11
-29.999996
 21
-43.187683
 31
0.0
  0
LINE
  5
373
100
AcDbEntity
  8
0
  6
CENTER
 62
     1
 48
0.5
100
AcDbLine
 10
-29.999992
 20
16.660812
 30
0.0
 11
-29.999992
 21
23.541542
 31
0.0
  0
ENDSEC
  0
SECTION
  2
OBJECTS
  0
DICTIONARY
  5
C
100
AcDbDictionary
  3
ACAD_GROUP
350
D
  3
ACAD_LAYOUT
350
1E2
  3
ACAD_MLINESTYLE
350
1B
  3
ACAD_PLOTSETTINGS
350
1E3
  3
ACAD_PLOTSTYLENAME
350
1E0
  3
ACDBHEADERROUNDTRIPXREC
350
335
  0
DICTIONARY
  5
331
100
AcDbDictionary
280
     1
  3
ACAD_XREC_ROUNDTRIP
360
332
  0
DICTIONARY
  5
358
100
AcDbDictionary
280
     1
  3
ACAD_XREC_ROUNDTRIP
360
359
  0
DICTIONARY
  5
30F
100
AcDbDictionary
280
     1
  3
ACAD_LAYOUTSELFREF
360
357
  0
DICTIONARY
  5
30D
100
AcDbDictionary
280
     1
  3
ACAD_LAYOUTSELFREF
360
356
  0
DICTIONARY
  5
32D
100
AcDbDictionary
280
     1
  3
ACAD_XREC_ROUNDTRIP
360
32E
  0
DICTIONARY
  5
32F
100
AcDbDictionary
280
     1
  3
ACAD_XREC_ROUNDTRIP
360
330
  0
DICTIONARY
  5
D
102
{ACAD_REACTORS
330
C
102
}
100
AcDbDictionary
  3
*A1
350
212
  0
DICTIONARY
  5
1E2
102
{ACAD_XDICTIONARY
360
35A
102
}
102
{ACAD_REACTORS
330
C
102
}
100
AcDbDictionary
  3
MODEL
350
1E4
  3
ﾚｲｱｳﾄ1
350
1E5
  0
DICTIONARY
  5
1B
102
{ACAD_REACTORS
330
C
102
}
100
AcDbDictionary
  3
STANDARD
350
1C
  0
DICTIONARY
  5
1E3
102
{ACAD_REACTORS
330
C
102
}
100
AcDbDictionary
  0
ACAD_PROXY_OBJECT
  5
1E0
102
{ACAD_REACTORS
330
C
102
}
100
AcDbProxyObject
 90
      499
 91
      500
 93
       86
310
405010041939BDC9B585B0
350
1E1
340
1E1
 94
        0
  0
DICTIONARY
  5
335
102
{ACAD_REACTORS
330
C
102
}
100
AcDbDictionary
  3
CEPSNTYPE
350
33F
  3
DIMSTYLEDATA
350
343
  3
FINGERPRINTGUID
350
340
  3
HYPERLINKBASE
350
338
  3
INSUNITS
350
33E
  3
LAYOUTDICT
350
33A
  3
LWETCUNION
350
33D
  3
PLOTSETDICT
350
33B
  3
PLOTSTYLNAMDICT
350
33C
  3
PSVPSCALE
350
342
  3
PUCSBASE
350
346
  3
PUCSORGBACK
350
34C
  3
PUCSORGBOTTOM
350
348
  3
PUCSORGFRONT
350
34B
  3
PUCSORGLEFT
350
349
  3
PUCSORGRIGHT
350
34A
  3
PUCSORGTOP
350
347
  3
PUCSORTHOREF
350
344
  3
PUCSORTHOVIEW
350
345
  3
STYLESHEET
350
339
  3
TSTACKALIGN
350
336
  3
TSTACKSIZE
350
337
  3
UCSBASE
350
34F
  3
UCSORGBACK
350
355
  3
UCSORGBOTTOM
350
351
  3
UCSORGFRONT
350
354
  3
UCSORGLEFT
350
352
  3
UCSORGRIGHT
350
353
  3
UCSORGTOP
350
350
  3
UCSORTHOREF
350
34D
  3
UCSORTHOVIEW
350
34E
  3
VERSIONGUID
350
341
  0
XRECORD
  5
332
102
{ACAD_REACTORS
330
331
102
}
100
AcDbXrecord
102
EXTNAMES
  1
DEFPOINTS
  2
Defpoints
102
PLOTBIT
280
     0
  0
XRECORD
  5
359
102
{ACAD_REACTORS
330
358
102
}
100
AcDbXrecord
102
ACADR14ROUNDTRIP
1000
DSTYLE
1002
{
1070
   341
340
1F0
1070
   342
340
1EA
1002
}
  0
XRECORD
  5
357
102
{ACAD_REACTORS
330
30F
102
}
100
AcDbXrecord
340
18
  0
XRECORD
  5
356
102
{ACAD_REACTORS
330
30D
102
}
100
AcDbXrecord
340
15
  0
XRECORD
  5
32E
102
{ACAD_REACTORS
330
32D
102
}
100
AcDbXrecord
102
EXTNAMES
  1
_OPEN90
  2
_Open90
  0
XRECORD
  5
330
102
{ACAD_REACTORS
330
32F
102
}
100
AcDbXrecord
102
EXTNAMES
  1
_OPEN30
  2
_Open30
  0
GROUP
  5
212
102
{ACAD_REACTORS
330
D
102
}
100
AcDbGroup
300

 70
     1
 71
     1
340
20B
340
20F
340
20C
340
20A
340
211
340
20D
340
20E
340
210
  0
DICTIONARY
  5
35A
100
AcDbDictionary
280
     1
  3
ACAD_XREC_ROUNDTRIP
360
35B
  0
ACAD_PROXY_OBJECT
  5
1E4
102
{ACAD_REACTORS
330
1E2
102
}
100
AcDbProxyObject
 90
      499
 91
      502
 93
      548
310
90E4550534F4E20504D2D32303030432C01AAAAAAAAA5A69054D6F64656C901A800000000000000000000000000000000000000000000A1000000000000008902A6A6AAAAC
330
18
330
0
340
0
340
0
 94
        0
  0
ACAD_PROXY_OBJECT
  5
1E5
102
{ACAD_REACTORS
330
1E2
102
}
100
AcDbProxyObject
 90
      499
 91
      502
 93
      964
310
90E4550534F4E20504D2D32303030432C00AAAAAA416AA59106906DAB2B1B3C43140501A800000000000000000000000000000000000000000000A1000000000000008902A6A6A10232D5E076BC5510408CB5781DAF154410232D5E076BC5510408CB5781DAF15C410232D5E076BC5710408CB5781DAF15C4F
330
15
330
0
340
0
340
0
 94
        0
  0
MLINESTYLE
  5
1C
102
{ACAD_REACTORS
330
1B
102
}
100
AcDbMlineStyle
  2
STANDARD
 70
     0
  3

 62
   256
 51
90.0
 52
90.0
 71
     2
 49
0.5
 62
   256
  6
BYLAYER
 49
-0.5
 62
   256
  6
BYLAYER
  0
ACAD_PROXY_OBJECT
  5
1E1
102
{ACAD_REACTORS
330
1E0
102
}
100
AcDbProxyObject
 90
      499
 91
      501
 93
        0
 94
        0
  0
XRECORD
  5
33F
102
{ACAD_REACTORS
330
335
102
}
100
AcDbXrecord
 90
        0
  0
XRECORD
  5
343
102
{ACAD_REACTORS
330
335
102
}
100
AcDbXrecord
1000
DSTYLE
1002
{
1070
   341
340
1F0
1070
   342
340
1EA
1002
}
  0
XRECORD
  5
340
102
{ACAD_REACTORS
330
335
102
}
100
AcDbXrecord
  1
{E93137A6-615B-43B1-9A91-0464DA236969}
  0
XRECORD
  5
338
102
{ACAD_REACTORS
330
335
102
}
100
AcDbXrecord
  1

  0
XRECORD
  5
33E
102
{ACAD_REACTORS
330
335
102
}
100
AcDbXrecord
 90
        0
  0
XRECORD
  5
33A
102
{ACAD_REACTORS
330
335
102
}
100
AcDbXrecord
340
1E2
  0
XRECORD
  5
33D
102
{ACAD_REACTORS
330
335
102
}
100
AcDbXrecord
 90
    14877
  0
XRECORD
  5
33B
102
{ACAD_REACTORS
330
335
102
}
100
AcDbXrecord
340
1E3
  0
XRECORD
  5
33C
102
{ACAD_REACTORS
330
335
102
}
100
AcDbXrecord
340
1E0
  0
XRECORD
  5
342
102
{ACAD_REACTORS
330
335
102
}
100
AcDbXrecord
 40
0.0
  0
XRECORD
  5
346
102
{ACAD_REACTORS
330
335
102
}
100
AcDbXrecord
340
0
  0
XRECORD
  5
34C
102
{ACAD_REACTORS
330
335
102
}
100
AcDbXrecord
 10
0.0
 20
0.0
 30
0.0
  0
XRECORD
  5
348
102
{ACAD_REACTORS
330
335
102
}
100
AcDbXrecord
 10
0.0
 20
0.0
 30
0.0
  0
XRECORD
  5
34B
102
{ACAD_REACTORS
330
335
102
}
100
AcDbXrecord
 10
0.0
 20
0.0
 30
0.0
  0
XRECORD
  5
349
102
{ACAD_REACTORS
330
335
102
}
100
AcDbXrecord
 10
0.0
 20
0.0
 30
0.0
  0
XRECORD
  5
34A
102
{ACAD_REACTORS
330
335
102
}
100
AcDbXrecord
 10
0.0
 20
0.0
 30
0.0
  0
XRECORD
  5
347
102
{ACAD_REACTORS
330
335
102
}
100
AcDbXrecord
 10
0.0
 20
0.0
 30
0.0
  0
XRECORD
  5
344
102
{ACAD_REACTORS
330
335
102
}
100
AcDbXrecord
340
0
  0
XRECORD
  5
345
102
{ACAD_REACTORS
330
335
102
}
100
AcDbXrecord
 70
     0
  0
XRECORD
  5
339
102
{ACAD_REACTORS
330
335
102
}
100
AcDbXrecord
  1

  0
XRECORD
  5
336
102
{ACAD_REACTORS
330
335
102
}
100
AcDbXrecord
 90
        1
  0
XRECORD
  5
337
102
{ACAD_REACTORS
330
335
102
}
100
AcDbXrecord
 90
       70
  0
XRECORD
  5
34F
102
{ACAD_REACTORS
330
335
102
}
100
AcDbXrecord
340
0
  0
XRECORD
  5
355
102
{ACAD_REACTORS
330
335
102
}
100
AcDbXrecord
 10
0.0
 20
0.0
 30
0.0
  0
XRECORD
  5
351
102
{ACAD_REACTORS
330
335
102
}
100
AcDbXrecord
 10
0.0
 20
0.0
 30
0.0
  0
XRECORD
  5
354
102
{ACAD_REACTORS
330
335
102
}
100
AcDbXrecord
 10
0.0
 20
0.0
 30
0.0
  0
XRECORD
  5
352
102
{ACAD_REACTORS
330
335
102
}
100
AcDbXrecord
 10
0.0
 20
0.0
 30
0.0
  0
XRECORD
  5
353
102
{ACAD_REACTORS
330
335
102
}
100
AcDbXrecord
 10
0.0
 20
0.0
 30
0.0
  0
XRECORD
  5
350
102
{ACAD_REACTORS
330
335
102
}
100
AcDbXrecord
 10
0.0
 20
0.0
 30
0.0
  0
XRECORD
  5
34D
102
{ACAD_REACTORS
330
335
102
}
100
AcDbXrecord
340
0
  0
XRECORD
  5
34E
102
{ACAD_REACTORS
330
335
102
}
100
AcDbXrecord
 70
     0
  0
XRECORD
  5
341
102
{ACAD_REACTORS
330
335
102
}
100
AcDbXrecord
  1
{574B58F9-3705-4990-833F-28984F7E8C4C}
  0
XRECORD
  5
35B
102
{ACAD_REACTORS
330
35A
102
}
100
AcDbXrecord
102
EXTNAMES
  1
MODEL
  2
Model
  0
ENDSEC
  0
EOF
