  0
SECTION
  2
HEADER
  9
$ACADVER
  1
AC1014
  9
$ACADMAINTVER
 70
     0
  9
$DWGCODEPAGE
  3
ANSI_932
  9
$INSBASE
 10
0.0
 20
0.0
 30
0.0
  9
$EXTMIN
 10
-92.099898
 20
-120.380851
 30
0.0
  9
$EXTMAX
 10
152.308262
 20
34.999999
 30
30.0
  9
$LIMMIN
 10
-158.461255
 20
-187.080935
  9
$LIMMAX
 10
266.225501
 20
100.088064
  9
$ORTHOMODE
 70
     0
  9
$REGENMODE
 70
     1
  9
$FILLMODE
 70
     1
  9
$QTEXTMODE
 70
     0
  9
$MIRRTEXT
 70
     1
  9
$DRAGMODE
 70
     2
  9
$LTSCALE
 40
1.0
  9
$OSMODE
 70
    33
  9
$ATTMODE
 70
     1
  9
$TEXTSIZE
 40
0.2
  9
$TRACEWID
 40
0.05
  9
$TEXTSTYLE
  7
STANDARD
  9
$CLAYER
  8
0
  9
$CELTYPE
  6
CONTINUOUS
  9
$CECOLOR
 62
   256
  9
$CELTSCALE
 40
1.0
  9
$DELOBJ
 70
     1
  9
$DISPSILH
 70
     0
  9
$DIMSCALE
 40
1.0
  9
$DIMASZ
 40
2.0
  9
$DIMEXO
 40
1.0
  9
$DIMDLI
 40
10.0
  9
$DIMRND
 40
0.0
  9
$DIMDLE
 40
0.0
  9
$DIMEXE
 40
1.0
  9
$DIMTP
 40
0.0
  9
$DIMTM
 40
0.0
  9
$DIMTXT
 40
3.0
  9
$DIMCEN
 40
2.0
  9
$DIMTSZ
 40
0.0
  9
$DIMTOL
 70
     0
  9
$DIMLIM
 70
     0
  9
$DIMTIH
 70
     0
  9
$DIMTOH
 70
     0
  9
$DIMSE1
 70
     0
  9
$DIMSE2
 70
     0
  9
$DIMTAD
 70
     1
  9
$DIMZIN
 70
     8
  9
$DIMBLK
  1
OPEN30
  9
$DIMASO
 70
     1
  9
$DIMSHO
 70
     1
  9
$DIMPOST
  1

  9
$DIMAPOST
  1

  9
$DIMALT
 70
     0
  9
$DIMALTD
 70
     2
  9
$DIMALTF
 40
25.4
  9
$DIMLFAC
 40
1.0
  9
$DIMTOFL
 70
     1
  9
$DIMTVP
 40
0.0
  9
$DIMTIX
 70
     0
  9
$DIMSOXD
 70
     0
  9
$DIMSAH
 70
     0
  9
$DIMBLK1
  1

  9
$DIMBLK2
  1

  9
$DIMSTYLE
  2
STANDARD
  9
$DIMCLRD
 70
     1
  9
$DIMCLRE
 70
     1
  9
$DIMCLRT
 70
     1
  9
$DIMTFAC
 40
1.0
  9
$DIMGAP
 40
1.0
  9
$DIMJUST
 70
     0
  9
$DIMSD1
 70
     0
  9
$DIMSD2
 70
     0
  9
$DIMTOLJ
 70
     1
  9
$DIMTZIN
 70
     0
  9
$DIMALTZ
 70
     0
  9
$DIMALTTZ
 70
     0
  9
$DIMFIT
 70
     3
  9
$DIMUPT
 70
     0
  9
$DIMUNIT
 70
     2
  9
$DIMDEC
 70
     2
  9
$DIMTDEC
 70
     2
  9
$DIMALTU
 70
     2
  9
$DIMALTTD
 70
     2
  9
$DIMTXSTY
  7
STANDARD
  9
$DIMAUNIT
 70
     0
  9
$LUNITS
 70
     2
  9
$LUPREC
 70
     4
  9
$SKETCHINC
 40
0.1
  9
$FILLETRAD
 40
0.0
  9
$AUNITS
 70
     0
  9
$AUPREC
 70
     0
  9
$MENU
  1
acad
  9
$ELEVATION
 40
0.0
  9
$PELEVATION
 40
0.0
  9
$THICKNESS
 40
0.0
  9
$LIMCHECK
 70
     0
  9
$BLIPMODE
 70
     0
  9
$CHAMFERA
 40
0.0
  9
$CHAMFERB
 40
0.0
  9
$CHAMFERC
 40
0.0
  9
$CHAMFERD
 40
0.0
  9
$SKPOLY
 70
     0
  9
$TDCREATE
 40
2444972.375000000
  9
$TDUPDATE
 40
2451977.473668981
  9
$TDINDWG
 40
0.0122092593
  9
$TDUSRTIMER
 40
0.0122092593
  9
$USRTIMER
 70
     1
  9
$ANGBASE
 50
0.0
  9
$ANGDIR
 70
     0
  9
$PDMODE
 70
     0
  9
$PDSIZE
 40
0.0
  9
$PLINEWID
 40
0.0
  9
$COORDS
 70
     1
  9
$SPLFRAME
 70
     0
  9
$SPLINETYPE
 70
     6
  9
$SPLINESEGS
 70
     8
  9
$ATTDIA
 70
     0
  9
$ATTREQ
 70
     1
  9
$HANDLING
 70
     1
  9
$HANDSEED
  5
2A9
  9
$SURFTAB1
 70
     6
  9
$SURFTAB2
 70
     6
  9
$SURFTYPE
 70
     6
  9
$SURFU
 70
     6
  9
$SURFV
 70
     6
  9
$UCSNAME
  2

  9
$UCSORG
 10
0.0
 20
0.0
 30
0.0
  9
$UCSXDIR
 10
1.0
 20
0.0
 30
0.0
  9
$UCSYDIR
 10
0.0
 20
1.0
 30
0.0
  9
$PUCSNAME
  2

  9
$PUCSORG
 10
0.0
 20
0.0
 30
0.0
  9
$PUCSXDIR
 10
1.0
 20
0.0
 30
0.0
  9
$PUCSYDIR
 10
0.0
 20
1.0
 30
0.0
  9
$USERI1
 70
     0
  9
$USERI2
 70
     0
  9
$USERI3
 70
     0
  9
$USERI4
 70
     0
  9
$USERI5
 70
     0
  9
$USERR1
 40
0.0
  9
$USERR2
 40
0.0
  9
$USERR3
 40
0.0
  9
$USERR4
 40
0.0
  9
$USERR5
 40
0.0
  9
$WORLDVIEW
 70
     1
  9
$SHADEDGE
 70
     3
  9
$SHADEDIF
 70
    70
  9
$TILEMODE
 70
     1
  9
$MAXACTVP
 70
    48
  9
$PINSBASE
 10
0.0
 20
0.0
 30
0.0
  9
$PLIMCHECK
 70
     0
  9
$PEXTMIN
 10
1.000000E+20
 20
1.000000E+20
 30
1.000000E+20
  9
$PEXTMAX
 10
-1.000000E+20
 20
-1.000000E+20
 30
-1.000000E+20
  9
$PLIMMIN
 10
0.0
 20
0.0
  9
$PLIMMAX
 10
12.0
 20
9.0
  9
$UNITMODE
 70
     0
  9
$VISRETAIN
 70
     1
  9
$PLINEGEN
 70
     0
  9
$PSLTSCALE
 70
     1
  9
$TREEDEPTH
 70
  3020
  9
$PICKSTYLE
 70
     1
  9
$CMLSTYLE
  2
STANDARD
  9
$CMLJUST
 70
     0
  9
$CMLSCALE
 40
1.0
  9
$PROXYGRAPHICS
 70
     1
  9
$MEASUREMENT
 70
     0
  0
ENDSEC
  0
SECTION
  2
CLASSES
  0
CLASS
  1
ACDBDICTIONARYWDFLT
  2
AcDbDictionaryWithDefault
  3
AutoCAD 2000
 90
        0
280
     0
281
     0
  0
CLASS
  1
ACDBPLACEHOLDER
  2
AcDbPlaceHolder
  3
AutoCAD 2000
 90
        0
280
     0
281
     0
  0
CLASS
  1
LAYOUT
  2
AcDbLayout
  3
AutoCAD 2000
 90
        0
280
     0
281
     0
  0
CLASS
  1
LONG_TRANSACTION
  2
AcDbLongTransaction
  3
AutoCAD 2000
 90
        0
280
     0
281
     0
  0
CLASS
  1
LWPOLYLINE
  2
AcDbPolyline
  3
"AutoCAD"
 90
        0
280
     0
281
     1
  0
CLASS
  1
HATCH
  2
AcDbHatch
  3
"ACAD_SEDONA"
 90
        0
280
     0
281
     1
  0
CLASS
  1
XRECORD
  2
AcDbXrecord
  3
"<Built In>"
 90
        0
280
     0
281
     0
  0
CLASS
  1
LONG_TRANSACTION
  2
AcDbLongTransaction
  3
AutoCAD 2000
 90
        0
280
     0
281
     0
  0
CLASS
  1
LWPOLYLINE
  2
AcDbPolyline
  3
"AutoCAD"
 90
        0
280
     0
281
     1
  0
CLASS
  1
HATCH
  2
AcDbHatch
  3
"ACAD_SEDONA"
 90
        0
280
     0
281
     1
  0
CLASS
  1
XRECORD
  2
AcDbXrecord
  3
"<Built In>"
 90
        0
280
     0
281
     0
  0
ENDSEC
  0
SECTION
  2
TABLES
  0
TABLE
  2
VPORT
  5
8
100
AcDbSymbolTable
 70
     2
  0
VPORT
  5
2A8
100
AcDbSymbolTableRecord
100
AcDbViewportTableRecord
  2
*ACTIVE
 70
     0
 10
0.0
 20
0.0
 11
1.0
 21
1.0
 12
30.083587
 22
-49.921952
 13
0.0
 23
0.0
 14
10.0
 24
10.0
 15
10.0
 25
10.0
 16
0.0
 26
0.0
 36
1.0
 17
0.0
 27
0.0
 37
0.0
 40
237.177353
 41
1.710425
 42
50.0
 43
0.0
 44
0.0
 50
0.0
 51
0.0
 71
     0
 72
   100
 73
     1
 74
     1
 75
     0
 76
     0
 77
     0
 78
     0
  0
ENDTAB
  0
TABLE
  2
LTYPE
  5
5
100
AcDbSymbolTable
 70
     5
  0
LTYPE
  5
12
100
AcDbSymbolTableRecord
100
AcDbLinetypeTableRecord
  2
BYBLOCK
 70
     0
  3

 72
    65
 73
     0
 40
0.0
  0
LTYPE
  5
13
100
AcDbSymbolTableRecord
100
AcDbLinetypeTableRecord
  2
BYLAYER
 70
     0
  3

 72
    65
 73
     0
 40
0.0
  0
LTYPE
  5
14
100
AcDbSymbolTableRecord
100
AcDbLinetypeTableRecord
  2
CONTINUOUS
 70
     0
  3
Solid line
 72
    65
 73
     0
 40
0.0
  0
LTYPE
  5
1F
100
AcDbSymbolTableRecord
100
AcDbLinetypeTableRecord
  2
DASHED
 70
     0
  3
__ __ __ __ __ __ __ __ __ __ __ __ __ __ __
 72
    65
 73
     2
 40
3.5
 49
2.0
 74
     0
 49
-1.5
 74
     0
  0
LTYPE
  5
20
100
AcDbSymbolTableRecord
100
AcDbLinetypeTableRecord
  2
CENTER
 70
     0
  3
____ _ ____ _ ____ _ ____ _ ____ _ ____ _ ____
 72
    65
 73
     4
 40
17.5
 49
13.0
 74
     0
 49
-1.5
 74
     0
 49
1.5
 74
     0
 49
-1.5
 74
     0
  0
LTYPE
  5
21
100
AcDbSymbolTableRecord
100
AcDbLinetypeTableRecord
  2
PHANTOM
 70
     0
  3
_____ _ _ _____ _ _ _____ _ _ _____ _ _ ____  
 72
    65
 73
     6
 40
15.5
 49
8.0
 74
     0
 49
-1.5
 74
     0
 49
1.5
 74
     0
 49
-1.5
 74
     0
 49
1.5
 74
     0
 49
-1.5
 74
     0
  0
LTYPE
  5
22
100
AcDbSymbolTableRecord
100
AcDbLinetypeTableRecord
  2
DOT
 70
     0
  3
. . . . . . . . . . . . . . . . . . . . . . . .
 72
    65
 73
     2
 40
0.25
 49
0.0
 74
     0
 49
-0.25
 74
     0
  0
ENDTAB
  0
TABLE
  2
LAYER
  5
2
100
AcDbSymbolTable
 70
     3
  0
LAYER
  5
E
100
AcDbSymbolTableRecord
100
AcDbLayerTableRecord
  2
0
 70
     0
 62
     7
  6
CONTINUOUS
  0
LAYER
  5
121
100
AcDbSymbolTableRecord
100
AcDbLayerTableRecord
  2
寸法
 70
     0
 62
     1
  6
CONTINUOUS
  0
LAYER
  5
129
102
{ACAD_XDICTIONARY
360
251
102
}
100
AcDbSymbolTableRecord
100
AcDbLayerTableRecord
  2
DEFPOINTS
 70
     0
 62
     7
  6
CONTINUOUS
  0
ENDTAB
  0
TABLE
  2
STYLE
  5
3
100
AcDbSymbolTable
 70
     1
  0
STYLE
  5
F
100
AcDbSymbolTableRecord
100
AcDbTextStyleTableRecord
  2
STANDARD
 70
     0
 40
0.0
 41
1.0
 50
0.0
 71
     0
 42
0.2
  3
txt
  4
BIGFONT
  0
ENDTAB
  0
TABLE
  2
VIEW
  5
6
100
AcDbSymbolTable
 70
     0
  0
ENDTAB
  0
TABLE
  2
UCS
  5
7
100
AcDbSymbolTable
 70
     0
  0
ENDTAB
  0
TABLE
  2
APPID
  5
9
100
AcDbSymbolTable
 70
     1
  0
APPID
  5
10
100
AcDbSymbolTableRecord
100
AcDbRegAppTableRecord
  2
ACAD
 70
     0
  0
ENDTAB
  0
TABLE
  2
DIMSTYLE
  5
A
100
AcDbSymbolTable
 70
     1
  0
DIMSTYLE
105
111
102
{ACAD_XDICTIONARY
360
278
102
}
102
{ACAD_REACTORS
330
128
330
13A
330
147
330
154
330
163
330
170
330
17D
330
18A
330
197
330
1BF
330
1D2
102
}
100
AcDbSymbolTableRecord
100
AcDbDimStyleTableRecord
  2
STANDARD
 70
     0
  3

  4

  5
OPEN30
  6

  7

 40
1.0
 41
2.0
 42
1.0
 43
10.0
 44
1.0
 45
0.0
 46
0.0
 47
0.0
 48
0.0
140
3.0
141
2.0
142
0.0
143
25.4
144
1.0
145
0.0
146
1.0
147
1.0
 71
     0
 72
     0
 73
     0
 74
     0
 75
     0
 76
     0
 77
     1
 78
     8
170
     0
171
     2
172
     1
173
     0
174
     0
175
     0
176
     1
177
     1
178
     1
270
     2
271
     2
272
     2
273
     2
274
     2
340
F
275
     0
280
     0
281
     0
282
     0
283
     1
284
     0
285
     0
286
     0
287
     3
288
     0
  0
ENDTAB
  0
TABLE
  2
BLOCK_RECORD
  5
1
100
AcDbSymbolTable
 70
    12
  0
BLOCK_RECORD
  5
18
102
{ACAD_XDICTIONARY
360
222
102
}
100
AcDbSymbolTableRecord
100
AcDbBlockTableRecord
  2
*MODEL_SPACE
  0
BLOCK_RECORD
  5
15
102
{ACAD_XDICTIONARY
360
220
102
}
100
AcDbSymbolTableRecord
100
AcDbBlockTableRecord
  2
*PAPER_SPACE
  0
BLOCK_RECORD
  5
122
102
{ACAD_XDICTIONARY
360
24F
102
}
100
AcDbSymbolTableRecord
100
AcDbBlockTableRecord
  2
_OPEN30
  0
BLOCK_RECORD
  5
12A
100
AcDbSymbolTableRecord
100
AcDbBlockTableRecord
  2
*D1
  0
BLOCK_RECORD
  5
13B
100
AcDbSymbolTableRecord
100
AcDbBlockTableRecord
  2
*D2
  0
BLOCK_RECORD
  5
148
100
AcDbSymbolTableRecord
100
AcDbBlockTableRecord
  2
*D3
  0
BLOCK_RECORD
  5
155
100
AcDbSymbolTableRecord
100
AcDbBlockTableRecord
  2
*D4
  0
BLOCK_RECORD
  5
164
100
AcDbSymbolTableRecord
100
AcDbBlockTableRecord
  2
*D5
  0
BLOCK_RECORD
  5
171
100
AcDbSymbolTableRecord
100
AcDbBlockTableRecord
  2
*D6
  0
BLOCK_RECORD
  5
17E
100
AcDbSymbolTableRecord
100
AcDbBlockTableRecord
  2
*D7
  0
BLOCK_RECORD
  5
18B
100
AcDbSymbolTableRecord
100
AcDbBlockTableRecord
  2
*D8
  0
BLOCK_RECORD
  5
198
100
AcDbSymbolTableRecord
100
AcDbBlockTableRecord
  2
*D9
  0
BLOCK_RECORD
  5
1C0
100
AcDbSymbolTableRecord
100
AcDbBlockTableRecord
  2
*D10
  0
BLOCK_RECORD
  5
1D3
100
AcDbSymbolTableRecord
100
AcDbBlockTableRecord
  2
*D11
  0
ENDTAB
  0
ENDSEC
  0
SECTION
  2
BLOCKS
  0
BLOCK
  5
19
100
AcDbEntity
  8
0
100
AcDbBlockBegin
  2
*MODEL_SPACE
 70
     0
 10
0.0
 20
0.0
 30
0.0
  3
*MODEL_SPACE
  1

  0
ENDBLK
  5
1A
100
AcDbEntity
  8
0
100
AcDbBlockEnd
  0
BLOCK
  5
16
100
AcDbEntity
 67
     1
  8
0
100
AcDbBlockBegin
  2
*PAPER_SPACE
 70
     0
 10
0.0
 20
0.0
 30
0.0
  3
*PAPER_SPACE
  1

  0
ENDBLK
  5
17
100
AcDbEntity
 67
     1
  8
0
100
AcDbBlockEnd
  0
BLOCK
  5
126
100
AcDbEntity
  8
0
100
AcDbBlockBegin
  2
_OPEN30
 70
     0
 10
0.0
 20
0.0
 30
0.0
  3
_OPEN30
  1

  0
LINE
  5
123
100
AcDbEntity
  8
0
  6
BYBLOCK
 62
     0
100
AcDbLine
 10
-1.0
 20
0.267949
 30
0.0
 11
0.0
 21
0.0
 31
0.0
1001
ACAD
1000
RTLwPs
1070
   158
  0
LINE
  5
124
100
AcDbEntity
  8
0
  6
BYBLOCK
 62
     0
100
AcDbLine
 10
0.0
 20
0.0
 30
0.0
 11
-1.0
 21
-0.267949
 31
0.0
1001
ACAD
1000
RTLwPs
1070
   158
  0
LINE
  5
125
100
AcDbEntity
  8
0
  6
BYBLOCK
 62
     0
100
AcDbLine
 10
0.0
 20
0.0
 30
0.0
 11
-1.0
 21
0.0
 31
0.0
1001
ACAD
1000
RTLwPs
1070
   158
  0
ENDBLK
  5
127
100
AcDbEntity
  8
0
100
AcDbBlockEnd
  0
BLOCK
  5
138
100
AcDbEntity
  8
0
100
AcDbBlockBegin
  2
*D1
 70
     1
 10
0.0
 20
0.0
 30
0.0
  3
*D1
  1

  0
LINE
  5
27C
100
AcDbEntity
  8
寸法
  6
CONTINUOUS
 62
     1
100
AcDbLine
 10
137.830167
 20
-93.118675
 30
0.0
 11
147.188983
 21
-102.477493
 31
0.0
  0
LINE
  5
27D
100
AcDbEntity
  8
寸法
  6
CONTINUOUS
 62
     1
100
AcDbLine
 10
136.139211
 20
-90.427719
 30
0.0
 11
152.180163
 21
-90.427719
 31
0.0
  0
ARC
  5
27E
100
AcDbEntity
  8
寸法
  6
CONTINUOUS
 62
     1
100
AcDbCircle
 10
135.139211
 20
-90.427719
 30
0.0
 40
16.040952
100
AcDbArc
 50
300.703348
 51
307.851672
  0
ARC
  5
27F
100
AcDbEntity
  8
寸法
  6
CONTINUOUS
 62
     1
100
AcDbCircle
 10
135.139211
 20
-90.427719
 30
0.0
 40
16.040952
100
AcDbArc
 50
7.148323
 51
14.296647
  0
ARC
  5
280
100
AcDbEntity
  8
寸法
  6
CONTINUOUS
 62
     1
100
AcDbCircle
 10
135.139211
 20
-90.427719
 30
0.0
 40
16.040952
100
AcDbArc
 50
314.999995
 51
0.0
  0
INSERT
  5
281
100
AcDbEntity
  8
寸法
  6
CONTINUOUS
 62
     1
100
AcDbBlockReference
  2
_OPEN30
 10
146.481876
 20
-101.770386
 30
0.0
 41
2.0
 42
2.0
 43
2.0
 50
41.425833
  0
INSERT
  5
282
100
AcDbEntity
  8
寸法
  6
CONTINUOUS
 62
     1
100
AcDbBlockReference
  2
_OPEN30
 10
151.180163
 20
-90.427719
 30
0.0
 41
2.0
 42
2.0
 43
2.0
 50
273.574162
  0
MTEXT
  5
283
100
AcDbEntity
  8
寸法
  6
CONTINUOUS
 62
     1
100
AcDbMText
 10
147.649419
 20
-95.609617
 30
0.0
 40
3.0
 41
0.0
 71
     5
 72
     1
  1
\A1;45°
 11
0.382683
 21
0.92388
 31
0.0
  0
POINT
  5
284
100
AcDbEntity
  8
DEFPOINTS
  6
CONTINUOUS
 62
     0
100
AcDbPoint
 10
149.031083
 20
-98.448196
 30
0.0
  0
POINT
  5
285
100
AcDbEntity
  8
DEFPOINTS
  6
CONTINUOUS
 62
     0
100
AcDbPoint
 10
116.13921
 20
-90.427719
 30
0.0
  0
POINT
  5
286
100
AcDbEntity
  8
DEFPOINTS
  6
CONTINUOUS
 62
     0
100
AcDbPoint
 10
119.37333
 20
-74.661835
 30
0.0
  0
POINT
  5
287
100
AcDbEntity
  8
DEFPOINTS
  6
CONTINUOUS
 62
     0
100
AcDbPoint
 10
137.12306
 20
-92.411568
 30
0.0
  0
POINT
  5
288
100
AcDbEntity
  8
DEFPOINTS
  6
CONTINUOUS
 62
     0
100
AcDbPoint
 10
134.139199
 20
-90.427719
 30
0.0
  0
ENDBLK
  5
139
100
AcDbEntity
  8
0
100
AcDbBlockEnd
  0
BLOCK
  5
145
100
AcDbEntity
  8
0
100
AcDbBlockBegin
  2
*D2
 70
     1
 10
0.0
 20
0.0
 30
0.0
  3
*D2
  1

  0
LINE
  5
13C
100
AcDbEntity
  8
寸法
  6
CONTINUOUS
 62
     1
100
AcDbLine
 10
68.724255
 20
-70.427719
 30
0.0
 11
91.0
 21
-70.427719
 31
0.0
1001
ACAD
1000
RTLwPs
1070
   158
  0
LINE
  5
13D
100
AcDbEntity
  8
寸法
  6
CONTINUOUS
 62
     1
100
AcDbLine
 10
68.724255
 20
-90.427719
 30
0.0
 11
91.0
 21
-90.427719
 31
0.0
1001
ACAD
1000
RTLwPs
1070
   158
  0
LINE
  5
13E
100
AcDbEntity
  8
寸法
  6
CONTINUOUS
 62
     1
100
AcDbLine
 10
90.0
 20
-72.427719
 30
0.0
 11
90.0
 21
-88.427719
 31
0.0
1001
ACAD
1000
RTLwPs
1070
   158
  0
INSERT
  5
13F
100
AcDbEntity
  8
寸法
  6
CONTINUOUS
 62
     1
100
AcDbBlockReference
  2
_OPEN30
 10
90.0
 20
-70.427719
 30
0.0
 41
2.0
 42
2.0
 43
2.0
 50
90.0
1001
ACAD
1000
RTLwPs
1070
   158
  0
INSERT
  5
140
100
AcDbEntity
  8
寸法
  6
CONTINUOUS
 62
     1
100
AcDbBlockReference
  2
_OPEN30
 10
90.0
 20
-90.427719
 30
0.0
 41
2.0
 42
2.0
 43
2.0
 50
270.0
1001
ACAD
1000
RTLwPs
1070
   158
  0
MTEXT
  5
141
100
AcDbEntity
  8
寸法
  6
CONTINUOUS
 62
     1
100
AcDbMText
 10
87.5
 20
-80.427719
 30
0.0
 40
3.0
 41
0.0
 71
     5
 72
     1
  1
\A1;20
 11
0.0
 21
1.0
 31
0.0
1001
ACAD
1000
MTEXTBEGIN
1070
    73
1070
     1
1070
    44
1040
1.0
1070
    74
1070
     0
1000
MTEXTEND
1000
MTEXTBEGIN
1070
    73
1070
     1
1070
    44
1040
1.0
1070
    74
1070
     0
1000
MTEXTEND
  0
POINT
  5
142
100
AcDbEntity
  8
DEFPOINTS
  6
CONTINUOUS
 62
     0
100
AcDbPoint
 10
67.724255
 20
-70.427719
 30
0.0
  0
POINT
  5
143
100
AcDbEntity
  8
DEFPOINTS
  6
CONTINUOUS
 62
     0
100
AcDbPoint
 10
67.724255
 20
-90.427719
 30
0.0
  0
POINT
  5
144
100
AcDbEntity
  8
DEFPOINTS
  6
CONTINUOUS
 62
     0
100
AcDbPoint
 10
90.0
 20
-90.427719
 30
0.0
  0
ENDBLK
  5
146
100
AcDbEntity
  8
0
100
AcDbBlockEnd
  0
BLOCK
  5
152
100
AcDbEntity
  8
0
100
AcDbBlockBegin
  2
*D3
 70
     1
 10
0.0
 20
0.0
 30
0.0
  3
*D3
  1

  0
LINE
  5
1AD
100
AcDbEntity
  8
寸法
  6
CONTINUOUS
 62
     1
100
AcDbLine
 10
6.724256
 20
-70.427719
 30
0.0
 11
-11.0
 21
-70.427719
 31
0.0
1001
ACAD
1000
RTLwPs
1070
   158
  0
LINE
  5
1AE
100
AcDbEntity
  8
寸法
  6
CONTINUOUS
 62
     1
100
AcDbLine
 10
12.658804
 20
-90.427719
 30
0.0
 11
-11.0
 21
-90.427719
 31
0.0
1001
ACAD
1000
RTLwPs
1070
   158
  0
LINE
  5
1AF
100
AcDbEntity
  8
寸法
  6
CONTINUOUS
 62
     1
100
AcDbLine
 10
-10.0
 20
-72.427719
 30
0.0
 11
-10.0
 21
-88.427719
 31
0.0
1001
ACAD
1000
RTLwPs
1070
   158
  0
INSERT
  5
1B0
100
AcDbEntity
  8
寸法
  6
CONTINUOUS
 62
     1
100
AcDbBlockReference
  2
_OPEN30
 10
-10.0
 20
-70.427719
 30
0.0
 41
2.0
 42
2.0
 43
2.0
 50
90.0
1001
ACAD
1000
RTLwPs
1070
   158
  0
INSERT
  5
1B1
100
AcDbEntity
  8
寸法
  6
CONTINUOUS
 62
     1
100
AcDbBlockReference
  2
_OPEN30
 10
-10.0
 20
-90.427719
 30
0.0
 41
2.0
 42
2.0
 43
2.0
 50
270.0
1001
ACAD
1000
RTLwPs
1070
   158
  0
MTEXT
  5
1B2
100
AcDbEntity
  8
寸法
  6
CONTINUOUS
 62
     1
100
AcDbMText
 10
-12.5
 20
-80.427719
 30
0.0
 40
3.0
 41
0.0
 71
     5
 72
     1
  1
\A1;20
 11
0.0
 21
1.0
 31
0.0
1001
ACAD
1000
MTEXTBEGIN
1070
    73
1070
     1
1070
    44
1040
1.0
1070
    74
1070
     0
1000
MTEXTEND
1000
MTEXTBEGIN
1070
    73
1070
     1
1070
    44
1040
1.0
1070
    74
1070
     0
1000
MTEXTEND
  0
POINT
  5
1B3
100
AcDbEntity
  8
DEFPOINTS
  6
CONTINUOUS
 62
     0
100
AcDbPoint
 10
7.724256
 20
-70.427719
 30
0.0
  0
POINT
  5
1B4
100
AcDbEntity
  8
DEFPOINTS
  6
CONTINUOUS
 62
     0
100
AcDbPoint
 10
13.658804
 20
-90.427719
 30
0.0
  0
POINT
  5
1B5
100
AcDbEntity
  8
DEFPOINTS
  6
CONTINUOUS
 62
     0
100
AcDbPoint
 10
-10.0
 20
-90.427719
 30
0.0
  0
ENDBLK
  5
153
100
AcDbEntity
  8
0
100
AcDbBlockEnd
  0
BLOCK
  5
161
100
AcDbEntity
  8
0
100
AcDbBlockBegin
  2
*D4
 70
     1
 10
0.0
 20
0.0
 30
0.0
  3
*D4
  1

  0
LINE
  5
156
100
AcDbEntity
  8
寸法
  6
CONTINUOUS
 62
     1
100
AcDbLine
 10
48.724255
 20
-87.772537
 30
0.0
 11
48.724255
 21
-101.0
 31
0.0
1001
ACAD
1000
RTLwPs
1070
   158
  0
LINE
  5
157
100
AcDbEntity
  8
寸法
  6
CONTINUOUS
 62
     1
100
AcDbLine
 10
46.724255
 20
-87.772537
 30
0.0
 11
46.724255
 21
-101.0
 31
0.0
1001
ACAD
1000
RTLwPs
1070
   158
  0
LINE
  5
158
100
AcDbEntity
  8
寸法
  6
CONTINUOUS
 62
     1
100
AcDbLine
 10
50.724255
 20
-100.0
 30
0.0
 11
52.724255
 21
-100.0
 31
0.0
1001
ACAD
1000
RTLwPs
1070
   158
  0
LINE
  5
159
100
AcDbEntity
  8
寸法
  6
CONTINUOUS
 62
     1
100
AcDbLine
 10
44.724255
 20
-100.0
 30
0.0
 11
38.724255
 21
-100.0
 31
0.0
1001
ACAD
1000
RTLwPs
1070
   158
  0
LINE
  5
15A
100
AcDbEntity
  8
寸法
  6
CONTINUOUS
 62
     1
100
AcDbLine
 10
48.724255
 20
-100.0
 30
0.0
 11
46.724255
 21
-100.0
 31
0.0
1001
ACAD
1000
RTLwPs
1070
   158
  0
INSERT
  5
15B
100
AcDbEntity
  8
寸法
  6
CONTINUOUS
 62
     1
100
AcDbBlockReference
  2
_OPEN30
 10
48.724255
 20
-100.0
 30
0.0
 41
2.0
 42
2.0
 43
2.0
 50
180.0
1001
ACAD
1000
RTLwPs
1070
   158
  0
INSERT
  5
15C
100
AcDbEntity
  8
寸法
  6
CONTINUOUS
 62
     1
100
AcDbBlockReference
  2
_OPEN30
 10
46.724255
 20
-100.0
 30
0.0
 41
2.0
 42
2.0
 43
2.0
1001
ACAD
1000
RTLwPs
1070
   158
  0
MTEXT
  5
15D
100
AcDbEntity
  8
寸法
  6
CONTINUOUS
 62
     1
100
AcDbMText
 10
40.724255
 20
-97.5
 30
0.0
 40
3.0
 41
0.0
 71
     5
 72
     1
  1
\A1;2
1001
ACAD
1000
MTEXTBEGIN
1070
    73
1070
     1
1070
    44
1040
1.0
1070
    74
1070
     0
1000
MTEXTEND
1000
MTEXTBEGIN
1070
    73
1070
     1
1070
    44
1040
1.0
1070
    74
1070
     0
1000
MTEXTEND
  0
POINT
  5
15E
100
AcDbEntity
  8
DEFPOINTS
  6
CONTINUOUS
 62
     0
100
AcDbPoint
 10
48.724255
 20
-86.772537
 30
0.0
  0
POINT
  5
15F
100
AcDbEntity
  8
DEFPOINTS
  6
CONTINUOUS
 62
     0
100
AcDbPoint
 10
46.724255
 20
-86.772537
 30
0.0
  0
POINT
  5
160
100
AcDbEntity
  8
DEFPOINTS
  6
CONTINUOUS
 62
     0
100
AcDbPoint
 10
46.724255
 20
-100.0
 30
0.0
  0
ENDBLK
  5
162
100
AcDbEntity
  8
0
100
AcDbBlockEnd
  0
BLOCK
  5
16E
100
AcDbEntity
  8
0
100
AcDbBlockBegin
  2
*D5
 70
     1
 10
0.0
 20
0.0
 30
0.0
  3
*D5
  1

  0
LINE
  5
165
100
AcDbEntity
  8
寸法
  6
CONTINUOUS
 62
     1
100
AcDbLine
 10
77.724255
 20
-79.127724
 30
0.0
 11
77.724255
 21
-59.0
 31
0.0
1001
ACAD
1000
RTLwPs
1070
   158
  0
LINE
  5
166
100
AcDbEntity
  8
寸法
  6
CONTINUOUS
 62
     1
100
AcDbLine
 10
47.724255
 20
-66.423042
 30
0.0
 11
47.724255
 21
-59.0
 31
0.0
1001
ACAD
1000
RTLwPs
1070
   158
  0
LINE
  5
167
100
AcDbEntity
  8
寸法
  6
CONTINUOUS
 62
     1
100
AcDbLine
 10
75.724255
 20
-60.0
 30
0.0
 11
49.724255
 21
-60.0
 31
0.0
1001
ACAD
1000
RTLwPs
1070
   158
  0
INSERT
  5
168
100
AcDbEntity
  8
寸法
  6
CONTINUOUS
 62
     1
100
AcDbBlockReference
  2
_OPEN30
 10
77.724255
 20
-60.0
 30
0.0
 41
2.0
 42
2.0
 43
2.0
1001
ACAD
1000
RTLwPs
1070
   158
  0
INSERT
  5
169
100
AcDbEntity
  8
寸法
  6
CONTINUOUS
 62
     1
100
AcDbBlockReference
  2
_OPEN30
 10
47.724255
 20
-60.0
 30
0.0
 41
2.0
 42
2.0
 43
2.0
 50
180.0
1001
ACAD
1000
RTLwPs
1070
   158
  0
MTEXT
  5
16A
100
AcDbEntity
  8
寸法
  6
CONTINUOUS
 62
     1
100
AcDbMText
 10
62.724255
 20
-57.5
 30
0.0
 40
3.0
 41
0.0
 71
     5
 72
     1
  1
\A1;30
1001
ACAD
1000
MTEXTBEGIN
1070
    73
1070
     1
1070
    44
1040
1.0
1070
    74
1070
     0
1000
MTEXTEND
1000
MTEXTBEGIN
1070
    73
1070
     1
1070
    44
1040
1.0
1070
    74
1070
     0
1000
MTEXTEND
  0
POINT
  5
16B
100
AcDbEntity
  8
DEFPOINTS
  6
CONTINUOUS
 62
     0
100
AcDbPoint
 10
77.724255
 20
-80.127724
 30
0.0
  0
POINT
  5
16C
100
AcDbEntity
  8
DEFPOINTS
  6
CONTINUOUS
 62
     0
100
AcDbPoint
 10
47.724255
 20
-67.423042
 30
0.0
  0
POINT
  5
16D
100
AcDbEntity
  8
DEFPOINTS
  6
CONTINUOUS
 62
     0
100
AcDbPoint
 10
47.724255
 20
-60.0
 30
0.0
  0
ENDBLK
  5
16F
100
AcDbEntity
  8
0
100
AcDbBlockEnd
  0
BLOCK
  5
17B
100
AcDbEntity
  8
0
100
AcDbBlockBegin
  2
*D6
 70
     1
 10
0.0
 20
0.0
 30
0.0
  3
*D6
  1

  0
LINE
  5
172
100
AcDbEntity
  8
寸法
  6
CONTINUOUS
 62
     1
100
AcDbLine
 10
68.724255
 20
25.0
 30
0.0
 11
91.0
 21
25.0
 31
0.0
1001
ACAD
1000
RTLwPs
1070
   158
  0
LINE
  5
173
100
AcDbEntity
  8
寸法
  6
CONTINUOUS
 62
     1
100
AcDbLine
 10
68.724255
 20
6.0
 30
0.0
 11
91.0
 21
6.0
 31
0.0
1001
ACAD
1000
RTLwPs
1070
   158
  0
LINE
  5
174
100
AcDbEntity
  8
寸法
  6
CONTINUOUS
 62
     1
100
AcDbLine
 10
90.0
 20
23.0
 30
0.0
 11
90.0
 21
8.0
 31
0.0
1001
ACAD
1000
RTLwPs
1070
   158
  0
INSERT
  5
175
100
AcDbEntity
  8
寸法
  6
CONTINUOUS
 62
     1
100
AcDbBlockReference
  2
_OPEN30
 10
90.0
 20
25.0
 30
0.0
 41
2.0
 42
2.0
 43
2.0
 50
90.0
1001
ACAD
1000
RTLwPs
1070
   158
  0
INSERT
  5
176
100
AcDbEntity
  8
寸法
  6
CONTINUOUS
 62
     1
100
AcDbBlockReference
  2
_OPEN30
 10
90.0
 20
6.0
 30
0.0
 41
2.0
 42
2.0
 43
2.0
 50
270.0
1001
ACAD
1000
RTLwPs
1070
   158
  0
MTEXT
  5
177
100
AcDbEntity
  8
寸法
  6
CONTINUOUS
 62
     1
100
AcDbMText
 10
87.5
 20
15.5
 30
0.0
 40
3.0
 41
0.0
 71
     5
 72
     1
  1
\A1;19
 11
0.0
 21
1.0
 31
0.0
1001
ACAD
1000
MTEXTBEGIN
1070
    73
1070
     1
1070
    44
1040
1.0
1070
    74
1070
     0
1000
MTEXTEND
1000
MTEXTBEGIN
1070
    73
1070
     1
1070
    44
1040
1.0
1070
    74
1070
     0
1000
MTEXTEND
  0
POINT
  5
178
100
AcDbEntity
  8
DEFPOINTS
  6
CONTINUOUS
 62
     0
100
AcDbPoint
 10
67.724255
 20
25.0
 30
0.0
  0
POINT
  5
179
100
AcDbEntity
  8
DEFPOINTS
  6
CONTINUOUS
 62
     0
100
AcDbPoint
 10
67.724255
 20
6.0
 30
0.0
  0
POINT
  5
17A
100
AcDbEntity
  8
DEFPOINTS
  6
CONTINUOUS
 62
     0
100
AcDbPoint
 10
90.0
 20
6.0
 30
0.0
  0
ENDBLK
  5
17C
100
AcDbEntity
  8
0
100
AcDbBlockEnd
  0
BLOCK
  5
188
100
AcDbEntity
  8
0
100
AcDbBlockBegin
  2
*D7
 70
     1
 10
0.0
 20
0.0
 30
0.0
  3
*D7
  1

  0
LINE
  5
1B6
100
AcDbEntity
  8
寸法
  6
CONTINUOUS
 62
     1
100
AcDbLine
 10
6.724255
 20
25.0
 30
0.0
 11
-11.0
 21
25.0
 31
0.0
1001
ACAD
1000
RTLwPs
1070
   158
  0
LINE
  5
1B7
100
AcDbEntity
  8
寸法
  6
CONTINUOUS
 62
     1
100
AcDbLine
 10
6.724255
 20
0.0
 30
0.0
 11
-11.0
 21
0.0
 31
0.0
1001
ACAD
1000
RTLwPs
1070
   158
  0
LINE
  5
1B8
100
AcDbEntity
  8
寸法
  6
CONTINUOUS
 62
     1
100
AcDbLine
 10
-10.0
 20
23.0
 30
0.0
 11
-10.0
 21
2.0
 31
0.0
1001
ACAD
1000
RTLwPs
1070
   158
  0
INSERT
  5
1B9
100
AcDbEntity
  8
寸法
  6
CONTINUOUS
 62
     1
100
AcDbBlockReference
  2
_OPEN30
 10
-10.0
 20
25.0
 30
0.0
 41
2.0
 42
2.0
 43
2.0
 50
90.0
1001
ACAD
1000
RTLwPs
1070
   158
  0
INSERT
  5
1BA
100
AcDbEntity
  8
寸法
  6
CONTINUOUS
 62
     1
100
AcDbBlockReference
  2
_OPEN30
 10
-10.0
 20
0.0
 30
0.0
 41
2.0
 42
2.0
 43
2.0
 50
270.0
1001
ACAD
1000
RTLwPs
1070
   158
  0
MTEXT
  5
1BB
100
AcDbEntity
  8
寸法
  6
CONTINUOUS
 62
     1
100
AcDbMText
 10
-12.5
 20
12.5
 30
0.0
 40
3.0
 41
0.0
 71
     5
 72
     1
  1
\A1;25
 11
0.0
 21
1.0
 31
0.0
1001
ACAD
1000
MTEXTBEGIN
1070
    73
1070
     1
1070
    44
1040
1.0
1070
    74
1070
     0
1000
MTEXTEND
1000
MTEXTBEGIN
1070
    73
1070
     1
1070
    44
1040
1.0
1070
    74
1070
     0
1000
MTEXTEND
  0
POINT
  5
1BC
100
AcDbEntity
  8
DEFPOINTS
  6
CONTINUOUS
 62
     0
100
AcDbPoint
 10
7.724255
 20
25.0
 30
0.0
  0
POINT
  5
1BD
100
AcDbEntity
  8
DEFPOINTS
  6
CONTINUOUS
 62
     0
100
AcDbPoint
 10
7.724255
 20
0.0
 30
0.0
  0
POINT
  5
1BE
100
AcDbEntity
  8
DEFPOINTS
  6
CONTINUOUS
 62
     0
100
AcDbPoint
 10
-10.0
 20
0.0
 30
0.0
  0
ENDBLK
  5
189
100
AcDbEntity
  8
0
100
AcDbBlockEnd
  0
BLOCK
  5
195
100
AcDbEntity
  8
0
100
AcDbBlockBegin
  2
*D8
 70
     1
 10
0.0
 20
0.0
 30
0.0
  3
*D8
  1

  0
LINE
  5
18C
100
AcDbEntity
  8
寸法
  6
CONTINUOUS
 62
     1
100
AcDbLine
 10
77.724255
 20
13.199999
 30
0.0
 11
77.724255
 21
-21.0
 31
0.0
1001
ACAD
1000
RTLwPs
1070
   158
  0
LINE
  5
18D
100
AcDbEntity
  8
寸法
  6
CONTINUOUS
 62
     1
100
AcDbLine
 10
7.724255
 20
-1.0
 30
0.0
 11
7.724255
 21
-21.0
 31
0.0
1001
ACAD
1000
RTLwPs
1070
   158
  0
LINE
  5
18E
100
AcDbEntity
  8
寸法
  6
CONTINUOUS
 62
     1
100
AcDbLine
 10
75.724255
 20
-20.0
 30
0.0
 11
9.724255
 21
-20.0
 31
0.0
1001
ACAD
1000
RTLwPs
1070
   158
  0
INSERT
  5
18F
100
AcDbEntity
  8
寸法
  6
CONTINUOUS
 62
     1
100
AcDbBlockReference
  2
_OPEN30
 10
77.724255
 20
-20.0
 30
0.0
 41
2.0
 42
2.0
 43
2.0
1001
ACAD
1000
RTLwPs
1070
   158
  0
INSERT
  5
190
100
AcDbEntity
  8
寸法
  6
CONTINUOUS
 62
     1
100
AcDbBlockReference
  2
_OPEN30
 10
7.724255
 20
-20.0
 30
0.0
 41
2.0
 42
2.0
 43
2.0
 50
180.0
1001
ACAD
1000
RTLwPs
1070
   158
  0
MTEXT
  5
191
100
AcDbEntity
  8
寸法
  6
CONTINUOUS
 62
     1
100
AcDbMText
 10
42.724255
 20
-17.5
 30
0.0
 40
3.0
 41
0.0
 71
     5
 72
     1
  1
\A1;70
1001
ACAD
1000
MTEXTBEGIN
1070
    73
1070
     1
1070
    44
1040
1.0
1070
    74
1070
     0
1000
MTEXTEND
1000
MTEXTBEGIN
1070
    73
1070
     1
1070
    44
1040
1.0
1070
    74
1070
     0
1000
MTEXTEND
  0
POINT
  5
192
100
AcDbEntity
  8
DEFPOINTS
  6
CONTINUOUS
 62
     0
100
AcDbPoint
 10
77.724255
 20
14.199999
 30
0.0
  0
POINT
  5
193
100
AcDbEntity
  8
DEFPOINTS
  6
CONTINUOUS
 62
     0
100
AcDbPoint
 10
7.724255
 20
0.0
 30
0.0
  0
POINT
  5
194
100
AcDbEntity
  8
DEFPOINTS
  6
CONTINUOUS
 62
     0
100
AcDbPoint
 10
7.724255
 20
-20.0
 30
0.0
  0
ENDBLK
  5
196
100
AcDbEntity
  8
0
100
AcDbBlockEnd
  0
BLOCK
  5
1A2
100
AcDbEntity
  8
0
100
AcDbBlockBegin
  2
*D9
 70
     1
 10
0.0
 20
0.0
 30
0.0
  3
*D9
  1

  0
LINE
  5
289
100
AcDbEntity
  8
寸法
  6
CONTINUOUS
 62
     1
100
AcDbLine
 10
77.724255
 20
13.199999
 30
0.0
 11
77.724255
 21
-11.0
 31
0.0
  0
LINE
  5
28A
100
AcDbEntity
  8
寸法
  6
CONTINUOUS
 62
     1
100
AcDbLine
 10
67.724255
 20
5.0
 30
0.0
 11
67.724255
 21
-11.0
 31
0.0
  0
LINE
  5
28B
100
AcDbEntity
  8
寸法
  6
CONTINUOUS
 62
     1
100
AcDbLine
 10
75.724255
 20
-10.0
 30
0.0
 11
69.724255
 21
-10.0
 31
0.0
  0
INSERT
  5
28C
100
AcDbEntity
  8
寸法
  6
CONTINUOUS
 62
     1
100
AcDbBlockReference
  2
_OPEN30
 10
77.724255
 20
-10.0
 30
0.0
 41
2.0
 42
2.0
 43
2.0
  0
INSERT
  5
28D
100
AcDbEntity
  8
寸法
  6
CONTINUOUS
 62
     1
100
AcDbBlockReference
  2
_OPEN30
 10
67.724255
 20
-10.0
 30
0.0
 41
2.0
 42
2.0
 43
2.0
 50
180.0
  0
MTEXT
  5
28E
100
AcDbEntity
  8
寸法
  6
CONTINUOUS
 62
     1
100
AcDbMText
 10
72.724255
 20
-7.5
 30
0.0
 40
3.0
 41
0.0
 71
     5
 72
     1
  1
\A1;10
  0
POINT
  5
28F
100
AcDbEntity
  8
DEFPOINTS
  6
CONTINUOUS
 62
     0
100
AcDbPoint
 10
77.724255
 20
14.199999
 30
0.0
  0
POINT
  5
290
100
AcDbEntity
  8
DEFPOINTS
  6
CONTINUOUS
 62
     0
100
AcDbPoint
 10
67.724255
 20
6.0
 30
0.0
  0
POINT
  5
291
100
AcDbEntity
  8
DEFPOINTS
  6
CONTINUOUS
 62
     0
100
AcDbPoint
 10
67.724255
 20
-10.0
 30
0.0
  0
ENDBLK
  5
1A3
100
AcDbEntity
  8
0
100
AcDbBlockEnd
  0
BLOCK
  5
1CD
100
AcDbEntity
  8
0
100
AcDbBlockBegin
  2
*D10
 70
     1
 10
0.0
 20
0.0
 30
0.0
  3
*D10
  1

  0
LINE
  5
292
100
AcDbEntity
  8
寸法
  6
CONTINUOUS
 62
     1
100
AcDbLine
 10
6.724255
 20
0.0
 30
0.0
 11
-2.12951
 21
0.0
 31
0.0
  0
ARC
  5
293
100
AcDbEntity
  8
寸法
  6
CONTINUOUS
 62
     1
100
AcDbCircle
 10
7.724255
 20
0.0
 30
0.0
 40
8.853765
100
AcDbArc
 50
64.05926
 51
77.02963
  0
ARC
  5
294
100
AcDbEntity
  8
寸法
  6
CONTINUOUS
 62
     1
100
AcDbCircle
 10
7.724255
 20
0.0
 30
0.0
 40
8.853765
100
AcDbArc
 50
192.97037
 51
205.94074
  0
ARC
  5
295
100
AcDbEntity
  8
寸法
  6
CONTINUOUS
 62
     1
100
AcDbCircle
 10
7.724255
 20
0.0
 30
0.0
 40
8.853765
100
AcDbArc
 50
90.0
 51
180.0
  0
INSERT
  5
296
100
AcDbEntity
  8
寸法
  6
CONTINUOUS
 62
     1
100
AcDbBlockReference
  2
_OPEN30
 10
7.724255
 20
8.853765
 30
0.0
 41
2.0
 42
2.0
 43
2.0
 50
173.514815
  0
INSERT
  5
297
100
AcDbEntity
  8
寸法
  6
CONTINUOUS
 62
     1
100
AcDbBlockReference
  2
_OPEN30
 10
-1.12951
 20
0.0
 30
0.0
 41
2.0
 42
2.0
 43
2.0
 50
96.485185
  0
MTEXT
  5
298
100
AcDbEntity
  8
寸法
  6
CONTINUOUS
 62
     1
100
AcDbMText
 10
-0.304069
 20
8.028324
 30
0.0
 40
3.0
 41
0.0
 71
     5
 72
     1
  1
\A1;90°
 11
0.707107
 21
0.707107
 31
0.0
  0
POINT
  5
299
100
AcDbEntity
  8
DEFPOINTS
  6
CONTINUOUS
 62
     0
100
AcDbPoint
 10
3.297373
 20
7.667585
 30
0.0
  0
POINT
  5
29A
100
AcDbEntity
  8
DEFPOINTS
  6
CONTINUOUS
 62
     0
100
AcDbPoint
 10
7.724255
 20
0.0
 30
0.0
  0
POINT
  5
29B
100
AcDbEntity
  8
DEFPOINTS
  6
CONTINUOUS
 62
     0
100
AcDbPoint
 10
7.724255
 20
25.0
 30
0.0
  0
POINT
  5
29C
100
AcDbEntity
  8
DEFPOINTS
  6
CONTINUOUS
 62
     0
100
AcDbPoint
 10
7.724255
 20
0.8
 30
0.0
  0
POINT
  5
29D
100
AcDbEntity
  8
DEFPOINTS
  6
CONTINUOUS
 62
     0
100
AcDbPoint
 10
8.524255
 20
0.0
 30
0.0
  0
ENDBLK
  5
1CE
100
AcDbEntity
  8
0
100
AcDbBlockEnd
  0
BLOCK
  5
1DA
100
AcDbEntity
  8
0
100
AcDbBlockBegin
  2
*D11
 70
     1
 10
0.0
 20
0.0
 30
0.0
  3
*D11
  1

  0
LINE
  5
1DC
100
AcDbEntity
  8
寸法
  6
CONTINUOUS
 62
     1
100
AcDbLine
 10
-91.876303
 20
13.31384
 30
0.0
 11
-73.680346
 21
20.846958
 31
0.0
1001
ACAD
1000
RTLwPs
1070
   158
  0
MTEXT
  5
1DD
100
AcDbEntity
  8
寸法
  6
CONTINUOUS
 62
     1
100
AcDbMText
 10
-88.44383
 20
17.440659
 30
0.0
 40
3.0
 41
0.0
 71
     5
 72
     1
  1
\A1;%%c70
 11
0.923949
 21
0.382515
 31
0.0
1001
ACAD
1000
MTEXTBEGIN
1070
    73
1070
     1
1070
    44
1040
1.0
1070
    74
1070
     0
1000
MTEXTEND
1000
MTEXTBEGIN
1070
    73
1070
     1
1070
    44
1040
1.0
1070
    74
1070
     0
1000
MTEXTEND
  0
LINE
  5
1DE
100
AcDbEntity
  8
寸法
  6
CONTINUOUS
 62
     1
100
AcDbLine
 10
-39.494217
 20
34.999999
 30
0.0
 11
-71.832447
 21
21.611987
 31
0.0
1001
ACAD
1000
RTLwPs
1070
   158
  0
INSERT
  5
1DF
100
AcDbEntity
  8
寸法
  6
CONTINUOUS
 62
     1
100
AcDbBlockReference
  2
_OPEN30
 10
-71.832447
 20
21.611987
 30
0.0
 41
2.0
 42
2.0
 43
2.0
 50
22.489531
1001
ACAD
1000
RTLwPs
1070
   158
  0
POINT
  5
1E0
100
AcDbEntity
  8
DEFPOINTS
  6
CONTINUOUS
 62
     0
100
AcDbPoint
 10
-71.832447
 20
21.611987
 30
0.0
  0
POINT
  5
1E1
100
AcDbEntity
  8
DEFPOINTS
  6
CONTINUOUS
 62
     0
100
AcDbPoint
 10
-39.494217
 20
34.999999
 30
0.0
  0
ENDBLK
  5
1DB
100
AcDbEntity
  8
0
100
AcDbBlockEnd
  0
ENDSEC
  0
SECTION
  2
ENTITIES
  0
POINT
  5
24
100
AcDbEntity
  8
0
  6
CONTINUOUS
 62
     7
100
AcDbPoint
 10
-39.494217
 20
-0.000001
 30
0.0
  0
POINT
  5
25
100
AcDbEntity
  8
0
  6
CONTINUOUS
 62
     7
100
AcDbPoint
 10
7.724255
 20
0.0
 30
0.0
  0
POINT
  5
26
100
AcDbEntity
  8
0
  6
CONTINUOUS
 62
     7
100
AcDbPoint
 10
7.724256
 20
-70.427719
 30
0.0
  0
POINT
  5
27
100
AcDbEntity
  8
0
  6
CONTINUOUS
 62
     7
100
AcDbPoint
 10
116.13921
 20
-90.427719
 30
0.0
  0
LINE
  5
28
100
AcDbEntity
  8
0
  6
CONTINUOUS
 62
     7
100
AcDbLine
 10
7.724255
 20
25.0
 30
0.0
 11
7.724255
 21
0.8
 31
0.0
  0
LINE
  5
29
100
AcDbEntity
  8
0
  6
CONTINUOUS
 62
     7
100
AcDbLine
 10
25.574255
 20
9.720062
 30
0.0
 11
8.924255
 21
0.10718
 31
0.0
  0
LINE
  5
2A
100
AcDbEntity
  8
0
  6
CONTINUOUS
 62
     7
100
AcDbLine
 10
7.724255
 20
21.411404
 30
0.0
 11
16.810633
 21
16.165382
 31
0.0
  0
LINE
  5
2B
100
AcDbEntity
  8
0
  6
CONTINUOUS
 62
     7
100
AcDbLine
 10
7.724255
 20
25.0
 30
0.0
 11
67.724255
 21
25.0
 31
0.0
  0
LINE
  5
2C
100
AcDbEntity
  8
0
  6
CONTINUOUS
 62
     7
100
AcDbLine
 10
67.724255
 20
25.0
 30
0.0
 11
67.724255
 21
6.0
 31
0.0
  0
LINE
  5
2D
100
AcDbEntity
  8
0
  6
CONTINUOUS
 62
     7
100
AcDbLine
 10
35.724255
 20
6.0
 30
0.0
 11
67.724255
 21
6.0
 31
0.0
  0
LINE
  5
2E
100
AcDbEntity
  8
0
  6
CONTINUOUS
 62
     7
100
AcDbLine
 10
11.336691
 20
1.5
 30
0.0
 11
20.724255
 21
1.5
 31
0.0
  0
LINE
  5
2F
100
AcDbEntity
  8
0
  6
CONTINUOUS
 62
     7
100
AcDbLine
 10
20.724255
 20
1.5
 30
0.0
 11
35.724255
 21
5.519238
 31
0.0
  0
LINE
  5
30
100
AcDbEntity
  8
0
  6
CONTINUOUS
 62
     7
100
AcDbLine
 10
35.724255
 20
25.0
 30
0.0
 11
35.724255
 21
5.519238
 31
0.0
  0
LINE
  5
31
100
AcDbEntity
  8
0
  6
CONTINUOUS
 62
     7
100
AcDbLine
 10
36.506646
 20
-70.427719
 30
0.0
 11
67.724255
 21
-70.427719
 31
0.0
  0
LINE
  5
32
100
AcDbEntity
  8
0
  6
CONTINUOUS
 62
     7
100
AcDbLine
 10
13.658804
 20
-90.427719
 30
0.0
 11
67.724255
 21
-90.427719
 31
0.0
  0
LINE
  5
33
100
AcDbEntity
  8
0
  6
CONTINUOUS
 62
     7
100
AcDbLine
 10
67.724255
 20
-70.427719
 30
0.0
 11
67.724255
 21
-90.427719
 31
0.0
  0
LINE
  5
34
100
AcDbEntity
  8
0
  6
CONTINUOUS
 62
     7
100
AcDbLine
 10
12.724255
 20
25.0
 30
0.0
 11
12.724255
 21
18.524652
 31
0.0
  0
LINE
  5
35
100
AcDbEntity
  8
0
  6
CONTINUOUS
 62
     7
100
AcDbLine
 10
13.424255
 20
25.0
 30
0.0
 11
13.424255
 21
18.120508
 31
0.0
  0
LINE
  5
36
100
AcDbEntity
  8
0
  6
CONTINUOUS
 62
     7
100
AcDbLine
 10
35.724255
 20
-74.291237
 30
0.0
 11
35.724255
 21
-90.427719
 31
0.0
  0
LINE
  5
37
100
AcDbEntity
  8
0
  6
CONTINUOUS
 62
     7
100
AcDbLine
 10
35.724255
 20
-83.264763
 30
0.0
 11
67.724255
 21
-83.264763
 31
0.0
  0
LINE
  5
38
100
AcDbEntity
  8
0
  6
CENTER
 62
     1
 48
0.5
100
AcDbLine
 10
47.724255
 20
-67.423042
 30
0.0
 11
47.724255
 21
-86.772537
 31
0.0
  0
LINE
  5
39
100
AcDbEntity
  8
0
  6
CONTINUOUS
 62
     7
100
AcDbLine
 10
7.724256
 20
-70.427719
 30
0.0
 11
11.336691
 21
-71.06469
 31
0.0
  0
LINE
  5
3A
100
AcDbEntity
  8
0
  6
CONTINUOUS
 62
     7
100
AcDbLine
 10
36.506644
 20
-70.427711
 30
0.0
 11
35.897902
 21
-73.880066
 31
0.0
  0
LINE
  5
3B
100
AcDbEntity
  8
0
  6
CONTINUOUS
 62
     7
100
AcDbLine
 10
9.928342
 20
-82.427719
 30
0.0
 11
22.393722
 21
-82.427719
 31
0.0
  0
LINE
  5
3C
100
AcDbEntity
  8
0
  6
CENTER
 62
     1
 48
0.5
100
AcDbLine
 10
12.652393
 20
-85.927719
 30
0.0
 11
22.253287
 21
-85.927719
 31
0.0
  0
LINE
  5
3D
100
AcDbEntity
  8
0
  6
CENTER
 62
     1
 48
0.5
100
AcDbLine
 10
17.724255
 20
-81.159706
 30
0.0
 11
17.724255
 21
-91.425278
 31
0.0
  0
LINE
  5
3E
100
AcDbEntity
  8
0
  6
CONTINUOUS
 62
     7
100
AcDbLine
 10
8.694862
 20
-75.432297
 30
0.0
 11
9.928343
 21
-82.427719
 31
0.0
  0
LINE
  5
3F
100
AcDbEntity
  8
0
  6
CONTINUOUS
 62
     7
100
AcDbLine
 10
9.928343
 20
-82.427711
 30
0.0
 11
13.658805
 21
-90.427719
 31
0.0
  0
LINE
  5
40
100
AcDbEntity
  8
0
  6
CONTINUOUS
 62
     7
100
AcDbLine
 10
20.724255
 20
-72.219963
 30
0.0
 11
22.393723
 21
-82.427711
 31
0.0
  0
LINE
  5
41
100
AcDbEntity
  8
0
  6
CONTINUOUS
 62
     7
100
AcDbLine
 10
22.393721
 20
-82.427719
 30
0.0
 11
35.724253
 21
-88.203354
 31
0.0
  0
LINE
  5
42
100
AcDbEntity
  8
0
  6
CENTER
 62
     1
 48
0.5
100
AcDbLine
 10
39.060948
 20
-77.346237
 30
0.0
 11
56.832211
 21
-77.346237
 31
0.0
  0
LINE
  5
43
100
AcDbEntity
  8
0
  6
CONTINUOUS
 62
     7
100
AcDbLine
 10
36.506646
 20
24.0
 30
0.0
 11
67.724255
 21
24.0
 31
0.0
  0
LINE
  5
44
100
AcDbEntity
  8
0
  6
CONTINUOUS
 62
     7
100
AcDbLine
 10
35.724255
 20
14.336469
 30
0.0
 11
36.506646
 21
24.0
 31
0.0
  0
LINE
  5
45
100
AcDbEntity
  8
0
  6
CONTINUOUS
 62
     7
100
AcDbLine
 10
36.506646
 20
23.999998
 30
0.0
 11
35.724255
 21
24.999998
 31
0.0
  0
LINE
  5
46
100
AcDbEntity
  8
0
  6
CENTER
 62
     1
 48
0.5
100
AcDbLine
 10
47.724255
 20
17.458317
 30
0.0
 11
47.724255
 21
7.2581
 31
0.0
  0
LINE
  5
47
100
AcDbEntity
  8
0
  6
CONTINUOUS
 62
     7
100
AcDbLine
 10
135.13921
 20
-71.427719
 30
0.0
 11
135.13921
 21
-89.427719
 31
0.0
  0
LINE
  5
48
100
AcDbEntity
  8
0
  6
CONTINUOUS
 62
     7
100
AcDbLine
 10
134.13921
 20
-70.427711
 30
0.0
 11
135.13921
 21
-71.427711
 31
0.0
  0
LINE
  5
49
100
AcDbEntity
  8
0
  6
CENTER
 62
     1
 48
0.5
100
AcDbLine
 10
119.37333
 20
-74.661835
 30
0.0
 11
137.12306
 21
-92.411568
 31
0.0
  0
LINE
  5
4A
100
AcDbEntity
  8
0
  6
CONTINUOUS
 62
     7
100
AcDbLine
 10
116.13921
 20
-83.264755
 30
0.0
 11
128.97626
 21
-70.427711
 31
0.0
  0
LINE
  5
4B
100
AcDbEntity
  8
0
  6
CONTINUOUS
 62
     7
100
AcDbLine
 10
125.59326
 20
-73.810699
 30
0.0
 11
135.13921
 21
-83.356644
 31
0.0
  0
LINE
  5
4C
100
AcDbEntity
  8
0
  6
CONTINUOUS
 62
     7
100
AcDbLine
 10
118.52219
 20
-80.881767
 30
0.0
 11
128.06813
 21
-90.427711
 31
0.0
  0
LINE
  5
4D
100
AcDbEntity
  8
0
  6
CONTINUOUS
 62
     7
100
AcDbLine
 10
116.13921
 20
-90.427719
 30
0.0
 11
134.139199
 21
-90.427719
 31
0.0
  0
LINE
  5
4E
100
AcDbEntity
  8
0
  6
CONTINUOUS
 62
     7
100
AcDbLine
 10
128.97626
 20
-70.427719
 30
0.0
 11
134.13921
 21
-70.427719
 31
0.0
  0
LINE
  5
4F
100
AcDbEntity
  8
0
  6
CONTINUOUS
 62
     7
100
AcDbLine
 10
116.13921
 20
-83.264763
 30
0.0
 11
116.13921
 21
-90.427719
 31
0.0
  0
LINE
  5
50
100
AcDbEntity
  8
0
  6
CONTINUOUS
 62
     7
100
AcDbLine
 10
36.088637
 20
18.837049
 30
0.0
 11
67.724255
 21
18.837049
 31
0.0
  0
LINE
  5
51
100
AcDbEntity
  8
0
  6
CENTER
 62
     1
 48
0.5
100
AcDbLine
 10
39.313366
 20
11.918525
 30
0.0
 11
55.84475
 21
11.918525
 31
0.0
  0
LINE
  5
52
100
AcDbEntity
  8
0
  6
CENTER
 62
     1
 48
0.5
100
AcDbLine
 10
14.506865
 20
10.662649
 30
0.0
 11
34.654995
 21
22.295177
 31
0.0
  0
LINE
  5
53
100
AcDbEntity
  8
0
  6
CENTER
 62
     1
 48
0.5
100
AcDbLine
 10
31.120423
 20
10.888051
 30
0.0
 11
23.245764
 21
24.527361
 31
0.0
  0
LINE
  5
54
100
AcDbEntity
  8
0
  6
CONTINUOUS
 62
     7
100
AcDbLine
 10
-58.49422
 20
25.0
 30
0.0
 11
-40.49422
 21
25.0
 31
0.0
  0
LINE
  5
55
100
AcDbEntity
  8
0
  6
CONTINUOUS
 62
     7
100
AcDbLine
 10
-59.49422
 20
24.0
 30
0.0
 11
-59.49422
 21
7.726496
 31
0.0
  0
LINE
  5
56
100
AcDbEntity
  8
0
  6
CONTINUOUS
 62
     7
100
AcDbLine
 10
-39.49422
 20
24.0
 30
0.0
 11
-39.49422
 21
23.347919
 31
0.0
  0
LINE
  5
57
100
AcDbEntity
  8
0
  6
CONTINUOUS
 62
     7
100
AcDbLine
 10
-58.49422
 20
25.000002
 30
0.0
 11
-59.49422
 21
24.000002
 31
0.0
  0
LINE
  5
58
100
AcDbEntity
  8
0
  6
CONTINUOUS
 62
     7
100
AcDbLine
 10
-40.49422
 20
24.999998
 30
0.0
 11
-39.494224
 21
24.000002
 31
0.0
  0
LINE
  5
59
100
AcDbEntity
  8
0
  6
CONTINUOUS
 62
     7
100
AcDbLine
 10
-51.49422
 20
25.0
 30
0.0
 11
-51.49422
 21
3.107695
 31
0.0
  0
LINE
  5
5A
100
AcDbEntity
  8
0
  6
CONTINUOUS
 62
     7
100
AcDbLine
 10
-51.49422
 20
3.107695
 30
0.0
 11
-45.494224
 21
1.500001
 31
0.0
  0
LINE
  5
5B
100
AcDbEntity
  8
0
  6
CONTINUOUS
 62
     7
100
AcDbLine
 10
-59.494228
 20
7.726499
 30
0.0
 11
-51.49422
 21
3.107694
 31
0.0
  0
LINE
  5
5C
100
AcDbEntity
  8
0
  6
CONTINUOUS
 62
     7
100
AcDbLine
 10
-43.166362
 20
20.825764
 30
0.0
 11
-39.494217
 21
0.000001
 31
0.0
  0
LINE
  5
5D
100
AcDbEntity
  8
0
  6
CONTINUOUS
 62
     7
100
AcDbLine
 10
-47.553203
 20
18.29302
 30
0.0
 11
-44.48275
 21
0.879613
 31
0.0
  0
LINE
  5
5E
100
AcDbEntity
  8
0
  6
CONTINUOUS
 62
     7
100
AcDbLine
 10
-44.482753
 20
0.879612
 30
0.0
 11
-39.494217
 21
-0.000001
 31
0.0
  0
LINE
  5
5F
100
AcDbEntity
  8
0
  6
CONTINUOUS
 62
     7
100
AcDbLine
 10
14.815672
 20
13.12871
 30
0.0
 11
16.796941
 21
9.697052
 31
0.0
  0
LINE
  5
60
100
AcDbEntity
  8
0
  6
CONTINUOUS
 62
     7
100
AcDbLine
 10
14.975845
 20
14.337068
 30
0.0
 11
22.829504
 21
22.163015
 31
0.0
  0
LINE
  5
61
100
AcDbEntity
  8
0
  6
CONTINUOUS
 62
     7
100
AcDbLine
 10
17.923499
 20
9.231589
 30
0.0
 11
28.627798
 21
12.120083
 31
0.0
  0
LINE
  5
62
100
AcDbEntity
  8
0
  6
CONTINUOUS
 62
     7
100
AcDbLine
 10
31.043379
 20
22.40394
 30
0.0
 11
31.397396
 21
22.608332
 31
0.0
  0
LINE
  5
63
100
AcDbEntity
  8
0
  6
CONTINUOUS
 62
     7
100
AcDbLine
 10
32.943381
 20
19.113043
 30
0.0
 11
33.297396
 21
19.317434
 31
0.0
  0
LINE
  5
64
100
AcDbEntity
  8
0
  6
CONTINUOUS
 62
     7
100
AcDbLine
 10
15.257911
 20
-67.886635
 30
0.0
 11
17.742961
 21
-68.324821
 31
0.0
  0
LINE
  5
65
100
AcDbEntity
  8
0
  6
CONTINUOUS
 62
     7
100
AcDbLine
 10
33.847372
 20
-69.956795
 30
0.0
 11
35.030135
 21
-70.165352
 31
0.0
  0
LINE
  5
66
100
AcDbEntity
  8
0
  6
CONTINUOUS
 62
     7
100
AcDbLine
 10
22.106589
 20
-65.855728
 30
0.0
 11
34.194668
 21
-67.987183
 31
0.0
  0
LINE
  5
67
100
AcDbEntity
  8
0
  6
CONTINUOUS
 62
     7
100
AcDbLine
 10
17.742961
 20
-68.324821
 30
0.0
 11
17.166749
 21
-71.592682
 31
0.0
  0
LINE
  5
68
100
AcDbEntity
  8
0
  6
CONTINUOUS
 62
     7
100
AcDbLine
 10
8.603868
 20
-75.416252
 30
0.0
 11
11.33669
 21
-75.898125
 31
0.0
  0
LINE
  5
69
100
AcDbEntity
  8
0
  6
CONTINUOUS
 62
     7
100
AcDbLine
 10
8.603869
 20
-75.416252
 30
0.0
 11
7.724256
 21
-70.427719
 31
0.0
  0
LINE
  5
6A
100
AcDbEntity
  8
0
  6
CONTINUOUS
 62
     7
100
AcDbLine
 10
11.336691
 20
-71.06469
 30
0.0
 11
11.336691
 21
-75.898125
 31
0.0
  0
LINE
  5
6B
100
AcDbEntity
  8
0
  6
CONTINUOUS
 62
     7
100
AcDbLine
 10
15.257911
 20
-67.886635
 30
0.0
 11
14.681698
 21
-71.154503
 31
0.0
  0
LINE
  5
6C
100
AcDbEntity
  8
0
  6
CONTINUOUS
 62
     7
100
AcDbLine
 10
11.907124
 20
-70.665268
 30
0.0
 11
34.739445
 21
-74.691223
 31
0.0
  0
LINE
  5
6D
100
AcDbEntity
  8
0
  6
CONTINUOUS
 62
     7
100
AcDbLine
 10
-38.479724
 20
14.402219
 30
0.0
 11
-37.669078
 21
9.804821
 31
0.0
  0
LINE
  5
6E
100
AcDbEntity
  8
0
  6
CONTINUOUS
 62
     7
100
AcDbLine
 10
134.139199
 20
-90.427719
 30
0.0
 11
135.13921
 21
-89.427711
 31
0.0
  0
LINE
  5
6F
100
AcDbEntity
  8
0
  6
CONTINUOUS
 62
     7
100
AcDbLine
 10
-45.49422
 20
1.5
 30
0.0
 11
-44.592144
 21
1.5
 31
0.0
  0
LINE
  5
70
100
AcDbEntity
  8
0
  6
CENTER
 62
     1
 48
0.5
100
AcDbLine
 10
59.556252
 20
16.0
 30
0.0
 11
84.590176
 21
16.0
 31
0.0
  0
LINE
  5
71
100
AcDbEntity
  8
0
  6
CENTER
 62
     1
 48
0.5
100
AcDbLine
 10
59.556252
 20
-81.927719
 30
0.0
 11
80.889584
 21
-81.927719
 31
0.0
  0
LINE
  5
72
100
AcDbEntity
  8
0
  6
CONTINUOUS
 62
     7
100
AcDbLine
 10
77.724255
 20
17.800001
 30
0.0
 11
77.724255
 21
14.199999
 31
0.0
  0
LINE
  5
73
100
AcDbEntity
  8
0
  6
CONTINUOUS
 62
     7
100
AcDbLine
 10
71.724255
 20
20.5
 30
0.0
 11
71.724255
 21
11.5
 31
0.0
  0
LINE
  5
74
100
AcDbEntity
  8
0
  6
CONTINUOUS
 62
     7
100
AcDbLine
 10
71.724255
 20
19.0
 30
0.0
 11
67.724255
 21
19.0
 31
0.0
  0
LINE
  5
75
100
AcDbEntity
  8
0
  6
CONTINUOUS
 62
     7
100
AcDbLine
 10
71.724255
 20
13.0
 30
0.0
 11
67.724255
 21
13.0
 31
0.0
  0
LINE
  5
76
100
AcDbEntity
  8
0
  6
CONTINUOUS
 62
     7
100
AcDbLine
 10
71.724255
 20
13.5415
 30
0.0
 11
67.724255
 21
13.5415
 31
0.0
  0
LINE
  5
77
100
AcDbEntity
  8
0
  6
CONTINUOUS
 62
     7
100
AcDbLine
 10
71.724255
 20
18.4585
 30
0.0
 11
67.724255
 21
18.4585
 31
0.0
  0
LINE
  5
78
100
AcDbEntity
  8
0
  6
CONTINUOUS
 62
     7
100
AcDbLine
 10
76.232067
 20
11.0
 30
0.0
 11
72.224255
 21
11.0
 31
0.0
  0
LINE
  5
79
100
AcDbEntity
  8
0
  6
CONTINUOUS
 62
     7
100
AcDbLine
 10
76.232067
 20
21.0
 30
0.0
 11
72.224255
 21
21.0
 31
0.0
  0
LINE
  5
7A
100
AcDbEntity
  8
0
  6
CONTINUOUS
 62
     7
100
AcDbLine
 10
77.724255
 20
17.800001
 30
0.0
 11
76.232067
 21
21.0
 31
0.0
  0
LINE
  5
7B
100
AcDbEntity
  8
0
  6
CONTINUOUS
 62
     7
100
AcDbLine
 10
77.724255
 20
14.2
 30
0.0
 11
76.232067
 21
11.000002
 31
0.0
  0
LINE
  5
7C
100
AcDbEntity
  8
0
  6
CONTINUOUS
 62
     7
100
AcDbLine
 10
72.224255
 20
21.0
 30
0.0
 11
71.724255
 21
20.5
 31
0.0
  0
LINE
  5
7D
100
AcDbEntity
  8
0
  6
CONTINUOUS
 62
     7
100
AcDbLine
 10
71.724255
 20
11.499999
 30
0.0
 11
72.224255
 21
11.000001
 31
0.0
  0
LINE
  5
7E
100
AcDbEntity
  8
0
  6
CONTINUOUS
 62
     7
100
AcDbLine
 10
72.224255
 20
21.0
 30
0.0
 11
72.224255
 21
11.0
 31
0.0
  0
LINE
  5
7F
100
AcDbEntity
  8
0
  6
CONTINUOUS
 62
     7
100
AcDbLine
 10
76.232067
 20
21.0
 30
0.0
 11
76.232067
 21
11.0
 31
0.0
  0
LINE
  5
80
100
AcDbEntity
  8
0
  6
CONTINUOUS
 62
     7
100
AcDbLine
 10
77.724255
 20
-80.127716
 30
0.0
 11
77.724255
 21
-83.727722
 31
0.0
  0
LINE
  5
81
100
AcDbEntity
  8
0
  6
CONTINUOUS
 62
     7
100
AcDbLine
 10
71.724255
 20
-77.427719
 30
0.0
 11
71.724255
 21
-86.427719
 31
0.0
  0
LINE
  5
82
100
AcDbEntity
  8
0
  6
CONTINUOUS
 62
     7
100
AcDbLine
 10
71.724255
 20
-78.927719
 30
0.0
 11
67.724255
 21
-78.927719
 31
0.0
  0
LINE
  5
83
100
AcDbEntity
  8
0
  6
CONTINUOUS
 62
     7
100
AcDbLine
 10
71.724255
 20
-84.927719
 30
0.0
 11
67.724255
 21
-84.927719
 31
0.0
  0
LINE
  5
84
100
AcDbEntity
  8
0
  6
CONTINUOUS
 62
     7
100
AcDbLine
 10
71.724255
 20
-84.386215
 30
0.0
 11
67.724255
 21
-84.386215
 31
0.0
  0
LINE
  5
85
100
AcDbEntity
  8
0
  6
CONTINUOUS
 62
     7
100
AcDbLine
 10
71.724255
 20
-79.469223
 30
0.0
 11
67.724255
 21
-79.469223
 31
0.0
  0
LINE
  5
86
100
AcDbEntity
  8
0
  6
CONTINUOUS
 62
     7
100
AcDbLine
 10
76.232067
 20
-86.927719
 30
0.0
 11
72.224255
 21
-86.927719
 31
0.0
  0
LINE
  5
87
100
AcDbEntity
  8
0
  6
CONTINUOUS
 62
     7
100
AcDbLine
 10
76.232067
 20
-76.927719
 30
0.0
 11
72.224255
 21
-76.927719
 31
0.0
  0
LINE
  5
88
100
AcDbEntity
  8
0
  6
CONTINUOUS
 62
     7
100
AcDbLine
 10
77.724255
 20
-80.127724
 30
0.0
 11
76.232067
 21
-76.927727
 31
0.0
  0
LINE
  5
89
100
AcDbEntity
  8
0
  6
CONTINUOUS
 62
     7
100
AcDbLine
 10
77.724255
 20
-83.727722
 30
0.0
 11
76.232075
 21
-86.927719
 31
0.0
  0
LINE
  5
8A
100
AcDbEntity
  8
0
  6
CONTINUOUS
 62
     7
100
AcDbLine
 10
72.224255
 20
-76.927719
 30
0.0
 11
71.724255
 21
-77.427719
 31
0.0
  0
LINE
  5
8B
100
AcDbEntity
  8
0
  6
CONTINUOUS
 62
     7
100
AcDbLine
 10
71.724255
 20
-86.427719
 30
0.0
 11
72.224255
 21
-86.927719
 31
0.0
  0
LINE
  5
8C
100
AcDbEntity
  8
0
  6
CONTINUOUS
 62
     7
100
AcDbLine
 10
72.224255
 20
-76.927719
 30
0.0
 11
72.224255
 21
-86.927719
 31
0.0
  0
LINE
  5
8D
100
AcDbEntity
  8
0
  6
CONTINUOUS
 62
     7
100
AcDbLine
 10
76.232067
 20
-76.927719
 30
0.0
 11
76.232067
 21
-86.927719
 31
0.0
  0
LINE
  5
8F
100
AcDbEntity
  8
0
  6
CONTINUOUS
 62
     7
100
AcDbLine
 10
25.349514
 20
11.235456
 30
0.0
 11
25.574253
 21
11.105702
 31
0.0
  0
LINE
  5
90
100
AcDbEntity
  8
0
  6
CONTINUOUS
 62
     7
100
AcDbLine
 10
46.724255
 20
-73.810707
 30
0.0
 11
48.724255
 21
-73.810707
 31
0.0
  0
LINE
  5
91
100
AcDbEntity
  8
0
  6
CONTINUOUS
 62
     7
100
AcDbLine
 10
46.724255
 20
-80.881775
 30
0.0
 11
48.724255
 21
-80.881775
 31
0.0
  0
LINE
  5
92
100
AcDbEntity
  8
0
  6
CENTER
 62
     1
 48
0.5
100
AcDbLine
 10
46.724255
 20
-67.423042
 30
0.0
 11
46.724255
 21
-86.772537
 31
0.0
  0
LINE
  5
93
100
AcDbEntity
  8
0
  6
CENTER
 62
     1
 48
0.5
100
AcDbLine
 10
48.724255
 20
-67.423042
 30
0.0
 11
48.724255
 21
-86.772537
 31
0.0
  0
LINE
  5
94
100
AcDbEntity
  8
0
  6
CENTER
 62
     1
 48
0.5
100
AcDbLine
 10
47.724255
 20
-67.423042
 30
0.0
 11
47.724255
 21
-86.772537
 31
0.0
  0
LINE
  5
95
100
AcDbEntity
  8
0
  6
CONTINUOUS
 62
     7
100
AcDbLine
 10
46.724255
 20
15.454059
 30
0.0
 11
48.724255
 21
15.454059
 31
0.0
  0
LINE
  5
96
100
AcDbEntity
  8
0
  6
CONTINUOUS
 62
     7
100
AcDbLine
 10
46.724255
 20
8.382991
 30
0.0
 11
48.724255
 21
8.382991
 31
0.0
  0
LINE
  5
97
100
AcDbEntity
  8
0
  6
CENTER
 62
     1
 48
0.5
100
AcDbLine
 10
46.724255
 20
17.458317
 30
0.0
 11
46.724255
 21
7.2581
 31
0.0
  0
LINE
  5
98
100
AcDbEntity
  8
0
  6
CENTER
 62
     1
 48
0.5
100
AcDbLine
 10
48.724255
 20
17.458317
 30
0.0
 11
48.724255
 21
7.2581
 31
0.0
  0
LINE
  5
99
100
AcDbEntity
  8
0
  6
CENTER
 62
     1
 48
0.5
100
AcDbLine
 10
27.981905
 20
-61.027874
 30
0.0
 11
22.418022
 21
-92.582222
 31
0.0
  0
LINE
  5
9A
100
AcDbEntity
  8
0
  6
CONTINUOUS
 62
     7
100
AcDbLine
 10
11.33669
 20
-71.06469
 30
0.0
 11
11.907125
 21
-70.665268
 31
0.0
  0
LINE
  5
9B
100
AcDbEntity
  8
0
  6
CONTINUOUS
 62
     7
100
AcDbLine
 10
35.030135
 20
-70.165352
 30
0.0
 11
34.247399
 21
-74.604462
 31
0.0
  0
LINE
  5
9C
100
AcDbEntity
  8
0
  6
CONTINUOUS
 62
     7
100
AcDbLine
 10
34.194668
 20
-67.987183
 30
0.0
 11
33.064637
 21
-74.395912
 31
0.0
  0
LINE
  5
9D
100
AcDbEntity
  8
0
  6
CONTINUOUS
 62
     7
100
AcDbLine
 10
-43.137905
 20
25.0
 30
0.0
 11
-42.472511
 21
21.22636
 31
0.0
  0
LINE
  5
9E
100
AcDbEntity
  8
0
  6
CONTINUOUS
 62
     7
100
AcDbLine
 10
-47.553203
 20
18.29302
 30
0.0
 11
-42.472511
 21
21.22636
 31
0.0
  0
LINE
  5
9F
100
AcDbEntity
  8
0
  6
CONTINUOUS
 62
     7
100
AcDbLine
 10
-41.115905
 20
9.197053
 30
0.0
 11
-37.669078
 21
9.804821
 31
0.0
  0
LINE
  5
A0
100
AcDbEntity
  8
0
  6
CONTINUOUS
 62
     7
100
AcDbLine
 10
-41.926551
 20
13.79445
 30
0.0
 11
-38.479724
 21
14.402219
 31
0.0
  0
LINE
  5
A1
100
AcDbEntity
  8
0
  6
CONTINUOUS
 62
     7
100
AcDbLine
 10
-36.290153
 20
23.912882
 30
0.0
 11
-34.762313
 21
15.24806
 31
0.0
  0
LINE
  5
A2
100
AcDbEntity
  8
0
  6
CONTINUOUS
 62
     7
100
AcDbLine
 10
-36.290153
 20
23.912882
 30
0.0
 11
-42.745514
 21
22.774628
 31
0.0
  0
LINE
  5
A3
100
AcDbEntity
  8
0
  6
CONTINUOUS
 62
     7
100
AcDbLine
 10
7.724255
 20
0.0
 30
0.0
 11
8.524255
 21
0.0
 31
0.0
  0
LINE
  5
A4
100
AcDbEntity
  8
0
  6
CONTINUOUS
 62
     7
100
AcDbLine
 10
7.724255
 20
0.8
 30
0.0
 11
7.724255
 21
0.0
 31
0.0
  0
ARC
  5
A5
100
AcDbEntity
  8
0
  6
CONTINUOUS
 62
     7
100
AcDbCircle
 10
8.524255
 20
0.8
 30
0.0
 40
0.8
100
AcDbArc
 50
179.99999
 51
299.99999
  0
ARC
  5
A6
100
AcDbEntity
  8
0
  6
CONTINUOUS
 62
     7
100
AcDbCircle
 10
8.524255
 20
20.025764
 30
0.0
 40
0.8
100
AcDbArc
 50
60.000002
 51
180.00001
  0
ARC
  5
A7
100
AcDbEntity
  8
0
  6
CONTINUOUS
 62
     7
100
AcDbCircle
 10
25.424256
 20
10.41
 30
0.0
 40
2.5
100
AcDbArc
 50
225.60485
 51
34.161939
  0
CIRCLE
  5
A8
100
AcDbEntity
  8
0
  6
CONTINUOUS
 62
     7
100
AcDbCircle
 10
17.724255
 20
-85.927719
 30
0.0
 40
3.0
  0
CIRCLE
  5
A9
100
AcDbEntity
  8
0
  6
CONTINUOUS
 62
     7
100
AcDbCircle
 10
17.724255
 20
-85.927719
 30
0.0
 40
2.5
  0
ARC
  5
AA
100
AcDbEntity
  8
0
  6
CONTINUOUS
 62
     7
100
AcDbCircle
 10
34.913096
 20
-73.706413
 30
0.0
 40
1.0
100
AcDbArc
 50
260.0
 51
350.0
  0
ARC
  5
AB
100
AcDbEntity
  8
0
  6
CONTINUOUS
 62
     7
100
AcDbCircle
 10
32.347397
 20
20.962885
 30
0.0
 40
1.9
100
AcDbArc
 50
300.0
 51
120.0
  0
ARC
  5
AC
100
AcDbEntity
  8
0
  6
CONTINUOUS
 62
     7
100
AcDbCircle
 10
15.681698
 20
13.62871
 30
0.0
 40
1.0
100
AcDbArc
 50
134.89874
 51
210.0
  0
ARC
  5
AD
100
AcDbEntity
  8
0
  6
CONTINUOUS
 62
     7
100
AcDbCircle
 10
17.662967
 20
10.197052
 30
0.0
 40
1.0
100
AcDbArc
 50
209.99999
 51
285.10125
  0
ARC
  5
AE
100
AcDbEntity
  8
0
  6
CONTINUOUS
 62
     7
100
AcDbCircle
 10
23.202452
 20
-74.172371
 30
0.0
 40
8.0
100
AcDbArc
 50
80.000005
 51
133.0343
  0
ARC
  5
AF
100
AcDbEntity
  8
0
  6
CONTINUOUS
 62
     7
100
AcDbCircle
 10
20.717403
 20
-73.734192
 30
0.0
 40
8.0
100
AcDbArc
 50
80.000005
 51
133.0343
  0
ARC
  5
B0
100
AcDbEntity
  8
0
  6
CONTINUOUS
 62
     7
100
AcDbCircle
 10
25.174254
 20
10.412882
 30
0.0
 40
0.8
100
AcDbArc
 50
300.0
 51
60.000002
  0
ARC
  5
B1
100
AcDbEntity
  8
0
  6
CONTINUOUS
 62
     7
100
AcDbCircle
 10
-39.686351
 20
14.379819
 30
0.0
 40
5.0
100
AcDbArc
 50
293.79431
 51
10.000001
  0
ARC
  5
B2
100
AcDbEntity
  8
0
  6
CONTINUOUS
 62
     7
100
AcDbCircle
 10
-39.140945
 20
18.152184
 30
0.0
 40
3.807815
100
AcDbArc
 50
280.0
 51
10.000001
  0
LWPOLYLINE
  5
B3
100
AcDbEntity
  8
0
  6
CONTINUOUS
 62
     7
100
AcDbPolyline
 90
       17
 70
     0
 43
0.0
 10
46.724255
 20
-73.810707
 42
0.03001
 10
45.882996
 20
-73.861109
 42
0.031339
 10
45.053974
 20
-74.013812
 42
0.034234
 10
44.251124
 20
-74.273487
 42
0.039157
 10
43.493729
 20
-74.647749
 42
0.046685
 10
42.812461
 20
-75.144209
 42
0.05772
 10
42.24864
 20
-75.770029
 42
0.071526
 10
41.863176
 20
-76.518617
 42
0.082487
 10
41.724255
 20
-77.346237
 42
0.082483
 10
41.863171
 20
-78.173843
 42
0.071426
 10
42.247858
 20
-78.921336
 42
0.057689
 10
42.810806
 20
-79.546797
 42
0.046691
 10
43.491525
 20
-80.04341
 42
0.039109
 10
44.247302
 20
-80.417453
 42
0.03424
 10
45.049673
 20
-80.67759
 42
0.031378
 10
45.87936
 20
-80.830933
 42
0.030048
 10
46.721586
 20
-80.881774
  0
LWPOLYLINE
  5
C6
100
AcDbEntity
  8
0
  6
CONTINUOUS
 62
     7
100
AcDbPolyline
 90
       17
 70
     0
 43
0.0
 10
48.724255
 20
-73.810707
 42
-0.03001
 10
49.565514
 20
-73.861109
 42
-0.031339
 10
50.394536
 20
-74.013812
 42
-0.034234
 10
51.197386
 20
-74.273487
 42
-0.039157
 10
51.954781
 20
-74.647749
 42
-0.046685
 10
52.636049
 20
-75.144209
 42
-0.05772
 10
53.19987
 20
-75.770029
 42
-0.071526
 10
53.585334
 20
-76.518617
 42
-0.082487
 10
53.724255
 20
-77.346237
 42
-0.082483
 10
53.585339
 20
-78.173843
 42
-0.071426
 10
53.200652
 20
-78.921336
 42
-0.057689
 10
52.637704
 20
-79.546797
 42
-0.046691
 10
51.956985
 20
-80.04341
 42
-0.039109
 10
51.201208
 20
-80.417453
 42
-0.03424
 10
50.398837
 20
-80.67759
 42
-0.031378
 10
49.56915
 20
-80.830933
 42
-0.030048
 10
48.726924
 20
-80.881774
  0
LWPOLYLINE
  5
D9
100
AcDbEntity
  8
0
  6
CONTINUOUS
 62
     7
100
AcDbPolyline
 90
       17
 70
     0
 43
0.0
 10
46.724255
 20
15.454059
 42
0.03001
 10
45.882996
 20
15.403656
 42
0.031339
 10
45.053975
 20
15.250954
 42
0.034234
 10
44.251124
 20
14.991278
 42
0.039157
 10
43.49373
 20
14.617016
 42
0.046684
 10
42.812462
 20
14.120555
 42
0.05772
 10
42.248641
 20
13.494735
 42
0.071526
 10
41.863177
 20
12.746147
 42
0.082487
 10
41.724255
 20
11.918525
 42
0.082483
 10
41.863171
 20
11.090919
 42
0.071426
 10
42.247858
 20
10.343426
 42
0.057689
 10
42.810807
 20
9.717965
 42
0.046691
 10
43.491526
 20
9.221354
 42
0.039109
 10
44.247303
 20
8.847311
 42
0.03424
 10
45.049675
 20
8.587175
 42
0.031378
 10
45.879362
 20
8.433833
 42
0.030048
 10
46.721588
 20
8.382991
  0
LWPOLYLINE
  5
EC
100
AcDbEntity
  8
0
  6
CONTINUOUS
 62
     7
100
AcDbPolyline
 90
       17
 70
     0
 43
0.0
 10
48.724255
 20
15.454059
 42
-0.03001
 10
49.565514
 20
15.403656
 42
-0.031339
 10
50.394535
 20
15.250954
 42
-0.034234
 10
51.197386
 20
14.991278
 42
-0.039157
 10
51.95478
 20
14.617016
 42
-0.046684
 10
52.636048
 20
14.120555
 42
-0.05772
 10
53.199869
 20
13.494735
 42
-0.071526
 10
53.585333
 20
12.746147
 42
-0.082487
 10
53.724255
 20
11.918525
 42
-0.082483
 10
53.585339
 20
11.090919
 42
-0.071426
 10
53.200652
 20
10.343426
 42
-0.057689
 10
52.637703
 20
9.717965
 42
-0.046691
 10
51.956984
 20
9.221354
 42
-0.039109
 10
51.201207
 20
8.847311
 42
-0.03424
 10
50.398835
 20
8.587175
 42
-0.031378
 10
49.569148
 20
8.433833
 42
-0.030048
 10
48.726922
 20
8.382991
  0
LINE
  5
FF
100
AcDbEntity
  8
0
  6
CONTINUOUS
 62
     7
100
AcDbLine
 10
134.77554
 20
-82.992976
 30
0.0
 11
135.13921
 21
-82.629308
 31
0.0
  0
LINE
  5
100
100
AcDbEntity
  8
0
  6
CONTINUOUS
 62
     7
100
AcDbLine
 10
133.65301
 20
-81.870445
 30
0.0
 11
135.13921
 21
-80.384242
 31
0.0
  0
LINE
  5
101
100
AcDbEntity
  8
0
  6
CONTINUOUS
 62
     7
100
AcDbLine
 10
132.53047
 20
-80.747913
 30
0.0
 11
135.13921
 21
-78.139175
 31
0.0
  0
LINE
  5
102
100
AcDbEntity
  8
0
  6
CONTINUOUS
 62
     7
100
AcDbLine
 10
131.40794
 20
-79.625382
 30
0.0
 11
135.13921
 21
-75.894109
 31
0.0
  0
LINE
  5
103
100
AcDbEntity
  8
0
  6
CONTINUOUS
 62
     7
100
AcDbLine
 10
130.28541
 20
-78.50285
 30
0.0
 11
135.13921
 21
-73.649043
 31
0.0
  0
LINE
  5
104
100
AcDbEntity
  8
0
  6
CONTINUOUS
 62
     7
100
AcDbLine
 10
129.16288
 20
-77.380319
 30
0.0
 11
135.12733
 21
-71.415848
 31
0.0
  0
LINE
  5
105
100
AcDbEntity
  8
0
  6
CONTINUOUS
 62
     7
100
AcDbLine
 10
128.04034
 20
-76.257787
 30
0.0
 11
133.8704
 21
-70.427719
 31
0.0
  0
LINE
  5
106
100
AcDbEntity
  8
0
  6
CONTINUOUS
 62
     7
100
AcDbLine
 10
126.91781
 20
-75.135255
 30
0.0
 11
131.62534
 21
-70.427719
 31
0.0
  0
LINE
  5
107
100
AcDbEntity
  8
0
  6
CONTINUOUS
 62
     7
100
AcDbLine
 10
125.79528
 20
-74.012724
 30
0.0
 11
129.38028
 21
-70.427719
 31
0.0
  0
LINE
  5
108
100
AcDbEntity
  8
0
  6
CONTINUOUS
 62
     7
100
AcDbLine
 10
127.340814
 20
-90.427719
 30
0.0
 11
127.70447
 21
-90.064055
 31
0.0
  0
LINE
  5
109
100
AcDbEntity
  8
0
  6
CONTINUOUS
 62
     7
100
AcDbLine
 10
125.095746
 20
-90.427719
 30
0.0
 11
126.58194
 21
-88.941522
 31
0.0
  0
LINE
  5
10A
100
AcDbEntity
  8
0
  6
CONTINUOUS
 62
     7
100
AcDbLine
 10
122.850691
 20
-90.427719
 30
0.0
 11
125.45941
 21
-87.81899
 31
0.0
  0
LINE
  5
10B
100
AcDbEntity
  8
0
  6
CONTINUOUS
 62
     7
100
AcDbLine
 10
120.605626
 20
-90.427719
 30
0.0
 11
124.33688
 21
-86.696457
 31
0.0
  0
LINE
  5
10C
100
AcDbEntity
  8
0
  6
CONTINUOUS
 62
     7
100
AcDbLine
 10
118.36251
 20
-90.42577
 30
0.0
 11
123.21435
 21
-85.573925
 31
0.0
  0
LINE
  5
10D
100
AcDbEntity
  8
0
  6
CONTINUOUS
 62
     7
100
AcDbLine
 10
116.13921
 20
-90.404015
 30
0.0
 11
122.09182
 21
-84.451392
 31
0.0
  0
LINE
  5
10E
100
AcDbEntity
  8
0
  6
CONTINUOUS
 62
     7
100
AcDbLine
 10
116.13921
 20
-88.158948
 30
0.0
 11
120.96928
 21
-83.32886
 31
0.0
  0
LINE
  5
10F
100
AcDbEntity
  8
0
  6
CONTINUOUS
 62
     7
100
AcDbLine
 10
116.13921
 20
-85.913882
 30
0.0
 11
119.84675
 21
-82.206328
 31
0.0
  0
LINE
  5
110
100
AcDbEntity
  8
0
  6
CONTINUOUS
 62
     7
100
AcDbLine
 10
116.13921
 20
-83.668816
 30
0.0
 11
118.72422
 21
-81.083795
 31
0.0
  0
TEXT
  5
113
100
AcDbEntity
  8
0
  6
CONTINUOUS
100
AcDbText
 10
34.594458
 20
-120.380851
 30
0.0
 40
6.0
  1
CTFER20CA
100
AcDbText
  0
DIMENSION
  5
128
100
AcDbEntity
  8
寸法
  6
CONTINUOUS
100
AcDbDimension
  2
*D1
 10
134.139199
 20
-90.427719
 30
0.0
 11
147.649419
 21
-95.609617
 31
0.0
 70
    34
  3
STANDARD
100
AcDb2LineAngularDimension
 13
119.37333
 23
-74.661835
 33
0.0
 14
137.12306
 24
-92.411568
 34
0.0
 15
116.13921
 25
-90.427719
 35
0.0
 16
149.031083
 26
-98.448196
 36
0.0
1001
ACAD
1000
DSTYLE
1002
{
1070
   271
1070
     0
1070
   271
1070
     0
1002
}
  0
DIMENSION
  5
13A
100
AcDbEntity
  8
寸法
  6
CONTINUOUS
100
AcDbDimension
  2
*D2
 10
90.0
 20
-90.427719
 30
0.0
 11
87.5
 21
-80.427719
 31
0.0
 70
    32
  3
STANDARD
100
AcDbAlignedDimension
 13
67.724255
 23
-70.427719
 33
0.0
 14
67.724255
 24
-90.427719
 34
0.0
 50
90.0
100
AcDbRotatedDimension
  0
DIMENSION
  5
147
100
AcDbEntity
  8
寸法
  6
CONTINUOUS
100
AcDbDimension
  2
*D3
 10
-10.0
 20
-90.427719
 30
0.0
 11
-12.5
 21
-80.427719
 31
0.0
 70
    32
  3
STANDARD
100
AcDbAlignedDimension
 13
7.724256
 23
-70.427719
 33
0.0
 14
13.658804
 24
-90.427719
 34
0.0
 50
90.0
100
AcDbRotatedDimension
  0
DIMENSION
  5
154
100
AcDbEntity
  8
寸法
  6
CONTINUOUS
100
AcDbDimension
  2
*D4
 10
46.724255
 20
-100.0
 30
0.0
 11
40.724255
 21
-97.5
 31
0.0
 70
    32
  3
STANDARD
100
AcDbAlignedDimension
 13
48.724255
 23
-86.772537
 33
0.0
 14
46.724255
 24
-86.772537
 34
0.0
100
AcDbRotatedDimension
  0
DIMENSION
  5
163
100
AcDbEntity
  8
寸法
  6
CONTINUOUS
100
AcDbDimension
  2
*D5
 10
47.724255
 20
-60.0
 30
0.0
 11
62.724255
 21
-57.5
 31
0.0
 70
    32
  3
STANDARD
100
AcDbAlignedDimension
 13
77.724255
 23
-80.127724
 33
0.0
 14
47.724255
 24
-67.423042
 34
0.0
100
AcDbRotatedDimension
  0
DIMENSION
  5
170
100
AcDbEntity
  8
寸法
  6
CONTINUOUS
100
AcDbDimension
  2
*D6
 10
90.0
 20
6.0
 30
0.0
 11
87.5
 21
15.5
 31
0.0
 70
    32
  3
STANDARD
100
AcDbAlignedDimension
 13
67.724255
 23
25.0
 33
0.0
 14
67.724255
 24
6.0
 34
0.0
 50
90.0
100
AcDbRotatedDimension
  0
DIMENSION
  5
17D
100
AcDbEntity
  8
寸法
  6
CONTINUOUS
100
AcDbDimension
  2
*D7
 10
-10.0
 20
0.0
 30
0.0
 11
-12.5
 21
12.5
 31
0.0
 70
    32
  3
STANDARD
100
AcDbAlignedDimension
 13
7.724255
 23
25.0
 33
0.0
 14
7.724255
 24
0.0
 34
0.0
 50
90.0
100
AcDbRotatedDimension
  0
DIMENSION
  5
18A
100
AcDbEntity
  8
寸法
  6
CONTINUOUS
100
AcDbDimension
  2
*D8
 10
7.724255
 20
-20.0
 30
0.0
 11
42.724255
 21
-17.5
 31
0.0
 70
    32
  3
STANDARD
100
AcDbAlignedDimension
 13
77.724255
 23
14.199999
 33
0.0
 14
7.724255
 24
0.0
 34
0.0
100
AcDbRotatedDimension
  0
DIMENSION
  5
197
100
AcDbEntity
  8
寸法
  6
CONTINUOUS
100
AcDbDimension
  2
*D9
 10
67.724255
 20
-10.0
 30
0.0
 11
72.724255
 21
-7.5
 31
0.0
 70
    32
  3
STANDARD
100
AcDbAlignedDimension
 13
77.724255
 23
14.199999
 33
0.0
 14
67.724255
 24
6.0
 34
0.0
100
AcDbRotatedDimension
1001
ACAD
1000
DSTYLE
1002
{
1070
   287
1070
     4
1070
   287
1070
     4
1070
   279
1070
     1
1002
}
  0
DIMENSION
  5
1BF
100
AcDbEntity
  8
寸法
  6
CONTINUOUS
100
AcDbDimension
  2
*D10
 10
8.524255
 20
0.0
 30
0.0
 11
-0.304069
 21
8.028324
 31
0.0
 70
    34
  3
STANDARD
100
AcDb2LineAngularDimension
 13
7.724255
 23
25.0
 33
0.0
 14
7.724255
 24
0.8
 34
0.0
 15
7.724255
 25
0.0
 35
0.0
 16
3.297373
 26
7.667585
 36
0.0
1001
ACAD
1000
DSTYLE
1002
{
1070
   271
1070
     0
1070
   271
1070
     0
1002
}
  0
LINE
  5
1CF
100
AcDbEntity
  8
0
  6
CENTER
 62
     1
 48
0.5
100
AcDbLine
 10
-39.494217
 20
-0.000001
 30
0.0
 11
-39.494217
 21
34.999999
 31
0.0
  0
ARC
  5
1D1
100
AcDbEntity
  8
0
  6
CENTER
 62
     1
 48
0.5
100
AcDbCircle
 10
-39.494217
 20
34.999999
 30
0.0
 40
35.0
100
AcDbArc
 50
180.0
 51
270.0
  0
DIMENSION
  5
1D2
100
AcDbEntity
  8
寸法
  6
CONTINUOUS
100
AcDbDimension
  2
*D11
 10
-39.494217
 20
34.999999
 30
0.0
 11
-87.487543
 21
15.130785
 31
0.0
 70
   164
  1
%%c70
  3
STANDARD
100
AcDbRadialDimension
 15
-71.832447
 25
21.611987
 35
0.0
 40
0.0
1001
ACAD
1000
DSTYLE
1002
{
1070
   288
1070
     1
1002
}
  0
MTEXT
  5
1F0
100
AcDbEntity
  8
寸法
  6
CONTINUOUS
 62
     1
100
AcDbMText
 10
-59.085125
 20
-77.927719
 30
0.0
 40
3.0
 41
0.0
 71
     5
 72
     1
  1
10%%d
1001
ACAD
1000
MTEXTBEGIN
1070
    73
1070
     1
1070
    44
1040
1.0
1070
    74
1070
     0
1000
MTEXTEND
1000
MTEXTBEGIN
1070
    73
1070
     1
1070
    44
1040
1.0
1070
    74
1070
     0
1000
MTEXTEND
1000
MTEXTBEGIN
1070
    73
1070
     1
1070
    44
1040
1.0
1070
    74
1070
     0
1000
MTEXTEND
1000
MTEXTBEGIN
1070
    73
1070
     1
1070
    44
1040
1.0
1070
    74
1070
     0
1000
MTEXTEND
1000
MTEXTBEGIN
1070
    73
1070
     1
1070
    44
1040
1.0
1070
    74
1070
     0
1000
MTEXTEND
1000
MTEXTBEGIN
1070
    73
1070
     1
1070
    44
1040
1.0
1070
    74
1070
     0
1000
MTEXTEND
1000
MTEXTBEGIN
1070
    73
1070
     1
1070
    44
1040
1.0
1070
    74
1070
     0
1000
MTEXTEND
1000
MTEXTBEGIN
1070
    73
1070
     1
1070
    44
1040
1.0
1070
    74
1070
     0
1000
MTEXTEND
  0
MTEXT
  5
1F1
100
AcDbEntity
  8
寸法
  6
CONTINUOUS
 62
     1
100
AcDbMText
 10
-44.65463
 20
-90.115393
 30
0.0
 40
3.0
 41
0.0
 71
     5
 72
     1
  1
10%%d
1001
ACAD
1000
MTEXTBEGIN
1070
    73
1070
     1
1070
    44
1040
1.0
1070
    74
1070
     0
1000
MTEXTEND
1000
MTEXTBEGIN
1070
    73
1070
     1
1070
    44
1040
1.0
1070
    74
1070
     0
1000
MTEXTEND
1000
MTEXTBEGIN
1070
    73
1070
     1
1070
    44
1040
1.0
1070
    74
1070
     0
1000
MTEXTEND
1000
MTEXTBEGIN
1070
    73
1070
     1
1070
    44
1040
1.0
1070
    74
1070
     0
1000
MTEXTEND
1000
MTEXTBEGIN
1070
    73
1070
     1
1070
    44
1040
1.0
1070
    74
1070
     0
1000
MTEXTEND
1000
MTEXTBEGIN
1070
    73
1070
     1
1070
    44
1040
1.0
1070
    74
1070
     0
1000
MTEXTEND
1000
MTEXTBEGIN
1070
    73
1070
     1
1070
    44
1040
1.0
1070
    74
1070
     0
1000
MTEXTEND
1000
MTEXTBEGIN
1070
    73
1070
     1
1070
    44
1040
1.0
1070
    74
1070
     0
1000
MTEXTEND
  0
LINE
  5
1F2
100
AcDbEntity
  8
寸法
  6
CONTINUOUS
100
AcDbLine
 10
-49.494228
 20
-90.427719
 30
0.0
 11
-51.943718
 21
-91.841933
 31
30.0
  0
LINE
  5
1F3
100
AcDbEntity
  8
寸法
  6
CONTINUOUS
100
AcDbLine
 10
-49.494228
 20
-90.427719
 30
0.0
 11
-51.943718
 21
-89.013505
 31
30.0
  0
LINE
  5
1F4
100
AcDbEntity
  8
寸法
  6
CONTINUOUS
100
AcDbLine
 10
-59.494228
 20
-80.427719
 30
0.0
 11
-58.080014
 21
-82.877209
 31
30.0
  0
LINE
  5
1F5
100
AcDbEntity
  8
寸法
  6
CONTINUOUS
100
AcDbLine
 10
-59.494228
 20
-80.427719
 30
0.0
 11
-60.908441
 21
-82.877209
 31
30.0
  0
LINE
  5
1F6
100
AcDbEntity
  8
寸法
  6
CONTINUOUS
100
AcDbLine
 10
-59.494228
 20
-90.427719
 30
0.0
 11
-49.494228
 21
-90.427719
 31
0.0
  0
LINE
  5
1F7
100
AcDbEntity
  8
寸法
  6
CONTINUOUS
100
AcDbLine
 10
-59.494228
 20
-90.427719
 30
0.0
 11
-59.494228
 21
-80.427719
 31
0.0
  0
CIRCLE
  5
2A2
100
AcDbEntity
  8
0
  6
CONTINUOUS
100
AcDbCircle
 10
27.064636
 20
17.912881
 30
0.0
 40
5.999998
  0
ENDSEC
  0
SECTION
  2
OBJECTS
  0
DICTIONARY
  5
C
100
AcDbDictionary
  3
ACAD_GROUP
350
D
  3
ACAD_LAYOUT
350
11A
  3
ACAD_MLINESTYLE
350
1B
  3
ACAD_PLOTSETTINGS
350
11B
  3
ACAD_PLOTSTYLENAME
350
118
  3
ACDBHEADERROUNDTRIPXREC
350
255
  0
DICTIONARY
  5
251
100
AcDbDictionary
280
     1
  3
ACAD_XREC_ROUNDTRIP
360
252
  0
DICTIONARY
  5
278
100
AcDbDictionary
280
     1
  3
ACAD_XREC_ROUNDTRIP
360
279
  0
DICTIONARY
  5
222
100
AcDbDictionary
280
     1
  3
ACAD_LAYOUTSELFREF
360
277
  0
DICTIONARY
  5
220
100
AcDbDictionary
280
     1
  3
ACAD_LAYOUTSELFREF
360
276
  0
DICTIONARY
  5
24F
100
AcDbDictionary
280
     1
  3
ACAD_XREC_ROUNDTRIP
360
250
  0
DICTIONARY
  5
D
102
{ACAD_REACTORS
330
C
102
}
100
AcDbDictionary
  0
DICTIONARY
  5
11A
102
{ACAD_XDICTIONARY
360
27A
102
}
102
{ACAD_REACTORS
330
C
102
}
100
AcDbDictionary
  3
MODEL
350
11C
  3
ﾚｲｱｳﾄ1
350
11D
  0
DICTIONARY
  5
1B
102
{ACAD_REACTORS
330
C
102
}
100
AcDbDictionary
  3
STANDARD
350
1C
  0
DICTIONARY
  5
11B
102
{ACAD_REACTORS
330
C
102
}
100
AcDbDictionary
  0
ACAD_PROXY_OBJECT
  5
118
102
{ACAD_REACTORS
330
C
102
}
100
AcDbProxyObject
 90
      499
 91
      500
 93
       86
310
405010041939BDC9B585B0
350
119
340
119
 94
        0
  0
DICTIONARY
  5
255
102
{ACAD_REACTORS
330
C
102
}
100
AcDbDictionary
  3
CEPSNTYPE
350
25F
  3
DIMSTYLEDATA
350
263
  3
FINGERPRINTGUID
350
260
  3
HYPERLINKBASE
350
258
  3
INSUNITS
350
25E
  3
LAYOUTDICT
350
25A
  3
LWETCUNION
350
25D
  3
PLOTSETDICT
350
25B
  3
PLOTSTYLNAMDICT
350
25C
  3
PSVPSCALE
350
262
  3
PUCSBASE
350
266
  3
PUCSORGBACK
350
26C
  3
PUCSORGBOTTOM
350
268
  3
PUCSORGFRONT
350
26B
  3
PUCSORGLEFT
350
269
  3
PUCSORGRIGHT
350
26A
  3
PUCSORGTOP
350
267
  3
PUCSORTHOREF
350
264
  3
PUCSORTHOVIEW
350
265
  3
STYLESHEET
350
259
  3
TSTACKALIGN
350
256
  3
TSTACKSIZE
350
257
  3
UCSBASE
350
26F
  3
UCSORGBACK
350
275
  3
UCSORGBOTTOM
350
271
  3
UCSORGFRONT
350
274
  3
UCSORGLEFT
350
272
  3
UCSORGRIGHT
350
273
  3
UCSORGTOP
350
270
  3
UCSORTHOREF
350
26D
  3
UCSORTHOVIEW
350
26E
  3
VERSIONGUID
350
261
  0
XRECORD
  5
252
102
{ACAD_REACTORS
330
251
102
}
100
AcDbXrecord
102
EXTNAMES
  1
DEFPOINTS
  2
Defpoints
102
PLOTBIT
280
     0
  0
XRECORD
  5
279
102
{ACAD_REACTORS
330
278
102
}
100
AcDbXrecord
102
ACADR14ROUNDTRIP
1000
DSTYLE
1002
{
1070
   341
340
122
1070
   342
340
122
1002
}
  0
XRECORD
  5
277
102
{ACAD_REACTORS
330
222
102
}
100
AcDbXrecord
340
18
  0
XRECORD
  5
276
102
{ACAD_REACTORS
330
220
102
}
100
AcDbXrecord
340
15
  0
XRECORD
  5
250
102
{ACAD_REACTORS
330
24F
102
}
100
AcDbXrecord
102
EXTNAMES
  1
_OPEN30
  2
_Open30
  0
DICTIONARY
  5
27A
100
AcDbDictionary
280
     1
  3
ACAD_XREC_ROUNDTRIP
360
27B
  0
ACAD_PROXY_OBJECT
  5
11C
102
{ACAD_REACTORS
330
11A
102
}
100
AcDbProxyObject
 90
      499
 91
      502
 93
      548
310
90E4550534F4E20504D2D32303030432C01AAAAAAAAA5A69054D6F64656C901A800000000000000000000000000000000000000000000A1000000000000008902A6A6AAAA0
330
18
330
0
340
0
340
0
 94
        0
  0
ACAD_PROXY_OBJECT
  5
11D
102
{ACAD_REACTORS
330
11A
102
}
100
AcDbProxyObject
 90
      499
 91
      502
 93
      964
310
90E4550534F4E20504D2D32303030432C00AAAAAA416AA59106906DAB2B1B3C43140501A800000000000000000000000000000000000000000000A1000000000000008902A6A6A10232D5E076BC5510408CB5781DAF154410232D5E076BC5510408CB5781DAF15C410232D5E076BC5710408CB5781DAF15C45
330
15
330
0
340
0
340
0
 94
        0
  0
MLINESTYLE
  5
1C
102
{ACAD_REACTORS
330
1B
102
}
100
AcDbMlineStyle
  2
STANDARD
 70
     0
  3

 62
   256
 51
90.0
 52
90.0
 71
     2
 49
0.5
 62
   256
  6
BYLAYER
 49
-0.5
 62
   256
  6
BYLAYER
  0
ACAD_PROXY_OBJECT
  5
119
102
{ACAD_REACTORS
330
118
102
}
100
AcDbProxyObject
 90
      499
 91
      501
 93
        0
 94
        0
  0
XRECORD
  5
25F
102
{ACAD_REACTORS
330
255
102
}
100
AcDbXrecord
 90
        0
  0
XRECORD
  5
263
102
{ACAD_REACTORS
330
255
102
}
100
AcDbXrecord
1000
DSTYLE
1002
{
1070
   341
340
122
1070
   342
340
122
1002
}
  0
XRECORD
  5
260
102
{ACAD_REACTORS
330
255
102
}
100
AcDbXrecord
  1
{F4A1CD75-9D40-4113-B6AA-AB212A80E6B0}
  0
XRECORD
  5
258
102
{ACAD_REACTORS
330
255
102
}
100
AcDbXrecord
  1

  0
XRECORD
  5
25E
102
{ACAD_REACTORS
330
255
102
}
100
AcDbXrecord
 90
        0
  0
XRECORD
  5
25A
102
{ACAD_REACTORS
330
255
102
}
100
AcDbXrecord
340
11A
  0
XRECORD
  5
25D
102
{ACAD_REACTORS
330
255
102
}
100
AcDbXrecord
 90
    14877
  0
XRECORD
  5
25B
102
{ACAD_REACTORS
330
255
102
}
100
AcDbXrecord
340
11B
  0
XRECORD
  5
25C
102
{ACAD_REACTORS
330
255
102
}
100
AcDbXrecord
340
118
  0
XRECORD
  5
262
102
{ACAD_REACTORS
330
255
102
}
100
AcDbXrecord
 40
0.0
  0
XRECORD
  5
266
102
{ACAD_REACTORS
330
255
102
}
100
AcDbXrecord
340
0
  0
XRECORD
  5
26C
102
{ACAD_REACTORS
330
255
102
}
100
AcDbXrecord
 10
0.0
 20
0.0
 30
0.0
  0
XRECORD
  5
268
102
{ACAD_REACTORS
330
255
102
}
100
AcDbXrecord
 10
0.0
 20
0.0
 30
0.0
  0
XRECORD
  5
26B
102
{ACAD_REACTORS
330
255
102
}
100
AcDbXrecord
 10
0.0
 20
0.0
 30
0.0
  0
XRECORD
  5
269
102
{ACAD_REACTORS
330
255
102
}
100
AcDbXrecord
 10
0.0
 20
0.0
 30
0.0
  0
XRECORD
  5
26A
102
{ACAD_REACTORS
330
255
102
}
100
AcDbXrecord
 10
0.0
 20
0.0
 30
0.0
  0
XRECORD
  5
267
102
{ACAD_REACTORS
330
255
102
}
100
AcDbXrecord
 10
0.0
 20
0.0
 30
0.0
  0
XRECORD
  5
264
102
{ACAD_REACTORS
330
255
102
}
100
AcDbXrecord
340
0
  0
XRECORD
  5
265
102
{ACAD_REACTORS
330
255
102
}
100
AcDbXrecord
 70
     0
  0
XRECORD
  5
259
102
{ACAD_REACTORS
330
255
102
}
100
AcDbXrecord
  1

  0
XRECORD
  5
256
102
{ACAD_REACTORS
330
255
102
}
100
AcDbXrecord
 90
        1
  0
XRECORD
  5
257
102
{ACAD_REACTORS
330
255
102
}
100
AcDbXrecord
 90
       70
  0
XRECORD
  5
26F
102
{ACAD_REACTORS
330
255
102
}
100
AcDbXrecord
340
0
  0
XRECORD
  5
275
102
{ACAD_REACTORS
330
255
102
}
100
AcDbXrecord
 10
0.0
 20
0.0
 30
0.0
  0
XRECORD
  5
271
102
{ACAD_REACTORS
330
255
102
}
100
AcDbXrecord
 10
0.0
 20
0.0
 30
0.0
  0
XRECORD
  5
274
102
{ACAD_REACTORS
330
255
102
}
100
AcDbXrecord
 10
0.0
 20
0.0
 30
0.0
  0
XRECORD
  5
272
102
{ACAD_REACTORS
330
255
102
}
100
AcDbXrecord
 10
0.0
 20
0.0
 30
0.0
  0
XRECORD
  5
273
102
{ACAD_REACTORS
330
255
102
}
100
AcDbXrecord
 10
0.0
 20
0.0
 30
0.0
  0
XRECORD
  5
270
102
{ACAD_REACTORS
330
255
102
}
100
AcDbXrecord
 10
0.0
 20
0.0
 30
0.0
  0
XRECORD
  5
26D
102
{ACAD_REACTORS
330
255
102
}
100
AcDbXrecord
340
0
  0
XRECORD
  5
26E
102
{ACAD_REACTORS
330
255
102
}
100
AcDbXrecord
 70
     0
  0
XRECORD
  5
261
102
{ACAD_REACTORS
330
255
102
}
100
AcDbXrecord
  1
{27039844-D493-4AF8-A4FD-B0E5DADD6D56}
  0
XRECORD
  5
27B
102
{ACAD_REACTORS
330
27A
102
}
100
AcDbXrecord
102
EXTNAMES
  1
MODEL
  2
Model
  0
ENDSEC
  0
EOF
