  0
SECTION
  2
HEADER
  9
$ACADVER
  1
AC1014
  9
$ACADMAINTVER
 70
     0
  9
$DWGCODEPAGE
  3
ANSI_932
  9
$INSBASE
 10
0.0
 20
0.0
 30
0.0
  9
$EXTMIN
 10
-56.627975
 20
-71.410249
 30
0.0
  9
$EXTMAX
 10
103.149464
 20
15.0
 30
30.0
  9
$LIMMIN
 10
-85.901636
 20
-94.882465
  9
$LIMMAX
 10
140.086475
 20
47.526973
  9
$ORTHOMODE
 70
     0
  9
$REGENMODE
 70
     1
  9
$FILLMODE
 70
     1
  9
$QTEXTMODE
 70
     0
  9
$MIRRTEXT
 70
     1
  9
$DRAGMODE
 70
     2
  9
$LTSCALE
 40
1.0
  9
$OSMODE
 70
    33
  9
$ATTMODE
 70
     1
  9
$TEXTSIZE
 40
0.2
  9
$TRACEWID
 40
0.05
  9
$TEXTSTYLE
  7
STANDARD
  9
$CLAYER
  8
0
  9
$CELTYPE
  6
CONTINUOUS
  9
$CECOLOR
 62
   256
  9
$CELTSCALE
 40
1.0
  9
$DELOBJ
 70
     1
  9
$DISPSILH
 70
     0
  9
$DIMSCALE
 40
1.0
  9
$DIMASZ
 40
2.0
  9
$DIMEXO
 40
1.0
  9
$DIMDLI
 40
10.0
  9
$DIMRND
 40
0.0
  9
$DIMDLE
 40
0.0
  9
$DIMEXE
 40
1.0
  9
$DIMTP
 40
0.0
  9
$DIMTM
 40
0.0
  9
$DIMTXT
 40
3.0
  9
$DIMCEN
 40
2.0
  9
$DIMTSZ
 40
0.0
  9
$DIMTOL
 70
     0
  9
$DIMLIM
 70
     0
  9
$DIMTIH
 70
     0
  9
$DIMTOH
 70
     0
  9
$DIMSE1
 70
     0
  9
$DIMSE2
 70
     0
  9
$DIMTAD
 70
     1
  9
$DIMZIN
 70
     8
  9
$DIMBLK
  1
OPEN30
  9
$DIMASO
 70
     1
  9
$DIMSHO
 70
     1
  9
$DIMPOST
  1

  9
$DIMAPOST
  1

  9
$DIMALT
 70
     0
  9
$DIMALTD
 70
     2
  9
$DIMALTF
 40
25.4
  9
$DIMLFAC
 40
1.0
  9
$DIMTOFL
 70
     1
  9
$DIMTVP
 40
0.0
  9
$DIMTIX
 70
     0
  9
$DIMSOXD
 70
     0
  9
$DIMSAH
 70
     0
  9
$DIMBLK1
  1

  9
$DIMBLK2
  1

  9
$DIMSTYLE
  2
STANDARD
  9
$DIMCLRD
 70
     1
  9
$DIMCLRE
 70
     1
  9
$DIMCLRT
 70
     1
  9
$DIMTFAC
 40
1.0
  9
$DIMGAP
 40
1.0
  9
$DIMJUST
 70
     0
  9
$DIMSD1
 70
     0
  9
$DIMSD2
 70
     0
  9
$DIMTOLJ
 70
     1
  9
$DIMTZIN
 70
     0
  9
$DIMALTZ
 70
     0
  9
$DIMALTTZ
 70
     0
  9
$DIMFIT
 70
     3
  9
$DIMUPT
 70
     0
  9
$DIMUNIT
 70
     2
  9
$DIMDEC
 70
     2
  9
$DIMTDEC
 70
     2
  9
$DIMALTU
 70
     2
  9
$DIMALTTD
 70
     2
  9
$DIMTXSTY
  7
STANDARD
  9
$DIMAUNIT
 70
     0
  9
$LUNITS
 70
     2
  9
$LUPREC
 70
     4
  9
$SKETCHINC
 40
0.1
  9
$FILLETRAD
 40
0.0
  9
$AUNITS
 70
     0
  9
$AUPREC
 70
     0
  9
$MENU
  1
acad
  9
$ELEVATION
 40
0.0
  9
$PELEVATION
 40
0.0
  9
$THICKNESS
 40
0.0
  9
$LIMCHECK
 70
     0
  9
$BLIPMODE
 70
     0
  9
$CHAMFERA
 40
0.0
  9
$CHAMFERB
 40
0.0
  9
$CHAMFERC
 40
0.0
  9
$CHAMFERD
 40
0.0
  9
$SKPOLY
 70
     0
  9
$TDCREATE
 40
2444972.375000000
  9
$TDUPDATE
 40
2451977.475219907
  9
$TDINDWG
 40
0.0120824074
  9
$TDUSRTIMER
 40
0.0120824074
  9
$USRTIMER
 70
     1
  9
$ANGBASE
 50
0.0
  9
$ANGDIR
 70
     0
  9
$PDMODE
 70
     0
  9
$PDSIZE
 40
0.0
  9
$PLINEWID
 40
0.0
  9
$COORDS
 70
     1
  9
$SPLFRAME
 70
     0
  9
$SPLINETYPE
 70
     6
  9
$SPLINESEGS
 70
     8
  9
$ATTDIA
 70
     0
  9
$ATTREQ
 70
     1
  9
$HANDLING
 70
     1
  9
$HANDSEED
  5
333
  9
$SURFTAB1
 70
     6
  9
$SURFTAB2
 70
     6
  9
$SURFTYPE
 70
     6
  9
$SURFU
 70
     6
  9
$SURFV
 70
     6
  9
$UCSNAME
  2

  9
$UCSORG
 10
0.0
 20
0.0
 30
0.0
  9
$UCSXDIR
 10
1.0
 20
0.0
 30
0.0
  9
$UCSYDIR
 10
0.0
 20
1.0
 30
0.0
  9
$PUCSNAME
  2

  9
$PUCSORG
 10
0.0
 20
0.0
 30
0.0
  9
$PUCSXDIR
 10
1.0
 20
0.0
 30
0.0
  9
$PUCSYDIR
 10
0.0
 20
1.0
 30
0.0
  9
$USERI1
 70
     0
  9
$USERI2
 70
     0
  9
$USERI3
 70
     0
  9
$USERI4
 70
     0
  9
$USERI5
 70
     0
  9
$USERR1
 40
0.0
  9
$USERR2
 40
0.0
  9
$USERR3
 40
0.0
  9
$USERR4
 40
0.0
  9
$USERR5
 40
0.0
  9
$WORLDVIEW
 70
     1
  9
$SHADEDGE
 70
     3
  9
$SHADEDIF
 70
    70
  9
$TILEMODE
 70
     1
  9
$MAXACTVP
 70
    48
  9
$PINSBASE
 10
0.0
 20
0.0
 30
0.0
  9
$PLIMCHECK
 70
     0
  9
$PEXTMIN
 10
1.000000E+20
 20
1.000000E+20
 30
1.000000E+20
  9
$PEXTMAX
 10
-1.000000E+20
 20
-1.000000E+20
 30
-1.000000E+20
  9
$PLIMMIN
 10
0.0
 20
0.0
  9
$PLIMMAX
 10
12.0
 20
9.0
  9
$UNITMODE
 70
     0
  9
$VISRETAIN
 70
     1
  9
$PLINEGEN
 70
     0
  9
$PSLTSCALE
 70
     1
  9
$TREEDEPTH
 70
  3020
  9
$PICKSTYLE
 70
     1
  9
$CMLSTYLE
  2
STANDARD
  9
$CMLJUST
 70
     0
  9
$CMLSCALE
 40
1.0
  9
$PROXYGRAPHICS
 70
     1
  9
$MEASUREMENT
 70
     0
  0
ENDSEC
  0
SECTION
  2
CLASSES
  0
CLASS
  1
ACDBDICTIONARYWDFLT
  2
AcDbDictionaryWithDefault
  3
AutoCAD 2000
 90
        0
280
     0
281
     0
  0
CLASS
  1
ACDBPLACEHOLDER
  2
AcDbPlaceHolder
  3
AutoCAD 2000
 90
        0
280
     0
281
     0
  0
CLASS
  1
LAYOUT
  2
AcDbLayout
  3
AutoCAD 2000
 90
        0
280
     0
281
     0
  0
CLASS
  1
LONG_TRANSACTION
  2
AcDbLongTransaction
  3
AutoCAD 2000
 90
        0
280
     0
281
     0
  0
CLASS
  1
LWPOLYLINE
  2
AcDbPolyline
  3
"AutoCAD"
 90
        0
280
     0
281
     1
  0
CLASS
  1
HATCH
  2
AcDbHatch
  3
"ACAD_SEDONA"
 90
        0
280
     0
281
     1
  0
CLASS
  1
XRECORD
  2
AcDbXrecord
  3
"<Built In>"
 90
        0
280
     0
281
     0
  0
CLASS
  1
LONG_TRANSACTION
  2
AcDbLongTransaction
  3
AutoCAD 2000
 90
        0
280
     0
281
     0
  0
CLASS
  1
LWPOLYLINE
  2
AcDbPolyline
  3
"AutoCAD"
 90
        0
280
     0
281
     1
  0
CLASS
  1
HATCH
  2
AcDbHatch
  3
"ACAD_SEDONA"
 90
        0
280
     0
281
     1
  0
CLASS
  1
XRECORD
  2
AcDbXrecord
  3
"<Built In>"
 90
        0
280
     0
281
     0
  0
ENDSEC
  0
SECTION
  2
TABLES
  0
TABLE
  2
VPORT
  5
8
100
AcDbSymbolTable
 70
     2
  0
VPORT
  5
332
100
AcDbSymbolTableRecord
100
AcDbViewportTableRecord
  2
*ACTIVE
 70
     0
 10
0.0
 20
0.0
 11
1.0
 21
1.0
 12
31.019974
 22
-24.080034
 13
0.0
 23
0.0
 14
10.0
 24
10.0
 15
10.0
 25
10.0
 16
0.0
 26
0.0
 36
1.0
 17
0.0
 27
0.0
 37
0.0
 40
112.450882
 41
1.710425
 42
50.0
 43
0.0
 44
0.0
 50
0.0
 51
0.0
 71
     0
 72
   100
 73
     1
 74
     1
 75
     0
 76
     0
 77
     0
 78
     0
  0
ENDTAB
  0
TABLE
  2
LTYPE
  5
5
100
AcDbSymbolTable
 70
     5
  0
LTYPE
  5
12
100
AcDbSymbolTableRecord
100
AcDbLinetypeTableRecord
  2
BYBLOCK
 70
     0
  3

 72
    65
 73
     0
 40
0.0
  0
LTYPE
  5
13
100
AcDbSymbolTableRecord
100
AcDbLinetypeTableRecord
  2
BYLAYER
 70
     0
  3

 72
    65
 73
     0
 40
0.0
  0
LTYPE
  5
14
100
AcDbSymbolTableRecord
100
AcDbLinetypeTableRecord
  2
CONTINUOUS
 70
     0
  3
Solid line
 72
    65
 73
     0
 40
0.0
  0
LTYPE
  5
1F
100
AcDbSymbolTableRecord
100
AcDbLinetypeTableRecord
  2
DASHED
 70
     0
  3
__ __ __ __ __ __ __ __ __ __ __ __ __ __ __
 72
    65
 73
     2
 40
3.5
 49
2.0
 74
     0
 49
-1.5
 74
     0
  0
LTYPE
  5
20
100
AcDbSymbolTableRecord
100
AcDbLinetypeTableRecord
  2
CENTER
 70
     0
  3
____ _ ____ _ ____ _ ____ _ ____ _ ____ _ ____
 72
    65
 73
     4
 40
17.5
 49
13.0
 74
     0
 49
-1.5
 74
     0
 49
1.5
 74
     0
 49
-1.5
 74
     0
  0
LTYPE
  5
21
100
AcDbSymbolTableRecord
100
AcDbLinetypeTableRecord
  2
PHANTOM
 70
     0
  3
_____ _ _ _____ _ _ _____ _ _ _____ _ _ ____  
 72
    65
 73
     6
 40
15.5
 49
8.0
 74
     0
 49
-1.5
 74
     0
 49
1.5
 74
     0
 49
-1.5
 74
     0
 49
1.5
 74
     0
 49
-1.5
 74
     0
  0
LTYPE
  5
22
100
AcDbSymbolTableRecord
100
AcDbLinetypeTableRecord
  2
DOT
 70
     0
  3
. . . . . . . . . . . . . . . . . . . . . . . .
 72
    65
 73
     2
 40
0.25
 49
0.0
 74
     0
 49
-0.25
 74
     0
  0
ENDTAB
  0
TABLE
  2
LAYER
  5
2
100
AcDbSymbolTable
 70
     3
  0
LAYER
  5
E
100
AcDbSymbolTableRecord
100
AcDbLayerTableRecord
  2
0
 70
     0
 62
     7
  6
CONTINUOUS
  0
LAYER
  5
17B
100
AcDbSymbolTableRecord
100
AcDbLayerTableRecord
  2
寸法
 70
     0
 62
     1
  6
CONTINUOUS
  0
LAYER
  5
185
102
{ACAD_XDICTIONARY
360
2E9
102
}
100
AcDbSymbolTableRecord
100
AcDbLayerTableRecord
  2
DEFPOINTS
 70
     0
 62
     7
  6
CONTINUOUS
  0
ENDTAB
  0
TABLE
  2
STYLE
  5
3
100
AcDbSymbolTable
 70
     1
  0
STYLE
  5
F
100
AcDbSymbolTableRecord
100
AcDbTextStyleTableRecord
  2
STANDARD
 70
     0
 40
0.0
 41
1.0
 50
0.0
 71
     0
 42
0.2
  3
txt
  4
BIGFONT
  0
ENDTAB
  0
TABLE
  2
VIEW
  5
6
100
AcDbSymbolTable
 70
     0
  0
ENDTAB
  0
TABLE
  2
UCS
  5
7
100
AcDbSymbolTable
 70
     0
  0
ENDTAB
  0
TABLE
  2
APPID
  5
9
100
AcDbSymbolTable
 70
     1
  0
APPID
  5
10
100
AcDbSymbolTableRecord
100
AcDbRegAppTableRecord
  2
ACAD
 70
     0
  0
ENDTAB
  0
TABLE
  2
DIMSTYLE
  5
A
100
AcDbSymbolTable
 70
     1
  0
DIMSTYLE
105
16C
102
{ACAD_XDICTIONARY
360
310
102
}
102
{ACAD_REACTORS
330
1A3
330
1BD
330
1CC
330
1D9
330
1E6
330
1F3
330
201
330
20E
330
233
330
256
330
266
102
}
100
AcDbSymbolTableRecord
100
AcDbDimStyleTableRecord
  2
STANDARD
 70
     0
  3

  4

  5
OPEN30
  6

  7

 40
1.0
 41
2.0
 42
1.0
 43
10.0
 44
1.0
 45
0.0
 46
0.0
 47
0.0
 48
0.0
140
3.0
141
2.0
142
0.0
143
25.4
144
1.0
145
0.0
146
1.0
147
1.0
 71
     0
 72
     0
 73
     0
 74
     0
 75
     0
 76
     0
 77
     1
 78
     8
170
     0
171
     2
172
     1
173
     0
174
     0
175
     0
176
     1
177
     1
178
     1
270
     2
271
     2
272
     2
273
     2
274
     2
340
F
275
     0
280
     0
281
     0
282
     0
283
     1
284
     0
285
     0
286
     0
287
     3
288
     0
  0
ENDTAB
  0
TABLE
  2
BLOCK_RECORD
  5
1
100
AcDbSymbolTable
 70
    12
  0
BLOCK_RECORD
  5
18
102
{ACAD_XDICTIONARY
360
2C9
102
}
100
AcDbSymbolTableRecord
100
AcDbBlockTableRecord
  2
*MODEL_SPACE
  0
BLOCK_RECORD
  5
15
102
{ACAD_XDICTIONARY
360
2C7
102
}
100
AcDbSymbolTableRecord
100
AcDbBlockTableRecord
  2
*PAPER_SPACE
  0
BLOCK_RECORD
  5
17C
102
{ACAD_XDICTIONARY
360
2E7
102
}
100
AcDbSymbolTableRecord
100
AcDbBlockTableRecord
  2
_OPEN30
  0
BLOCK_RECORD
  5
1A4
100
AcDbSymbolTableRecord
100
AcDbBlockTableRecord
  2
*D1
  0
BLOCK_RECORD
  5
1BE
100
AcDbSymbolTableRecord
100
AcDbBlockTableRecord
  2
*D2
  0
BLOCK_RECORD
  5
1CD
100
AcDbSymbolTableRecord
100
AcDbBlockTableRecord
  2
*D3
  0
BLOCK_RECORD
  5
1DA
100
AcDbSymbolTableRecord
100
AcDbBlockTableRecord
  2
*D4
  0
BLOCK_RECORD
  5
1E7
100
AcDbSymbolTableRecord
100
AcDbBlockTableRecord
  2
*D5
  0
BLOCK_RECORD
  5
1F4
100
AcDbSymbolTableRecord
100
AcDbBlockTableRecord
  2
*D6
  0
BLOCK_RECORD
  5
202
100
AcDbSymbolTableRecord
100
AcDbBlockTableRecord
  2
*D7
  0
BLOCK_RECORD
  5
20F
100
AcDbSymbolTableRecord
100
AcDbBlockTableRecord
  2
*D8
  0
BLOCK_RECORD
  5
234
100
AcDbSymbolTableRecord
100
AcDbBlockTableRecord
  2
*D9
  0
BLOCK_RECORD
  5
257
100
AcDbSymbolTableRecord
100
AcDbBlockTableRecord
  2
*D10
  0
BLOCK_RECORD
  5
267
100
AcDbSymbolTableRecord
100
AcDbBlockTableRecord
  2
*D11
  0
ENDTAB
  0
ENDSEC
  0
SECTION
  2
BLOCKS
  0
BLOCK
  5
19
100
AcDbEntity
  8
0
100
AcDbBlockBegin
  2
*MODEL_SPACE
 70
     0
 10
0.0
 20
0.0
 30
0.0
  3
*MODEL_SPACE
  1

  0
ENDBLK
  5
1A
100
AcDbEntity
  8
0
100
AcDbBlockEnd
  0
BLOCK
  5
16
100
AcDbEntity
 67
     1
  8
0
100
AcDbBlockBegin
  2
*PAPER_SPACE
 70
     0
 10
0.0
 20
0.0
 30
0.0
  3
*PAPER_SPACE
  1

  0
ENDBLK
  5
17
100
AcDbEntity
 67
     1
  8
0
100
AcDbBlockEnd
  0
BLOCK
  5
180
100
AcDbEntity
  8
0
100
AcDbBlockBegin
  2
_OPEN30
 70
     0
 10
0.0
 20
0.0
 30
0.0
  3
_OPEN30
  1

  0
LINE
  5
17D
100
AcDbEntity
  8
0
  6
BYBLOCK
 62
     0
100
AcDbLine
 10
-1.0
 20
0.267949
 30
0.0
 11
0.0
 21
0.0
 31
0.0
1001
ACAD
1000
RTLwPs
1070
   158
  0
LINE
  5
17E
100
AcDbEntity
  8
0
  6
BYBLOCK
 62
     0
100
AcDbLine
 10
0.0
 20
0.0
 30
0.0
 11
-1.0
 21
-0.267949
 31
0.0
1001
ACAD
1000
RTLwPs
1070
   158
  0
LINE
  5
17F
100
AcDbEntity
  8
0
  6
BYBLOCK
 62
     0
100
AcDbLine
 10
0.0
 20
0.0
 30
0.0
 11
-1.0
 21
0.0
 31
0.0
1001
ACAD
1000
RTLwPs
1070
   158
  0
ENDBLK
  5
181
100
AcDbEntity
  8
0
100
AcDbBlockEnd
  0
BLOCK
  5
1B0
100
AcDbEntity
  8
0
100
AcDbBlockBegin
  2
*D1
 70
     1
 10
0.0
 20
0.0
 30
0.0
  3
*D1
  1

  0
LINE
  5
1B2
100
AcDbEntity
  8
寸法
  6
CONTINUOUS
 62
     1
100
AcDbLine
 10
88.0
 20
-45.691742
 30
0.0
 11
91.0
 21
-45.691742
 31
0.0
1001
ACAD
1000
RTLwPs
1070
   158
  0
LINE
  5
1B3
100
AcDbEntity
  8
寸法
  6
CONTINUOUS
 62
     1
100
AcDbLine
 10
86.999912
 20
-51.341751
 30
0.0
 11
91.0
 21
-51.341751
 31
0.0
1001
ACAD
1000
RTLwPs
1070
   158
  0
LINE
  5
1B4
100
AcDbEntity
  8
寸法
  6
CONTINUOUS
 62
     1
100
AcDbLine
 10
90.0
 20
-43.691742
 30
0.0
 11
90.0
 21
-41.691742
 31
0.0
1001
ACAD
1000
RTLwPs
1070
   158
  0
LINE
  5
1B5
100
AcDbEntity
  8
寸法
  6
CONTINUOUS
 62
     1
100
AcDbLine
 10
90.0
 20
-53.341751
 30
0.0
 11
90.0
 21
-66.341751
 31
0.0
1001
ACAD
1000
RTLwPs
1070
   158
  0
LINE
  5
1B6
100
AcDbEntity
  8
寸法
  6
CONTINUOUS
 62
     1
100
AcDbLine
 10
90.0
 20
-45.691742
 30
0.0
 11
90.0
 21
-51.341751
 31
0.0
1001
ACAD
1000
RTLwPs
1070
   158
  0
INSERT
  5
1B7
100
AcDbEntity
  8
寸法
  6
CONTINUOUS
 62
     1
100
AcDbBlockReference
  2
_OPEN30
 10
90.0
 20
-45.691742
 30
0.0
 41
2.0
 42
2.0
 43
2.0
 50
270.0
1001
ACAD
1000
RTLwPs
1070
   158
  0
INSERT
  5
1B8
100
AcDbEntity
  8
寸法
  6
CONTINUOUS
 62
     1
100
AcDbBlockReference
  2
_OPEN30
 10
90.0
 20
-51.341751
 30
0.0
 41
2.0
 42
2.0
 43
2.0
 50
90.0
1001
ACAD
1000
RTLwPs
1070
   158
  0
MTEXT
  5
1B9
100
AcDbEntity
  8
寸法
  6
CONTINUOUS
 62
     1
100
AcDbMText
 10
87.5
 20
-60.841751
 30
0.0
 40
3.0
 41
0.0
 71
     5
 72
     1
  1
\A1;5.65
 11
0.0
 21
1.0
 31
0.0
1001
ACAD
1000
MTEXTBEGIN
1070
    73
1070
     1
1070
    44
1040
1.0
1070
    74
1070
     0
1000
MTEXTEND
1000
MTEXTBEGIN
1070
    73
1070
     1
1070
    44
1040
1.0
1070
    74
1070
     0
1000
MTEXTEND
  0
POINT
  5
1BA
100
AcDbEntity
  8
DEFPOINTS
  6
CONTINUOUS
 62
     0
100
AcDbPoint
 10
87.0
 20
-45.691742
 30
0.0
  0
POINT
  5
1BB
100
AcDbEntity
  8
DEFPOINTS
  6
CONTINUOUS
 62
     0
100
AcDbPoint
 10
85.999912
 20
-51.341751
 30
0.0
  0
POINT
  5
1BC
100
AcDbEntity
  8
DEFPOINTS
  6
CONTINUOUS
 62
     0
100
AcDbPoint
 10
90.0
 20
-51.341751
 30
0.0
  0
ENDBLK
  5
1B1
100
AcDbEntity
  8
0
100
AcDbBlockEnd
  0
BLOCK
  5
1CA
100
AcDbEntity
  8
0
100
AcDbBlockBegin
  2
*D2
 70
     1
 10
0.0
 20
0.0
 30
0.0
  3
*D2
  1

  0
LINE
  5
1BF
100
AcDbEntity
  8
寸法
  6
CONTINUOUS
 62
     1
100
AcDbLine
 10
31.042148
 20
-51.879158
 30
0.0
 11
31.042148
 21
-61.0
 31
0.0
1001
ACAD
1000
RTLwPs
1070
   158
  0
LINE
  5
1C0
100
AcDbEntity
  8
寸法
  6
CONTINUOUS
 62
     1
100
AcDbLine
 10
29.042148
 20
-51.879158
 30
0.0
 11
29.042148
 21
-61.0
 31
0.0
1001
ACAD
1000
RTLwPs
1070
   158
  0
LINE
  5
1C1
100
AcDbEntity
  8
寸法
  6
CONTINUOUS
 62
     1
100
AcDbLine
 10
33.042148
 20
-60.0
 30
0.0
 11
35.042148
 21
-60.0
 31
0.0
1001
ACAD
1000
RTLwPs
1070
   158
  0
LINE
  5
1C2
100
AcDbEntity
  8
寸法
  6
CONTINUOUS
 62
     1
100
AcDbLine
 10
27.042148
 20
-60.0
 30
0.0
 11
21.042148
 21
-60.0
 31
0.0
1001
ACAD
1000
RTLwPs
1070
   158
  0
LINE
  5
1C3
100
AcDbEntity
  8
寸法
  6
CONTINUOUS
 62
     1
100
AcDbLine
 10
31.042148
 20
-60.0
 30
0.0
 11
29.042148
 21
-60.0
 31
0.0
1001
ACAD
1000
RTLwPs
1070
   158
  0
INSERT
  5
1C4
100
AcDbEntity
  8
寸法
  6
CONTINUOUS
 62
     1
100
AcDbBlockReference
  2
_OPEN30
 10
31.042148
 20
-60.0
 30
0.0
 41
2.0
 42
2.0
 43
2.0
 50
180.0
1001
ACAD
1000
RTLwPs
1070
   158
  0
INSERT
  5
1C5
100
AcDbEntity
  8
寸法
  6
CONTINUOUS
 62
     1
100
AcDbBlockReference
  2
_OPEN30
 10
29.042148
 20
-60.0
 30
0.0
 41
2.0
 42
2.0
 43
2.0
1001
ACAD
1000
RTLwPs
1070
   158
  0
MTEXT
  5
1C6
100
AcDbEntity
  8
寸法
  6
CONTINUOUS
 62
     1
100
AcDbMText
 10
23.042148
 20
-57.5
 30
0.0
 40
3.0
 41
0.0
 71
     5
 72
     1
  1
\A1;2
1001
ACAD
1000
MTEXTBEGIN
1070
    73
1070
     1
1070
    44
1040
1.0
1070
    74
1070
     0
1000
MTEXTEND
1000
MTEXTBEGIN
1070
    73
1070
     1
1070
    44
1040
1.0
1070
    74
1070
     0
1000
MTEXTEND
  0
POINT
  5
1C7
100
AcDbEntity
  8
DEFPOINTS
  6
CONTINUOUS
 62
     0
100
AcDbPoint
 10
31.042148
 20
-50.879158
 30
0.0
  0
POINT
  5
1C8
100
AcDbEntity
  8
DEFPOINTS
  6
CONTINUOUS
 62
     0
100
AcDbPoint
 10
29.042148
 20
-50.879158
 30
0.0
  0
POINT
  5
1C9
100
AcDbEntity
  8
DEFPOINTS
  6
CONTINUOUS
 62
     0
100
AcDbPoint
 10
29.042148
 20
-60.0
 30
0.0
  0
ENDBLK
  5
1CB
100
AcDbEntity
  8
0
100
AcDbBlockEnd
  0
BLOCK
  5
1D7
100
AcDbEntity
  8
0
100
AcDbBlockBegin
  2
*D3
 70
     1
 10
0.0
 20
0.0
 30
0.0
  3
*D3
  1

  0
LINE
  5
1CE
100
AcDbEntity
  8
寸法
  6
CONTINUOUS
 62
     1
100
AcDbLine
 10
2.042148
 20
-41.341751
 30
0.0
 11
-11.0
 21
-41.341751
 31
0.0
1001
ACAD
1000
RTLwPs
1070
   158
  0
LINE
  5
1CF
100
AcDbEntity
  8
寸法
  6
CONTINUOUS
 62
     1
100
AcDbLine
 10
2.960779
 20
-51.341751
 30
0.0
 11
-11.0
 21
-51.341751
 31
0.0
1001
ACAD
1000
RTLwPs
1070
   158
  0
LINE
  5
1D0
100
AcDbEntity
  8
寸法
  6
CONTINUOUS
 62
     1
100
AcDbLine
 10
-10.0
 20
-43.341751
 30
0.0
 11
-10.0
 21
-49.341751
 31
0.0
1001
ACAD
1000
RTLwPs
1070
   158
  0
INSERT
  5
1D1
100
AcDbEntity
  8
寸法
  6
CONTINUOUS
 62
     1
100
AcDbBlockReference
  2
_OPEN30
 10
-10.0
 20
-41.341751
 30
0.0
 41
2.0
 42
2.0
 43
2.0
 50
90.0
1001
ACAD
1000
RTLwPs
1070
   158
  0
INSERT
  5
1D2
100
AcDbEntity
  8
寸法
  6
CONTINUOUS
 62
     1
100
AcDbBlockReference
  2
_OPEN30
 10
-10.0
 20
-51.341751
 30
0.0
 41
2.0
 42
2.0
 43
2.0
 50
270.0
1001
ACAD
1000
RTLwPs
1070
   158
  0
MTEXT
  5
1D3
100
AcDbEntity
  8
寸法
  6
CONTINUOUS
 62
     1
100
AcDbMText
 10
-12.5
 20
-46.341751
 30
0.0
 40
3.0
 41
0.0
 71
     5
 72
     1
  1
\A1;10
 11
0.0
 21
1.0
 31
0.0
1001
ACAD
1000
MTEXTBEGIN
1070
    73
1070
     1
1070
    44
1040
1.0
1070
    74
1070
     0
1000
MTEXTEND
1000
MTEXTBEGIN
1070
    73
1070
     1
1070
    44
1040
1.0
1070
    74
1070
     0
1000
MTEXTEND
  0
POINT
  5
1D4
100
AcDbEntity
  8
DEFPOINTS
  6
CONTINUOUS
 62
     0
100
AcDbPoint
 10
3.042148
 20
-41.341751
 30
0.0
  0
POINT
  5
1D5
100
AcDbEntity
  8
DEFPOINTS
  6
CONTINUOUS
 62
     0
100
AcDbPoint
 10
3.960779
 20
-51.341751
 30
0.0
  0
POINT
  5
1D6
100
AcDbEntity
  8
DEFPOINTS
  6
CONTINUOUS
 62
     0
100
AcDbPoint
 10
-10.0
 20
-51.341751
 30
0.0
  0
ENDBLK
  5
1D8
100
AcDbEntity
  8
0
100
AcDbBlockEnd
  0
BLOCK
  5
1E4
100
AcDbEntity
  8
0
100
AcDbBlockBegin
  2
*D4
 70
     1
 10
0.0
 20
0.0
 30
0.0
  3
*D4
  1

  0
LINE
  5
1DB
100
AcDbEntity
  8
寸法
  6
CONTINUOUS
 62
     1
100
AcDbLine
 10
42.042148
 20
-39.841751
 30
0.0
 11
61.0
 21
-39.841751
 31
0.0
1001
ACAD
1000
RTLwPs
1070
   158
  0
LINE
  5
1DC
100
AcDbEntity
  8
寸法
  6
CONTINUOUS
 62
     1
100
AcDbLine
 10
42.042148
 20
-51.341751
 30
0.0
 11
61.0
 21
-51.341751
 31
0.0
1001
ACAD
1000
RTLwPs
1070
   158
  0
LINE
  5
1DD
100
AcDbEntity
  8
寸法
  6
CONTINUOUS
 62
     1
100
AcDbLine
 10
60.0
 20
-41.841751
 30
0.0
 11
60.0
 21
-49.341751
 31
0.0
1001
ACAD
1000
RTLwPs
1070
   158
  0
INSERT
  5
1DE
100
AcDbEntity
  8
寸法
  6
CONTINUOUS
 62
     1
100
AcDbBlockReference
  2
_OPEN30
 10
60.0
 20
-39.841751
 30
0.0
 41
2.0
 42
2.0
 43
2.0
 50
90.0
1001
ACAD
1000
RTLwPs
1070
   158
  0
INSERT
  5
1DF
100
AcDbEntity
  8
寸法
  6
CONTINUOUS
 62
     1
100
AcDbBlockReference
  2
_OPEN30
 10
60.0
 20
-51.341751
 30
0.0
 41
2.0
 42
2.0
 43
2.0
 50
270.0
1001
ACAD
1000
RTLwPs
1070
   158
  0
MTEXT
  5
1E0
100
AcDbEntity
  8
寸法
  6
CONTINUOUS
 62
     1
100
AcDbMText
 10
57.5
 20
-45.591751
 30
0.0
 40
3.0
 41
0.0
 71
     5
 72
     1
  1
\A1;11.5
 11
0.0
 21
1.0
 31
0.0
1001
ACAD
1000
MTEXTBEGIN
1070
    73
1070
     1
1070
    44
1040
1.0
1070
    74
1070
     0
1000
MTEXTEND
1000
MTEXTBEGIN
1070
    73
1070
     1
1070
    44
1040
1.0
1070
    74
1070
     0
1000
MTEXTEND
  0
POINT
  5
1E1
100
AcDbEntity
  8
DEFPOINTS
  6
CONTINUOUS
 62
     0
100
AcDbPoint
 10
41.042148
 20
-39.841751
 30
0.0
  0
POINT
  5
1E2
100
AcDbEntity
  8
DEFPOINTS
  6
CONTINUOUS
 62
     0
100
AcDbPoint
 10
41.042148
 20
-51.341751
 30
0.0
  0
POINT
  5
1E3
100
AcDbEntity
  8
DEFPOINTS
  6
CONTINUOUS
 62
     0
100
AcDbPoint
 10
60.0
 20
-51.341751
 30
0.0
  0
ENDBLK
  5
1E5
100
AcDbEntity
  8
0
100
AcDbBlockEnd
  0
BLOCK
  5
1F1
100
AcDbEntity
  8
0
100
AcDbBlockBegin
  2
*D5
 70
     1
 10
0.0
 20
0.0
 30
0.0
  3
*D5
  1

  0
LINE
  5
1E8
100
AcDbEntity
  8
寸法
  6
CONTINUOUS
 62
     1
100
AcDbLine
 10
49.042148
 20
-42.841736
 30
0.0
 11
49.042148
 21
-29.0
 31
0.0
1001
ACAD
1000
RTLwPs
1070
   158
  0
LINE
  5
1E9
100
AcDbEntity
  8
寸法
  6
CONTINUOUS
 62
     1
100
AcDbLine
 10
30.042148
 20
-37.326752
 30
0.0
 11
30.042148
 21
-29.0
 31
0.0
1001
ACAD
1000
RTLwPs
1070
   158
  0
LINE
  5
1EA
100
AcDbEntity
  8
寸法
  6
CONTINUOUS
 62
     1
100
AcDbLine
 10
47.042148
 20
-30.0
 30
0.0
 11
32.042148
 21
-30.0
 31
0.0
1001
ACAD
1000
RTLwPs
1070
   158
  0
INSERT
  5
1EB
100
AcDbEntity
  8
寸法
  6
CONTINUOUS
 62
     1
100
AcDbBlockReference
  2
_OPEN30
 10
49.042148
 20
-30.0
 30
0.0
 41
2.0
 42
2.0
 43
2.0
1001
ACAD
1000
RTLwPs
1070
   158
  0
INSERT
  5
1EC
100
AcDbEntity
  8
寸法
  6
CONTINUOUS
 62
     1
100
AcDbBlockReference
  2
_OPEN30
 10
30.042148
 20
-30.0
 30
0.0
 41
2.0
 42
2.0
 43
2.0
 50
180.0
1001
ACAD
1000
RTLwPs
1070
   158
  0
MTEXT
  5
1ED
100
AcDbEntity
  8
寸法
  6
CONTINUOUS
 62
     1
100
AcDbMText
 10
39.542148
 20
-27.5
 30
0.0
 40
3.0
 41
0.0
 71
     5
 72
     1
  1
\A1;19
1001
ACAD
1000
MTEXTBEGIN
1070
    73
1070
     1
1070
    44
1040
1.0
1070
    74
1070
     0
1000
MTEXTEND
1000
MTEXTBEGIN
1070
    73
1070
     1
1070
    44
1040
1.0
1070
    74
1070
     0
1000
MTEXTEND
  0
POINT
  5
1EE
100
AcDbEntity
  8
DEFPOINTS
  6
CONTINUOUS
 62
     0
100
AcDbPoint
 10
49.042148
 20
-43.841736
 30
0.0
  0
POINT
  5
1EF
100
AcDbEntity
  8
DEFPOINTS
  6
CONTINUOUS
 62
     0
100
AcDbPoint
 10
30.042148
 20
-38.326752
 30
0.0
  0
POINT
  5
1F0
100
AcDbEntity
  8
DEFPOINTS
  6
CONTINUOUS
 62
     0
100
AcDbPoint
 10
30.042148
 20
-30.0
 30
0.0
  0
ENDBLK
  5
1F2
100
AcDbEntity
  8
0
100
AcDbBlockEnd
  0
BLOCK
  5
1FF
100
AcDbEntity
  8
0
100
AcDbBlockBegin
  2
*D6
 70
     1
 10
0.0
 20
0.0
 30
0.0
  3
*D6
  1

  0
LINE
  5
296
100
AcDbEntity
  8
寸法
  6
CONTINUOUS
 62
     1
100
AcDbLine
 10
42.042148
 20
11.6
 30
0.0
 11
61.0
 21
11.6
 31
0.0
1001
ACAD
1000
RTLwPs
1070
   158
  0
LINE
  5
297
100
AcDbEntity
  8
寸法
  6
CONTINUOUS
 62
     1
100
AcDbLine
 10
42.042148
 20
1.739213
 30
0.0
 11
61.0
 21
1.739213
 31
0.0
1001
ACAD
1000
RTLwPs
1070
   158
  0
LINE
  5
298
100
AcDbEntity
  8
寸法
  6
CONTINUOUS
 62
     1
100
AcDbLine
 10
60.0
 20
9.6
 30
0.0
 11
60.0
 21
3.739213
 31
0.0
1001
ACAD
1000
RTLwPs
1070
   158
  0
INSERT
  5
299
100
AcDbEntity
  8
寸法
  6
CONTINUOUS
 62
     1
100
AcDbBlockReference
  2
_OPEN30
 10
60.0
 20
11.6
 30
0.0
 41
2.0
 42
2.0
 43
2.0
 50
90.0
1001
ACAD
1000
RTLwPs
1070
   158
  0
INSERT
  5
29A
100
AcDbEntity
  8
寸法
  6
CONTINUOUS
 62
     1
100
AcDbBlockReference
  2
_OPEN30
 10
60.0
 20
1.739213
 30
0.0
 41
2.0
 42
2.0
 43
2.0
 50
270.0
1001
ACAD
1000
RTLwPs
1070
   158
  0
MTEXT
  5
29B
100
AcDbEntity
  8
寸法
  6
CONTINUOUS
 62
     1
100
AcDbMText
 10
57.5
 20
6.669606
 30
0.0
 40
3.0
 41
0.0
 71
     5
 72
     1
  1
\A1;10.8
 11
0.0
 21
1.0
 31
0.0
1001
ACAD
1000
MTEXTBEGIN
1070
    73
1070
     1
1070
    44
1040
1.0
1070
    74
1070
     0
1000
MTEXTEND
1000
MTEXTBEGIN
1070
    73
1070
     1
1070
    44
1040
1.0
1070
    74
1070
     0
1000
MTEXTEND
  0
POINT
  5
29C
100
AcDbEntity
  8
DEFPOINTS
  6
CONTINUOUS
 62
     0
100
AcDbPoint
 10
41.042148
 20
11.6
 30
0.0
  0
POINT
  5
29D
100
AcDbEntity
  8
DEFPOINTS
  6
CONTINUOUS
 62
     0
100
AcDbPoint
 10
41.042148
 20
1.739213
 30
0.0
  0
POINT
  5
29E
100
AcDbEntity
  8
DEFPOINTS
  6
CONTINUOUS
 62
     0
100
AcDbPoint
 10
60.0
 20
1.739213
 30
0.0
  0
ENDBLK
  5
200
100
AcDbEntity
  8
0
100
AcDbBlockEnd
  0
BLOCK
  5
20C
100
AcDbEntity
  8
0
100
AcDbBlockBegin
  2
*D7
 70
     1
 10
0.0
 20
0.0
 30
0.0
  3
*D7
  1

  0
LINE
  5
203
100
AcDbEntity
  8
寸法
  6
CONTINUOUS
 62
     1
100
AcDbLine
 10
49.042148
 20
3.599999
 30
0.0
 11
49.042148
 21
-21.0
 31
0.0
1001
ACAD
1000
RTLwPs
1070
   158
  0
LINE
  5
204
100
AcDbEntity
  8
寸法
  6
CONTINUOUS
 62
     1
100
AcDbLine
 10
3.042148
 20
-1.0
 30
0.0
 11
3.042148
 21
-21.0
 31
0.0
1001
ACAD
1000
RTLwPs
1070
   158
  0
LINE
  5
205
100
AcDbEntity
  8
寸法
  6
CONTINUOUS
 62
     1
100
AcDbLine
 10
47.042148
 20
-20.0
 30
0.0
 11
5.042148
 21
-20.0
 31
0.0
1001
ACAD
1000
RTLwPs
1070
   158
  0
INSERT
  5
206
100
AcDbEntity
  8
寸法
  6
CONTINUOUS
 62
     1
100
AcDbBlockReference
  2
_OPEN30
 10
49.042148
 20
-20.0
 30
0.0
 41
2.0
 42
2.0
 43
2.0
1001
ACAD
1000
RTLwPs
1070
   158
  0
INSERT
  5
207
100
AcDbEntity
  8
寸法
  6
CONTINUOUS
 62
     1
100
AcDbBlockReference
  2
_OPEN30
 10
3.042148
 20
-20.0
 30
0.0
 41
2.0
 42
2.0
 43
2.0
 50
180.0
1001
ACAD
1000
RTLwPs
1070
   158
  0
MTEXT
  5
208
100
AcDbEntity
  8
寸法
  6
CONTINUOUS
 62
     1
100
AcDbMText
 10
26.042148
 20
-17.5
 30
0.0
 40
3.0
 41
0.0
 71
     5
 72
     1
  1
\A1;46
1001
ACAD
1000
MTEXTBEGIN
1070
    73
1070
     1
1070
    44
1040
1.0
1070
    74
1070
     0
1000
MTEXTEND
1000
MTEXTBEGIN
1070
    73
1070
     1
1070
    44
1040
1.0
1070
    74
1070
     0
1000
MTEXTEND
  0
POINT
  5
209
100
AcDbEntity
  8
DEFPOINTS
  6
CONTINUOUS
 62
     0
100
AcDbPoint
 10
49.042148
 20
4.599999
 30
0.0
  0
POINT
  5
20A
100
AcDbEntity
  8
DEFPOINTS
  6
CONTINUOUS
 62
     0
100
AcDbPoint
 10
3.042148
 20
0.0
 30
0.0
  0
POINT
  5
20B
100
AcDbEntity
  8
DEFPOINTS
  6
CONTINUOUS
 62
     0
100
AcDbPoint
 10
3.042148
 20
-20.0
 30
0.0
  0
ENDBLK
  5
20D
100
AcDbEntity
  8
0
100
AcDbBlockEnd
  0
BLOCK
  5
219
100
AcDbEntity
  8
0
100
AcDbBlockBegin
  2
*D8
 70
     1
 10
0.0
 20
0.0
 30
0.0
  3
*D8
  1

  0
LINE
  5
314
100
AcDbEntity
  8
寸法
  6
CONTINUOUS
 62
     1
100
AcDbLine
 10
49.042148
 20
3.599999
 30
0.0
 11
49.042148
 21
-11.0
 31
0.0
  0
LINE
  5
315
100
AcDbEntity
  8
寸法
  6
CONTINUOUS
 62
     1
100
AcDbLine
 10
41.042148
 20
0.739213
 30
0.0
 11
41.042148
 21
-11.0
 31
0.0
  0
LINE
  5
316
100
AcDbEntity
  8
寸法
  6
CONTINUOUS
 62
     1
100
AcDbLine
 10
47.042148
 20
-10.0
 30
0.0
 11
43.042148
 21
-10.0
 31
0.0
  0
INSERT
  5
317
100
AcDbEntity
  8
寸法
  6
CONTINUOUS
 62
     1
100
AcDbBlockReference
  2
_OPEN30
 10
49.042148
 20
-10.0
 30
0.0
 41
2.0
 42
2.0
 43
2.0
  0
INSERT
  5
318
100
AcDbEntity
  8
寸法
  6
CONTINUOUS
 62
     1
100
AcDbBlockReference
  2
_OPEN30
 10
41.042148
 20
-10.0
 30
0.0
 41
2.0
 42
2.0
 43
2.0
 50
180.0
  0
MTEXT
  5
319
100
AcDbEntity
  8
寸法
  6
CONTINUOUS
 62
     1
100
AcDbMText
 10
45.042148
 20
-7.5
 30
0.0
 40
3.0
 41
0.0
 71
     5
 72
     1
  1
\A1;8
  0
POINT
  5
31A
100
AcDbEntity
  8
DEFPOINTS
  6
CONTINUOUS
 62
     0
100
AcDbPoint
 10
49.042148
 20
4.599999
 30
0.0
  0
POINT
  5
31B
100
AcDbEntity
  8
DEFPOINTS
  6
CONTINUOUS
 62
     0
100
AcDbPoint
 10
41.042148
 20
1.739213
 30
0.0
  0
POINT
  5
31C
100
AcDbEntity
  8
DEFPOINTS
  6
CONTINUOUS
 62
     0
100
AcDbPoint
 10
41.042148
 20
-10.0
 30
0.0
  0
ENDBLK
  5
21A
100
AcDbEntity
  8
0
100
AcDbBlockEnd
  0
BLOCK
  5
23F
100
AcDbEntity
  8
0
100
AcDbBlockBegin
  2
*D9
 70
     1
 10
0.0
 20
0.0
 30
0.0
  3
*D9
  1

  0
LINE
  5
241
100
AcDbEntity
  8
寸法
  6
CONTINUOUS
 62
     1
100
AcDbLine
 10
2.042148
 20
0.01
 30
0.0
 11
-11.0
 21
0.01
 31
0.0
1001
ACAD
1000
RTLwPs
1070
   158
  0
LINE
  5
242
100
AcDbEntity
  8
寸法
  6
CONTINUOUS
 62
     1
100
AcDbLine
 10
2.042148
 20
11.6
 30
0.0
 11
-11.0
 21
11.6
 31
0.0
1001
ACAD
1000
RTLwPs
1070
   158
  0
LINE
  5
243
100
AcDbEntity
  8
寸法
  6
CONTINUOUS
 62
     1
100
AcDbLine
 10
-10.0
 20
2.01
 30
0.0
 11
-10.0
 21
9.6
 31
0.0
1001
ACAD
1000
RTLwPs
1070
   158
  0
INSERT
  5
244
100
AcDbEntity
  8
寸法
  6
CONTINUOUS
 62
     1
100
AcDbBlockReference
  2
_OPEN30
 10
-10.0
 20
0.01
 30
0.0
 41
2.0
 42
2.0
 43
2.0
 50
270.0
1001
ACAD
1000
RTLwPs
1070
   158
  0
INSERT
  5
245
100
AcDbEntity
  8
寸法
  6
CONTINUOUS
 62
     1
100
AcDbBlockReference
  2
_OPEN30
 10
-10.0
 20
11.6
 30
0.0
 41
2.0
 42
2.0
 43
2.0
 50
90.0
1001
ACAD
1000
RTLwPs
1070
   158
  0
MTEXT
  5
246
100
AcDbEntity
  8
寸法
  6
CONTINUOUS
 62
     1
100
AcDbMText
 10
-12.5
 20
5.805
 30
0.0
 40
3.0
 41
0.0
 71
     5
 72
     1
  1
\A1;11.5
 11
0.0
 21
1.0
 31
0.0
1001
ACAD
1000
MTEXTBEGIN
1070
    73
1070
     1
1070
    44
1040
1.0
1070
    74
1070
     0
1000
MTEXTEND
1000
MTEXTBEGIN
1070
    73
1070
     1
1070
    44
1040
1.0
1070
    74
1070
     0
1000
MTEXTEND
  0
POINT
  5
247
100
AcDbEntity
  8
DEFPOINTS
  6
CONTINUOUS
 62
     0
100
AcDbPoint
 10
3.042148
 20
0.01
 30
0.0
  0
POINT
  5
248
100
AcDbEntity
  8
DEFPOINTS
  6
CONTINUOUS
 62
     0
100
AcDbPoint
 10
3.042148
 20
11.6
 30
0.0
  0
POINT
  5
249
100
AcDbEntity
  8
DEFPOINTS
  6
CONTINUOUS
 62
     0
100
AcDbPoint
 10
-10.0
 20
11.6
 30
0.0
  0
ENDBLK
  5
240
100
AcDbEntity
  8
0
100
AcDbBlockEnd
  0
BLOCK
  5
25E
100
AcDbEntity
  8
0
100
AcDbBlockBegin
  2
*D10
 70
     1
 10
0.0
 20
0.0
 30
0.0
  3
*D10
  1

  0
LINE
  5
260
100
AcDbEntity
  8
寸法
  6
CONTINUOUS
 62
     1
100
AcDbLine
 10
-56.554796
 20
5.364242
 30
0.0
 11
-45.732016
 21
9.252355
 31
0.0
1001
ACAD
1000
RTLwPs
1070
   158
  0
MTEXT
  5
261
100
AcDbEntity
  8
寸法
  6
CONTINUOUS
 62
     1
100
AcDbMText
 10
-52.929759
 20
9.32298
 30
0.0
 40
3.0
 41
0.0
 71
     5
 72
     1
  1
\A1;%%c30
 11
0.941111
 21
0.338097
 31
0.0
1001
ACAD
1000
MTEXTBEGIN
1070
    73
1070
     1
1070
    44
1040
1.0
1070
    74
1070
     0
1000
MTEXTEND
1000
MTEXTBEGIN
1070
    73
1070
     1
1070
    44
1040
1.0
1070
    74
1070
     0
1000
MTEXTEND
  0
LINE
  5
262
100
AcDbEntity
  8
寸法
  6
CONTINUOUS
 62
     1
100
AcDbLine
 10
-29.733123
 20
15.0
 30
0.0
 11
-43.849793
 21
9.928549
 31
0.0
1001
ACAD
1000
RTLwPs
1070
   158
  0
INSERT
  5
263
100
AcDbEntity
  8
寸法
  6
CONTINUOUS
 62
     1
100
AcDbBlockReference
  2
_OPEN30
 10
-43.849793
 20
9.928549
 30
0.0
 41
2.0
 42
2.0
 43
2.0
 50
19.760961
1001
ACAD
1000
RTLwPs
1070
   158
  0
POINT
  5
264
100
AcDbEntity
  8
DEFPOINTS
  6
CONTINUOUS
 62
     0
100
AcDbPoint
 10
-43.849793
 20
9.928549
 30
0.0
  0
POINT
  5
265
100
AcDbEntity
  8
DEFPOINTS
  6
CONTINUOUS
 62
     0
100
AcDbPoint
 10
-29.733123
 20
15.0
 30
0.0
  0
ENDBLK
  5
25F
100
AcDbEntity
  8
0
100
AcDbBlockEnd
  0
BLOCK
  5
274
100
AcDbEntity
  8
0
100
AcDbBlockBegin
  2
*D11
 70
     1
 10
0.0
 20
0.0
 30
0.0
  3
*D11
  1

  0
LINE
  5
31D
100
AcDbEntity
  8
寸法
  6
CONTINUOUS
 62
     1
100
AcDbLine
 10
2.042148
 20
0.0
 30
0.0
 11
-2.827906
 21
0.0
 31
0.0
  0
ARC
  5
31E
100
AcDbEntity
  8
寸法
  6
CONTINUOUS
 62
     1
100
AcDbCircle
 10
3.042148
 20
0.0
 30
0.0
 40
4.870054
100
AcDbArc
 50
113.698402
 51
156.301598
  0
INSERT
  5
31F
100
AcDbEntity
  8
寸法
  6
CONTINUOUS
 62
     1
100
AcDbBlockReference
  2
_OPEN30
 10
3.042148
 20
4.870054
 30
0.0
 41
2.0
 42
2.0
 43
2.0
 50
11.849201
  0
INSERT
  5
320
100
AcDbEntity
  8
寸法
  6
CONTINUOUS
 62
     1
100
AcDbBlockReference
  2
_OPEN30
 10
-1.827906
 20
0.0
 30
0.0
 41
2.0
 42
2.0
 43
2.0
 50
258.150799
  0
MTEXT
  5
321
100
AcDbEntity
  8
寸法
  6
CONTINUOUS
 62
     1
100
AcDbMText
 10
-1.068396
 20
6.11728
 30
0.0
 40
3.0
 41
0.0
 71
     5
 72
     1
  1
\A1;90°
 11
0.830018
 21
0.557736
 31
0.0
  0
POINT
  5
322
100
AcDbEntity
  8
DEFPOINTS
  6
CONTINUOUS
 62
     0
100
AcDbPoint
 10
-1.175442
 20
2.435027
 30
0.0
  0
POINT
  5
323
100
AcDbEntity
  8
DEFPOINTS
  6
CONTINUOUS
 62
     0
100
AcDbPoint
 10
3.042148
 20
0.0
 30
0.0
  0
POINT
  5
324
100
AcDbEntity
  8
DEFPOINTS
  6
CONTINUOUS
 62
     0
100
AcDbPoint
 10
3.042148
 20
11.6
 30
0.0
  0
POINT
  5
325
100
AcDbEntity
  8
DEFPOINTS
  6
CONTINUOUS
 62
     0
100
AcDbPoint
 10
3.042148
 20
0.4
 30
0.0
  0
POINT
  5
326
100
AcDbEntity
  8
DEFPOINTS
  6
CONTINUOUS
 62
     0
100
AcDbPoint
 10
3.442148
 20
0.0
 30
0.0
  0
ENDBLK
  5
275
100
AcDbEntity
  8
0
100
AcDbBlockEnd
  0
ENDSEC
  0
SECTION
  2
ENTITIES
  0
POINT
  5
24
100
AcDbEntity
  8
0
  6
CONTINUOUS
 62
     7
100
AcDbPoint
 10
-29.733123
 20
0.0
 30
0.0
  0
POINT
  5
25
100
AcDbEntity
  8
0
  6
CONTINUOUS
 62
     7
100
AcDbPoint
 10
3.042148
 20
0.0
 30
0.0
  0
POINT
  5
26
100
AcDbEntity
  8
0
  6
CONTINUOUS
 62
     7
100
AcDbPoint
 10
3.042148
 20
-41.341751
 30
0.0
  0
POINT
  5
27
100
AcDbEntity
  8
0
  6
CONTINUOUS
 62
     7
100
AcDbPoint
 10
80.242722
 20
-51.341751
 30
0.0
  0
LINE
  5
28
100
AcDbEntity
  8
0
  6
CONTINUOUS
 62
     7
100
AcDbLine
 10
3.042148
 20
11.6
 30
0.0
 11
3.042148
 21
0.4
 31
0.0
  0
LINE
  5
29
100
AcDbEntity
  8
0
  6
CONTINUOUS
 62
     7
100
AcDbLine
 10
3.642148
 20
0.05359
 30
0.0
 11
9.456238
 21
3.410357
 31
0.0
  0
LINE
  5
2A
100
AcDbEntity
  8
0
  6
CONTINUOUS
 62
     7
100
AcDbLine
 10
3.642148
 20
8.984042
 30
0.0
 11
7.324288
 21
6.858158
 31
0.0
  0
LINE
  5
2B
100
AcDbEntity
  8
0
  6
CONTINUOUS
 62
     7
100
AcDbLine
 10
3.042148
 20
11.6
 30
0.0
 11
41.042148
 21
11.6
 31
0.0
  0
LINE
  5
2C
100
AcDbEntity
  8
0
  6
CONTINUOUS
 62
     7
100
AcDbLine
 10
41.042148
 20
11.6
 30
0.0
 11
41.042148
 21
1.739213
 31
0.0
  0
LINE
  5
2D
100
AcDbEntity
  8
0
  6
CONTINUOUS
 62
     7
100
AcDbLine
 10
15.221488
 20
2.599999
 30
0.0
 11
41.042148
 21
2.599999
 31
0.0
  0
LINE
  5
2E
100
AcDbEntity
  8
0
  6
CENTER
 62
     1
 48
0.5
100
AcDbLine
 10
38.799716
 20
-45.841751
 30
0.0
 11
50.623309
 21
-45.841751
 31
0.0
  0
LINE
  5
2F
100
AcDbEntity
  8
0
  6
CONTINUOUS
 62
     7
100
AcDbLine
 10
49.042148
 20
-43.841736
 30
0.0
 11
49.042148
 21
-47.841751
 31
0.0
  0
LINE
  5
30
100
AcDbEntity
  8
0
  6
CONTINUOUS
 62
     7
100
AcDbLine
 10
44.042148
 20
-41.841736
 30
0.0
 11
44.042148
 21
-49.841751
 31
0.0
  0
LINE
  5
31
100
AcDbEntity
  8
0
  6
CONTINUOUS
 62
     7
100
AcDbLine
 10
46.542091
 20
-50.34172
 30
0.0
 11
49.042091
 21
-47.84172
 31
0.0
  0
LINE
  5
32
100
AcDbEntity
  8
0
  6
CONTINUOUS
 62
     7
100
AcDbLine
 10
46.542083
 20
-41.341717
 30
0.0
 11
49.042087
 21
-43.84172
 31
0.0
  0
LINE
  5
33
100
AcDbEntity
  8
0
  6
CONTINUOUS
 62
     7
100
AcDbLine
 10
44.542148
 20
-41.341736
 30
0.0
 11
46.542148
 21
-41.341736
 31
0.0
  0
LINE
  5
34
100
AcDbEntity
  8
0
  6
CONTINUOUS
 62
     7
100
AcDbLine
 10
44.542148
 20
-50.341751
 30
0.0
 11
46.542148
 21
-50.341751
 31
0.0
  0
LINE
  5
35
100
AcDbEntity
  8
0
  6
CONTINUOUS
 62
     7
100
AcDbLine
 10
44.042102
 20
-49.841709
 30
0.0
 11
44.542102
 21
-50.341709
 31
0.0
  0
LINE
  5
36
100
AcDbEntity
  8
0
  6
CONTINUOUS
 62
     7
100
AcDbLine
 10
44.042083
 20
-41.841717
 30
0.0
 11
44.542083
 21
-41.341717
 31
0.0
  0
LINE
  5
37
100
AcDbEntity
  8
0
  6
CONTINUOUS
 62
     7
100
AcDbLine
 10
44.542148
 20
-50.341751
 30
0.0
 11
44.542148
 21
-41.341736
 31
0.0
  0
LINE
  5
38
100
AcDbEntity
  8
0
  6
CONTINUOUS
 62
     7
100
AcDbLine
 10
46.542148
 20
-41.341736
 30
0.0
 11
46.542148
 21
-50.341751
 31
0.0
  0
LINE
  5
39
100
AcDbEntity
  8
0
  6
CONTINUOUS
 62
     7
100
AcDbLine
 10
41.042148
 20
-43.341736
 30
0.0
 11
44.042148
 21
-43.341736
 31
0.0
  0
LINE
  5
3A
100
AcDbEntity
  8
0
  6
CONTINUOUS
 62
     7
100
AcDbLine
 10
41.042148
 20
-48.341751
 30
0.0
 11
44.042148
 21
-48.341751
 31
0.0
  0
LINE
  5
3B
100
AcDbEntity
  8
0
  6
CONTINUOUS
 62
     7
100
AcDbLine
 10
42.542148
 20
-43.591736
 30
0.0
 11
42.542148
 21
-48.091751
 31
0.0
  0
LINE
  5
3C
100
AcDbEntity
  8
0
  6
CONTINUOUS
 62
     7
100
AcDbLine
 10
41.042148
 20
-48.091751
 30
0.0
 11
42.542148
 21
-48.091751
 31
0.0
  0
LINE
  5
3D
100
AcDbEntity
  8
0
  6
CONTINUOUS
 62
     7
100
AcDbLine
 10
41.042148
 20
-43.591736
 30
0.0
 11
42.542148
 21
-43.591736
 31
0.0
  0
LINE
  5
3E
100
AcDbEntity
  8
0
  6
CONTINUOUS
 62
     7
100
AcDbLine
 10
42.542125
 20
-43.591732
 30
0.0
 11
42.975139
 21
-43.341732
 31
0.0
  0
LINE
  5
3F
100
AcDbEntity
  8
0
  6
CONTINUOUS
 62
     7
100
AcDbLine
 10
42.542125
 20
-48.09174
 30
0.0
 11
42.975139
 21
-48.34174
 31
0.0
  0
LINE
  5
40
100
AcDbEntity
  8
0
  6
CENTER
 62
     1
 48
0.5
100
AcDbLine
 10
30.042148
 20
12.71158
 30
0.0
 11
30.042148
 21
0.679634
 31
0.0
  0
LINE
  5
41
100
AcDbEntity
  8
0
  6
CONTINUOUS
 62
     7
100
AcDbLine
 10
3.960779
 20
-51.341751
 30
0.0
 11
41.042148
 21
-51.341751
 31
0.0
  0
LINE
  5
42
100
AcDbEntity
  8
0
  6
CONTINUOUS
 62
     7
100
AcDbLine
 10
15.221488
 20
-39.841751
 30
0.0
 11
41.042148
 21
-39.841751
 31
0.0
  0
LINE
  5
43
100
AcDbEntity
  8
0
  6
CONTINUOUS
 62
     7
100
AcDbLine
 10
41.042148
 20
-39.841751
 30
0.0
 11
41.042148
 21
-51.341751
 31
0.0
  0
LINE
  5
44
100
AcDbEntity
  8
0
  6
CENTER
 62
     1
 48
0.5
100
AcDbLine
 10
38.799716
 20
6.599999
 30
0.0
 11
50.623309
 21
6.599999
 31
0.0
  0
LINE
  5
45
100
AcDbEntity
  8
0
  6
CONTINUOUS
 62
     7
100
AcDbLine
 10
49.042148
 20
8.6
 30
0.0
 11
49.042148
 21
4.599999
 31
0.0
  0
LINE
  5
46
100
AcDbEntity
  8
0
  6
CONTINUOUS
 62
     7
100
AcDbLine
 10
44.042148
 20
10.6
 30
0.0
 11
44.042148
 21
2.599999
 31
0.0
  0
LINE
  5
47
100
AcDbEntity
  8
0
  6
CONTINUOUS
 62
     7
100
AcDbLine
 10
46.54214
 20
2.1
 30
0.0
 11
49.042144
 21
4.600003
 31
0.0
  0
LINE
  5
48
100
AcDbEntity
  8
0
  6
CONTINUOUS
 62
     7
100
AcDbLine
 10
46.54214
 20
11.10001
 30
0.0
 11
49.042144
 21
8.600007
 31
0.0
  0
LINE
  5
49
100
AcDbEntity
  8
0
  6
CONTINUOUS
 62
     7
100
AcDbLine
 10
44.542148
 20
11.1
 30
0.0
 11
46.542148
 21
11.1
 31
0.0
  0
LINE
  5
4A
100
AcDbEntity
  8
0
  6
CONTINUOUS
 62
     7
100
AcDbLine
 10
44.542148
 20
2.099999
 30
0.0
 11
46.542148
 21
2.099999
 31
0.0
  0
LINE
  5
4B
100
AcDbEntity
  8
0
  6
CONTINUOUS
 62
     7
100
AcDbLine
 10
44.042137
 20
2.600002
 30
0.0
 11
44.54214
 21
2.100002
 31
0.0
  0
LINE
  5
4C
100
AcDbEntity
  8
0
  6
CONTINUOUS
 62
     7
100
AcDbLine
 10
44.04214
 20
10.600008
 30
0.0
 11
44.54214
 21
11.100008
 31
0.0
  0
LINE
  5
4D
100
AcDbEntity
  8
0
  6
CONTINUOUS
 62
     7
100
AcDbLine
 10
44.542148
 20
2.099999
 30
0.0
 11
44.542148
 21
11.1
 31
0.0
  0
LINE
  5
4E
100
AcDbEntity
  8
0
  6
CONTINUOUS
 62
     7
100
AcDbLine
 10
46.542148
 20
11.1
 30
0.0
 11
46.542148
 21
2.099999
 31
0.0
  0
LINE
  5
4F
100
AcDbEntity
  8
0
  6
CONTINUOUS
 62
     7
100
AcDbLine
 10
41.042148
 20
9.1
 30
0.0
 11
44.042148
 21
9.1
 31
0.0
  0
LINE
  5
50
100
AcDbEntity
  8
0
  6
CONTINUOUS
 62
     7
100
AcDbLine
 10
41.042148
 20
4.099999
 30
0.0
 11
44.042148
 21
4.099999
 31
0.0
  0
LINE
  5
51
100
AcDbEntity
  8
0
  6
CONTINUOUS
 62
     7
100
AcDbLine
 10
42.542148
 20
8.85
 30
0.0
 11
42.542148
 21
4.349999
 31
0.0
  0
LINE
  5
52
100
AcDbEntity
  8
0
  6
CONTINUOUS
 62
     7
100
AcDbLine
 10
41.042148
 20
4.349999
 30
0.0
 11
42.542148
 21
4.349999
 31
0.0
  0
LINE
  5
53
100
AcDbEntity
  8
0
  6
CONTINUOUS
 62
     7
100
AcDbLine
 10
41.042148
 20
8.85
 30
0.0
 11
42.542148
 21
8.85
 31
0.0
  0
LINE
  5
54
100
AcDbEntity
  8
0
  6
CONTINUOUS
 62
     7
100
AcDbLine
 10
42.54214
 20
8.849997
 30
0.0
 11
42.975154
 21
9.099997
 31
0.0
  0
LINE
  5
55
100
AcDbEntity
  8
0
  6
CONTINUOUS
 62
     7
100
AcDbLine
 10
42.542129
 20
4.349995
 30
0.0
 11
42.975143
 21
4.099995
 31
0.0
  0
LINE
  5
56
100
AcDbEntity
  8
0
  6
CENTER
 62
     1
 48
0.5
100
AcDbLine
 10
30.042148
 20
-38.326752
 30
0.0
 11
30.042148
 21
-53.12027
 31
0.0
  0
LINE
  5
57
100
AcDbEntity
  8
0
  6
CENTER
 62
     1
 48
0.5
100
AcDbLine
 10
31.042148
 20
-38.326752
 30
0.0
 11
31.042148
 21
-50.879158
 31
0.0
  0
LINE
  5
58
100
AcDbEntity
  8
0
  6
CENTER
 62
     1
 48
0.5
100
AcDbLine
 10
29.042148
 20
-38.326752
 30
0.0
 11
29.042148
 21
-50.879158
 31
0.0
  0
LINE
  5
59
100
AcDbEntity
  8
0
  6
CENTER
 62
     1
 48
0.5
100
AcDbLine
 10
3.949505
 20
-47.841751
 30
0.0
 11
10.324398
 21
-47.841751
 31
0.0
  0
LINE
  5
5A
100
AcDbEntity
  8
0
  6
CONTINUOUS
 62
     7
100
AcDbLine
 10
14.042148
 20
1.739213
 30
0.0
 11
14.042148
 21
1.41242
 31
0.0
  0
LINE
  5
5B
100
AcDbEntity
  8
0
  6
CONTINUOUS
 62
     7
100
AcDbLine
 10
7.042148
 20
-41.191708
 30
0.0
 11
7.042148
 21
-44.341751
 31
0.0
  0
LINE
  5
5C
100
AcDbEntity
  8
0
  6
CONTINUOUS
 62
     7
100
AcDbLine
 10
4.934968
 20
0.8
 30
0.0
 11
7.042149
 21
0.8
 31
0.0
  0
LINE
  5
5D
100
AcDbEntity
  8
0
  6
CONTINUOUS
 62
     7
100
AcDbLine
 10
7.042149
 20
0.8
 30
0.0
 11
14.042147
 21
1.41242
 31
0.0
  0
LINE
  5
5E
100
AcDbEntity
  8
0
  6
CONTINUOUS
 62
     7
100
AcDbLine
 10
3.348358
 20
-44.341751
 30
0.0
 11
7.042148
 21
-44.341751
 31
0.0
  0
LINE
  5
5F
100
AcDbEntity
  8
0
  6
CENTER
 62
     1
 48
0.5
100
AcDbLine
 10
7.042148
 20
-44.341751
 30
0.0
 11
7.042148
 21
-50.841751
 31
0.0
  0
LINE
  5
60
100
AcDbEntity
  8
0
  6
CONTINUOUS
 62
     7
100
AcDbLine
 10
5.542148
 20
11.6
 30
0.0
 11
5.542148
 21
7.887077
 31
0.0
  0
LINE
  5
61
100
AcDbEntity
  8
0
  6
CONTINUOUS
 62
     7
100
AcDbLine
 10
4.742148
 20
11.6
 30
0.0
 11
4.742148
 21
8.348957
 31
0.0
  0
LINE
  5
62
100
AcDbEntity
  8
0
  6
CONTINUOUS
 62
     7
100
AcDbLine
 10
-39.733123
 20
10.599988
 30
0.0
 11
-39.733123
 21
4.841451
 31
0.0
  0
LINE
  5
63
100
AcDbEntity
  8
0
  6
CONTINUOUS
 62
     7
100
AcDbLine
 10
-28.233123
 20
3.165985
 30
0.0
 11
-28.233123
 21
1.739213
 31
0.0
  0
LINE
  5
64
100
AcDbEntity
  8
0
  6
CONTINUOUS
 62
     7
100
AcDbLine
 10
-38.733123
 20
11.6
 30
0.0
 11
-29.233123
 21
11.6
 31
0.0
  0
LINE
  5
65
100
AcDbEntity
  8
0
  6
CONTINUOUS
 62
     7
100
AcDbLine
 10
-38.733119
 20
11.599998
 30
0.0
 11
-39.733119
 21
10.599986
 31
0.0
  0
LINE
  5
66
100
AcDbEntity
  8
0
  6
CONTINUOUS
 62
     7
100
AcDbLine
 10
-29.233113
 20
11.599994
 30
0.0
 11
-28.253183
 21
10.620063
 31
0.0
  0
LINE
  5
67
100
AcDbEntity
  8
0
  6
CONTINUOUS
 62
     7
100
AcDbLine
 10
-32.733123
 20
0.8
 30
0.0
 11
-32.113122
 21
0.8
 31
0.0
  0
LINE
  5
68
100
AcDbEntity
  8
0
  6
CONTINUOUS
 62
     7
100
AcDbLine
 10
-39.733112
 20
4.841445
 30
0.0
 11
-32.733113
 21
0.799994
 31
0.0
  0
LINE
  5
69
100
AcDbEntity
  8
0
  6
CONTINUOUS
 62
     7
100
AcDbLine
 10
80.242722
 20
-51.341751
 30
0.0
 11
85.999912
 21
-51.341751
 31
0.0
  0
LINE
  5
6A
100
AcDbEntity
  8
0
  6
CONTINUOUS
 62
     7
100
AcDbLine
 10
78.0
 20
-39.841751
 30
0.0
 11
86.0
 21
-39.841751
 31
0.0
  0
LINE
  5
6B
100
AcDbEntity
  8
0
  6
CONTINUOUS
 62
     7
100
AcDbLine
 10
87.0
 20
-40.841751
 30
0.0
 11
87.0
 21
-50.341751
 31
0.0
  0
LINE
  5
6C
100
AcDbEntity
  8
0
  6
CONTINUOUS
 62
     7
100
AcDbLine
 10
85.999924
 20
-39.84177
 30
0.0
 11
86.999916
 21
-40.841774
 31
0.0
  0
LINE
  5
6D
100
AcDbEntity
  8
0
  6
CONTINUOUS
 62
     7
100
AcDbLine
 10
86.999901
 20
-50.341782
 30
0.0
 11
85.999912
 21
-51.341751
 31
0.0
  0
LINE
  5
6E
100
AcDbEntity
  8
0
  6
CONTINUOUS
 62
     7
100
AcDbLine
 10
77.139214
 20
-45.96632
 30
0.0
 11
77.999969
 21
-39.841728
 31
0.0
  0
LINE
  5
6F
100
AcDbEntity
  8
0
  6
CONTINUOUS
 62
     7
100
AcDbLine
 10
82.711212
 20
-49.431248
 30
0.0
 11
83.908104
 21
-40.914944
 31
0.0
  0
LINE
  5
70
100
AcDbEntity
  8
0
  6
CONTINUOUS
 62
     7
100
AcDbLine
 10
77.139214
 20
-45.966316
 30
0.0
 11
80.242722
 21
-51.341751
 31
0.0
  0
LINE
  5
72
100
AcDbEntity
  8
0
  6
CENTER
 62
     1
 48
0.5
100
AcDbLine
 10
14.117473
 20
11.136567
 30
0.0
 11
16.443734
 21
3.023931
 31
0.0
  0
LINE
  5
73
100
AcDbEntity
  8
0
  6
CENTER
 62
     1
 48
0.5
100
AcDbLine
 10
4.079184
 20
4.019603
 30
0.0
 11
20.89414
 21
8.841214
 31
0.0
  0
LINE
  5
74
100
AcDbEntity
  8
0
  6
CENTER
 62
     1
 48
0.5
100
AcDbLine
 10
18.012842
 20
10.612437
 30
0.0
 11
19.436641
 21
5.64706
 31
0.0
  0
LINE
  5
75
100
AcDbEntity
  8
0
  6
CONTINUOUS
 62
     7
100
AcDbLine
 10
17.83298
 20
9.41986
 30
0.0
 11
18.315162
 21
9.558124
 31
0.0
  0
LINE
  5
76
100
AcDbEntity
  8
0
  6
CONTINUOUS
 62
     7
100
AcDbLine
 10
18.604764
 20
6.728327
 30
0.0
 11
19.086946
 21
6.866591
 31
0.0
  0
LINE
  5
77
100
AcDbEntity
  8
0
  6
CONTINUOUS
 62
     7
100
AcDbLine
 10
5.255784
 20
5.761392
 30
0.0
 11
6.000005
 21
3.165985
 31
0.0
  0
LINE
  5
78
100
AcDbEntity
  8
0
  6
CONTINUOUS
 62
     7
100
AcDbLine
 10
6.000006
 20
3.165985
 30
0.0
 11
15.477547
 21
3.828335
 31
0.0
  0
LINE
  5
79
100
AcDbEntity
  8
0
  6
CONTINUOUS
 62
     7
100
AcDbLine
 10
5.255783
 20
5.761392
 30
0.0
 11
13.644188
 21
10.22202
 31
0.0
  0
LINE
  5
7A
100
AcDbEntity
  8
0
  6
CENTER
 62
     1
 48
0.5
100
AcDbLine
 10
72.799889
 20
-43.696049
 30
0.0
 11
91.201088
 21
-46.282165
 31
0.0
  0
LINE
  5
7B
100
AcDbEntity
  8
0
  6
CONTINUOUS
 62
     7
100
AcDbLine
 10
82.940849
 20
-47.79731
 30
0.0
 11
87.0
 21
-48.367786
 31
0.0
  0
LINE
  5
7C
100
AcDbEntity
  8
0
  6
CONTINUOUS
 62
     7
100
AcDbLine
 10
83.678467
 20
-42.548889
 30
0.0
 11
87.0
 21
-43.015701
 31
0.0
  0
LINE
  5
7D
100
AcDbEntity
  8
0
  6
CONTINUOUS
 62
     7
100
AcDbLine
 10
77.966492
 20
-40.079906
 30
0.0
 11
83.908104
 21
-40.914947
 31
0.0
  0
LINE
  5
7E
100
AcDbEntity
  8
0
  6
CONTINUOUS
 62
     7
100
AcDbLine
 10
78.824303
 20
-48.884979
 30
0.0
 11
82.711212
 21
-49.431251
 31
0.0
  0
LINE
  5
7F
100
AcDbEntity
  8
0
  6
CONTINUOUS
 62
     7
100
AcDbLine
 10
14.042148
 20
1.739213
 30
0.0
 11
24.851409
 21
1.739213
 31
0.0
  0
LINE
  5
80
100
AcDbEntity
  8
0
  6
CONTINUOUS
 62
     7
100
AcDbLine
 10
3.960779
 20
-51.341751
 30
0.0
 11
3.29686
 21
-43.753128
 31
0.0
  0
LINE
  5
81
100
AcDbEntity
  8
0
  6
CONTINUOUS
 62
     7
100
AcDbLine
 10
3.042148
 20
-41.341751
 30
0.0
 11
4.934968
 21
-41.507351
 31
0.0
  0
LINE
  5
82
100
AcDbEntity
  8
0
  6
CONTINUOUS
 62
     7
100
AcDbLine
 10
3.042148
 20
-41.341751
 30
0.0
 11
3.295582
 21
-43.753014
 31
0.0
  0
LINE
  5
83
100
AcDbEntity
  8
0
  6
CONTINUOUS
 62
     7
100
AcDbLine
 10
3.295582
 20
-43.753014
 30
0.0
 11
4.727537
 21
-43.878296
 31
0.0
  0
LINE
  5
84
100
AcDbEntity
  8
0
  6
CONTINUOUS
 62
     7
100
AcDbLine
 10
4.934968
 20
-41.507351
 30
0.0
 11
4.727537
 21
-43.878296
 31
0.0
  0
LINE
  5
85
100
AcDbEntity
  8
0
  6
CONTINUOUS
 62
     7
100
AcDbLine
 10
14.042148
 20
-41.804127
 30
0.0
 11
14.042148
 21
-45.96632
 31
0.0
  0
LINE
  5
86
100
AcDbEntity
  8
0
  6
CONTINUOUS
 62
     7
100
AcDbLine
 10
29.042148
 20
-40.079906
 30
0.0
 11
31.042148
 21
-40.079906
 31
0.0
  0
LINE
  5
87
100
AcDbEntity
  8
0
  6
CONTINUOUS
 62
     7
100
AcDbLine
 10
29.042148
 20
-40.914944
 30
0.0
 11
31.042148
 21
-40.914944
 31
0.0
  0
LINE
  5
88
100
AcDbEntity
  8
0
  6
CONTINUOUS
 62
     7
100
AcDbLine
 10
29.042148
 20
-42.548889
 30
0.0
 11
31.042148
 21
-42.548889
 31
0.0
  0
LINE
  5
89
100
AcDbEntity
  8
0
  6
CONTINUOUS
 62
     7
100
AcDbLine
 10
29.042148
 20
-43.015697
 30
0.0
 11
31.042148
 21
-43.015697
 31
0.0
  0
LINE
  5
8A
100
AcDbEntity
  8
0
  6
CONTINUOUS
 62
     7
100
AcDbLine
 10
29.042148
 20
-47.79731
 30
0.0
 11
31.042148
 21
-47.79731
 31
0.0
  0
LINE
  5
8B
100
AcDbEntity
  8
0
  6
CONTINUOUS
 62
     7
100
AcDbLine
 10
35.232005
 20
1.739213
 30
0.0
 11
41.042148
 21
1.739213
 31
0.0
  0
LINE
  5
8C
100
AcDbEntity
  8
0
  6
CONTINUOUS
 62
     7
100
AcDbLine
 10
-29.733123
 20
11.6
 30
0.0
 11
-29.733123
 21
0.0
 31
0.0
  0
LINE
  5
8D
100
AcDbEntity
  8
0
  6
CONTINUOUS
 62
     7
100
AcDbLine
 10
-32.113122
 20
8.575008
 30
0.0
 11
-32.113122
 21
0.462625
 31
0.0
  0
LINE
  5
8E
100
AcDbEntity
  8
0
  6
CONTINUOUS
 62
     7
100
AcDbLine
 10
-32.113122
 20
0.462625
 30
0.0
 11
-29.733123
 21
0.0
 31
0.0
  0
LINE
  5
8F
100
AcDbEntity
  8
0
  6
CONTINUOUS
 62
     7
100
AcDbLine
 10
-29.733123
 20
9.037633
 30
0.0
 11
-32.113122
 21
8.575008
 31
0.0
  0
LINE
  5
90
100
AcDbEntity
  8
0
  6
CONTINUOUS
 62
     7
100
AcDbLine
 10
20.101055
 20
-39.824661
 30
0.0
 11
20.099561
 21
-39.841751
 31
0.0
  0
LINE
  5
91
100
AcDbEntity
  8
0
  6
CONTINUOUS
 62
     7
100
AcDbLine
 10
-29.733123
 20
5.761392
 30
0.0
 11
-27.798232
 21
5.761392
 31
0.0
  0
LINE
  5
92
100
AcDbEntity
  8
0
  6
CONTINUOUS
 62
     7
100
AcDbLine
 10
-29.733123
 20
3.165985
 30
0.0
 11
-27.798232
 21
3.165985
 31
0.0
  0
LINE
  5
93
100
AcDbEntity
  8
0
  6
CONTINUOUS
 62
     7
100
AcDbLine
 10
-29.733123
 20
10.620063
 30
0.0
 11
-25.121852
 21
10.620063
 31
0.0
  0
LINE
  5
94
100
AcDbEntity
  8
0
  6
CONTINUOUS
 62
     7
100
AcDbLine
 10
-27.798232
 20
5.761392
 30
0.0
 11
-27.798232
 21
3.165985
 31
0.0
  0
LINE
  5
95
100
AcDbEntity
  8
0
  6
CONTINUOUS
 62
     7
100
AcDbLine
 10
4.934968
 20
-41.007351
 30
0.0
 11
4.934968
 21
-41.507351
 31
0.0
  0
LINE
  5
96
100
AcDbEntity
  8
0
  6
CONTINUOUS
 62
     7
100
AcDbLine
 10
4.934968
 20
-41.007351
 30
0.0
 11
14.045954
 21
-41.804459
 31
0.0
  0
LINE
  5
97
100
AcDbEntity
  8
0
  6
CONTINUOUS
 62
     7
100
AcDbLine
 10
5.255784
 20
-39.527779
 30
0.0
 11
6.000005
 21
-39.592892
 31
0.0
  0
LINE
  5
98
100
AcDbEntity
  8
0
  6
CONTINUOUS
 62
     7
100
AcDbLine
 10
13.131254
 20
-36.703422
 30
0.0
 11
18.640512
 21
-37.185421
 31
0.0
  0
LINE
  5
99
100
AcDbEntity
  8
0
  6
CONTINUOUS
 62
     7
100
AcDbLine
 10
18.4662
 20
-39.177811
 30
0.0
 11
20.101055
 21
-39.320843
 31
0.0
  0
LINE
  5
9A
100
AcDbEntity
  8
0
  6
CONTINUOUS
 62
     7
100
AcDbLine
 10
18.640512
 20
-37.185421
 30
0.0
 11
18.408113
 21
-39.841751
 31
0.0
  0
LINE
  5
9B
100
AcDbEntity
  8
0
  6
CONTINUOUS
 62
     7
100
AcDbLine
 10
20.101055
 20
-39.320843
 30
0.0
 11
20.055482
 21
-39.841751
 31
0.0
  0
LINE
  5
9C
100
AcDbEntity
  8
0
  6
CONTINUOUS
 62
     7
100
AcDbLine
 10
6.000005
 20
-39.592892
 30
0.0
 11
5.869105
 21
-41.089077
 31
0.0
  0
LINE
  5
9D
100
AcDbEntity
  8
0
  6
CONTINUOUS
 62
     7
100
AcDbLine
 10
5.255784
 20
-39.527779
 30
0.0
 11
5.124884
 21
-41.023968
 31
0.0
  0
LINE
  5
9E
100
AcDbEntity
  8
0
  6
CONTINUOUS
 62
     7
100
AcDbLine
 10
-25.121852
 20
10.620063
 30
0.0
 11
-25.121852
 21
7.593264
 31
0.0
  0
LINE
  5
9F
100
AcDbEntity
  8
0
  6
CONTINUOUS
 62
     7
100
AcDbLine
 10
15.129304
 20
-40.89542
 30
0.0
 11
15.221488
 21
-39.841751
 31
0.0
  0
LINE
  5
A0
100
AcDbEntity
  8
0
  6
CONTINUOUS
 62
     7
100
AcDbLine
 10
15.221488
 20
11.6
 30
0.0
 11
15.221488
 21
10.620009
 31
0.0
  0
LINE
  5
A1
100
AcDbEntity
  8
0
  6
CONTINUOUS
 62
     7
100
AcDbLine
 10
15.042148
 20
11.6
 30
0.0
 11
15.042148
 21
10.614271
 31
0.0
  0
LINE
  5
A2
100
AcDbEntity
  8
0
  6
CONTINUOUS
 62
     7
100
AcDbLine
 10
15.042148
 20
1.739213
 30
0.0
 11
15.221488
 21
2.599999
 31
0.0
  0
LINE
  5
A3
100
AcDbEntity
  8
0
  6
CONTINUOUS
 62
     7
100
AcDbLine
 10
15.221488
 20
3.81044
 30
0.0
 11
15.221488
 21
2.599999
 31
0.0
  0
LINE
  5
A4
100
AcDbEntity
  8
0
  6
CONTINUOUS
 62
     7
100
AcDbLine
 10
15.042148
 20
3.797906
 30
0.0
 11
15.042148
 21
1.739213
 31
0.0
  0
LINE
  5
A5
100
AcDbEntity
  8
0
  6
CONTINUOUS
 62
     7
100
AcDbLine
 10
-29.733123
 20
1.739213
 30
0.0
 11
-28.233123
 21
1.739213
 31
0.0
  0
LINE
  5
A6
100
AcDbEntity
  8
0
  6
CONTINUOUS
 62
     7
100
AcDbLine
 10
29.042148
 20
-48.596207
 30
0.0
 11
31.042148
 21
-48.596207
 31
0.0
  0
LINE
  5
A7
100
AcDbEntity
  8
0
  6
CONTINUOUS
 62
     7
100
AcDbLine
 10
7.042147
 20
-44.341751
 30
0.0
 11
14.042148
 21
-45.96632
 31
0.0
  0
LINE
  5
A8
100
AcDbEntity
  8
0
  6
CONTINUOUS
 62
     7
100
AcDbLine
 10
35.015453
 20
-45.96632
 30
0.0
 11
41.042148
 21
-45.96632
 31
0.0
  0
LINE
  5
A9
100
AcDbEntity
  8
0
  6
CONTINUOUS
 62
     7
100
AcDbLine
 10
14.042148
 20
-45.96632
 30
0.0
 11
25.068965
 21
-45.96632
 31
0.0
  0
LINE
  5
AA
100
AcDbEntity
  8
0
  6
CONTINUOUS
 62
     7
100
AcDbLine
 10
3.042148
 20
0.0
 30
0.0
 11
3.442148
 21
0.0
 31
0.0
  0
LINE
  5
AB
100
AcDbEntity
  8
0
  6
CONTINUOUS
 62
     7
100
AcDbLine
 10
3.042148
 20
0.4
 30
0.0
 11
3.042148
 21
0.0
 31
0.0
  0
ARC
  5
AC
100
AcDbEntity
  8
0
  6
CONTINUOUS
 62
     7
100
AcDbCircle
 10
3.442148
 20
8.637633
 30
0.0
 40
0.4
100
AcDbArc
 50
59.999988
 51
179.99996
  0
ARC
  5
AD
100
AcDbEntity
  8
0
  6
CONTINUOUS
 62
     7
100
AcDbCircle
 10
3.442148
 20
0.4
 30
0.0
 40
0.4
100
AcDbArc
 50
180.00004
 51
300.00001
  0
CIRCLE
  5
AE
100
AcDbEntity
  8
0
  6
CONTINUOUS
 62
     7
100
AcDbCircle
 10
7.042148
 20
-47.841751
 30
0.0
 40
2.0
  0
ARC
  5
AF
100
AcDbEntity
  8
0
  6
CONTINUOUS
 62
     7
100
AcDbCircle
 10
18.701055
 20
8.212357
 30
0.0
 40
1.4
100
AcDbArc
 50
286.0
 51
106.0
  0
CIRCLE
  5
B0
100
AcDbEntity
  8
0
  6
CONTINUOUS
 62
     7
100
AcDbCircle
 10
7.042148
 20
-47.841751
 30
0.0
 40
1.65
  0
ARC
  5
B1
100
AcDbEntity
  8
0
  6
CONTINUOUS
 62
     7
100
AcDbCircle
 10
12.259696
 20
-46.665371
 30
0.0
 40
10.0
100
AcDbArc
 50
84.999997
 51
134.45839
  0
ARC
  5
B2
100
AcDbEntity
  8
0
  6
CONTINUOUS
 62
     7
100
AcDbCircle
 10
13.003917
 20
-46.73048
 30
0.0
 40
10.0
100
AcDbArc
 50
84.999997
 51
134.45839
  0
ARC
  5
B3
100
AcDbEntity
  8
0
  6
CONTINUOUS
 62
     7
100
AcDbCircle
 10
-30.121852
 20
7.593264
 30
0.0
 40
5.0
100
AcDbArc
 50
297.69236
 51
0.0
  0
ARC
  5
B4
100
AcDbEntity
  8
0
  6
CONTINUOUS
 62
     7
100
AcDbCircle
 10
-30.121852
 20
10.18867
 30
0.0
 40
5.0
100
AcDbArc
 50
297.69236
 51
0.0
  0
ARC
  5
B5
100
AcDbEntity
  8
0
  6
CONTINUOUS
 62
     7
100
AcDbCircle
 10
14.133109
 20
-40.808266
 30
0.0
 40
1.0
100
AcDbArc
 50
265.0
 51
355.0
  0
LWPOLYLINE
  5
B6
100
AcDbEntity
  8
0
  6
CONTINUOUS
 62
     7
100
AcDbPolyline
 90
       17
 70
     0
 43
0.0
 10
29.042148
 20
-40.914944
 42
0.021099
 10
28.651288
 20
-40.931441
 42
0.021212
 10
28.2625
 20
-40.980994
 42
0.021336
 10
27.879744
 20
-41.063311
 42
0.021584
 10
27.504941
 20
-41.178286
 42
0.021871
 10
27.14154
 20
-41.325345
 42
0.022224
 10
26.792491
 20
-41.503832
 42
0.022634
 10
26.460813
 20
-41.712876
 42
0.023094
 10
26.149585
 20
-41.951347
 42
0.023591
 10
25.861916
 20
-42.217811
 42
0.024109
 10
25.600912
 20
-42.51048
 42
0.02463
 10
25.369613
 20
-42.827176
 42
0.025133
 10
25.170916
 20
-43.165294
 42
0.025593
 10
25.007483
 20
-43.521795
 42
0.025986
 10
24.881632
 20
-43.893214
 42
0.026288
 10
24.795236
 20
-44.275707
 42
0.026481
 10
24.749622
 20
-44.665123
  0
LWPOLYLINE
  5
C9
100
AcDbEntity
  8
0
  6
CONTINUOUS
 62
     7
100
AcDbPolyline
 90
       17
 70
     0
 43
0.0
 10
29.042148
 20
-42.548889
 42
0.048369
 10
28.528182
 20
-42.598719
 42
0.048522
 10
28.032915
 20
-42.74665
 42
0.048718
 10
27.575512
 20
-42.987436
 42
0.048977
 10
27.173487
 20
-43.312395
 42
0.04927
 10
26.842499
 20
-43.709631
 42
0.049546
 10
26.595825
 20
-44.164191
 42
0.049752
 10
26.443604
 20
-44.658479
 42
0.049862
 10
26.392148
 20
-45.173099
 42
0.049751
 10
26.443377
 20
-45.686596
 42
0.049704
 10
26.595189
 20
-46.180495
 42
0.04952
 10
26.841425
 20
-46.634983
 42
0.049258
 10
27.172021
 20
-47.032358
 42
0.048988
 10
27.573879
 20
-47.357687
 42
0.048744
 10
28.03135
 20
-47.59891
 42
0.048553
 10
28.52685
 20
-47.747219
 42
0.048496
 10
29.042148
 20
-47.79731
  0
LWPOLYLINE
  5
DC
100
AcDbEntity
  8
0
  6
CONTINUOUS
 62
     7
100
AcDbPolyline
 90
       17
 70
     0
 43
0.0
 10
29.042148
 20
-43.015697
 42
0.020375
 10
28.803211
 20
-43.025435
 42
0.020465
 10
28.565899
 20
-43.054624
 42
0.020677
 10
28.331482
 20
-43.103273
 42
0.020952
 10
28.101938
 20
-43.171235
 42
0.021318
 10
27.878951
 20
-43.258328
 42
0.021771
 10
27.664274
 20
-43.364289
 42
0.022306
 10
27.459741
 20
-43.488741
 42
0.022913
 10
27.267262
 20
-43.631164
 42
0.02358
 10
27.088818
 20
-43.790852
 42
0.024286
 10
26.926438
 20
-43.966875
 42
0.025009
 10
26.782162
 20
-44.158033
 42
0.025717
 10
26.657984
 20
-44.362822
 42
0.026375
 10
26.555777
 20
-44.579408
 42
0.026943
 10
26.477209
 20
-44.805627
 42
0.027383
 10
26.423642
 20
-45.039007
 42
0.027663
 10
26.39605
 20
-45.276824
  0
LWPOLYLINE
  5
EF
100
AcDbEntity
  8
0
  6
CONTINUOUS
 62
     7
100
AcDbPolyline
 90
       17
 70
     0
 43
0.0
 10
31.042148
 20
-40.914944
 42
-0.020972
 10
31.430664
 20
-40.931243
 42
-0.021083
 10
31.817154
 20
-40.980203
 42
-0.021202
 10
32.197656
 20
-41.061523
 42
-0.021449
 10
32.57042
 20
-41.175127
 42
-0.021731
 10
32.931988
 20
-41.320445
 42
-0.022078
 10
33.279465
 20
-41.496837
 42
-0.022481
 10
33.609887
 20
-41.703457
 42
-0.022934
 10
33.920233
 20
-41.939205
 42
-0.023423
 10
34.20745
 20
-42.202685
 42
-0.023935
 10
34.468486
 20
-42.492164
 42
-0.02445
 10
34.700351
 20
-42.805522
 42
-0.024949
 10
34.900187
 20
-43.140231
 42
-0.025407
 10
35.065361
 20
-43.493333
 42
-0.025801
 10
35.193566
 20
-43.861458
 42
-0.026108
 10
35.282924
 20
-44.240858
 42
-0.026309
 10
35.332083
 20
-44.627477
  0
LWPOLYLINE
  5
102
100
AcDbEntity
  8
0
  6
CONTINUOUS
 62
     7
100
AcDbPolyline
 90
       17
 70
     0
 43
0.0
 10
31.042148
 20
-42.548889
 42
-0.048369
 10
31.556114
 20
-42.598719
 42
-0.048522
 10
32.051381
 20
-42.74665
 42
-0.048718
 10
32.508784
 20
-42.987436
 42
-0.048977
 10
32.910809
 20
-43.312395
 42
-0.04927
 10
33.241797
 20
-43.709631
 42
-0.049546
 10
33.488471
 20
-44.164191
 42
-0.049752
 10
33.640692
 20
-44.658479
 42
-0.049862
 10
33.692148
 20
-45.173099
 42
-0.049751
 10
33.640919
 20
-45.686596
 42
-0.049704
 10
33.489107
 20
-46.180495
 42
-0.04952
 10
33.242871
 20
-46.634983
 42
-0.049258
 10
32.912275
 20
-47.032358
 42
-0.048988
 10
32.510417
 20
-47.357687
 42
-0.048744
 10
32.052946
 20
-47.59891
 42
-0.048553
 10
31.557446
 20
-47.747219
 42
-0.048496
 10
31.042148
 20
-47.79731
  0
LWPOLYLINE
  5
115
100
AcDbEntity
  8
0
  6
CONTINUOUS
 62
     7
100
AcDbPolyline
 90
       17
 70
     0
 43
0.0
 10
31.042148
 20
-43.015697
 42
-0.020375
 10
31.281085
 20
-43.025435
 42
-0.020465
 10
31.518397
 20
-43.054624
 42
-0.020677
 10
31.752814
 20
-43.103273
 42
-0.020952
 10
31.982358
 20
-43.171235
 42
-0.021318
 10
32.205345
 20
-43.258328
 42
-0.021771
 10
32.420022
 20
-43.364289
 42
-0.022306
 10
32.624555
 20
-43.488741
 42
-0.022913
 10
32.817034
 20
-43.631164
 42
-0.02358
 10
32.995478
 20
-43.790852
 42
-0.024286
 10
33.157858
 20
-43.966875
 42
-0.025009
 10
33.302134
 20
-44.158033
 42
-0.025717
 10
33.426312
 20
-44.362822
 42
-0.026375
 10
33.528519
 20
-44.579408
 42
-0.026943
 10
33.607087
 20
-44.805627
 42
-0.027383
 10
33.660654
 20
-45.039007
 42
-0.027663
 10
33.688246
 20
-45.276824
  0
LWPOLYLINE
  5
128
100
AcDbEntity
  8
0
  6
CONTINUOUS
 62
     7
100
AcDbPolyline
 90
       17
 70
     0
 43
0.0
 10
35.232288
 20
1.739183
 42
0.094986
 10
34.647861
 20
2.042384
 42
0.027796
 10
34.008518
 20
2.217165
 42
0.015319
 10
33.356026
 20
2.338688
 42
0.010626
 10
32.698205
 20
2.426817
 42
0.00836
 10
32.036983
 20
2.490204
 42
0.007133
 10
31.374043
 20
2.533201
 42
0.006471
 10
30.710116
 20
2.558221
 42
0.006177
 10
30.045744
 20
2.566494
 42
0.006174
 10
29.38145
 20
2.558401
 42
0.006456
 10
28.718493
 20
2.533619
 42
0.007127
 10
28.055152
 20
2.490826
 42
0.008342
 10
27.393764
 20
2.427685
 42
0.010606
 10
26.735065
 20
2.339752
 42
0.015283
 10
26.081285
 20
2.218379
 42
0.027738
 10
25.439809
 20
2.043542
 42
0.09479
 10
24.852736
 20
1.739872
  0
LWPOLYLINE
  5
13B
100
AcDbEntity
  8
0
  6
CONTINUOUS
 62
     7
100
AcDbPolyline
 90
       17
 70
     0
 43
0.0
 10
31.042148
 20
-48.596207
 42
0.048369
 10
31.87613
 20
-48.515351
 42
0.048521
 10
32.679771
 20
-48.275312
 42
0.048718
 10
33.421972
 20
-47.884603
 42
0.048977
 10
34.074315
 20
-47.357311
 42
0.04927
 10
34.61139
 20
-46.71274
 42
0.049546
 10
35.011654
 20
-45.975153
 42
0.049752
 10
35.258654
 20
-45.173101
 42
0.049862
 10
35.342147
 20
-44.338058
 42
0.049822
 10
35.258787
 20
-43.503672
 42
0.049704
 10
35.012223
 20
-42.702318
 42
0.04952
 10
34.612465
 20
-41.96496
 42
0.049257
 10
34.075846
 20
-41.320312
 42
0.048988
 10
33.423628
 20
-40.792602
 42
0.048743
 10
32.681208
 20
-40.401388
 42
0.048553
 10
31.877124
 20
-40.160957
 42
0.048427
 10
31.042148
 20
-40.079906
  0
LWPOLYLINE
  5
14E
100
AcDbEntity
  8
0
  6
CONTINUOUS
 62
     7
100
AcDbPolyline
 90
       17
 70
     0
 43
0.0
 10
29.042148
 20
-40.079906
 42
0.048369
 10
28.208166
 20
-40.160762
 42
0.048522
 10
27.404525
 20
-40.400801
 42
0.048718
 10
26.662325
 20
-40.791511
 42
0.048977
 10
26.009982
 20
-41.318803
 42
0.04927
 10
25.472907
 20
-41.963374
 42
0.049546
 10
25.072643
 20
-42.700961
 42
0.049752
 10
24.825642
 20
-43.503013
 42
0.049862
 10
24.742149
 20
-44.338058
 42
0.049822
 10
24.825509
 20
-45.172444
 42
0.049704
 10
25.072073
 20
-45.973799
 42
0.04952
 10
25.471832
 20
-46.711156
 42
0.049257
 10
26.008451
 20
-47.355804
 42
0.048988
 10
26.66067
 20
-47.883513
 42
0.048743
 10
27.40309
 20
-48.274727
 42
0.048553
 10
28.207175
 20
-48.515157
 42
0.048427
 10
29.042148
 20
-48.596207
  0
CIRCLE
  5
161
100
AcDbEntity
  8
0
  6
CONTINUOUS
 62
     7
100
AcDbCircle
 10
3.042148
 20
0.0
 30
0.0
 40
0.01
  0
LINE
  5
162
100
AcDbEntity
  8
0
  6
CONTINUOUS
 62
     7
100
AcDbLine
 10
85.072742
 20
-42.744841
 30
0.0
 11
86.987913
 21
-40.829666
 31
0.0
  0
LINE
  5
163
100
AcDbEntity
  8
0
  6
CONTINUOUS
 62
     7
100
AcDbLine
 10
83.785548
 20
-41.786971
 30
0.0
 11
85.730746
 21
-39.841769
 31
0.0
  0
LINE
  5
164
100
AcDbEntity
  8
0
  6
CONTINUOUS
 62
     7
100
AcDbLine
 10
82.596803
 20
-40.730653
 30
0.0
 11
83.485689
 21
-39.841764
 31
0.0
  0
LINE
  5
165
100
AcDbEntity
  8
0
  6
CONTINUOUS
 62
     7
100
AcDbLine
 10
80.628383
 20
-40.45401
 30
0.0
 11
81.240633
 21
-39.841759
 31
0.0
  0
LINE
  5
166
100
AcDbEntity
  8
0
  6
CONTINUOUS
 62
     7
100
AcDbLine
 10
78.659963
 20
-40.177367
 30
0.0
 11
78.995577
 21
-39.841753
 31
0.0
  0
LINE
  5
167
100
AcDbEntity
  8
0
  6
CONTINUOUS
 62
     7
100
AcDbLine
 10
85.456096
 20
-51.341751
 30
0.0
 11
86.999928
 21
-49.797916
 31
0.0
  0
LINE
  5
168
100
AcDbEntity
  8
0
  6
CONTINUOUS
 62
     7
100
AcDbLine
 10
83.211034
 20
-51.341751
 30
0.0
 11
86.28542
 21
-48.267359
 31
0.0
  0
LINE
  5
169
100
AcDbEntity
  8
0
  6
CONTINUOUS
 62
     7
100
AcDbLine
 10
80.965972
 20
-51.341751
 30
0.0
 11
84.317001
 21
-47.990715
 31
0.0
  0
LINE
  5
16A
100
AcDbEntity
  8
0
  6
CONTINUOUS
 62
     7
100
AcDbLine
 10
79.685699
 20
-50.376961
 30
0.0
 11
80.887685
 21
-49.174972
 31
0.0
  0
LINE
  5
16B
100
AcDbEntity
  8
0
  6
CONTINUOUS
 62
     7
100
AcDbLine
 10
78.863947
 20
-48.953648
 30
0.0
 11
78.919266
 21
-48.898329
 31
0.0
  0
TEXT
  5
16E
100
AcDbEntity
  8
0
  6
CONTINUOUS
100
AcDbText
 10
10.553617
 20
-71.410249
 30
0.0
 40
6.0
  1
CTFPR8CA
100
AcDbText
  0
LINE
  5
198
102
{ACAD_REACTORS
330
1A2
102
}
100
AcDbEntity
  8
寸法
  6
CONTINUOUS
 62
     1
100
AcDbLine
 10
92.191356
 20
-46.421338
 30
0.0
 11
102.992299
 21
-47.939309
 31
0.0
  0
LINE
  5
199
102
{ACAD_REACTORS
330
1A2
102
}
100
AcDbEntity
  8
寸法
  6
CONTINUOUS
 62
     1
100
AcDbLine
 10
87.0
 20
-45.691742
 30
0.0
 11
103.149464
 21
-45.691742
 31
0.0
  0
ARC
  5
19A
102
{ACAD_REACTORS
330
1A2
102
}
100
AcDbEntity
  8
寸法
  6
CONTINUOUS
 62
     1
100
AcDbCircle
 10
87.0
 20
-45.691742
 30
0.0
 40
15.149464
100
AcDbArc
 50
336.827585
 51
352.000012
  0
LINE
  5
19B
102
{ACAD_REACTORS
330
1A2
102
}
100
AcDbEntity
  8
寸法
  6
CONTINUOUS
 62
     1
100
AcDbLine
 10
100.927279
 20
-51.653046
 30
0.0
 11
97.543185
 21
-59.55924
 31
0.0
  0
ARC
  5
19C
102
{ACAD_REACTORS
330
1A2
102
}
100
AcDbEntity
  8
寸法
  6
CONTINUOUS
 62
     1
100
AcDbCircle
 10
87.0
 20
-45.691742
 30
0.0
 40
15.149464
100
AcDbArc
 50
336.86087
 51
344.430441
  0
ARC
  5
19D
100
AcDbEntity
  8
寸法
  6
CONTINUOUS
 62
     1
100
AcDbCircle
 10
87.0
 20
-45.691742
 30
0.0
 40
15.149464
100
AcDbArc
 50
7.569571
 51
15.139142
  0
ARC
  5
19E
102
{ACAD_REACTORS
330
1A2
102
}
100
AcDbEntity
  8
寸法
  6
CONTINUOUS
 62
     1
100
AcDbCircle
 10
87.0
 20
-45.691742
 30
0.0
 40
15.149464
100
AcDbArc
 50
352.000012
 51
0.0
  0
INSERT
  5
19F
102
{ACAD_REACTORS
330
1A2
102
}
100
AcDbEntity
  8
寸法
  6
CONTINUOUS
 62
     1
100
AcDbBlockReference
  2
_OPEN30
 10
102.00203
 20
-47.800136
 30
0.0
 41
2.0
 42
2.0
 43
2.0
 50
78.215226
  0
INSERT
  5
1A0
102
{ACAD_REACTORS
330
1A2
102
}
100
AcDbEntity
  8
寸法
  6
CONTINUOUS
 62
     1
100
AcDbBlockReference
  2
_OPEN30
 10
102.149464
 20
-45.691742
 30
0.0
 41
2.0
 42
2.0
 43
2.0
 50
273.784785
  0
MTEXT
  5
1A1
102
{ACAD_REACTORS
330
1A2
102
}
100
AcDbEntity
  8
寸法
  6
CONTINUOUS
 62
     1
100
AcDbMText
 10
96.93692
 20
-54.622394
 30
0.0
 40
3.0
 41
0.0
 71
     5
 72
     1
  1
\A1;8°
 11
0.393499
 21
0.919325
 31
0.0
1001
ACAD
1000
MTEXTBEGIN
1070
    73
1070
     1
1070
    44
1040
1.0
1070
    74
1070
     0
1000
MTEXTEND
1000
MTEXTBEGIN
1070
    73
1070
     1
1070
    44
1040
1.0
1070
    74
1070
     0
1000
MTEXTEND
  0
DIMENSION
  5
1A3
100
AcDbEntity
  8
寸法
  6
CONTINUOUS
100
AcDbDimension
  2
*D1
 10
90.0
 20
-51.341751
 30
0.0
 11
87.5
 21
-60.841751
 31
0.0
 70
    32
  3
STANDARD
100
AcDbAlignedDimension
 13
87.0
 23
-45.691742
 33
0.0
 14
85.999912
 24
-51.341751
 34
0.0
 50
90.0
100
AcDbRotatedDimension
  0
DIMENSION
  5
1BD
100
AcDbEntity
  8
寸法
  6
CONTINUOUS
100
AcDbDimension
  2
*D2
 10
29.042148
 20
-60.0
 30
0.0
 11
23.042148
 21
-57.5
 31
0.0
 70
    32
  3
STANDARD
100
AcDbAlignedDimension
 13
31.042148
 23
-50.879158
 33
0.0
 14
29.042148
 24
-50.879158
 34
0.0
100
AcDbRotatedDimension
  0
DIMENSION
  5
1CC
100
AcDbEntity
  8
寸法
  6
CONTINUOUS
100
AcDbDimension
  2
*D3
 10
-10.0
 20
-51.341751
 30
0.0
 11
-12.5
 21
-46.341751
 31
0.0
 70
    32
  3
STANDARD
100
AcDbAlignedDimension
 13
3.042148
 23
-41.341751
 33
0.0
 14
3.960779
 24
-51.341751
 34
0.0
 50
90.0
100
AcDbRotatedDimension
  0
DIMENSION
  5
1D9
100
AcDbEntity
  8
寸法
  6
CONTINUOUS
100
AcDbDimension
  2
*D4
 10
60.0
 20
-51.341751
 30
0.0
 11
57.5
 21
-45.591751
 31
0.0
 70
    32
  3
STANDARD
100
AcDbAlignedDimension
 13
41.042148
 23
-39.841751
 33
0.0
 14
41.042148
 24
-51.341751
 34
0.0
 50
90.0
100
AcDbRotatedDimension
  0
DIMENSION
  5
1E6
100
AcDbEntity
  8
寸法
  6
CONTINUOUS
100
AcDbDimension
  2
*D5
 10
30.042148
 20
-30.0
 30
0.0
 11
39.542148
 21
-27.5
 31
0.0
 70
    32
  3
STANDARD
100
AcDbAlignedDimension
 13
49.042148
 23
-43.841736
 33
0.0
 14
30.042148
 24
-38.326752
 34
0.0
100
AcDbRotatedDimension
  0
DIMENSION
  5
1F3
100
AcDbEntity
  8
寸法
  6
CONTINUOUS
100
AcDbDimension
  2
*D6
 10
60.0
 20
1.739213
 30
0.0
 11
57.5
 21
6.669606
 31
0.0
 70
    32
  1
10.8
  3
STANDARD
100
AcDbAlignedDimension
 13
41.042148
 23
11.6
 33
0.0
 14
41.042148
 24
1.739213
 34
0.0
 50
90.0
100
AcDbRotatedDimension
  0
DIMENSION
  5
201
100
AcDbEntity
  8
寸法
  6
CONTINUOUS
100
AcDbDimension
  2
*D7
 10
3.042148
 20
-20.0
 30
0.0
 11
26.042148
 21
-17.5
 31
0.0
 70
    32
  3
STANDARD
100
AcDbAlignedDimension
 13
49.042148
 23
4.599999
 33
0.0
 14
3.042148
 24
0.0
 34
0.0
100
AcDbRotatedDimension
  0
DIMENSION
  5
20E
100
AcDbEntity
  8
寸法
  6
CONTINUOUS
100
AcDbDimension
  2
*D8
 10
41.042148
 20
-10.0
 30
0.0
 11
45.042148
 21
-7.5
 31
0.0
 70
    32
  3
STANDARD
100
AcDbAlignedDimension
 13
49.042148
 23
4.599999
 33
0.0
 14
41.042148
 24
1.739213
 34
0.0
100
AcDbRotatedDimension
1001
ACAD
1000
DSTYLE
1002
{
1070
   287
1070
     4
1070
   287
1070
     4
1070
   279
1070
     1
1002
}
  0
DIMENSION
  5
233
100
AcDbEntity
  8
寸法
  6
CONTINUOUS
100
AcDbDimension
  2
*D9
 10
-10.0
 20
11.6
 30
0.0
 11
-12.5
 21
5.805
 31
0.0
 70
    32
  1
11.5
  3
STANDARD
100
AcDbAlignedDimension
 13
3.042148
 23
0.01
 33
0.0
 14
3.042148
 24
11.6
 34
0.0
 50
90.0
100
AcDbRotatedDimension
  0
LINE
  5
253
100
AcDbEntity
  8
0
  6
CONTINUOUS
100
AcDbLine
 10
-29.733123
 20
0.0
 30
0.0
 11
-29.733123
 21
10.620063
 31
0.0
  0
ARC
  5
255
100
AcDbEntity
  8
0
  6
CENTER
 62
     1
 48
0.5
100
AcDbCircle
 10
-29.733123
 20
15.0
 30
0.0
 40
15.0
100
AcDbArc
 50
180.0
 51
270.0
  0
DIMENSION
  5
256
100
AcDbEntity
  8
寸法
  6
CONTINUOUS
100
AcDbDimension
  2
*D10
 10
-29.733123
 20
15.0
 30
0.0
 11
-52.929759
 21
9.32298
 31
0.0
 70
    36
  1
%%c30
  3
STANDARD
100
AcDbRadialDimension
 15
-43.849793
 25
9.928549
 35
0.0
 40
0.0
1001
ACAD
1000
DSTYLE
1002
{
1070
   288
1070
     1
1002
}
  0
DIMENSION
  5
266
100
AcDbEntity
  8
寸法
  6
CONTINUOUS
100
AcDbDimension
  2
*D11
 10
3.442148
 20
0.0
 30
0.0
 11
0.325944
 21
4.042234
 31
0.0
 70
   162
  3
STANDARD
100
AcDb2LineAngularDimension
 13
3.042148
 23
11.6
 33
0.0
 14
3.042148
 24
0.4
 34
0.0
 15
3.042148
 25
0.0
 35
0.0
 16
-1.175442
 26
2.435027
 36
0.0
1001
ACAD
1000
DSTYLE
1002
{
1070
   271
1070
     0
1070
   271
1070
     0
1002
}
  0
MTEXT
  5
28E
100
AcDbEntity
  8
寸法
  6
CONTINUOUS
 62
     1
100
AcDbMText
 10
-39.324009
 20
-38.841751
 30
0.0
 40
3.0
 41
0.0
 71
     5
 72
     1
  1
0%%d
1001
ACAD
1000
MTEXTBEGIN
1070
    73
1070
     1
1070
    44
1040
1.0
1070
    74
1070
     0
1000
MTEXTEND
1000
MTEXTBEGIN
1070
    73
1070
     1
1070
    44
1040
1.0
1070
    74
1070
     0
1000
MTEXTEND
1000
MTEXTBEGIN
1070
    73
1070
     1
1070
    44
1040
1.0
1070
    74
1070
     0
1000
MTEXTEND
1000
MTEXTBEGIN
1070
    73
1070
     1
1070
    44
1040
1.0
1070
    74
1070
     0
1000
MTEXTEND
1000
MTEXTBEGIN
1070
    73
1070
     1
1070
    44
1040
1.0
1070
    74
1070
     0
1000
MTEXTEND
1000
MTEXTBEGIN
1070
    73
1070
     1
1070
    44
1040
1.0
1070
    74
1070
     0
1000
MTEXTEND
1000
MTEXTBEGIN
1070
    73
1070
     1
1070
    44
1040
1.0
1070
    74
1070
     0
1000
MTEXTEND
1000
MTEXTBEGIN
1070
    73
1070
     1
1070
    44
1040
1.0
1070
    74
1070
     0
1000
MTEXTEND
  0
MTEXT
  5
28F
100
AcDbEntity
  8
寸法
  6
CONTINUOUS
 62
     1
100
AcDbMText
 10
-24.893514
 20
-51.029426
 30
0.0
 40
3.0
 41
0.0
 71
     5
 72
     1
  1
+5%%d
1001
ACAD
1000
MTEXTBEGIN
1070
    73
1070
     1
1070
    44
1040
1.0
1070
    74
1070
     0
1000
MTEXTEND
1000
MTEXTBEGIN
1070
    73
1070
     1
1070
    44
1040
1.0
1070
    74
1070
     0
1000
MTEXTEND
1000
MTEXTBEGIN
1070
    73
1070
     1
1070
    44
1040
1.0
1070
    74
1070
     0
1000
MTEXTEND
1000
MTEXTBEGIN
1070
    73
1070
     1
1070
    44
1040
1.0
1070
    74
1070
     0
1000
MTEXTEND
1000
MTEXTBEGIN
1070
    73
1070
     1
1070
    44
1040
1.0
1070
    74
1070
     0
1000
MTEXTEND
1000
MTEXTBEGIN
1070
    73
1070
     1
1070
    44
1040
1.0
1070
    74
1070
     0
1000
MTEXTEND
1000
MTEXTBEGIN
1070
    73
1070
     1
1070
    44
1040
1.0
1070
    74
1070
     0
1000
MTEXTEND
1000
MTEXTBEGIN
1070
    73
1070
     1
1070
    44
1040
1.0
1070
    74
1070
     0
1000
MTEXTEND
  0
LINE
  5
290
100
AcDbEntity
  8
寸法
  6
CONTINUOUS
100
AcDbLine
 10
-29.733112
 20
-51.341751
 30
0.0
 11
-32.182601
 21
-52.755965
 31
30.0
  0
LINE
  5
291
100
AcDbEntity
  8
寸法
  6
CONTINUOUS
100
AcDbLine
 10
-29.733112
 20
-51.341751
 30
0.0
 11
-32.182601
 21
-49.927538
 31
30.0
  0
LINE
  5
292
100
AcDbEntity
  8
寸法
  6
CONTINUOUS
100
AcDbLine
 10
-39.733112
 20
-41.341751
 30
0.0
 11
-38.318898
 21
-43.791241
 31
30.0
  0
LINE
  5
293
100
AcDbEntity
  8
寸法
  6
CONTINUOUS
100
AcDbLine
 10
-39.733112
 20
-41.341751
 30
0.0
 11
-41.147325
 21
-43.791241
 31
30.0
  0
LINE
  5
294
100
AcDbEntity
  8
寸法
  6
CONTINUOUS
100
AcDbLine
 10
-39.733112
 20
-51.341751
 30
0.0
 11
-29.733112
 21
-51.341751
 31
0.0
  0
LINE
  5
295
100
AcDbEntity
  8
寸法
  6
CONTINUOUS
100
AcDbLine
 10
-39.733112
 20
-51.341751
 30
0.0
 11
-39.733112
 21
-41.341751
 31
0.0
  0
LINE
  5
32B
100
AcDbEntity
  8
0
  6
CENTER
 62
     1
 48
0.5
100
AcDbLine
 10
-29.733123
 20
10.620063
 30
0.0
 11
-29.733123
 21
15.0
 31
0.0
  0
CIRCLE
  5
32C
100
AcDbEntity
  8
0
  6
CONTINUOUS
100
AcDbCircle
 10
15.240512
 20
7.220063
 30
0.0
 40
3.4
  0
ENDSEC
  0
SECTION
  2
OBJECTS
  0
DICTIONARY
  5
C
100
AcDbDictionary
  3
ACAD_GROUP
350
D
  3
ACAD_LAYOUT
350
174
  3
ACAD_MLINESTYLE
350
1B
  3
ACAD_PLOTSETTINGS
350
175
  3
ACAD_PLOTSTYLENAME
350
172
  3
ACDBHEADERROUNDTRIPXREC
350
2ED
  0
DICTIONARY
  5
2E9
100
AcDbDictionary
280
     1
  3
ACAD_XREC_ROUNDTRIP
360
2EA
  0
DICTIONARY
  5
310
100
AcDbDictionary
280
     1
  3
ACAD_XREC_ROUNDTRIP
360
311
  0
DICTIONARY
  5
2C9
100
AcDbDictionary
280
     1
  3
ACAD_LAYOUTSELFREF
360
30F
  0
DICTIONARY
  5
2C7
100
AcDbDictionary
280
     1
  3
ACAD_LAYOUTSELFREF
360
30E
  0
DICTIONARY
  5
2E7
100
AcDbDictionary
280
     1
  3
ACAD_XREC_ROUNDTRIP
360
2E8
  0
DICTIONARY
  5
D
102
{ACAD_REACTORS
330
C
102
}
100
AcDbDictionary
  3
*A1
350
1A2
  0
DICTIONARY
  5
174
102
{ACAD_XDICTIONARY
360
312
102
}
102
{ACAD_REACTORS
330
C
102
}
100
AcDbDictionary
  3
MODEL
350
176
  3
ﾚｲｱｳﾄ1
350
177
  0
DICTIONARY
  5
1B
102
{ACAD_REACTORS
330
C
102
}
100
AcDbDictionary
  3
STANDARD
350
1C
  0
DICTIONARY
  5
175
102
{ACAD_REACTORS
330
C
102
}
100
AcDbDictionary
  0
ACAD_PROXY_OBJECT
  5
172
102
{ACAD_REACTORS
330
C
102
}
100
AcDbProxyObject
 90
      499
 91
      500
 93
       86
310
405010041939BDC9B585B0
350
173
340
173
 94
        0
  0
DICTIONARY
  5
2ED
102
{ACAD_REACTORS
330
C
102
}
100
AcDbDictionary
  3
CEPSNTYPE
350
2F7
  3
DIMSTYLEDATA
350
2FB
  3
FINGERPRINTGUID
350
2F8
  3
HYPERLINKBASE
350
2F0
  3
INSUNITS
350
2F6
  3
LAYOUTDICT
350
2F2
  3
LWETCUNION
350
2F5
  3
PLOTSETDICT
350
2F3
  3
PLOTSTYLNAMDICT
350
2F4
  3
PSVPSCALE
350
2FA
  3
PUCSBASE
350
2FE
  3
PUCSORGBACK
350
304
  3
PUCSORGBOTTOM
350
300
  3
PUCSORGFRONT
350
303
  3
PUCSORGLEFT
350
301
  3
PUCSORGRIGHT
350
302
  3
PUCSORGTOP
350
2FF
  3
PUCSORTHOREF
350
2FC
  3
PUCSORTHOVIEW
350
2FD
  3
STYLESHEET
350
2F1
  3
TSTACKALIGN
350
2EE
  3
TSTACKSIZE
350
2EF
  3
UCSBASE
350
307
  3
UCSORGBACK
350
30D
  3
UCSORGBOTTOM
350
309
  3
UCSORGFRONT
350
30C
  3
UCSORGLEFT
350
30A
  3
UCSORGRIGHT
350
30B
  3
UCSORGTOP
350
308
  3
UCSORTHOREF
350
305
  3
UCSORTHOVIEW
350
306
  3
VERSIONGUID
350
2F9
  0
XRECORD
  5
2EA
102
{ACAD_REACTORS
330
2E9
102
}
100
AcDbXrecord
102
EXTNAMES
  1
DEFPOINTS
  2
Defpoints
102
PLOTBIT
280
     0
  0
XRECORD
  5
311
102
{ACAD_REACTORS
330
310
102
}
100
AcDbXrecord
102
ACADR14ROUNDTRIP
1000
DSTYLE
1002
{
1070
   341
340
17C
1070
   342
340
17C
1002
}
  0
XRECORD
  5
30F
102
{ACAD_REACTORS
330
2C9
102
}
100
AcDbXrecord
340
18
  0
XRECORD
  5
30E
102
{ACAD_REACTORS
330
2C7
102
}
100
AcDbXrecord
340
15
  0
XRECORD
  5
2E8
102
{ACAD_REACTORS
330
2E7
102
}
100
AcDbXrecord
102
EXTNAMES
  1
_OPEN30
  2
_Open30
  0
GROUP
  5
1A2
102
{ACAD_REACTORS
330
D
102
}
100
AcDbGroup
300

 70
     1
 71
     1
340
199
340
19B
340
198
340
1A1
340
19C
340
19A
340
1A0
340
19E
340
19F
  0
DICTIONARY
  5
312
100
AcDbDictionary
280
     1
  3
ACAD_XREC_ROUNDTRIP
360
313
  0
ACAD_PROXY_OBJECT
  5
176
102
{ACAD_REACTORS
330
174
102
}
100
AcDbProxyObject
 90
      499
 91
      502
 93
      548
310
90E4550534F4E20504D2D32303030432C01AAAAAAAAA5A69054D6F64656C901A800000000000000000000000000000000000000000000A1000000000000008902A6A6AAAA0
330
18
330
0
340
0
340
0
 94
        0
  0
ACAD_PROXY_OBJECT
  5
177
102
{ACAD_REACTORS
330
174
102
}
100
AcDbProxyObject
 90
      499
 91
      502
 93
      964
310
90E4550534F4E20504D2D32303030432C00AAAAAA416AA59106906DAB2B1B3C43140501A800000000000000000000000000000000000000000000A1000000000000008902A6A6A10232D5E076BC5510408CB5781DAF154410232D5E076BC5510408CB5781DAF15C410232D5E076BC5710408CB5781DAF15C40
330
15
330
0
340
0
340
0
 94
        0
  0
MLINESTYLE
  5
1C
102
{ACAD_REACTORS
330
1B
102
}
100
AcDbMlineStyle
  2
STANDARD
 70
     0
  3

 62
   256
 51
90.0
 52
90.0
 71
     2
 49
0.5
 62
   256
  6
BYLAYER
 49
-0.5
 62
   256
  6
BYLAYER
  0
ACAD_PROXY_OBJECT
  5
173
102
{ACAD_REACTORS
330
172
102
}
100
AcDbProxyObject
 90
      499
 91
      501
 93
        0
 94
        0
  0
XRECORD
  5
2F7
102
{ACAD_REACTORS
330
2ED
102
}
100
AcDbXrecord
 90
        0
  0
XRECORD
  5
2FB
102
{ACAD_REACTORS
330
2ED
102
}
100
AcDbXrecord
1000
DSTYLE
1002
{
1070
   341
340
17C
1070
   342
340
17C
1002
}
  0
XRECORD
  5
2F8
102
{ACAD_REACTORS
330
2ED
102
}
100
AcDbXrecord
  1
{30784E18-423F-44B9-9853-3A3E1634DAF2}
  0
XRECORD
  5
2F0
102
{ACAD_REACTORS
330
2ED
102
}
100
AcDbXrecord
  1

  0
XRECORD
  5
2F6
102
{ACAD_REACTORS
330
2ED
102
}
100
AcDbXrecord
 90
        0
  0
XRECORD
  5
2F2
102
{ACAD_REACTORS
330
2ED
102
}
100
AcDbXrecord
340
174
  0
XRECORD
  5
2F5
102
{ACAD_REACTORS
330
2ED
102
}
100
AcDbXrecord
 90
    14877
  0
XRECORD
  5
2F3
102
{ACAD_REACTORS
330
2ED
102
}
100
AcDbXrecord
340
175
  0
XRECORD
  5
2F4
102
{ACAD_REACTORS
330
2ED
102
}
100
AcDbXrecord
340
172
  0
XRECORD
  5
2FA
102
{ACAD_REACTORS
330
2ED
102
}
100
AcDbXrecord
 40
0.0
  0
XRECORD
  5
2FE
102
{ACAD_REACTORS
330
2ED
102
}
100
AcDbXrecord
340
0
  0
XRECORD
  5
304
102
{ACAD_REACTORS
330
2ED
102
}
100
AcDbXrecord
 10
0.0
 20
0.0
 30
0.0
  0
XRECORD
  5
300
102
{ACAD_REACTORS
330
2ED
102
}
100
AcDbXrecord
 10
0.0
 20
0.0
 30
0.0
  0
XRECORD
  5
303
102
{ACAD_REACTORS
330
2ED
102
}
100
AcDbXrecord
 10
0.0
 20
0.0
 30
0.0
  0
XRECORD
  5
301
102
{ACAD_REACTORS
330
2ED
102
}
100
AcDbXrecord
 10
0.0
 20
0.0
 30
0.0
  0
XRECORD
  5
302
102
{ACAD_REACTORS
330
2ED
102
}
100
AcDbXrecord
 10
0.0
 20
0.0
 30
0.0
  0
XRECORD
  5
2FF
102
{ACAD_REACTORS
330
2ED
102
}
100
AcDbXrecord
 10
0.0
 20
0.0
 30
0.0
  0
XRECORD
  5
2FC
102
{ACAD_REACTORS
330
2ED
102
}
100
AcDbXrecord
340
0
  0
XRECORD
  5
2FD
102
{ACAD_REACTORS
330
2ED
102
}
100
AcDbXrecord
 70
     0
  0
XRECORD
  5
2F1
102
{ACAD_REACTORS
330
2ED
102
}
100
AcDbXrecord
  1

  0
XRECORD
  5
2EE
102
{ACAD_REACTORS
330
2ED
102
}
100
AcDbXrecord
 90
        1
  0
XRECORD
  5
2EF
102
{ACAD_REACTORS
330
2ED
102
}
100
AcDbXrecord
 90
       70
  0
XRECORD
  5
307
102
{ACAD_REACTORS
330
2ED
102
}
100
AcDbXrecord
340
0
  0
XRECORD
  5
30D
102
{ACAD_REACTORS
330
2ED
102
}
100
AcDbXrecord
 10
0.0
 20
0.0
 30
0.0
  0
XRECORD
  5
309
102
{ACAD_REACTORS
330
2ED
102
}
100
AcDbXrecord
 10
0.0
 20
0.0
 30
0.0
  0
XRECORD
  5
30C
102
{ACAD_REACTORS
330
2ED
102
}
100
AcDbXrecord
 10
0.0
 20
0.0
 30
0.0
  0
XRECORD
  5
30A
102
{ACAD_REACTORS
330
2ED
102
}
100
AcDbXrecord
 10
0.0
 20
0.0
 30
0.0
  0
XRECORD
  5
30B
102
{ACAD_REACTORS
330
2ED
102
}
100
AcDbXrecord
 10
0.0
 20
0.0
 30
0.0
  0
XRECORD
  5
308
102
{ACAD_REACTORS
330
2ED
102
}
100
AcDbXrecord
 10
0.0
 20
0.0
 30
0.0
  0
XRECORD
  5
305
102
{ACAD_REACTORS
330
2ED
102
}
100
AcDbXrecord
340
0
  0
XRECORD
  5
306
102
{ACAD_REACTORS
330
2ED
102
}
100
AcDbXrecord
 70
     0
  0
XRECORD
  5
2F9
102
{ACAD_REACTORS
330
2ED
102
}
100
AcDbXrecord
  1
{7D1113BA-E58B-4E06-91B0-F8D0ADC98D6C}
  0
XRECORD
  5
313
102
{ACAD_REACTORS
330
312
102
}
100
AcDbXrecord
102
EXTNAMES
  1
MODEL
  2
Model
  0
ENDSEC
  0
EOF
