  0
SECTION
  2
HEADER
  9
$ACADVER
  1
AC1014
  9
$ACADMAINTVER
 70
     0
  9
$DWGCODEPAGE
  3
ANSI_932
  9
$INSBASE
 10
0.0
 20
0.0
 30
0.0
  9
$EXTMIN
 10
-60.09509
 20
-68.353411
 30
0.0
  9
$EXTMAX
 10
125.437074
 20
32.889404
 30
30.0
  9
$LIMMIN
 10
-89.769369
 20
-96.222118
  9
$LIMMAX
 10
169.350601
 20
67.976121
  9
$ORTHOMODE
 70
     0
  9
$REGENMODE
 70
     1
  9
$FILLMODE
 70
     1
  9
$QTEXTMODE
 70
     0
  9
$MIRRTEXT
 70
     1
  9
$DRAGMODE
 70
     2
  9
$LTSCALE
 40
1.0
  9
$OSMODE
 70
    33
  9
$ATTMODE
 70
     1
  9
$TEXTSIZE
 40
0.2
  9
$TRACEWID
 40
0.05
  9
$TEXTSTYLE
  7
STANDARD
  9
$CLAYER
  8
0
  9
$CELTYPE
  6
CONTINUOUS
  9
$CECOLOR
 62
   256
  9
$CELTSCALE
 40
1.0
  9
$DELOBJ
 70
     1
  9
$DISPSILH
 70
     0
  9
$DIMSCALE
 40
1.0
  9
$DIMASZ
 40
2.0
  9
$DIMEXO
 40
1.0
  9
$DIMDLI
 40
10.0
  9
$DIMRND
 40
0.0
  9
$DIMDLE
 40
0.0
  9
$DIMEXE
 40
1.0
  9
$DIMTP
 40
0.0
  9
$DIMTM
 40
0.0
  9
$DIMTXT
 40
3.0
  9
$DIMCEN
 40
2.0
  9
$DIMTSZ
 40
0.0
  9
$DIMTOL
 70
     0
  9
$DIMLIM
 70
     0
  9
$DIMTIH
 70
     0
  9
$DIMTOH
 70
     0
  9
$DIMSE1
 70
     0
  9
$DIMSE2
 70
     0
  9
$DIMTAD
 70
     1
  9
$DIMZIN
 70
     8
  9
$DIMBLK
  1
OPEN30
  9
$DIMASO
 70
     1
  9
$DIMSHO
 70
     1
  9
$DIMPOST
  1

  9
$DIMAPOST
  1

  9
$DIMALT
 70
     0
  9
$DIMALTD
 70
     2
  9
$DIMALTF
 40
25.4
  9
$DIMLFAC
 40
1.0
  9
$DIMTOFL
 70
     1
  9
$DIMTVP
 40
0.0
  9
$DIMTIX
 70
     0
  9
$DIMSOXD
 70
     0
  9
$DIMSAH
 70
     0
  9
$DIMBLK1
  1

  9
$DIMBLK2
  1

  9
$DIMSTYLE
  2
STANDARD
  9
$DIMCLRD
 70
     1
  9
$DIMCLRE
 70
     1
  9
$DIMCLRT
 70
     1
  9
$DIMTFAC
 40
1.0
  9
$DIMGAP
 40
1.0
  9
$DIMJUST
 70
     0
  9
$DIMSD1
 70
     0
  9
$DIMSD2
 70
     0
  9
$DIMTOLJ
 70
     1
  9
$DIMTZIN
 70
     0
  9
$DIMALTZ
 70
     0
  9
$DIMALTTZ
 70
     0
  9
$DIMFIT
 70
     3
  9
$DIMUPT
 70
     0
  9
$DIMUNIT
 70
     2
  9
$DIMDEC
 70
     2
  9
$DIMTDEC
 70
     2
  9
$DIMALTU
 70
     2
  9
$DIMALTTD
 70
     2
  9
$DIMTXSTY
  7
STANDARD
  9
$DIMAUNIT
 70
     0
  9
$LUNITS
 70
     2
  9
$LUPREC
 70
     4
  9
$SKETCHINC
 40
0.1
  9
$FILLETRAD
 40
0.0
  9
$AUNITS
 70
     0
  9
$AUPREC
 70
     0
  9
$MENU
  1
acad
  9
$ELEVATION
 40
0.0
  9
$PELEVATION
 40
0.0
  9
$THICKNESS
 40
0.0
  9
$LIMCHECK
 70
     0
  9
$BLIPMODE
 70
     0
  9
$CHAMFERA
 40
0.0
  9
$CHAMFERB
 40
0.0
  9
$CHAMFERC
 40
0.0
  9
$CHAMFERD
 40
0.0
  9
$SKPOLY
 70
     0
  9
$TDCREATE
 40
2444972.375000000
  9
$TDUPDATE
 40
2451977.476701389
  9
$TDINDWG
 40
0.0072254630
  9
$TDUSRTIMER
 40
0.0072254630
  9
$USRTIMER
 70
     1
  9
$ANGBASE
 50
0.0
  9
$ANGDIR
 70
     0
  9
$PDMODE
 70
     0
  9
$PDSIZE
 40
0.0
  9
$PLINEWID
 40
0.0
  9
$COORDS
 70
     1
  9
$SPLFRAME
 70
     0
  9
$SPLINETYPE
 70
     6
  9
$SPLINESEGS
 70
     8
  9
$ATTDIA
 70
     0
  9
$ATTREQ
 70
     1
  9
$HANDLING
 70
     1
  9
$HANDSEED
  5
324
  9
$SURFTAB1
 70
     6
  9
$SURFTAB2
 70
     6
  9
$SURFTYPE
 70
     6
  9
$SURFU
 70
     6
  9
$SURFV
 70
     6
  9
$UCSNAME
  2

  9
$UCSORG
 10
0.0
 20
0.0
 30
0.0
  9
$UCSXDIR
 10
1.0
 20
0.0
 30
0.0
  9
$UCSYDIR
 10
0.0
 20
1.0
 30
0.0
  9
$PUCSNAME
  2

  9
$PUCSORG
 10
0.0
 20
0.0
 30
0.0
  9
$PUCSXDIR
 10
1.0
 20
0.0
 30
0.0
  9
$PUCSYDIR
 10
0.0
 20
1.0
 30
0.0
  9
$USERI1
 70
     0
  9
$USERI2
 70
     0
  9
$USERI3
 70
     0
  9
$USERI4
 70
     0
  9
$USERI5
 70
     0
  9
$USERR1
 40
0.0
  9
$USERR2
 40
0.0
  9
$USERR3
 40
0.0
  9
$USERR4
 40
0.0
  9
$USERR5
 40
0.0
  9
$WORLDVIEW
 70
     1
  9
$SHADEDGE
 70
     3
  9
$SHADEDIF
 70
    70
  9
$TILEMODE
 70
     1
  9
$MAXACTVP
 70
    48
  9
$PINSBASE
 10
0.0
 20
0.0
 30
0.0
  9
$PLIMCHECK
 70
     0
  9
$PEXTMIN
 10
1.000000E+20
 20
1.000000E+20
 30
1.000000E+20
  9
$PEXTMAX
 10
-1.000000E+20
 20
-1.000000E+20
 30
-1.000000E+20
  9
$PLIMMIN
 10
0.0
 20
0.0
  9
$PLIMMAX
 10
12.0
 20
9.0
  9
$UNITMODE
 70
     0
  9
$VISRETAIN
 70
     1
  9
$PLINEGEN
 70
     0
  9
$PSLTSCALE
 70
     1
  9
$TREEDEPTH
 70
  3020
  9
$PICKSTYLE
 70
     1
  9
$CMLSTYLE
  2
STANDARD
  9
$CMLJUST
 70
     0
  9
$CMLSCALE
 40
1.0
  9
$PROXYGRAPHICS
 70
     1
  9
$MEASUREMENT
 70
     0
  0
ENDSEC
  0
SECTION
  2
CLASSES
  0
CLASS
  1
ACDBDICTIONARYWDFLT
  2
AcDbDictionaryWithDefault
  3
AutoCAD 2000
 90
        0
280
     0
281
     0
  0
CLASS
  1
ACDBPLACEHOLDER
  2
AcDbPlaceHolder
  3
AutoCAD 2000
 90
        0
280
     0
281
     0
  0
CLASS
  1
LAYOUT
  2
AcDbLayout
  3
AutoCAD 2000
 90
        0
280
     0
281
     0
  0
CLASS
  1
LONG_TRANSACTION
  2
AcDbLongTransaction
  3
AutoCAD 2000
 90
        0
280
     0
281
     0
  0
CLASS
  1
LWPOLYLINE
  2
AcDbPolyline
  3
"AutoCAD"
 90
        0
280
     0
281
     1
  0
CLASS
  1
HATCH
  2
AcDbHatch
  3
"ACAD_SEDONA"
 90
        0
280
     0
281
     1
  0
CLASS
  1
XRECORD
  2
AcDbXrecord
  3
"<Built In>"
 90
        0
280
     0
281
     0
  0
CLASS
  1
LONG_TRANSACTION
  2
AcDbLongTransaction
  3
AutoCAD 2000
 90
        0
280
     0
281
     0
  0
CLASS
  1
LWPOLYLINE
  2
AcDbPolyline
  3
"AutoCAD"
 90
        0
280
     0
281
     1
  0
CLASS
  1
HATCH
  2
AcDbHatch
  3
"ACAD_SEDONA"
 90
        0
280
     0
281
     1
  0
CLASS
  1
XRECORD
  2
AcDbXrecord
  3
"<Built In>"
 90
        0
280
     0
281
     0
  0
ENDSEC
  0
SECTION
  2
TABLES
  0
TABLE
  2
VPORT
  5
8
100
AcDbSymbolTable
 70
     2
  0
VPORT
  5
323
100
AcDbSymbolTableRecord
100
AcDbViewportTableRecord
  2
*ACTIVE
 70
     0
 10
0.0
 20
0.0
 11
1.0
 21
1.0
 12
38.569792
 22
-17.78259
 13
0.0
 23
0.0
 14
10.0
 24
10.0
 15
10.0
 25
10.0
 16
0.0
 26
0.0
 36
1.0
 17
0.0
 27
0.0
 37
0.0
 40
133.014784
 41
1.710425
 42
50.0
 43
0.0
 44
0.0
 50
0.0
 51
0.0
 71
     0
 72
   100
 73
     1
 74
     1
 75
     0
 76
     0
 77
     0
 78
     0
  0
ENDTAB
  0
TABLE
  2
LTYPE
  5
5
100
AcDbSymbolTable
 70
     5
  0
LTYPE
  5
12
100
AcDbSymbolTableRecord
100
AcDbLinetypeTableRecord
  2
BYBLOCK
 70
     0
  3

 72
    65
 73
     0
 40
0.0
  0
LTYPE
  5
13
100
AcDbSymbolTableRecord
100
AcDbLinetypeTableRecord
  2
BYLAYER
 70
     0
  3

 72
    65
 73
     0
 40
0.0
  0
LTYPE
  5
14
100
AcDbSymbolTableRecord
100
AcDbLinetypeTableRecord
  2
CONTINUOUS
 70
     0
  3
Solid line
 72
    65
 73
     0
 40
0.0
  0
LTYPE
  5
1F
100
AcDbSymbolTableRecord
100
AcDbLinetypeTableRecord
  2
DASHED
 70
     0
  3
__ __ __ __ __ __ __ __ __ __ __ __ __ __ __
 72
    65
 73
     2
 40
3.5
 49
2.0
 74
     0
 49
-1.5
 74
     0
  0
LTYPE
  5
20
100
AcDbSymbolTableRecord
100
AcDbLinetypeTableRecord
  2
CENTER
 70
     0
  3
____ _ ____ _ ____ _ ____ _ ____ _ ____ _ ____
 72
    65
 73
     4
 40
17.5
 49
13.0
 74
     0
 49
-1.5
 74
     0
 49
1.5
 74
     0
 49
-1.5
 74
     0
  0
LTYPE
  5
21
100
AcDbSymbolTableRecord
100
AcDbLinetypeTableRecord
  2
PHANTOM
 70
     0
  3
_____ _ _ _____ _ _ _____ _ _ _____ _ _ ____  
 72
    65
 73
     6
 40
15.5
 49
8.0
 74
     0
 49
-1.5
 74
     0
 49
1.5
 74
     0
 49
-1.5
 74
     0
 49
1.5
 74
     0
 49
-1.5
 74
     0
  0
LTYPE
  5
22
100
AcDbSymbolTableRecord
100
AcDbLinetypeTableRecord
  2
DOT
 70
     0
  3
. . . . . . . . . . . . . . . . . . . . . . . .
 72
    65
 73
     2
 40
0.25
 49
0.0
 74
     0
 49
-0.25
 74
     0
  0
ENDTAB
  0
TABLE
  2
LAYER
  5
2
100
AcDbSymbolTable
 70
     3
  0
LAYER
  5
E
100
AcDbSymbolTableRecord
100
AcDbLayerTableRecord
  2
0
 70
     0
 62
     7
  6
CONTINUOUS
  0
LAYER
  5
16C
100
AcDbSymbolTableRecord
100
AcDbLayerTableRecord
  2
寸法
 70
     0
 62
     1
  6
CONTINUOUS
  0
LAYER
  5
176
102
{ACAD_XDICTIONARY
360
2D8
102
}
100
AcDbSymbolTableRecord
100
AcDbLayerTableRecord
  2
DEFPOINTS
 70
     0
 62
     7
  6
CONTINUOUS
  0
ENDTAB
  0
TABLE
  2
STYLE
  5
3
100
AcDbSymbolTable
 70
     1
  0
STYLE
  5
F
100
AcDbSymbolTableRecord
100
AcDbTextStyleTableRecord
  2
STANDARD
 70
     0
 40
0.0
 41
1.0
 50
0.0
 71
     0
 42
0.2
  3
txt
  4
BIGFONT
  0
ENDTAB
  0
TABLE
  2
VIEW
  5
6
100
AcDbSymbolTable
 70
     0
  0
ENDTAB
  0
TABLE
  2
UCS
  5
7
100
AcDbSymbolTable
 70
     0
  0
ENDTAB
  0
TABLE
  2
APPID
  5
9
100
AcDbSymbolTable
 70
     1
  0
APPID
  5
10
100
AcDbSymbolTableRecord
100
AcDbRegAppTableRecord
  2
ACAD
 70
     0
  0
ENDTAB
  0
TABLE
  2
DIMSTYLE
  5
A
100
AcDbSymbolTable
 70
     1
  0
DIMSTYLE
105
15E
102
{ACAD_XDICTIONARY
360
2FF
102
}
102
{ACAD_REACTORS
330
190
330
1A6
330
1B3
330
1C2
330
1D1
330
1DE
330
1EB
330
201
330
20E
330
21B
330
24B
330
25E
102
}
100
AcDbSymbolTableRecord
100
AcDbDimStyleTableRecord
  2
STANDARD
 70
     0
  3

  4

  5
OPEN30
  6

  7

 40
1.0
 41
2.0
 42
1.0
 43
10.0
 44
1.0
 45
0.0
 46
0.0
 47
0.0
 48
0.0
140
3.0
141
2.0
142
0.0
143
25.4
144
1.0
145
0.0
146
1.0
147
1.0
 71
     0
 72
     0
 73
     0
 74
     0
 75
     0
 76
     0
 77
     1
 78
     8
170
     0
171
     2
172
     1
173
     0
174
     0
175
     0
176
     1
177
     1
178
     1
270
     2
271
     2
272
     2
273
     2
274
     2
340
F
275
     0
280
     0
281
     0
282
     0
283
     1
284
     0
285
     0
286
     0
287
     3
288
     0
  0
ENDTAB
  0
TABLE
  2
BLOCK_RECORD
  5
1
100
AcDbSymbolTable
 70
    13
  0
BLOCK_RECORD
  5
18
102
{ACAD_XDICTIONARY
360
2B5
102
}
100
AcDbSymbolTableRecord
100
AcDbBlockTableRecord
  2
*MODEL_SPACE
  0
BLOCK_RECORD
  5
15
102
{ACAD_XDICTIONARY
360
2B3
102
}
100
AcDbSymbolTableRecord
100
AcDbBlockTableRecord
  2
*PAPER_SPACE
  0
BLOCK_RECORD
  5
16D
102
{ACAD_XDICTIONARY
360
2D6
102
}
100
AcDbSymbolTableRecord
100
AcDbBlockTableRecord
  2
_OPEN30
  0
BLOCK_RECORD
  5
191
100
AcDbSymbolTableRecord
100
AcDbBlockTableRecord
  2
*D1
  0
BLOCK_RECORD
  5
1A7
100
AcDbSymbolTableRecord
100
AcDbBlockTableRecord
  2
*D2
  0
BLOCK_RECORD
  5
1B4
100
AcDbSymbolTableRecord
100
AcDbBlockTableRecord
  2
*D3
  0
BLOCK_RECORD
  5
1C3
100
AcDbSymbolTableRecord
100
AcDbBlockTableRecord
  2
*D4
  0
BLOCK_RECORD
  5
1D2
100
AcDbSymbolTableRecord
100
AcDbBlockTableRecord
  2
*D5
  0
BLOCK_RECORD
  5
1DF
100
AcDbSymbolTableRecord
100
AcDbBlockTableRecord
  2
*D6
  0
BLOCK_RECORD
  5
1EC
100
AcDbSymbolTableRecord
100
AcDbBlockTableRecord
  2
*D7
  0
BLOCK_RECORD
  5
202
100
AcDbSymbolTableRecord
100
AcDbBlockTableRecord
  2
*D8
  0
BLOCK_RECORD
  5
20F
100
AcDbSymbolTableRecord
100
AcDbBlockTableRecord
  2
*D9
  0
BLOCK_RECORD
  5
21C
100
AcDbSymbolTableRecord
100
AcDbBlockTableRecord
  2
*D10
  0
BLOCK_RECORD
  5
24C
100
AcDbSymbolTableRecord
100
AcDbBlockTableRecord
  2
*D11
  0
BLOCK_RECORD
  5
25F
100
AcDbSymbolTableRecord
100
AcDbBlockTableRecord
  2
*D12
  0
ENDTAB
  0
ENDSEC
  0
SECTION
  2
BLOCKS
  0
BLOCK
  5
19
100
AcDbEntity
  8
0
100
AcDbBlockBegin
  2
*MODEL_SPACE
 70
     0
 10
0.0
 20
0.0
 30
0.0
  3
*MODEL_SPACE
  1

  0
ENDBLK
  5
1A
100
AcDbEntity
  8
0
100
AcDbBlockEnd
  0
BLOCK
  5
16
100
AcDbEntity
 67
     1
  8
0
100
AcDbBlockBegin
  2
*PAPER_SPACE
 70
     0
 10
0.0
 20
0.0
 30
0.0
  3
*PAPER_SPACE
  1

  0
ENDBLK
  5
17
100
AcDbEntity
 67
     1
  8
0
100
AcDbBlockEnd
  0
BLOCK
  5
171
100
AcDbEntity
  8
0
100
AcDbBlockBegin
  2
_OPEN30
 70
     0
 10
0.0
 20
0.0
 30
0.0
  3
_OPEN30
  1

  0
LINE
  5
16E
100
AcDbEntity
  8
0
  6
BYBLOCK
 62
     0
100
AcDbLine
 10
-1.0
 20
0.267949
 30
0.0
 11
0.0
 21
0.0
 31
0.0
1001
ACAD
1000
RTLwPs
1070
   158
  0
LINE
  5
16F
100
AcDbEntity
  8
0
  6
BYBLOCK
 62
     0
100
AcDbLine
 10
0.0
 20
0.0
 30
0.0
 11
-1.0
 21
-0.267949
 31
0.0
1001
ACAD
1000
RTLwPs
1070
   158
  0
LINE
  5
170
100
AcDbEntity
  8
0
  6
BYBLOCK
 62
     0
100
AcDbLine
 10
0.0
 20
0.0
 30
0.0
 11
-1.0
 21
0.0
 31
0.0
1001
ACAD
1000
RTLwPs
1070
   158
  0
ENDBLK
  5
172
100
AcDbEntity
  8
0
100
AcDbBlockEnd
  0
BLOCK
  5
19B
100
AcDbEntity
  8
0
100
AcDbBlockBegin
  2
*D1
 70
     1
 10
0.0
 20
0.0
 30
0.0
  3
*D1
  1

  0
LINE
  5
19D
100
AcDbEntity
  8
寸法
  6
CONTINUOUS
 62
     1
100
AcDbLine
 10
104.0
 20
-36.103591
 30
0.0
 11
111.0
 21
-36.103591
 31
0.0
1001
ACAD
1000
RTLwPs
1070
   158
  0
LINE
  5
19E
100
AcDbEntity
  8
寸法
  6
CONTINUOUS
 62
     1
100
AcDbLine
 10
102.409774
 20
-42.103592
 30
0.0
 11
111.0
 21
-42.103592
 31
0.0
1001
ACAD
1000
RTLwPs
1070
   158
  0
LINE
  5
19F
100
AcDbEntity
  8
寸法
  6
CONTINUOUS
 62
     1
100
AcDbLine
 10
110.0
 20
-38.103591
 30
0.0
 11
110.0
 21
-40.103592
 31
0.0
1001
ACAD
1000
RTLwPs
1070
   158
  0
INSERT
  5
1A0
100
AcDbEntity
  8
寸法
  6
CONTINUOUS
 62
     1
100
AcDbBlockReference
  2
_OPEN30
 10
110.0
 20
-36.103591
 30
0.0
 41
2.0
 42
2.0
 43
2.0
 50
90.0
1001
ACAD
1000
RTLwPs
1070
   158
  0
INSERT
  5
1A1
100
AcDbEntity
  8
寸法
  6
CONTINUOUS
 62
     1
100
AcDbBlockReference
  2
_OPEN30
 10
110.0
 20
-42.103592
 30
0.0
 41
2.0
 42
2.0
 43
2.0
 50
270.0
1001
ACAD
1000
RTLwPs
1070
   158
  0
MTEXT
  5
1A2
100
AcDbEntity
  8
寸法
  6
CONTINUOUS
 62
     1
100
AcDbMText
 10
107.5
 20
-39.103592
 30
0.0
 40
3.0
 41
0.0
 71
     5
 72
     1
  1
\A1;6
 11
0.0
 21
1.0
 31
0.0
1001
ACAD
1000
MTEXTBEGIN
1070
    73
1070
     1
1070
    44
1040
1.0
1070
    74
1070
     0
1000
MTEXTEND
1000
MTEXTBEGIN
1070
    73
1070
     1
1070
    44
1040
1.0
1070
    74
1070
     0
1000
MTEXTEND
  0
POINT
  5
1A3
100
AcDbEntity
  8
DEFPOINTS
  6
CONTINUOUS
 62
     0
100
AcDbPoint
 10
103.0
 20
-36.103591
 30
0.0
  0
POINT
  5
1A4
100
AcDbEntity
  8
DEFPOINTS
  6
CONTINUOUS
 62
     0
100
AcDbPoint
 10
101.409774
 20
-42.103592
 30
0.0
  0
POINT
  5
1A5
100
AcDbEntity
  8
DEFPOINTS
  6
CONTINUOUS
 62
     0
100
AcDbPoint
 10
110.0
 20
-42.103592
 30
0.0
  0
ENDBLK
  5
19C
100
AcDbEntity
  8
0
100
AcDbBlockEnd
  0
BLOCK
  5
1B1
100
AcDbEntity
  8
0
100
AcDbBlockBegin
  2
*D2
 70
     1
 10
0.0
 20
0.0
 30
0.0
  3
*D2
  1

  0
LINE
  5
1A8
100
AcDbEntity
  8
寸法
  6
CONTINUOUS
 62
     1
100
AcDbLine
 10
54.416304
 20
-26.603592
 30
0.0
 11
71.0
 21
-26.603592
 31
0.0
1001
ACAD
1000
RTLwPs
1070
   158
  0
LINE
  5
1A9
100
AcDbEntity
  8
寸法
  6
CONTINUOUS
 62
     1
100
AcDbLine
 10
54.416304
 20
-42.103592
 30
0.0
 11
71.0
 21
-42.103592
 31
0.0
1001
ACAD
1000
RTLwPs
1070
   158
  0
LINE
  5
1AA
100
AcDbEntity
  8
寸法
  6
CONTINUOUS
 62
     1
100
AcDbLine
 10
70.0
 20
-28.603592
 30
0.0
 11
70.0
 21
-40.103592
 31
0.0
1001
ACAD
1000
RTLwPs
1070
   158
  0
INSERT
  5
1AB
100
AcDbEntity
  8
寸法
  6
CONTINUOUS
 62
     1
100
AcDbBlockReference
  2
_OPEN30
 10
70.0
 20
-26.603592
 30
0.0
 41
2.0
 42
2.0
 43
2.0
 50
90.0
1001
ACAD
1000
RTLwPs
1070
   158
  0
INSERT
  5
1AC
100
AcDbEntity
  8
寸法
  6
CONTINUOUS
 62
     1
100
AcDbBlockReference
  2
_OPEN30
 10
70.0
 20
-42.103592
 30
0.0
 41
2.0
 42
2.0
 43
2.0
 50
270.0
1001
ACAD
1000
RTLwPs
1070
   158
  0
MTEXT
  5
1AD
100
AcDbEntity
  8
寸法
  6
CONTINUOUS
 62
     1
100
AcDbMText
 10
67.5
 20
-34.353592
 30
0.0
 40
3.0
 41
0.0
 71
     5
 72
     1
  1
\A1;15.5
 11
0.0
 21
1.0
 31
0.0
1001
ACAD
1000
MTEXTBEGIN
1070
    73
1070
     1
1070
    44
1040
1.0
1070
    74
1070
     0
1000
MTEXTEND
1000
MTEXTBEGIN
1070
    73
1070
     1
1070
    44
1040
1.0
1070
    74
1070
     0
1000
MTEXTEND
  0
POINT
  5
1AE
100
AcDbEntity
  8
DEFPOINTS
  6
CONTINUOUS
 62
     0
100
AcDbPoint
 10
53.416304
 20
-26.603592
 30
0.0
  0
POINT
  5
1AF
100
AcDbEntity
  8
DEFPOINTS
  6
CONTINUOUS
 62
     0
100
AcDbPoint
 10
53.416304
 20
-42.103592
 30
0.0
  0
POINT
  5
1B0
100
AcDbEntity
  8
DEFPOINTS
  6
CONTINUOUS
 62
     0
100
AcDbPoint
 10
70.0
 20
-42.103592
 30
0.0
  0
ENDBLK
  5
1B2
100
AcDbEntity
  8
0
100
AcDbBlockEnd
  0
BLOCK
  5
1BE
100
AcDbEntity
  8
0
100
AcDbBlockBegin
  2
*D3
 70
     1
 10
0.0
 20
0.0
 30
0.0
  3
*D3
  1

  0
LINE
  5
1B5
100
AcDbEntity
  8
寸法
  6
CONTINUOUS
 62
     1
100
AcDbLine
 10
5.416304
 20
-30.103592
 30
0.0
 11
-1.0
 21
-30.103592
 31
0.0
1001
ACAD
1000
RTLwPs
1070
   158
  0
LINE
  5
1B6
100
AcDbEntity
  8
寸法
  6
CONTINUOUS
 62
     1
100
AcDbLine
 10
7.691644
 20
-42.103592
 30
0.0
 11
-1.0
 21
-42.103592
 31
0.0
1001
ACAD
1000
RTLwPs
1070
   158
  0
LINE
  5
1B7
100
AcDbEntity
  8
寸法
  6
CONTINUOUS
 62
     1
100
AcDbLine
 10
0.0
 20
-32.103592
 30
0.0
 11
0.0
 21
-40.103592
 31
0.0
1001
ACAD
1000
RTLwPs
1070
   158
  0
INSERT
  5
1B8
100
AcDbEntity
  8
寸法
  6
CONTINUOUS
 62
     1
100
AcDbBlockReference
  2
_OPEN30
 10
0.0
 20
-30.103592
 30
0.0
 41
2.0
 42
2.0
 43
2.0
 50
90.0
1001
ACAD
1000
RTLwPs
1070
   158
  0
INSERT
  5
1B9
100
AcDbEntity
  8
寸法
  6
CONTINUOUS
 62
     1
100
AcDbBlockReference
  2
_OPEN30
 10
0.0
 20
-42.103592
 30
0.0
 41
2.0
 42
2.0
 43
2.0
 50
270.0
1001
ACAD
1000
RTLwPs
1070
   158
  0
MTEXT
  5
1BA
100
AcDbEntity
  8
寸法
  6
CONTINUOUS
 62
     1
100
AcDbMText
 10
-2.5
 20
-36.103592
 30
0.0
 40
3.0
 41
0.0
 71
     5
 72
     1
  1
\A1;12
 11
0.0
 21
1.0
 31
0.0
1001
ACAD
1000
MTEXTBEGIN
1070
    73
1070
     1
1070
    44
1040
1.0
1070
    74
1070
     0
1000
MTEXTEND
1000
MTEXTBEGIN
1070
    73
1070
     1
1070
    44
1040
1.0
1070
    74
1070
     0
1000
MTEXTEND
  0
POINT
  5
1BB
100
AcDbEntity
  8
DEFPOINTS
  6
CONTINUOUS
 62
     0
100
AcDbPoint
 10
6.416304
 20
-30.103592
 30
0.0
  0
POINT
  5
1BC
100
AcDbEntity
  8
DEFPOINTS
  6
CONTINUOUS
 62
     0
100
AcDbPoint
 10
8.691644
 20
-42.103592
 30
0.0
  0
POINT
  5
1BD
100
AcDbEntity
  8
DEFPOINTS
  6
CONTINUOUS
 62
     0
100
AcDbPoint
 10
0.0
 20
-42.103592
 30
0.0
  0
ENDBLK
  5
1BF
100
AcDbEntity
  8
0
100
AcDbBlockEnd
  0
BLOCK
  5
1CF
100
AcDbEntity
  8
0
100
AcDbBlockBegin
  2
*D4
 70
     1
 10
0.0
 20
0.0
 30
0.0
  3
*D4
  1

  0
LINE
  5
1C4
100
AcDbEntity
  8
寸法
  6
CONTINUOUS
 62
     1
100
AcDbLine
 10
42.416304
 20
-46.141113
 30
0.0
 11
42.416304
 21
-51.0
 31
0.0
1001
ACAD
1000
RTLwPs
1070
   158
  0
LINE
  5
1C5
100
AcDbEntity
  8
寸法
  6
CONTINUOUS
 62
     1
100
AcDbLine
 10
40.416304
 20
-46.141113
 30
0.0
 11
40.416304
 21
-51.0
 31
0.0
1001
ACAD
1000
RTLwPs
1070
   158
  0
LINE
  5
1C6
100
AcDbEntity
  8
寸法
  6
CONTINUOUS
 62
     1
100
AcDbLine
 10
44.416304
 20
-50.0
 30
0.0
 11
46.416304
 21
-50.0
 31
0.0
1001
ACAD
1000
RTLwPs
1070
   158
  0
LINE
  5
1C7
100
AcDbEntity
  8
寸法
  6
CONTINUOUS
 62
     1
100
AcDbLine
 10
38.416304
 20
-50.0
 30
0.0
 11
32.416304
 21
-50.0
 31
0.0
1001
ACAD
1000
RTLwPs
1070
   158
  0
LINE
  5
1C8
100
AcDbEntity
  8
寸法
  6
CONTINUOUS
 62
     1
100
AcDbLine
 10
42.416304
 20
-50.0
 30
0.0
 11
40.416304
 21
-50.0
 31
0.0
1001
ACAD
1000
RTLwPs
1070
   158
  0
INSERT
  5
1C9
100
AcDbEntity
  8
寸法
  6
CONTINUOUS
 62
     1
100
AcDbBlockReference
  2
_OPEN30
 10
42.416304
 20
-50.0
 30
0.0
 41
2.0
 42
2.0
 43
2.0
 50
180.0
1001
ACAD
1000
RTLwPs
1070
   158
  0
INSERT
  5
1CA
100
AcDbEntity
  8
寸法
  6
CONTINUOUS
 62
     1
100
AcDbBlockReference
  2
_OPEN30
 10
40.416304
 20
-50.0
 30
0.0
 41
2.0
 42
2.0
 43
2.0
1001
ACAD
1000
RTLwPs
1070
   158
  0
MTEXT
  5
1CB
100
AcDbEntity
  8
寸法
  6
CONTINUOUS
 62
     1
100
AcDbMText
 10
34.416304
 20
-47.5
 30
0.0
 40
3.0
 41
0.0
 71
     5
 72
     1
  1
\A1;2
1001
ACAD
1000
MTEXTBEGIN
1070
    73
1070
     1
1070
    44
1040
1.0
1070
    74
1070
     0
1000
MTEXTEND
1000
MTEXTBEGIN
1070
    73
1070
     1
1070
    44
1040
1.0
1070
    74
1070
     0
1000
MTEXTEND
  0
POINT
  5
1CC
100
AcDbEntity
  8
DEFPOINTS
  6
CONTINUOUS
 62
     0
100
AcDbPoint
 10
42.416304
 20
-45.141113
 30
0.0
  0
POINT
  5
1CD
100
AcDbEntity
  8
DEFPOINTS
  6
CONTINUOUS
 62
     0
100
AcDbPoint
 10
40.416304
 20
-45.141113
 30
0.0
  0
POINT
  5
1CE
100
AcDbEntity
  8
DEFPOINTS
  6
CONTINUOUS
 62
     0
100
AcDbPoint
 10
40.416304
 20
-50.0
 30
0.0
  0
ENDBLK
  5
1D0
100
AcDbEntity
  8
0
100
AcDbBlockEnd
  0
BLOCK
  5
1DC
100
AcDbEntity
  8
0
100
AcDbBlockBegin
  2
*D5
 70
     1
 10
0.0
 20
0.0
 30
0.0
  3
*D5
  1

  0
LINE
  5
1D3
100
AcDbEntity
  8
寸法
  6
CONTINUOUS
 62
     1
100
AcDbLine
 10
61.416304
 20
-31.603592
 30
0.0
 11
61.416304
 21
-19.0
 31
0.0
1001
ACAD
1000
RTLwPs
1070
   158
  0
LINE
  5
1D4
100
AcDbEntity
  8
寸法
  6
CONTINUOUS
 62
     1
100
AcDbLine
 10
41.416304
 20
-22.867595
 30
0.0
 11
41.416304
 21
-19.0
 31
0.0
1001
ACAD
1000
RTLwPs
1070
   158
  0
LINE
  5
1D5
100
AcDbEntity
  8
寸法
  6
CONTINUOUS
 62
     1
100
AcDbLine
 10
59.416304
 20
-20.0
 30
0.0
 11
43.416304
 21
-20.0
 31
0.0
1001
ACAD
1000
RTLwPs
1070
   158
  0
INSERT
  5
1D6
100
AcDbEntity
  8
寸法
  6
CONTINUOUS
 62
     1
100
AcDbBlockReference
  2
_OPEN30
 10
61.416304
 20
-20.0
 30
0.0
 41
2.0
 42
2.0
 43
2.0
1001
ACAD
1000
RTLwPs
1070
   158
  0
INSERT
  5
1D7
100
AcDbEntity
  8
寸法
  6
CONTINUOUS
 62
     1
100
AcDbBlockReference
  2
_OPEN30
 10
41.416304
 20
-20.0
 30
0.0
 41
2.0
 42
2.0
 43
2.0
 50
180.0
1001
ACAD
1000
RTLwPs
1070
   158
  0
MTEXT
  5
1D8
100
AcDbEntity
  8
寸法
  6
CONTINUOUS
 62
     1
100
AcDbMText
 10
51.416304
 20
-17.5
 30
0.0
 40
3.0
 41
0.0
 71
     5
 72
     1
  1
\A1;20
1001
ACAD
1000
MTEXTBEGIN
1070
    73
1070
     1
1070
    44
1040
1.0
1070
    74
1070
     0
1000
MTEXTEND
1000
MTEXTBEGIN
1070
    73
1070
     1
1070
    44
1040
1.0
1070
    74
1070
     0
1000
MTEXTEND
  0
POINT
  5
1D9
100
AcDbEntity
  8
DEFPOINTS
  6
CONTINUOUS
 62
     0
100
AcDbPoint
 10
61.416304
 20
-32.603592
 30
0.0
  0
POINT
  5
1DA
100
AcDbEntity
  8
DEFPOINTS
  6
CONTINUOUS
 62
     0
100
AcDbPoint
 10
41.416304
 20
-23.867595
 30
0.0
  0
POINT
  5
1DB
100
AcDbEntity
  8
DEFPOINTS
  6
CONTINUOUS
 62
     0
100
AcDbPoint
 10
41.416304
 20
-20.0
 30
0.0
  0
ENDBLK
  5
1DD
100
AcDbEntity
  8
0
100
AcDbBlockEnd
  0
BLOCK
  5
1E9
100
AcDbEntity
  8
0
100
AcDbBlockBegin
  2
*D6
 70
     1
 10
0.0
 20
0.0
 30
0.0
  3
*D6
  1

  0
LINE
  5
1E0
100
AcDbEntity
  8
寸法
  6
CONTINUOUS
 62
     1
100
AcDbLine
 10
61.416304
 20
16.889404
 30
0.0
 11
61.416304
 21
-11.0
 31
0.0
1001
ACAD
1000
RTLwPs
1070
   158
  0
LINE
  5
1E1
100
AcDbEntity
  8
寸法
  6
CONTINUOUS
 62
     1
100
AcDbLine
 10
6.416304
 20
6.889405
 30
0.0
 11
6.416304
 21
-11.0
 31
0.0
1001
ACAD
1000
RTLwPs
1070
   158
  0
LINE
  5
1E2
100
AcDbEntity
  8
寸法
  6
CONTINUOUS
 62
     1
100
AcDbLine
 10
59.416304
 20
-10.0
 30
0.0
 11
8.416304
 21
-10.0
 31
0.0
1001
ACAD
1000
RTLwPs
1070
   158
  0
INSERT
  5
1E3
100
AcDbEntity
  8
寸法
  6
CONTINUOUS
 62
     1
100
AcDbBlockReference
  2
_OPEN30
 10
61.416304
 20
-10.0
 30
0.0
 41
2.0
 42
2.0
 43
2.0
1001
ACAD
1000
RTLwPs
1070
   158
  0
INSERT
  5
1E4
100
AcDbEntity
  8
寸法
  6
CONTINUOUS
 62
     1
100
AcDbBlockReference
  2
_OPEN30
 10
6.416304
 20
-10.0
 30
0.0
 41
2.0
 42
2.0
 43
2.0
 50
180.0
1001
ACAD
1000
RTLwPs
1070
   158
  0
MTEXT
  5
1E5
100
AcDbEntity
  8
寸法
  6
CONTINUOUS
 62
     1
100
AcDbMText
 10
33.916304
 20
-7.5
 30
0.0
 40
3.0
 41
0.0
 71
     5
 72
     1
  1
\A1;55
1001
ACAD
1000
MTEXTBEGIN
1070
    73
1070
     1
1070
    44
1040
1.0
1070
    74
1070
     0
1000
MTEXTEND
1000
MTEXTBEGIN
1070
    73
1070
     1
1070
    44
1040
1.0
1070
    74
1070
     0
1000
MTEXTEND
  0
POINT
  5
1E6
100
AcDbEntity
  8
DEFPOINTS
  6
CONTINUOUS
 62
     0
100
AcDbPoint
 10
61.416304
 20
17.889404
 30
0.0
  0
POINT
  5
1E7
100
AcDbEntity
  8
DEFPOINTS
  6
CONTINUOUS
 62
     0
100
AcDbPoint
 10
6.416304
 20
7.889405
 30
0.0
  0
POINT
  5
1E8
100
AcDbEntity
  8
DEFPOINTS
  6
CONTINUOUS
 62
     0
100
AcDbPoint
 10
6.416304
 20
-10.0
 30
0.0
  0
ENDBLK
  5
1EA
100
AcDbEntity
  8
0
100
AcDbBlockEnd
  0
BLOCK
  5
1F6
100
AcDbEntity
  8
0
100
AcDbBlockBegin
  2
*D7
 70
     1
 10
0.0
 20
0.0
 30
0.0
  3
*D7
  1

  0
LINE
  5
303
100
AcDbEntity
  8
寸法
  6
CONTINUOUS
 62
     1
100
AcDbLine
 10
61.416304
 20
16.889404
 30
0.0
 11
61.416304
 21
-1.0
 31
0.0
  0
LINE
  5
304
100
AcDbEntity
  8
寸法
  6
CONTINUOUS
 62
     1
100
AcDbLine
 10
53.416304
 20
10.889405
 30
0.0
 11
53.416304
 21
-1.0
 31
0.0
  0
LINE
  5
305
100
AcDbEntity
  8
寸法
  6
CONTINUOUS
 62
     1
100
AcDbLine
 10
59.416304
 20
0.0
 30
0.0
 11
55.416304
 21
0.0
 31
0.0
  0
INSERT
  5
306
100
AcDbEntity
  8
寸法
  6
CONTINUOUS
 62
     1
100
AcDbBlockReference
  2
_OPEN30
 10
61.416304
 20
0.0
 30
0.0
 41
2.0
 42
2.0
 43
2.0
  0
INSERT
  5
307
100
AcDbEntity
  8
寸法
  6
CONTINUOUS
 62
     1
100
AcDbBlockReference
  2
_OPEN30
 10
53.416304
 20
0.0
 30
0.0
 41
2.0
 42
2.0
 43
2.0
 50
180.0
  0
MTEXT
  5
308
100
AcDbEntity
  8
寸法
  6
CONTINUOUS
 62
     1
100
AcDbMText
 10
57.416304
 20
2.5
 30
0.0
 40
3.0
 41
0.0
 71
     5
 72
     1
  1
\A1;8
  0
POINT
  5
309
100
AcDbEntity
  8
DEFPOINTS
  6
CONTINUOUS
 62
     0
100
AcDbPoint
 10
61.416304
 20
17.889404
 30
0.0
  0
POINT
  5
30A
100
AcDbEntity
  8
DEFPOINTS
  6
CONTINUOUS
 62
     0
100
AcDbPoint
 10
53.416304
 20
11.889405
 30
0.0
  0
POINT
  5
30B
100
AcDbEntity
  8
DEFPOINTS
  6
CONTINUOUS
 62
     0
100
AcDbPoint
 10
53.416304
 20
0.0
 30
0.0
  0
ENDBLK
  5
1F7
100
AcDbEntity
  8
0
100
AcDbBlockEnd
  0
BLOCK
  5
20C
100
AcDbEntity
  8
0
100
AcDbBlockBegin
  2
*D8
 70
     1
 10
0.0
 20
0.0
 30
0.0
  3
*D8
  1

  0
LINE
  5
203
100
AcDbEntity
  8
寸法
  6
CONTINUOUS
 62
     1
100
AcDbLine
 10
54.416304
 20
27.889405
 30
0.0
 11
71.0
 21
27.889405
 31
0.0
1001
ACAD
1000
RTLwPs
1070
   158
  0
LINE
  5
204
100
AcDbEntity
  8
寸法
  6
CONTINUOUS
 62
     1
100
AcDbLine
 10
54.416304
 20
11.889405
 30
0.0
 11
71.0
 21
11.889405
 31
0.0
1001
ACAD
1000
RTLwPs
1070
   158
  0
LINE
  5
205
100
AcDbEntity
  8
寸法
  6
CONTINUOUS
 62
     1
100
AcDbLine
 10
70.0
 20
25.889405
 30
0.0
 11
70.0
 21
13.889405
 31
0.0
1001
ACAD
1000
RTLwPs
1070
   158
  0
INSERT
  5
206
100
AcDbEntity
  8
寸法
  6
CONTINUOUS
 62
     1
100
AcDbBlockReference
  2
_OPEN30
 10
70.0
 20
27.889405
 30
0.0
 41
2.0
 42
2.0
 43
2.0
 50
90.0
1001
ACAD
1000
RTLwPs
1070
   158
  0
INSERT
  5
207
100
AcDbEntity
  8
寸法
  6
CONTINUOUS
 62
     1
100
AcDbBlockReference
  2
_OPEN30
 10
70.0
 20
11.889405
 30
0.0
 41
2.0
 42
2.0
 43
2.0
 50
270.0
1001
ACAD
1000
RTLwPs
1070
   158
  0
MTEXT
  5
208
100
AcDbEntity
  8
寸法
  6
CONTINUOUS
 62
     1
100
AcDbMText
 10
67.5
 20
19.889405
 30
0.0
 40
3.0
 41
0.0
 71
     5
 72
     1
  1
\A1;16
 11
0.0
 21
1.0
 31
0.0
1001
ACAD
1000
MTEXTBEGIN
1070
    73
1070
     1
1070
    44
1040
1.0
1070
    74
1070
     0
1000
MTEXTEND
1000
MTEXTBEGIN
1070
    73
1070
     1
1070
    44
1040
1.0
1070
    74
1070
     0
1000
MTEXTEND
  0
POINT
  5
209
100
AcDbEntity
  8
DEFPOINTS
  6
CONTINUOUS
 62
     0
100
AcDbPoint
 10
53.416304
 20
27.889405
 30
0.0
  0
POINT
  5
20A
100
AcDbEntity
  8
DEFPOINTS
  6
CONTINUOUS
 62
     0
100
AcDbPoint
 10
53.416304
 20
11.889405
 30
0.0
  0
POINT
  5
20B
100
AcDbEntity
  8
DEFPOINTS
  6
CONTINUOUS
 62
     0
100
AcDbPoint
 10
70.0
 20
11.889405
 30
0.0
  0
ENDBLK
  5
20D
100
AcDbEntity
  8
0
100
AcDbBlockEnd
  0
BLOCK
  5
219
100
AcDbEntity
  8
0
100
AcDbBlockBegin
  2
*D9
 70
     1
 10
0.0
 20
0.0
 30
0.0
  3
*D9
  1

  0
LINE
  5
210
100
AcDbEntity
  8
寸法
  6
CONTINUOUS
 62
     1
100
AcDbLine
 10
6.416304
 20
27.889405
 30
0.0
 11
-1.0
 21
27.889405
 31
0.0
1001
ACAD
1000
RTLwPs
1070
   158
  0
LINE
  5
211
100
AcDbEntity
  8
寸法
  6
CONTINUOUS
 62
     1
100
AcDbLine
 10
5.416304
 20
7.889405
 30
0.0
 11
-1.0
 21
7.889405
 31
0.0
1001
ACAD
1000
RTLwPs
1070
   158
  0
LINE
  5
212
100
AcDbEntity
  8
寸法
  6
CONTINUOUS
 62
     1
100
AcDbLine
 10
0.0
 20
25.889405
 30
0.0
 11
0.0
 21
9.889405
 31
0.0
1001
ACAD
1000
RTLwPs
1070
   158
  0
INSERT
  5
213
100
AcDbEntity
  8
寸法
  6
CONTINUOUS
 62
     1
100
AcDbBlockReference
  2
_OPEN30
 10
0.0
 20
27.889405
 30
0.0
 41
2.0
 42
2.0
 43
2.0
 50
90.0
1001
ACAD
1000
RTLwPs
1070
   158
  0
INSERT
  5
214
100
AcDbEntity
  8
寸法
  6
CONTINUOUS
 62
     1
100
AcDbBlockReference
  2
_OPEN30
 10
0.0
 20
7.889405
 30
0.0
 41
2.0
 42
2.0
 43
2.0
 50
270.0
1001
ACAD
1000
RTLwPs
1070
   158
  0
MTEXT
  5
215
100
AcDbEntity
  8
寸法
  6
CONTINUOUS
 62
     1
100
AcDbMText
 10
-2.5
 20
17.889405
 30
0.0
 40
3.0
 41
0.0
 71
     5
 72
     1
  1
\A1;20
 11
0.0
 21
1.0
 31
0.0
1001
ACAD
1000
MTEXTBEGIN
1070
    73
1070
     1
1070
    44
1040
1.0
1070
    74
1070
     0
1000
MTEXTEND
1000
MTEXTBEGIN
1070
    73
1070
     1
1070
    44
1040
1.0
1070
    74
1070
     0
1000
MTEXTEND
  0
POINT
  5
216
100
AcDbEntity
  8
DEFPOINTS
  6
CONTINUOUS
 62
     0
100
AcDbPoint
 10
7.416304
 20
27.889405
 30
0.0
  0
POINT
  5
217
100
AcDbEntity
  8
DEFPOINTS
  6
CONTINUOUS
 62
     0
100
AcDbPoint
 10
6.416304
 20
7.889405
 30
0.0
  0
POINT
  5
218
100
AcDbEntity
  8
DEFPOINTS
  6
CONTINUOUS
 62
     0
100
AcDbPoint
 10
0.0
 20
7.889405
 30
0.0
  0
ENDBLK
  5
21A
100
AcDbEntity
  8
0
100
AcDbBlockEnd
  0
BLOCK
  5
22C
100
AcDbEntity
  8
0
100
AcDbBlockBegin
  2
*D10
 70
     1
 10
0.0
 20
0.0
 30
0.0
  3
*D10
  1

  0
LINE
  5
30C
100
AcDbEntity
  8
寸法
  6
CONTINUOUS
 62
     1
100
AcDbLine
 10
5.416304
 20
7.889405
 30
0.0
 11
1.772567
 21
7.889405
 31
0.0
  0
LINE
  5
30D
100
AcDbEntity
  8
寸法
  6
CONTINUOUS
 62
     1
100
AcDbLine
 10
6.289834
 20
7.802249
 30
0.0
 11
1.793548
 21
7.408875
 31
0.0
  0
ARC
  5
30E
100
AcDbEntity
  8
寸法
  6
CONTINUOUS
 62
     1
100
AcDbCircle
 10
7.28603
 20
7.889405
 30
0.0
 40
4.513462
100
AcDbArc
 50
128.797435
 51
154.398718
  0
ARC
  5
30F
100
AcDbEntity
  8
寸法
  6
CONTINUOUS
 62
     1
100
AcDbCircle
 10
7.28603
 20
7.889405
 30
0.0
 40
4.513462
100
AcDbArc
 50
210.601282
 51
236.202565
  0
ARC
  5
310
100
AcDbEntity
  8
寸法
  6
CONTINUOUS
 62
     1
100
AcDbCircle
 10
7.28603
 20
7.889405
 30
0.0
 40
4.513462
100
AcDbArc
 50
180.0
 51
185.0
  0
INSERT
  5
311
100
AcDbEntity
  8
寸法
  6
CONTINUOUS
 62
     1
100
AcDbBlockReference
  2
_OPEN30
 10
2.772567
 20
7.889405
 30
0.0
 41
2.0
 42
2.0
 43
2.0
 50
257.199359
  0
INSERT
  5
312
100
AcDbEntity
  8
寸法
  6
CONTINUOUS
 62
     1
100
AcDbBlockReference
  2
_OPEN30
 10
2.789743
 20
7.496031
 30
0.0
 41
2.0
 42
2.0
 43
2.0
 50
107.800641
  0
MTEXT
  5
313
100
AcDbEntity
  8
寸法
  6
CONTINUOUS
 62
     1
100
AcDbMText
 10
4.282286
 20
14.227084
 30
0.0
 40
3.0
 41
0.0
 71
     5
 72
     1
  1
\A1;5°
 11
0.903645
 21
0.428283
 31
0.0
  0
POINT
  5
314
100
AcDbEntity
  8
DEFPOINTS
  6
CONTINUOUS
 62
     0
100
AcDbPoint
 10
2.780204
 20
7.626971
 30
0.0
  0
POINT
  5
315
100
AcDbEntity
  8
DEFPOINTS
  6
CONTINUOUS
 62
     0
100
AcDbPoint
 10
6.416304
 20
7.889405
 30
0.0
  0
POINT
  5
316
100
AcDbEntity
  8
DEFPOINTS
  6
CONTINUOUS
 62
     0
100
AcDbPoint
 10
7.286029
 20
7.889405
 30
0.0
  0
POINT
  5
317
100
AcDbEntity
  8
DEFPOINTS
  6
CONTINUOUS
 62
     0
100
AcDbPoint
 10
20.960298
 20
9.085748
 30
0.0
  0
POINT
  5
318
100
AcDbEntity
  8
DEFPOINTS
  6
CONTINUOUS
 62
     0
100
AcDbPoint
 10
7.146579
 20
7.889405
 30
0.0
  0
ENDBLK
  5
22D
100
AcDbEntity
  8
0
100
AcDbBlockEnd
  0
BLOCK
  5
253
100
AcDbEntity
  8
0
100
AcDbBlockBegin
  2
*D11
 70
     1
 10
0.0
 20
0.0
 30
0.0
  3
*D11
  1

  0
LINE
  5
255
100
AcDbEntity
  8
寸法
  6
CONTINUOUS
 62
     1
100
AcDbLine
 10
-59.287476
 20
11.790434
 30
0.0
 11
-49.668165
 21
18.092724
 31
0.0
1001
ACAD
1000
RTLwPs
1070
   158
  0
MTEXT
  5
256
100
AcDbEntity
  8
寸法
  6
CONTINUOUS
 62
     1
100
AcDbMText
 10
-56.684345
 20
16.484708
 30
0.0
 40
3.0
 41
0.0
 71
     5
 72
     1
  1
\A1;%%c50
 11
0.836462
 21
0.548025
 31
0.0
1001
ACAD
1000
MTEXTBEGIN
1070
    73
1070
     1
1070
    44
1040
1.0
1070
    74
1070
     0
1000
MTEXTEND
1000
MTEXTBEGIN
1070
    73
1070
     1
1070
    44
1040
1.0
1070
    74
1070
     0
1000
MTEXTEND
  0
LINE
  5
257
100
AcDbEntity
  8
寸法
  6
CONTINUOUS
 62
     1
100
AcDbLine
 10
-27.083696
 20
32.889404
 30
0.0
 11
-47.995241
 21
19.188774
 31
0.0
1001
ACAD
1000
RTLwPs
1070
   158
  0
INSERT
  5
258
100
AcDbEntity
  8
寸法
  6
CONTINUOUS
 62
     1
100
AcDbBlockReference
  2
_OPEN30
 10
-47.995241
 20
19.188774
 30
0.0
 41
2.0
 42
2.0
 43
2.0
 50
33.231639
1001
ACAD
1000
RTLwPs
1070
   158
  0
POINT
  5
259
100
AcDbEntity
  8
DEFPOINTS
  6
CONTINUOUS
 62
     0
100
AcDbPoint
 10
-47.995241
 20
19.188774
 30
0.0
  0
POINT
  5
25A
100
AcDbEntity
  8
DEFPOINTS
  6
CONTINUOUS
 62
     0
100
AcDbPoint
 10
-27.083696
 20
32.889404
 30
0.0
  0
ENDBLK
  5
254
100
AcDbEntity
  8
0
100
AcDbBlockEnd
  0
BLOCK
  5
266
100
AcDbEntity
  8
0
100
AcDbBlockBegin
  2
*D12
 70
     1
 10
0.0
 20
0.0
 30
0.0
  3
*D12
  1

  0
LINE
  5
26F
100
AcDbEntity
  8
寸法
  6
CONTINUOUS
 62
     1
100
AcDbLine
 10
-3.640576
 20
-59.310511
 30
0.0
 11
10.257222
 21
-50.775219
 31
0.0
1001
ACAD
1000
RTLwPs
1070
   158
  0
MTEXT
  5
270
100
AcDbEntity
  8
寸法
  6
CONTINUOUS
 62
     1
100
AcDbMText
 10
-0.688263
 20
-54.563528
 30
0.0
 40
3.0
 41
0.0
 71
     5
 72
     1
  1
\A1;%%c75
 11
0.852129
 21
0.523332
 31
0.0
1001
ACAD
1000
MTEXTBEGIN
1070
    73
1070
     1
1070
    44
1040
1.0
1070
    74
1070
     0
1000
MTEXTEND
1000
MTEXTBEGIN
1070
    73
1070
     1
1070
    44
1040
1.0
1070
    74
1070
     0
1000
MTEXTEND
  0
LINE
  5
271
100
AcDbEntity
  8
寸法
  6
CONTINUOUS
 62
     1
100
AcDbLine
 10
43.916304
 20
-30.103592
 30
0.0
 11
11.961479
 21
-49.728555
 31
0.0
1001
ACAD
1000
RTLwPs
1070
   158
  0
INSERT
  5
272
100
AcDbEntity
  8
寸法
  6
CONTINUOUS
 62
     1
100
AcDbBlockReference
  2
_OPEN30
 10
11.961479
 20
-49.728555
 30
0.0
 41
2.0
 42
2.0
 43
2.0
 50
31.556045
1001
ACAD
1000
RTLwPs
1070
   158
  0
POINT
  5
273
100
AcDbEntity
  8
DEFPOINTS
  6
CONTINUOUS
 62
     0
100
AcDbPoint
 10
11.961479
 20
-49.728555
 30
0.0
  0
POINT
  5
274
100
AcDbEntity
  8
DEFPOINTS
  6
CONTINUOUS
 62
     0
100
AcDbPoint
 10
43.916304
 20
-30.103592
 30
0.0
  0
ENDBLK
  5
267
100
AcDbEntity
  8
0
100
AcDbBlockEnd
  0
ENDSEC
  0
SECTION
  2
ENTITIES
  0
POINT
  5
24
100
AcDbEntity
  8
0
  6
CONTINUOUS
 62
     7
100
AcDbPoint
 10
6.416304
 20
7.889405
 30
0.0
  0
POINT
  5
25
100
AcDbEntity
  8
0
  6
CONTINUOUS
 62
     7
100
AcDbPoint
 10
-27.083696
 20
7.889404
 30
0.0
  0
POINT
  5
26
100
AcDbEntity
  8
0
  6
CONTINUOUS
 62
     7
100
AcDbPoint
 10
6.416304
 20
-30.103592
 30
0.0
  0
POINT
  5
27
100
AcDbEntity
  8
0
  6
CONTINUOUS
 62
     7
100
AcDbPoint
 10
87.0
 20
-42.103592
 30
0.0
  0
LINE
  5
28
100
AcDbEntity
  8
0
  6
CONTINUOUS
 62
     7
100
AcDbLine
 10
7.286029
 20
7.889405
 30
0.0
 11
20.960298
 21
9.085748
 31
0.0
  0
LINE
  5
29
100
AcDbEntity
  8
0
  6
CONTINUOUS
 62
     7
100
AcDbLine
 10
6.491258
 20
9.024455
 30
0.0
 11
12.292328
 21
21.464891
 31
0.0
  0
LINE
  5
2A
100
AcDbEntity
  8
0
  6
CONTINUOUS
 62
     7
100
AcDbLine
 10
13.672696
 20
21.585658
 30
0.0
 11
15.305187
 21
19.25422
 31
0.0
  0
LINE
  5
2B
100
AcDbEntity
  8
0
  6
CONTINUOUS
 62
     7
100
AcDbLine
 10
53.416304
 20
27.889405
 30
0.0
 11
53.416304
 21
11.889405
 31
0.0
  0
LINE
  5
2C
100
AcDbEntity
  8
0
  6
CONTINUOUS
 62
     7
100
AcDbLine
 10
7.416304
 20
27.889405
 30
0.0
 11
53.416304
 21
27.889405
 31
0.0
  0
LINE
  5
2D
100
AcDbEntity
  8
0
  6
CENTER
 62
     1
 48
0.5
100
AcDbLine
 10
20.009359
 20
26.897607
 30
0.0
 11
28.656433
 21
14.548306
 31
0.0
  0
LINE
  5
2E
100
AcDbEntity
  8
0
  6
CONTINUOUS
 62
     7
100
AcDbLine
 10
12.571676
 20
14.854915
 30
0.0
 11
14.844493
 21
11.608994
 31
0.0
  0
LINE
  5
2F
100
AcDbEntity
  8
0
  6
CONTINUOUS
 62
     7
100
AcDbLine
 10
12.62592
 20
16.072632
 30
0.0
 11
19.767617
 21
24.55329
 31
0.0
  0
LINE
  5
30
100
AcDbEntity
  8
0
  6
CONTINUOUS
 62
     7
100
AcDbLine
 10
16.007327
 20
11.243485
 30
0.0
 11
26.419144
 21
15.05393
 31
0.0
  0
LINE
  5
31
100
AcDbEntity
  8
0
  6
CONTINUOUS
 62
     7
100
AcDbLine
 10
27.929242
 20
25.509188
 30
0.0
 11
28.264092
 21
25.743653
 31
0.0
  0
LINE
  5
32
100
AcDbEntity
  8
0
  6
CONTINUOUS
 62
     7
100
AcDbLine
 10
30.10883
 20
22.396409
 30
0.0
 11
30.44368
 21
22.630874
 31
0.0
  0
LINE
  5
33
100
AcDbEntity
  8
0
  6
CENTER
 62
     1
 48
0.5
100
AcDbLine
 10
27.919945
 20
26.235144
 30
0.0
 11
30.787829
 21
22.139384
 31
0.0
  0
LINE
  5
34
100
AcDbEntity
  8
0
  6
CONTINUOUS
 62
     7
100
AcDbLine
 10
19.913404
 20
12.673004
 30
0.0
 11
21.545894
 21
10.341565
 31
0.0
  0
LINE
  5
35
100
AcDbEntity
  8
0
  6
CONTINUOUS
 62
     7
100
AcDbLine
 10
27.536019
 20
26.889405
 30
0.0
 11
53.416304
 21
26.889405
 31
0.0
  0
LINE
  5
36
100
AcDbEntity
  8
0
  6
CONTINUOUS
 62
     7
100
AcDbLine
 10
27.536019
 20
12.889405
 30
0.0
 11
37.83648
 21
12.889405
 31
0.0
  0
LINE
  5
37
100
AcDbEntity
  8
0
  6
CONTINUOUS
 62
     7
100
AcDbLine
 10
26.416304
 20
11.889405
 30
0.0
 11
53.416304
 21
11.889405
 31
0.0
  0
LINE
  5
38
100
AcDbEntity
  8
0
  6
CONTINUOUS
 62
     7
100
AcDbLine
 10
87.0
 20
-27.603592
 30
0.0
 11
87.0
 21
-42.103592
 31
0.0
  0
LINE
  5
39
100
AcDbEntity
  8
0
  6
CONTINUOUS
 62
     7
100
AcDbLine
 10
103.0
 20
-27.603592
 30
0.0
 11
103.0
 21
-40.981415
 31
0.0
  0
LINE
  5
3A
100
AcDbEntity
  8
0
  6
CONTINUOUS
 62
     7
100
AcDbLine
 10
88.0
 20
-26.603592
 30
0.0
 11
102.0
 21
-26.603592
 31
0.0
  0
LINE
  5
3B
100
AcDbEntity
  8
0
  6
CONTINUOUS
 62
     7
100
AcDbLine
 10
101.877823
 20
-42.103592
 30
0.0
 11
87.0
 21
-42.103592
 31
0.0
  0
LINE
  5
3C
100
AcDbEntity
  8
0
  6
CONTINUOUS
 62
     7
100
AcDbLine
 10
88.0
 20
-26.603592
 30
0.0
 11
87.0
 21
-27.603588
 31
0.0
  0
LINE
  5
3D
100
AcDbEntity
  8
0
  6
CONTINUOUS
 62
     7
100
AcDbLine
 10
102.0
 20
-26.603592
 30
0.0
 11
103.0
 21
-27.603592
 31
0.0
  0
LINE
  5
3E
100
AcDbEntity
  8
0
  6
CENTER
 62
     1
 48
0.5
100
AcDbLine
 10
105.64766
 20
-37.067261
 30
0.0
 11
85.177872
 21
-29.616867
 31
0.0
  0
LINE
  5
3F
100
AcDbEntity
  8
0
  6
CONTINUOUS
 62
     7
100
AcDbLine
 10
103.0
 20
-32.378967
 30
0.0
 11
94.691139
 21
-29.354789
 31
0.0
  0
LINE
  5
40
100
AcDbEntity
  8
0
  6
CONTINUOUS
 62
     7
100
AcDbLine
 10
103.0
 20
-39.828212
 30
0.0
 11
92.296997
 21
-35.93264
 31
0.0
  0
LINE
  5
41
100
AcDbEntity
  8
0
  6
CONTINUOUS
 62
     7
100
AcDbLine
 10
91.698463
 20
-37.577102
 30
0.0
 11
87.0
 21
-35.867
 31
0.0
  0
LINE
  5
42
100
AcDbEntity
  8
0
  6
CONTINUOUS
 62
     7
100
AcDbLine
 10
95.289673
 20
-27.710327
 30
0.0
 11
92.248947
 21
-26.603592
 31
0.0
  0
LINE
  5
43
100
AcDbEntity
  8
0
  6
CONTINUOUS
 62
     7
100
AcDbLine
 10
91.698463
 20
-37.577102
 30
0.0
 11
95.289673
 21
-27.710327
 31
0.0
  0
LINE
  5
45
100
AcDbEntity
  8
0
  6
CONTINUOUS
 62
     7
100
AcDbLine
 10
103.0
 20
-40.981415
 30
0.0
 11
101.877823
 21
-42.103592
 31
0.0
  0
LINE
  5
46
100
AcDbEntity
  8
0
  6
CENTER
 62
     1
 48
0.5
100
AcDbLine
 10
41.416304
 20
30.208487
 30
0.0
 11
41.416304
 21
7.889405
 31
0.0
  0
LINE
  5
47
100
AcDbEntity
  8
0
  6
CONTINUOUS
 62
     7
100
AcDbLine
 10
37.83648
 20
13.55852
 30
0.0
 11
37.83648
 21
12.889405
 31
0.0
  0
LINE
  5
48
100
AcDbEntity
  8
0
  6
CONTINUOUS
 62
     7
100
AcDbLine
 10
44.99613
 20
13.55852
 30
0.0
 11
44.99613
 21
12.889405
 31
0.0
  0
LINE
  5
49
100
AcDbEntity
  8
0
  6
CONTINUOUS
 62
     7
100
AcDbLine
 10
37.83648
 20
12.889405
 30
0.0
 11
35.166304
 21
11.889405
 31
0.0
  0
LINE
  5
4A
100
AcDbEntity
  8
0
  6
CONTINUOUS
 62
     7
100
AcDbLine
 10
44.99613
 20
12.889405
 30
0.0
 11
47.666304
 21
11.889404
 31
0.0
  0
LINE
  5
4B
100
AcDbEntity
  8
0
  6
CONTINUOUS
 62
     7
100
AcDbLine
 10
21.520379
 20
9.389405
 30
0.0
 11
24.972927
 21
9.389405
 31
0.0
  0
LINE
  5
4C
100
AcDbEntity
  8
0
  6
CONTINUOUS
 62
     7
100
AcDbLine
 10
6.416304
 20
-30.103592
 30
0.0
 11
21.690572
 21
-32.796856
 31
0.0
  0
LINE
  5
4D
100
AcDbEntity
  8
0
  6
CONTINUOUS
 62
     7
100
AcDbLine
 10
7.003944
 20
-33.436264
 30
0.0
 11
19.99853
 21
-35.727562
 31
0.0
  0
LINE
  5
4E
100
AcDbEntity
  8
0
  6
CONTINUOUS
 62
     7
100
AcDbLine
 10
8.691644
 20
-42.103592
 30
0.0
 11
53.416304
 21
-42.103592
 31
0.0
  0
LINE
  5
4F
100
AcDbEntity
  8
0
  6
CONTINUOUS
 62
     7
100
AcDbLine
 10
7.416304
 20
-36.103592
 30
0.0
 11
24.972927
 21
-36.103592
 31
0.0
  0
LINE
  5
50
100
AcDbEntity
  8
0
  6
CENTER
 62
     1
 48
0.5
100
AcDbLine
 10
15.916304
 20
-39.103592
 30
0.0
 11
10.916304
 21
-39.103592
 31
0.0
  0
LINE
  5
51
100
AcDbEntity
  8
0
  6
CENTER
 62
     1
 48
0.5
100
AcDbLine
 10
13.416304
 20
-36.603592
 30
0.0
 11
13.416304
 21
-41.603592
 31
0.0
  0
LINE
  5
52
100
AcDbEntity
  8
0
  6
CONTINUOUS
 62
     7
100
AcDbLine
 10
27.536019
 20
-26.603592
 30
0.0
 11
53.416304
 21
-26.603592
 31
0.0
  0
LINE
  5
53
100
AcDbEntity
  8
0
  6
CONTINUOUS
 62
     7
100
AcDbLine
 10
53.416304
 20
-26.603592
 30
0.0
 11
53.416304
 21
-42.103592
 31
0.0
  0
LINE
  5
54
100
AcDbEntity
  8
0
  6
CONTINUOUS
 62
     7
100
AcDbLine
 10
27.35969
 20
-27.603592
 30
0.0
 11
36.542689
 21
-27.603592
 31
0.0
  0
LINE
  5
55
100
AcDbEntity
  8
0
  6
CENTER
 62
     1
 48
0.5
100
AcDbLine
 10
41.416304
 20
-23.867595
 30
0.0
 11
41.416304
 21
-45.141113
 31
0.0
  0
LINE
  5
56
100
AcDbEntity
  8
0
  6
CONTINUOUS
 62
     7
100
AcDbLine
 10
40.416304
 20
-35.866997
 30
0.0
 11
42.416304
 21
-35.866997
 31
0.0
  0
LINE
  5
57
100
AcDbEntity
  8
0
  6
CONTINUOUS
 62
     7
100
AcDbLine
 10
40.416304
 20
-29.354789
 30
0.0
 11
42.416304
 21
-29.354789
 31
0.0
  0
LINE
  5
58
100
AcDbEntity
  8
0
  6
CONTINUOUS
 62
     7
100
AcDbLine
 10
40.416304
 20
-27.710327
 30
0.0
 11
42.416304
 21
-27.710327
 31
0.0
  0
LINE
  5
59
100
AcDbEntity
  8
0
  6
CONTINUOUS
 62
     7
100
AcDbLine
 10
40.416304
 20
-32.378967
 30
0.0
 11
42.416304
 21
-32.378967
 31
0.0
  0
LINE
  5
5A
100
AcDbEntity
  8
0
  6
CONTINUOUS
 62
     7
100
AcDbLine
 10
46.289919
 20
-27.603592
 30
0.0
 11
53.416304
 21
-27.603592
 31
0.0
  0
LINE
  5
5B
100
AcDbEntity
  8
0
  6
CONTINUOUS
 62
     7
100
AcDbLine
 10
-38.083696
 20
27.889405
 30
0.0
 11
-24.583696
 21
27.889405
 31
0.0
  0
LINE
  5
5C
100
AcDbEntity
  8
0
  6
CONTINUOUS
 62
     7
100
AcDbLine
 10
-39.083696
 20
26.889405
 30
0.0
 11
-39.083696
 21
12.187251
 31
0.0
  0
LINE
  5
5D
100
AcDbEntity
  8
0
  6
CONTINUOUS
 62
     7
100
AcDbLine
 10
-33.083696
 20
27.889405
 30
0.0
 11
-33.083696
 21
9.389405
 31
0.0
  0
LINE
  5
5E
100
AcDbEntity
  8
0
  6
CONTINUOUS
 62
     7
100
AcDbLine
 10
-33.083696
 20
9.389405
 30
0.0
 11
-30.577242
 21
9.389405
 31
0.0
  0
LINE
  5
5F
100
AcDbEntity
  8
0
  6
CONTINUOUS
 62
     7
100
AcDbLine
 10
-33.083692
 20
9.389404
 30
0.0
 11
-39.083696
 21
12.187251
 31
0.0
  0
LINE
  5
60
100
AcDbEntity
  8
0
  6
CONTINUOUS
 62
     7
100
AcDbLine
 10
-23.583696
 20
26.889403
 30
0.0
 11
-24.583696
 21
27.889405
 31
0.0
  0
LINE
  5
61
100
AcDbEntity
  8
0
  6
CONTINUOUS
 62
     7
100
AcDbLine
 10
-38.083696
 20
27.889405
 30
0.0
 11
-39.083696
 21
26.889403
 31
0.0
  0
LINE
  5
62
100
AcDbEntity
  8
0
  6
CENTER
 62
     1
 48
0.5
100
AcDbLine
 10
48.040438
 20
-34.603592
 30
0.0
 11
60.134928
 21
-34.603592
 31
0.0
  0
LINE
  5
63
100
AcDbEntity
  8
0
  6
CONTINUOUS
 62
     7
100
AcDbLine
 10
61.416304
 20
-32.603592
 30
0.0
 11
61.416304
 21
-36.603592
 31
0.0
  0
LINE
  5
64
100
AcDbEntity
  8
0
  6
CENTER
 62
     1
 48
0.5
100
AcDbLine
 10
50.513708
 20
19.889405
 30
0.0
 11
63.34698
 21
19.889405
 31
0.0
  0
LINE
  5
65
100
AcDbEntity
  8
0
  6
CONTINUOUS
 62
     7
100
AcDbLine
 10
56.416304
 20
-30.603592
 30
0.0
 11
56.416304
 21
-38.603592
 31
0.0
  0
LINE
  5
66
100
AcDbEntity
  8
0
  6
CONTINUOUS
 62
     7
100
AcDbLine
 10
53.416304
 20
-37.103592
 30
0.0
 11
56.416304
 21
-37.103592
 31
0.0
  0
LINE
  5
67
100
AcDbEntity
  8
0
  6
CONTINUOUS
 62
     7
100
AcDbLine
 10
53.416304
 20
-32.103592
 30
0.0
 11
56.416304
 21
-32.103592
 31
0.0
  0
LINE
  5
68
100
AcDbEntity
  8
0
  6
CONTINUOUS
 62
     7
100
AcDbLine
 10
58.916308
 20
-30.103595
 30
0.0
 11
61.416308
 21
-32.603592
 31
0.0
  0
LINE
  5
69
100
AcDbEntity
  8
0
  6
CONTINUOUS
 62
     7
100
AcDbLine
 10
58.916308
 20
-39.103595
 30
0.0
 11
61.416308
 21
-36.603595
 31
0.0
  0
LINE
  5
6A
100
AcDbEntity
  8
0
  6
CONTINUOUS
 62
     7
100
AcDbLine
 10
56.916304
 20
-39.103592
 30
0.0
 11
58.916304
 21
-39.103592
 31
0.0
  0
LINE
  5
6B
100
AcDbEntity
  8
0
  6
CONTINUOUS
 62
     7
100
AcDbLine
 10
56.916304
 20
-30.103592
 30
0.0
 11
58.916304
 21
-30.103592
 31
0.0
  0
LINE
  5
6C
100
AcDbEntity
  8
0
  6
CONTINUOUS
 62
     7
100
AcDbLine
 10
56.916304
 20
-30.103592
 30
0.0
 11
56.416304
 21
-30.603588
 31
0.0
  0
LINE
  5
6D
100
AcDbEntity
  8
0
  6
CONTINUOUS
 62
     7
100
AcDbLine
 10
56.416312
 20
-38.603592
 30
0.0
 11
56.916304
 21
-39.103588
 31
0.0
  0
LINE
  5
6E
100
AcDbEntity
  8
0
  6
CONTINUOUS
 62
     7
100
AcDbLine
 10
56.916304
 20
-30.103592
 30
0.0
 11
56.916304
 21
-39.103592
 31
0.0
  0
LINE
  5
6F
100
AcDbEntity
  8
0
  6
CONTINUOUS
 62
     7
100
AcDbLine
 10
58.916304
 20
-30.103592
 30
0.0
 11
58.916304
 21
-39.103592
 31
0.0
  0
LINE
  5
70
100
AcDbEntity
  8
0
  6
CONTINUOUS
 62
     7
100
AcDbLine
 10
53.416304
 20
-36.603592
 30
0.0
 11
56.416304
 21
-36.603592
 31
0.0
  0
LINE
  5
71
100
AcDbEntity
  8
0
  6
CONTINUOUS
 62
     7
100
AcDbLine
 10
53.416304
 20
-32.603592
 30
0.0
 11
56.416304
 21
-32.603592
 31
0.0
  0
LINE
  5
72
100
AcDbEntity
  8
0
  6
CONTINUOUS
 62
     7
100
AcDbLine
 10
61.416304
 20
21.889405
 30
0.0
 11
61.416304
 21
17.889405
 31
0.0
  0
LINE
  5
73
100
AcDbEntity
  8
0
  6
CONTINUOUS
 62
     7
100
AcDbLine
 10
53.416304
 20
21.889405
 30
0.0
 11
56.416304
 21
21.889405
 31
0.0
  0
LINE
  5
74
100
AcDbEntity
  8
0
  6
CONTINUOUS
 62
     7
100
AcDbLine
 10
56.416304
 20
23.889405
 30
0.0
 11
56.416304
 21
15.889405
 31
0.0
  0
LINE
  5
75
100
AcDbEntity
  8
0
  6
CONTINUOUS
 62
     7
100
AcDbLine
 10
53.416304
 20
17.389405
 30
0.0
 11
56.416304
 21
17.389405
 31
0.0
  0
LINE
  5
76
100
AcDbEntity
  8
0
  6
CONTINUOUS
 62
     7
100
AcDbLine
 10
53.416304
 20
22.389405
 30
0.0
 11
56.416304
 21
22.389405
 31
0.0
  0
LINE
  5
77
100
AcDbEntity
  8
0
  6
CONTINUOUS
 62
     7
100
AcDbLine
 10
58.916304
 20
24.389405
 30
0.0
 11
61.416304
 21
21.889405
 31
0.0
  0
LINE
  5
78
100
AcDbEntity
  8
0
  6
CONTINUOUS
 62
     7
100
AcDbLine
 10
58.916304
 20
15.389404
 30
0.0
 11
61.416304
 21
17.889404
 31
0.0
  0
LINE
  5
79
100
AcDbEntity
  8
0
  6
CONTINUOUS
 62
     7
100
AcDbLine
 10
56.916304
 20
15.389405
 30
0.0
 11
58.916304
 21
15.389405
 31
0.0
  0
LINE
  5
7A
100
AcDbEntity
  8
0
  6
CONTINUOUS
 62
     7
100
AcDbLine
 10
56.916304
 20
24.389405
 30
0.0
 11
58.916304
 21
24.389405
 31
0.0
  0
LINE
  5
7B
100
AcDbEntity
  8
0
  6
CONTINUOUS
 62
     7
100
AcDbLine
 10
56.9163
 20
24.389401
 30
0.0
 11
56.416304
 21
23.889404
 31
0.0
  0
LINE
  5
7C
100
AcDbEntity
  8
0
  6
CONTINUOUS
 62
     7
100
AcDbLine
 10
56.416308
 20
15.889407
 30
0.0
 11
56.916308
 21
15.389407
 31
0.0
  0
LINE
  5
7D
100
AcDbEntity
  8
0
  6
CONTINUOUS
 62
     7
100
AcDbLine
 10
56.916304
 20
24.389405
 30
0.0
 11
56.916304
 21
15.389404
 31
0.0
  0
LINE
  5
7E
100
AcDbEntity
  8
0
  6
CONTINUOUS
 62
     7
100
AcDbLine
 10
58.916304
 20
24.389405
 30
0.0
 11
58.916304
 21
15.389405
 31
0.0
  0
LINE
  5
7F
100
AcDbEntity
  8
0
  6
CONTINUOUS
 62
     7
100
AcDbLine
 10
53.416304
 20
17.889405
 30
0.0
 11
56.416304
 21
17.889405
 31
0.0
  0
LINE
  5
80
100
AcDbEntity
  8
0
  6
CENTER
 62
     1
 48
0.5
100
AcDbLine
 10
9.995131
 20
10.632117
 30
0.0
 11
32.476195
 21
26.373528
 31
0.0
  0
LINE
  5
81
100
AcDbEntity
  8
0
  6
CONTINUOUS
 62
     7
100
AcDbLine
 10
7.416304
 20
27.889405
 30
0.0
 11
7.416304
 21
11.008223
 31
0.0
  0
LINE
  5
82
100
AcDbEntity
  8
0
  6
CONTINUOUS
 62
     7
100
AcDbLine
 10
26.416304
 20
11.889405
 30
0.0
 11
24.972929
 21
9.389405
 31
0.0
  0
LINE
  5
83
100
AcDbEntity
  8
0
  6
CONTINUOUS
 62
     7
100
AcDbLine
 10
7.416303
 20
-36.103592
 30
0.0
 11
8.691643
 21
-42.103592
 31
0.0
  0
LINE
  5
84
100
AcDbEntity
  8
0
  6
CONTINUOUS
 62
     7
100
AcDbLine
 10
7.416304
 20
-33.508976
 30
0.0
 11
7.416304
 21
-36.103592
 31
0.0
  0
LINE
  5
85
100
AcDbEntity
  8
0
  6
CONTINUOUS
 62
     7
100
AcDbLine
 10
6.416305
 20
-30.103592
 30
0.0
 11
7.003945
 21
-33.436264
 31
0.0
  0
LINE
  5
86
100
AcDbEntity
  8
0
  6
CONTINUOUS
 62
     7
100
AcDbLine
 10
21.690573
 20
-32.120529
 30
0.0
 11
21.690573
 21
-32.796856
 31
0.0
  0
LINE
  5
87
100
AcDbEntity
  8
0
  6
CONTINUOUS
 62
     7
100
AcDbLine
 10
19.998532
 20
-35.727562
 30
0.0
 11
21.690574
 21
-32.79686
 31
0.0
  0
LINE
  5
88
100
AcDbEntity
  8
0
  6
CONTINUOUS
 62
     7
100
AcDbLine
 10
21.690572
 20
-32.120533
 30
0.0
 11
25.431496
 21
-32.780159
 31
0.0
  0
LINE
  5
89
100
AcDbEntity
  8
0
  6
CONTINUOUS
 62
     7
100
AcDbLine
 10
26.416304
 20
-32.380172
 30
0.0
 11
26.416304
 21
-42.103592
 31
0.0
  0
LINE
  5
8A
100
AcDbEntity
  8
0
  6
CONTINUOUS
 62
     7
100
AcDbLine
 10
24.972927
 20
-32.699299
 30
0.0
 11
24.972927
 21
-36.103592
 31
0.0
  0
LINE
  5
8B
100
AcDbEntity
  8
0
  6
CONTINUOUS
 62
     7
100
AcDbLine
 10
24.972927
 20
-36.103592
 30
0.0
 11
26.416304
 21
-42.103592
 31
0.0
  0
LINE
  5
8C
100
AcDbEntity
  8
0
  6
CONTINUOUS
 62
     7
100
AcDbLine
 10
26.589951
 20
-31.968998
 30
0.0
 11
27.536017
 21
-26.603592
 31
0.0
  0
LINE
  5
8D
100
AcDbEntity
  8
0
  6
CONTINUOUS
 62
     7
100
AcDbLine
 10
26.416304
 20
27.889405
 30
0.0
 11
26.416304
 21
26.324006
 31
0.0
  0
LINE
  5
8E
100
AcDbEntity
  8
0
  6
CONTINUOUS
 62
     7
100
AcDbLine
 10
27.536019
 20
26.889405
 30
0.0
 11
27.536019
 21
25.777085
 31
0.0
  0
LINE
  5
8F
100
AcDbEntity
  8
0
  6
CONTINUOUS
 62
     7
100
AcDbLine
 10
26.416304
 20
11.889404
 30
0.0
 11
27.536017
 21
12.889404
 31
0.0
  0
LINE
  5
90
100
AcDbEntity
  8
0
  6
CONTINUOUS
 62
     7
100
AcDbLine
 10
26.416304
 20
27.889405
 30
0.0
 11
27.536017
 21
26.889405
 31
0.0
  0
LINE
  5
91
100
AcDbEntity
  8
0
  6
CONTINUOUS
 62
     7
100
AcDbLine
 10
26.416304
 20
15.05289
 30
0.0
 11
26.416304
 21
11.889405
 31
0.0
  0
LINE
  5
92
100
AcDbEntity
  8
0
  6
CONTINUOUS
 62
     7
100
AcDbLine
 10
27.536019
 20
15.59981
 30
0.0
 11
27.536019
 21
12.889405
 31
0.0
  0
LINE
  5
93
100
AcDbEntity
  8
0
  6
CONTINUOUS
 62
     7
100
AcDbLine
 10
18.196177
 20
-25.072714
 30
0.0
 11
27.516182
 21
-26.716083
 31
0.0
  0
LINE
  5
94
100
AcDbEntity
  8
0
  6
CONTINUOUS
 62
     7
100
AcDbLine
 10
12.390828
 20
-31.157062
 30
0.0
 11
13.052548
 21
-27.404255
 31
0.0
  0
LINE
  5
95
100
AcDbEntity
  8
0
  6
CONTINUOUS
 62
     7
100
AcDbLine
 10
15.28542
 20
-31.667454
 30
0.0
 11
15.947141
 21
-27.91465
 31
0.0
  0
LINE
  5
96
100
AcDbEntity
  8
0
  6
CONTINUOUS
 62
     7
100
AcDbLine
 10
13.052548
 20
-27.404255
 30
0.0
 11
15.947141
 21
-27.91465
 31
0.0
  0
LINE
  5
97
100
AcDbEntity
  8
0
  6
CONTINUOUS
 62
     7
100
AcDbLine
 10
-27.633627
 20
11.008223
 30
0.0
 11
-27.083696
 21
7.889404
 31
0.0
  0
LINE
  5
98
100
AcDbEntity
  8
0
  6
CONTINUOUS
 62
     7
100
AcDbLine
 10
-30.862684
 20
11.008223
 30
0.0
 11
-26.869138
 21
11.008223
 31
0.0
  0
LINE
  5
99
100
AcDbEntity
  8
0
  6
CONTINUOUS
 62
     7
100
AcDbLine
 10
-30.416368
 20
8.477045
 30
0.0
 11
-27.083696
 21
7.889405
 31
0.0
  0
LINE
  5
9A
100
AcDbEntity
  8
0
  6
CONTINUOUS
 62
     7
100
AcDbLine
 10
-30.862684
 20
11.008223
 30
0.0
 11
-30.416368
 21
8.477044
 31
0.0
  0
LINE
  5
9B
100
AcDbEntity
  8
0
  6
CONTINUOUS
 62
     7
100
AcDbLine
 10
-29.845743
 20
27.889405
 30
0.0
 11
-26.869135
 21
11.008223
 31
0.0
  0
LINE
  5
9C
100
AcDbEntity
  8
0
  6
CONTINUOUS
 62
     7
100
AcDbLine
 10
-24.976696
 20
15.400186
 30
0.0
 11
-27.578188
 21
15.029445
 31
0.0
  0
LINE
  5
9D
100
AcDbEntity
  8
0
  6
CONTINUOUS
 62
     7
100
AcDbLine
 10
-27.568933
 20
10.64134
 30
0.0
 11
-24.363609
 21
11.098133
 31
0.0
  0
LINE
  5
9E
100
AcDbEntity
  8
0
  6
CONTINUOUS
 62
     7
100
AcDbLine
 10
-24.976696
 20
15.400186
 30
0.0
 11
-24.363609
 21
11.098133
 31
0.0
  0
LINE
  5
9F
100
AcDbEntity
  8
0
  6
CONTINUOUS
 62
     7
100
AcDbLine
 10
-23.636432
 20
26.688447
 30
0.0
 11
-22.016706
 21
15.322794
 31
0.0
  0
LINE
  5
A0
100
AcDbEntity
  8
0
  6
CONTINUOUS
 62
     7
100
AcDbLine
 10
-29.486967
 20
25.854684
 30
0.0
 11
-23.636432
 21
26.688447
 31
0.0
  0
LINE
  5
A1
100
AcDbEntity
  8
0
  6
CONTINUOUS
 62
     7
100
AcDbLine
 10
-23.583696
 20
26.889405
 30
0.0
 11
-23.583696
 21
26.318394
 31
0.0
  0
LINE
  5
A2
100
AcDbEntity
  8
0
  6
CONTINUOUS
 62
     7
100
AcDbLine
 10
44.99613
 20
12.889405
 30
0.0
 11
53.416304
 21
12.889405
 31
0.0
  0
LINE
  5
A3
100
AcDbEntity
  8
0
  6
CONTINUOUS
 62
     7
100
AcDbLine
 10
6.416304
 20
8.686361
 30
0.0
 11
6.416304
 21
7.889405
 31
0.0
  0
LINE
  5
A4
100
AcDbEntity
  8
0
  6
CONTINUOUS
 62
     7
100
AcDbLine
 10
6.416304
 20
7.889405
 30
0.0
 11
7.146579
 21
7.889405
 31
0.0
  0
ARC
  5
A5
100
AcDbEntity
  8
0
  6
CONTINUOUS
 62
     7
100
AcDbCircle
 10
13.017375
 20
21.126797
 30
0.0
 40
0.8
100
AcDbArc
 50
35.0
 51
155.0
  0
ARC
  5
A6
100
AcDbEntity
  8
0
  6
CONTINUOUS
 62
     7
100
AcDbCircle
 10
7.216304
 20
8.686361
 30
0.0
 40
0.8
100
AcDbArc
 50
155.0
 51
275.0
  0
ARC
  5
A7
100
AcDbEntity
  8
0
  6
CONTINUOUS
 62
     7
100
AcDbCircle
 10
20.890573
 20
9.882704
 30
0.0
 40
0.8
100
AcDbArc
 50
275.0
 51
35.0
  0
ARC
  5
A8
100
AcDbEntity
  8
0
  6
CONTINUOUS
 62
     7
100
AcDbCircle
 10
29.353888
 20
24.187264
 30
0.0
 40
1.9
100
AcDbArc
 50
305.0
 51
125.0
  0
ARC
  5
A9
100
AcDbEntity
  8
0
  6
CONTINUOUS
 62
     7
100
AcDbCircle
 10
13.390827
 20
15.428491
 30
0.0
 40
1.0
100
AcDbArc
 50
139.89873
 51
215.00001
  0
ARC
  5
AA
100
AcDbEntity
  8
0
  6
CONTINUOUS
 62
     7
100
AcDbCircle
 10
15.663644
 20
12.182571
 30
0.0
 40
1.0
100
AcDbArc
 50
214.99999
 51
290.10125
  0
ARC
  5
AB
100
AcDbEntity
  8
0
  6
CONTINUOUS
 62
     7
100
AcDbCircle
 10
41.416304
 20
13.55852
 30
0.0
 40
3.579825
100
AcDbArc
 50
0.0
 51
180.00001
  0
CIRCLE
  5
AC
100
AcDbEntity
  8
0
  6
CONTINUOUS
 62
     7
100
AcDbCircle
 10
13.416304
 20
-39.103592
 30
0.0
 40
2.0
  0
CIRCLE
  5
AD
100
AcDbEntity
  8
0
  6
CONTINUOUS
 62
     7
100
AcDbCircle
 10
13.416304
 20
-39.103592
 30
0.0
 40
1.65
  0
ARC
  5
AE
100
AcDbEntity
  8
0
  6
CONTINUOUS
 62
     7
100
AcDbCircle
 10
14.416304
 20
22.389405
 30
0.0
 40
2.0
100
AcDbArc
 50
272.65139
 51
198.54005
  0
ARC
  5
AF
100
AcDbEntity
  8
0
  6
CONTINUOUS
 62
     7
100
AcDbCircle
 10
25.605145
 20
-31.795349
 30
0.0
 40
1.0
100
AcDbArc
 50
260.0
 51
350.0
  0
ARC
  5
B0
100
AcDbEntity
  8
0
  6
CONTINUOUS
 62
     7
100
AcDbCircle
 10
20.22253
 20
-30.507149
 30
0.0
 40
5.0
100
AcDbArc
 50
79.999998
 51
148.76832
  0
ARC
  5
B1
100
AcDbEntity
  8
0
  6
CONTINUOUS
 62
     7
100
AcDbCircle
 10
17.327937
 20
-29.996753
 30
0.0
 40
5.0
100
AcDbArc
 50
79.999998
 51
148.76832
  0
ARC
  5
B2
100
AcDbEntity
  8
0
  6
CONTINUOUS
 62
     7
100
AcDbCircle
 10
-25.976698
 20
14.758454
 30
0.0
 40
4.0
100
AcDbArc
 50
293.78289
 51
8.110645
  0
ARC
  5
B3
100
AcDbEntity
  8
0
  6
CONTINUOUS
 62
     7
100
AcDbCircle
 10
-26.589784
 20
19.060507
 30
0.0
 40
4.0
100
AcDbArc
 50
293.78289
 51
8.110645
  0
ARC
  5
B4
100
AcDbEntity
  8
0
  6
CONTINUOUS
 62
     7
100
AcDbCircle
 10
41.416304
 20
22.587905
 30
0.0
 40
6.0
100
AcDbArc
 50
255.11083
 51
284.88917
  0
LWPOLYLINE
  5
B5
100
AcDbEntity
  8
0
  6
CONTINUOUS
 62
     7
100
AcDbPolyline
 90
       17
 70
     0
 43
0.0
 10
40.416304
 20
-27.710327
 42
0.019916
 10
39.971918
 20
-27.728032
 42
0.02001
 10
39.529401
 20
-27.781233
 42
0.0201
 10
39.092779
 20
-27.869669
 42
0.020274
 10
38.664166
 20
-27.993183
 42
0.020468
 10
38.247045
 20
-28.151155
 42
0.020705
 10
37.844331
 20
-28.342892
 42
0.020983
 10
37.458969
 20
-28.567498
 42
0.021294
 10
37.09393
 20
-28.823851
 42
0.021632
 10
36.75219
 20
-29.110573
 42
0.021989
 10
36.436707
 20
-29.425997
 42
0.022353
 10
36.150377
 20
-29.768138
 42
0.022712
 10
35.895987
 20
-30.134676
 42
0.023055
 10
35.676156
 20
-30.522942
 42
0.023367
 10
35.493265
 20
-30.929918
 42
0.023635
 10
35.349384
 20
-31.352253
 42
0.023846
 10
35.246202
 20
-31.786303
  0
LWPOLYLINE
  5
C8
100
AcDbEntity
  8
0
  6
CONTINUOUS
 62
     7
100
AcDbPolyline
 90
       17
 70
     0
 43
0.0
 10
40.416304
 20
-29.354789
 42
0.039742
 10
39.827854
 20
-29.401607
 42
0.040199
 10
39.253451
 20
-29.541622
 42
0.040959
 10
38.709289
 20
-29.77248
 42
0.042053
 10
38.210677
 20
-30.09003
 42
0.043389
 10
37.773185
 20
-30.487755
 42
0.044828
 10
37.412174
 20
-30.956134
 42
0.046186
 10
37.141859
 20
-31.482134
 42
0.047251
 10
36.973978
 20
-32.049109
 42
0.047838
 10
36.91631
 20
-32.637468
 42
0.047786
 10
36.971467
 20
-33.225339
 42
0.047199
 10
37.136626
 20
-33.792184
 42
0.046177
 10
37.404351
 20
-34.318937
 42
0.044841
 10
37.763077
 20
-34.788683
 42
0.043413
 10
38.198701
 20
-35.188225
 42
0.042091
 10
38.696031
 20
-35.507954
 42
0.041002
 10
39.239492
 20
-35.741156
  0
LWPOLYLINE
  5
DB
100
AcDbEntity
  8
0
  6
CONTINUOUS
 62
     7
100
AcDbPolyline
 90
       17
 70
     0
 43
0.0
 10
40.416304
 20
-32.378967
 42
0.017831
 10
40.181883
 20
-32.387331
 42
0.017811
 10
39.948508
 20
-32.412385
 42
0.017649
 10
39.718786
 20
-32.453682
 42
0.017601
 10
39.491997
 20
-32.511196
 42
0.017515
 10
39.269409
 20
-32.584614
 42
0.017396
 10
39.05222
 20
-32.673489
 42
0.017248
 10
38.841549
 20
-32.777265
 42
0.017033
 10
38.638934
 20
-32.894965
 42
0.016949
 10
38.443587
 20
-33.026959
 42
0.016693
 10
38.258209
 20
-33.171278
 42
0.016493
 10
38.082811
 20
-33.327573
 42
0.016294
 10
37.918029
 20
-33.495026
 42
0.016099
 10
37.76443
 20
-33.672797
 42
0.01591
 10
37.622513
 20
-33.860034
 42
0.015731
 10
37.492716
 20
-34.055876
 42
0.015563
 10
37.375416
 20
-34.259459
  0
LWPOLYLINE
  5
EE
100
AcDbEntity
  8
0
  6
CONTINUOUS
 62
     7
100
AcDbPolyline
 90
       17
 70
     0
 43
0.0
 10
42.416304
 20
-32.378967
 42
-0.017831
 10
42.650725
 20
-32.387331
 42
-0.017811
 10
42.8841
 20
-32.412385
 42
-0.017649
 10
43.113822
 20
-32.453682
 42
-0.017601
 10
43.340611
 20
-32.511196
 42
-0.017515
 10
43.563199
 20
-32.584614
 42
-0.017396
 10
43.780388
 20
-32.673489
 42
-0.017248
 10
43.991059
 20
-32.777265
 42
-0.017033
 10
44.193674
 20
-32.894965
 42
-0.016949
 10
44.389021
 20
-33.026959
 42
-0.016693
 10
44.574399
 20
-33.171278
 42
-0.016493
 10
44.749797
 20
-33.327573
 42
-0.016294
 10
44.914579
 20
-33.495026
 42
-0.016099
 10
45.068178
 20
-33.672797
 42
-0.01591
 10
45.210095
 20
-33.860034
 42
-0.015731
 10
45.339892
 20
-34.055876
 42
-0.015563
 10
45.457192
 20
-34.259459
  0
LWPOLYLINE
  5
101
100
AcDbEntity
  8
0
  6
CONTINUOUS
 62
     7
100
AcDbPolyline
 90
       17
 70
     0
 43
0.0
 10
42.416304
 20
-29.354789
 42
-0.039742
 10
43.004754
 20
-29.401607
 42
-0.040199
 10
43.579157
 20
-29.541622
 42
-0.040959
 10
44.123319
 20
-29.77248
 42
-0.042053
 10
44.621931
 20
-30.09003
 42
-0.043389
 10
45.059423
 20
-30.487755
 42
-0.044828
 10
45.420434
 20
-30.956134
 42
-0.046186
 10
45.690749
 20
-31.482134
 42
-0.047251
 10
45.85863
 20
-32.049109
 42
-0.047838
 10
45.916298
 20
-32.637468
 42
-0.047786
 10
45.861141
 20
-33.225339
 42
-0.047199
 10
45.695982
 20
-33.792184
 42
-0.046177
 10
45.428257
 20
-34.318937
 42
-0.044841
 10
45.069531
 20
-34.788683
 42
-0.043413
 10
44.633907
 20
-35.188225
 42
-0.042091
 10
44.136577
 20
-35.507954
 42
-0.041002
 10
43.593116
 20
-35.741156
  0
LWPOLYLINE
  5
114
100
AcDbEntity
  8
0
  6
CONTINUOUS
 62
     7
100
AcDbPolyline
 90
       17
 70
     0
 43
0.0
 10
42.416304
 20
-27.710327
 42
-0.019916
 10
42.86069
 20
-27.728032
 42
-0.02001
 10
43.303207
 20
-27.781233
 42
-0.0201
 10
43.739829
 20
-27.869669
 42
-0.020274
 10
44.168442
 20
-27.993183
 42
-0.020468
 10
44.585563
 20
-28.151155
 42
-0.020705
 10
44.988277
 20
-28.342892
 42
-0.020983
 10
45.373639
 20
-28.567498
 42
-0.021294
 10
45.738678
 20
-28.823851
 42
-0.021632
 10
46.080418
 20
-29.110573
 42
-0.021989
 10
46.395901
 20
-29.425997
 42
-0.022353
 10
46.682231
 20
-29.768138
 42
-0.022712
 10
46.936621
 20
-30.134676
 42
-0.023055
 10
47.156452
 20
-30.522942
 42
-0.023367
 10
47.339343
 20
-30.929918
 42
-0.023635
 10
47.483224
 20
-31.352253
 42
-0.023846
 10
47.586406
 20
-31.786303
  0
LWPOLYLINE
  5
127
100
AcDbEntity
  8
0
  6
CONTINUOUS
 62
     7
100
AcDbPolyline
 90
       17
 70
     0
 43
0.0
 10
37.898164
 20
-26.604754
 42
0.039531
 10
37.187091
 20
-27.043845
 42
0.040699
 10
36.555131
 20
-27.590916
 42
0.041973
 10
36.021673
 20
-28.234598
 42
0.043212
 10
35.604981
 20
-28.959437
 42
0.044252
 10
35.320782
 20
-29.745671
 42
0.04493
 10
35.180613
 20
-30.569629
 42
0.045066
 10
35.190199
 20
-31.403769
 42
0.044835
 10
35.348999
 20
-32.22374
 42
0.044057
 10
35.650047
 20
-33.002066
 42
0.043087
 10
36.0825
 20
-33.718123
 42
0.041793
 10
36.629076
 20
-34.350193
 42
0.040539
 10
37.27189
 20
-34.884252
 42
0.039407
 10
37.991635
 20
-35.309339
 42
0.03849
 10
38.768736
 20
-35.61777
 42
0.037847
 10
39.583731
 20
-35.804566
 42
0.037461
 10
40.416304
 20
-35.866997
  0
LWPOLYLINE
  5
13A
100
AcDbEntity
  8
0
  6
CONTINUOUS
 62
     7
100
AcDbPolyline
 90
       17
 70
     0
 43
0.0
 10
44.934444
 20
-26.604754
 42
-0.039531
 10
45.645517
 20
-27.043845
 42
-0.040699
 10
46.277477
 20
-27.590916
 42
-0.041973
 10
46.810935
 20
-28.234598
 42
-0.043212
 10
47.227627
 20
-28.959437
 42
-0.044252
 10
47.511826
 20
-29.745671
 42
-0.04493
 10
47.651995
 20
-30.569629
 42
-0.045066
 10
47.642409
 20
-31.403769
 42
-0.044835
 10
47.483609
 20
-32.22374
 42
-0.044057
 10
47.182561
 20
-33.002066
 42
-0.043087
 10
46.750108
 20
-33.718123
 42
-0.041793
 10
46.203532
 20
-34.350193
 42
-0.040539
 10
45.560718
 20
-34.884252
 42
-0.039407
 10
44.840973
 20
-35.309339
 42
-0.03849
 10
44.063872
 20
-35.61777
 42
-0.037847
 10
43.248877
 20
-35.804566
 42
-0.037461
 10
42.416304
 20
-35.866997
  0
LINE
  5
14D
100
AcDbEntity
  8
0
  6
CONTINUOUS
 62
     7
100
AcDbLine
 10
101.409774
 20
-42.103592
 30
0.0
 11
103.0
 21
-40.513362
 31
0.0
  0
LINE
  5
14E
100
AcDbEntity
  8
0
  6
CONTINUOUS
 62
     7
100
AcDbLine
 10
99.164711
 20
-42.103592
 30
0.0
 11
101.85634
 21
-39.411955
 31
0.0
  0
LINE
  5
14F
100
AcDbEntity
  8
0
  6
CONTINUOUS
 62
     7
100
AcDbLine
 10
96.919649
 20
-42.103592
 30
0.0
 11
100.21037
 21
-38.812869
 31
0.0
  0
LINE
  5
150
100
AcDbEntity
  8
0
  6
CONTINUOUS
 62
     7
100
AcDbLine
 10
94.674587
 20
-42.103592
 30
0.0
 11
98.564389
 21
-38.213783
 31
0.0
  0
LINE
  5
151
100
AcDbEntity
  8
0
  6
CONTINUOUS
 62
     7
100
AcDbLine
 10
92.429526
 20
-42.103592
 30
0.0
 11
96.918412
 21
-37.614697
 31
0.0
  0
LINE
  5
152
100
AcDbEntity
  8
0
  6
CONTINUOUS
 62
     7
100
AcDbLine
 10
90.184465
 20
-42.103592
 30
0.0
 11
95.272436
 21
-37.01561
 31
0.0
  0
LINE
  5
153
100
AcDbEntity
  8
0
  6
CONTINUOUS
 62
     7
100
AcDbLine
 10
87.939403
 20
-42.103592
 30
0.0
 11
93.626459
 21
-36.416524
 31
0.0
  0
LINE
  5
154
100
AcDbEntity
  8
0
  6
CONTINUOUS
 62
     7
100
AcDbLine
 10
87.0
 20
-40.79793
 30
0.0
 11
90.615124
 21
-37.182799
 31
0.0
  0
LINE
  5
155
100
AcDbEntity
  8
0
  6
CONTINUOUS
 62
     7
100
AcDbLine
 10
87.0
 20
-38.552864
 30
0.0
 11
88.969148
 21
-36.583712
 31
0.0
  0
LINE
  5
156
100
AcDbEntity
  8
0
  6
CONTINUOUS
 62
     7
100
AcDbLine
 10
87.0
 20
-36.307798
 30
0.0
 11
87.323172
 21
-35.984625
 31
0.0
  0
LINE
  5
157
100
AcDbEntity
  8
0
  6
CONTINUOUS
 62
     7
100
AcDbLine
 10
102.37985
 20
-32.15325
 30
0.0
 11
103.0
 21
-31.533097
 31
0.0
  0
LINE
  5
158
100
AcDbEntity
  8
0
  6
CONTINUOUS
 62
     7
100
AcDbLine
 10
100.73387
 20
-31.554164
 30
0.0
 11
103.0
 21
-29.288031
 31
0.0
  0
LINE
  5
159
100
AcDbEntity
  8
0
  6
CONTINUOUS
 62
     7
100
AcDbLine
 10
99.087895
 20
-30.955077
 30
0.0
 11
102.71969
 21
-27.323278
 31
0.0
  0
LINE
  5
15A
100
AcDbEntity
  8
0
  6
CONTINUOUS
 62
     7
100
AcDbLine
 10
97.441918
 20
-30.355991
 30
0.0
 11
101.19431
 21
-26.603592
 31
0.0
  0
LINE
  5
15B
100
AcDbEntity
  8
0
  6
CONTINUOUS
 62
     7
100
AcDbLine
 10
95.795942
 20
-29.756905
 30
0.0
 11
98.949248
 21
-26.603592
 31
0.0
  0
LINE
  5
15C
100
AcDbEntity
  8
0
  6
CONTINUOUS
 62
     7
100
AcDbLine
 10
95.113545
 20
-28.194237
 30
0.0
 11
96.704187
 21
-26.603592
 31
0.0
  0
LINE
  5
15D
100
AcDbEntity
  8
0
  6
CONTINUOUS
 62
     7
100
AcDbLine
 10
93.869347
 20
-27.193371
 30
0.0
 11
94.459125
 21
-26.603592
 31
0.0
  0
TEXT
  5
160
100
AcDbEntity
  8
0
  6
CONTINUOUS
100
AcDbText
 10
26.282613
 20
-68.353411
 30
0.0
 40
6.0
  1
CTJER12CA
100
AcDbText
  0
LINE
  5
187
102
{ACAD_REACTORS
330
18F
102
}
100
AcDbEntity
  8
寸法
  6
CONTINUOUS
 62
     1
100
AcDbLine
 10
106.587353
 20
-37.409281
 30
0.0
 11
124.083953
 21
-43.777523
 31
0.0
  0
LINE
  5
188
102
{ACAD_REACTORS
330
18F
102
}
100
AcDbEntity
  8
寸法
  6
CONTINUOUS
 62
     1
100
AcDbLine
 10
103.0
 20
-36.103591
 30
0.0
 11
125.437074
 21
-36.103591
 31
0.0
  0
ARC
  5
189
102
{ACAD_REACTORS
330
18F
102
}
100
AcDbEntity
  8
寸法
  6
CONTINUOUS
 62
     1
100
AcDbCircle
 10
103.0
 20
-36.103591
 30
0.0
 40
21.437074
100
AcDbArc
 50
334.652573
 51
339.999999
  0
LINE
  5
18A
102
{ACAD_REACTORS
330
18F
102
}
100
AcDbEntity
  8
寸法
  6
CONTINUOUS
 62
     1
100
AcDbLine
 10
122.373295
 20
-45.280933
 30
0.0
 11
117.621318
 21
-55.312319
 31
0.0
  0
ARC
  5
18B
102
{ACAD_REACTORS
330
18F
102
}
100
AcDbEntity
  8
寸法
  6
CONTINUOUS
 62
     1
100
AcDbCircle
 10
103.0
 20
-36.103591
 30
0.0
 40
21.437074
100
AcDbArc
 50
345.347424
 51
354.652574
  0
INSERT
  5
18C
102
{ACAD_REACTORS
330
18F
102
}
100
AcDbEntity
  8
寸法
  6
CONTINUOUS
 62
     1
100
AcDbBlockReference
  2
_OPEN30
 10
123.14426
 20
-43.435503
 30
0.0
 41
2.0
 42
2.0
 43
2.0
 50
252.673712
  0
INSERT
  5
18D
102
{ACAD_REACTORS
330
18F
102
}
100
AcDbEntity
  8
寸法
  6
CONTINUOUS
 62
     1
100
AcDbBlockReference
  2
_OPEN30
 10
124.437074
 20
-36.103591
 30
0.0
 41
2.0
 42
2.0
 43
2.0
 50
87.326287
  0
MTEXT
  5
18E
102
{ACAD_REACTORS
330
18F
102
}
100
AcDbEntity
  8
寸法
  6
CONTINUOUS
 62
     1
100
AcDbMText
 10
117.737985
 20
-49.226361
 30
0.0
 40
3.0
 41
0.0
 71
     5
 72
     1
  1
\A1;20°
 11
0.428106
 21
0.903728
 31
0.0
1001
ACAD
1000
MTEXTBEGIN
1070
    73
1070
     1
1070
    44
1040
1.0
1070
    74
1070
     0
1000
MTEXTEND
1000
MTEXTBEGIN
1070
    73
1070
     1
1070
    44
1040
1.0
1070
    74
1070
     0
1000
MTEXTEND
  0
DIMENSION
  5
190
100
AcDbEntity
  8
寸法
  6
CONTINUOUS
100
AcDbDimension
  2
*D1
 10
110.0
 20
-42.103592
 30
0.0
 11
107.5
 21
-39.103592
 31
0.0
 70
    32
  3
STANDARD
100
AcDbAlignedDimension
 13
103.0
 23
-36.103591
 33
0.0
 14
101.409774
 24
-42.103592
 34
0.0
 50
90.0
100
AcDbRotatedDimension
  0
DIMENSION
  5
1A6
100
AcDbEntity
  8
寸法
  6
CONTINUOUS
100
AcDbDimension
  2
*D2
 10
70.0
 20
-42.103592
 30
0.0
 11
67.5
 21
-34.353592
 31
0.0
 70
    32
  3
STANDARD
100
AcDbAlignedDimension
 13
53.416304
 23
-26.603592
 33
0.0
 14
53.416304
 24
-42.103592
 34
0.0
 50
90.0
100
AcDbRotatedDimension
  0
DIMENSION
  5
1B3
100
AcDbEntity
  8
寸法
  6
CONTINUOUS
100
AcDbDimension
  2
*D3
 10
0.0
 20
-42.103592
 30
0.0
 11
-2.5
 21
-36.103592
 31
0.0
 70
    32
  3
STANDARD
100
AcDbAlignedDimension
 13
6.416304
 23
-30.103592
 33
0.0
 14
8.691644
 24
-42.103592
 34
0.0
 50
90.0
100
AcDbRotatedDimension
  0
LINE
  5
1C0
100
AcDbEntity
  8
0
  6
CENTER
 62
     1
 48
0.5
100
AcDbLine
 10
40.416304
 20
-23.867595
 30
0.0
 11
40.416304
 21
-45.141113
 31
0.0
  0
LINE
  5
1C1
100
AcDbEntity
  8
0
  6
CENTER
 62
     1
 48
0.5
100
AcDbLine
 10
42.416304
 20
-23.867595
 30
0.0
 11
42.416304
 21
-45.141113
 31
0.0
  0
DIMENSION
  5
1C2
100
AcDbEntity
  8
寸法
  6
CONTINUOUS
100
AcDbDimension
  2
*D4
 10
40.416304
 20
-50.0
 30
0.0
 11
34.416304
 21
-47.5
 31
0.0
 70
    32
  3
STANDARD
100
AcDbAlignedDimension
 13
42.416304
 23
-45.141113
 33
0.0
 14
40.416304
 24
-45.141113
 34
0.0
100
AcDbRotatedDimension
  0
DIMENSION
  5
1D1
100
AcDbEntity
  8
寸法
  6
CONTINUOUS
100
AcDbDimension
  2
*D5
 10
41.416304
 20
-20.0
 30
0.0
 11
51.416304
 21
-17.5
 31
0.0
 70
    32
  3
STANDARD
100
AcDbAlignedDimension
 13
61.416304
 23
-32.603592
 33
0.0
 14
41.416304
 24
-23.867595
 34
0.0
100
AcDbRotatedDimension
  0
DIMENSION
  5
1DE
100
AcDbEntity
  8
寸法
  6
CONTINUOUS
100
AcDbDimension
  2
*D6
 10
6.416304
 20
-10.0
 30
0.0
 11
33.916304
 21
-7.5
 31
0.0
 70
    32
  3
STANDARD
100
AcDbAlignedDimension
 13
61.416304
 23
17.889404
 33
0.0
 14
6.416304
 24
7.889405
 34
0.0
100
AcDbRotatedDimension
  0
DIMENSION
  5
1EB
100
AcDbEntity
  8
寸法
  6
CONTINUOUS
100
AcDbDimension
  2
*D7
 10
53.416304
 20
0.0
 30
0.0
 11
57.416304
 21
2.5
 31
0.0
 70
    32
  3
STANDARD
100
AcDbAlignedDimension
 13
61.416304
 23
17.889404
 33
0.0
 14
53.416304
 24
11.889405
 34
0.0
100
AcDbRotatedDimension
1001
ACAD
1000
DSTYLE
1002
{
1070
   287
1070
     4
1070
   287
1070
     4
1070
   279
1070
     1
1002
}
  0
DIMENSION
  5
201
100
AcDbEntity
  8
寸法
  6
CONTINUOUS
100
AcDbDimension
  2
*D8
 10
70.0
 20
11.889405
 30
0.0
 11
67.5
 21
19.889405
 31
0.0
 70
    32
  3
STANDARD
100
AcDbAlignedDimension
 13
53.416304
 23
27.889405
 33
0.0
 14
53.416304
 24
11.889405
 34
0.0
 50
90.0
100
AcDbRotatedDimension
  0
DIMENSION
  5
20E
100
AcDbEntity
  8
寸法
  6
CONTINUOUS
100
AcDbDimension
  2
*D9
 10
0.0
 20
7.889405
 30
0.0
 11
-2.5
 21
17.889405
 31
0.0
 70
    32
  3
STANDARD
100
AcDbAlignedDimension
 13
7.416304
 23
27.889405
 33
0.0
 14
6.416304
 24
7.889405
 34
0.0
 50
90.0
100
AcDbRotatedDimension
  0
DIMENSION
  5
21B
100
AcDbEntity
  8
寸法
  6
CONTINUOUS
100
AcDbDimension
  2
*D10
 10
7.146579
 20
7.889405
 30
0.0
 11
5.352992
 21
11.967972
 31
0.0
 70
   162
  3
STANDARD
100
AcDb2LineAngularDimension
 13
7.286029
 23
7.889405
 33
0.0
 14
20.960298
 24
9.085748
 34
0.0
 15
6.416304
 25
7.889405
 35
0.0
 16
2.780204
 26
7.626971
 36
0.0
1001
ACAD
1000
DSTYLE
1002
{
1070
   271
1070
     0
1070
   271
1070
     0
1002
}
  0
LINE
  5
248
100
AcDbEntity
  8
0
  6
CENTER
 62
     1
 48
0.5
100
AcDbLine
 10
-27.083696
 20
7.889404
 30
0.0
 11
-27.083696
 21
32.889404
 31
0.0
  0
ARC
  5
24A
100
AcDbEntity
  8
0
  6
CENTER
 62
     1
 48
0.5
100
AcDbCircle
 10
-27.083696
 20
32.889404
 30
0.0
 40
25.0
100
AcDbArc
 50
180.0
 51
270.0
  0
DIMENSION
  5
24B
100
AcDbEntity
  8
寸法
  6
CONTINUOUS
100
AcDbDimension
  2
*D11
 10
-27.083696
 20
32.889404
 30
0.0
 11
-56.684345
 21
16.484708
 31
0.0
 70
    36
  1
%%c50
  3
STANDARD
100
AcDbRadialDimension
 15
-47.995241
 25
19.188774
 35
0.0
 40
0.0
1001
ACAD
1000
DSTYLE
1002
{
1070
   288
1070
     1
1002
}
  0
ARC
  5
25D
100
AcDbEntity
  8
0
  6
PHANTOM
100
AcDbCircle
 10
43.916304
 20
-30.103592
 30
0.0
 40
37.5
100
AcDbArc
 50
180.0
 51
236.010818
  0
DIMENSION
  5
25E
100
AcDbEntity
  8
寸法
  6
CONTINUOUS
100
AcDbDimension
  2
*D12
 10
43.916304
 20
-30.103592
 30
0.0
 11
0.620067
 21
-56.69385
 31
0.0
 70
   164
  1
%%c75
  3
STANDARD
100
AcDbRadialDimension
 15
11.961479
 25
-49.728555
 35
0.0
 40
0.0
1001
ACAD
1000
DSTYLE
1002
{
1070
   288
1070
     1
1002
}
  0
MTEXT
  5
283
100
AcDbEntity
  8
寸法
  6
CONTINUOUS
 62
     1
100
AcDbMText
 10
-38.674593
 20
-29.603592
 30
0.0
 40
3.0
 41
0.0
 71
     5
 72
     1
  1
10%%d
1001
ACAD
1000
MTEXTBEGIN
1070
    73
1070
     1
1070
    44
1040
1.0
1070
    74
1070
     0
1000
MTEXTEND
1000
MTEXTBEGIN
1070
    73
1070
     1
1070
    44
1040
1.0
1070
    74
1070
     0
1000
MTEXTEND
1000
MTEXTBEGIN
1070
    73
1070
     1
1070
    44
1040
1.0
1070
    74
1070
     0
1000
MTEXTEND
1000
MTEXTBEGIN
1070
    73
1070
     1
1070
    44
1040
1.0
1070
    74
1070
     0
1000
MTEXTEND
1000
MTEXTBEGIN
1070
    73
1070
     1
1070
    44
1040
1.0
1070
    74
1070
     0
1000
MTEXTEND
1000
MTEXTBEGIN
1070
    73
1070
     1
1070
    44
1040
1.0
1070
    74
1070
     0
1000
MTEXTEND
1000
MTEXTBEGIN
1070
    73
1070
     1
1070
    44
1040
1.0
1070
    74
1070
     0
1000
MTEXTEND
1000
MTEXTBEGIN
1070
    73
1070
     1
1070
    44
1040
1.0
1070
    74
1070
     0
1000
MTEXTEND
1000
MTEXTBEGIN
1070
    73
1070
     1
1070
    44
1040
1.0
1070
    74
1070
     0
1000
MTEXTEND
1000
MTEXTBEGIN
1070
    73
1070
     1
1070
    44
1040
1.0
1070
    74
1070
     0
1000
MTEXTEND
  0
MTEXT
  5
284
100
AcDbEntity
  8
寸法
  6
CONTINUOUS
 62
     1
100
AcDbMText
 10
-24.244098
 20
-41.791266
 30
0.0
 40
3.0
 41
0.0
 71
     5
 72
     1
  1
10%%d
1001
ACAD
1000
MTEXTBEGIN
1070
    73
1070
     1
1070
    44
1040
1.0
1070
    74
1070
     0
1000
MTEXTEND
1000
MTEXTBEGIN
1070
    73
1070
     1
1070
    44
1040
1.0
1070
    74
1070
     0
1000
MTEXTEND
1000
MTEXTBEGIN
1070
    73
1070
     1
1070
    44
1040
1.0
1070
    74
1070
     0
1000
MTEXTEND
1000
MTEXTBEGIN
1070
    73
1070
     1
1070
    44
1040
1.0
1070
    74
1070
     0
1000
MTEXTEND
1000
MTEXTBEGIN
1070
    73
1070
     1
1070
    44
1040
1.0
1070
    74
1070
     0
1000
MTEXTEND
1000
MTEXTBEGIN
1070
    73
1070
     1
1070
    44
1040
1.0
1070
    74
1070
     0
1000
MTEXTEND
1000
MTEXTBEGIN
1070
    73
1070
     1
1070
    44
1040
1.0
1070
    74
1070
     0
1000
MTEXTEND
1000
MTEXTBEGIN
1070
    73
1070
     1
1070
    44
1040
1.0
1070
    74
1070
     0
1000
MTEXTEND
1000
MTEXTBEGIN
1070
    73
1070
     1
1070
    44
1040
1.0
1070
    74
1070
     0
1000
MTEXTEND
1000
MTEXTBEGIN
1070
    73
1070
     1
1070
    44
1040
1.0
1070
    74
1070
     0
1000
MTEXTEND
  0
LINE
  5
285
100
AcDbEntity
  8
寸法
  6
CONTINUOUS
100
AcDbLine
 10
-39.083696
 20
-32.103592
 30
0.0
 11
-37.669482
 21
-34.553082
 31
30.0
  0
LINE
  5
286
100
AcDbEntity
  8
寸法
  6
CONTINUOUS
100
AcDbLine
 10
-39.083696
 20
-32.103592
 30
0.0
 11
-40.497909
 21
-34.553082
 31
30.0
  0
LINE
  5
287
100
AcDbEntity
  8
寸法
  6
CONTINUOUS
100
AcDbLine
 10
-29.083696
 20
-42.103592
 30
0.0
 11
-31.533186
 21
-43.517805
 31
30.0
  0
LINE
  5
288
100
AcDbEntity
  8
寸法
  6
CONTINUOUS
100
AcDbLine
 10
-29.083696
 20
-42.103592
 30
0.0
 11
-31.533186
 21
-40.689378
 31
30.0
  0
LINE
  5
289
100
AcDbEntity
  8
寸法
  6
CONTINUOUS
100
AcDbLine
 10
-39.083696
 20
-42.103592
 30
0.0
 11
-39.083696
 21
-32.103592
 31
0.0
  0
LINE
  5
28A
100
AcDbEntity
  8
寸法
  6
CONTINUOUS
100
AcDbLine
 10
-39.083696
 20
-42.103592
 30
0.0
 11
-29.083696
 21
-42.103592
 31
0.0
  0
CIRCLE
  5
31D
100
AcDbEntity
  8
0
  6
CONTINUOUS
100
AcDbCircle
 10
24.357059
 20
20.688448
 30
0.0
 40
5.999999
  0
ENDSEC
  0
SECTION
  2
OBJECTS
  0
DICTIONARY
  5
C
100
AcDbDictionary
  3
ACAD_GROUP
350
D
  3
ACAD_LAYOUT
350
165
  3
ACAD_MLINESTYLE
350
1B
  3
ACAD_PLOTSETTINGS
350
166
  3
ACAD_PLOTSTYLENAME
350
163
  3
ACDBHEADERROUNDTRIPXREC
350
2DC
  0
DICTIONARY
  5
2D8
100
AcDbDictionary
280
     1
  3
ACAD_XREC_ROUNDTRIP
360
2D9
  0
DICTIONARY
  5
2FF
100
AcDbDictionary
280
     1
  3
ACAD_XREC_ROUNDTRIP
360
300
  0
DICTIONARY
  5
2B5
100
AcDbDictionary
280
     1
  3
ACAD_LAYOUTSELFREF
360
2FE
  0
DICTIONARY
  5
2B3
100
AcDbDictionary
280
     1
  3
ACAD_LAYOUTSELFREF
360
2FD
  0
DICTIONARY
  5
2D6
100
AcDbDictionary
280
     1
  3
ACAD_XREC_ROUNDTRIP
360
2D7
  0
DICTIONARY
  5
D
102
{ACAD_REACTORS
330
C
102
}
100
AcDbDictionary
  3
*A1
350
18F
  0
DICTIONARY
  5
165
102
{ACAD_XDICTIONARY
360
301
102
}
102
{ACAD_REACTORS
330
C
102
}
100
AcDbDictionary
  3
MODEL
350
167
  3
ﾚｲｱｳﾄ1
350
168
  0
DICTIONARY
  5
1B
102
{ACAD_REACTORS
330
C
102
}
100
AcDbDictionary
  3
STANDARD
350
1C
  0
DICTIONARY
  5
166
102
{ACAD_REACTORS
330
C
102
}
100
AcDbDictionary
  0
ACAD_PROXY_OBJECT
  5
163
102
{ACAD_REACTORS
330
C
102
}
100
AcDbProxyObject
 90
      499
 91
      500
 93
       86
310
405010041939BDC9B585B0
350
164
340
164
 94
        0
  0
DICTIONARY
  5
2DC
102
{ACAD_REACTORS
330
C
102
}
100
AcDbDictionary
  3
CEPSNTYPE
350
2E6
  3
DIMSTYLEDATA
350
2EA
  3
FINGERPRINTGUID
350
2E7
  3
HYPERLINKBASE
350
2DF
  3
INSUNITS
350
2E5
  3
LAYOUTDICT
350
2E1
  3
LWETCUNION
350
2E4
  3
PLOTSETDICT
350
2E2
  3
PLOTSTYLNAMDICT
350
2E3
  3
PSVPSCALE
350
2E9
  3
PUCSBASE
350
2ED
  3
PUCSORGBACK
350
2F3
  3
PUCSORGBOTTOM
350
2EF
  3
PUCSORGFRONT
350
2F2
  3
PUCSORGLEFT
350
2F0
  3
PUCSORGRIGHT
350
2F1
  3
PUCSORGTOP
350
2EE
  3
PUCSORTHOREF
350
2EB
  3
PUCSORTHOVIEW
350
2EC
  3
STYLESHEET
350
2E0
  3
TSTACKALIGN
350
2DD
  3
TSTACKSIZE
350
2DE
  3
UCSBASE
350
2F6
  3
UCSORGBACK
350
2FC
  3
UCSORGBOTTOM
350
2F8
  3
UCSORGFRONT
350
2FB
  3
UCSORGLEFT
350
2F9
  3
UCSORGRIGHT
350
2FA
  3
UCSORGTOP
350
2F7
  3
UCSORTHOREF
350
2F4
  3
UCSORTHOVIEW
350
2F5
  3
VERSIONGUID
350
2E8
  0
XRECORD
  5
2D9
102
{ACAD_REACTORS
330
2D8
102
}
100
AcDbXrecord
102
EXTNAMES
  1
DEFPOINTS
  2
Defpoints
102
PLOTBIT
280
     0
  0
XRECORD
  5
300
102
{ACAD_REACTORS
330
2FF
102
}
100
AcDbXrecord
102
ACADR14ROUNDTRIP
1000
DSTYLE
1002
{
1070
   341
340
16D
1070
   342
340
16D
1002
}
  0
XRECORD
  5
2FE
102
{ACAD_REACTORS
330
2B5
102
}
100
AcDbXrecord
340
18
  0
XRECORD
  5
2FD
102
{ACAD_REACTORS
330
2B3
102
}
100
AcDbXrecord
340
15
  0
XRECORD
  5
2D7
102
{ACAD_REACTORS
330
2D6
102
}
100
AcDbXrecord
102
EXTNAMES
  1
_OPEN30
  2
_Open30
  0
GROUP
  5
18F
102
{ACAD_REACTORS
330
D
102
}
100
AcDbGroup
300

 70
     1
 71
     1
340
188
340
18D
340
18B
340
187
340
18E
340
18A
340
189
340
18C
  0
DICTIONARY
  5
301
100
AcDbDictionary
280
     1
  3
ACAD_XREC_ROUNDTRIP
360
302
  0
ACAD_PROXY_OBJECT
  5
167
102
{ACAD_REACTORS
330
165
102
}
100
AcDbProxyObject
 90
      499
 91
      502
 93
      548
310
90E4550534F4E20504D2D32303030432C01AAAAAAAAA5A69054D6F64656C901A800000000000000000000000000000000000000000000A1000000000000008902A6A6AAAA0
330
18
330
0
340
0
340
0
 94
        0
  0
ACAD_PROXY_OBJECT
  5
168
102
{ACAD_REACTORS
330
165
102
}
100
AcDbProxyObject
 90
      499
 91
      502
 93
      964
310
90E4550534F4E20504D2D32303030432C00AAAAAA416AA59106906DAB2B1B3C43140501A800000000000000000000000000000000000000000000A1000000000000008902A6A6A10232D5E076BC5510408CB5781DAF154410232D5E076BC5510408CB5781DAF15C410232D5E076BC5710408CB5781DAF15C40
330
15
330
0
340
0
340
0
 94
        0
  0
MLINESTYLE
  5
1C
102
{ACAD_REACTORS
330
1B
102
}
100
AcDbMlineStyle
  2
STANDARD
 70
     0
  3

 62
   256
 51
90.0
 52
90.0
 71
     2
 49
0.5
 62
   256
  6
BYLAYER
 49
-0.5
 62
   256
  6
BYLAYER
  0
ACAD_PROXY_OBJECT
  5
164
102
{ACAD_REACTORS
330
163
102
}
100
AcDbProxyObject
 90
      499
 91
      501
 93
        0
 94
        0
  0
XRECORD
  5
2E6
102
{ACAD_REACTORS
330
2DC
102
}
100
AcDbXrecord
 90
        0
  0
XRECORD
  5
2EA
102
{ACAD_REACTORS
330
2DC
102
}
100
AcDbXrecord
1000
DSTYLE
1002
{
1070
   341
340
16D
1070
   342
340
16D
1002
}
  0
XRECORD
  5
2E7
102
{ACAD_REACTORS
330
2DC
102
}
100
AcDbXrecord
  1
{4FF3E815-39B5-469E-A4BA-84C32BFFAF6D}
  0
XRECORD
  5
2DF
102
{ACAD_REACTORS
330
2DC
102
}
100
AcDbXrecord
  1

  0
XRECORD
  5
2E5
102
{ACAD_REACTORS
330
2DC
102
}
100
AcDbXrecord
 90
        0
  0
XRECORD
  5
2E1
102
{ACAD_REACTORS
330
2DC
102
}
100
AcDbXrecord
340
165
  0
XRECORD
  5
2E4
102
{ACAD_REACTORS
330
2DC
102
}
100
AcDbXrecord
 90
    14877
  0
XRECORD
  5
2E2
102
{ACAD_REACTORS
330
2DC
102
}
100
AcDbXrecord
340
166
  0
XRECORD
  5
2E3
102
{ACAD_REACTORS
330
2DC
102
}
100
AcDbXrecord
340
163
  0
XRECORD
  5
2E9
102
{ACAD_REACTORS
330
2DC
102
}
100
AcDbXrecord
 40
0.0
  0
XRECORD
  5
2ED
102
{ACAD_REACTORS
330
2DC
102
}
100
AcDbXrecord
340
0
  0
XRECORD
  5
2F3
102
{ACAD_REACTORS
330
2DC
102
}
100
AcDbXrecord
 10
0.0
 20
0.0
 30
0.0
  0
XRECORD
  5
2EF
102
{ACAD_REACTORS
330
2DC
102
}
100
AcDbXrecord
 10
0.0
 20
0.0
 30
0.0
  0
XRECORD
  5
2F2
102
{ACAD_REACTORS
330
2DC
102
}
100
AcDbXrecord
 10
0.0
 20
0.0
 30
0.0
  0
XRECORD
  5
2F0
102
{ACAD_REACTORS
330
2DC
102
}
100
AcDbXrecord
 10
0.0
 20
0.0
 30
0.0
  0
XRECORD
  5
2F1
102
{ACAD_REACTORS
330
2DC
102
}
100
AcDbXrecord
 10
0.0
 20
0.0
 30
0.0
  0
XRECORD
  5
2EE
102
{ACAD_REACTORS
330
2DC
102
}
100
AcDbXrecord
 10
0.0
 20
0.0
 30
0.0
  0
XRECORD
  5
2EB
102
{ACAD_REACTORS
330
2DC
102
}
100
AcDbXrecord
340
0
  0
XRECORD
  5
2EC
102
{ACAD_REACTORS
330
2DC
102
}
100
AcDbXrecord
 70
     0
  0
XRECORD
  5
2E0
102
{ACAD_REACTORS
330
2DC
102
}
100
AcDbXrecord
  1

  0
XRECORD
  5
2DD
102
{ACAD_REACTORS
330
2DC
102
}
100
AcDbXrecord
 90
        1
  0
XRECORD
  5
2DE
102
{ACAD_REACTORS
330
2DC
102
}
100
AcDbXrecord
 90
       70
  0
XRECORD
  5
2F6
102
{ACAD_REACTORS
330
2DC
102
}
100
AcDbXrecord
340
0
  0
XRECORD
  5
2FC
102
{ACAD_REACTORS
330
2DC
102
}
100
AcDbXrecord
 10
0.0
 20
0.0
 30
0.0
  0
XRECORD
  5
2F8
102
{ACAD_REACTORS
330
2DC
102
}
100
AcDbXrecord
 10
0.0
 20
0.0
 30
0.0
  0
XRECORD
  5
2FB
102
{ACAD_REACTORS
330
2DC
102
}
100
AcDbXrecord
 10
0.0
 20
0.0
 30
0.0
  0
XRECORD
  5
2F9
102
{ACAD_REACTORS
330
2DC
102
}
100
AcDbXrecord
 10
0.0
 20
0.0
 30
0.0
  0
XRECORD
  5
2FA
102
{ACAD_REACTORS
330
2DC
102
}
100
AcDbXrecord
 10
0.0
 20
0.0
 30
0.0
  0
XRECORD
  5
2F7
102
{ACAD_REACTORS
330
2DC
102
}
100
AcDbXrecord
 10
0.0
 20
0.0
 30
0.0
  0
XRECORD
  5
2F4
102
{ACAD_REACTORS
330
2DC
102
}
100
AcDbXrecord
340
0
  0
XRECORD
  5
2F5
102
{ACAD_REACTORS
330
2DC
102
}
100
AcDbXrecord
 70
     0
  0
XRECORD
  5
2E8
102
{ACAD_REACTORS
330
2DC
102
}
100
AcDbXrecord
  1
{731E2080-8C96-4F9C-86DB-DB791F6E91C6}
  0
XRECORD
  5
302
102
{ACAD_REACTORS
330
301
102
}
100
AcDbXrecord
102
EXTNAMES
  1
MODEL
  2
Model
  0
ENDSEC
  0
EOF
