  0
SECTION
  2
HEADER
  9
$ACADVER
  1
AC1014
  9
$ACADMAINTVER
 70
     0
  9
$DWGCODEPAGE
  3
ANSI_932
  9
$INSBASE
 10
0.0
 20
0.0
 30
0.0
  9
$EXTMIN
 10
-67.615999
 20
-105.122174
 30
0.0
  9
$EXTMAX
 10
124.311696
 20
32.456989
 30
0.0
  9
$LIMMIN
 10
-74.537718
 20
-90.506412
  9
$LIMMAX
 10
126.759426
 20
22.440817
  9
$ORTHOMODE
 70
     0
  9
$REGENMODE
 70
     1
  9
$FILLMODE
 70
     1
  9
$QTEXTMODE
 70
     0
  9
$MIRRTEXT
 70
     1
  9
$DRAGMODE
 70
     2
  9
$LTSCALE
 40
0.5
  9
$OSMODE
 70
    49
  9
$ATTMODE
 70
     1
  9
$TEXTSIZE
 40
0.2
  9
$TRACEWID
 40
0.05
  9
$TEXTSTYLE
  7
STANDARD
  9
$CLAYER
  8
寸法
  9
$CELTYPE
  6
BYLAYER
  9
$CECOLOR
 62
     1
  9
$CELTSCALE
 40
1.0
  9
$DELOBJ
 70
     1
  9
$DISPSILH
 70
     0
  9
$DIMSCALE
 40
1.0
  9
$DIMASZ
 40
2.0
  9
$DIMEXO
 40
1.0
  9
$DIMDLI
 40
10.0
  9
$DIMRND
 40
0.0
  9
$DIMDLE
 40
0.0
  9
$DIMEXE
 40
1.0
  9
$DIMTP
 40
0.0
  9
$DIMTM
 40
0.0
  9
$DIMTXT
 40
3.0
  9
$DIMCEN
 40
2.0
  9
$DIMTSZ
 40
0.0
  9
$DIMTOL
 70
     0
  9
$DIMLIM
 70
     0
  9
$DIMTIH
 70
     0
  9
$DIMTOH
 70
     0
  9
$DIMSE1
 70
     0
  9
$DIMSE2
 70
     0
  9
$DIMTAD
 70
     1
  9
$DIMZIN
 70
     8
  9
$DIMBLK
  1

  9
$DIMASO
 70
     1
  9
$DIMSHO
 70
     1
  9
$DIMPOST
  1

  9
$DIMAPOST
  1

  9
$DIMALT
 70
     0
  9
$DIMALTD
 70
     2
  9
$DIMALTF
 40
25.4
  9
$DIMLFAC
 40
1.0
  9
$DIMTOFL
 70
     1
  9
$DIMTVP
 40
0.0
  9
$DIMTIX
 70
     0
  9
$DIMSOXD
 70
     0
  9
$DIMSAH
 70
     1
  9
$DIMBLK1
  1
_OPEN30
  9
$DIMBLK2
  1
_OPEN30
  9
$DIMSTYLE
  2
寸法
  9
$DIMCLRD
 70
     1
  9
$DIMCLRE
 70
     1
  9
$DIMCLRT
 70
     1
  9
$DIMTFAC
 40
1.0
  9
$DIMGAP
 40
1.0
  9
$DIMJUST
 70
     0
  9
$DIMSD1
 70
     0
  9
$DIMSD2
 70
     0
  9
$DIMTOLJ
 70
     1
  9
$DIMTZIN
 70
     0
  9
$DIMALTZ
 70
     0
  9
$DIMALTTZ
 70
     0
  9
$DIMFIT
 70
     3
  9
$DIMUPT
 70
     0
  9
$DIMUNIT
 70
     2
  9
$DIMDEC
 70
     1
  9
$DIMTDEC
 70
     4
  9
$DIMALTU
 70
     2
  9
$DIMALTTD
 70
     2
  9
$DIMTXSTY
  7
STANDARD
  9
$DIMAUNIT
 70
     0
  9
$LUNITS
 70
     2
  9
$LUPREC
 70
     4
  9
$SKETCHINC
 40
0.1
  9
$FILLETRAD
 40
0.0
  9
$AUNITS
 70
     0
  9
$AUPREC
 70
     0
  9
$MENU
  1
acad
  9
$ELEVATION
 40
0.0
  9
$PELEVATION
 40
0.0
  9
$THICKNESS
 40
0.0
  9
$LIMCHECK
 70
     0
  9
$BLIPMODE
 70
     0
  9
$CHAMFERA
 40
0.0
  9
$CHAMFERB
 40
0.0
  9
$CHAMFERC
 40
0.0
  9
$CHAMFERD
 40
0.0
  9
$SKPOLY
 70
     0
  9
$TDCREATE
 40
2451938.596276620
  9
$TDUPDATE
 40
2451977.572962963
  9
$TDINDWG
 40
0.0132899306
  9
$TDUSRTIMER
 40
0.0132899306
  9
$USRTIMER
 70
     1
  9
$ANGBASE
 50
0.0
  9
$ANGDIR
 70
     0
  9
$PDMODE
 70
     0
  9
$PDSIZE
 40
0.0
  9
$PLINEWID
 40
0.0
  9
$COORDS
 70
     1
  9
$SPLFRAME
 70
     0
  9
$SPLINETYPE
 70
     6
  9
$SPLINESEGS
 70
     8
  9
$ATTDIA
 70
     0
  9
$ATTREQ
 70
     1
  9
$HANDLING
 70
     1
  9
$HANDSEED
  5
257
  9
$SURFTAB1
 70
     6
  9
$SURFTAB2
 70
     6
  9
$SURFTYPE
 70
     6
  9
$SURFU
 70
     6
  9
$SURFV
 70
     6
  9
$UCSNAME
  2

  9
$UCSORG
 10
0.0
 20
0.0
 30
0.0
  9
$UCSXDIR
 10
1.0
 20
0.0
 30
0.0
  9
$UCSYDIR
 10
0.0
 20
1.0
 30
0.0
  9
$PUCSNAME
  2

  9
$PUCSORG
 10
0.0
 20
0.0
 30
0.0
  9
$PUCSXDIR
 10
1.0
 20
0.0
 30
0.0
  9
$PUCSYDIR
 10
0.0
 20
1.0
 30
0.0
  9
$USERI1
 70
     0
  9
$USERI2
 70
     0
  9
$USERI3
 70
     0
  9
$USERI4
 70
     0
  9
$USERI5
 70
     0
  9
$USERR1
 40
0.0
  9
$USERR2
 40
0.0
  9
$USERR3
 40
0.0
  9
$USERR4
 40
0.0
  9
$USERR5
 40
0.0
  9
$WORLDVIEW
 70
     1
  9
$SHADEDGE
 70
     3
  9
$SHADEDIF
 70
    70
  9
$TILEMODE
 70
     1
  9
$MAXACTVP
 70
    48
  9
$PINSBASE
 10
0.0
 20
0.0
 30
0.0
  9
$PLIMCHECK
 70
     0
  9
$PEXTMIN
 10
1.000000E+20
 20
1.000000E+20
 30
1.000000E+20
  9
$PEXTMAX
 10
-1.000000E+20
 20
-1.000000E+20
 30
-1.000000E+20
  9
$PLIMMIN
 10
0.0
 20
0.0
  9
$PLIMMAX
 10
12.0
 20
9.0
  9
$UNITMODE
 70
     0
  9
$VISRETAIN
 70
     1
  9
$PLINEGEN
 70
     0
  9
$PSLTSCALE
 70
     1
  9
$TREEDEPTH
 70
  3020
  9
$PICKSTYLE
 70
     1
  9
$CMLSTYLE
  2
STANDARD
  9
$CMLJUST
 70
     0
  9
$CMLSCALE
 40
1.0
  9
$PROXYGRAPHICS
 70
     1
  9
$MEASUREMENT
 70
     0
  0
ENDSEC
  0
SECTION
  2
CLASSES
  0
ENDSEC
  0
SECTION
  2
TABLES
  0
TABLE
  2
VPORT
  5
8
100
AcDbSymbolTable
 70
     2
  0
VPORT
  5
256
100
AcDbSymbolTableRecord
100
AcDbViewportTableRecord
  2
*ACTIVE
 70
     0
 10
0.0
 20
0.0
 11
1.0
 21
1.0
 12
61.466301
 22
-48.534351
 13
0.0
 23
0.0
 14
1.0
 24
1.0
 15
10.0
 25
10.0
 16
0.0
 26
0.0
 36
1.0
 17
0.0
 27
0.0
 37
0.0
 40
195.623843
 41
1.710425
 42
50.0
 43
0.0
 44
0.0
 50
0.0
 51
0.0
 71
     0
 72
   100
 73
     1
 74
     1
 75
     0
 76
     0
 77
     0
 78
     0
  0
ENDTAB
  0
TABLE
  2
LTYPE
  5
5
100
AcDbSymbolTable
 70
     5
  0
LTYPE
  5
12
100
AcDbSymbolTableRecord
100
AcDbLinetypeTableRecord
  2
BYBLOCK
 70
     0
  3

 72
    65
 73
     0
 40
0.0
  0
LTYPE
  5
13
100
AcDbSymbolTableRecord
100
AcDbLinetypeTableRecord
  2
BYLAYER
 70
     0
  3

 72
    65
 73
     0
 40
0.0
  0
LTYPE
  5
14
100
AcDbSymbolTableRecord
100
AcDbLinetypeTableRecord
  2
CONTINUOUS
 70
     0
  3
Solid line
 72
    65
 73
     0
 40
0.0
  0
LTYPE
  5
1F
100
AcDbSymbolTableRecord
100
AcDbLinetypeTableRecord
  2
DASHED
 70
     0
  3
__ __ __ __ __ __ __ __ __ __ __ __ __ __ __
 72
    65
 73
     2
 40
3.5
 49
2.0
 74
     0
 49
-1.5
 74
     0
  0
LTYPE
  5
20
100
AcDbSymbolTableRecord
100
AcDbLinetypeTableRecord
  2
CENTER
 70
     0
  3
____ _ ____ _ ____ _ ____ _ ____ _ ____ _ ____
 72
    65
 73
     4
 40
17.5
 49
13.0
 74
     0
 49
-1.5
 74
     0
 49
1.5
 74
     0
 49
-1.5
 74
     0
  0
LTYPE
  5
21
100
AcDbSymbolTableRecord
100
AcDbLinetypeTableRecord
  2
PHANTOM
 70
     0
  3
_____ _ _ _____ _ _ _____ _ _ _____ _ _ ____  
 72
    65
 73
     6
 40
15.5
 49
8.0
 74
     0
 49
-1.5
 74
     0
 49
1.5
 74
     0
 49
-1.5
 74
     0
 49
1.5
 74
     0
 49
-1.5
 74
     0
  0
LTYPE
  5
22
100
AcDbSymbolTableRecord
100
AcDbLinetypeTableRecord
  2
DOT
 70
     0
  3
. . . . . . . . . . . . . . . . . . . . . . . .
 72
    65
 73
     2
 40
0.25
 49
0.0
 74
     0
 49
-0.25
 74
     0
  0
ENDTAB
  0
TABLE
  2
LAYER
  5
2
100
AcDbSymbolTable
 70
     3
  0
LAYER
  5
E
100
AcDbSymbolTableRecord
100
AcDbLayerTableRecord
  2
0
 70
     0
 62
     7
  6
CONTINUOUS
  0
LAYER
  5
12B
100
AcDbSymbolTableRecord
100
AcDbLayerTableRecord
  2
寸法
 70
     0
 62
     1
  6
CONTINUOUS
  0
LAYER
  5
14C
100
AcDbSymbolTableRecord
100
AcDbLayerTableRecord
  2
DEFPOINTS
 70
     0
 62
     7
  6
CONTINUOUS
  0
ENDTAB
  0
TABLE
  2
STYLE
  5
3
100
AcDbSymbolTable
 70
     2
  0
STYLE
  5
F
100
AcDbSymbolTableRecord
100
AcDbTextStyleTableRecord
  2
STANDARD
 70
     0
 40
0.0
 41
1.0
 50
0.0
 71
     0
 42
0.2
  3
txt
  4
BIGFONT
  0
STYLE
  5
12C
100
AcDbSymbolTableRecord
100
AcDbTextStyleTableRecord
  2
寸法
 70
     0
 40
0.0
 41
1.0
 50
0.0
 71
     0
 42
1.767677
  3
txt.shx
  4
bigfont.shx
  0
ENDTAB
  0
TABLE
  2
VIEW
  5
6
100
AcDbSymbolTable
 70
     0
  0
ENDTAB
  0
TABLE
  2
UCS
  5
7
100
AcDbSymbolTable
 70
     0
  0
ENDTAB
  0
TABLE
  2
APPID
  5
9
100
AcDbSymbolTable
 70
     3
  0
APPID
  5
10
100
AcDbSymbolTableRecord
100
AcDbRegAppTableRecord
  2
ACAD
 70
     0
  0
APPID
  5
12F
100
AcDbSymbolTableRecord
100
AcDbRegAppTableRecord
  2
CONTENTTABDATA
 70
     0
  0
APPID
  5
130
100
AcDbSymbolTableRecord
100
AcDbRegAppTableRecord
  2
CONTENTCURRENTTAB
 70
     0
  0
ENDTAB
  0
TABLE
  2
DIMSTYLE
  5
A
100
AcDbSymbolTable
 70
     3
  0
DIMSTYLE
105
11D
100
AcDbSymbolTableRecord
100
AcDbDimStyleTableRecord
  2
STANDARD
 70
     0
  3

  4

  5

  6

  7

 40
1.0
 41
0.18
 42
0.0625
 43
0.38
 44
0.18
 45
0.0
 46
0.0
 47
0.0
 48
0.0
140
0.18
141
0.09
142
0.0
143
25.4
144
1.0
145
0.0
146
1.0
147
0.09
 71
     0
 72
     0
 73
     1
 74
     1
 75
     0
 76
     0
 77
     0
 78
     0
170
     0
171
     2
172
     0
173
     0
174
     0
175
     0
176
     0
177
     0
178
     0
270
     2
271
     4
272
     4
273
     2
274
     2
340
F
275
     0
280
     0
281
     0
282
     0
283
     1
284
     0
285
     0
286
     0
287
     3
288
     0
  0
DIMSTYLE
105
12D
100
AcDbSymbolTableRecord
100
AcDbDimStyleTableRecord
  2
STANDARD_WS
 70
     0
  3

  4

  5

  6

  7

 40
0.707071
 41
2.5
 42
0.625
 43
3.75
 44
1.25
 45
0.0
 46
0.0
 47
0.0
 48
0.0
140
2.5
141
2.5
142
0.0
143
0.0394
144
1.0
145
0.0
146
1.0
147
0.625
 71
     0
 72
     0
 73
     0
 74
     0
 75
     0
 76
     0
 77
     1
 78
     8
170
     0
171
     4
172
     1
173
     0
174
     0
175
     0
176
     0
177
     0
178
     0
270
     2
271
     4
272
     4
273
     8
274
     4
340
F
275
     0
280
     0
281
     0
282
     0
283
     1
284
     0
285
     0
286
     0
287
     3
288
     0
  0
DIMSTYLE
105
12E
102
{ACAD_REACTORS
330
150
330
159
330
174
330
181
330
18E
330
19B
330
1A8
330
1B5
330
1C2
330
1CF
330
1DE
330
1EB
330
209
102
}
100
AcDbSymbolTableRecord
100
AcDbDimStyleTableRecord
  2
寸法
 70
     0
  3

  4

  5

  6
_OPEN30
  7
_OPEN30
 40
1.0
 41
2.0
 42
1.0
 43
10.0
 44
1.0
 45
0.0
 46
0.0
 47
0.0
 48
0.0
140
3.0
141
2.0
142
0.0
143
25.4
144
1.0
145
0.0
146
1.0
147
1.0
 71
     0
 72
     0
 73
     0
 74
     0
 75
     0
 76
     0
 77
     1
 78
     8
170
     0
171
     2
172
     1
173
     1
174
     0
175
     0
176
     1
177
     1
178
     1
270
     2
271
     2
272
     4
273
     2
274
     2
340
F
275
     0
280
     0
281
     0
282
     0
283
     1
284
     0
285
     0
286
     0
287
     3
288
     0
  0
ENDTAB
  0
TABLE
  2
BLOCK_RECORD
  5
1
100
AcDbSymbolTable
 70
    16
  0
BLOCK_RECORD
  5
18
100
AcDbSymbolTableRecord
100
AcDbBlockTableRecord
  2
*MODEL_SPACE
  0
BLOCK_RECORD
  5
15
100
AcDbSymbolTableRecord
100
AcDbBlockTableRecord
  2
*PAPER_SPACE
  0
BLOCK_RECORD
  5
125
100
AcDbSymbolTableRecord
100
AcDbBlockTableRecord
  2
_OPEN30
  0
BLOCK_RECORD
  5
131
100
AcDbSymbolTableRecord
100
AcDbBlockTableRecord
  2
テンプレ-ト
  0
BLOCK_RECORD
  5
147
100
AcDbSymbolTableRecord
100
AcDbBlockTableRecord
  2
*D2
  0
BLOCK_RECORD
  5
151
100
AcDbSymbolTableRecord
100
AcDbBlockTableRecord
  2
*D3
  0
BLOCK_RECORD
  5
168
100
AcDbSymbolTableRecord
100
AcDbBlockTableRecord
  2
*D4
  0
BLOCK_RECORD
  5
175
100
AcDbSymbolTableRecord
100
AcDbBlockTableRecord
  2
*D5
  0
BLOCK_RECORD
  5
182
100
AcDbSymbolTableRecord
100
AcDbBlockTableRecord
  2
*D6
  0
BLOCK_RECORD
  5
18F
100
AcDbSymbolTableRecord
100
AcDbBlockTableRecord
  2
*D7
  0
BLOCK_RECORD
  5
19C
100
AcDbSymbolTableRecord
100
AcDbBlockTableRecord
  2
*D8
  0
BLOCK_RECORD
  5
1A9
100
AcDbSymbolTableRecord
100
AcDbBlockTableRecord
  2
*D9
  0
BLOCK_RECORD
  5
1B6
100
AcDbSymbolTableRecord
100
AcDbBlockTableRecord
  2
*D10
  0
BLOCK_RECORD
  5
1C3
100
AcDbSymbolTableRecord
100
AcDbBlockTableRecord
  2
*D11
  0
BLOCK_RECORD
  5
1D0
100
AcDbSymbolTableRecord
100
AcDbBlockTableRecord
  2
*D12
  0
BLOCK_RECORD
  5
1DF
100
AcDbSymbolTableRecord
100
AcDbBlockTableRecord
  2
*D13
  0
BLOCK_RECORD
  5
1F9
100
AcDbSymbolTableRecord
100
AcDbBlockTableRecord
  2
*D14
  0
BLOCK_RECORD
  5
217
100
AcDbSymbolTableRecord
100
AcDbBlockTableRecord
  2
A$C32812189
  0
ENDTAB
  0
ENDSEC
  0
SECTION
  2
BLOCKS
  0
BLOCK
  5
19
100
AcDbEntity
  8
0
100
AcDbBlockBegin
  2
*MODEL_SPACE
 70
     0
 10
0.0
 20
0.0
 30
0.0
  3
*MODEL_SPACE
  1

  0
ENDBLK
  5
1A
100
AcDbEntity
  8
0
100
AcDbBlockEnd
  0
BLOCK
  5
16
100
AcDbEntity
 67
     1
  8
0
100
AcDbBlockBegin
  2
*PAPER_SPACE
 70
     0
 10
0.0
 20
0.0
 30
0.0
  3
*PAPER_SPACE
  1

  0
ENDBLK
  5
17
100
AcDbEntity
 67
     1
  8
0
100
AcDbBlockEnd
  0
BLOCK
  5
129
100
AcDbEntity
  8
0
100
AcDbBlockBegin
  2
_OPEN30
 70
     0
 10
0.0
 20
0.0
 30
0.0
  3
_OPEN30
  1

  0
LINE
  5
126
100
AcDbEntity
  8
0
  6
BYBLOCK
 62
     0
100
AcDbLine
 10
-1.0
 20
0.267949
 30
0.0
 11
0.0
 21
0.0
 31
0.0
  0
LINE
  5
127
100
AcDbEntity
  8
0
  6
BYBLOCK
 62
     0
100
AcDbLine
 10
0.0
 20
0.0
 30
0.0
 11
-1.0
 21
-0.267949
 31
0.0
  0
LINE
  5
128
100
AcDbEntity
  8
0
  6
BYBLOCK
 62
     0
100
AcDbLine
 10
0.0
 20
0.0
 30
0.0
 11
-1.0
 21
0.0
 31
0.0
  0
ENDBLK
  5
12A
100
AcDbEntity
  8
0
100
AcDbBlockEnd
  0
BLOCK
  5
132
100
AcDbEntity
  8
0
100
AcDbBlockBegin
  2
テンプレ-ト
 70
     0
 10
0.0
 20
0.0
 30
0.0
  3
テンプレ-ト
  1

  0
ENDBLK
  5
133
100
AcDbEntity
  8
0
100
AcDbBlockEnd
  0
BLOCK
  5
15A
100
AcDbEntity
  8
0
100
AcDbBlockBegin
  2
*D2
 70
     1
 10
0.0
 20
0.0
 30
0.0
  3
*D2
  1

  0
LINE
  5
15B
100
AcDbEntity
  8
0
  6
BYBLOCK
 62
     1
100
AcDbLine
 10
-34.363501
 20
21.21513
 30
0.0
 11
-56.216077
 21
13.784156
 31
0.0
  0
MTEXT
  5
15C
100
AcDbEntity
  8
0
  6
BYBLOCK
 62
     1
100
AcDbMText
 10
-39.665466
 20
22.052785
 30
0.0
 40
3.0
 41
0.0
 71
     5
 72
     1
  1
\A1;\U+220560
 11
0.946758
 21
0.321945
 31
0.0
  0
INSERT
  5
15D
100
AcDbEntity
  8
0
  6
BYBLOCK
 62
     1
100
AcDbBlockReference
  2
_OPEN30
 10
-58.109593
 20
13.140265
 30
0.0
 41
2.0
 42
2.0
 43
2.0
 50
198.780615
  0
POINT
  5
15E
100
AcDbEntity
  8
DEFPOINTS
  6
BYBLOCK
 62
     0
100
AcDbPoint
 10
-58.109593
 20
13.140265
 30
0.0
  0
POINT
  5
15F
100
AcDbEntity
  8
DEFPOINTS
  6
BYBLOCK
 62
     0
100
AcDbPoint
 10
-1.304099
 20
32.456989
 30
0.0
  0
ENDBLK
  5
160
100
AcDbEntity
  8
0
100
AcDbBlockEnd
  0
BLOCK
  5
161
100
AcDbEntity
  8
0
100
AcDbBlockBegin
  2
*D3
 70
     1
 10
0.0
 20
0.0
 30
0.0
  3
*D3
  1

  0
LINE
  5
162
100
AcDbEntity
  8
0
  6
BYBLOCK
 62
     1
100
AcDbLine
 10
30.011594
 20
-62.694029
 30
0.0
 11
24.30532
 21
-76.946782
 31
0.0
  0
MTEXT
  5
163
100
AcDbEntity
  8
0
  6
BYBLOCK
 62
     1
100
AcDbMText
 10
25.832287
 20
-66.406629
 30
0.0
 40
3.0
 41
0.0
 71
     5
 72
     1
  1
\A1;\U+220575
 11
0.371681
 21
0.92836
 31
0.0
  0
INSERT
  5
164
100
AcDbEntity
  8
0
  6
BYBLOCK
 62
     1
100
AcDbBlockReference
  2
_OPEN30
 10
23.561958
 20
-78.803502
 30
0.0
 41
2.0
 42
2.0
 43
2.0
 50
248.180667
  0
POINT
  5
165
100
AcDbEntity
  8
DEFPOINTS
  6
BYBLOCK
 62
     0
100
AcDbPoint
 10
23.561958
 20
-78.803502
 30
0.0
  0
POINT
  5
166
100
AcDbEntity
  8
DEFPOINTS
  6
BYBLOCK
 62
     0
100
AcDbPoint
 10
51.438041
 20
-9.176468
 30
0.0
  0
ENDBLK
  5
167
100
AcDbEntity
  8
0
100
AcDbBlockEnd
  0
BLOCK
  5
169
100
AcDbEntity
  8
0
100
AcDbBlockBegin
  2
*D4
 70
     1
 10
0.0
 20
0.0
 30
0.0
  3
*D4
  1

  0
LINE
  5
16A
100
AcDbEntity
  8
0
  6
BYBLOCK
 62
     1
100
AcDbLine
 10
0.299999
 20
15.0
 30
0.0
 11
-6.353707
 21
15.0
 31
0.0
  0
LINE
  5
16B
100
AcDbEntity
  8
0
  6
BYBLOCK
 62
     1
100
AcDbLine
 10
-0.99
 20
0.0
 30
0.0
 11
-6.353707
 21
0.0
 31
0.0
  0
LINE
  5
16C
100
AcDbEntity
  8
0
  6
BYBLOCK
 62
     1
100
AcDbLine
 10
-5.353707
 20
13.0
 30
0.0
 11
-5.353707
 21
2.0
 31
0.0
  0
INSERT
  5
16D
100
AcDbEntity
  8
0
  6
BYBLOCK
 62
     1
100
AcDbBlockReference
  2
_OPEN30
 10
-5.353707
 20
15.0
 30
0.0
 41
2.0
 42
2.0
 43
2.0
 50
90.0
  0
INSERT
  5
16E
100
AcDbEntity
  8
0
  6
BYBLOCK
 62
     1
100
AcDbBlockReference
  2
_OPEN30
 10
-5.353707
 20
0.0
 30
0.0
 41
2.0
 42
2.0
 43
2.0
 50
270.0
  0
MTEXT
  5
16F
100
AcDbEntity
  8
0
  6
BYBLOCK
 62
     1
100
AcDbMText
 10
-7.853707
 20
7.5
 30
0.0
 40
3.0
 41
0.0
 71
     5
 72
     1
  1
\A1;15
 11
0.0
 21
1.0
 31
0.0
  0
POINT
  5
170
100
AcDbEntity
  8
DEFPOINTS
  6
BYBLOCK
 62
     0
100
AcDbPoint
 10
1.299999
 20
15.0
 30
0.0
  0
POINT
  5
171
100
AcDbEntity
  8
DEFPOINTS
  6
BYBLOCK
 62
     0
100
AcDbPoint
 10
0.01
 20
0.0
 30
0.0
  0
POINT
  5
172
100
AcDbEntity
  8
DEFPOINTS
  6
BYBLOCK
 62
     0
100
AcDbPoint
 10
-5.353707
 20
0.0
 30
0.0
  0
ENDBLK
  5
173
100
AcDbEntity
  8
0
100
AcDbBlockEnd
  0
BLOCK
  5
176
100
AcDbEntity
  8
0
100
AcDbBlockBegin
  2
*D5
 70
     1
 10
0.0
 20
0.0
 30
0.0
  3
*D5
  1

  0
LINE
  5
177
100
AcDbEntity
  8
0
  6
BYBLOCK
 62
     1
100
AcDbLine
 10
0.299999
 20
15.0
 30
0.0
 11
-15.814478
 21
15.0
 31
0.0
  0
LINE
  5
178
100
AcDbEntity
  8
0
  6
BYBLOCK
 62
     1
100
AcDbLine
 10
11.473144
 20
-7.201373
 30
0.0
 11
-15.814478
 21
-7.201373
 31
0.0
  0
LINE
  5
179
100
AcDbEntity
  8
0
  6
BYBLOCK
 62
     1
100
AcDbLine
 10
-14.814478
 20
13.0
 30
0.0
 11
-14.814478
 21
-5.201373
 31
0.0
  0
INSERT
  5
17A
100
AcDbEntity
  8
0
  6
BYBLOCK
 62
     1
100
AcDbBlockReference
  2
_OPEN30
 10
-14.814478
 20
15.0
 30
0.0
 41
2.0
 42
2.0
 43
2.0
 50
90.0
  0
INSERT
  5
17B
100
AcDbEntity
  8
0
  6
BYBLOCK
 62
     1
100
AcDbBlockReference
  2
_OPEN30
 10
-14.814478
 20
-7.201373
 30
0.0
 41
2.0
 42
2.0
 43
2.0
 50
270.0
  0
MTEXT
  5
17C
100
AcDbEntity
  8
0
  6
BYBLOCK
 62
     1
100
AcDbMText
 10
-17.314478
 20
3.899314
 30
0.0
 40
3.0
 41
0.0
 71
     5
 72
     1
  1
\A1;22.2
 11
0.0
 21
1.0
 31
0.0
  0
POINT
  5
17D
100
AcDbEntity
  8
DEFPOINTS
  6
BYBLOCK
 62
     0
100
AcDbPoint
 10
1.299999
 20
15.0
 30
0.0
  0
POINT
  5
17E
100
AcDbEntity
  8
DEFPOINTS
  6
BYBLOCK
 62
     0
100
AcDbPoint
 10
12.473144
 20
-7.201373
 30
0.0
  0
POINT
  5
17F
100
AcDbEntity
  8
DEFPOINTS
  6
BYBLOCK
 62
     0
100
AcDbPoint
 10
-14.814478
 20
-7.201373
 30
0.0
  0
ENDBLK
  5
180
100
AcDbEntity
  8
0
100
AcDbBlockEnd
  0
BLOCK
  5
183
100
AcDbEntity
  8
0
100
AcDbBlockBegin
  2
*D6
 70
     1
 10
0.0
 20
0.0
 30
0.0
  3
*D6
  1

  0
LINE
  5
184
100
AcDbEntity
  8
0
  6
BYBLOCK
 62
     1
100
AcDbLine
 10
56.0
 20
15.0
 30
0.0
 11
76.062842
 21
15.0
 31
0.0
  0
LINE
  5
185
100
AcDbEntity
  8
0
  6
BYBLOCK
 62
     1
100
AcDbLine
 10
56.0
 20
-2.0
 30
0.0
 11
76.062842
 21
-2.0
 31
0.0
  0
LINE
  5
186
100
AcDbEntity
  8
0
  6
BYBLOCK
 62
     1
100
AcDbLine
 10
75.062842
 20
13.0
 30
0.0
 11
75.062842
 21
0.0
 31
0.0
  0
INSERT
  5
187
100
AcDbEntity
  8
0
  6
BYBLOCK
 62
     1
100
AcDbBlockReference
  2
_OPEN30
 10
75.062842
 20
15.0
 30
0.0
 41
2.0
 42
2.0
 43
2.0
 50
90.0
  0
INSERT
  5
188
100
AcDbEntity
  8
0
  6
BYBLOCK
 62
     1
100
AcDbBlockReference
  2
_OPEN30
 10
75.062842
 20
-2.0
 30
0.0
 41
2.0
 42
2.0
 43
2.0
 50
270.0
  0
MTEXT
  5
189
100
AcDbEntity
  8
0
  6
BYBLOCK
 62
     1
100
AcDbMText
 10
72.562842
 20
6.5
 30
0.0
 40
3.0
 41
0.0
 71
     5
 72
     1
  1
\A1;17
 11
0.0
 21
1.0
 31
0.0
  0
POINT
  5
18A
100
AcDbEntity
  8
DEFPOINTS
  6
BYBLOCK
 62
     0
100
AcDbPoint
 10
55.0
 20
15.0
 30
0.0
  0
POINT
  5
18B
100
AcDbEntity
  8
DEFPOINTS
  6
BYBLOCK
 62
     0
100
AcDbPoint
 10
55.0
 20
-2.0
 30
0.0
  0
POINT
  5
18C
100
AcDbEntity
  8
DEFPOINTS
  6
BYBLOCK
 62
     0
100
AcDbPoint
 10
75.062842
 20
-2.0
 30
0.0
  0
ENDBLK
  5
18D
100
AcDbEntity
  8
0
100
AcDbBlockEnd
  0
BLOCK
  5
190
100
AcDbEntity
  8
0
100
AcDbBlockBegin
  2
*D7
 70
     1
 10
0.0
 20
0.0
 30
0.0
  3
*D7
  1

  0
LINE
  5
191
100
AcDbEntity
  8
0
  6
BYBLOCK
 62
     1
100
AcDbLine
 10
63.0
 20
6.0
 30
0.0
 11
63.0
 21
-21.084218
 31
0.0
  0
LINE
  5
192
100
AcDbEntity
  8
0
  6
BYBLOCK
 62
     1
100
AcDbLine
 10
12.473144
 20
-8.201373
 30
0.0
 11
12.473144
 21
-21.084218
 31
0.0
  0
LINE
  5
193
100
AcDbEntity
  8
0
  6
BYBLOCK
 62
     1
100
AcDbLine
 10
61.0
 20
-20.084218
 30
0.0
 11
14.473144
 21
-20.084218
 31
0.0
  0
INSERT
  5
194
100
AcDbEntity
  8
0
  6
BYBLOCK
 62
     1
100
AcDbBlockReference
  2
_OPEN30
 10
63.0
 20
-20.084218
 30
0.0
 41
2.0
 42
2.0
 43
2.0
  0
INSERT
  5
195
100
AcDbEntity
  8
0
  6
BYBLOCK
 62
     1
100
AcDbBlockReference
  2
_OPEN30
 10
12.473144
 20
-20.084218
 30
0.0
 41
2.0
 42
2.0
 43
2.0
 50
180.0
  0
MTEXT
  5
196
100
AcDbEntity
  8
0
  6
BYBLOCK
 62
     1
100
AcDbMText
 10
37.736572
 20
-17.584218
 30
0.0
 40
3.0
 41
0.0
 71
     5
 72
     1
  1
\A1;50.53
  0
POINT
  5
197
100
AcDbEntity
  8
DEFPOINTS
  6
BYBLOCK
 62
     0
100
AcDbPoint
 10
63.0
 20
7.0
 30
0.0
  0
POINT
  5
198
100
AcDbEntity
  8
DEFPOINTS
  6
BYBLOCK
 62
     0
100
AcDbPoint
 10
12.473144
 20
-7.201373
 30
0.0
  0
POINT
  5
199
100
AcDbEntity
  8
DEFPOINTS
  6
BYBLOCK
 62
     0
100
AcDbPoint
 10
12.473144
 20
-20.084218
 30
0.0
  0
ENDBLK
  5
19A
100
AcDbEntity
  8
0
100
AcDbBlockEnd
  0
BLOCK
  5
19D
100
AcDbEntity
  8
0
100
AcDbBlockBegin
  2
*D8
 70
     1
 10
0.0
 20
0.0
 30
0.0
  3
*D8
  1

  0
LINE
  5
19E
100
AcDbEntity
  8
0
  6
BYBLOCK
 62
     1
100
AcDbLine
 10
63.0
 20
6.0
 30
0.0
 11
63.0
 21
-10.452606
 31
0.0
  0
LINE
  5
19F
100
AcDbEntity
  8
0
  6
BYBLOCK
 62
     1
100
AcDbLine
 10
55.0
 20
-3.0
 30
0.0
 11
55.0
 21
-10.452606
 31
0.0
  0
LINE
  5
1A0
100
AcDbEntity
  8
0
  6
BYBLOCK
 62
     1
100
AcDbLine
 10
61.0
 20
-9.452606
 30
0.0
 11
57.0
 21
-9.452606
 31
0.0
  0
INSERT
  5
1A1
100
AcDbEntity
  8
0
  6
BYBLOCK
 62
     1
100
AcDbBlockReference
  2
_OPEN30
 10
63.0
 20
-9.452606
 30
0.0
 41
2.0
 42
2.0
 43
2.0
  0
INSERT
  5
1A2
100
AcDbEntity
  8
0
  6
BYBLOCK
 62
     1
100
AcDbBlockReference
  2
_OPEN30
 10
55.0
 20
-9.452606
 30
0.0
 41
2.0
 42
2.0
 43
2.0
 50
180.0
  0
MTEXT
  5
1A3
100
AcDbEntity
  8
0
  6
BYBLOCK
 62
     1
100
AcDbMText
 10
59.0
 20
-6.952606
 30
0.0
 40
3.0
 41
0.0
 71
     5
 72
     1
  1
\A1;8
  0
POINT
  5
1A4
100
AcDbEntity
  8
DEFPOINTS
  6
BYBLOCK
 62
     0
100
AcDbPoint
 10
63.0
 20
7.0
 30
0.0
  0
POINT
  5
1A5
100
AcDbEntity
  8
DEFPOINTS
  6
BYBLOCK
 62
     0
100
AcDbPoint
 10
55.0
 20
-2.0
 30
0.0
  0
POINT
  5
1A6
100
AcDbEntity
  8
DEFPOINTS
  6
BYBLOCK
 62
     0
100
AcDbPoint
 10
55.0
 20
-9.452606
 30
0.0
  0
ENDBLK
  5
1A7
100
AcDbEntity
  8
0
100
AcDbBlockEnd
  0
BLOCK
  5
1AA
100
AcDbEntity
  8
0
100
AcDbBlockBegin
  2
*D9
 70
     1
 10
0.0
 20
0.0
 30
0.0
  3
*D9
  1

  0
LINE
  5
1AB
100
AcDbEntity
  8
0
  6
BYBLOCK
 62
     1
100
AcDbLine
 10
63.0
 20
6.0
 30
0.0
 11
63.0
 21
-30.534541
 31
0.0
  0
LINE
  5
1AC
100
AcDbEntity
  8
0
  6
BYBLOCK
 62
     1
100
AcDbLine
 10
0.0
 20
-0.99
 30
0.0
 11
0.0
 21
-30.534541
 31
0.0
  0
LINE
  5
1AD
100
AcDbEntity
  8
0
  6
BYBLOCK
 62
     1
100
AcDbLine
 10
61.0
 20
-29.534541
 30
0.0
 11
2.0
 21
-29.534541
 31
0.0
  0
INSERT
  5
1AE
100
AcDbEntity
  8
0
  6
BYBLOCK
 62
     1
100
AcDbBlockReference
  2
_OPEN30
 10
63.0
 20
-29.534541
 30
0.0
 41
2.0
 42
2.0
 43
2.0
  0
INSERT
  5
1AF
100
AcDbEntity
  8
0
  6
BYBLOCK
 62
     1
100
AcDbBlockReference
  2
_OPEN30
 10
0.0
 20
-29.534541
 30
0.0
 41
2.0
 42
2.0
 43
2.0
 50
180.0
  0
MTEXT
  5
1B0
100
AcDbEntity
  8
0
  6
BYBLOCK
 62
     1
100
AcDbMText
 10
31.5
 20
-27.034541
 30
0.0
 40
3.0
 41
0.0
 71
     5
 72
     1
  1
\A1;63
  0
POINT
  5
1B1
100
AcDbEntity
  8
DEFPOINTS
  6
BYBLOCK
 62
     0
100
AcDbPoint
 10
63.0
 20
7.0
 30
0.0
  0
POINT
  5
1B2
100
AcDbEntity
  8
DEFPOINTS
  6
BYBLOCK
 62
     0
100
AcDbPoint
 10
0.0
 20
0.01
 30
0.0
  0
POINT
  5
1B3
100
AcDbEntity
  8
DEFPOINTS
  6
BYBLOCK
 62
     0
100
AcDbPoint
 10
0.0
 20
-29.534541
 30
0.0
  0
ENDBLK
  5
1B4
100
AcDbEntity
  8
0
100
AcDbBlockEnd
  0
BLOCK
  5
24B
100
AcDbEntity
  8
0
100
AcDbBlockBegin
  2
*D10
 70
     1
 10
0.0
 20
0.0
 30
0.0
  3
*D10
  1

  0
LINE
  5
24C
100
AcDbEntity
  8
0
  6
BYBLOCK
 62
     1
100
AcDbLine
 10
-0.998608
 20
-59.133433
 30
0.0
 11
-6.747906
 21
-59.133433
 31
0.0
  0
LINE
  5
24D
100
AcDbEntity
  8
0
  6
BYBLOCK
 62
     1
100
AcDbLine
 10
3.757715
 20
-75.123541
 30
0.0
 11
-6.747906
 21
-75.123541
 31
0.0
  0
LINE
  5
24E
100
AcDbEntity
  8
0
  6
BYBLOCK
 62
     1
100
AcDbLine
 10
-5.747906
 20
-61.133433
 30
0.0
 11
-5.747906
 21
-73.123541
 31
0.0
  0
INSERT
  5
24F
100
AcDbEntity
  8
0
  6
BYBLOCK
 62
     1
100
AcDbBlockReference
  2
_OPEN30
 10
-5.747906
 20
-59.133433
 30
0.0
 41
2.0
 42
2.0
 43
2.0
 50
90.0
  0
INSERT
  5
250
100
AcDbEntity
  8
0
  6
BYBLOCK
 62
     1
100
AcDbBlockReference
  2
_OPEN30
 10
-5.747906
 20
-75.123541
 30
0.0
 41
2.0
 42
2.0
 43
2.0
 50
270.0
  0
MTEXT
  5
251
100
AcDbEntity
  8
0
  6
BYBLOCK
 62
     1
100
AcDbMText
 10
-8.247906
 20
-67.128487
 30
0.0
 40
3.0
 41
0.0
 71
     5
 72
     1
  1
\A1;16
 11
0.0
 21
1.0
 31
0.0
  0
POINT
  5
252
100
AcDbEntity
  8
DEFPOINTS
  6
BYBLOCK
 62
     0
100
AcDbPoint
 10
0.001392
 20
-59.133433
 30
0.0
  0
POINT
  5
253
100
AcDbEntity
  8
DEFPOINTS
  6
BYBLOCK
 62
     0
100
AcDbPoint
 10
4.757715
 20
-75.123541
 30
0.0
  0
POINT
  5
254
100
AcDbEntity
  8
DEFPOINTS
  6
BYBLOCK
 62
     0
100
AcDbPoint
 10
-5.747906
 20
-75.123541
 30
0.0
  0
ENDBLK
  5
255
100
AcDbEntity
  8
0
100
AcDbBlockEnd
  0
BLOCK
  5
1C4
100
AcDbEntity
  8
0
100
AcDbBlockBegin
  2
*D11
 70
     1
 10
0.0
 20
0.0
 30
0.0
  3
*D11
  1

  0
LINE
  5
1C5
100
AcDbEntity
  8
0
  6
BYBLOCK
 62
     1
100
AcDbLine
 10
56.0
 20
-44.0
 30
0.0
 11
75.274444
 21
-44.0
 31
0.0
  0
LINE
  5
1C6
100
AcDbEntity
  8
0
  6
BYBLOCK
 62
     1
100
AcDbLine
 10
56.0
 20
-60.0
 30
0.0
 11
75.274444
 21
-60.0
 31
0.0
  0
LINE
  5
1C7
100
AcDbEntity
  8
0
  6
BYBLOCK
 62
     1
100
AcDbLine
 10
74.274444
 20
-46.0
 30
0.0
 11
74.274444
 21
-58.0
 31
0.0
  0
INSERT
  5
1C8
100
AcDbEntity
  8
0
  6
BYBLOCK
 62
     1
100
AcDbBlockReference
  2
_OPEN30
 10
74.274444
 20
-44.0
 30
0.0
 41
2.0
 42
2.0
 43
2.0
 50
90.0
  0
INSERT
  5
1C9
100
AcDbEntity
  8
0
  6
BYBLOCK
 62
     1
100
AcDbBlockReference
  2
_OPEN30
 10
74.274444
 20
-60.0
 30
0.0
 41
2.0
 42
2.0
 43
2.0
 50
270.0
  0
MTEXT
  5
1CA
100
AcDbEntity
  8
0
  6
BYBLOCK
 62
     1
100
AcDbMText
 10
71.774444
 20
-52.0
 30
0.0
 40
3.0
 41
0.0
 71
     5
 72
     1
  1
\A1;16
 11
0.0
 21
1.0
 31
0.0
  0
POINT
  5
1CB
100
AcDbEntity
  8
DEFPOINTS
  6
BYBLOCK
 62
     0
100
AcDbPoint
 10
55.0
 20
-44.0
 30
0.0
  0
POINT
  5
1CC
100
AcDbEntity
  8
DEFPOINTS
  6
BYBLOCK
 62
     0
100
AcDbPoint
 10
55.0
 20
-60.0
 30
0.0
  0
POINT
  5
1CD
100
AcDbEntity
  8
DEFPOINTS
  6
BYBLOCK
 62
     0
100
AcDbPoint
 10
74.274444
 20
-60.0
 30
0.0
  0
ENDBLK
  5
1CE
100
AcDbEntity
  8
0
100
AcDbBlockEnd
  0
BLOCK
  5
1EC
100
AcDbEntity
  8
0
100
AcDbBlockBegin
  2
*D12
 70
     1
 10
0.0
 20
0.0
 30
0.0
  3
*D12
  1

  0
LINE
  5
1ED
100
AcDbEntity
  8
0
  6
BYBLOCK
 62
     1
100
AcDbLine
 10
37.0
 20
-40.355408
 30
0.0
 11
37.0
 21
-33.879707
 31
0.0
  0
LINE
  5
1EE
100
AcDbEntity
  8
0
  6
BYBLOCK
 62
     1
100
AcDbLine
 10
39.0
 20
-40.422073
 30
0.0
 11
39.0
 21
-33.879707
 31
0.0
  0
LINE
  5
1EF
100
AcDbEntity
  8
0
  6
BYBLOCK
 62
     1
100
AcDbLine
 10
35.0
 20
-34.879707
 30
0.0
 11
33.0
 21
-34.879707
 31
0.0
  0
LINE
  5
1F0
100
AcDbEntity
  8
0
  6
BYBLOCK
 62
     1
100
AcDbLine
 10
41.0
 20
-34.879707
 30
0.0
 11
47.0
 21
-34.879707
 31
0.0
  0
LINE
  5
1F1
100
AcDbEntity
  8
0
  6
BYBLOCK
 62
     1
100
AcDbLine
 10
37.0
 20
-34.879707
 30
0.0
 11
39.0
 21
-34.879707
 31
0.0
  0
INSERT
  5
1F2
100
AcDbEntity
  8
0
  6
BYBLOCK
 62
     1
100
AcDbBlockReference
  2
_OPEN30
 10
37.0
 20
-34.879707
 30
0.0
 41
2.0
 42
2.0
 43
2.0
  0
INSERT
  5
1F3
100
AcDbEntity
  8
0
  6
BYBLOCK
 62
     1
100
AcDbBlockReference
  2
_OPEN30
 10
39.0
 20
-34.879707
 30
0.0
 41
2.0
 42
2.0
 43
2.0
 50
180.0
  0
MTEXT
  5
1F4
100
AcDbEntity
  8
0
  6
BYBLOCK
 62
     1
100
AcDbMText
 10
45.0
 20
-32.379707
 30
0.0
 40
3.0
 41
0.0
 71
     5
 72
     1
  1
\A1;2
  0
POINT
  5
1F5
100
AcDbEntity
  8
DEFPOINTS
  6
BYBLOCK
 62
     0
100
AcDbPoint
 10
37.0
 20
-41.355408
 30
0.0
  0
POINT
  5
1F6
100
AcDbEntity
  8
DEFPOINTS
  6
BYBLOCK
 62
     0
100
AcDbPoint
 10
39.0
 20
-41.422073
 30
0.0
  0
POINT
  5
1F7
100
AcDbEntity
  8
DEFPOINTS
  6
BYBLOCK
 62
     0
100
AcDbPoint
 10
39.0
 20
-34.879707
 30
0.0
  0
ENDBLK
  5
1F8
100
AcDbEntity
  8
0
100
AcDbBlockEnd
  0
BLOCK
  5
1E0
100
AcDbEntity
  8
0
100
AcDbBlockBegin
  2
*D13
 70
     1
 10
0.0
 20
0.0
 30
0.0
  3
*D13
  1

  0
LINE
  5
1E1
100
AcDbEntity
  8
0
  6
BYBLOCK
 62
     1
100
AcDbLine
 10
38.0
 20
-39.088745
 30
0.0
 11
38.0
 21
-24.366927
 31
0.0
  0
LINE
  5
1E2
100
AcDbEntity
  8
0
  6
BYBLOCK
 62
     1
100
AcDbLine
 10
63.0
 20
-51.5
 30
0.0
 11
63.0
 21
-24.366927
 31
0.0
  0
LINE
  5
1E3
100
AcDbEntity
  8
0
  6
BYBLOCK
 62
     1
100
AcDbLine
 10
40.0
 20
-25.366927
 30
0.0
 11
61.0
 21
-25.366927
 31
0.0
  0
INSERT
  5
1E4
100
AcDbEntity
  8
0
  6
BYBLOCK
 62
     1
100
AcDbBlockReference
  2
_OPEN30
 10
38.0
 20
-25.366927
 30
0.0
 41
2.0
 42
2.0
 43
2.0
 50
180.0
  0
INSERT
  5
1E5
100
AcDbEntity
  8
0
  6
BYBLOCK
 62
     1
100
AcDbBlockReference
  2
_OPEN30
 10
63.0
 20
-25.366927
 30
0.0
 41
2.0
 42
2.0
 43
2.0
  0
MTEXT
  5
1E6
100
AcDbEntity
  8
0
  6
BYBLOCK
 62
     1
100
AcDbMText
 10
50.5
 20
-22.866927
 30
0.0
 40
3.0
 41
0.0
 71
     5
 72
     1
  1
\A1;25
  0
POINT
  5
1E7
100
AcDbEntity
  8
DEFPOINTS
  6
BYBLOCK
 62
     0
100
AcDbPoint
 10
38.0
 20
-40.088745
 30
0.0
  0
POINT
  5
1E8
100
AcDbEntity
  8
DEFPOINTS
  6
BYBLOCK
 62
     0
100
AcDbPoint
 10
63.0
 20
-52.5
 30
0.0
  0
POINT
  5
1E9
100
AcDbEntity
  8
DEFPOINTS
  6
BYBLOCK
 62
     0
100
AcDbPoint
 10
63.0
 20
-25.366927
 30
0.0
  0
ENDBLK
  5
1EA
100
AcDbEntity
  8
0
100
AcDbBlockEnd
  0
BLOCK
  5
20A
100
AcDbEntity
  8
0
100
AcDbBlockBegin
  2
*D14
 70
     1
 10
0.0
 20
0.0
 30
0.0
  3
*D14
  1

  0
LINE
  5
20B
100
AcDbEntity
  8
0
  6
BYBLOCK
 62
     1
100
AcDbLine
 10
111.745657
 20
-61.74567
 30
0.0
 11
118.189078
 21
-68.189092
 31
0.0
  0
LINE
  5
20C
100
AcDbEntity
  8
0
  6
BYBLOCK
 62
     1
100
AcDbLine
 10
110.999987
 20
-60.0
 30
0.0
 11
121.581111
 21
-60.0
 31
0.0
  0
ARC
  5
20D
100
AcDbEntity
  8
0
  6
BYBLOCK
 62
     1
100
AcDbCircle
 10
109.999987
 20
-60.0
 30
0.0
 40
10.581124
100
AcDbArc
 50
325.845993
 51
349.154003
  0
INSERT
  5
20E
100
AcDbEntity
  8
0
  6
BYBLOCK
 62
     1
100
AcDbBlockReference
  2
_OPEN30
 10
117.481971
 20
-67.481985
 30
0.0
 41
2.0
 42
2.0
 43
2.0
 50
230.422995
  0
INSERT
  5
20F
100
AcDbEntity
  8
0
  6
BYBLOCK
 62
     1
100
AcDbBlockReference
  2
_OPEN30
 10
120.581111
 20
-60.0
 30
0.0
 41
2.0
 42
2.0
 43
2.0
 50
84.577002
  0
MTEXT
  5
210
100
AcDbEntity
  8
0
  6
BYBLOCK
 62
     1
100
AcDbMText
 10
122.284493
 20
-55.504813
 30
0.0
 40
3.0
 41
0.0
 71
     5
 72
     1
  1
\A1;45°
 11
0.343639
 21
-0.939102
 31
0.0
  0
POINT
  5
211
100
AcDbEntity
  8
DEFPOINTS
  6
BYBLOCK
 62
     0
100
AcDbPoint
 10
119.163509
 20
-65.290562
 30
0.0
  0
POINT
  5
212
100
AcDbEntity
  8
DEFPOINTS
  6
BYBLOCK
 62
     0
100
AcDbPoint
 10
96.074463
 20
-46.074474
 30
0.0
  0
POINT
  5
213
100
AcDbEntity
  8
DEFPOINTS
  6
BYBLOCK
 62
     0
100
AcDbPoint
 10
93.0
 20
-60.0
 30
0.0
  0
POINT
  5
214
100
AcDbEntity
  8
DEFPOINTS
  6
BYBLOCK
 62
     0
100
AcDbPoint
 10
95.0
 20
-60.0
 30
0.0
  0
POINT
  5
215
100
AcDbEntity
  8
DEFPOINTS
  6
BYBLOCK
 62
     0
100
AcDbPoint
 10
111.03855
 20
-61.038563
 30
0.0
  0
ENDBLK
  5
216
100
AcDbEntity
  8
0
100
AcDbBlockEnd
  0
BLOCK
  5
21E
100
AcDbEntity
  8
0
 62
     1
100
AcDbBlockBegin
  2
A$C32812189
 70
     0
 10
0.0
 20
0.0
 30
0.0
  3
A$C32812189
  1

  0
LINE
  5
218
100
AcDbEntity
  8
寸法
  6
CONTINUOUS
 62
     1
100
AcDbLine
 10
15.761553
 20
5.006003
 30
0.0
 11
8.032379
 21
5.006003
 31
0.0
  0
INSERT
  5
219
100
AcDbEntity
  8
寸法
  6
CONTINUOUS
 62
     1
100
AcDbBlockReference
  2
_OPEN30
 10
8.032379
 20
14.988109
 30
0.0
 41
2.0
 42
2.0
 43
2.0
 50
90.0
  0
TEXT
  5
21A
100
AcDbEntity
  8
寸法
  6
CONTINUOUS
100
AcDbText
 10
0.0
 20
12.495593
 30
0.0
 40
3.0
  1
10°
100
AcDbText
  0
LINE
  5
21B
100
AcDbEntity
  8
寸法
  6
CONTINUOUS
 62
     1
100
AcDbLine
 10
8.032379
 20
12.988109
 30
0.0
 11
8.032379
 21
5.006003
 31
0.0
  0
INSERT
  5
21C
100
AcDbEntity
  8
寸法
  6
CONTINUOUS
 62
     1
100
AcDbBlockReference
  2
_OPEN30
 10
17.761553
 20
5.006003
 30
0.0
 41
2.0
 42
2.0
 43
2.0
  0
TEXT
  5
21D
100
AcDbEntity
  8
寸法
  6
CONTINUOUS
100
AcDbText
 10
15.668248
 20
0.0
 30
0.0
 40
3.0
  1
10°
100
AcDbText
  0
ENDBLK
  5
21F
100
AcDbEntity
  8
0
 62
     1
100
AcDbBlockEnd
  0
ENDSEC
  0
SECTION
  2
ENTITIES
  0
POINT
  5
24
100
AcDbEntity
  8
0
  6
CONTINUOUS
 62
     7
100
AcDbPoint
 10
93.0
 20
-75.123545
 30
0.0
  0
POINT
  5
25
100
AcDbEntity
  8
0
  6
CONTINUOUS
 62
     7
100
AcDbPoint
 10
0.0
 20
0.0
 30
0.0
  0
POINT
  5
26
100
AcDbEntity
  8
0
  6
CONTINUOUS
 62
     7
100
AcDbPoint
 10
0.000001
 20
-59.123541
 30
0.0
  0
POINT
  5
27
100
AcDbEntity
  8
0
  6
CONTINUOUS
 62
     7
100
AcDbPoint
 10
-28.999954
 20
0.0
 30
0.0
  0
LINE
  5
28
100
AcDbEntity
  8
0
  6
CONTINUOUS
 62
     7
100
AcDbLine
 10
12.287492
 20
8.017945
 30
0.0
 11
0.4
 21
1.154698
 31
0.0
  0
LINE
  5
29
100
AcDbEntity
  8
0
  6
CONTINUOUS
 62
     7
100
AcDbLine
 10
55.0
 20
15.0
 30
0.0
 11
55.0
 21
-2.0
 31
0.0
  0
LINE
  5
2A
100
AcDbEntity
  8
0
  6
CENTER
 62
     1
100
AcDbLine
 10
52.757568
 20
-67.623545
 30
0.0
 11
64.581161
 21
-67.623545
 31
0.0
  0
LINE
  5
2B
100
AcDbEntity
  8
0
  6
CONTINUOUS
 62
     7
100
AcDbLine
 10
63.0
 20
-65.623545
 30
0.0
 11
63.0
 21
-69.623545
 31
0.0
  0
LINE
  5
2C
100
AcDbEntity
  8
0
  6
CONTINUOUS
 62
     7
100
AcDbLine
 10
58.0
 20
-63.623545
 30
0.0
 11
58.0
 21
-71.623545
 31
0.0
  0
LINE
  5
2D
100
AcDbEntity
  8
0
  6
CONTINUOUS
 62
     7
100
AcDbLine
 10
60.499992
 20
-72.123537
 30
0.0
 11
62.999992
 21
-69.623537
 31
0.0
  0
LINE
  5
2E
100
AcDbEntity
  8
0
  6
CONTINUOUS
 62
     7
100
AcDbLine
 10
60.499989
 20
-63.123534
 30
0.0
 11
62.999992
 21
-65.623534
 31
0.0
  0
LINE
  5
2F
100
AcDbEntity
  8
0
  6
CONTINUOUS
 62
     7
100
AcDbLine
 10
58.5
 20
-63.123545
 30
0.0
 11
60.5
 21
-63.123545
 31
0.0
  0
LINE
  5
30
100
AcDbEntity
  8
0
  6
CONTINUOUS
 62
     7
100
AcDbLine
 10
58.5
 20
-72.123545
 30
0.0
 11
60.5
 21
-72.123545
 31
0.0
  0
LINE
  5
31
100
AcDbEntity
  8
0
  6
CONTINUOUS
 62
     7
100
AcDbLine
 10
57.999992
 20
-71.623537
 30
0.0
 11
58.499992
 21
-72.123537
 31
0.0
  0
LINE
  5
32
100
AcDbEntity
  8
0
  6
CONTINUOUS
 62
     7
100
AcDbLine
 10
57.999989
 20
-63.623534
 30
0.0
 11
58.499989
 21
-63.123534
 31
0.0
  0
LINE
  5
33
100
AcDbEntity
  8
0
  6
CONTINUOUS
 62
     7
100
AcDbLine
 10
58.5
 20
-72.123545
 30
0.0
 11
58.5
 21
-63.123545
 31
0.0
  0
LINE
  5
34
100
AcDbEntity
  8
0
  6
CONTINUOUS
 62
     7
100
AcDbLine
 10
60.5
 20
-63.123545
 30
0.0
 11
60.5
 21
-72.123545
 31
0.0
  0
LINE
  5
35
100
AcDbEntity
  8
0
  6
CONTINUOUS
 62
     7
100
AcDbLine
 10
55.0
 20
-65.123545
 30
0.0
 11
58.0
 21
-65.123545
 31
0.0
  0
LINE
  5
36
100
AcDbEntity
  8
0
  6
CONTINUOUS
 62
     7
100
AcDbLine
 10
55.0
 20
-70.123545
 30
0.0
 11
58.0
 21
-70.123545
 31
0.0
  0
LINE
  5
37
100
AcDbEntity
  8
0
  6
CONTINUOUS
 62
     7
100
AcDbLine
 10
56.5
 20
-65.373545
 30
0.0
 11
56.5
 21
-69.873545
 31
0.0
  0
LINE
  5
38
100
AcDbEntity
  8
0
  6
CONTINUOUS
 62
     7
100
AcDbLine
 10
55.0
 20
-69.873545
 30
0.0
 11
56.5
 21
-69.873545
 31
0.0
  0
LINE
  5
39
100
AcDbEntity
  8
0
  6
CONTINUOUS
 62
     7
100
AcDbLine
 10
55.0
 20
-65.373545
 30
0.0
 11
56.5
 21
-65.373545
 31
0.0
  0
LINE
  5
3A
100
AcDbEntity
  8
0
  6
CONTINUOUS
 62
     7
100
AcDbLine
 10
56.499992
 20
-65.37353
 30
0.0
 11
56.933006
 21
-65.12353
 31
0.0
  0
LINE
  5
3B
100
AcDbEntity
  8
0
  6
CONTINUOUS
 62
     7
100
AcDbLine
 10
56.499989
 20
-69.873534
 30
0.0
 11
56.933002
 21
-70.123534
 31
0.0
  0
LINE
  5
3C
100
AcDbEntity
  8
0
  6
CONTINUOUS
 62
     7
100
AcDbLine
 10
-45.0
 20
14.0
 30
0.0
 11
-45.0
 21
-1.270059
 31
0.0
  0
LINE
  5
3D
100
AcDbEntity
  8
0
  6
CENTER
 62
     1
100
AcDbLine
 10
52.757568
 20
7.0
 30
0.0
 11
64.581161
 21
7.0
 31
0.0
  0
LINE
  5
3E
100
AcDbEntity
  8
0
  6
CONTINUOUS
 62
     7
100
AcDbLine
 10
63.0
 20
9.0
 30
0.0
 11
63.0
 21
5.0
 31
0.0
  0
LINE
  5
3F
100
AcDbEntity
  8
0
  6
CONTINUOUS
 62
     7
100
AcDbLine
 10
58.0
 20
11.0
 30
0.0
 11
58.0
 21
3.0
 31
0.0
  0
LINE
  5
40
100
AcDbEntity
  8
0
  6
CONTINUOUS
 62
     7
100
AcDbLine
 10
60.499977
 20
2.500003
 30
0.0
 11
62.999981
 21
5.000005
 31
0.0
  0
LINE
  5
41
100
AcDbEntity
  8
0
  6
CONTINUOUS
 62
     7
100
AcDbLine
 10
60.499977
 20
11.49999
 30
0.0
 11
62.999969
 21
8.999999
 31
0.0
  0
LINE
  5
42
100
AcDbEntity
  8
0
  6
CONTINUOUS
 62
     7
100
AcDbLine
 10
58.5
 20
11.5
 30
0.0
 11
60.5
 21
11.5
 31
0.0
  0
LINE
  5
43
100
AcDbEntity
  8
0
  6
CONTINUOUS
 62
     7
100
AcDbLine
 10
58.5
 20
2.5
 30
0.0
 11
60.5
 21
2.5
 31
0.0
  0
LINE
  5
44
100
AcDbEntity
  8
0
  6
CONTINUOUS
 62
     7
100
AcDbLine
 10
57.999977
 20
3.000006
 30
0.0
 11
58.499989
 21
2.499994
 31
0.0
  0
LINE
  5
45
100
AcDbEntity
  8
0
  6
CONTINUOUS
 62
     7
100
AcDbLine
 10
57.999989
 20
10.999999
 30
0.0
 11
58.499989
 21
11.499999
 31
0.0
  0
LINE
  5
46
100
AcDbEntity
  8
0
  6
CONTINUOUS
 62
     7
100
AcDbLine
 10
58.5
 20
2.5
 30
0.0
 11
58.5
 21
11.5
 31
0.0
  0
LINE
  5
47
100
AcDbEntity
  8
0
  6
CONTINUOUS
 62
     7
100
AcDbLine
 10
60.5
 20
11.5
 30
0.0
 11
60.5
 21
2.5
 31
0.0
  0
LINE
  5
48
100
AcDbEntity
  8
0
  6
CONTINUOUS
 62
     7
100
AcDbLine
 10
55.0
 20
9.5
 30
0.0
 11
58.0
 21
9.5
 31
0.0
  0
LINE
  5
49
100
AcDbEntity
  8
0
  6
CONTINUOUS
 62
     7
100
AcDbLine
 10
55.0
 20
4.5
 30
0.0
 11
58.0
 21
4.5
 31
0.0
  0
LINE
  5
4A
100
AcDbEntity
  8
0
  6
CONTINUOUS
 62
     7
100
AcDbLine
 10
56.5
 20
9.25
 30
0.0
 11
56.5
 21
4.75
 31
0.0
  0
LINE
  5
4B
100
AcDbEntity
  8
0
  6
CONTINUOUS
 62
     7
100
AcDbLine
 10
55.0
 20
4.75
 30
0.0
 11
56.5
 21
4.75
 31
0.0
  0
LINE
  5
4C
100
AcDbEntity
  8
0
  6
CONTINUOUS
 62
     7
100
AcDbLine
 10
55.0
 20
9.25
 30
0.0
 11
56.5
 21
9.25
 31
0.0
  0
LINE
  5
4D
100
AcDbEntity
  8
0
  6
CONTINUOUS
 62
     7
100
AcDbLine
 10
56.499996
 20
9.250007
 30
0.0
 11
56.93301
 21
9.500007
 31
0.0
  0
LINE
  5
4E
100
AcDbEntity
  8
0
  6
CONTINUOUS
 62
     7
100
AcDbLine
 10
56.499989
 20
4.749983
 30
0.0
 11
56.933002
 21
4.499983
 31
0.0
  0
LINE
  5
4F
100
AcDbEntity
  8
0
  6
CONTINUOUS
 62
     7
100
AcDbLine
 10
55.0
 20
-59.123545
 30
0.0
 11
55.0
 21
-75.123545
 31
0.0
  0
LINE
  5
50
100
AcDbEntity
  8
0
  6
CENTER
 62
     1
100
AcDbLine
 10
38.0
 20
9.349976
 30
0.0
 11
38.0
 21
-2.704923
 31
0.0
  0
LINE
  5
51
100
AcDbEntity
  8
0
  6
CENTER
 62
     1
100
AcDbLine
 10
37.0
 20
-56.478953
 30
0.0
 11
37.0
 21
-69.861048
 31
0.0
  0
LINE
  5
52
100
AcDbEntity
  8
0
  6
CENTER
 62
     1
100
AcDbLine
 10
38.0
 20
-55.21229
 30
0.0
 11
38.0
 21
-70.994379
 31
0.0
  0
LINE
  5
53
100
AcDbEntity
  8
0
  6
CENTER
 62
     1
100
AcDbLine
 10
39.0
 20
-56.545618
 30
0.0
 11
39.0
 21
-69.594385
 31
0.0
  0
LINE
  5
54
100
AcDbEntity
  8
0
  6
CONTINUOUS
 62
     7
100
AcDbLine
 10
93.0
 20
-69.496119
 30
0.0
 11
93.0
 21
-75.123545
 31
0.0
  0
LINE
  5
55
100
AcDbEntity
  8
0
  6
CONTINUOUS
 62
     7
100
AcDbLine
 10
93.0
 20
-75.123545
 30
0.0
 11
95.0
 21
-75.123545
 31
0.0
  0
LINE
  5
56
100
AcDbEntity
  8
0
  6
CONTINUOUS
 62
     7
100
AcDbLine
 10
4.757715
 20
-75.123545
 30
0.0
 11
55.0
 21
-75.123545
 31
0.0
  0
LINE
  5
57
100
AcDbEntity
  8
0
  6
CONTINUOUS
 62
     7
100
AcDbLine
 10
0.400001
 20
-0.230941
 30
0.0
 11
12.473144
 21
-7.201373
 31
0.0
  0
LINE
  5
58
100
AcDbEntity
  8
0
  6
CONTINUOUS
 62
     7
100
AcDbLine
 10
13.487501
 20
-7.201373
 30
0.0
 11
13.487501
 21
-0.87244
 31
0.0
  0
LINE
  5
59
100
AcDbEntity
  8
0
  6
CENTER
 62
     1
100
AcDbLine
 10
13.299999
 20
-66.806864
 30
0.0
 11
13.299999
 21
-76.606867
 31
0.0
  0
LINE
  5
5A
100
AcDbEntity
  8
0
  6
CENTER
 62
     1
100
AcDbLine
 10
8.208854
 20
-71.423533
 30
0.0
 11
18.742188
 21
-71.423533
 31
0.0
  0
LINE
  5
5B
100
AcDbEntity
  8
0
  6
CONTINUOUS
 62
     7
100
AcDbLine
 10
1.299999
 20
15.0
 30
0.0
 11
55.0
 21
15.0
 31
0.0
  0
LINE
  5
5C
100
AcDbEntity
  8
0
  6
CONTINUOUS
 62
     7
100
AcDbLine
 10
27.345207
 20
14.0
 30
0.0
 11
55.0
 21
14.0
 31
0.0
  0
LINE
  5
5D
100
AcDbEntity
  8
0
  6
CONTINUOUS
 62
     7
100
AcDbLine
 10
27.299999
 20
-2.0
 30
0.0
 11
55.0
 21
-2.0
 31
0.0
  0
LINE
  5
5E
100
AcDbEntity
  8
0
  6
CONTINUOUS
 62
     7
100
AcDbLine
 10
27.345207
 20
-59.123545
 30
0.0
 11
55.0
 21
-59.123545
 31
0.0
  0
LINE
  5
5F
100
AcDbEntity
  8
0
  6
CONTINUOUS
 62
     7
100
AcDbLine
 10
110.0
 20
-60.123545
 30
0.0
 11
110.0
 21
-74.044977
 31
0.0
  0
LINE
  5
60
100
AcDbEntity
  8
0
  6
CONTINUOUS
 62
     7
100
AcDbLine
 10
103.37257
 20
-59.123545
 30
0.0
 11
109.0
 21
-59.123545
 31
0.0
  0
LINE
  5
61
100
AcDbEntity
  8
0
  6
CONTINUOUS
 62
     7
100
AcDbLine
 10
108.99998
 20
-59.123545
 30
0.0
 11
109.99998
 21
-60.123545
 31
0.0
  0
LINE
  5
62
100
AcDbEntity
  8
0
  6
CENTER
 62
     1
100
AcDbLine
 10
96.074463
 20
-61.198019
 30
0.0
 11
111.03855
 21
-76.162108
 31
0.0
  0
LINE
  5
63
100
AcDbEntity
  8
0
  6
CONTINUOUS
 62
     7
100
AcDbLine
 10
103.37257
 20
-59.123549
 30
0.0
 11
92.999985
 21
-69.496134
 31
0.0
  0
LINE
  5
64
100
AcDbEntity
  8
0
  6
CONTINUOUS
 62
     7
100
AcDbLine
 10
102.22182
 20
-60.274302
 30
0.0
 11
109.99999
 21
-68.052477
 31
0.0
  0
LINE
  5
65
100
AcDbEntity
  8
0
  6
CONTINUOUS
 62
     7
100
AcDbLine
 10
95.150749
 20
-67.34537
 30
0.0
 11
102.92892
 21
-75.123545
 31
0.0
  0
LINE
  5
66
100
AcDbEntity
  8
0
  6
CONTINUOUS
 62
     7
100
AcDbLine
 10
27.299999
 20
-69.496119
 30
0.0
 11
55.0
 21
-69.496119
 31
0.0
  0
LINE
  5
67
100
AcDbEntity
  8
0
  6
CENTER
 62
     1
100
AcDbLine
 10
30.883713
 20
3.7
 30
0.0
 11
44.788254
 21
3.7
 31
0.0
  0
LINE
  5
68
100
AcDbEntity
  8
0
  6
CENTER
 62
     7
100
AcDbLine
 10
30.98584
 20
-63.809824
 30
0.0
 11
45.183426
 21
-63.809824
 31
0.0
  0
LINE
  5
69
100
AcDbEntity
  8
0
  6
CONTINUOUS
 62
     7
100
AcDbLine
 10
-44.0
 20
15.0
 30
0.0
 11
-30.0
 21
15.0
 31
0.0
  0
LINE
  5
6A
100
AcDbEntity
  8
0
  6
CONTINUOUS
 62
     7
100
AcDbLine
 10
-44.999985
 20
13.999995
 30
0.0
 11
-43.999981
 21
14.999996
 31
0.0
  0
LINE
  5
6B
100
AcDbEntity
  8
0
  6
CONTINUOUS
 62
     7
100
AcDbLine
 10
-29.0
 20
14.0
 30
0.0
 11
-29.0
 21
5.600297
 31
0.0
  0
LINE
  5
6C
100
AcDbEntity
  8
0
  6
CONTINUOUS
 62
     7
100
AcDbLine
 10
-29.99999
 20
14.999993
 30
0.0
 11
-28.99999
 21
13.999992
 31
0.0
  0
LINE
  5
6D
100
AcDbEntity
  8
0
  6
CONTINUOUS
 62
     7
100
AcDbLine
 10
1.299999
 20
15.0
 30
0.0
 11
1.299999
 21
1.674313
 31
0.0
  0
LINE
  5
6E
100
AcDbEntity
  8
0
  6
CONTINUOUS
 62
     7
100
AcDbLine
 10
13.487502
 20
-5.700001
 30
0.0
 11
25.163803
 21
-5.700001
 31
0.0
  0
LINE
  5
6F
100
AcDbEntity
  8
0
  6
CONTINUOUS
 62
     7
100
AcDbLine
 10
1.299999
 20
-58.623545
 30
0.0
 11
1.299999
 21
-59.19166
 31
0.0
  0
LINE
  5
70
100
AcDbEntity
  8
0
  6
CONTINUOUS
 62
     7
100
AcDbLine
 10
1.299999
 20
-65.623545
 30
0.0
 11
25.163803
 21
-65.623545
 31
0.0
  0
LINE
  5
71
100
AcDbEntity
  8
0
  6
CONTINUOUS
 62
     7
100
AcDbLine
 10
4.757715
 20
-75.123541
 30
0.0
 11
1.299996
 21
-65.623534
 31
0.0
  0
LINE
  5
72
100
AcDbEntity
  8
0
  6
CONTINUOUS
 62
     7
100
AcDbLine
 10
0.000001
 20
-59.123541
 30
0.0
 11
13.487502
 21
-59.830393
 31
0.0
  0
LINE
  5
73
100
AcDbEntity
  8
0
  6
CONTINUOUS
 62
     7
100
AcDbLine
 10
0.450854
 20
-62.331526
 30
0.0
 11
12.703769
 21
-62.973677
 31
0.0
  0
LINE
  5
74
100
AcDbEntity
  8
0
  6
CONTINUOUS
 62
     7
100
AcDbLine
 10
1.299999
 20
-62.376017
 30
0.0
 11
1.299999
 21
-65.62353
 31
0.0
  0
LINE
  5
75
100
AcDbEntity
  8
0
  6
CONTINUOUS
 62
     7
100
AcDbLine
 10
-35.499985
 20
-5.7
 30
0.0
 11
-32.754757
 21
-5.7
 31
0.0
  0
LINE
  5
76
100
AcDbEntity
  8
0
  6
CONTINUOUS
 62
     7
100
AcDbLine
 10
-35.499985
 20
1.674313
 30
0.0
 11
-35.499985
 21
-5.7
 31
0.0
  0
LINE
  5
77
100
AcDbEntity
  8
0
  6
CONTINUOUS
 62
     7
100
AcDbLine
 10
-44.999985
 20
-1.270066
 30
0.0
 11
-35.499977
 21
-5.699993
 31
0.0
  0
LINE
  5
78
100
AcDbEntity
  8
0
  6
CONTINUOUS
 62
     7
100
AcDbLine
 10
1.3
 20
4.445596
 30
0.0
 11
3.700001
 21
3.059955
 31
0.0
  0
LINE
  5
79
100
AcDbEntity
  8
0
  6
CONTINUOUS
 62
     7
100
AcDbLine
 10
1.299999
 20
5.600297
 30
0.0
 11
4.700001
 21
3.637305
 31
0.0
  0
LINE
  5
7A
100
AcDbEntity
  8
0
  6
CONTINUOUS
 62
     7
100
AcDbLine
 10
13.487501
 20
-2.59086
 30
0.0
 11
18.87269
 21
-5.7
 31
0.0
  0
LINE
  5
7B
100
AcDbEntity
  8
0
  6
CONTINUOUS
 62
     7
100
AcDbLine
 10
13.487501
 20
-1.43616
 30
0.0
 11
20.872681
 21
-5.699995
 31
0.0
  0
LINE
  5
7C
100
AcDbEntity
  8
0
  6
CONTINUOUS
 62
     7
100
AcDbLine
 10
0.000001
 20
-59.123541
 30
0.0
 11
0.450853
 21
-62.331518
 31
0.0
  0
LINE
  5
7D
100
AcDbEntity
  8
0
  6
CONTINUOUS
 62
     7
100
AcDbLine
 10
13.487479
 20
-59.830382
 30
0.0
 11
12.087645
 21
-65.444815
 31
0.0
  0
LINE
  5
7E
100
AcDbEntity
  8
0
  6
CONTINUOUS
 62
     7
100
AcDbLine
 10
95.0
 20
-75.123534
 30
0.0
 11
108.9947
 21
-75.050257
 31
0.0
  0
LINE
  5
7F
100
AcDbEntity
  8
0
  6
CONTINUOUS
 62
     7
100
AcDbLine
 10
109.99999
 20
-74.044981
 30
0.0
 11
108.9947
 21
-75.050261
 31
0.0
  0
LINE
  5
80
100
AcDbEntity
  8
0
  6
CONTINUOUS
 62
     7
100
AcDbLine
 10
37.0
 20
-60.274287
 30
0.0
 11
39.0
 21
-60.274287
 31
0.0
  0
LINE
  5
81
100
AcDbEntity
  8
0
  6
CONTINUOUS
 62
     7
100
AcDbLine
 10
37.0
 20
-67.345362
 30
0.0
 11
39.0
 21
-67.345362
 31
0.0
  0
LINE
  5
82
100
AcDbEntity
  8
0
  6
CONTINUOUS
 62
     7
100
AcDbLine
 10
37.0
 20
7.221829
 30
0.0
 11
39.0
 21
7.221829
 31
0.0
  0
LINE
  5
83
100
AcDbEntity
  8
0
  6
CONTINUOUS
 62
     7
100
AcDbLine
 10
37.0
 20
0.15077
 30
0.0
 11
39.0
 21
0.15077
 31
0.0
  0
LINE
  5
84
100
AcDbEntity
  8
0
  6
CONTINUOUS
 62
     7
100
AcDbLine
 10
27.299988
 20
8.372574
 30
0.0
 11
55.0
 21
8.372574
 31
0.0
  0
LINE
  5
85
100
AcDbEntity
  8
0
  6
CENTER
 62
     1
100
AcDbLine
 10
16.717554
 20
13.618371
 30
0.0
 11
24.921963
 21
-0.59208
 31
0.0
  0
LINE
  5
86
100
AcDbEntity
  8
0
  6
CENTER
 62
     1
100
AcDbLine
 10
6.860408
 20
-0.614644
 30
0.0
 11
28.447659
 21
11.848762
 31
0.0
  0
LINE
  5
87
100
AcDbEntity
  8
0
  6
CONTINUOUS
 62
     7
100
AcDbLine
 10
8.167379
 20
2.427707
 30
0.0
 11
10.148648
 21
-1.00395
 31
0.0
  0
LINE
  5
88
100
AcDbEntity
  8
0
  6
CONTINUOUS
 62
     7
100
AcDbLine
 10
8.32755
 20
3.636063
 30
0.0
 11
16.18121
 21
11.462012
 31
0.0
  0
LINE
  5
89
100
AcDbEntity
  8
0
  6
CONTINUOUS
 62
     7
100
AcDbLine
 10
11.275202
 20
-1.469416
 30
0.0
 11
21.979502
 21
1.419078
 31
0.0
  0
LINE
  5
8A
100
AcDbEntity
  8
0
  6
CONTINUOUS
 62
     7
100
AcDbLine
 10
24.395088
 20
11.702939
 30
0.0
 11
24.7491
 21
11.907328
 31
0.0
  0
LINE
  5
8B
100
AcDbEntity
  8
0
  6
CONTINUOUS
 62
     7
100
AcDbLine
 10
26.295088
 20
8.412042
 30
0.0
 11
26.649099
 21
8.61643
 31
0.0
  0
LINE
  5
8C
100
AcDbEntity
  8
0
  6
CENTER
 62
     7
100
AcDbLine
 10
24.449099
 20
12.426943
 30
0.0
 11
26.949099
 21
8.096816
 31
0.0
  0
LINE
  5
8D
100
AcDbEntity
  8
0
  6
CONTINUOUS
 62
     7
100
AcDbLine
 10
25.163803
 20
-5.700001
 30
0.0
 11
27.299999
 21
-2.0
 31
0.0
  0
LINE
  5
8E
100
AcDbEntity
  8
0
  6
CONTINUOUS
 62
     7
100
AcDbLine
 10
25.163803
 20
-59.874193
 30
0.0
 11
25.163803
 21
-65.623545
 31
0.0
  0
LINE
  5
8F
100
AcDbEntity
  8
0
  6
CONTINUOUS
 62
     7
100
AcDbLine
 10
1.299999
 20
-58.623545
 30
0.0
 11
7.906091
 21
-58.969755
 31
0.0
  0
LINE
  5
90
100
AcDbEntity
  8
0
  6
CONTINUOUS
 62
     7
100
AcDbLine
 10
27.299997
 20
-59.986147
 30
0.0
 11
27.345205
 21
-59.123545
 31
0.0
  0
LINE
  5
91
100
AcDbEntity
  8
0
  6
CONTINUOUS
 62
     7
100
AcDbLine
 10
27.345207
 20
14.0
 30
0.0
 11
27.345207
 21
11.210738
 31
0.0
  0
LINE
  5
92
100
AcDbEntity
  8
0
  6
CONTINUOUS
 62
     7
100
AcDbLine
 10
27.299999
 20
15.0
 30
0.0
 11
27.299999
 21
11.285169
 31
0.0
  0
LINE
  5
93
100
AcDbEntity
  8
0
  6
CONTINUOUS
 62
     7
100
AcDbLine
 10
27.345207
 20
14.0
 30
0.0
 11
27.299999
 21
15.0
 31
0.0
  0
LINE
  5
94
100
AcDbEntity
  8
0
  6
CONTINUOUS
 62
     7
100
AcDbLine
 10
27.299999
 20
9.23859
 30
0.0
 11
27.299999
 21
-2.0
 31
0.0
  0
LINE
  5
95
100
AcDbEntity
  8
0
  6
CONTINUOUS
 62
     7
100
AcDbLine
 10
27.345207
 20
9.313021
 30
0.0
 11
27.345207
 21
-2.0
 31
0.0
  0
LINE
  5
96
100
AcDbEntity
  8
0
  6
CONTINUOUS
 62
     7
100
AcDbLine
 10
27.299999
 20
-59.986147
 30
0.0
 11
27.299999
 21
-75.123545
 31
0.0
  0
LINE
  5
97
100
AcDbEntity
  8
0
  6
CONTINUOUS
 62
     7
100
AcDbLine
 10
27.300001
 20
-75.123549
 30
0.0
 11
25.163803
 21
-65.623545
 31
0.0
  0
LINE
  5
98
100
AcDbEntity
  8
0
  6
CONTINUOUS
 62
     7
100
AcDbLine
 10
13.487502
 20
-59.262266
 30
0.0
 11
13.487502
 21
-59.830393
 31
0.0
  0
LINE
  5
99
100
AcDbEntity
  8
0
  6
CONTINUOUS
 62
     7
100
AcDbLine
 10
13.487502
 20
-59.262266
 30
0.0
 11
27.299999
 21
-59.986147
 31
0.0
  0
LINE
  5
9A
100
AcDbEntity
  8
0
  6
CONTINUOUS
 62
     7
100
AcDbLine
 10
8.033406
 20
-56.540438
 30
0.0
 11
10.533015
 21
-56.671439
 31
0.0
  0
LINE
  5
9B
100
AcDbEntity
  8
0
  6
CONTINUOUS
 62
     7
100
AcDbLine
 10
15.161458
 20
-52.908514
 30
0.0
 11
26.416346
 21
-53.498358
 31
0.0
  0
LINE
  5
9C
100
AcDbEntity
  8
0
  6
CONTINUOUS
 62
     7
100
AcDbLine
 10
26.311674
 20
-55.495619
 30
0.0
 11
27.5991
 21
-55.56309
 31
0.0
  0
LINE
  5
9D
100
AcDbEntity
  8
0
  6
CONTINUOUS
 62
     7
100
AcDbLine
 10
8.033406
 20
-56.540438
 30
0.0
 11
7.876398
 21
-59.536326
 31
0.0
  0
LINE
  5
9E
100
AcDbEntity
  8
0
  6
CONTINUOUS
 62
     7
100
AcDbLine
 10
10.533015
 20
-56.671439
 30
0.0
 11
10.376007
 21
-59.667326
 31
0.0
  0
LINE
  5
9F
100
AcDbEntity
  8
0
  6
CONTINUOUS
 62
     7
100
AcDbLine
 10
27.5991
 20
-55.56309
 30
0.0
 11
27.412504
 21
-59.123545
 31
0.0
  0
LINE
  5
A0
100
AcDbEntity
  8
0
  6
CONTINUOUS
 62
     7
100
AcDbLine
 10
26.416346
 20
-53.498358
 30
0.0
 11
26.079685
 21
-59.922194
 31
0.0
  0
LINE
  5
A1
100
AcDbEntity
  8
0
  6
CONTINUOUS
 62
     7
100
AcDbLine
 10
-29.706848
 20
-7.201373
 30
0.0
 11
-28.954617
 21
0.461879
 31
0.0
  0
LINE
  5
A2
100
AcDbEntity
  8
0
  6
CONTINUOUS
 62
     7
100
AcDbLine
 10
-34.661915
 20
0.461879
 30
0.0
 11
-28.954617
 21
0.461879
 31
0.0
  0
LINE
  5
A3
100
AcDbEntity
  8
0
  6
CONTINUOUS
 62
     7
100
AcDbLine
 10
-32.811253
 20
-6.275541
 30
0.0
 11
-32.149899
 21
0.461879
 31
0.0
  0
LINE
  5
A4
100
AcDbEntity
  8
0
  6
CONTINUOUS
 62
     7
100
AcDbLine
 10
-29.706846
 20
-7.201373
 30
0.0
 11
-32.811249
 21
-6.275542
 31
0.0
  0
LINE
  5
A5
100
AcDbEntity
  8
0
  6
CONTINUOUS
 62
     7
100
AcDbLine
 10
-28.954615
 20
0.461879
 30
0.0
 11
-29.429855
 21
5.303305
 31
0.0
  0
LINE
  5
A6
100
AcDbEntity
  8
0
  6
CONTINUOUS
 62
     7
100
AcDbLine
 10
-35.499985
 20
1.674313
 30
0.0
 11
-30.671272
 21
1.674313
 31
0.0
  0
LINE
  5
A7
100
AcDbEntity
  8
0
  6
CONTINUOUS
 62
     7
100
AcDbLine
 10
-32.149899
 20
0.461879
 30
0.0
 11
-32.268913
 21
1.674313
 31
0.0
  0
LINE
  5
A8
100
AcDbEntity
  8
0
  6
CONTINUOUS
 62
     7
100
AcDbLine
 10
-30.671272
 20
4.445596
 30
0.0
 11
-30.671272
 21
1.674313
 31
0.0
  0
LINE
  5
A9
100
AcDbEntity
  8
0
  6
CONTINUOUS
 62
     7
100
AcDbLine
 10
-30.671272
 20
4.445596
 30
0.0
 11
-29.0
 21
5.600297
 31
0.0
  0
LINE
  5
AA
100
AcDbEntity
  8
0
  6
CONTINUOUS
 62
     7
100
AcDbLine
 10
-25.730776
 20
-1.671555
 30
0.0
 11
-26.19833
 21
3.091581
 31
0.0
  0
LINE
  5
AB
100
AcDbEntity
  8
0
  6
CONTINUOUS
 62
     7
100
AcDbLine
 10
-29.183981
 20
2.798507
 30
0.0
 11
-26.19833
 21
3.091581
 31
0.0
  0
LINE
  5
AC
100
AcDbEntity
  8
0
  6
CONTINUOUS
 62
     7
100
AcDbLine
 10
-29.197439
 20
-2.011846
 30
0.0
 11
-25.730776
 21
-1.671555
 31
0.0
  0
LINE
  5
AD
100
AcDbEntity
  8
0
  6
CONTINUOUS
 62
     7
100
AcDbLine
 10
-29.0
 20
12.600718
 30
0.0
 11
-23.826557
 21
13.108548
 31
0.0
  0
LINE
  5
AE
100
AcDbEntity
  8
0
  6
CONTINUOUS
 62
     7
100
AcDbLine
 10
-22.793139
 20
2.580775
 30
0.0
 11
-23.826557
 21
13.108548
 31
0.0
  0
LINE
  5
AF
100
AcDbEntity
  8
0
  6
CONTINUOUS
 62
     7
100
AcDbLine
 10
1.299999
 20
-64.879462
 30
0.0
 11
12.087644
 21
-65.444815
 31
0.0
  0
LINE
  5
B0
100
AcDbEntity
  8
0
  6
CONTINUOUS
 62
     7
100
AcDbLine
 10
-35.266773
 20
-5.7
 30
0.0
 11
-34.661915
 21
0.461879
 31
0.0
  0
LINE
  5
B1
100
AcDbEntity
  8
0
  6
CONTINUOUS
 62
     7
100
AcDbLine
 10
-34.661915
 20
0.461878
 30
0.0
 11
-34.78093
 21
1.674313
 31
0.0
  0
LINE
  5
B2
100
AcDbEntity
  8
0
  6
CONTINUOUS
 62
     7
100
AcDbLine
 10
0.0
 20
0.461879
 30
0.0
 11
0.0
 21
0.0
 31
0.0
  0
LINE
  5
B3
100
AcDbEntity
  8
0
  6
CONTINUOUS
 62
     7
100
AcDbLine
 10
0.0
 20
0.0
 30
0.0
 11
0.400001
 21
-0.23094
 31
0.0
  0
ARC
  5
B4
100
AcDbEntity
  8
0
  6
CONTINUOUS
 62
     7
100
AcDbCircle
 10
0.8
 20
0.461879
 30
0.0
 40
0.8
100
AcDbArc
 50
119.99987
 51
239.99984
  0
ARC
  5
B5
100
AcDbEntity
  8
0
  6
CONTINUOUS
 62
     7
100
AcDbCircle
 10
12.687499
 20
7.325119
 30
0.0
 40
0.8
100
AcDbArc
 50
80.378657
 51
120.0
  0
CIRCLE
  5
B6
100
AcDbEntity
  8
0
  6
CONTINUOUS
 62
     7
100
AcDbCircle
 10
13.299999
 20
-71.423533
 30
0.0
 40
3.0
  0
ARC
  5
B7
100
AcDbEntity
  8
0
  6
CONTINUOUS
 62
     7
100
AcDbCircle
 10
12.687502
 20
-6.401373
 30
0.0
 40
0.8
100
AcDbArc
 50
240.00002
 51
359.99999
  0
ARC
  5
B8
100
AcDbEntity
  8
0
  6
CONTINUOUS
 62
     7
100
AcDbCircle
 10
25.6991
 20
10.261879
 30
0.0
 40
1.9
100
AcDbArc
 50
300.0
 51
120.0
  0
ARC
  5
B9
100
AcDbEntity
  8
0
  6
CONTINUOUS
 62
     7
100
AcDbCircle
 10
9.033405
 20
2.927707
 30
0.0
 40
1.0
100
AcDbArc
 50
134.89874
 51
210.0
  0
ARC
  5
BA
100
AcDbEntity
  8
0
  6
CONTINUOUS
 62
     7
100
AcDbCircle
 10
11.014674
 20
-0.50395
 30
0.0
 40
1.0
100
AcDbArc
 50
209.99999
 51
285.10125
  0
ARC
  5
BB
100
AcDbEntity
  8
0
  6
CONTINUOUS
 62
     7
100
AcDbCircle
 10
13.139999
 20
7.58
 30
0.0
 40
2.0
100
AcDbArc
 50
62.452101
 51
186.249
  0
CIRCLE
  5
BC
100
AcDbEntity
  8
0
  6
CONTINUOUS
 62
     7
100
AcDbCircle
 10
13.299999
 20
-71.423533
 30
0.0
 40
2.5
  0
ARC
  5
BD
100
AcDbEntity
  8
0
  6
CONTINUOUS
 62
     7
100
AcDbCircle
 10
14.74277
 20
-60.897551
 30
0.0
 40
8.0
100
AcDbArc
 50
86.999999
 51
147.0
  0
ARC
  5
BE
100
AcDbEntity
  8
0
  6
CONTINUOUS
 62
     7
100
AcDbCircle
 10
17.242378
 20
-61.028551
 30
0.0
 40
8.0
100
AcDbArc
 50
86.999999
 51
147.0
  0
ARC
  5
BF
100
AcDbEntity
  8
0
  6
CONTINUOUS
 62
     7
100
AcDbCircle
 10
-27.24156
 20
6.953145
 30
0.0
 40
4.0
100
AcDbArc
 50
285.11797
 51
5.606255
  0
ARC
  5
C0
100
AcDbEntity
  8
0
  6
CONTINUOUS
 62
     7
100
AcDbCircle
 10
-26.774006
 20
2.190009
 30
0.0
 40
4.0
100
AcDbArc
 50
285.11797
 51
5.606255
  0
POLYLINE
  5
C1
100
AcDbEntity
  8
0
  6
CONTINUOUS
 62
     7
100
AcDb2dPolyline
 66
     1
 10
0.0
 20
0.0
 30
0.0
  0
VERTEX
  5
C2
100
AcDbEntity
  8
0
  6
CONTINUOUS
 62
     7
100
AcDbVertex
100
AcDb2dVertex
 10
37.0
 20
-60.274287
 30
0.0
 42
0.03001
  0
VERTEX
  5
C3
100
AcDbEntity
  8
0
  6
CONTINUOUS
 62
     7
100
AcDbVertex
100
AcDb2dVertex
 10
36.158741
 20
-60.324689
 30
0.0
 42
0.031339
  0
VERTEX
  5
C4
100
AcDbEntity
  8
0
  6
CONTINUOUS
 62
     7
100
AcDbVertex
100
AcDb2dVertex
 10
35.329719
 20
-60.477392
 30
0.0
 42
0.034234
  0
VERTEX
  5
C5
100
AcDbEntity
  8
0
  6
CONTINUOUS
 62
     7
100
AcDbVertex
100
AcDb2dVertex
 10
34.526868
 20
-60.737068
 30
0.0
 42
0.039157
  0
VERTEX
  5
C6
100
AcDbEntity
  8
0
  6
CONTINUOUS
 62
     7
100
AcDbVertex
100
AcDb2dVertex
 10
33.769474
 20
-61.111331
 30
0.0
 42
0.046685
  0
VERTEX
  5
C7
100
AcDbEntity
  8
0
  6
CONTINUOUS
 62
     7
100
AcDbVertex
100
AcDb2dVertex
 10
33.088206
 20
-61.607792
 30
0.0
 42
0.05772
  0
VERTEX
  5
C8
100
AcDbEntity
  8
0
  6
CONTINUOUS
 62
     7
100
AcDbVertex
100
AcDb2dVertex
 10
32.524385
 20
-62.233613
 30
0.0
 42
0.071526
  0
VERTEX
  5
C9
100
AcDbEntity
  8
0
  6
CONTINUOUS
 62
     7
100
AcDbVertex
100
AcDb2dVertex
 10
32.138921
 20
-62.982202
 30
0.0
 42
0.082487
  0
VERTEX
  5
CA
100
AcDbEntity
  8
0
  6
CONTINUOUS
 62
     7
100
AcDbVertex
100
AcDb2dVertex
 10
32.0
 20
-63.809824
 30
0.0
 42
0.082482
  0
VERTEX
  5
CB
100
AcDbEntity
  8
0
  6
CONTINUOUS
 62
     7
100
AcDbVertex
100
AcDb2dVertex
 10
32.138916
 20
-64.63743
 30
0.0
 42
0.071426
  0
VERTEX
  5
CC
100
AcDbEntity
  8
0
  6
CONTINUOUS
 62
     7
100
AcDbVertex
100
AcDb2dVertex
 10
32.523603
 20
-65.384924
 30
0.0
 42
0.057689
  0
VERTEX
  5
CD
100
AcDbEntity
  8
0
  6
CONTINUOUS
 62
     7
100
AcDbVertex
100
AcDb2dVertex
 10
33.086551
 20
-66.010385
 30
0.0
 42
0.046691
  0
VERTEX
  5
CE
100
AcDbEntity
  8
0
  6
CONTINUOUS
 62
     7
100
AcDbVertex
100
AcDb2dVertex
 10
33.76727
 20
-66.506998
 30
0.0
 42
0.039109
  0
VERTEX
  5
CF
100
AcDbEntity
  8
0
  6
CONTINUOUS
 62
     7
100
AcDbVertex
100
AcDb2dVertex
 10
34.523047
 20
-66.881041
 30
0.0
 42
0.03424
  0
VERTEX
  5
D0
100
AcDbEntity
  8
0
  6
CONTINUOUS
 62
     7
100
AcDbVertex
100
AcDb2dVertex
 10
35.325419
 20
-67.141177
 30
0.0
 42
0.031378
  0
VERTEX
  5
D1
100
AcDbEntity
  8
0
  6
CONTINUOUS
 62
     7
100
AcDbVertex
100
AcDb2dVertex
 10
36.155106
 20
-67.29452
 30
0.0
 42
0.030048
  0
VERTEX
  5
D2
100
AcDbEntity
  8
0
  6
CONTINUOUS
 62
     7
100
AcDbVertex
100
AcDb2dVertex
 10
36.997333
 20
-67.345362
 30
0.0
  0
SEQEND
  5
D3
100
AcDbEntity
  8
0
 62
     7
  0
POLYLINE
  5
D4
100
AcDbEntity
  8
0
  6
CONTINUOUS
 62
     7
100
AcDb2dPolyline
 66
     1
 10
0.0
 20
0.0
 30
0.0
  0
VERTEX
  5
D5
100
AcDbEntity
  8
0
  6
CONTINUOUS
 62
     7
100
AcDbVertex
100
AcDb2dVertex
 10
39.0
 20
-60.274287
 30
0.0
 42
-0.03001
  0
VERTEX
  5
D6
100
AcDbEntity
  8
0
  6
CONTINUOUS
 62
     7
100
AcDbVertex
100
AcDb2dVertex
 10
39.841259
 20
-60.324689
 30
0.0
 42
-0.031339
  0
VERTEX
  5
D7
100
AcDbEntity
  8
0
  6
CONTINUOUS
 62
     7
100
AcDbVertex
100
AcDb2dVertex
 10
40.670281
 20
-60.477392
 30
0.0
 42
-0.034234
  0
VERTEX
  5
D8
100
AcDbEntity
  8
0
  6
CONTINUOUS
 62
     7
100
AcDbVertex
100
AcDb2dVertex
 10
41.473132
 20
-60.737068
 30
0.0
 42
-0.039157
  0
VERTEX
  5
D9
100
AcDbEntity
  8
0
  6
CONTINUOUS
 62
     7
100
AcDbVertex
100
AcDb2dVertex
 10
42.230526
 20
-61.111331
 30
0.0
 42
-0.046685
  0
VERTEX
  5
DA
100
AcDbEntity
  8
0
  6
CONTINUOUS
 62
     7
100
AcDbVertex
100
AcDb2dVertex
 10
42.911794
 20
-61.607792
 30
0.0
 42
-0.05772
  0
VERTEX
  5
DB
100
AcDbEntity
  8
0
  6
CONTINUOUS
 62
     7
100
AcDbVertex
100
AcDb2dVertex
 10
43.475615
 20
-62.233613
 30
0.0
 42
-0.071526
  0
VERTEX
  5
DC
100
AcDbEntity
  8
0
  6
CONTINUOUS
 62
     7
100
AcDbVertex
100
AcDb2dVertex
 10
43.861079
 20
-62.982202
 30
0.0
 42
-0.082487
  0
VERTEX
  5
DD
100
AcDbEntity
  8
0
  6
CONTINUOUS
 62
     7
100
AcDbVertex
100
AcDb2dVertex
 10
44.0
 20
-63.809824
 30
0.0
 42
-0.082482
  0
VERTEX
  5
DE
100
AcDbEntity
  8
0
  6
CONTINUOUS
 62
     7
100
AcDbVertex
100
AcDb2dVertex
 10
43.861084
 20
-64.63743
 30
0.0
 42
-0.071426
  0
VERTEX
  5
DF
100
AcDbEntity
  8
0
  6
CONTINUOUS
 62
     7
100
AcDbVertex
100
AcDb2dVertex
 10
43.476397
 20
-65.384924
 30
0.0
 42
-0.057689
  0
VERTEX
  5
E0
100
AcDbEntity
  8
0
  6
CONTINUOUS
 62
     7
100
AcDbVertex
100
AcDb2dVertex
 10
42.913449
 20
-66.010385
 30
0.0
 42
-0.046691
  0
VERTEX
  5
E1
100
AcDbEntity
  8
0
  6
CONTINUOUS
 62
     7
100
AcDbVertex
100
AcDb2dVertex
 10
42.23273
 20
-66.506998
 30
0.0
 42
-0.039109
  0
VERTEX
  5
E2
100
AcDbEntity
  8
0
  6
CONTINUOUS
 62
     7
100
AcDbVertex
100
AcDb2dVertex
 10
41.476953
 20
-66.881041
 30
0.0
 42
-0.03424
  0
VERTEX
  5
E3
100
AcDbEntity
  8
0
  6
CONTINUOUS
 62
     7
100
AcDbVertex
100
AcDb2dVertex
 10
40.674581
 20
-67.141177
 30
0.0
 42
-0.031378
  0
VERTEX
  5
E4
100
AcDbEntity
  8
0
  6
CONTINUOUS
 62
     7
100
AcDbVertex
100
AcDb2dVertex
 10
39.844894
 20
-67.29452
 30
0.0
 42
-0.030048
  0
VERTEX
  5
E5
100
AcDbEntity
  8
0
  6
CONTINUOUS
 62
     7
100
AcDbVertex
100
AcDb2dVertex
 10
39.002667
 20
-67.345362
 30
0.0
  0
SEQEND
  5
E6
100
AcDbEntity
  8
0
 62
     7
  0
POLYLINE
  5
E7
100
AcDbEntity
  8
0
  6
CONTINUOUS
 62
     7
100
AcDb2dPolyline
 66
     1
 10
0.0
 20
0.0
 30
0.0
  0
VERTEX
  5
E8
100
AcDbEntity
  8
0
  6
CONTINUOUS
 62
     7
100
AcDbVertex
100
AcDb2dVertex
 10
37.0
 20
7.221829
 30
0.0
 42
0.03001
  0
VERTEX
  5
E9
100
AcDbEntity
  8
0
  6
CONTINUOUS
 62
     7
100
AcDbVertex
100
AcDb2dVertex
 10
36.158742
 20
7.171427
 30
0.0
 42
0.031339
  0
VERTEX
  5
EA
100
AcDbEntity
  8
0
  6
CONTINUOUS
 62
     7
100
AcDbVertex
100
AcDb2dVertex
 10
35.32972
 20
7.018725
 30
0.0
 42
0.034233
  0
VERTEX
  5
EB
100
AcDbEntity
  8
0
  6
CONTINUOUS
 62
     7
100
AcDbVertex
100
AcDb2dVertex
 10
34.52687
 20
6.75905
 30
0.0
 42
0.039157
  0
VERTEX
  5
EC
100
AcDbEntity
  8
0
  6
CONTINUOUS
 62
     7
100
AcDbVertex
100
AcDb2dVertex
 10
33.769476
 20
6.384788
 30
0.0
 42
0.046684
  0
VERTEX
  5
ED
100
AcDbEntity
  8
0
  6
CONTINUOUS
 62
     7
100
AcDbVertex
100
AcDb2dVertex
 10
33.088208
 20
5.888328
 30
0.0
 42
0.05772
  0
VERTEX
  5
EE
100
AcDbEntity
  8
0
  6
CONTINUOUS
 62
     7
100
AcDbVertex
100
AcDb2dVertex
 10
32.524386
 20
5.262509
 30
0.0
 42
0.071526
  0
VERTEX
  5
EF
100
AcDbEntity
  8
0
  6
CONTINUOUS
 62
     7
100
AcDbVertex
100
AcDb2dVertex
 10
32.138922
 20
4.513921
 30
0.0
 42
0.082487
  0
VERTEX
  5
F0
100
AcDbEntity
  8
0
  6
CONTINUOUS
 62
     7
100
AcDbVertex
100
AcDb2dVertex
 10
32.0
 20
3.6863
 30
0.0
 42
0.082483
  0
VERTEX
  5
F1
100
AcDbEntity
  8
0
  6
CONTINUOUS
 62
     7
100
AcDbVertex
100
AcDb2dVertex
 10
32.138916
 20
2.858695
 30
0.0
 42
0.071426
  0
VERTEX
  5
F2
100
AcDbEntity
  8
0
  6
CONTINUOUS
 62
     7
100
AcDbVertex
100
AcDb2dVertex
 10
32.523604
 20
2.111202
 30
0.0
 42
0.057689
  0
VERTEX
  5
F3
100
AcDbEntity
  8
0
  6
CONTINUOUS
 62
     7
100
AcDbVertex
100
AcDb2dVertex
 10
33.086553
 20
1.485742
 30
0.0
 42
0.046691
  0
VERTEX
  5
F4
100
AcDbEntity
  8
0
  6
CONTINUOUS
 62
     7
100
AcDbVertex
100
AcDb2dVertex
 10
33.767272
 20
0.989131
 30
0.0
 42
0.039109
  0
VERTEX
  5
F5
100
AcDbEntity
  8
0
  6
CONTINUOUS
 62
     7
100
AcDbVertex
100
AcDb2dVertex
 10
34.523049
 20
0.615089
 30
0.0
 42
0.03424
  0
VERTEX
  5
F6
100
AcDbEntity
  8
0
  6
CONTINUOUS
 62
     7
100
AcDbVertex
100
AcDb2dVertex
 10
35.325421
 20
0.354954
 30
0.0
 42
0.031378
  0
VERTEX
  5
F7
100
AcDbEntity
  8
0
  6
CONTINUOUS
 62
     7
100
AcDbVertex
100
AcDb2dVertex
 10
36.155107
 20
0.201612
 30
0.0
 42
0.030048
  0
VERTEX
  5
F8
100
AcDbEntity
  8
0
  6
CONTINUOUS
 62
     7
100
AcDbVertex
100
AcDb2dVertex
 10
36.997333
 20
0.15077
 30
0.0
  0
SEQEND
  5
F9
100
AcDbEntity
  8
0
 62
     7
  0
POLYLINE
  5
FA
100
AcDbEntity
  8
0
  6
CONTINUOUS
 62
     7
100
AcDb2dPolyline
 66
     1
 10
0.0
 20
0.0
 30
0.0
  0
VERTEX
  5
FB
100
AcDbEntity
  8
0
  6
CONTINUOUS
 62
     7
100
AcDbVertex
100
AcDb2dVertex
 10
39.0
 20
7.221829
 30
0.0
 42
-0.03001
  0
VERTEX
  5
FC
100
AcDbEntity
  8
0
  6
CONTINUOUS
 62
     7
100
AcDbVertex
100
AcDb2dVertex
 10
39.841258
 20
7.171427
 30
0.0
 42
-0.031339
  0
VERTEX
  5
FD
100
AcDbEntity
  8
0
  6
CONTINUOUS
 62
     7
100
AcDbVertex
100
AcDb2dVertex
 10
40.67028
 20
7.018725
 30
0.0
 42
-0.034233
  0
VERTEX
  5
FE
100
AcDbEntity
  8
0
  6
CONTINUOUS
 62
     7
100
AcDbVertex
100
AcDb2dVertex
 10
41.47313
 20
6.75905
 30
0.0
 42
-0.039157
  0
VERTEX
  5
FF
100
AcDbEntity
  8
0
  6
CONTINUOUS
 62
     7
100
AcDbVertex
100
AcDb2dVertex
 10
42.230524
 20
6.384788
 30
0.0
 42
-0.046684
  0
VERTEX
  5
100
100
AcDbEntity
  8
0
  6
CONTINUOUS
 62
     7
100
AcDbVertex
100
AcDb2dVertex
 10
42.911792
 20
5.888328
 30
0.0
 42
-0.05772
  0
VERTEX
  5
101
100
AcDbEntity
  8
0
  6
CONTINUOUS
 62
     7
100
AcDbVertex
100
AcDb2dVertex
 10
43.475614
 20
5.262509
 30
0.0
 42
-0.071526
  0
VERTEX
  5
102
100
AcDbEntity
  8
0
  6
CONTINUOUS
 62
     7
100
AcDbVertex
100
AcDb2dVertex
 10
43.861078
 20
4.513921
 30
0.0
 42
-0.082487
  0
VERTEX
  5
103
100
AcDbEntity
  8
0
  6
CONTINUOUS
 62
     7
100
AcDbVertex
100
AcDb2dVertex
 10
44.0
 20
3.6863
 30
0.0
 42
-0.082483
  0
VERTEX
  5
104
100
AcDbEntity
  8
0
  6
CONTINUOUS
 62
     7
100
AcDbVertex
100
AcDb2dVertex
 10
43.861084
 20
2.858695
 30
0.0
 42
-0.071426
  0
VERTEX
  5
105
100
AcDbEntity
  8
0
  6
CONTINUOUS
 62
     7
100
AcDbVertex
100
AcDb2dVertex
 10
43.476396
 20
2.111202
 30
0.0
 42
-0.057689
  0
VERTEX
  5
106
100
AcDbEntity
  8
0
  6
CONTINUOUS
 62
     7
100
AcDbVertex
100
AcDb2dVertex
 10
42.913447
 20
1.485742
 30
0.0
 42
-0.046691
  0
VERTEX
  5
107
100
AcDbEntity
  8
0
  6
CONTINUOUS
 62
     7
100
AcDbVertex
100
AcDb2dVertex
 10
42.232728
 20
0.989131
 30
0.0
 42
-0.039109
  0
VERTEX
  5
108
100
AcDbEntity
  8
0
  6
CONTINUOUS
 62
     7
100
AcDbVertex
100
AcDb2dVertex
 10
41.476951
 20
0.615089
 30
0.0
 42
-0.03424
  0
VERTEX
  5
109
100
AcDbEntity
  8
0
  6
CONTINUOUS
 62
     7
100
AcDbVertex
100
AcDb2dVertex
 10
40.674579
 20
0.354954
 30
0.0
 42
-0.031378
  0
VERTEX
  5
10A
100
AcDbEntity
  8
0
  6
CONTINUOUS
 62
     7
100
AcDbVertex
100
AcDb2dVertex
 10
39.844893
 20
0.201612
 30
0.0
 42
-0.030048
  0
VERTEX
  5
10B
100
AcDbEntity
  8
0
  6
CONTINUOUS
 62
     7
100
AcDbVertex
100
AcDb2dVertex
 10
39.002667
 20
0.15077
 30
0.0
  0
SEQEND
  5
10C
100
AcDbEntity
  8
0
 62
     7
  0
CIRCLE
  5
10D
100
AcDbEntity
  8
0
  6
CONTINUOUS
 62
     7
100
AcDbCircle
 10
0.0
 20
0.0
 30
0.0
 40
0.01
  0
CIRCLE
  5
10E
100
AcDbEntity
  8
0
  6
CONTINUOUS
 62
     7
100
AcDbCircle
 10
0.0
 20
-59.12353
 30
0.0
 40
0.01
  0
LINE
  5
10F
100
AcDbEntity
  8
0
  6
CONTINUOUS
 62
     7
100
AcDbLine
 10
101.6769
 20
-75.088573
 30
0.0
 11
102.28542
 21
-74.480044
 31
0.0
  0
LINE
  5
110
100
AcDbEntity
  8
0
  6
CONTINUOUS
 62
     7
100
AcDbLine
 10
99.420014
 20
-75.100394
 30
0.0
 11
101.16289
 21
-73.357512
 31
0.0
  0
LINE
  5
111
100
AcDbEntity
  8
0
  6
CONTINUOUS
 62
     7
100
AcDbLine
 10
97.163131
 20
-75.112215
 30
0.0
 11
100.04036
 21
-72.23498
 31
0.0
  0
LINE
  5
112
100
AcDbEntity
  8
0
  6
CONTINUOUS
 62
     7
100
AcDbLine
 10
94.906739
 20
-75.123545
 30
0.0
 11
98.917828
 21
-71.112448
 31
0.0
  0
LINE
  5
113
100
AcDbEntity
  8
0
  6
CONTINUOUS
 62
     7
100
AcDbLine
 10
93.0
 20
-74.785222
 30
0.0
 11
97.795296
 21
-69.989916
 31
0.0
  0
LINE
  5
114
100
AcDbEntity
  8
0
  6
CONTINUOUS
 62
     7
100
AcDbLine
 10
93.0
 20
-72.540156
 30
0.0
 11
96.672764
 21
-68.867384
 31
0.0
  0
LINE
  5
115
100
AcDbEntity
  8
0
  6
CONTINUOUS
 62
     7
100
AcDbLine
 10
93.0
 20
-70.29509
 30
0.0
 11
95.550232
 21
-67.744852
 31
0.0
  0
LINE
  5
116
100
AcDbEntity
  8
0
  6
CONTINUOUS
 62
     7
100
AcDbLine
 10
109.35648
 20
-67.408971
 30
0.0
 11
110.0
 21
-66.765453
 31
0.0
  0
LINE
  5
117
100
AcDbEntity
  8
0
  6
CONTINUOUS
 62
     7
100
AcDbLine
 10
108.23395
 20
-66.286439
 30
0.0
 11
110.0
 21
-64.520387
 31
0.0
  0
LINE
  5
118
100
AcDbEntity
  8
0
  6
CONTINUOUS
 62
     7
100
AcDbLine
 10
107.11142
 20
-65.163907
 30
0.0
 11
110.0
 21
-62.275321
 31
0.0
  0
LINE
  5
119
100
AcDbEntity
  8
0
  6
CONTINUOUS
 62
     7
100
AcDbLine
 10
105.98889
 20
-64.041374
 30
0.0
 11
109.95335
 21
-60.0769
 31
0.0
  0
LINE
  5
11A
100
AcDbEntity
  8
0
  6
CONTINUOUS
 62
     7
100
AcDbLine
 10
104.86636
 20
-62.918842
 30
0.0
 11
108.66165
 21
-59.123545
 31
0.0
  0
LINE
  5
11B
100
AcDbEntity
  8
0
  6
CONTINUOUS
 62
     7
100
AcDbLine
 10
103.74382
 20
-61.79631
 30
0.0
 11
106.41658
 21
-59.123545
 31
0.0
  0
LINE
  5
11C
100
AcDbEntity
  8
0
  6
CONTINUOUS
 62
     7
100
AcDbLine
 10
102.62129
 20
-60.673778
 30
0.0
 11
104.17152
 21
-59.123545
 31
0.0
  0
TEXT
  5
11F
100
AcDbEntity
  8
0
  6
CONTINUOUS
100
AcDbText
 10
13.626145
 20
-105.122174
 30
0.0
 40
6.0
  1
CTTPR16CA
100
AcDbText
  0
INSERT
  5
134
100
AcDbEntity
  8
0
  6
CONTINUOUS
100
AcDbBlockReference
  2
テンプレ-ト
 10
-74.89782
 20
-85.470548
 30
0.0
  0
CIRCLE
  5
135
100
AcDbEntity
  8
0
  6
CONTINUOUS
100
AcDbCircle
 10
20.416344
 20
7.21188
 30
0.0
 40
5.999999
  0
LINE
  5
136
100
AcDbEntity
  8
0
  6
CONTINUOUS
100
AcDbLine
 10
12.473144
 20
-7.201373
 30
0.0
 11
13.487501
 21
-7.201373
 31
0.0
  0
LINE
  5
139
100
AcDbEntity
  8
0
  6
CENTER
 62
     1
100
AcDbLine
 10
-29.706846
 20
-7.201373
 30
0.0
 11
-29.706846
 21
26.002504
 31
0.0
  0
ARC
  5
13D
100
AcDbEntity
  8
0
  6
CENTER
 62
     1
100
AcDbCircle
 10
-29.706846
 20
22.798627
 30
0.0
 40
30.0
100
AcDbArc
 50
173.869353
 51
278.610343
  0
ARC
  5
13E
100
AcDbEntity
  8
0
  6
CENTER
 62
     1
100
AcDbCircle
 10
37.5
 20
-59.11353
 30
0.0
 40
37.5
100
AcDbArc
 50
180.0
 51
270.0
  0
LINE
  5
145
100
AcDbEntity
  8
0
 62
     1
100
AcDbLine
 10
-32.727511
 20
22.798648
 30
0.0
 11
-26.787513
 21
22.798648
 31
0.0
  0
DIMENSION
  5
150
100
AcDbEntity
  8
寸法
 62
     1
100
AcDbDimension
  2
*D2
 10
-1.304099
 20
32.456989
 30
0.0
 11
-38.860603
 21
19.685889
 31
0.0
 70
   163
  3
寸法
100
AcDbDiametricDimension
 15
-58.109593
 25
13.140265
 35
0.0
 40
0.0
1001
ACAD
1000
DSTYLE
1002
{
1070
   288
1070
     1
1002
}
  0
DIMENSION
  5
159
100
AcDbEntity
  8
寸法
 62
     1
100
AcDbDimension
  2
*D3
 10
51.438041
 20
-24.300012
 30
0.0
 11
28.153188
 21
-82.459377
 31
0.0
 12
0.0
 22
-15.123545
 32
0.0
 70
   163
  3
寸法
100
AcDbDiametricDimension
 15
23.561958
 25
-93.927047
 35
0.0
 40
0.0
1001
ACAD
1000
DSTYLE
1002
{
1070
   288
1070
     1
1002
}
  0
DIMENSION
  5
174
100
AcDbEntity
  8
寸法
 62
     1
100
AcDbDimension
  2
*D4
 10
-5.353707
 20
0.0
 30
0.0
 11
-7.853707
 21
7.5
 31
0.0
 70
    32
  3
寸法
100
AcDbAlignedDimension
 13
1.299999
 23
15.0
 33
0.0
 14
0.01
 24
0.0
 34
0.0
 50
90.0
100
AcDbRotatedDimension
  0
DIMENSION
  5
181
100
AcDbEntity
  8
寸法
 62
     1
100
AcDbDimension
  2
*D5
 10
-14.814478
 20
-7.201373
 30
0.0
 11
-17.314478
 21
3.899314
 31
0.0
 70
    32
  3
寸法
100
AcDbAlignedDimension
 13
1.299999
 23
15.0
 33
0.0
 14
12.473144
 24
-7.201373
 34
0.0
 50
90.0
100
AcDbRotatedDimension
  0
DIMENSION
  5
18E
100
AcDbEntity
  8
寸法
 62
     1
100
AcDbDimension
  2
*D6
 10
75.062842
 20
-2.0
 30
0.0
 11
72.562842
 21
6.5
 31
0.0
 70
    32
  3
寸法
100
AcDbAlignedDimension
 13
55.0
 23
15.0
 33
0.0
 14
55.0
 24
-2.0
 34
0.0
 50
90.0
100
AcDbRotatedDimension
  0
DIMENSION
  5
19B
100
AcDbEntity
  8
寸法
 62
     1
100
AcDbDimension
  2
*D7
 10
12.473144
 20
-20.084218
 30
0.0
 11
37.736572
 21
-17.584218
 31
0.0
 70
    32
  3
寸法
100
AcDbAlignedDimension
 13
63.0
 23
7.0
 33
0.0
 14
12.473144
 24
-7.201373
 34
0.0
100
AcDbRotatedDimension
  0
DIMENSION
  5
1A8
100
AcDbEntity
  8
寸法
 62
     1
100
AcDbDimension
  2
*D8
 10
55.0
 20
-9.452606
 30
0.0
 11
59.0
 21
-6.952606
 31
0.0
 70
    32
  3
寸法
100
AcDbAlignedDimension
 13
63.0
 23
7.0
 33
0.0
 14
55.0
 24
-2.0
 34
0.0
100
AcDbRotatedDimension
  0
DIMENSION
  5
1B5
100
AcDbEntity
  8
寸法
 62
     1
100
AcDbDimension
  2
*D9
 10
0.0
 20
-29.534541
 30
0.0
 11
31.5
 21
-27.034541
 31
0.0
 70
    32
  3
寸法
100
AcDbAlignedDimension
 13
63.0
 23
7.0
 33
0.0
 14
0.0
 24
0.01
 34
0.0
100
AcDbRotatedDimension
  0
DIMENSION
  5
1C2
100
AcDbEntity
  8
寸法
 62
     1
100
AcDbDimension
  2
*D10
 10
-5.747906
 20
-75.123541
 30
0.0
 11
-8.247906
 21
-67.128487
 31
0.0
 70
    32
  3
寸法
100
AcDbAlignedDimension
 13
0.001392
 23
-59.133433
 33
0.0
 14
4.757715
 24
-75.123541
 34
0.0
 50
90.0
100
AcDbRotatedDimension
1001
ACAD
1000
DSTYLE
1002
{
1070
   271
1070
     1
1002
}
  0
DIMENSION
  5
1CF
100
AcDbEntity
  8
寸法
 62
     1
100
AcDbDimension
  2
*D11
 10
74.274444
 20
-75.123545
 30
0.0
 11
71.774444
 21
-67.123545
 31
0.0
 12
0.0
 22
-15.123545
 32
0.0
 70
    32
  3
寸法
100
AcDbAlignedDimension
 13
55.0
 23
-59.123545
 33
0.0
 14
55.0
 24
-75.123545
 34
0.0
 50
90.0
100
AcDbRotatedDimension
  0
DIMENSION
  5
1DE
100
AcDbEntity
  8
寸法
 62
     1
100
AcDbDimension
  2
*D12
 10
39.0
 20
-50.003252
 30
0.0
 11
45.0
 21
-47.503252
 31
0.0
 12
0.0
 22
-15.123545
 32
0.0
 70
    32
  3
寸法
100
AcDbAlignedDimension
 13
37.0
 23
-56.478953
 33
0.0
 14
39.0
 24
-56.545618
 34
0.0
100
AcDbRotatedDimension
  0
DIMENSION
  5
1EB
100
AcDbEntity
  8
寸法
 62
     1
100
AcDbDimension
  2
*D13
 10
63.0
 20
-40.490472
 30
0.0
 11
50.5
 21
-37.990472
 31
0.0
 12
0.0
 22
-15.123545
 32
0.0
 70
    32
  3
寸法
100
AcDbAlignedDimension
 13
38.0
 23
-55.21229
 33
0.0
 14
63.0
 24
-67.623545
 34
0.0
100
AcDbRotatedDimension
  0
DIMENSION
  5
209
100
AcDbEntity
  8
寸法
 62
     1
100
AcDbDimension
  2
*D14
 10
111.03855
 20
-76.162108
 30
0.0
 11
119.936739
 21
-71.487456
 31
0.0
 12
0.0
 22
-15.123545
 32
0.0
 70
   162
  3
寸法
100
AcDb2LineAngularDimension
 13
93.0
 23
-75.123545
 33
0.0
 14
95.0
 24
-75.123545
 34
0.0
 15
96.074463
 25
-61.198019
 35
0.0
 16
119.163509
 26
-80.414107
 36
0.0
  0
LINE
  5
221
100
AcDbEntity
  8
寸法
  6
CONTINUOUS
 62
     1
100
AcDbLine
 10
-36.828808
 20
-75.552849
 30
0.0
 11
-44.557982
 21
-75.552849
 31
0.0
  0
INSERT
  5
222
100
AcDbEntity
  8
寸法
  6
CONTINUOUS
 62
     1
100
AcDbBlockReference
  2
_OPEN30
 10
-44.557982
 20
-65.570743
 30
0.0
 41
2.0
 42
2.0
 43
2.0
 50
90.0
  0
TEXT
  5
223
100
AcDbEntity
  8
寸法
  6
CONTINUOUS
100
AcDbText
 10
-49.057633
 20
-68.06326
 30
0.0
 40
3.0
  1
0°
100
AcDbText
  0
LINE
  5
224
100
AcDbEntity
  8
寸法
  6
CONTINUOUS
 62
     1
100
AcDbLine
 10
-44.557982
 20
-67.570743
 30
0.0
 11
-44.557982
 21
-75.552849
 31
0.0
  0
INSERT
  5
225
100
AcDbEntity
  8
寸法
  6
CONTINUOUS
 62
     1
100
AcDbBlockReference
  2
_OPEN30
 10
-34.828808
 20
-75.552849
 30
0.0
 41
2.0
 42
2.0
 43
2.0
  0
TEXT
  5
226
100
AcDbEntity
  8
寸法
  6
CONTINUOUS
100
AcDbText
 10
-36.922113
 20
-80.558852
 30
0.0
 40
3.0
  1
+3°
100
AcDbText
  0
ENDSEC
  0
SECTION
  2
OBJECTS
  0
DICTIONARY
  5
C
100
AcDbDictionary
  3
ACAD_GROUP
350
D
  3
ACAD_MLINESTYLE
350
1B
  0
DICTIONARY
  5
D
102
{ACAD_REACTORS
330
C
102
}
100
AcDbDictionary
  0
DICTIONARY
  5
1B
102
{ACAD_REACTORS
330
C
102
}
100
AcDbDictionary
  3
STANDARD
350
1C
  0
MLINESTYLE
  5
1C
102
{ACAD_REACTORS
330
1B
102
}
100
AcDbMlineStyle
  2
STANDARD
 70
     0
  3

 62
   256
 51
90.0
 52
90.0
 71
     2
 49
0.5
 62
   256
  6
BYLAYER
 49
-0.5
 62
   256
  6
BYLAYER
  0
ENDSEC
  0
EOF
