  0
SECTION
  2
HEADER
  9
$ACADVER
  1
AC1015
  9
$ACADMAINTVER
 70
     6
  9
$DWGCODEPAGE
  3
ANSI_932
  9
$INSBASE
 10
0.0
 20
0.0
 30
0.0
  9
$EXTMIN
 10
-92.25891573555424
 20
-199.0343911826138
 30
0.0
  9
$EXTMAX
 10
145.9899171987326
 20
31.50000000000415
 30
0.0
  9
$LIMMIN
 10
0.0
 20
0.0
  9
$LIMMAX
 10
420.0
 20
297.0
  9
$ORTHOMODE
 70
     0
  9
$REGENMODE
 70
     1
  9
$FILLMODE
 70
     1
  9
$QTEXTMODE
 70
     0
  9
$MIRRTEXT
 70
     1
  9
$LTSCALE
 40
1.0
  9
$ATTMODE
 70
     1
  9
$TEXTSIZE
 40
3.15
  9
$TRACEWID
 40
1.0
  9
$TEXTSTYLE
  7
STANDARD
  9
$CLAYER
  8
AM_0
  9
$CELTYPE
  6
ByLayer
  9
$CECOLOR
 62
   256
  9
$CELTSCALE
 40
1.0
  9
$DISPSILH
 70
     0
  9
$DIMSCALE
 40
1.0
  9
$DIMASZ
 40
2.5
  9
$DIMEXO
 40
0.0
  9
$DIMDLI
 40
10.0
  9
$DIMRND
 40
0.0
  9
$DIMDLE
 40
0.0
  9
$DIMEXE
 40
1.0
  9
$DIMTP
 40
0.1
  9
$DIMTM
 40
0.1000000001
  9
$DIMTXT
 40
3.8
  9
$DIMCEN
 40
0.0
  9
$DIMTSZ
 40
0.0
  9
$DIMTOL
 70
     0
  9
$DIMLIM
 70
     0
  9
$DIMTIH
 70
     0
  9
$DIMTOH
 70
     0
  9
$DIMSE1
 70
     0
  9
$DIMSE2
 70
     0
  9
$DIMTAD
 70
     3
  9
$DIMZIN
 70
     1
  9
$DIMBLK
  1
Open30
  9
$DIMASO
 70
     1
  9
$DIMSHO
 70
     1
  9
$DIMPOST
  1

  9
$DIMAPOST
  1
"
  9
$DIMALT
 70
     0
  9
$DIMALTD
 70
     2
  9
$DIMALTF
 40
0.0393701
  9
$DIMLFAC
 40
1.0
  9
$DIMTOFL
 70
     1
  9
$DIMTVP
 40
0.0
  9
$DIMTIX
 70
     0
  9
$DIMSOXD
 70
     0
  9
$DIMSAH
 70
     0
  9
$DIMBLK1
  1

  9
$DIMBLK2
  1

  9
$DIMSTYLE
  2
AM_JIS
  9
$DIMCLRD
 70
   256
  9
$DIMCLRE
 70
   256
  9
$DIMCLRT
 70
     2
  9
$DIMTFAC
 40
0.71
  9
$DIMGAP
 40
1.5
  9
$DIMJUST
 70
     0
  9
$DIMSD1
 70
     0
  9
$DIMSD2
 70
     0
  9
$DIMTOLJ
 70
     0
  9
$DIMTZIN
 70
     8
  9
$DIMALTZ
 70
     0
  9
$DIMALTTZ
 70
     0
  9
$DIMUPT
 70
     0
  9
$DIMDEC
 70
     0
  9
$DIMTDEC
 70
     2
  9
$DIMALTU
 70
     2
  9
$DIMALTTD
 70
     2
  9
$DIMTXSTY
  7
STANDARD
  9
$DIMAUNIT
 70
     1
  9
$DIMADEC
 70
     1
  9
$DIMALTRND
 40
0.0
  9
$DIMAZIN
 70
     2
  9
$DIMDSEP
 70
    46
  9
$DIMATFIT
 70
     3
  9
$DIMFRAC
 70
     0
  9
$DIMLDRBLK
  1
Open30
  9
$DIMLUNIT
 70
     2
  9
$DIMLWD
 70
    -1
  9
$DIMLWE
 70
    -1
  9
$DIMTMOVE
 70
     0
  9
$LUNITS
 70
     2
  9
$LUPREC
 70
     2
  9
$SKETCHINC
 40
1.0
  9
$FILLETRAD
 40
1.5
  9
$AUNITS
 70
     1
  9
$AUPREC
 70
     5
  9
$MENU
  1
.
  9
$ELEVATION
 40
0.0
  9
$PELEVATION
 40
0.0
  9
$THICKNESS
 40
0.0
  9
$LIMCHECK
 70
     0
  9
$CHAMFERA
 40
2.5
  9
$CHAMFERB
 40
2.5
  9
$CHAMFERC
 40
20.0
  9
$CHAMFERD
 40
0.0
  9
$SKPOLY
 70
     0
  9
$TDCREATE
 40
2451943.610431667
  9
$TDUCREATE
 40
2451943.235431667
  9
$TDUPDATE
 40
2455460.439985081
  9
$TDUUPDATE
 40
2455460.064985081
  9
$TDINDWG
 40
0.4261308681
  9
$TDUSRTIMER
 40
0.4261306944
  9
$USRTIMER
 70
     1
  9
$ANGBASE
 50
0.0
  9
$ANGDIR
 70
     0
  9
$PDMODE
 70
     0
  9
$PDSIZE
 40
0.0
  9
$PLINEWID
 40
0.0
  9
$SPLFRAME
 70
     0
  9
$SPLINETYPE
 70
     6
  9
$SPLINESEGS
 70
     8
  9
$HANDSEED
  5
AE99
  9
$SURFTAB1
 70
     6
  9
$SURFTAB2
 70
     6
  9
$SURFTYPE
 70
     6
  9
$SURFU
 70
     6
  9
$SURFV
 70
     6
  9
$UCSBASE
  2

  9
$UCSNAME
  2

  9
$UCSORG
 10
0.0
 20
0.0
 30
0.0
  9
$UCSXDIR
 10
1.0
 20
0.0
 30
0.0
  9
$UCSYDIR
 10
0.0
 20
1.0
 30
0.0
  9
$UCSORTHOREF
  2

  9
$UCSORTHOVIEW
 70
     0
  9
$UCSORGTOP
 10
0.0
 20
0.0
 30
0.0
  9
$UCSORGBOTTOM
 10
0.0
 20
0.0
 30
0.0
  9
$UCSORGLEFT
 10
0.0
 20
0.0
 30
0.0
  9
$UCSORGRIGHT
 10
0.0
 20
0.0
 30
0.0
  9
$UCSORGFRONT
 10
0.0
 20
0.0
 30
0.0
  9
$UCSORGBACK
 10
0.0
 20
0.0
 30
0.0
  9
$PUCSBASE
  2

  9
$PUCSNAME
  2

  9
$PUCSORG
 10
0.0
 20
0.0
 30
0.0
  9
$PUCSXDIR
 10
1.0
 20
0.0
 30
0.0
  9
$PUCSYDIR
 10
0.0
 20
1.0
 30
0.0
  9
$PUCSORTHOREF
  2

  9
$PUCSORTHOVIEW
 70
     0
  9
$PUCSORGTOP
 10
0.0
 20
0.0
 30
0.0
  9
$PUCSORGBOTTOM
 10
0.0
 20
0.0
 30
0.0
  9
$PUCSORGLEFT
 10
0.0
 20
0.0
 30
0.0
  9
$PUCSORGRIGHT
 10
0.0
 20
0.0
 30
0.0
  9
$PUCSORGFRONT
 10
0.0
 20
0.0
 30
0.0
  9
$PUCSORGBACK
 10
0.0
 20
0.0
 30
0.0
  9
$USERI1
 70
     0
  9
$USERI2
 70
     0
  9
$USERI3
 70
     0
  9
$USERI4
 70
     0
  9
$USERI5
 70
     0
  9
$USERR1
 40
0.0
  9
$USERR2
 40
0.0
  9
$USERR3
 40
0.0
  9
$USERR4
 40
0.0
  9
$USERR5
 40
0.0
  9
$WORLDVIEW
 70
     1
  9
$SHADEDGE
 70
     3
  9
$SHADEDIF
 70
    70
  9
$TILEMODE
 70
     1
  9
$MAXACTVP
 70
    48
  9
$PINSBASE
 10
0.0
 20
0.0
 30
0.0
  9
$PLIMCHECK
 70
     0
  9
$PEXTMIN
 10
1.000000000000000E+20
 20
1.000000000000000E+20
 30
1.000000000000000E+20
  9
$PEXTMAX
 10
-1.000000000000000E+20
 20
-1.000000000000000E+20
 30
-1.000000000000000E+20
  9
$PLIMMIN
 10
0.0
 20
0.0
  9
$PLIMMAX
 10
420.0
 20
297.0
  9
$UNITMODE
 70
     0
  9
$VISRETAIN
 70
     1
  9
$PLINEGEN
 70
     0
  9
$PSLTSCALE
 70
     1
  9
$TREEDEPTH
 70
  3020
  9
$CMLSTYLE
  2
Standard
  9
$CMLJUST
 70
     0
  9
$CMLSCALE
 40
20.0
  9
$PROXYGRAPHICS
 70
     1
  9
$MEASUREMENT
 70
     1
  9
$CELWEIGHT
370
    -1
  9
$ENDCAPS
280
     0
  9
$JOINSTYLE
280
     0
  9
$LWDISPLAY
290
     0
  9
$INSUNITS
 70
     4
  9
$HYPERLINKBASE
  1

  9
$STYLESHEET
  1
sei_cad.ctb
  9
$XEDIT
290
     1
  9
$CEPSNTYPE
380
     0
  9
$PSTYLEMODE
290
     1
  9
$FINGERPRINTGUID
  2
{C77AB3BE-9CA2-11D3-BAF3-006094EB760E}
  9
$VERSIONGUID
  2
{4D0B5CE9-3094-49EF-B7AF-BE8CCA8070FC}
  9
$EXTNAMES
290
     1
  9
$PSVPSCALE
 40
0.0
  9
$OLESTARTUP
290
     0
  0
ENDSEC
  0
SECTION
  2
CLASSES
  0
CLASS
  1
ACDBDICTIONARYWDFLT
  2
AcDbDictionaryWithDefault
  3
ObjectDBX Classes
 90
        0
280
     0
281
     0
  0
CLASS
  1
ACDBPLACEHOLDER
  2
AcDbPlaceHolder
  3
ObjectDBX Classes
 90
        0
280
     0
281
     0
  0
CLASS
  1
LAYOUT
  2
AcDbLayout
  3
ObjectDBX Classes
 90
        0
280
     0
281
     0
  0
CLASS
  1
ACME_DOCUMENT
  2
AcMeDbDoc
  3
AcMeServices
 90
        0
280
     1
281
     0
  0
CLASS
  1
ACMESCOPE
  2
AcMeScope
  3
AcMeServices
 90
        0
280
     1
281
     0
  0
CLASS
  1
ACMECOMMANDHISTORY
  2
AcMeCommandHistory
  3
AcMeServices
 90
        0
280
     1
281
     0
  0
CLASS
  1
DICTIONARYVAR
  2
AcDbDictionaryVar
  3
ObjectDBX Classes
 90
        0
280
     0
281
     0
  0
CLASS
  1
ACIMSYSVARMAN
  2
AcImSysVarManager
  3
AcMeServices
 90
        0
280
     1
281
     0
  0
CLASS
  1
ACIMREALSYSVAR
  2
AcImRealSysVar
  3
AcMeServices
 90
        0
280
     1
281
     0
  0
CLASS
  1
ACIMINTSYSVAR
  2
AcImIntSysVar
  3
AcMeServices
 90
        0
280
     1
281
     0
  0
CLASS
  1
ACMEDRAWINGMAN
  2
AcMeDrawingMan
  3
AcMeServices
 90
        0
280
     1
281
     0
  0
CLASS
  1
ACMEVIEW
  2
AcMeView
  3
AcMeServices
 90
        0
280
     1
281
     0
  0
CLASS
  1
ACDBENTITYCACHE
  2
AcMeEntityCache
  3
AcMeServices
 90
        0
280
     1
281
     0
  0
CLASS
  1
GSMANAGER
  2
AcMeGSManager
  3
AcMeServices
 90
        0
280
     1
281
     0
  0
CLASS
  1
AMDTINTERNALREACTOR
  2
AmdtInternalReactor
  3
AcMeServices
 90
        0
280
     1
281
     0
  0
CLASS
  1
ACMESTATEMGR
  2
AcMeStateMgr
  3
AcMeServices
 90
        0
280
     1
281
     0
  0
CLASS
  1
ACME_DATABASE
  2
AcMeDbDatabase
  3
AcMeServices
 90
        0
280
     1
281
     0
  0
CLASS
  1
ACRFINSADJUSTERMGR
  2
AcRfInsAdjusterMgr
  3
AcMeServices
 90
        0
280
     1
281
     0
  0
CLASS
  1
AMGSETTINGSOBJ
  2
AmgSettingsObj
  3
"AcadM|Product Description: AutoCAD Mechanical 2000|Company: Autodesk"
 90
        0
280
     1
281
     0
  0
CLASS
  1
AMGOBJPROPCFG
  2
AmgObjPropCfg
  3
"AmgLay|Product Description: AutoCAD Mechanical 2000|Company: Autodesk"
 90
        1
280
     1
281
     0
  0
CLASS
  1
ACMDATADICTIONARY
  2
AcmDataDictionary
  3
"AcmSymBB|Product Description: AutoCAD Mechanical 2004 DX|Company: Autodesk"
 90
        0
280
     1
281
     0
  0
CLASS
  1
ACMDATAENTRYBLOCK
  2
AcmDataEntryBlock
  3
"AcmSymBB|Product Description: AutoCAD Mechanical 2004 DX|Company: Autodesk"
 90
        0
280
     1
281
     0
  0
CLASS
  1
ACIMSTRSYSVAR
  2
AcImStrSysVar
  3
AcMeServices
 90
        0
280
     1
281
     0
  0
CLASS
  1
ACAMGFILTERDAT
  2
AcAmgFilterDat
  3
"AcadM|Product Description: AutoCAD Mechanical 2000|Company: Autodesk"
 90
        0
280
     1
281
     0
  0
CLASS
  1
LAYER_INDEX
  2
AcDbLayerIndex
  3
ObjectDBX Classes
 90
        0
280
     0
281
     0
  0
CLASS
  1
IDBUFFER
  2
AcDbIdBuffer
  3
ObjectDBX Classes
 90
        0
280
     0
281
     0
  0
CLASS
  1
ACMSTANDARDJIS
  2
AcmStandardJIS
  3
"Amdt_StdImp|Product Description: AutoCAD Mechanical 2004 DX|Company: Autodesk"
 90
        0
280
     1
281
     0
  0
CLASS
  1
ACMSURFSTANDARDJIS
  2
AcmSurfTextStdJIS
  3
"Amdt_StdImp|Product Description: AutoCAD Mechanical 2004 DX|Company: Autodesk"
 90
        0
280
     1
281
     0
  0
CLASS
  1
ACMFCFSTANDARDJIS
  2
AcmFCFStdJIS
  3
"Amdt_StdImp|Product Description: AutoCAD Mechanical 2004 DX|Company: Autodesk"
 90
        0
280
     1
281
     0
  0
CLASS
  1
ACMWELDSTANDARDJIS
  2
AcmWeldingStdJIS
  3
"Amdt_StdImp|Product Description: AutoCAD Mechanical 2004 DX|Company: Autodesk"
 90
        0
280
     1
281
     0
  0
CLASS
  1
ACMIDSTANDARDJIS
  2
AcmIdStdJIS
  3
"Amdt_StdImp|Product Description: AutoCAD Mechanical 2004 DX|Company: Autodesk"
 90
        0
280
     1
281
     0
  0
CLASS
  1
ACMDATUMSTANDARDJIS
  2
AcmDatumStdJIS
  3
"Amdt_StdImp|Product Description: AutoCAD Mechanical 2004 DX|Company: Autodesk"
 90
        0
280
     1
281
     0
  0
CLASS
  1
ACMBOMSTANDARDJIS
  2
AcmBOMStdJIS
  3
"Amdt_StdImp|Product Description: AutoCAD Mechanical 2004 DX|Company: Autodesk"
 90
        0
280
     1
281
     0
  0
CLASS
  1
AMDTNOTE
  2
AmdtNote
  3
"AcmSymBB|Product Description: AutoCAD Mechanical 2004 DX|Company: Autodesk"
 90
     1023
280
     1
281
     1
  0
CLASS
  1
ACGREFMASTER
  2
AcGrefMaster
  3
AcAttribServices
 90
        0
280
     1
281
     0
  0
CLASS
  1
ACGREFACADMASTER
  2
AcGrefacadMaster
  3
AcGrefServices
 90
        0
280
     1
281
     0
  0
CLASS
  1
AMIMASTER
  2
AmiMaster
  3
AmiServices
 90
        0
280
     1
281
     0
  0
CLASS
  1
ACAMGTITLESTD
  2
AcAmgTitleStd
  3
"TITLEAPP"
 90
        0
280
     1
281
     0
  0
CLASS
  1
ACMDETAILSTANDARDJIS
  2
AmdtDetailSymStdJIS
  3
"Amdt_StdImp|Product Description: AutoCAD Mechanical 2004 DX|Company: Autodesk"
 90
        0
280
     1
281
     0
  0
CLASS
  1
ACMSECTIONSTANDARDJIS
  2
AmdtSectionSymStdJIS
  3
"Amdt_StdImp|Product Description: AutoCAD Mechanical 2004 DX|Company: Autodesk"
 90
        0
280
     1
281
     0
  0
CLASS
  1
ACMCENTERLINESTANDARDJIS
  2
AmdtCenterLineStdJIS
  3
"Amdt_StdImp|Product Description: AutoCAD Mechanical 2004 DX|Company: Autodesk"
 90
        0
280
     1
281
     0
  0
CLASS
  1
ACMNOTESTANDARDJIS
  2
AmdtNoteStdJIS
  3
"Amdt_StdImp|Product Description: AutoCAD Mechanical 2004 DX|Company: Autodesk"
 90
        0
280
     1
281
     0
  0
CLASS
  1
ACAMGLAYSTD
  2
AcAmgLayStd
  3
"AcAmgLayStd|Product Description: AutoCAD Mechanical 2000|Company: Autodesk"
 90
        0
280
     1
281
     0
  0
CLASS
  1
ACAMGDIMSTD
  2
AcAmgDimStd
  3
"AcAmgDimStd|Product Description: AutoCAD Mechanical 2000|Company: Autodesk"
 90
        0
280
     1
281
     0
  0
CLASS
  1
AMDTFORMULAUPDATEDISPATCHER
  2
AmdtFormulaUpdateDispatcher
  3
AcMeServices
 90
        0
280
     1
281
     0
  0
CLASS
  1
DUMMY
  2
AcDbLongTransaction
  3
DUMMY
 90
        0
280
     0
281
     0
  0
CLASS
  1
LWPOLYLINE
  2
AcDbPolyline
  3
AutoCAD 2000
 90
        0
280
     0
281
     1
  0
CLASS
  1
HATCH
  2
AcDbHatch
  3
AutoCAD 2000
 90
        0
280
     0
281
     1
  0
CLASS
  1
XRECORD
  2
AcDbXrecord
  3
AutoCAD 2000
 90
        0
280
     0
281
     0
  0
CLASS
  1
DUMMY
  2
AcDbLongTransaction
  3
DUMMY
 90
        0
280
     0
281
     0
  0
CLASS
  1
LWPOLYLINE
  2
AcDbPolyline
  3
AutoCAD 2000
 90
        0
280
     0
281
     1
  0
CLASS
  1
HATCH
  2
AcDbHatch
  3
AutoCAD 2000
 90
        0
280
     0
281
     1
  0
CLASS
  1
XRECORD
  2
AcDbXrecord
  3
AutoCAD 2000
 90
        0
280
     0
281
     0
  0
CLASS
  1
ACDBCIRCARCRES
  2
AcDbCircArcRes
  3
AcGrefServices
 90
        0
280
     1
281
     0
  0
CLASS
  1
ACDBLINERES
  2
AcDbLineRes
  3
AcGrefServices
 90
        0
280
     1
281
     0
  0
CLASS
  1
ACDBELLIPSERES
  2
AcDbEllipseRes
  3
AcGrefServices
 90
        0
280
     1
281
     0
  0
CLASS
  1
DUMMY
  2
AcDbLongTransaction
  3
DUMMY
 90
        0
280
     0
281
     0
  0
CLASS
  1
LWPOLYLINE
  2
AcDbPolyline
  3
AutoCAD 2000
 90
        0
280
     0
281
     1
  0
CLASS
  1
HATCH
  2
AcDbHatch
  3
AutoCAD 2000
 90
        0
280
     0
281
     1
  0
CLASS
  1
XRECORD
  2
AcDbXrecord
  3
AutoCAD 2000
 90
        0
280
     0
281
     0
  0
CLASS
  1
TABLESTYLE
  2
AcDbTableStyle
  3
ObjectDBX Classes
 90
     2047
280
     0
281
     0
  0
CLASS
  1
AM_DRAWING_MGR
  2
AcDmDwgMgr
  3
AcMechDwgViewMgmt
 90
        0
280
     1
281
     0
  0
CLASS
  1
AM_DWG_DOCUMENT
  2
AcDmDwgDocument
  3
AcMechDwgViewMgmt
 90
        0
280
     1
281
     0
  0
CLASS
  1
AM_DWG_SHEET
  2
AcDmSheet
  3
AcMechDwgViewMgmt
 90
        0
280
     1
281
     0
  0
CLASS
  1
AM_VIEWDIMPARMAP
  2
AcDmViewDimParMap
  3
AcMechDwgViewMgmt
 90
        0
280
     1
281
     0
  0
CLASS
  1
AM_DWGMGR_NAME
  2
AcDmDwgMgrName
  3
AcMechDwgViewMgmt
 90
        0
280
     1
281
     0
  0
CLASS
  1
AMDTMENUSTATEMGR
  2
AmdtMenuStateMgr
  3
McadcomServices
 90
        0
280
     1
281
     0
  0
CLASS
  1
AMDTMCOMMENUSTATE
  2
AmdtMcomMenuState
  3
McadcomServices
 90
        0
280
     1
281
     0
  0
CLASS
  1
MAPIAMMOUDLE
  2
MApiAmModule
  3
MApiAmServices
 90
        0
280
     1
281
     0
  0
CLASS
  1
AMDTADMENUSTATE
  2
AmdtAdMenuState
  3
DesignerServices
 90
        0
280
     1
281
     0
  0
CLASS
  1
ADAPPL
  2
AcAdAppl
  3
DesignerServices
 90
        0
280
     1
281
     0
  0
CLASS
  1
DEPMGR
  2
AcAdDepMgr
  3
DesignerServices
 90
        0
280
     1
281
     0
  0
CLASS
  1
PARAMMGR
  2
AcAdParamMgr
  3
DesignerServices
 90
        0
280
     1
281
     0
  0
CLASS
  1
PARAMSCOPE
  2
AcAdParamScope
  3
DesignerServices
 90
        0
280
     1
281
     0
  0
CLASS
  1
NAMEDAPPL
  2
AcAdNamedAppl
  3
DesignerServices
 90
        0
280
     1
281
     0
  0
CLASS
  1
AMDTDMMENUSTATE
  2
AmdtDmMenuState
  3
AcMechDwgViewMgmt
 90
        0
280
     1
281
     0
  0
CLASS
  1
AMDTAMMENUSTATE
  2
AmdtAmMenuState
  3
DesignerAssemblies
 90
        0
280
     1
281
     0
  0
CLASS
  1
ACAMPROJECT
  2
AcAmProject
  3
DesignerAssemblies
 90
        0
280
     1
281
     0
  0
CLASS
  1
ACAMGRCOMPDEF
  2
AcAmGrCompDef
  3
DesignerAssemblies
 90
        0
280
     1
281
     0
  0
CLASS
  1
ACCMCONTEXT
  2
AcCmContext
  3
DesignerAssemblies
 90
        0
280
     1
281
     0
  0
CLASS
  1
ACAMCOMPDEF
  2
AcAmCompDef
  3
DesignerAssemblies
 90
        0
280
     1
281
     0
  0
CLASS
  1
ACAMCOMPDEFMGR
  2
AcAmCompDefMgr
  3
DesignerAssemblies
 90
        0
280
     1
281
     0
  0
CLASS
  1
AMCONTEXTMGR
  2
AcAmContextMgr
  3
DesignerAssemblies
 90
        0
280
     1
281
     0
  0
CLASS
  1
ACAMCONTEXTMODELER
  2
AcAmContextModeler
  3
DesignerAssemblies
 90
        0
280
     1
281
     0
  0
CLASS
  1
CATALOGSTATE
  2
AcAmCatalogState
  3
DesignerAssemblies
 90
        0
280
     1
281
     0
  0
CLASS
  1
ACAMGRCOMPDEFSET
  2
AcAmGrCompDefSet
  3
DesignerAssemblies
 90
        0
280
     1
281
     0
  0
CLASS
  1
AMDTBROWSERDBTAB
  2
AmdtBrowserDbTab
  3
McadcomServices
 90
        0
280
     1
281
     0
  0
CLASS
  1
CBROWSERAPPOBJECT
  2
CBrowserAppObject
  3
McadcomServices
 90
        0
280
     1
281
     0
  0
CLASS
  1
DM_PLACEHOLDER
  2
AcDmSelsetPlaceholder
  3
AcMechDwgViewMgmt
 90
        0
280
     1
281
     0
  0
CLASS
  1
ACMSTANDARDISO
  2
AcmStandardISO
  3
"Amdt_StdImp|Product Description: AutoCAD Mechanical 2004 DX|Company: Autodesk"
 90
        0
280
     1
281
     0
  0
CLASS
  1
AMDTEDGESTANDARDISO
  2
AmdtEdgeStdISO
  3
"Amdt_StdImp|Product Description: AutoCAD Mechanical 2004 DX|Company: Autodesk"
 90
        0
280
     1
281
     0
  0
CLASS
  1
ACMSURFSTANDARDISO
  2
AcmSurfTextStdISO
  3
"Amdt_StdImp|Product Description: AutoCAD Mechanical 2004 DX|Company: Autodesk"
 90
        0
280
     1
281
     0
  0
CLASS
  1
ACMFCFSTANDARDISO
  2
AcmFCFStdISO
  3
"Amdt_StdImp|Product Description: AutoCAD Mechanical 2004 DX|Company: Autodesk"
 90
        0
280
     1
281
     0
  0
CLASS
  1
ACMWELDSTANDARDISO
  2
AcmWeldingStdISO
  3
"Amdt_StdImp|Product Description: AutoCAD Mechanical 2004 DX|Company: Autodesk"
 90
        0
280
     1
281
     0
  0
CLASS
  1
ACMIDSTANDARDISO
  2
AcmIdStdISO
  3
"Amdt_StdImp|Product Description: AutoCAD Mechanical 2004 DX|Company: Autodesk"
 90
        0
280
     1
281
     0
  0
CLASS
  1
ACMDATUMSTANDARDISO
  2
AcmDatumStdISO
  3
"Amdt_StdImp|Product Description: AutoCAD Mechanical 2004 DX|Company: Autodesk"
 90
        0
280
     1
281
     0
  0
CLASS
  1
ACMBOMSTANDARDISO
  2
AcmBOMStdISO
  3
"Amdt_StdImp|Product Description: AutoCAD Mechanical 2004 DX|Company: Autodesk"
 90
        0
280
     1
281
     0
  0
CLASS
  1
ACMDETAILSTANDARDISO
  2
AmdtDetailSymStdISO
  3
"Amdt_StdImp|Product Description: AutoCAD Mechanical 2004 DX|Company: Autodesk"
 90
        0
280
     1
281
     0
  0
CLASS
  1
ACMSECTIONSTANDARDISO
  2
AmdtSectionSymStdISO
  3
"Amdt_StdImp|Product Description: AutoCAD Mechanical 2004 DX|Company: Autodesk"
 90
        0
280
     1
281
     0
  0
CLASS
  1
ACMCENTERLINESTANDARDISO
  2
AmdtCenterLineStdISO
  3
"Amdt_StdImp|Product Description: AutoCAD Mechanical 2004 DX|Company: Autodesk"
 90
        0
280
     1
281
     0
  0
CLASS
  1
ACMNOTESTANDARDISO
  2
AmdtNoteStdISO
  3
"Amdt_StdImp|Product Description: AutoCAD Mechanical 2004 DX|Company: Autodesk"
 90
        0
280
     1
281
     0
  0
CLASS
  1
AMDTNOTETEMPLATEDB
  2
AmdtNoteTemplateDB
  3
AMDT_STDIMP_MODULE_NAME
 90
        0
280
     1
281
     0
  0
CLASS
  1
ACAMGHOLECHARTSTDISO
  2
AcAmgHoleChartStdISO
  3
ACMSYMBB_MODULE_NAME
 90
        0
280
     1
281
     0
  0
CLASS
  1
ACMTHREADLINESTANDARDISO
  2
AmdtThreadLineStdISO
  3
"Amdt_StdImp|Product Description: AutoCAD Mechanical 2004 DX|Company: Autodesk"
 90
        0
280
     1
281
     0
  0
CLASS
  1
ACMFCFSTANDARDJIS98
  2
AcmFCFStdJIS98
  3
"Amdt_StdImp|Product Description: AutoCAD Mechanical 2004 DX|Company: Autodesk"
 90
        0
280
     1
281
     0
  0
CLASS
  1
ACMTHREADLINESTANDARDJIS
  2
AmdtThreadLineStdJIS
  3
"Amdt_StdImp|Product Description: AutoCAD Mechanical 2004 DX|Company: Autodesk"
 90
        0
280
     1
281
     0
  0
CLASS
  1
ACAMGHOLECHARTSTDJIS
  2
AcAmgHoleChartStdJIS
  3
ACMSYMBB_MODULE_NAME
 90
        0
280
     1
281
     0
  0
ENDSEC
  0
SECTION
  2
TABLES
  0
TABLE
  2
VPORT
  5
8
330
0
100
AcDbSymbolTable
 70
     3
  0
VPORT
  5
AE91
330
8
100
AcDbSymbolTableRecord
100
AcDbViewportTableRecord
  2
*Active
 70
     0
 10
0.0
 20
0.0
 11
1.0
 21
1.0
 12
124.8681782338723
 22
-1.082652591003011
 13
0.0
 23
0.0
 14
2.5
 24
2.5
 15
10.0
 25
10.0
 16
0.0
 26
0.0
 36
1.0
 17
0.0
 27
0.0
 37
0.0
 40
582.3645530377038
 41
2.011013215859031
 42
50.0
 43
0.0
 44
0.0
 50
0.0
 51
0.0
 71
     0
 72
  2000
 73
     1
 74
     3
 75
     0
 76
     0
 77
     0
 78
     0
281
     0
 65
     1
110
0.0
120
0.0
130
0.0
111
1.0
121
0.0
131
0.0
112
0.0
122
1.0
132
0.0
 79
     0
146
0.0
  0
ENDTAB
  0
TABLE
  2
LTYPE
  5
5
330
0
100
AcDbSymbolTable
 70
    17
  0
LTYPE
  5
14
330
5
100
AcDbSymbolTableRecord
100
AcDbLinetypeTableRecord
  2
ByBlock
 70
     0
  3

 72
    65
 73
     0
 40
0.0
  0
LTYPE
  5
15
330
5
100
AcDbSymbolTableRecord
100
AcDbLinetypeTableRecord
  2
ByLayer
 70
     0
  3

 72
    65
 73
     0
 40
0.0
  0
LTYPE
  5
16
330
5
100
AcDbSymbolTableRecord
100
AcDbLinetypeTableRecord
  2
Continuous
 70
     0
  3
Solid line
 72
    65
 73
     0
 40
0.0
  0
LTYPE
  5
43
330
5
100
AcDbSymbolTableRecord
100
AcDbLinetypeTableRecord
  2
AM_ISO02W050
 70
     0
  3
__ __ __ __ __ __ __ __ __ __ __ __ __ __ __
 72
    65
 73
     2
 40
7.5
 49
6.0
 74
     0
 49
-1.5
 74
     0
  0
LTYPE
  5
44
330
5
100
AcDbSymbolTableRecord
100
AcDbLinetypeTableRecord
  2
AM_ISO08W050
 70
     0
  3
____ . ____ . ____ . ____ . ____ . ____ . ____
 72
    65
 73
     4
 40
18.0
 49
12.0
 74
     0
 49
-1.5
 74
     0
 49
3.0
 74
     0
 49
-1.5
 74
     0
  0
LTYPE
  5
45
330
5
100
AcDbSymbolTableRecord
100
AcDbLinetypeTableRecord
  2
AM_ISO09W050
 70
     0
  3
_____ . . _____ . . _____ . . ____ .. ____
 72
    65
 73
     6
 40
22.5
 49
12.0
 74
     0
 49
-1.5
 74
     0
 49
3.0
 74
     0
 49
-1.5
 74
     0
 49
3.0
 74
     0
 49
-1.5
 74
     0
  0
LTYPE
  5
46
330
5
100
AcDbSymbolTableRecord
100
AcDbLinetypeTableRecord
  2
Amconstr
 70
     0
  3
_______________________
 72
    65
 73
     2
 40
9999.0
 49
9999.0
 74
     0
 49
0.0
 74
     0
  0
LTYPE
  5
47
330
5
100
AcDbSymbolTableRecord
100
AcDbLinetypeTableRecord
  2
AM_ISO02W050x2
 70
     0
  3
 _ _ _ _ _ _ _ _ _ _ _ _
 72
    65
 73
     2
 40
3.75
 49
3.0
 74
     0
 49
-0.75
 74
     0
  0
LTYPE
  5
48
330
5
100
AcDbSymbolTableRecord
100
AcDbLinetypeTableRecord
  2
AM_ISO08W050x2
 70
     0
  3
__ . __ . __ . __ . __ . __
 72
    65
 73
     4
 40
9.0
 49
6.0
 74
     0
 49
-0.75
 74
     0
 49
1.5
 74
     0
 49
-0.75
 74
     0
  0
LTYPE
  5
4B
330
5
100
AcDbSymbolTableRecord
100
AcDbLinetypeTableRecord
  2
Amzigzag
 70
     0
  3
/\/-/\/-/\/-/\/-/\/-/\/
 72
    65
 73
     2
 40
11.0001
 49
0.0001
 74
     4
 75
   135
340
4A
 46
0.04
 50
0.0
 44
0.0
 45
0.0
 49
-11.0
 74
     0
  0
LTYPE
  5
188
330
5
100
AcDbSymbolTableRecord
100
AcDbLinetypeTableRecord
  2
ACJISTGB
 70
     0
  3
__ . . __ . .
 72
    65
 73
     6
 40
9.0
 49
4.0
 74
     0
 49
-1.0
 74
     0
 49
1.0
 74
     0
 49
-1.0
 74
     0
 49
1.0
 74
     0
 49
-1.0
 74
     0
  0
LTYPE
  5
189
330
5
100
AcDbSymbolTableRecord
100
AcDbLinetypeTableRecord
  2
ACJISTGL
 70
     0
  3
_ _ _ _ _
 72
    65
 73
     2
 40
3.0
 49
2.0
 74
     0
 49
-1.0
 74
     0
  0
LTYPE
  5
652
330
5
100
AcDbSymbolTableRecord
100
AcDbLinetypeTableRecord
  2
CENTER
 70
     0
  3
__ . __
 72
    65
 73
     4
 40
7.0
 49
4.0
 74
     0
 49
-1.0
 74
     0
 49
1.0
 74
     0
 49
-1.0
 74
     0
  0
LTYPE
  5
12AB
330
5
100
AcDbSymbolTableRecord
100
AcDbLinetypeTableRecord
  2
HIDDEN
 70
     0
  3
Hidden __ __ __ __ __ __ __ __ __ __ __ __ __ _
 72
    65
 73
     2
 40
0.375
 49
0.25
 74
     0
 49
-0.125
 74
     0
  0
LTYPE
  5
12AC
330
5
100
AcDbSymbolTableRecord
100
AcDbLinetypeTableRecord
  2
PHANTOM2
 70
     0
  3
Phantom (.5x) ___ _ _ ___ _ _ ___ _ _ ___ _ _
 72
    65
 73
     6
 40
1.25
 49
0.625
 74
     0
 49
-0.125
 74
     0
 49
0.125
 74
     0
 49
-0.125
 74
     0
 49
0.125
 74
     0
 49
-0.125
 74
     0
  0
LTYPE
  5
AB91
330
5
100
AcDbSymbolTableRecord
100
AcDbLinetypeTableRecord
  2
ACISOWELD
 70
     0
  3
_ _ _ _ _
 72
    65
 73
     2
 40
2.0
 49
2.0
 74
     0
 49
-1.0
 74
     0
  0
LTYPE
  5
AB94
330
5
100
AcDbSymbolTableRecord
100
AcDbLinetypeTableRecord
  2
ACISOTGB
 70
     0
  3
__ . . __ . .
 72
    65
 73
     6
 40
9.0
 49
4.0
 74
     0
 49
-1.0
 74
     0
 49
1.0
 74
     0
 49
-1.0
 74
     0
 49
1.0
 74
     0
 49
-1.0
 74
     0
  0
LTYPE
  5
AB95
330
5
100
AcDbSymbolTableRecord
100
AcDbLinetypeTableRecord
  2
ACISOTGL
 70
     0
  3
_ _ _ _ _
 72
    65
 73
     2
 40
3.0
 49
2.0
 74
     0
 49
-1.0
 74
     0
  0
LTYPE
  5
ABBE
330
5
100
AcDbSymbolTableRecord
100
AcDbLinetypeTableRecord
  2
ACJISWELD
 70
     0
  3
_ _ _ _ _
 72
    65
 73
     2
 40
2.0
 49
2.0
 74
     0
 49
-1.0
 74
     0
  0
ENDTAB
  0
TABLE
  2
LAYER
  5
2
330
0
100
AcDbSymbolTable
 70
     8
  0
LAYER
  5
10
330
2
100
AcDbSymbolTableRecord
100
AcDbLayerTableRecord
  2
0
 70
     0
 62
     7
  6
Continuous
370
    -3
390
F
  0
LAYER
  5
7D
330
2
100
AcDbSymbolTableRecord
100
AcDbLayerTableRecord
  2
AM_5
 70
     0
 62
     3
  6
Continuous
370
    13
390
F
  0
LAYER
  5
7F
330
2
100
AcDbSymbolTableRecord
100
AcDbLayerTableRecord
  2
Defpoints
 70
     0
 62
     7
  6
Continuous
290
     0
370
    -3
390
F
  0
LAYER
  5
12B1
330
2
100
AcDbSymbolTableRecord
100
AcDbLayerTableRecord
  2
AM_0
 70
     0
 62
     7
  6
Continuous
370
    30
390
F
  0
LAYER
  5
1896
330
2
100
AcDbSymbolTableRecord
100
AcDbLayerTableRecord
  2
AM_7
 70
     0
 62
     4
  6
AM_ISO08W050
370
    13
390
F
  0
LAYER
  5
2C94
330
2
100
AcDbSymbolTableRecord
100
AcDbLayerTableRecord
  2
AM_11
 70
     0
 62
     3
  6
AM_ISO09W050
370
    25
390
F
  0
ENDTAB
  0
TABLE
  2
STYLE
  5
3
330
0
100
AcDbSymbolTable
 70
     6
  0
STYLE
  5
11
330
3
100
AcDbSymbolTableRecord
100
AcDbTextStyleTableRecord
  2
STANDARD
 70
     0
 40
0.0
 41
1.0
 50
0.0
 71
     0
 42
3.15
  3
ISOCP.SHX
  4
EXTFONT.SHX
  0
STYLE
  5
4A
330
3
100
AcDbSymbolTableRecord
100
AcDbTextStyleTableRecord
  2

 70
     1
 40
0.0
 41
1.0
 50
0.0
 71
     0
 42
2.5
  3
ltypeshp.shx
  4

  0
STYLE
  5
180
330
3
100
AcDbSymbolTableRecord
100
AcDbTextStyleTableRecord
  2
ACJISTS
 70
     0
 40
1.0
 41
1.0
 50
0.0
 71
     0
 42
1.0
  3
isocp.shx
  4
extfont.shx
  0
STYLE
  5
187
330
3
100
AcDbSymbolTableRecord
100
AcDbTextStyleTableRecord
  2
ACJISGDT
 70
     0
 40
0.0
 41
1.0
 50
0.0
 71
     0
 42
1.0
  3
amgdt.shx
  4

  0
STYLE
  5
AB8B
330
3
100
AcDbSymbolTableRecord
100
AcDbTextStyleTableRecord
  2
ACISOTS
 70
     0
 40
3.8
 41
1.0
 50
0.0
 71
     0
 42
3.8
  3
isocp.shx
  4
extfont.shx
  0
STYLE
  5
AB8F
330
3
100
AcDbSymbolTableRecord
100
AcDbTextStyleTableRecord
  2
ACISOGDT
 70
     0
 40
0.0
 41
1.0
 50
0.0
 71
     0
 42
2.5
  3
amgdt.shx
  4
extfont.shx
  0
ENDTAB
  0
TABLE
  2
VIEW
  5
6
330
0
100
AcDbSymbolTable
 70
     6
  0
VIEW
  5
A30
330
6
100
AcDbSymbolTableRecord
100
AcDbViewTableRecord
  2
AM_VIEW1
 70
     0
 40
148.5
 10
114.1105263157895
 20
222.75
 41
228.2210526315789
 11
0.0
 21
0.0
 31
1.0
 12
0.0
 22
0.0
 32
0.0
 42
50.0
 43
0.0
 44
0.0
 50
0.0
 71
     0
281
     0
 72
     0
  0
VIEW
  5
A31
330
6
100
AcDbSymbolTableRecord
100
AcDbViewTableRecord
  2
AM_VIEW2
 70
     0
 40
148.5
 10
305.8894736842105
 20
222.75
 41
228.2210526315789
 11
0.0
 21
0.0
 31
1.0
 12
0.0
 22
0.0
 32
0.0
 42
50.0
 43
0.0
 44
0.0
 50
0.0
 71
     0
281
     0
 72
     0
  0
VIEW
  5
A32
330
6
100
AcDbSymbolTableRecord
100
AcDbViewTableRecord
  2
AM_VIEW3
 70
     0
 40
148.5
 10
114.1105263157895
 20
74.25
 41
228.2210526315789
 11
0.0
 21
0.0
 31
1.0
 12
0.0
 22
0.0
 32
0.0
 42
50.0
 43
0.0
 44
0.0
 50
0.0
 71
     0
281
     0
 72
     0
  0
VIEW
  5
A33
330
6
100
AcDbSymbolTableRecord
100
AcDbViewTableRecord
  2
AM_VIEW4
 70
     0
 40
148.5
 10
305.8894736842105
 20
74.25
 41
228.2210526315789
 11
0.0
 21
0.0
 31
1.0
 12
0.0
 22
0.0
 32
0.0
 42
50.0
 43
0.0
 44
0.0
 50
0.0
 71
     0
281
     0
 72
     0
  0
VIEW
  5
A34
330
6
100
AcDbSymbolTableRecord
100
AcDbViewTableRecord
  2
AM_VIEW5
 70
     0
 40
148.5
 10
210.0
 20
148.5
 41
228.2210526315789
 11
0.0
 21
0.0
 31
1.0
 12
0.0
 22
0.0
 32
0.0
 42
50.0
 43
0.0
 44
0.0
 50
0.0
 71
     0
281
     0
 72
     0
  0
VIEW
  5
A35
330
6
100
AcDbSymbolTableRecord
100
AcDbViewTableRecord
  2
AM_VIEW6
 70
     0
 40
296.99703
 10
210.0
 20
148.5
 41
456.4375408421053
 11
0.0
 21
0.0
 31
1.0
 12
0.0
 22
0.0
 32
0.0
 42
50.0
 43
0.0
 44
0.0
 50
0.0
 71
     0
281
     0
 72
     0
  0
ENDTAB
  0
TABLE
  2
UCS
  5
7
330
0
100
AcDbSymbolTable
 70
     0
  0
ENDTAB
  0
TABLE
  2
APPID
  5
9
330
0
100
AcDbSymbolTable
 70
    46
  0
APPID
  5
12
330
9
100
AcDbSymbolTableRecord
100
AcDbRegAppTableRecord
  2
ACAD
 70
     0
  0
APPID
  5
2C
330
9
100
AcDbSymbolTableRecord
100
AcDbRegAppTableRecord
  2
MCAD_NO_VIS
 70
     0
  0
APPID
  5
2D
330
9
100
AcDbSymbolTableRecord
100
AcDbRegAppTableRecord
  2
ACAD_TEMP_GRAPHIC
 70
     0
  0
APPID
  5
B9
330
9
100
AcDbSymbolTableRecord
100
AcDbRegAppTableRecord
  2
GENIUS_GENDTOL_13
 70
     0
  0
APPID
  5
359
330
9
100
AcDbSymbolTableRecord
100
AcDbRegAppTableRecord
  2
GENIUS_GENREC_14
 70
     0
  0
APPID
  5
35A
330
9
100
AcDbSymbolTableRecord
100
AcDbRegAppTableRecord
  2
GENIUS_GENODEF_13
 70
     0
  0
APPID
  5
35B
330
9
100
AcDbSymbolTableRecord
100
AcDbRegAppTableRecord
  2
GENIUS_GENOBJ-N-REC_13
 70
     0
  0
APPID
  5
667
330
9
100
AcDbSymbolTableRecord
100
AcDbRegAppTableRecord
  2
GENIUS_GENCFG_13
 70
     0
1001
GENIUS_GENCFG0_13
1000
GEN
  0
APPID
  5
668
330
9
100
AcDbSymbolTableRecord
100
AcDbRegAppTableRecord
  2
GENIUS_GENCFG0_13
 70
     0
1001
GENIUS_GENCFG_13
1071
1179386448
1000
668
1000
GEN
1070
     0
  0
APPID
  5
669
330
9
100
AcDbSymbolTableRecord
100
AcDbRegAppTableRecord
  2
GENIUS_GENCFG1_13
 70
     0
  0
APPID
  5
66A
330
9
100
AcDbSymbolTableRecord
100
AcDbRegAppTableRecord
  2
GENIUS_GENCFG2_13
 70
     0
  0
APPID
  5
66B
330
9
100
AcDbSymbolTableRecord
100
AcDbRegAppTableRecord
  2
GENIUS_GENCFG3_13
 70
     0
  0
APPID
  5
66C
330
9
100
AcDbSymbolTableRecord
100
AcDbRegAppTableRecord
  2
GENIUS_GENCFG4_13
 70
     0
  0
APPID
  5
A76
330
9
100
AcDbSymbolTableRecord
100
AcDbRegAppTableRecord
  2
GENIUS_GENBLLY_14
 70
     0
  0
APPID
  5
A77
330
9
100
AcDbSymbolTableRecord
100
AcDbRegAppTableRecord
  2
GENIUS_GENOBJ-N-CEN_13
 70
     0
  0
APPID
  5
A83
330
9
100
AcDbSymbolTableRecord
100
AcDbRegAppTableRecord
  2
GENIUS_GENTRA_14
 70
     0
  0
APPID
  5
A8D
330
9
100
AcDbSymbolTableRecord
100
AcDbRegAppTableRecord
  2
GENIUS_GENOBJ-N-TIT_13
 70
     0
  0
APPID
  5
A8E
330
9
100
AcDbSymbolTableRecord
100
AcDbRegAppTableRecord
  2
GENIUS_GENTITLE_13
 70
     0
  0
APPID
  5
A8F
330
9
100
AcDbSymbolTableRecord
100
AcDbRegAppTableRecord
  2
GENIUS_GENOENT_13
 70
     0
  0
APPID
  5
A90
330
9
100
AcDbSymbolTableRecord
100
AcDbRegAppTableRecord
  2
GENIUS_GENOREF_13
 70
     0
  0
APPID
  5
A91
330
9
100
AcDbSymbolTableRecord
100
AcDbRegAppTableRecord
  2
GENIUS_GENOLIS_13
 70
     0
  0
APPID
  5
A92
330
9
100
AcDbSymbolTableRecord
100
AcDbRegAppTableRecord
  2
GENIUS_GENZVEED_13
 70
     0
  0
APPID
  5
A93
330
9
100
AcDbSymbolTableRecord
100
AcDbRegAppTableRecord
  2
GENIUS_GENSCREG_15
 70
     0
  0
APPID
  5
A94
330
9
100
AcDbSymbolTableRecord
100
AcDbRegAppTableRecord
  2
GENIUS_GENOBJ-N-SDF_13
 70
     0
  0
APPID
  5
12B5
330
9
100
AcDbSymbolTableRecord
100
AcDbRegAppTableRecord
  2
GENIUS_GENOBJ-N-RSBK_13
 70
     0
  0
APPID
  5
12B6
330
9
100
AcDbSymbolTableRecord
100
AcDbRegAppTableRecord
  2
GENIUS_GENOBJ-N-LIB_13
 70
     0
  0
APPID
  5
12B7
330
9
100
AcDbSymbolTableRecord
100
AcDbRegAppTableRecord
  2
GENIUS_GENSCALE_13
 70
     0
  0
APPID
  5
12B8
330
9
100
AcDbSymbolTableRecord
100
AcDbRegAppTableRecord
  2
GENIUS_GENOBJ-N-HTC_13
 70
     0
  0
APPID
  5
12B9
330
9
100
AcDbSymbolTableRecord
100
AcDbRegAppTableRecord
  2
GENIUS_GENHATCH_13
 70
     0
  0
APPID
  5
189B
330
9
100
AcDbSymbolTableRecord
100
AcDbRegAppTableRecord
  2
BASE_TYPE
 70
     0
  0
APPID
  5
189C
330
9
100
AcDbSymbolTableRecord
100
AcDbRegAppTableRecord
  2
GENIUS_GENOBJ-N-FIL_13
 70
     0
  0
APPID
  5
23D0
330
9
100
AcDbSymbolTableRecord
100
AcDbRegAppTableRecord
  2
ACATTRIBSERVICES
 70
     0
  0
APPID
  5
264C
330
9
100
AcDbSymbolTableRecord
100
AcDbRegAppTableRecord
  2
GENIUS_GENSCREG_13
 70
     0
  0
APPID
  5
26E5
330
9
100
AcDbSymbolTableRecord
100
AcDbRegAppTableRecord
  2
CONTENTBLOCKICON
 70
     0
  0
APPID
  5
2747
330
9
100
AcDbSymbolTableRecord
100
AcDbRegAppTableRecord
  2
GENIUS_GENFIL_13
 70
     0
  0
APPID
  5
2748
330
9
100
AcDbSymbolTableRecord
100
AcDbRegAppTableRecord
  2
GENIUS_GENOBJ-N-CHA_13
 70
     0
  0
APPID
  5
2749
330
9
100
AcDbSymbolTableRecord
100
AcDbRegAppTableRecord
  2
GENIUS_GENDIMSH_14
 70
     0
  0
APPID
  5
274A
330
9
100
AcDbSymbolTableRecord
100
AcDbRegAppTableRecord
  2
GENIUS_GENOBJ-N-DIM_13
 70
     0
  0
APPID
  5
274B
330
9
100
AcDbSymbolTableRecord
100
AcDbRegAppTableRecord
  2
GENIUS_GENDIM_13
 70
     0
  0
APPID
  5
2A08
330
9
100
AcDbSymbolTableRecord
100
AcDbRegAppTableRecord
  2
GENIUS_GENOBJ-N-CRS_13
 70
     0
  0
APPID
  5
AB2C
330
9
100
AcDbSymbolTableRecord
100
AcDbRegAppTableRecord
  2
AD_DRAW
 70
     0
  0
APPID
  5
AB2D
330
9
100
AcDbSymbolTableRecord
100
AcDbRegAppTableRecord
  2
DESIGNERASSEMBLIES
 70
     0
  0
APPID
  5
AB2E
330
9
100
AcDbSymbolTableRecord
100
AcDbRegAppTableRecord
  2
ACADM_DIM_EDIT
 70
     0
  0
APPID
  5
AB2F
330
9
100
AcDbSymbolTableRecord
100
AcDbRegAppTableRecord
  2
AMDT_DM_ADJ
 70
     0
  0
APPID
  5
AB30
330
9
100
AcDbSymbolTableRecord
100
AcDbRegAppTableRecord
  2
ACAD_DSTYLE_DIMTEXT_FILL
 70
     0
  0
APPID
  5
AB31
330
9
100
AcDbSymbolTableRecord
100
AcDbRegAppTableRecord
  2
ACAD_PSEXT
 70
     0
  0
ENDTAB
  0
TABLE
  2
DIMSTYLE
  5
A
330
0
100
AcDbSymbolTable
 70
    16
100
AcDbDimStyleTable
  0
DIMSTYLE
105
58
330
A
100
AcDbSymbolTableRecord
100
AcDbDimStyleTableRecord
  2
AM_JIS
 70
     0
  4
"
 41
2.5
 42
1.0
 43
10.0
 44
1.0
 47
0.1
 48
0.1000000001
 73
     0
 74
     0
 77
     3
 78
     8
 79
     2
140
3.8
141
0.0
143
0.0393701
146
0.71
147
1.5
172
     1
176
   256
177
   256
178
     2
271
     2
272
     2
275
     1
283
     0
284
     8
340
11
341
59
342
59
371
    -1
372
    -1
  0
DIMSTYLE
105
5F
330
A
100
AcDbSymbolTableRecord
100
AcDbDimStyleTableRecord
  2
AM_JIS$3
 70
     0
  4
"
 41
2.5
 42
1.0
 43
10.0
 44
1.0
 47
0.1
 48
0.1000000001
 73
     0
 77
     3
 78
     8
 79
     2
140
3.8
141
0.0
143
0.0393701
146
0.71
147
1.5
176
   256
177
   256
178
     2
271
     2
272
     2
275
     1
283
     0
284
     8
288
     1
289
     0
340
11
341
59
342
59
371
    -1
372
    -1
  0
DIMSTYLE
105
60
330
A
100
AcDbSymbolTableRecord
100
AcDbDimStyleTableRecord
  2
AM_JIS$4
 70
     0
  4
"
 41
2.5
 42
1.0
 43
10.0
 44
1.0
 47
0.1
 48
0.1000000001
 73
     0
 77
     3
 78
     8
 79
     2
140
3.8
141
0.0
143
0.0393701
146
0.71
147
1.5
176
   256
177
   256
178
     2
271
     2
272
     2
275
     1
283
     0
284
     8
288
     1
289
     0
340
11
341
59
342
59
371
    -1
372
    -1
  0
DIMSTYLE
105
61
330
A
100
AcDbSymbolTableRecord
100
AcDbDimStyleTableRecord
  2
AM_JIS$6
 70
     0
  4
"
 41
2.5
 42
1.0
 43
10.0
 44
1.0
 47
0.1
 48
0.1000000001
 73
     0
 74
     0
 78
     8
 79
     2
140
3.8
141
0.0
143
0.0393701
146
0.71
147
1.5
172
     1
176
   256
177
   256
178
     2
271
     2
272
     2
275
     1
283
     0
284
     8
340
11
341
59
342
59
371
    -1
372
    -1
  0
DIMSTYLE
105
62
330
A
100
AcDbSymbolTableRecord
100
AcDbDimStyleTableRecord
  2
AM_JIS$7
 70
     0
  4
"
 41
2.5
 42
1.0
 43
10.0
 44
1.0
 47
0.1
 48
0.1000000001
 73
     0
 74
     0
 77
     3
 78
     8
 79
     2
140
5.0
141
0.0
143
0.0393701
146
0.71
147
1.5
172
     1
176
   256
177
   256
178
     2
271
     2
272
     2
275
     1
283
     0
284
     8
340
11
341
59
342
59
371
    -1
372
    -1
  0
DIMSTYLE
105
63
330
A
100
AcDbSymbolTableRecord
100
AcDbDimStyleTableRecord
  2
AM_JIS$SF
 70
     0
  4
"
 41
2.5
 42
1.0
 43
10.0
 44
1.0
 47
0.1
 48
0.1
 73
     0
 74
     0
 75
     1
 76
     1
 77
     3
 78
     8
 79
     2
140
3.5
141
0.0
143
0.0393701
146
0.71
147
1.5
172
     1
176
   256
177
   256
178
     2
271
     2
272
     3
274
     4
283
     0
284
     8
340
11
341
59
342
59
343
59
344
59
371
    -1
372
    -1
  0
DIMSTYLE
105
68
330
A
100
AcDbSymbolTableRecord
100
AcDbDimStyleTableRecord
  2
AM_JIS$SH
 70
     0
  4
"
 41
2.5
 42
1.0
 43
10.0
 44
1.0
 47
0.1
 48
0.1
 73
     0
 74
     0
 75
     1
 76
     1
 77
     3
 78
     8
 79
     2
140
3.5
141
0.0
143
0.0393701
144
2.0
146
0.71
147
1.5
172
     1
173
     1
176
   256
177
   256
178
     2
271
     2
272
     3
274
     4
283
     0
284
     8
340
11
341
59
342
59
343
64
344
59
371
    -1
372
    -1
  0
DIMSTYLE
105
65F
330
A
100
AcDbSymbolTableRecord
100
AcDbDimStyleTableRecord
  2
STANDARD
 70
     0
340
11
  0
DIMSTYLE
105
1899
102
{ACAD_REACTORS
330
81E7
330
7A0E
330
9FE5
102
}
330
A
100
AcDbSymbolTableRecord
100
AcDbDimStyleTableRecord
  2
AM_JIS$0
 70
     0
  4
"
 41
2.5
 42
0.0
 43
10.0
 44
1.0
 47
0.1
 48
0.1000000001
 73
     0
 74
     0
 77
     3
 78
     1
 79
     2
140
3.8
141
0.0
143
0.0393701
146
0.71
147
1.5
172
     1
176
     3
177
     3
178
     2
271
     3
272
     3
275
     1
283
     0
284
     8
289
     0
340
11
341
59
342
59
371
    13
372
    13
  0
DIMSTYLE
105
ABAA
330
A
100
AcDbSymbolTableRecord
100
AcDbDimStyleTableRecord
  2
AM_ISO
 70
     0
  4
"
 41
2.5
 42
1.0
 43
10.0
 44
1.0
 47
0.1
 48
0.1
 73
     0
 74
     0
 77
     1
 78
     8
 79
     2
140
3.5
141
0.0
143
0.0393701
146
0.71
147
1.5
172
     1
176
   256
177
   256
178
     2
271
     2
272
     3
274
     4
283
     0
284
     8
340
11
371
    -1
372
    -1
  0
DIMSTYLE
105
ABAB
330
A
100
AcDbSymbolTableRecord
100
AcDbDimStyleTableRecord
  2
AM_ISO$3
 70
     0
  4
"
 41
2.5
 42
1.0
 43
10.0
 44
1.0
 47
0.1
 48
0.1
 73
     0
 77
     1
 78
     8
 79
     2
140
3.5
141
0.0
143
0.0393701
146
0.71
147
1.5
176
   256
177
   256
178
     2
271
     2
272
     3
274
     4
283
     0
284
     8
288
     1
289
     0
340
11
371
    -1
372
    -1
  0
DIMSTYLE
105
ABAC
330
A
100
AcDbSymbolTableRecord
100
AcDbDimStyleTableRecord
  2
AM_ISO$4
 70
     0
  4
"
 41
2.5
 42
1.0
 43
10.0
 44
1.0
 47
0.1
 48
0.1
 73
     0
 77
     1
 78
     8
 79
     2
140
3.5
141
0.0
143
0.0393701
146
0.71
147
1.5
176
   256
177
   256
178
     2
271
     2
272
     3
274
     4
283
     0
284
     8
288
     1
289
     0
340
11
371
    -1
372
    -1
  0
DIMSTYLE
105
ABAD
330
A
100
AcDbSymbolTableRecord
100
AcDbDimStyleTableRecord
  2
AM_ISO$6
 70
     0
  4
"
 41
2.5
 42
1.0
 43
10.0
 44
1.0
 47
0.1
 48
0.1
 73
     0
 74
     0
 78
     8
 79
     2
140
3.5
141
0.0
143
0.0393701
146
0.71
147
1.5
172
     1
176
   256
177
   256
178
     2
271
     2
272
     3
274
     4
283
     0
284
     8
340
11
371
    -1
372
    -1
  0
DIMSTYLE
105
ABAE
330
A
100
AcDbSymbolTableRecord
100
AcDbDimStyleTableRecord
  2
AM_ISO$7
 70
     0
  4
"
 41
2.5
 42
1.0
 43
10.0
 44
1.0
 47
0.1
 48
0.1
 73
     0
 74
     0
 77
     1
 78
     8
 79
     2
140
5.0
141
0.0
143
0.0393701
146
0.71
147
1.5
172
     1
176
   256
177
   256
178
     2
271
     2
272
     3
274
     4
283
     0
284
     8
340
11
371
    -1
372
    -1
  0
DIMSTYLE
105
ABAF
330
A
100
AcDbSymbolTableRecord
100
AcDbDimStyleTableRecord
  2
AM_ISO$SF
 70
     0
  4
"
 41
2.5
 42
1.0
 43
10.0
 44
1.0
 47
0.1
 48
0.1
 73
     0
 74
     0
 75
     1
 76
     1
 77
     1
 78
     8
 79
     2
140
3.5
141
0.0
143
0.0393701
146
0.71
147
1.5
172
     1
176
   256
177
   256
178
     2
271
     2
272
     3
274
     4
283
     0
284
     8
340
11
371
    -1
372
    -1
  0
DIMSTYLE
105
ABB0
330
A
100
AcDbSymbolTableRecord
100
AcDbDimStyleTableRecord
  2
AM_ISO$SH
 70
     0
  4
"
 41
2.5
 42
1.0
 43
10.0
 44
1.0
 47
0.1
 48
0.1
 73
     0
 74
     0
 75
     1
 76
     1
 77
     1
 78
     8
 79
     2
140
3.5
141
0.0
143
0.0393701
144
2.0
146
0.71
147
1.5
172
     1
173
     1
176
   256
177
   256
178
     2
271
     2
272
     3
274
     4
283
     0
284
     8
340
11
343
64
371
    -1
372
    -1
  0
ENDTAB
  0
TABLE
  2
BLOCK_RECORD
  5
1
330
0
100
AcDbSymbolTable
 70
     8
  0
BLOCK_RECORD
  5
1F
102
{ACAD_XDICTIONARY
360
165
102
}
330
1
100
AcDbSymbolTableRecord
100
AcDbBlockTableRecord
  2
*Model_Space
340
22
  0
BLOCK_RECORD
  5
1B
102
{ACAD_XDICTIONARY
360
264F
102
}
330
1
100
AcDbSymbolTableRecord
100
AcDbBlockTableRecord
  2
*Paper_Space
340
1E
  0
BLOCK_RECORD
  5
23
102
{ACAD_XDICTIONARY
360
2651
102
}
330
1
100
AcDbSymbolTableRecord
100
AcDbBlockTableRecord
  2
*Paper_Space0
340
26
  0
BLOCK_RECORD
  5
59
330
1
100
AcDbSymbolTableRecord
100
AcDbBlockTableRecord
  2
_Open30
340
0
102
{BLKREFS
331
AE25
331
AE26
331
AE2E
331
AE2F
331
AE37
331
AE38
102
}
  0
BLOCK_RECORD
  5
64
330
1
100
AcDbSymbolTableRecord
100
AcDbBlockTableRecord
  2
GENAXEH
340
0
  0
BLOCK_RECORD
  5
7A0F
330
1
100
AcDbSymbolTableRecord
100
AcDbBlockTableRecord
  2
*D3
340
0
  0
BLOCK_RECORD
  5
81E8
330
1
100
AcDbSymbolTableRecord
100
AcDbBlockTableRecord
  2
*D4
340
0
  0
BLOCK_RECORD
  5
9FE6
330
1
100
AcDbSymbolTableRecord
100
AcDbBlockTableRecord
  2
*D5
340
0
  0
BLOCK_RECORD
  5
AB78
330
1
100
AcDbSymbolTableRecord
100
AcDbBlockTableRecord
  2
*U7
340
0
  0
ENDTAB
  0
ENDSEC
  0
SECTION
  2
BLOCKS
  0
BLOCK
  5
20
330
1F
100
AcDbEntity
  8
0
100
AcDbBlockBegin
  2
*Model_Space
 70
     0
 71
     0
 10
0.0
 20
0.0
 30
0.0
  3
*Model_Space
  1

  0
ENDBLK
  5
21
330
1F
100
AcDbEntity
  8
0
100
AcDbBlockEnd
  0
BLOCK
  5
1C
330
1B
100
AcDbEntity
 67
     1
  8
0
100
AcDbBlockBegin
  2
*Paper_Space
 70
     0
 71
     0
 10
0.0
 20
0.0
 30
0.0
  3
*Paper_Space
  1

  0
ENDBLK
  5
1D
330
1B
100
AcDbEntity
 67
     1
  8
0
100
AcDbBlockEnd
  0
BLOCK
  5
24
330
23
100
AcDbEntity
  8
0
100
AcDbBlockBegin
  2
*Paper_Space0
 70
     0
 71
     0
 10
0.0
 20
0.0
 30
0.0
  3
*Paper_Space0
  1

  0
ENDBLK
  5
25
330
23
100
AcDbEntity
  8
0
100
AcDbBlockEnd
  0
BLOCK
  5
ABD2
330
59
100
AcDbEntity
  8
0
100
AcDbBlockBegin
  2
_Open30
 70
     0
 71
     0
 10
0.0
 20
0.0
 30
0.0
  3
_Open30
  1

  0
LINE
  5
ABD3
330
59
100
AcDbEntity
  8
0
  6
ByBlock
 62
     0
370
    -2
100
AcDbLine
 10
-1.0
 20
0.26794919
 30
0.0
 11
0.0
 21
0.0
 31
0.0
  0
LINE
  5
ABD4
330
59
100
AcDbEntity
  8
0
  6
ByBlock
 62
     0
370
    -2
100
AcDbLine
 10
0.0
 20
0.0
 30
0.0
 11
-1.0
 21
-0.26794919
 31
0.0
  0
LINE
  5
ABD5
330
59
100
AcDbEntity
  8
0
  6
ByBlock
 62
     0
370
    -2
100
AcDbLine
 10
0.0
 20
0.0
 30
0.0
 11
-1.0
 21
0.0
 31
0.0
  0
ENDBLK
  5
ABD6
330
59
100
AcDbEntity
  8
0
100
AcDbBlockEnd
  0
BLOCK
  5
ABB2
330
64
100
AcDbEntity
  8
0
100
AcDbBlockBegin
  2
GENAXEH
 70
     0
 71
     0
 10
0.0
 20
0.0
 30
0.0
  3
GENAXEH
  1

  0
LINE
  5
ABB3
330
64
100
AcDbEntity
  8
0
100
AcDbLine
 10
-1.0
 20
0.0
 30
0.0
 11
1.0
 21
0.0
 31
0.0
  0
ENDBLK
  5
ABB4
330
64
100
AcDbEntity
  8
0
100
AcDbBlockEnd
  0
BLOCK
  5
7A19
330
7A0F
100
AcDbEntity
  8
0
100
AcDbBlockBegin
  2
*D3
 70
     1
 71
     0
 10
0.0
 20
0.0
 30
0.0
  3
*D3
  1

  0
LINE
  5
AE22
330
7A0F
100
AcDbEntity
  8
AM_5
 62
     3
370
    13
100
AcDbLine
 10
-0.0000000000000568
 20
-29.99999999999585
 30
0.0
 11
-0.000000000000059
 21
-64.49999999999588
 31
0.0
  0
LINE
  5
AE23
330
7A0F
100
AcDbEntity
  8
AM_5
 62
     3
370
    13
100
AcDbLine
 10
86.99999999999994
 20
-31.49999999999585
 30
0.0
 11
86.99999999999994
 21
-64.49999999999588
 31
0.0
  0
LINE
  5
AE24
330
7A0F
100
AcDbEntity
  8
AM_5
 62
     3
370
    13
100
AcDbLine
 10
2.499999999999941
 20
-63.49999999999588
 30
0.0
 11
84.49999999999994
 21
-63.49999999999588
 31
0.0
  0
INSERT
  5
AE25
330
7A0F
100
AcDbEntity
  8
AM_5
 62
     3
370
    13
100
AcDbBlockReference
  2
_Open30
 10
-0.0000000000000589
 20
-63.49999999999588
 30
0.0
 41
2.5
 42
2.5
 43
2.5
 50
180.0
  0
INSERT
  5
AE26
330
7A0F
100
AcDbEntity
  8
AM_5
 62
     3
370
    13
100
AcDbBlockReference
  2
_Open30
 10
86.99999999999994
 20
-63.49999999999588
 30
0.0
 41
2.5
 42
2.5
 43
2.5
  0
MTEXT
  5
AE27
330
7A0F
100
AcDbEntity
  8
AM_5
 62
     2
100
AcDbMText
 10
43.49999999999994
 20
-60.09999999999588
 30
0.0
 40
3.8
 41
0.0
 71
     5
 72
     1
  1
87
 73
     1
 44
1.0
  0
POINT
  5
AE28
330
7A0F
100
AcDbEntity
  8
Defpoints
 62
     0
100
AcDbPoint
 10
-0.0000000000000568
 20
-29.99999999999585
 30
0.0
  0
POINT
  5
AE29
330
7A0F
100
AcDbEntity
  8
Defpoints
 62
     0
100
AcDbPoint
 10
86.99999999999994
 20
-31.49999999999585
 30
0.0
  0
POINT
  5
AE2A
330
7A0F
100
AcDbEntity
  8
Defpoints
 62
     0
100
AcDbPoint
 10
86.99999999999994
 20
-63.49999999999588
 30
0.0
  0
ENDBLK
  5
7A1A
330
7A0F
100
AcDbEntity
  8
0
100
AcDbBlockEnd
  0
BLOCK
  5
81F2
330
81E8
100
AcDbEntity
  8
0
100
AcDbBlockBegin
  2
*D4
 70
     1
 71
     0
 10
0.0
 20
0.0
 30
0.0
  3
*D4
  1

  0
LINE
  5
AE2B
330
81E8
100
AcDbEntity
  8
AM_5
 62
     3
370
    13
100
AcDbLine
 10
86.99999999999994
 20
31.50000000000415
 30
0.0
 11
145.9899171987326
 21
31.50000000000413
 31
0.0
  0
LINE
  5
AE2C
330
81E8
100
AcDbEntity
  8
AM_5
 62
     3
370
    13
100
AcDbLine
 10
86.99999999999994
 20
-31.49999999999585
 30
0.0
 11
145.9899171987326
 21
-31.49999999999587
 31
0.0
  0
LINE
  5
AE2D
330
81E8
100
AcDbEntity
  8
AM_5
 62
     3
370
    13
100
AcDbLine
 10
144.9899171987326
 20
29.00000000000413
 30
0.0
 11
144.9899171987326
 21
-28.99999999999587
 31
0.0
  0
INSERT
  5
AE2E
330
81E8
100
AcDbEntity
  8
AM_5
 62
     3
370
    13
100
AcDbBlockReference
  2
_Open30
 10
144.9899171987326
 20
31.50000000000413
 30
0.0
 41
2.5
 42
2.5
 43
2.5
 50
90.0
  0
INSERT
  5
AE2F
330
81E8
100
AcDbEntity
  8
AM_5
 62
     3
370
    13
100
AcDbBlockReference
  2
_Open30
 10
144.9899171987326
 20
-31.49999999999587
 30
0.0
 41
2.5
 42
2.5
 43
2.5
 50
270.0
  0
MTEXT
  5
AE30
330
81E8
100
AcDbEntity
  8
AM_5
 62
     2
100
AcDbMText
 10
141.5899171987326
 20
0.0000000000041518
 30
0.0
 40
3.8
 41
0.0
 71
     5
 72
     1
  1
%%c63
 11
6.123031769111886E-17
 21
1.0
 31
0.0
 73
     1
 44
1.0
  0
POINT
  5
AE31
330
81E8
100
AcDbEntity
  8
Defpoints
 62
     0
100
AcDbPoint
 10
86.99999999999994
 20
31.50000000000415
 30
0.0
  0
POINT
  5
AE32
330
81E8
100
AcDbEntity
  8
Defpoints
 62
     0
100
AcDbPoint
 10
86.99999999999994
 20
-31.49999999999585
 30
0.0
  0
POINT
  5
AE33
330
81E8
100
AcDbEntity
  8
Defpoints
 62
     0
100
AcDbPoint
 10
144.9899171987326
 20
-31.49999999999587
 30
0.0
  0
ENDBLK
  5
81F3
330
81E8
100
AcDbEntity
  8
0
100
AcDbBlockEnd
  0
BLOCK
  5
9FF0
330
9FE6
100
AcDbEntity
  8
0
100
AcDbBlockBegin
  2
*D5
 70
     1
 71
     0
 10
0.0
 20
0.0
 30
0.0
  3
*D5
  1

  0
LINE
  5
AE34
330
9FE6
100
AcDbEntity
  8
AM_5
 62
     3
370
    13
100
AcDbLine
 10
1.000000000000057
 20
31.00000000000415
 30
0.0
 11
-23.00000000000004
 21
31.00000000000415
 31
0.0
  0
LINE
  5
AE35
330
9FE6
100
AcDbEntity
  8
AM_5
 62
     3
370
    13
100
AcDbLine
 10
0.9999999999999432
 20
-30.99999999999585
 30
0.0
 11
-23.00000000000006
 21
-30.99999999999585
 31
0.0
  0
LINE
  5
AE36
330
9FE6
100
AcDbEntity
  8
AM_5
 62
     3
370
    13
100
AcDbLine
 10
-22.00000000000004
 20
28.50000000000415
 30
0.0
 11
-22.00000000000006
 21
-28.49999999999585
 31
0.0
  0
INSERT
  5
AE37
330
9FE6
100
AcDbEntity
  8
AM_5
 62
     3
370
    13
100
AcDbBlockReference
  2
_Open30
 10
-22.00000000000004
 20
31.00000000000415
 30
0.0
 41
2.5
 42
2.5
 43
2.5
 50
90.0
  0
INSERT
  5
AE38
330
9FE6
100
AcDbEntity
  8
AM_5
 62
     3
370
    13
100
AcDbBlockReference
  2
_Open30
 10
-22.00000000000006
 20
-30.99999999999585
 30
0.0
 41
2.5
 42
2.5
 43
2.5
 50
270.0
  0
MTEXT
  5
AE39
330
9FE6
100
AcDbEntity
  8
AM_5
 62
     2
100
AcDbMText
 10
-25.40037401574808
 20
0.0000000000041478
 30
0.0
 40
3.8
 41
0.0
 71
     5
 72
     1
  1
%%c62
 11
6.123031769111886E-17
 21
1.0
 31
0.0
 73
     1
 44
1.0
  0
POINT
  5
AE3A
330
9FE6
100
AcDbEntity
  8
Defpoints
 62
     0
100
AcDbPoint
 10
1.000000000000057
 20
31.00000000000415
 30
0.0
  0
POINT
  5
AE3B
330
9FE6
100
AcDbEntity
  8
Defpoints
 62
     0
100
AcDbPoint
 10
0.9999999999999432
 20
-30.99999999999585
 30
0.0
  0
POINT
  5
AE3C
330
9FE6
100
AcDbEntity
  8
Defpoints
 62
     0
100
AcDbPoint
 10
-22.00000000000006
 20
-30.99999999999585
 30
0.0
  0
ENDBLK
  5
9FF1
330
9FE6
100
AcDbEntity
  8
0
100
AcDbBlockEnd
  0
BLOCK
  5
AB79
330
AB78
100
AcDbEntity
  8
0
100
AcDbBlockBegin
  2
*U7
 70
     1
 71
     0
 10
0.0
 20
0.0
 30
0.0
  3
*U7
  1

  0
ENDBLK
  5
AB7A
330
AB78
100
AcDbEntity
  8
0
100
AcDbBlockEnd
  0
ENDSEC
  0
SECTION
  2
ENTITIES
  0
ARC
  5
676A
330
1F
100
AcDbEntity
  8
AM_0
100
AcDbCircle
 10
61.00000296306729
 20
-125.3130673023465
 30
0.0
 40
3.000002963068778
100
AcDbArc
 50
90.00005659035688
 51
179.99994340963
  0
ARC
  5
6771
330
1F
100
AcDbEntity
  8
AM_0
100
AcDbCircle
 10
61.00000296306729
 20
-135.3130613762118
 30
0.0
 40
3.000002963068681
100
AcDbArc
 50
180.000056590357
 51
269.99994340963
  0
LINE
  5
6775
330
1F
100
AcDbEntity
  8
AM_0
100
AcDbLine
 10
3.999999999999943
 20
-100.3130643392792
 30
0.0
 11
4.999999999999943
 21
-100.3130643392792
 31
0.0
  0
LINE
  5
67B3
330
1F
100
AcDbEntity
  8
AM_0
100
AcDbLine
 10
57.99999999999994
 20
-125.3130643392792
 30
0.0
 11
57.99999999999994
 21
-135.3130643392792
 31
0.0
  0
SPLINE
  5
67E6
330
1F
100
AcDbEntity
  8
AM_0
100
AcDbSpline
210
0.0
220
0.0
230
1.0
 70
     8
 71
     3
 72
    22
 73
    18
 74
     0
 42
0.0000000001
 43
0.0000000001
 40
0.0
 40
0.0
 40
0.0
 40
0.0
 40
0.5653838168161441
 40
0.5653838168161441
 40
1.130767633632288
 40
1.130767633632288
 40
1.696151450448432
 40
1.696151450448432
 40
2.261535267264577
 40
2.261535267264577
 40
2.842903130665579
 40
2.842903130665579
 40
3.424270994066583
 40
3.424270994066583
 40
4.005638857467586
 40
4.005638857467586
 40
4.587006720868589
 40
4.587006720868589
 40
4.587006720868589
 40
4.587006720868589
 10
61.00000000000006
 20
29.66479394838694
 30
0.0
 10
60.81153872772808
 20
29.66479394838694
 30
0.0
 10
60.61695701850891
 20
29.67029013173038
 30
0.0
 10
60.2305702014915
 20
29.69307857799555
 30
0.0
 10
60.03876096806522
 20
29.71036092892888
 30
0.0
 10
59.67153005157758
 20
29.75509692906013
 30
0.0
 10
59.49579431134868
 20
29.78257232032552
 30
0.0
 10
59.1712346674895
 20
29.84434987081891
 30
0.0
 10
59.02241492497529
 20
29.87863437725724
 30
0.0
 10
58.75542427745
 20
29.95040555555221
 30
0.0
 10
58.62872310063273
 20
29.99052406548668
 30
0.0
 10
58.40556155658948
 20
30.07471192399231
 30
0.0
 10
58.30908258795722
 20
30.11876098467115
 30
0.0
 10
58.15405659536378
 20
30.20685629908081
 30
0.0
 10
58.09539647800972
 20
30.25095591149835
 30
0.0
 10
58.01835714484975
 20
30.33568204620775
 30
0.0
 10
58.00000000000006
 20
30.37630504740497
 30
0.0
 10
58.00000000000006
 20
30.41381265149544
 30
0.0
  0
SPLINE
  5
67EA
330
1F
100
AcDbEntity
  8
AM_0
100
AcDbSpline
210
0.0
220
0.0
230
1.0
 70
     8
 71
     3
 72
    22
 73
    18
 74
     0
 42
0.0000000001
 43
0.0000000001
 40
4.548124682787285
 40
4.548124682787285
 40
4.548124682787285
 40
4.548124682787285
 40
5.129492546188288
 40
5.129492546188288
 40
5.710860409589291
 40
5.710860409589291
 40
6.292228272990294
 40
6.292228272990294
 40
6.873596136391297
 40
6.873596136391297
 40
7.438979953207442
 40
7.438979953207442
 40
8.004363770023586
 40
8.004363770023586
 40
8.56974758683973
 40
8.56974758683973
 40
9.135131403655874
 40
9.135131403655874
 40
9.135131403655874
 40
9.135131403655874
 10
58.00000000000006
 20
30.41381265149544
 30
0.0
 10
58.00000000000006
 20
30.37630504740497
 30
0.0
 10
58.01835714484975
 20
30.33568204620775
 30
0.0
 10
58.09539647800972
 20
30.25095591149835
 30
0.0
 10
58.15405659536378
 20
30.20685629908081
 30
0.0
 10
58.30908258795722
 20
30.11876098467115
 30
0.0
 10
58.40556155658948
 20
30.07471192399231
 30
0.0
 10
58.62872310063273
 20
29.99052406548668
 30
0.0
 10
58.75542427745
 20
29.95040555555221
 30
0.0
 10
59.02241492497529
 20
29.87863437725724
 30
0.0
 10
59.1712346674895
 20
29.84434987081891
 30
0.0
 10
59.49579431134868
 20
29.78257232032552
 30
0.0
 10
59.67153005157758
 20
29.75509692906013
 30
0.0
 10
60.03876096806522
 20
29.71036092892888
 30
0.0
 10
60.2305702014915
 20
29.69307857799555
 30
0.0
 10
60.61695701850891
 20
29.67029013173038
 30
0.0
 10
60.81153872772808
 20
29.66479394838694
 30
0.0
 10
61.00000000000006
 20
29.66479394838694
 30
0.0
  0
ARC
  5
67EE
330
1F
100
AcDbEntity
  8
AM_0
100
AcDbCircle
 10
60.39287017879991
 20
-34.43034531717325
 30
0.0
 40
4.521335507166823
100
AcDbArc
 50
82.28294962581059
 51
121.9540977774966
  0
ARC
  5
67F2
330
1F
100
AcDbEntity
  8
AM_0
100
AcDbCircle
 10
60.39287017879991
 20
-34.43034531717325
 30
0.0
 40
4.521335507166468
100
AcDbArc
 50
82.28294962581059
 51
121.9540977774966
  0
LINE
  5
67F3
330
1F
100
AcDbEntity
  8
AM_0
100
AcDbLine
 10
1.0
 20
7.810249675910708
 30
0.0
 11
52.99999999999994
 21
7.810249675910708
 31
0.0
  0
SPLINE
  5
67F4
330
1F
100
AcDbEntity
  8
AM_0
100
AcDbSpline
210
0.0
220
0.0
230
1.0
 70
    12
 71
     2
 72
     6
 73
     3
 74
     0
 42
0.0000000001
 43
0.0000000001
 40
7.88923334831777
 40
7.88923334831777
 40
7.88923334831777
 40
15.77846669663554
 40
15.77846669663554
 40
15.77846669663554
 10
0.0
 20
0.000000000004146
 30
0.0
 41
1.0
 10
0.0
 20
3.841106397991492
 30
0.0
 41
1.008298897483576
 10
1.0
 20
7.810249675910708
 30
0.0
 41
1.0
  0
SPLINE
  5
67F5
330
1F
100
AcDbEntity
  8
AM_0
100
AcDbSpline
210
0.0
220
0.0
230
1.0
 70
    12
 71
     2
 72
     6
 73
     3
 74
     0
 42
0.0000000001
 43
0.0000000001
 40
0.0
 40
0.0
 40
0.0
 40
7.88923334831777
 40
7.88923334831777
 40
7.88923334831777
 10
0.9999999999999432
 20
-7.810249675902416
 30
0.0
 41
1.0
 10
0.0
 20
-3.841106397982404
 30
0.0
 41
1.008298897483576
 10
0.0
 20
0.000000000004146
 30
0.0
 41
1.0
  0
LINE
  5
67F6
330
1F
100
AcDbEntity
  8
AM_0
100
AcDbLine
 10
52.99999999999994
 20
-7.810249675902416
 30
0.0
 11
0.9999999999999432
 21
-7.810249675902416
 31
0.0
  0
LINE
  5
681C
330
1F
100
AcDbEntity
  8
AM_0
100
AcDbLine
 10
57.99999999999994
 20
-30.99999999999585
 30
0.0
 11
0.9999999999999432
 21
-30.99999999999585
 31
0.0
  0
LINE
  5
681D
330
1F
100
AcDbEntity
  8
AM_0
100
AcDbLine
 10
58.00000000000006
 20
31.00000000000415
 30
0.0
 11
1.000000000000057
 21
31.00000000000415
 31
0.0
  0
LINE
  5
681E
330
1F
100
AcDbEntity
  8
AM_0
100
AcDbLine
 10
0.0000000000000568
 20
30.00000000000415
 30
0.0
 11
1.000000000000057
 21
31.00000000000415
 31
0.0
  0
LINE
  5
681F
330
1F
100
AcDbEntity
  8
AM_0
100
AcDbLine
 10
-0.0000000000000568
 20
-29.99999999999585
 30
0.0
 11
0.9999999999999432
 21
-30.99999999999585
 31
0.0
  0
LINE
  5
6828
330
1F
100
AcDbEntity
  8
AM_0
100
AcDbLine
 10
58.00000000000006
 20
31.00000000000415
 30
0.0
 11
58.00000000000006
 21
30.41381265149544
 31
0.0
  0
LINE
  5
6829
330
1F
100
AcDbEntity
  8
AM_0
100
AcDbLine
 10
57.99999999999994
 20
-30.59411708155261
 30
0.0
 11
57.99999999999994
 21
-30.99999999999585
 31
0.0
  0
LINE
  5
682A
330
1F
100
AcDbEntity
  8
AM_0
100
AcDbLine
 10
52.99999999999994
 20
-7.810249675902416
 30
0.0
 11
52.99999999999994
 21
7.810249675910708
 31
0.0
  0
CIRCLE
  5
682B
330
1F
100
AcDbEntity
  8
AM_5
100
AcDbCircle
 10
42.99999999999994
 20
0.0000000000041318
 30
0.0
 40
6.0
  0
CIRCLE
  5
682C
330
1F
100
AcDbEntity
  8
AM_5
100
AcDbCircle
 10
15.0
 20
0.000000000004146
 30
0.0
 40
6.0
  0
LINE
  5
682D
330
1F
100
AcDbEntity
  8
AM_0
100
AcDbLine
 10
1.000000000000057
 20
31.00000000000415
 30
0.0
 11
1.0
 21
7.810249675910708
 31
0.0
  0
LINE
  5
682E
330
1F
100
AcDbEntity
  8
AM_0
100
AcDbLine
 10
0.9999999999999432
 20
-7.810249675902416
 30
0.0
 11
0.9999999999999432
 21
-30.99999999999585
 31
0.0
  0
LINE
  5
682F
330
1F
100
AcDbEntity
  8
AM_0
100
AcDbLine
 10
-0.0000000000000568
 20
-29.99999999999585
 30
0.0
 11
0.0
 21
0.000000000004146
 31
0.0
  0
LINE
  5
6830
330
1F
100
AcDbEntity
  8
AM_0
100
AcDbLine
 10
0.0
 20
0.000000000004146
 30
0.0
 11
0.0000000000000568
 21
30.00000000000415
 31
0.0
  0
LINE
  5
6851
330
1F
100
AcDbEntity
  8
AM_0
100
AcDbLine
 10
-88.15183343180166
 20
-121.3130643392791
 30
0.0
 11
-87.62970968393717
 21
-121.3130643392791
 31
0.0
  0
LINE
  5
6852
330
1F
100
AcDbEntity
  8
AM_0
100
AcDbLine
 10
-27.49772026239003
 20
-138.3130643392791
 30
0.0
 11
-28.01495747181076
 21
-138.3130643392791
 31
0.0
  0
LINE
  5
6853
330
1F
100
AcDbEntity
  8
AM_0
100
AcDbLine
 10
-65.77516541146093
 20
-100.3130643392791
 30
0.0
 11
-57.96491573555437
 21
-100.3130643392791
 31
0.0
  0
LINE
  5
6854
330
1F
100
AcDbEntity
  8
AM_0
100
AcDbLine
 10
-57.96491573555437
 20
-100.3130643392791
 30
0.0
 11
-50.15466605964781
 21
-100.3130643392791
 31
0.0
  0
LINE
  5
6855
330
1F
100
AcDbEntity
  8
AM_0
100
AcDbLine
 10
-87.62970968393717
 20
-139.3130643392791
 30
0.0
 11
-88.15183343180166
 21
-139.3130643392791
 31
0.0
  0
LINE
  5
6856
330
1F
100
AcDbEntity
  8
AM_0
100
AcDbLine
 10
-28.01495747181076
 20
-122.3130643392787
 30
0.0
 11
-27.49772026239003
 21
-122.3130643392787
 31
0.0
  0
ARC
  5
6857
330
1F
100
AcDbEntity
  8
AM_0
100
AcDbCircle
 10
-57.96491573555528
 20
-130.3130643392787
 30
0.0
 40
31.49999999999942
100
AcDbArc
 50
163.3984504009837
 51
196.6015495990162
  0
ARC
  5
6858
330
1F
100
AcDbEntity
  8
AM_0
100
AcDbCircle
 10
-57.96491573555437
 20
-130.3130643392791
 30
0.0
 40
31.49999999999977
100
AcDbArc
 50
345.2875420390897
 51
14.71245796091021
  0
ARC
  5
6859
330
1F
100
AcDbEntity
  8
AM_0
100
AcDbCircle
 10
-57.96491573555437
 20
-130.3130643392791
 30
0.0
 40
31.0
100
AcDbArc
 50
75.40744939796844
 51
104.5925506020316
  0
ARC
  5
685A
330
1F
100
AcDbEntity
  8
AM_0
100
AcDbCircle
 10
-57.96491573555437
 20
-130.3130643392791
 30
0.0
 40
31.0
100
AcDbArc
 50
104.5925506020316
 51
75.40744939796844
  0
CIRCLE
  5
685B
330
1F
100
AcDbEntity
  8
AM_0
100
AcDbCircle
 10
-57.96491573555437
 20
-130.3130643392791
 30
0.0
 40
30.0
  0
CIRCLE
  5
685C
330
1F
100
AcDbEntity
  8
AM_0
100
AcDbCircle
 10
-57.96491573555437
 20
-130.3130643392791
 30
0.0
 40
16.5
  0
CIRCLE
  5
685D
330
1F
100
AcDbEntity
  8
AM_0
100
AcDbCircle
 10
-57.96491573555437
 20
-130.3130643392791
 30
0.0
 40
16.0
  0
CIRCLE
  5
685E
330
1F
100
AcDbEntity
  8
AM_0
100
AcDbCircle
 10
-57.96491573555437
 20
-130.3130643392791
 30
0.0
 40
4.19999999999999
  0
ARC
  5
685F
330
1F
100
AcDbEntity
  8
AM_0
100
AcDbCircle
 10
-57.96491573555437
 20
-130.3130643392791
 30
0.0
 40
31.5
100
AcDbArc
 50
196.6015495990162
 51
345.2875420390897
  0
ARC
  5
6860
330
1F
100
AcDbEntity
  8
AM_0
100
AcDbCircle
 10
-57.96491573555437
 20
-130.3130643392791
 30
0.0
 40
31.5
100
AcDbArc
 50
14.71245796091021
 51
163.3984504009837
  0
LINE
  5
686C
330
1F
100
AcDbEntity
  8
AM_0
100
AcDbLine
 10
-0.0000000000000568
 20
-100.3130643392792
 30
0.0
 11
0.9999999999999432
 21
-100.3130643392792
 31
0.0
  0
LINE
  5
686D
330
1F
100
AcDbEntity
  8
AM_0
100
AcDbLine
 10
52.99999999999994
 20
-100.3130643392792
 30
0.0
 11
0.9999999999999432
 21
-100.3130643392792
 31
0.0
  0
LINE
  5
689A
330
1F
100
AcDbEntity
  8
AM_0
100
AcDbLine
 10
60.99999999999994
 20
-161.3130643392792
 30
0.0
 11
0.9999999999999432
 21
-161.3130643392792
 31
0.0
  0
LINE
  5
689B
330
1F
100
AcDbEntity
  8
AM_0
100
AcDbLine
 10
60.99999999999994
 20
-99.31306433927915
 30
0.0
 11
52.99999999999994
 21
-99.31306433927915
 31
0.0
  0
LINE
  5
689C
330
1F
100
AcDbEntity
  8
AM_0
100
AcDbLine
 10
-0.0000000000000568
 20
-160.3130643392792
 30
0.0
 11
0.9999999999999432
 21
-161.3130643392792
 31
0.0
  0
LINE
  5
68AB
330
1F
100
AcDbEntity
  8
AM_0
100
AcDbLine
 10
52.99999999999994
 20
-100.3130643392792
 30
0.0
 11
52.99999999999994
 21
-99.31306433927915
 31
0.0
  0
LINE
  5
68AC
330
1F
100
AcDbEntity
  8
AM_0
100
AcDbLine
 10
0.9999999999999432
 20
-100.3130643392792
 30
0.0
 11
0.9999999999999432
 21
-161.3130643392792
 31
0.0
  0
LINE
  5
68AD
330
1F
100
AcDbEntity
  8
AM_0
100
AcDbLine
 10
-0.0000000000000568
 20
-160.3130643392792
 30
0.0
 11
-0.0000000000000568
 21
-100.3130643392792
 31
0.0
  0
LINE
  5
696A
330
1F
100
AcDbEntity
  8
AM_0
100
AcDbLine
 10
67.26684821631358
 20
26.50000000000415
 30
0.0
 11
68.12500000000006
 21
26.50000000000415
 31
0.0
  0
LINE
  5
696B
330
1F
100
AcDbEntity
  8
AM_0
100
AcDbLine
 10
69.87500000000006
 20
26.50000000000415
 30
0.0
 11
68.12500000000006
 21
26.50000000000415
 31
0.0
  0
LINE
  5
696C
330
1F
100
AcDbEntity
  8
AM_0
100
AcDbLine
 10
69.87500000000006
 20
26.50000000000415
 30
0.0
 11
70.73315178368654
 21
26.50000000000415
 31
0.0
  0
LINE
  5
696E
330
1F
100
AcDbEntity
  8
AM_0
100
AcDbLine
 10
65.62250092524124
 20
30.18691769625144
 30
0.0
 11
61.00000000000006
 21
30.18691769625144
 31
0.0
  0
SPLINE
  5
696F
330
1F
100
AcDbEntity
  8
AM_0
100
AcDbSpline
210
0.0
220
0.0
230
1.0
 70
    12
 71
     2
 72
     6
 73
     3
 74
     0
 42
0.0000000001
 43
0.0000000001
 40
0.0
 40
0.0
 40
0.0
 40
3.113143699890185
 40
3.113143699890185
 40
3.113143699890185
 10
67.12500000000006
 20
27.46035345827255
 30
0.0
 41
1.0
 10
66.40928258898299
 20
28.76489463189017
 30
0.0
 41
1.001020531935521
 10
65.62250092524124
 20
30.18691769625144
 30
0.0
 41
1.0
  0
ARC
  5
6970
330
1F
100
AcDbEntity
  8
AM_0
100
AcDbCircle
 10
68.22706381456823
 20
27.0408615846532
 30
0.0
 40
1.102064085650231
100
AcDbArc
 50
179.9598130706537
 51
209.3912990857484
  0
ARC
  5
6975
330
1F
100
AcDbEntity
  8
AM_0
100
AcDbCircle
 10
68.18393985425422
 20
-27.3488995862776
 30
0.0
 40
1.058952913756587
100
AcDbArc
 50
126.7129507495303
 51
180.2845529351275
  0
SPLINE
  5
6976
330
1F
100
AcDbEntity
  8
AM_0
100
AcDbSpline
210
0.0
220
0.0
230
1.0
 70
    12
 71
     2
 72
     6
 73
     3
 74
     0
 42
0.0000000001
 43
0.0000000001
 40
0.0004629399900766
 40
0.0004629399900766
 40
0.0004629399900766
 40
3.089518613366919
 40
3.089518613366919
 40
3.089518613366919
 10
65.62250092524113
 20
-30.46719547315974
 30
0.0
 41
1.00000029977658
 10
66.40856857019361
 20
-29.05953270800746
 30
0.0
 41
1.001000308211577
 10
67.12499999999992
 20
-27.76816544269395
 30
0.0
 41
1.00000032891449
  0
LINE
  5
6977
330
1F
100
AcDbEntity
  8
AM_0
100
AcDbLine
 10
60.99999999999994
 20
-30.46719547315974
 30
0.0
 11
65.62250092524113
 21
-30.46719547315974
 31
0.0
  0
LINE
  5
6978
330
1F
100
AcDbEntity
  8
AM_0
100
AcDbLine
 10
69.87499999999994
 20
-26.49999999999585
 30
0.0
 11
70.44910893214723
 21
-26.49999999999585
 31
0.0
  0
LINE
  5
6979
330
1F
100
AcDbEntity
  8
AM_0
100
AcDbLine
 10
68.12499999999994
 20
-26.49999999999585
 30
0.0
 11
69.87499999999994
 21
-26.49999999999585
 31
0.0
  0
LINE
  5
697A
330
1F
100
AcDbEntity
  8
AM_0
100
AcDbLine
 10
67.55089106785357
 20
-26.49999999999585
 30
0.0
 11
68.12499999999994
 21
-26.49999999999585
 31
0.0
  0
ARC
  5
6992
330
1F
100
AcDbEntity
  8
AM_0
100
AcDbCircle
 10
97.17513183672503
 20
47.37263673450121
 30
0.0
 40
23.9594551963814
100
AcDbArc
 50
256.2984766703751
 51
277.9767128774104
  0
ARC
  5
6993
330
1F
100
AcDbEntity
  8
AM_0
100
AcDbCircle
 10
97.17513183672503
 20
-47.37263673449293
 30
0.0
 40
23.95945519638139
100
AcDbArc
 50
82.02328712258949
 51
103.7015233296247
  0
SPLINE
  5
6994
330
1F
100
AcDbEntity
  8
AM_0
100
AcDbSpline
210
0.0
220
0.0
230
1.0
 70
     8
 71
     3
 72
     8
 73
     4
 74
     0
 42
0.0000000001
 43
0.0000000001
 40
2.048349944607707
 40
2.048349944607707
 40
2.048349944607707
 40
2.048349944607707
 40
2.082808961106547
 40
2.082808961106547
 40
2.082808961106547
 40
2.082808961106547
 10
118.9995549477389
 20
-20.295830667394
 30
0.0
 10
118.9998543928213
 20
-20.28406332142135
 30
0.0
 10
118.9999999999999
 20
-20.2724222642641
 30
0.0
 10
118.9999999999999
 20
-20.26093592543061
 30
0.0
  0
SPLINE
  5
6995
330
1F
100
AcDbEntity
  8
AM_0
100
AcDbSpline
210
0.0
220
0.0
230
1.0
 70
     8
 71
     3
 72
     8
 73
     4
 74
     0
 42
0.0000000001
 43
0.0000000001
 40
5.80931992843316
 40
5.80931992843316
 40
5.80931992843316
 40
5.80931992843316
 40
5.823322112792894
 40
5.823322112792894
 40
5.823322112792894
 40
5.823322112792894
 10
118.9999999999999
 20
20.28191457645658
 30
0.0
 10
118.9999999999999
 20
20.28658197124292
 30
0.0
 10
118.9999759386646
 20
20.29127491188461
 30
0.0
 10
118.9999272087097
 20
20.29599149297115
 30
0.0
  0
SPLINE
  5
6996
330
1F
100
AcDbEntity
  8
AM_0
100
AcDbSpline
210
0.0
220
0.0
230
1.0
 70
     8
 71
     3
 72
    16
 73
    12
 74
     0
 42
0.0000000001
 43
0.0000000001
 40
-1.965007727733835
 40
-1.965007727733835
 40
-1.965007727733835
 40
-1.965007727733835
 40
-1.602152014354634
 40
-1.602152014354634
 40
-0.9617068588456064
 40
-0.9617068588456064
 40
-0.4733245765258282
 40
-0.4733245765258282
 40
-0.1927584624124154
 40
-0.1927584624124154
 40
-0.0001921708555565
 40
-0.0001921708555565
 40
-0.0001921708555565
 40
-0.0001921708555565
 10
118.9999272087097
 20
20.2961605905171
 30
0.0
 10
118.9985497967572
 20
20.38573514766136
 30
0.0
 10
118.9777411960503
 20
20.46895818019362
 30
0.0
 10
118.868800906067
 20
20.67167276063861
 30
0.0
 10
118.7498492172835
 20
20.75496673623416
 30
0.0
 10
118.5052791745456
 20
20.83981341561281
 30
0.0
 10
118.3883213889048
 20
20.85632464283713
 30
0.0
 10
118.2016973338595
 20
20.86802084104562
 30
0.0
 10
118.1247302580804
 20
20.86965914293938
 30
0.0
 10
117.9841456870299
 20
20.87031290872215
 30
0.0
 10
117.9235914611263
 20
20.87008831058898
 30
0.0
 10
117.8599251403329
 20
20.87000000000404
 30
0.0
  0
SPLINE
  5
6997
330
1F
100
AcDbEntity
  8
AM_0
100
AcDbSpline
210
0.0
220
0.0
230
1.0
 70
     8
 71
     3
 72
    16
 73
    12
 74
     0
 42
0.0000000001
 43
0.0000000001
 40
-4.40429224599759
 40
-4.40429224599759
 40
-4.40429224599759
 40
-4.40429224599759
 40
-4.141910802677585
 40
-4.141910802677585
 40
-3.871634509130126
 40
-3.871634509130126
 40
-3.14310442813097
 40
-3.14310442813097
 40
-2.420961954899249
 40
-2.420961954899249
 40
-1.953365045766561
 40
-1.953365045766561
 40
-1.953365045766561
 40
-1.953365045766561
 10
117.8599251403329
 20
-20.86999999999575
 30
0.0
 10
117.9282849022019
 20
-20.86992338016575
 30
0.0
 10
117.9932432913628
 20
-20.8697261104548
 30
0.0
 10
118.1176472909291
 20
-20.86778624592211
 30
0.0
 10
118.1768642359102
 20
-20.86592444066122
 30
0.0
 10
118.3774388659894
 20
-20.85381625952363
 30
0.0
 10
118.5210509055832
 20
-20.83280259993029
 30
0.0
 10
118.7695275120249
 20
-20.73018404391627
 30
0.0
 10
118.8690256417867
 20
-20.65113651525775
 30
0.0
 10
118.9713351699574
 20
-20.47232009367184
 30
0.0
 10
118.9959899172872
 20
-20.38954393634726
 30
0.0
 10
118.9995549477389
 20
-20.29595168313376
 30
0.0
  0
ARC
  5
699C
330
1F
100
AcDbEntity
  8
AM_0
100
AcDbCircle
 10
69.77293618543166
 20
27.0408615846532
 30
0.0
 40
1.102064085651275
100
AcDbArc
 50
330.6087009142633
 51
0.0401869293332346
  0
SPLINE
  5
699D
330
1F
100
AcDbEntity
  8
AM_0
100
AcDbSpline
210
0.0
220
0.0
230
1.0
 70
    12
 71
     2
 72
     6
 73
     3
 74
     0
 42
0.0000000001
 43
0.0000000001
 40
0.0
 40
0.0
 40
0.0
 40
3.113143699890207
 40
3.113143699890207
 40
3.113143699890207
 10
72.37749907475978
 20
30.18691769625144
 30
0.0
 41
1.0
 10
71.59071741102895
 20
28.76489463191097
 30
0.0
 41
1.001020531934115
 10
70.87500000000006
 20
27.46035345827255
 30
0.0
 41
1.0
  0
LINE
  5
699E
330
1F
100
AcDbEntity
  8
AM_0
100
AcDbLine
 10
73.00000000000006
 20
30.18691769625144
 30
0.0
 11
72.37749907475978
 21
30.18691769625144
 31
0.0
  0
ARC
  5
699F
330
1F
100
AcDbEntity
  8
AM_0
100
AcDbCircle
 10
72.762706514939
 20
63.31335143878783
 30
0.0
 40
33.12728362991341
100
AcDbArc
 50
270.4104179389327
 51
286.1911316600848
  0
ARC
  5
69A0
330
1F
100
AcDbEntity
  8
AM_0
100
AcDbCircle
 10
69.81606014574567
 20
-27.34889958627851
 30
0.0
 40
1.058952913757433
100
AcDbArc
 50
359.7154470648854
 51
53.28704925043718
  0
SPLINE
  5
69A1
330
1F
100
AcDbEntity
  8
AM_0
100
AcDbSpline
210
0.0
220
0.0
230
1.0
 70
     8
 71
     3
 72
     8
 73
     4
 74
     0
 42
0.0000000001
 43
0.0000000001
 40
1.776340743961663
 40
1.776340743961663
 40
1.776340743961663
 40
1.776340743961663
 40
2.063575594279487
 40
2.063575594279487
 40
2.063575594279487
 40
2.063575594279487
 10
70.87499999999994
 20
-20.30394050424224
 30
0.0
 10
70.87499999999994
 20
-20.20819555413658
 30
0.0
 10
70.86761371479673
 20
-20.10344515595302
 30
0.0
 10
70.8514533298266
 20
-19.99999999999585
 30
0.0
  0
LINE
  5
69A2
330
1F
100
AcDbEntity
  8
AM_0
100
AcDbLine
 10
70.8514533298266
 20
-19.99999999999585
 30
0.0
 11
70.87499999999994
 21
-19.99999999999585
 31
0.0
  0
ARC
  5
69A3
330
1F
100
AcDbEntity
  8
AM_0
100
AcDbCircle
 10
68.16467654777529
 20
-17.51309475950935
 30
0.0
 40
6.647400590745968
100
AcDbArc
 50
201.9697455278646
 51
247.5156208110631
  0
LINE
  5
69A4
330
1F
100
AcDbEntity
  8
AM_0
100
AcDbLine
 10
61.99999999999994
 20
-19.99999999999585
 30
0.0
 11
65.62250092524113
 21
-19.99999999999585
 31
0.0
  0
LINE
  5
69A5
330
1F
100
AcDbEntity
  8
AM_0
100
AcDbLine
 10
65.62250092524113
 20
-19.99999999999585
 30
0.0
 11
67.12499999999994
 21
-19.99999999999585
 31
0.0
  0
LINE
  5
69A6
330
1F
100
AcDbEntity
  8
AM_0
100
AcDbLine
 10
67.12499999999994
 20
-19.99999999999585
 30
0.0
 11
67.12572598845958
 21
-19.99999999999585
 31
0.0
  0
SPLINE
  5
69A7
330
1F
100
AcDbEntity
  8
AM_0
100
AcDbSpline
210
0.0
220
0.0
230
1.0
 70
     8
 71
     3
 72
     8
 73
     4
 74
     0
 42
0.0000000001
 43
0.0000000001
 40
-1.94204761059973
 40
-1.94204761059973
 40
-1.94204761059973
 40
-1.94204761059973
 40
-1.894302822527507
 40
-1.894302822527507
 40
-1.894302822527507
 40
-1.894302822527507
 10
67.12572598845958
 20
-19.99999999999585
 30
0.0
 10
67.12524096384999
 20
-20.01797842665969
 30
0.0
 10
67.12499999999994
 20
-20.0359790747911
 30
0.0
 10
67.12499999999994
 20
-20.0539919239813
 30
0.0
  0
LINE
  5
69A8
330
1F
100
AcDbEntity
  8
AM_0
100
AcDbLine
 10
72.37749907475967
 20
-30.46719547315974
 30
0.0
 11
73.99999999999994
 21
-30.46719547315974
 31
0.0
  0
SPLINE
  5
69A9
330
1F
100
AcDbEntity
  8
AM_0
100
AcDbSpline
210
0.0
220
0.0
230
1.0
 70
    12
 71
     2
 72
     6
 73
     3
 74
     0
 42
0.0000000001
 43
0.0000000001
 40
0.0
 40
0.0
 40
0.0
 40
3.089056677703773
 40
3.089056677703773
 40
3.089056677703773
 10
70.87499999999994
 20
-27.76816544269372
 30
0.0
 41
1.0
 10
71.59143142978581
 20
-29.05953270796948
 30
0.0
 41
1.000999993556015
 10
72.37749907475967
 20
-30.46719547315974
 30
0.0
 41
1.0
  0
ARC
  5
69AA
330
1F
100
AcDbEntity
  8
AM_0
100
AcDbCircle
 10
73.835769625095
 20
-63.2393074412043
 30
0.0
 40
32.77252346802263
100
AcDbArc
 50
75.57466508419866
 51
89.71287695489545
  0
SPLINE
  5
69AB
330
1F
100
AcDbEntity
  8
AM_0
100
AcDbSpline
210
0.0
220
0.0
230
1.0
 70
    12
 71
     2
 72
     6
 73
     3
 74
     0
 42
0.0000000001
 43
0.0000000001
 40
0.0
 40
0.0
 40
0.0
 40
3.788582771409939
 40
3.788582771409939
 40
3.788582771409939
 10
72.37749907475967
 20
-24.33618704727127
 30
0.0
 41
1.0
 10
71.56843903976662
 20
-22.522345291612
 30
0.0
 41
1.001661993538315
 10
70.87499999999994
 20
-20.85835592880853
 30
0.0
 41
1.0
  0
LINE
  5
69AC
330
1F
100
AcDbEntity
  8
AM_0
100
AcDbLine
 10
70.87499999999994
 20
-19.99999999999585
 30
0.0
 11
72.37749907475967
 21
-19.99999999999585
 31
0.0
  0
LINE
  5
69AD
330
1F
100
AcDbEntity
  8
AM_0
100
AcDbLine
 10
70.87499999999994
 20
-20.85835592880853
 30
0.0
 11
70.87499999999994
 21
-20.30394050424224
 31
0.0
  0
LINE
  5
69AE
330
1F
100
AcDbEntity
  8
AM_0
100
AcDbLine
 10
67.12499999999994
 20
-20.0539919239813
 30
0.0
 11
67.12499999999994
 21
-20.61513046624117
 31
0.0
  0
ARC
  5
69AF
330
1F
100
AcDbEntity
  8
AM_0
100
AcDbCircle
 10
13.61985999220178
 20
3.937617959199596
 30
0.0
 40
58.86966504488657
100
AcDbArc
 50
332.0494046668668
 51
335.350282339776
  0
ARC
  5
69B0
330
1F
100
AcDbEntity
  8
AM_0
100
AcDbCircle
 10
75.36228254564043
 20
-17.11358135752331
 30
0.0
 40
7.238142412492669
100
AcDbArc
 50
266.2452459749704
 51
336.4981347158576
  0
LINE
  5
69B2
330
1F
100
AcDbEntity
  8
AM_0
100
AcDbLine
 10
72.37749907475967
 20
-19.99999999999585
 30
0.0
 11
81.99999999999994
 21
-19.99999999999585
 31
0.0
  0
LINE
  5
69B3
330
1F
100
AcDbEntity
  8
AM_0
100
AcDbLine
 10
74.88828609634396
 20
-24.33618704727127
 30
0.0
 11
72.37749907475967
 21
-24.33618704727127
 31
0.0
  0
LINE
  5
69B8
330
1F
100
AcDbEntity
  8
AM_0
100
AcDbLine
 10
112.9999999999999
 20
-20.86999999999575
 30
0.0
 11
117.8599251403329
 21
-20.86999999999575
 31
0.0
  0
LINE
  5
69B9
330
1F
100
AcDbEntity
  8
AM_0
100
AcDbLine
 10
108.9999999999999
 20
20.87000000000404
 30
0.0
 11
117.8599251403329
 21
20.87000000000404
 31
0.0
  0
LINE
  5
69BA
330
1F
100
AcDbEntity
  8
AM_11
  6
ACJISTGB
100
AcDbLine
 10
117.8599251403327
 20
-22.77700374297874
 30
0.0
 11
112.9999999999999
 21
-23.01999999999538
 31
0.0
  0
LINE
  5
69BB
330
1F
100
AcDbEntity
  8
AM_0
100
AcDbLine
 10
91.49999999999994
 20
-24.09499999999611
 30
0.0
 11
86.99999999999994
 21
-24.31999999999556
 31
0.0
  0
LINE
  5
69BC
330
1F
100
AcDbEntity
  8
AM_11
  6
ACJISTGB
100
AcDbLine
 10
117.8599251403329
 20
22.77700374298757
 30
0.0
 11
108.9999999999999
 21
23.22000000000443
 31
0.0
  0
LINE
  5
69BD
330
1F
100
AcDbEntity
  8
AM_0
100
AcDbLine
 10
91.49999999999994
 20
24.0950000000044
 30
0.0
 11
86.99999999999994
 21
24.32000000000476
 31
0.0
  0
LINE
  5
69BE
330
1F
100
AcDbEntity
  8
AM_0
100
AcDbLine
 10
86.99999999999994
 20
-31.49999999999585
 30
0.0
 11
81.99999999999994
 21
-31.49999999999585
 31
0.0
  0
LINE
  5
69BF
330
1F
100
AcDbEntity
  8
AM_0
100
AcDbLine
 10
86.99999999999994
 20
31.50000000000415
 30
0.0
 11
81.99999999999994
 21
31.50000000000415
 31
0.0
  0
LINE
  5
69C4
330
1F
100
AcDbEntity
  8
AM_0
100
AcDbLine
 10
61.00000000000006
 20
30.18691769625144
 30
0.0
 11
60.99999999999994
 21
-30.46719547315974
 31
0.0
  0
LINE
  5
69CB
330
1F
100
AcDbEntity
  8
AM_11
  6
ACJISTGB
100
AcDbLine
 10
118.9999999999999
 20
21.57850093633402
 30
0.0
 11
118.9999999999999
 21
20.28895312869272
 31
0.0
  0
LINE
  5
69CD
330
1F
100
AcDbEntity
  8
AM_0
100
AcDbLine
 10
112.9999999999999
 20
-20.86999999999575
 30
0.0
 11
112.9999999999999
 21
-23.01999999999538
 31
0.0
  0
LINE
  5
69CE
330
1F
100
AcDbEntity
  8
AM_0
100
AcDbLine
 10
108.9999999999999
 20
23.2200000000044
 30
0.0
 11
108.9999999999999
 21
20.87000000000404
 31
0.0
  0
LINE
  5
69CF
330
1F
100
AcDbEntity
  8
AM_0
100
AcDbLine
 10
69.87500000000006
 20
26.50000000000415
 30
0.0
 11
69.87499999999994
 21
-26.49999999999585
 31
0.0
  0
LINE
  5
69D0
330
1F
100
AcDbEntity
  8
AM_0
100
AcDbLine
 10
65.62250092524113
 20
-23.65518542295962
 30
0.0
 11
65.62250092524113
 21
-30.46719547315974
 31
0.0
  0
LINE
  5
69D1
330
1F
100
AcDbEntity
  8
AM_0
100
AcDbLine
 10
65.62250092524124
 20
30.18691769625144
 30
0.0
 11
65.62250092524113
 21
-19.99999999999585
 31
0.0
  0
LINE
  5
69D2
330
1F
100
AcDbEntity
  8
AM_0
100
AcDbLine
 10
68.12500000000006
 20
26.50000000000415
 30
0.0
 11
68.12499999999994
 21
-26.49999999999585
 31
0.0
  0
LINE
  5
69D3
330
1F
100
AcDbEntity
  8
AM_0
100
AcDbLine
 10
67.12500000000006
 20
27.46035345827255
 30
0.0
 11
67.12499999999994
 21
-19.99999999999585
 31
0.0
  0
LINE
  5
69D4
330
1F
100
AcDbEntity
  8
AM_0
100
AcDbLine
 10
72.37749907475967
 20
-24.33618704727127
 30
0.0
 11
72.37749907475967
 21
-30.46719547315974
 31
0.0
  0
LINE
  5
69D5
330
1F
100
AcDbEntity
  8
AM_0
100
AcDbLine
 10
70.87499999999994
 20
-20.85835592880853
 30
0.0
 11
70.87499999999994
 21
-27.76816544269372
 31
0.0
  0
LINE
  5
69D6
330
1F
100
AcDbEntity
  8
AM_0
100
AcDbLine
 10
70.87500000000006
 20
27.46035345827255
 30
0.0
 11
70.87499999999994
 21
-19.99999999999585
 31
0.0
  0
LINE
  5
69D7
330
1F
100
AcDbEntity
  8
AM_0
100
AcDbLine
 10
72.37749907475978
 20
30.18691769625144
 30
0.0
 11
72.37749907475967
 21
-19.99999999999585
 31
0.0
  0
LINE
  5
69D8
330
1F
100
AcDbEntity
  8
AM_0
100
AcDbLine
 10
67.12499999999994
 20
-20.61513046624117
 30
0.0
 11
67.12499999999994
 21
-27.76816544269372
 31
0.0
  0
LINE
  5
69D9
330
1F
100
AcDbEntity
  8
AM_0
100
AcDbLine
 10
86.99999999999994
 20
31.50000000000415
 30
0.0
 11
86.99999999999994
 21
-31.49999999999585
 31
0.0
  0
LINE
  5
6A4A
330
1F
100
AcDbEntity
  8
AM_0
100
AcDbLine
 10
67.12499999999994
 20
-122.3130643392792
 30
0.0
 11
67.55089106785357
 21
-122.3130643392792
 31
0.0
  0
LINE
  5
6A4B
330
1F
100
AcDbEntity
  8
AM_0
100
AcDbLine
 10
65.62250092524113
 20
-122.3130643392792
 30
0.0
 11
67.12499999999994
 21
-122.3130643392792
 31
0.0
  0
LINE
  5
6A4C
330
1F
100
AcDbEntity
  8
AM_0
100
AcDbLine
 10
60.97443156240939
 20
-122.3130643392792
 30
0.0
 11
65.62250092524113
 21
-122.3130643392792
 31
0.0
  0
SPLINE
  5
6A4D
330
1F
100
AcDbEntity
  8
AM_0
100
AcDbSpline
210
0.0
220
0.0
230
1.0
 70
     8
 71
     3
 72
    16
 73
    12
 74
     0
 42
0.0000000001
 43
0.0000000001
 40
5.956346460088473
 40
5.956346460088473
 40
5.956346460088473
 40
5.956346460088473
 40
6.062495147234408
 40
6.062495147234408
 40
6.202228077623816
 40
6.202228077623816
 40
6.481227230306896
 40
6.481227230306896
 40
6.760226382989976
 40
6.760226382989976
 40
6.821665582602051
 40
6.821665582602051
 40
6.821665582602051
 40
6.821665582602051
 10
68.12499999999994
 20
-137.6615335676292
 30
0.0
 10
68.08961710428497
 20
-137.6615335676292
 30
0.0
 10
68.04813229074438
 20
-137.6705788565018
 30
0.0
 10
67.97233621819663
 20
-137.7017635541701
 30
0.0
 10
67.92628912424783
 20
-137.7334449656368
 30
0.0
 10
67.82188818054505
 20
-137.8260855758703
 30
0.0
 10
67.76196998417794
 20
-137.9068256597524
 30
0.0
 10
67.65693494041892
 20
-138.0792179831446
 30
0.0
 10
67.6121120984871
 20
-138.1710491822464
 30
0.0
 10
67.56676426349253
 20
-138.2750739850921
 30
0.0
 10
67.55874944121018
 20
-138.2939985160714
 30
0.0
 10
67.55089106785357
 20
-138.3130643392792
 30
0.0
  0
LINE
  5
6A4E
330
1F
100
AcDbEntity
  8
AM_0
100
AcDbLine
 10
69.87499999999994
 20
-137.6615335676292
 30
0.0
 11
68.12499999999994
 21
-137.6615335676292
 31
0.0
  0
SPLINE
  5
6A4F
330
1F
100
AcDbEntity
  8
AM_0
100
AcDbSpline
210
0.0
220
0.0
230
1.0
 70
     8
 71
     3
 72
    16
 73
    12
 74
     0
 42
0.0000000001
 43
0.0000000001
 40
5.091027337574894
 40
5.091027337574894
 40
5.091027337574894
 40
5.091027337574894
 40
5.15246653718697
 40
5.15246653718697
 40
5.43146568987005
 40
5.43146568987005
 40
5.71046484255313
 40
5.71046484255313
 40
5.850197772942538
 40
5.850197772942538
 40
5.956346460088473
 40
5.956346460088473
 40
5.956346460088473
 40
5.956346460088473
 10
70.44910893214723
 20
-138.3130643392792
 30
0.0
 10
70.44125055879061
 20
-138.2939985160714
 30
0.0
 10
70.43323573650827
 20
-138.2750739850921
 30
0.0
 10
70.38788790151369
 20
-138.1710491822464
 30
0.0
 10
70.34306505958097
 20
-138.0792179831446
 30
0.0
 10
70.23803001582286
 20
-137.9068256597524
 30
0.0
 10
70.17811181945575
 20
-137.8260855758703
 30
0.0
 10
70.07371087575206
 20
-137.7334449656368
 30
0.0
 10
70.02766378180417
 20
-137.7017635541701
 30
0.0
 10
69.95186770925551
 20
-137.6705788565018
 30
0.0
 10
69.91038289571583
 20
-137.6615335676292
 30
0.0
 10
69.87499999999994
 20
-137.6615335676292
 30
0.0
  0
SPLINE
  5
6A50
330
1F
100
AcDbEntity
  8
AM_0
100
AcDbSpline
210
0.0
220
0.0
230
1.0
 70
     8
 71
     3
 72
    16
 73
    12
 74
     0
 42
0.0000000001
 43
0.0000000001
 40
5.956346460088472
 40
5.956346460088472
 40
5.956346460088472
 40
5.956346460088472
 40
6.062495147234407
 40
6.062495147234407
 40
6.202228077623815
 40
6.202228077623815
 40
6.481227230306895
 40
6.481227230306895
 40
6.760226382989975
 40
6.760226382989975
 40
6.821665582602113
 40
6.821665582602113
 40
6.821665582602113
 40
6.821665582602113
 10
69.87499999999994
 20
-122.96459511093
 30
0.0
 10
69.91038289571583
 20
-122.96459511093
 30
0.0
 10
69.95186770925551
 20
-122.9555498220574
 30
0.0
 10
70.02766378180417
 20
-122.9243651243891
 30
0.0
 10
70.07371087575206
 20
-122.8926837129224
 30
0.0
 10
70.17811181945575
 20
-122.8000431026889
 30
0.0
 10
70.23803001582286
 20
-122.7193030188068
 30
0.0
 10
70.34306505958097
 20
-122.5469106954146
 30
0.0
 10
70.38788790151369
 20
-122.4550794963129
 30
0.0
 10
70.43323573650827
 20
-122.3510546934662
 30
0.0
 10
70.44125055879061
 20
-122.3321301624878
 30
0.0
 10
70.44910893214723
 20
-122.3130643392792
 30
0.0
  0
LINE
  5
6A51
330
1F
100
AcDbEntity
  8
AM_0
100
AcDbLine
 10
68.12499999999994
 20
-122.96459511093
 30
0.0
 11
69.87499999999994
 21
-122.96459511093
 31
0.0
  0
SPLINE
  5
6A52
330
1F
100
AcDbEntity
  8
AM_0
100
AcDbSpline
210
0.0
220
0.0
230
1.0
 70
     8
 71
     3
 72
    16
 73
    12
 74
     0
 42
0.0000000001
 43
0.0000000001
 40
5.091027337574832
 40
5.091027337574832
 40
5.091027337574832
 40
5.091027337574832
 40
5.152466537186969
 40
5.152466537186969
 40
5.431465689870049
 40
5.431465689870049
 40
5.71046484255313
 40
5.71046484255313
 40
5.850197772942537
 40
5.850197772942537
 40
5.956346460088472
 40
5.956346460088472
 40
5.956346460088472
 40
5.956346460088472
 10
67.55089106785357
 20
-122.3130643392792
 30
0.0
 10
67.55874944121018
 20
-122.3321301624878
 30
0.0
 10
67.56676426349253
 20
-122.3510546934662
 30
0.0
 10
67.6121120984871
 20
-122.4550794963129
 30
0.0
 10
67.65693494041892
 20
-122.5469106954146
 30
0.0
 10
67.76196998417794
 20
-122.7193030188068
 30
0.0
 10
67.82188818054505
 20
-122.8000431026889
 30
0.0
 10
67.92628912424783
 20
-122.8926837129224
 30
0.0
 10
67.97233621819663
 20
-122.9243651243891
 30
0.0
 10
68.04813229074438
 20
-122.9555498220574
 30
0.0
 10
68.08961710428497
 20
-122.96459511093
 30
0.0
 10
68.12499999999994
 20
-122.96459511093
 30
0.0
  0
LINE
  5
6A53
330
1F
100
AcDbEntity
  8
AM_0
100
AcDbLine
 10
65.62250092524113
 20
-138.3130643392792
 30
0.0
 11
60.97443156240939
 21
-138.3130643392792
 31
0.0
  0
LINE
  5
6A54
330
1F
100
AcDbEntity
  8
AM_0
100
AcDbLine
 10
65.62250092524113
 20
-138.3130643392792
 30
0.0
 11
67.12499999999994
 21
-138.3130643392792
 31
0.0
  0
LINE
  5
6A55
330
1F
100
AcDbEntity
  8
AM_0
100
AcDbLine
 10
67.12499999999994
 20
-138.3130643392792
 30
0.0
 11
67.55089106785357
 21
-138.3130643392792
 31
0.0
  0
ARC
  5
6A65
330
1F
100
AcDbEntity
  8
AM_0
100
AcDbCircle
 10
79.96119873348647
 20
-193.3995042666679
 30
0.0
 40
31.98582038169304
100
AcDbArc
 50
80.93630643191753
 51
89.930495784383
  0
ARC
  5
6A66
330
1F
100
AcDbEntity
  8
AM_0
100
AcDbCircle
 10
80.03880126651433
 20
-193.3995042666651
 30
0.0
 40
31.98582038169042
100
AcDbArc
 50
90.06950421560396
 51
99.06369356809542
  0
ARC
  5
6A67
330
1F
100
AcDbEntity
  8
AM_0
100
AcDbCircle
 10
95.99999999999994
 20
-130.3130643392792
 30
0.0
 40
4.499999999999965
100
AcDbArc
 50
228.8076280850552
 51
131.1923719149448
  0
ARC
  5
6A68
330
1F
100
AcDbEntity
  8
AM_0
100
AcDbCircle
 10
96.00000000252743
 20
-130.3130643392792
 30
0.0
 40
4.500000001664618
100
AcDbArc
 50
131.1923719391818
 51
228.8076280608183
  0
CIRCLE
  5
6A69
330
1F
100
AcDbEntity
  8
AM_0
100
AcDbCircle
 10
95.99999999999994
 20
-130.3130643392792
 30
0.0
 40
4.500000000000006
  0
LINE
  5
6A6A
330
1F
100
AcDbEntity
  8
AM_0
100
AcDbLine
 10
116.9999999999999
 20
-124.1005643392795
 30
0.0
 11
118.9999999999999
 21
-122.9458638009004
 31
0.0
  0
LINE
  5
6A6B
330
1F
100
AcDbEntity
  8
AM_0
100
AcDbLine
 10
116.9999999999999
 20
-136.5255643392797
 30
0.0
 11
114.4999999999999
 21
-136.5255643392797
 31
0.0
  0
LINE
  5
6A6C
330
1F
100
AcDbEntity
  8
AM_0
100
AcDbLine
 10
114.4999999999999
 20
-124.1005643392795
 30
0.0
 11
116.9999999999999
 21
-124.1005643392795
 31
0.0
  0
LINE
  5
6A6D
330
1F
100
AcDbEntity
  8
AM_0
100
AcDbLine
 10
118.9995549477389
 20
-122.8886207519431
 30
0.0
 11
118.9999999999999
 21
-122.8883638009006
 31
0.0
  0
LINE
  5
6A6F
330
1F
100
AcDbEntity
  8
AM_0
100
AcDbLine
 10
116.9999999999999
 20
-136.5255643392797
 30
0.0
 11
118.9999999999999
 21
-137.6802648776588
 31
0.0
  0
LINE
  5
6A71
330
1F
100
AcDbEntity
  8
AM_0
100
AcDbLine
 10
118.9995549477389
 20
-137.7375079266162
 30
0.0
 11
118.9999999999999
 21
-137.7377648776587
 31
0.0
  0
SPLINE
  5
6A72
330
1F
100
AcDbEntity
  8
AM_0
100
AcDbSpline
210
0.0
220
0.0
230
1.0
 70
     8
 71
     3
 72
    16
 73
    12
 74
     0
 42
0.0000000001
 43
0.0000000001
 40
-1.936088707179519
 40
-1.936088707179519
 40
-1.936088707179519
 40
-1.936088707179519
 40
-1.618608641566384
 40
-1.618608641566384
 40
-0.9853554418149393
 40
-0.9853554418149393
 40
-0.4905148334691103
 40
-0.4905148334691103
 40
-0.2011422780024802
 40
-0.2011422780024802
 40
-0.0002750058701333
 40
-0.0002750058701333
 40
-0.0002750058701333
 40
-0.0002750058701333
 10
118.9995549477389
 20
-137.7375079266162
 30
0.0
 10
118.9963835781954
 20
-137.8487634956049
 30
0.0
 10
118.9764826641539
 20
-137.9658240580242
 30
0.0
 10
118.8782639048886
 20
-138.3238424498535
 30
0.0
 10
118.764245966232
 20
-138.5659381632472
 30
0.0
 10
118.523605518174
 20
-138.9471786665167
 30
0.0
 10
118.4057453538398
 20
-139.095448604939
 30
0.0
 10
118.2150731057472
 20
-139.273331201804
 30
0.0
 10
118.1356191136492
 20
-139.3344161501813
 30
0.0
 10
117.989634593704
 20
-139.4072981053836
 30
0.0
 10
117.9263816550346
 20
-139.4285378722829
 30
0.0
 10
117.8599251403329
 20
-139.4366628996181
 30
0.0
  0
SPLINE
  5
6A73
330
1F
100
AcDbEntity
  8
AM_0
100
AcDbSpline
210
0.0
220
0.0
230
1.0
 70
     8
 71
     3
 72
    16
 73
    12
 74
     0
 42
0.0000000001
 43
0.0000000001
 40
-4.40429224599759
 40
-4.40429224599759
 40
-4.40429224599759
 40
-4.40429224599759
 40
-4.141910802677585
 40
-4.141910802677585
 40
-3.871634509130126
 40
-3.871634509130126
 40
-3.14310442813097
 40
-3.14310442813097
 40
-2.420961954899249
 40
-2.420961954899249
 40
-1.953365045766561
 40
-1.953365045766561
 40
-1.953365045766561
 40
-1.953365045766561
 10
117.8599251403329
 20
-121.1894657789412
 30
0.0
 10
117.9282849022019
 20
-121.1978234988168
 30
0.0
 10
117.9932432913628
 20
-121.2200586746462
 30
0.0
 10
118.1176472909291
 20
-121.2833812772528
 30
0.0
 10
118.1768642359102
 20
-121.3250086116872
 30
0.0
 10
118.3774388659894
 20
-121.4927595778731
 30
0.0
 10
118.5210509055832
 20
-121.6702901980393
 30
0.0
 10
118.7695275120249
 20
-122.0737827508214
 30
0.0
 10
118.8690256417867
 20
-122.2892584333035
 30
0.0
 10
118.9713351699574
 20
-122.6314351464411
 30
0.0
 10
118.9959899172872
 20
-122.7635550710378
 30
0.0
 10
118.9995549477389
 20
-122.8886207519431
 30
0.0
  0
ARC
  5
6A74
330
1F
100
AcDbEntity
  8
AM_0
100
AcDbCircle
 10
121.7173831895124
 20
-84.24236586816774
 30
0.0
 40
37.14792288160733
100
AcDbArc
 50
259.2369973264146
 51
264.0396343738103
  0
ARC
  5
6A77
330
1F
100
AcDbEntity
  8
AM_0
100
AcDbCircle
 10
121.7173831895088
 20
-176.3837628103642
 30
0.0
 40
37.14792288157967
100
AcDbArc
 50
95.96036562618968
 51
100.7630026735878
  0
LINE
  5
6A78
330
1F
100
AcDbEntity
  8
AM_0
100
AcDbLine
 10
70.87499999999994
 20
-138.3130643392792
 30
0.0
 11
72.37749907475967
 21
-138.3130643392792
 31
0.0
  0
LINE
  5
6A79
330
1F
100
AcDbEntity
  8
AM_0
100
AcDbLine
 10
70.44910893214723
 20
-138.3130643392792
 30
0.0
 11
70.87499999999994
 21
-138.3130643392792
 31
0.0
  0
LINE
  5
6A7A
330
1F
100
AcDbEntity
  8
AM_0
100
AcDbLine
 10
70.44910893214723
 20
-122.3130643392792
 30
0.0
 11
70.87499999999994
 21
-122.3130643392792
 31
0.0
  0
LINE
  5
6A7B
330
1F
100
AcDbEntity
  8
AM_0
100
AcDbLine
 10
70.8514533298266
 20
-110.3130643392792
 30
0.0
 11
70.87499999999994
 21
-110.3130643392792
 31
0.0
  0
SPLINE
  5
6A7C
330
1F
100
AcDbEntity
  8
AM_0
100
AcDbSpline
210
0.0
220
0.0
230
1.0
 70
     8
 71
     3
 72
     8
 73
     4
 74
     0
 42
0.0000000001
 43
0.0000000001
 40
-2.06357559427948
 40
-2.06357559427948
 40
-2.06357559427948
 40
-2.06357559427948
 40
-1.776340743961663
 40
-1.776340743961663
 40
-1.776340743961663
 40
-1.776340743961663
 10
70.8514533298266
 20
-110.3130643392792
 30
0.0
 10
70.86761371479673
 20
-110.209619183322
 30
0.0
 10
70.87499999999994
 20
-110.1048687851384
 30
0.0
 10
70.87499999999994
 20
-110.0091238350328
 30
0.0
  0
ARC
  5
6A7D
330
1F
100
AcDbEntity
  8
AM_0
100
AcDbCircle
 10
69.11262327256003
 20
-102.3121325064999
 30
0.0
 40
8.001235164662798
100
AcDbArc
 50
207.2595688438603
 51
244.1384544096968
  0
LINE
  5
6A7E
330
1F
100
AcDbEntity
  8
AM_0
100
AcDbLine
 10
61.99999999999994
 20
-105.9768772920037
 30
0.0
 11
65.62250092524113
 21
-105.9768772920037
 31
0.0
  0
SPLINE
  5
6A7F
330
1F
100
AcDbEntity
  8
AM_0
100
AcDbSpline
210
0.0
220
0.0
230
1.0
 70
    12
 71
     2
 72
     6
 73
     3
 74
     0
 42
0.0000000001
 43
0.0000000001
 40
0.0
 40
0.0
 40
0.0
 40
3.788582771409915
 40
3.788582771409915
 40
3.788582771409915
 10
65.62250092524113
 20
-105.9768772920037
 30
0.0
 41
1.0
 10
66.43156096023353
 20
-107.7907190476639
 30
0.0
 41
1.001661993538562
 10
67.12499999999994
 20
-109.4547084104665
 30
0.0
 41
1.0
  0
SPLINE
  5
6A80
330
1F
100
AcDbEntity
  8
AM_0
100
AcDbSpline
210
0.0
220
0.0
230
1.0
 70
     8
 71
     3
 72
     8
 73
     4
 74
     0
 42
0.0000000001
 43
0.0000000001
 40
1.776340743961663
 40
1.776340743961663
 40
1.776340743961663
 40
1.776340743961663
 40
1.82900694760964
 40
1.82900694760964
 40
1.82900694760964
 40
1.82900694760964
 10
67.12499999999994
 20
-110.0091238350328
 30
0.0
 10
67.12499999999994
 20
-110.0266792362485
 30
0.0
 10
67.12523506934025
 20
-110.0445377313121
 30
0.0
 10
67.12572598845958
 20
-110.0626354242299
 30
0.0
  0
SPLINE
  5
6A81
330
1F
100
AcDbEntity
  8
AM_0
100
AcDbSpline
210
0.0
220
0.0
230
1.0
 70
    24
 71
     3
 72
     8
 73
     4
 74
     0
 42
0.0000000001
 43
0.0000000001
 40
-1.94204761059973
 40
-1.94204761059973
 40
-1.94204761059973
 40
-1.94204761059973
 40
-1.894302822527507
 40
-1.894302822527507
 40
-1.894302822527507
 40
-1.894302822527507
 10
67.12572598845958
 20
-110.0626354242299
 30
0.0
 10
67.12524096384999
 20
-110.0625111266394
 30
0.0
 10
67.12499999999994
 20
-110.0624493384279
 30
0.0
 10
67.12499999999994
 20
-110.0624493384279
 30
0.0
  0
LINE
  5
6A82
330
1F
100
AcDbEntity
  8
AM_0
100
AcDbLine
 10
67.12499999999994
 20
-109.4547084104665
 30
0.0
 11
67.12499999999994
 21
-110.0091238350328
 31
0.0
  0
LINE
  5
6A83
330
1F
100
AcDbEntity
  8
AM_0
100
AcDbLine
 10
73.99999999999994
 20
-138.3130643392792
 30
0.0
 11
72.37749907475967
 21
-138.3130643392792
 31
0.0
  0
LINE
  5
6A84
330
1F
100
AcDbEntity
  8
AM_0
100
AcDbLine
 10
72.37749907475967
 20
-122.3130643392792
 30
0.0
 11
73.99999999999994
 21
-122.3130643392792
 31
0.0
  0
LINE
  5
6A85
330
1F
100
AcDbEntity
  8
AM_0
100
AcDbLine
 10
70.87499999999994
 20
-122.3130643392792
 30
0.0
 11
72.37749907475967
 21
-122.3130643392792
 31
0.0
  0
ARC
  5
6A86
330
1F
100
AcDbEntity
  8
AM_0
100
AcDbCircle
 10
73.99999999999994
 20
-130.3130643392792
 30
0.0
 40
8.000000000000057
100
AcDbArc
 50
270.0
 51
90.0
  0
LINE
  5
6A87
330
1F
100
AcDbEntity
  8
AM_0
100
AcDbLine
 10
70.87499999999994
 20
-110.3130643392792
 30
0.0
 11
72.37749907475967
 21
-110.3130643392792
 31
0.0
  0
SPLINE
  5
6A88
330
1F
100
AcDbEntity
  8
AM_0
100
AcDbSpline
210
0.0
220
0.0
230
1.0
 70
    12
 71
     2
 72
     6
 73
     3
 74
     0
 42
0.0000000001
 43
0.0000000001
 40
0.0
 40
0.0
 40
0.0
 40
3.788582771409939
 40
3.788582771409939
 40
3.788582771409939
 10
70.87499999999994
 20
-109.4547084104665
 30
0.0
 41
1.0
 10
71.56843903976662
 20
-107.7907190476639
 30
0.0
 41
1.001661993538315
 10
72.37749907475967
 20
-105.9768772920037
 30
0.0
 41
1.0
  0
LINE
  5
6A89
330
1F
100
AcDbEntity
  8
AM_0
100
AcDbLine
 10
70.87499999999994
 20
-110.0091238350328
 30
0.0
 11
70.87499999999994
 21
-109.4547084104665
 31
0.0
  0
ARC
  5
6A8A
330
1F
100
AcDbEntity
  8
AM_0
100
AcDbCircle
 10
69.11112374154158
 20
-102.3146753837941
 30
0.0
 40
7.99829286590654
100
AcDbArc
 50
244.1401747691827
 51
255.6219705914311
  0
ARC
  5
6A8B
330
1F
100
AcDbEntity
  8
AM_0
100
AcDbCircle
 10
74.88808799367502
 20
-102.3127394341286
 30
0.0
 40
8.000324907604083
100
AcDbArc
 50
270.0014187482344
 51
332.7419619425979
  0
LINE
  5
6A8C
330
1F
100
AcDbEntity
  8
AM_0
100
AcDbLine
 10
72.37749907475967
 20
-105.9768772920037
 30
0.0
 11
81.99999999999994
 21
-105.9768772920038
 31
0.0
  0
LINE
  5
6A8D
330
1F
100
AcDbEntity
  8
AM_0
100
AcDbLine
 10
74.88828609634396
 20
-110.3130643392792
 30
0.0
 11
72.37749907475967
 21
-110.3130643392792
 31
0.0
  0
LINE
  5
6A92
330
1F
100
AcDbEntity
  8
AM_0
100
AcDbLine
 10
117.8599251403329
 20
-153.0900680822628
 30
0.0
 11
86.99999999999994
 21
-154.6330643392798
 31
0.0
  0
LINE
  5
6A93
330
1F
100
AcDbEntity
  8
AM_0
100
AcDbLine
 10
117.8599251403329
 20
-107.5360605962964
 30
0.0
 11
86.99999999999994
 21
-105.9930643392795
 31
0.0
  0
LINE
  5
6A94
330
1F
100
AcDbEntity
  8
AM_0
100
AcDbLine
 10
70.87499999999994
 20
-159.2106596034714
 30
0.0
 11
72.37749907475967
 21
-161.8130643392792
 31
0.0
  0
LINE
  5
6A95
330
1F
100
AcDbEntity
  8
AM_0
100
AcDbLine
 10
65.62250092524113
 20
-161.8130643392792
 30
0.0
 11
60.99999999999994
 21
-161.8130643392792
 31
0.0
  0
LINE
  5
6A96
330
1F
100
AcDbEntity
  8
AM_0
100
AcDbLine
 10
65.62250092524113
 20
-98.81306433927915
 30
0.0
 11
60.99999999999994
 21
-98.81306433927915
 31
0.0
  0
LINE
  5
6A97
330
1F
100
AcDbEntity
  8
AM_0
100
AcDbLine
 10
69.87499999999994
 20
-157.8130643392792
 30
0.0
 11
68.12499999999994
 21
-157.8130643392792
 31
0.0
  0
LINE
  5
6A98
330
1F
100
AcDbEntity
  8
AM_0
100
AcDbLine
 10
69.87499999999994
 20
-102.8130643392792
 30
0.0
 11
68.12499999999994
 21
-102.8130643392792
 31
0.0
  0
LINE
  5
6A99
330
1F
100
AcDbEntity
  8
AM_0
100
AcDbLine
 10
67.12499999999994
 20
-159.2106596034714
 30
0.0
 11
65.62250092524113
 21
-161.8130643392792
 31
0.0
  0
LINE
  5
6A9A
330
1F
100
AcDbEntity
  8
AM_0
100
AcDbLine
 10
67.12499999999994
 20
-101.4154690750879
 30
0.0
 11
65.62250092524113
 21
-98.81306433927915
 31
0.0
  0
LINE
  5
6A9B
330
1F
100
AcDbEntity
  8
AM_0
100
AcDbLine
 10
70.87499999999994
 20
-101.4154690750879
 30
0.0
 11
72.37749907475967
 21
-98.81306433927915
 31
0.0
  0
LINE
  5
6A9C
330
1F
100
AcDbEntity
  8
AM_0
100
AcDbLine
 10
86.99999999999994
 20
-161.8130643392792
 30
0.0
 11
84.99999999999994
 21
-161.8130643392792
 31
0.0
  0
LINE
  5
6A9D
330
1F
100
AcDbEntity
  8
AM_0
100
AcDbLine
 10
74.99999999999994
 20
-161.8130643392792
 30
0.0
 11
72.37749907475967
 21
-161.8130643392792
 31
0.0
  0
LINE
  5
6A9E
330
1F
100
AcDbEntity
  8
AM_0
100
AcDbLine
 10
86.99999999999994
 20
-98.81306433927917
 30
0.0
 11
72.37749907475967
 21
-98.81306433927915
 31
0.0
  0
LINE
  5
6AA6
330
1F
100
AcDbEntity
  8
AM_0
100
AcDbLine
 10
60.99999999999994
 20
-98.81306433927915
 30
0.0
 11
60.99999999999994
 21
-122.3130643392792
 31
0.0
  0
LINE
  5
6AA7
330
1F
100
AcDbEntity
  8
AM_0
100
AcDbLine
 10
118.9999999999999
 20
-122.9458638009004
 30
0.0
 11
118.9999999999999
 21
-122.8883638009006
 31
0.0
  0
LINE
  5
6AAA
330
1F
100
AcDbEntity
  8
AM_0
100
AcDbLine
 10
118.9999999999999
 20
-137.7377648776587
 30
0.0
 11
118.9999999999999
 21
-137.6802648776588
 31
0.0
  0
LINE
  5
6AAB
330
1F
100
AcDbEntity
  8
AM_0
100
AcDbLine
 10
118.9999999999999
 20
-137.7377648776587
 30
0.0
 11
118.9999999999999
 21
-151.89156527561
 31
0.0
  0
LINE
  5
6AAD
330
1F
100
AcDbEntity
  8
AM_0
100
AcDbLine
 10
118.9999999999999
 20
-108.7345634029493
 30
0.0
 11
118.9999999999999
 21
-122.8883638009006
 31
0.0
  0
LINE
  5
6AAF
330
1F
100
AcDbEntity
  8
AM_0
100
AcDbLine
 10
112.9999999999999
 20
-122.2103961431032
 30
0.0
 11
112.9999999999999
 21
-138.4157325354563
 31
0.0
  0
LINE
  5
6AB0
330
1F
100
AcDbEntity
  8
AM_0
100
AcDbLine
 10
72.37749907475967
 20
-138.3130643392801
 30
0.0
 11
72.37749907475967
 21
-161.8130643392792
 31
0.0
  0
LINE
  5
6AB1
330
1F
100
AcDbEntity
  8
AM_0
100
AcDbLine
 10
70.87499999999994
 20
-138.3130643392792
 30
0.0
 11
70.87499999999994
 21
-159.2106596034714
 31
0.0
  0
LINE
  5
6AB2
330
1F
100
AcDbEntity
  8
AM_0
100
AcDbLine
 10
69.87499999999994
 20
-137.6615335676292
 30
0.0
 11
69.87499999999994
 21
-157.8130643392792
 31
0.0
  0
LINE
  5
6AB4
330
1F
100
AcDbEntity
  8
AM_0
100
AcDbLine
 10
65.62250092524113
 20
-138.3130643392792
 30
0.0
 11
65.62250092524113
 21
-161.8130643392792
 31
0.0
  0
LINE
  5
6AB5
330
1F
100
AcDbEntity
  8
AM_0
100
AcDbLine
 10
65.62250092524113
 20
-109.5120498783167
 30
0.0
 11
65.62250092524113
 21
-122.3130643392792
 31
0.0
  0
LINE
  5
6AB6
330
1F
100
AcDbEntity
  8
AM_0
100
AcDbLine
 10
65.62250092524113
 20
-98.81306433927915
 30
0.0
 11
65.62250092524113
 21
-105.9768772920037
 31
0.0
  0
LINE
  5
6AB7
330
1F
100
AcDbEntity
  8
AM_0
100
AcDbLine
 10
68.12499999999994
 20
-137.6615335676292
 30
0.0
 11
68.12499999999994
 21
-157.8130643392792
 31
0.0
  0
LINE
  5
6AB9
330
1F
100
AcDbEntity
  8
AM_0
100
AcDbLine
 10
67.12499999999994
 20
-138.3130643392792
 30
0.0
 11
67.12499999999994
 21
-159.2106596034714
 31
0.0
  0
LINE
  5
6ABA
330
1F
100
AcDbEntity
  8
AM_0
100
AcDbLine
 10
67.12499999999994
 20
-101.4154690750879
 30
0.0
 11
67.12499999999994
 21
-109.4547084104665
 31
0.0
  0
LINE
  5
6ABB
330
1F
100
AcDbEntity
  8
AM_0
100
AcDbLine
 10
72.37749907475967
 20
-110.3130643392792
 30
0.0
 11
72.37749907475967
 21
-122.3130643392792
 31
0.0
  0
LINE
  5
6ABC
330
1F
100
AcDbEntity
  8
AM_0
100
AcDbLine
 10
70.87499999999994
 20
-110.3130643392792
 30
0.0
 11
70.87499999999994
 21
-122.3130643392792
 31
0.0
  0
LINE
  5
6ABD
330
1F
100
AcDbEntity
  8
AM_0
100
AcDbLine
 10
70.87499999999994
 20
-101.4154690750879
 30
0.0
 11
70.87499999999994
 21
-109.4547084104665
 31
0.0
  0
LINE
  5
6ABE
330
1F
100
AcDbEntity
  8
AM_0
100
AcDbLine
 10
72.37749907475967
 20
-98.81306433927915
 30
0.0
 11
72.37749907475967
 21
-105.9768772920037
 31
0.0
  0
LINE
  5
6ABF
330
1F
100
AcDbEntity
  8
AM_0
100
AcDbLine
 10
67.12499999999994
 20
-110.0624493384279
 30
0.0
 11
67.12499999999994
 21
-122.3130643392792
 31
0.0
  0
LINE
  5
6AC0
330
1F
100
AcDbEntity
  8
AM_0
100
AcDbLine
 10
86.99999999999994
 20
-98.81306433927917
 30
0.0
 11
86.99999999999994
 21
-161.8130643392792
 31
0.0
  0
ARC
  5
6AC1
330
1F
100
AcDbEntity
  8
AM_0
100
AcDbCircle
 10
117.8000000000001
 20
-151.89156527561
 30
0.0
 40
1.2
100
AcDbArc
 50
272.8624052261126
 51
0.0
  0
ARC
  5
6AC2
330
1F
100
AcDbEntity
  8
AM_0
100
AcDbCircle
 10
117.8000000000001
 20
-108.7345634029493
 30
0.0
 40
1.2
100
AcDbArc
 50
0.0
 51
87.13759477388746
  0
ARC
  5
6AC3
330
1F
100
AcDbEntity
  8
AM_0
100
AcDbCircle
 10
69.87499999999994
 20
-158.8130643392792
 30
0.0
 40
1.0
100
AcDbArc
 50
0.0
 51
90.0
  0
ARC
  5
6AC4
330
1F
100
AcDbEntity
  8
AM_0
100
AcDbCircle
 10
69.87499999999994
 20
-101.8130643392792
 30
0.0
 40
1.0
100
AcDbArc
 50
270.0
 51
0.0
  0
ARC
  5
6AC5
330
1F
100
AcDbEntity
  8
AM_0
100
AcDbCircle
 10
68.12499999999994
 20
-158.8130643392792
 30
0.0
 40
1.0
100
AcDbArc
 50
90.0
 51
180.0
  0
ARC
  5
6AC6
330
1F
100
AcDbEntity
  8
AM_0
100
AcDbCircle
 10
68.12499999999994
 20
-101.8130643392792
 30
0.0
 40
1.0
100
AcDbArc
 50
180.0
 51
270.0
  0
LINE
  5
6E64
330
1F
100
AcDbEntity
  8
AM_7
100
AcDbLine
 10
-57.96491573555437
 20
-130.3130643392791
 30
0.0
 11
-57.96491573555437
 21
-96.01906433927927
 31
0.0
1001
GENIUS_GENOREF_13
1005
7481
  0
LINE
  5
6E65
330
1F
100
AcDbEntity
  8
AM_7
100
AcDbLine
 10
-57.96491573555437
 20
-130.3130643392791
 30
0.0
 11
-92.25891573555424
 21
-130.3130643392791
 31
0.0
1001
GENIUS_GENOREF_13
1005
7481
  0
LINE
  5
6E66
330
1F
100
AcDbEntity
  8
AM_7
100
AcDbLine
 10
-57.96491573555437
 20
-130.3130643392791
 30
0.0
 11
-57.96491573555437
 21
-164.607064339279
 31
0.0
1001
GENIUS_GENOREF_13
1005
7481
  0
LINE
  5
6E67
330
1F
100
AcDbEntity
  8
AM_7
100
AcDbLine
 10
-57.96491573555437
 20
-130.3130643392791
 30
0.0
 11
-23.6709157355545
 21
-130.3130643392791
 31
0.0
1001
GENIUS_GENOREF_13
1005
7481
  0
POINT
  5
7481
330
1F
100
AcDbEntity
  8
0
 60
     1
100
AcDbPoint
 10
-776.1943174053608
 20
-965.6064016580716
 30
0.0
1001
GENIUS_GENOENT_13
1002
{
1000
MYREF
1005
7481
1002
}
1002
{
1000
GRP
1005
0
1002
}
1001
GENIUS_GENOBJ-N-CRS_13
1002
{
1000
OWNER
1000
GEN
1002
}
1001
GENIUS_GENOLIS_13
1002
{
1000
ENT
1005
6E67
1005
6E66
1005
6E65
1005
6E64
1002
}
1001
GENIUS_GENODEF_13
1002
{
1000
HIER
1070
    10
1002
}
1002
{
1000
MANEDIT
1070
     0
1002
}
1002
{
1000
NOSEL
1070
     0
1002
}
1002
{
1000
BEHIND
1070
     0
1002
}
1002
{
1000
OTHER
1070
     0
1002
}
1002
{
1000
REACTOR
1002
}
  0
DIMENSION
  5
7A0E
330
1F
100
AcDbEntity
  8
AM_5
100
AcDbDimension
  2
*D3
 10
86.99999999999994
 20
-63.49999999999588
 30
0.0
 11
43.49999999999994
 21
-60.09999999999588
 31
0.0
 70
    32
  1
<>
 71
     5
 42
87.0
  3
AM_JIS$0
100
AcDbAlignedDimension
 13
-0.0000000000000568
 23
-29.99999999999585
 33
0.0
 14
86.99999999999994
 24
-31.49999999999585
 34
0.0
100
AcDbRotatedDimension
1001
ACAD
1000
DSTYLE
1002
{
1070
   179
1070
     0
1070
   271
1070
     0
1070
   272
1070
     2
1002
}
  0
ARC
  5
80F7
330
1F
100
AcDbEntity
  8
AM_0
100
AcDbCircle
 10
114.4999999999999
 20
-125.6005643392795
 30
0.0
 40
1.5
100
AcDbArc
 50
90.0
 51
180.0
1001
GENIUS_GENOBJ-N-FIL_13
1002
{
1000
OWNER
1000
GEN
1002
}
1001
GENIUS_GENODEF_13
1002
{
1000
HIER
1070
     0
1002
}
1002
{
1000
MANEDIT
1070
     0
1002
}
1002
{
1000
NOSEL
1070
     0
1002
}
1002
{
1000
BEHIND
1070
     0
1002
}
1002
{
1000
OTHER
1070
     0
1002
}
1002
{
1000
REACTOR
1002
}
  0
ARC
  5
80F9
330
1F
100
AcDbEntity
  8
AM_0
100
AcDbCircle
 10
114.4999999999999
 20
-135.0255643392797
 30
0.0
 40
1.5
100
AcDbArc
 50
180.0
 51
270.0
1001
GENIUS_GENODEF_13
1002
{
1000
HIER
1070
     0
1002
}
1002
{
1000
MANEDIT
1070
     0
1002
}
1002
{
1000
NOSEL
1070
     0
1002
}
1002
{
1000
BEHIND
1070
     0
1002
}
1002
{
1000
OTHER
1070
     0
1002
}
1002
{
1000
REACTOR
1002
}
1001
GENIUS_GENOBJ-N-FIL_13
1002
{
1000
OWNER
1000
GEN
1002
}
  0
ARC
  5
80FB
330
1F
100
AcDbEntity
  8
AM_0
100
AcDbCircle
 10
114.4999999999999
 20
-138.4157325354563
 30
0.0
 40
1.5
100
AcDbArc
 50
180.0
 51
280.7630026735882
1001
GENIUS_GENOBJ-N-FIL_13
1002
{
1000
OWNER
1000
GEN
1002
}
1001
GENIUS_GENODEF_13
1002
{
1000
HIER
1070
     0
1002
}
1002
{
1000
MANEDIT
1070
     0
1002
}
1002
{
1000
NOSEL
1070
     0
1002
}
1002
{
1000
BEHIND
1070
     0
1002
}
1002
{
1000
OTHER
1070
     0
1002
}
1002
{
1000
REACTOR
1002
}
  0
ARC
  5
80FD
330
1F
100
AcDbEntity
  8
AM_0
100
AcDbCircle
 10
114.4999999999999
 20
-122.2103961431032
 30
0.0
 40
1.5
100
AcDbArc
 50
79.23699732641479
 51
179.9999999999994
1001
GENIUS_GENOBJ-N-FIL_13
1002
{
1000
OWNER
1000
GEN
1002
}
1001
GENIUS_GENODEF_13
1002
{
1000
HIER
1070
     0
1002
}
1002
{
1000
MANEDIT
1070
     0
1002
}
1002
{
1000
NOSEL
1070
     0
1002
}
1002
{
1000
BEHIND
1070
     0
1002
}
1002
{
1000
OTHER
1070
     0
1002
}
1002
{
1000
REACTOR
1002
}
  0
ARC
  5
816F
330
1F
100
AcDbEntity
  8
AM_11
  6
ACJISTGB
100
AcDbCircle
 10
117.8000000000001
 20
21.57850093633401
 30
0.0
 40
1.2
100
AcDbArc
 50
0.0
 51
87.13759477388746
  0
ARC
  5
8170
330
1F
100
AcDbEntity
  8
AM_11
  6
ACJISTGB
100
AcDbCircle
 10
117.8000000000001
 20
-21.57850093632665
 30
0.0
 40
1.2
100
AcDbArc
 50
272.8624052261126
 51
0.0
  0
LINE
  5
817B
330
1F
100
AcDbEntity
  8
AM_11
  6
ACJISTGB
100
AcDbLine
 10
118.9999999999999
 20
-20.26093592543268
 30
0.0
 11
118.9999999999999
 21
-21.57850093632664
 31
0.0
  0
LINE
  5
817C
330
1F
100
AcDbEntity
  8
AM_0
100
AcDbLine
 10
112.9999999999999
 20
-23.01999999999538
 30
0.0
 11
100.4999999999999
 21
-23.64499999999538
 31
0.0
  0
LINE
  5
8187
330
1F
100
AcDbEntity
  8
AM_0
100
AcDbLine
 10
118.9999999999999
 20
20.28895312869272
 30
0.0
 11
118.9999999999999
 21
-20.26093592543268
 31
0.0
  0
LINE
  5
8189
330
1F
100
AcDbEntity
  8
AM_0
100
AcDbLine
 10
108.9999999999999
 20
23.22000000000443
 30
0.0
 11
100.4999999999999
 21
23.64500000000458
 31
0.0
  0
DIMENSION
  5
81E7
330
1F
100
AcDbEntity
  8
AM_5
100
AcDbDimension
  2
*D4
 10
144.9899171987326
 20
-31.49999999999587
 30
0.0
 11
141.5899171987326
 21
0.0000000000041518
 31
0.0
 70
    32
  1
%%c<>
 71
     5
 42
63.0
  3
AM_JIS$0
100
AcDbAlignedDimension
 13
86.99999999999994
 23
31.50000000000415
 33
0.0
 14
86.99999999999994
 24
-31.49999999999585
 34
0.0
 50
90.0
100
AcDbRotatedDimension
1001
ACAD
1000
DSTYLE
1002
{
1070
   179
1070
     0
1070
   271
1070
     0
1070
   272
1070
     2
1002
}
  0
LINE
  5
9CBA
330
1F
100
AcDbEntity
  8
AM_7
100
AcDbLine
 10
126.4704181305187
 20
-130.3130643392792
 30
0.0
 11
-8.688782910096592
 21
-130.3130643392792
 31
0.0
1001
GENIUS_GENOBJ-N-CEN_13
1002
{
1000
OWNER
1000
GEN
1002
}
1001
GENIUS_GENODEF_13
1002
{
1000
HIER
1070
     0
1002
}
1002
{
1000
MANEDIT
1070
     0
1002
}
1002
{
1000
NOSEL
1070
     0
1002
}
1002
{
1000
BEHIND
1070
     0
1002
}
1002
{
1000
OTHER
1070
     0
1002
}
1002
{
1000
REACTOR
1002
}
  0
DIMENSION
  5
9FE5
330
1F
100
AcDbEntity
  8
AM_5
100
AcDbDimension
  2
*D5
 10
-22.00000000000006
 20
-30.99999999999585
 30
0.0
 11
-25.40037401574808
 21
0.0000000000041478
 31
0.0
 70
    32
  1
%%c<>
 71
     5
 42
62.0
  3
AM_JIS$0
100
AcDbAlignedDimension
 13
1.000000000000057
 23
31.00000000000415
 33
0.0
 14
0.9999999999999432
 24
-30.99999999999585
 34
0.0
 50
90.0
100
AcDbRotatedDimension
1001
ACAD
1000
DSTYLE
1002
{
1070
   179
1070
     1
1070
   271
1070
     0
1070
   272
1070
     2
1002
}
  0
TEXT
  5
A051
330
1F
100
AcDbEntity
  8
AM_0
100
AcDbText
 10
-30.41513554128238
 20
-199.0513960537789
 30
0.0
 40
5.0
  1
H63A-WH-C32-87
100
AcDbText
  0
LINE
  5
A5A7
330
1F
100
AcDbEntity
  8
AM_0
100
AcDbLine
 10
60.99999999999994
 20
-138.3130643392792
 30
0.0
 11
60.99999999999994
 21
-161.8130643392792
 31
0.0
  0
LINE
  5
A6B3
330
1F
100
AcDbEntity
  8
AM_7
100
AcDbLine
 10
123.1713935235129
 20
0.000000000004146
 30
0.0
 11
-8.688782910096592
 21
0.000000000004146
 31
0.0
1001
GENIUS_GENOBJ-N-CEN_13
1002
{
1000
OWNER
1000
GEN
1002
}
1001
GENIUS_GENODEF_13
1002
{
1000
HIER
1070
     0
1002
}
1002
{
1000
MANEDIT
1070
     0
1002
}
1002
{
1000
NOSEL
1070
     0
1002
}
1002
{
1000
BEHIND
1070
     0
1002
}
1002
{
1000
OTHER
1070
     0
1002
}
1002
{
1000
REACTOR
1002
}
  0
CIRCLE
  5
A6EF
330
1F
100
AcDbEntity
  8
AM_0
100
AcDbCircle
 10
42.99999999999994
 20
0.0000000000041318
 30
0.0
 40
5.5
  0
LINE
  5
A6FC
330
1F
100
AcDbEntity
  8
AM_7
  6
AM_ISO08W050x2
100
AcDbLine
 10
42.99999999999994
 20
8.794000000004129
 30
0.0
 11
42.99999999999994
 21
-8.793999999995837
 31
0.0
1001
GENIUS_GENOBJ-N-CEN_13
1002
{
1000
OWNER
1000
GEN
1002
}
1001
GENIUS_GENODEF_13
1002
{
1000
HIER
1070
     0
1002
}
1002
{
1000
MANEDIT
1070
     0
1002
}
1002
{
1000
NOSEL
1070
     0
1002
}
1002
{
1000
BEHIND
1070
     0
1002
}
1002
{
1000
OTHER
1070
     0
1002
}
1002
{
1000
REACTOR
1002
}
  0
CIRCLE
  5
A7EC
330
1F
100
AcDbEntity
  8
AM_0
100
AcDbCircle
 10
15.0
 20
0.000000000004146
 30
0.0
 40
5.5
  0
LINE
  5
A7EE
330
1F
100
AcDbEntity
  8
AM_7
  6
AM_ISO08W050x2
100
AcDbLine
 10
15.0
 20
8.794000000004129
 30
0.0
 11
14.99999999999994
 21
-8.793999999995837
 31
0.0
1001
GENIUS_GENOBJ-N-CEN_13
1002
{
1000
OWNER
1000
GEN
1002
}
1001
GENIUS_GENODEF_13
1002
{
1000
HIER
1070
     0
1002
}
1002
{
1000
MANEDIT
1070
     0
1002
}
1002
{
1000
NOSEL
1070
     0
1002
}
1002
{
1000
BEHIND
1070
     0
1002
}
1002
{
1000
OTHER
1070
     0
1002
}
1002
{
1000
REACTOR
1002
}
  0
ENDSEC
  0
SECTION
  2
OBJECTS
  0
DICTIONARY
  5
C
330
0
100
AcDbDictionary
281
     1
  3
ACAD_COLOR
350
AB1D
  3
ACAD_GROUP
350
D
  3
ACAD_LAYOUT
350
1A
  3
ACAD_MATERIAL
350
AB1C
  3
ACAD_MLINESTYLE
350
17
  3
ACAD_PLOTSETTINGS
350
19
  3
ACAD_PLOTSTYLENAME
350
E
  3
ACAD_TABLESTYLE
350
AB1E
  3
AcAmCatalogState
350
AB82
  3
ACDBHEADERROUNDTRIPXREC
350
AE95
  3
AcDbVariableDictionary
350
30
  3
ACDMSYSVARMGR
350
AB48
  3
ACGREF_MASTER
350
23CD
  3
ACGREFACAD_MASTER
350
23D1
  3
AcmDictionary
350
4D
  3
ACME_BOM_MANAGER_NAME
350
AB3B
  3
ACME_COMMAND_HISTORY
350
AB38
  3
ACME_SCOPE_NAME
350
AB37
  3
ACMESTATEMGR
350
AB40
  3
AcmeSysVarManager
350
AB39
  3
AcmSystemVariableManager
350
AB89
  3
AD_APPL
350
AB6F
  3
ADSYSVARMGR
350
AB6E
  3
AmdtNamedDwgMgr
350
AB63
  3
AMG
350
3F
  3
AMGSNAPSETTINGS
350
73
  3
AMI_MASTER
350
23D2
  3
AUTOCAD_ASSEMBLIES_PROJECT
350
AB77
  3
Designer_Assemblies_SysVars
350
AB72
  3
DWGPROPS
350
AE98
  3
FILENAME
350
1C9F
  3
GREFAM_MODULE
350
AB68
  3
ZWKSIZE
350
1CA1
  0
DICTIONARY
  5
165
330
1F
100
AcDbDictionary
280
     1
281
     1
  3
ACAD_INDEX
360
AE16
  3
ACAD_LAYOUTSELFREF
360
AA83
  0
DICTIONARY
  5
264F
330
1B
100
AcDbDictionary
280
     1
281
     1
  3
ACAD_LAYOUTSELFREF
360
AA82
  0
DICTIONARY
  5
2651
330
23
100
AcDbDictionary
280
     1
281
     1
  3
ACAD_LAYOUTSELFREF
360
AA84
  0
DICTIONARY
  5
AB1D
102
{ACAD_REACTORS
330
C
102
}
330
C
100
AcDbDictionary
281
     1
  0
DICTIONARY
  5
D
102
{ACAD_REACTORS
330
C
102
}
330
C
100
AcDbDictionary
281
     1
  0
DICTIONARY
  5
1A
102
{ACAD_REACTORS
330
C
102
}
330
C
100
AcDbDictionary
281
     1
  3
Model
350
22
  3
ﾚｲｱｳﾄ1
350
1E
  3
ﾚｲｱｳﾄ2
350
26
  0
DICTIONARY
  5
AB1C
102
{ACAD_REACTORS
330
C
102
}
330
C
100
AcDbDictionary
281
     1
  0
DICTIONARY
  5
17
102
{ACAD_REACTORS
330
C
102
}
330
C
100
AcDbDictionary
281
     1
  3
Standard
350
18
  0
DICTIONARY
  5
19
102
{ACAD_REACTORS
330
C
102
}
330
C
100
AcDbDictionary
281
     1
  0
ACDBDICTIONARYWDFLT
  5
E
102
{ACAD_REACTORS
330
C
102
}
330
C
100
AcDbDictionary
281
     1
  3
Normal
350
F
100
AcDbDictionaryWithDefault
340
F
  0
DICTIONARY
  5
AB1E
102
{ACAD_REACTORS
330
C
102
}
330
C
100
AcDbDictionary
281
     1
  3
Standard
350
AB1F
  0
ACAD_PROXY_OBJECT
  5
AB82
102
{ACAD_REACTORS
330
C
102
}
330
C
100
AcDbProxyObject
 90
      499
 91
      584
 95
       25
 70
     0
 93
      392
310
3FFFFFFFE00A02814028E221D2E31B0B2483ECB652E24A1AA26C83ECB652E24A1AA26C83ECB65400A0815995F89056657E
  0
DICTIONARY
  5
AE95
102
{ACAD_REACTORS
330
C
102
}
330
C
100
AcDbDictionary
281
     1
  3
COLORDICT
350
AE96
  3
MATERIALDICT
350
AE97
  0
DICTIONARY
  5
30
102
{ACAD_REACTORS
330
C
102
}
330
C
100
AcDbDictionary
281
     1
  3
CTABLESTYLE
350
ABE4
  3
HIDETEXT
350
AE94
  0
ACAD_PROXY_OBJECT
  5
AB48
102
{ACAD_REACTORS
330
C
102
}
330
C
100
AcDbProxyObject
 90
      499
 91
      507
 95
       25
 70
     0
 93
      240
310
4C51A47A0000000000000000000000000000000000000000000000000000
330
AB49
330
AB4A
330
AB4B
330
AB4C
330
AB4D
330
AB4E
330
AB4F
330
AB50
330
AB51
330
AB52
330
AB53
330
AB54
330
AB55
330
AB56
330
AB57
330
AB58
330
AB59
330
AB5A
330
AB5B
330
AB5C
330
AB5D
330
AB5E
330
AB5F
330
AB60
330
AB61
330
AB62
 94
        0
  0
ACAD_PROXY_OBJECT
  5
23CD
102
{ACAD_REACTORS
330
C
102
}
330
C
100
AcDbProxyObject
 90
      499
 91
      534
 95
       25
 70
     0
 93
       34
310
0400004280
  0
ACAD_PROXY_OBJECT
  5
23D1
102
{ACAD_REACTORS
330
C
102
}
330
C
100
AcDbProxyObject
 90
      499
 91
      535
 95
       25
 70
     0
 93
      114
310
04000041C080000000000000000000
  0
DICTIONARY
  5
4D
102
{ACAD_REACTORS
330
C
102
}
330
C
100
AcDbDictionary
281
     1
  3
AcmBOMDATA
350
AB81
  3
AcmStdDictionary
350
17E
  3
AMDTSECTSYM_ARROWCOLOR
350
ABFE
  0
ACAD_PROXY_OBJECT
  5
AB3B
102
{ACAD_REACTORS
330
C
102
}
330
C
100
AcDbProxyObject
 90
      499
 91
      510
 95
       25
 70
     0
 93
       50
310
00010040400000
330
0
330
0
330
AB3C
 94
        0
  0
ACAD_PROXY_OBJECT
  5
AB38
102
{ACAD_REACTORS
330
C
102
}
330
C
100
AcDbProxyObject
 90
      499
 91
      505
 95
       25
 70
     0
 93
     4776
310
47805044D4F5645805045A4F4F4D805055153415645404052D4D5347202D205050413A2020206465736B746F702E6172782046696C6556657273696F6E3A20392E322E302E34014390535115149154D15511109353D1102014213880B4815539113C05084E202D20554E444F014115539113E014115539113E014151549054
310
D16014151549054D16014151549054D16014151549054D16014151549054D1501014B5354D1C80B481414104E88080819195CDADD1BDC0B985C9E08119A5B1955995C9CDA5BDB8E880E4B8C8B8C0B8D005054552415345805054552415345805054552415345805054552415345805054552415345404052D4D5347202D205
310
050413A2020206465736B746F702E6172782046696C6556657273696F6E3A20392E322E302E34014151549054D1501014B5354D1C80B481414104E88080819195CDADD1BDC0B985C9E08119A5B1955995C9CDA5BDB8E880E4B8C8B8C0B8D00505455241534580505455241534580504554E444F80505584C494E4580506455
310
854454E4440405184D5347202D20436F6D6D616E642043414E43454C4C45442E014115539113E014151549054D1601415454D05591501014B5354D1C80B481414104E88080819195CDADD1BDC0B985C9E08119A5B1955995C9CDA5BDB8E880E4B8C8B8C0B8D0050E414D4454524553455444424D4F4440805084E202D20554
310
E444F014213880B4815539113C0504554E444F80504554E444F805055055524745805055153415645404052D4D5347202D205050413A2020206465736B746F702E6172782046696C6556657273696F6E3A20392E322E302E34
  0
ACAD_PROXY_OBJECT
  5
AB37
102
{ACAD_REACTORS
330
C
102
}
330
C
100
AcDbProxyObject
 90
      499
 91
      504
 95
       25
 70
     0
 93
      562
310
09000046408000000000000000001314D600000000000000000000000000000000000000000000000000000000000000000000000000000000000000000000000000AAA406AA80
360
AB3A
360
AB3C
360
AB41
360
AB42
360
AB43
360
AB44
360
AB45
360
AB46
360
AB49
360
AB4A
360
AB4B
360
AB4C
360
AB4D
360
AB4E
360
AB4F
360
AB50
360
AB51
360
AB52
360
AB53
360
AB54
360
AB55
360
AB56
360
AB57
360
AB58
360
AB59
360
AB5A
360
AB5B
360
AB5C
360
AB5D
360
AB5E
360
AB5F
360
AB60
360
AB61
360
AB62
360
AB6A
360
AB6B
360
AB6C
360
AB6D
360
AB73
360
AB74
360
AB75
360
AB76
360
AB7B
360
AB7C
360
AB7D
360
AB7E
360
AB7F
360
AB80
360
ABDF
 94
        0
  0
ACAD_PROXY_OBJECT
  5
AB40
102
{ACAD_REACTORS
330
C
102
}
330
C
100
AcDbProxyObject
 90
      499
 91
      515
 95
       25
 70
     0
 93
       50
310
09000042641280
  0
ACAD_PROXY_OBJECT
  5
AB39
102
{ACAD_REACTORS
330
C
102
}
330
C
100
AcDbProxyObject
 90
      499
 91
      507
 95
       25
 70
     0
 93
       32
310
90140A00
330
AB3A
 94
        0
  0
ACAD_PROXY_OBJECT
  5
AB89
102
{ACAD_REACTORS
330
C
102
}
330
C
100
AcDbProxyObject
 90
      499
 91
      507
 95
       25
 70
     0
 93
       32
310
90140A00
330
ABDF
 94
        0
  0
ACAD_PROXY_OBJECT
  5
AB6F
102
{ACAD_REACTORS
330
C
102
}
330
C
100
AcDbProxyObject
 90
      499
 91
      574
 95
       25
 70
     0
 93
       42
310
000900004040
330
AB6A
 94
        0
  0
ACAD_PROXY_OBJECT
  5
AB6E
102
{ACAD_REACTORS
330
C
102
}
330
C
100
AcDbProxyObject
 90
      499
 91
      507
 95
       25
 70
     0
 93
        8
310
AA
  0
ACAD_PROXY_OBJECT
  5
AB63
102
{ACAD_REACTORS
330
C
102
}
330
C
100
AcDbProxyObject
 90
      499
 91
      565
 95
       25
 70
     0
 93
       42
310
000100005E80
330
AB41
 94
        0
  0
DICTIONARY
  5
3F
102
{ACAD_REACTORS
330
C
102
}
330
C
100
AcDbDictionary
281
     1
  3
AcMgSettings
350
40
  3
AMGLAYCFG
350
AB33
  0
DICTIONARY
  5
73
102
{ACAD_REACTORS
330
C
102
}
330
C
100
AcDbDictionary
281
     1
  0
ACAD_PROXY_OBJECT
  5
23D2
102
{ACAD_REACTORS
330
C
102
}
330
C
100
AcDbProxyObject
 90
      499
 91
      536
 95
       25
 70
     0
 93
       34
310
0500004280
  0
ACAD_PROXY_OBJECT
  5
AB77
102
{ACAD_REACTORS
330
C
102
}
330
C
100
AcDbProxyObject
 90
      499
 91
      577
 95
       25
 70
     0
 93
       98
310
0900004E400000000000000000
330
AB7E
330
0
330
AB7F
330
0
330
0
330
0
330
0
330
0
 94
        0
  0
ACAD_PROXY_OBJECT
  5
AB72
102
{ACAD_REACTORS
330
C
102
}
330
C
100
AcDbProxyObject
 90
      499
 91
      507
 95
       25
 70
     0
 93
       56
310
90441600000000
330
AB73
330
AB74
330
AB75
330
AB76
 94
        0
  0
XRECORD
  5
AE98
102
{ACAD_REACTORS
330
C
102
}
330
C
100
AcDbXrecord
280
     1
  1
DWGPROPS COOKIE
  2

  3

  4

  6

  7

  8

  9

300
AmdtFileType=84
301
=
302
=
303
=
304
=
305
=
306
=
307
=
308
=
309
=
 40
0.0
 41
2451943.235431667
 42
2455460.064985081
  1

 90
        1
  0
DICTIONARY
  5
1C9F
102
{ACAD_REACTORS
330
C
102
}
330
C
100
AcDbDictionary
281
     1
  3
FILENAME
350
1CA0
  0
ACAD_PROXY_OBJECT
  5
AB68
102
{ACAD_REACTORS
330
C
102
}
330
C
100
AcDbProxyObject
 90
      499
 91
      568
 95
       25
 70
     0
 93
        8
310
05
  0
DICTIONARY
  5
1CA1
102
{ACAD_REACTORS
330
C
102
}
330
C
100
AcDbDictionary
281
     1
  3
ZWKSIZE
350
1CA2
  0
DICTIONARY
  5
AE16
102
{ACAD_REACTORS
330
165
102
}
330
165
100
AcDbDictionary
281
     1
  3
*A1
350
AE17
  0
XRECORD
  5
AA83
102
{ACAD_REACTORS
330
165
102
}
330
165
100
AcDbXrecord
280
     1
340
1F
  0
XRECORD
  5
AA82
102
{ACAD_REACTORS
330
264F
102
}
330
264F
100
AcDbXrecord
280
     1
340
1B
  0
XRECORD
  5
AA84
102
{ACAD_REACTORS
330
2651
102
}
330
2651
100
AcDbXrecord
280
     1
340
23
  0
LAYOUT
  5
22
102
{ACAD_REACTORS
330
1A
102
}
330
1A
100
AcDbPlotSettings
  1

  2
SII LP-2150 (D-SCAN C2)
  4
User120
  6
AM_VIEW1
 40
3.174999952316284
 41
3.174999952316284
 42
3.17498779296875
 43
3.17498779296875
 44
296.9259948730469
 45
419.9889831542969
 46
0.0
 47
0.0
 48
0.0
 49
0.0
140
420.0
141
297.0
142
1.0
143
1.022107788374329
 70
 11952
 72
     1
 73
     1
 74
     4
  7
sei_cad.ctb
 75
     0
147
0.9783703943695685
148
0.0
149
0.0
100
AcDbLayout
  1
Model
 70
     1
 71
     0
 10
0.0
 20
0.0
 11
12.0
 21
9.0
 12
0.0
 22
0.0
 32
0.0
 14
0.0
 24
0.0
 34
0.0
 15
0.0
 25
0.0
 35
0.0
146
0.0
 13
0.0
 23
0.0
 33
0.0
 16
1.0
 26
0.0
 36
0.0
 17
0.0
 27
1.0
 37
0.0
 76
     0
330
1F
1001
ACAD_PSEXT
1000
SII LP-2150 (D-SCAN C2)
1000
SII LP-2150 (D-SCAN C2)
1000
133.153.16.130#3000
1000

1070
     0
  0
LAYOUT
  5
1E
102
{ACAD_REACTORS
330
1A
102
}
330
1A
100
AcDbPlotSettings
  1

  2
Canon LASER SHOT LBP-2030
  4

  6

 40
0.0
 41
0.0
 42
0.0
 43
0.0
 44
0.0
 45
0.0
 46
0.0
 47
0.0
 48
0.0
 49
0.0
140
0.0
141
0.0
142
1.0
143
1.0
 70
   688
 72
     0
 73
     0
 74
     5
  7
sei_cad.ctb
 75
    16
147
1.0
148
0.0
149
0.0
100
AcDbLayout
  1
ﾚｲｱｳﾄ1
 70
     1
 71
     1
 10
0.0
 20
0.0
 11
420.0
 21
297.0
 12
0.0
 22
0.0
 32
0.0
 14
1.000000000000000E+20
 24
1.000000000000000E+20
 34
1.000000000000000E+20
 15
-1.000000000000000E+20
 25
-1.000000000000000E+20
 35
-1.000000000000000E+20
146
0.0
 13
0.0
 23
0.0
 33
0.0
 16
1.0
 26
0.0
 36
0.0
 17
0.0
 27
1.0
 37
0.0
 76
     0
330
1B
  0
LAYOUT
  5
26
102
{ACAD_REACTORS
330
1A
102
}
330
1A
100
AcDbPlotSettings
  1

  2
Canon LASER SHOT LBP-2030
  4

  6

 40
0.0
 41
0.0
 42
0.0
 43
0.0
 44
0.0
 45
0.0
 46
0.0
 47
0.0
 48
0.0
 49
0.0
140
0.0
141
0.0
142
1.0
143
1.0
 70
   688
 72
     0
 73
     0
 74
     5
  7
sei_cad.ctb
 75
    16
147
1.0
148
0.0
149
0.0
100
AcDbLayout
  1
ﾚｲｱｳﾄ2
 70
     1
 71
     2
 10
0.0
 20
0.0
 11
12.0
 21
9.0
 12
0.0
 22
0.0
 32
0.0
 14
0.0
 24
0.0
 34
0.0
 15
0.0
 25
0.0
 35
0.0
146
0.0
 13
0.0
 23
0.0
 33
0.0
 16
1.0
 26
0.0
 36
0.0
 17
0.0
 27
1.0
 37
0.0
 76
     0
330
23
  0
MLINESTYLE
  5
18
102
{ACAD_REACTORS
330
17
102
}
330
17
100
AcDbMlineStyle
  2
STANDARD
 70
     0
  3

 62
   256
 51
90.0
 52
90.0
 71
     2
 49
0.5
 62
   256
  6
BYLAYER
 49
-0.5
 62
   256
  6
BYLAYER
  0
ACDBPLACEHOLDER
  5
F
102
{ACAD_REACTORS
330
E
102
}
330
E
  0
TABLESTYLE
  5
AB1F
102
{ACAD_REACTORS
330
AB1E
102
}
330
AB1E
100
AcDbTableStyle
  3
Standard
 70
     0
 71
     8
 40
1.5
 41
1.5
280
     0
281
     0
  7
STANDARD
140
4.5
170
     2
 62
     0
 63
     7
283
     0
274
    -2
284
     1
 64
     0
275
    -2
285
     1
 65
     0
276
    -2
286
     1
 66
     0
277
    -2
287
     1
 67
     0
278
    -2
288
     1
 68
     0
279
    -2
289
     1
 69
     0
  7
STANDARD
140
6.0
170
     5
 62
     0
 63
     7
283
     0
274
    -2
284
     1
 64
     0
275
    -2
285
     1
 65
     0
276
    -2
286
     1
 66
     0
277
    -2
287
     1
 67
     0
278
    -2
288
     1
 68
     0
279
    -2
289
     1
 69
     0
  7
STANDARD
140
4.5
170
     5
 62
     0
 63
     7
283
     0
274
    -2
284
     1
 64
     0
275
    -2
285
     1
 65
     0
276
    -2
286
     1
 66
     0
277
    -2
287
     1
 67
     0
278
    -2
288
     1
 68
     0
279
    -2
289
     1
 69
     0
  0
XRECORD
  5
AE96
102
{ACAD_REACTORS
330
AE95
102
}
330
AE95
100
AcDbXrecord
280
     1
340
AB1D
  0
XRECORD
  5
AE97
102
{ACAD_REACTORS
330
AE95
102
}
330
AE95
100
AcDbXrecord
280
     1
340
AB1C
  0
DICTIONARYVAR
  5
ABE4
102
{ACAD_REACTORS
330
30
102
}
330
30
100
DictionaryVariables
280
     0
  1
STANDARD
  0
DICTIONARYVAR
  5
AE94
102
{ACAD_REACTORS
330
30
102
}
330
30
100
DictionaryVariables
280
     0
  1
0
  0
ACAD_PROXY_OBJECT
  5
AB81
102
{ACAD_REACTORS
330
4D
102
}
330
4D
100
AcDbProxyObject
 90
      499
 91
      520
 95
       25
 70
     0
 93
       76
310
90100057356C1D774060
  0
DICTIONARY
  5
17E
102
{ACAD_REACTORS
330
4D
102
}
330
4D
100
AcDbDictionary
281
     1
  3
ISO
350
AB8A
  3
JIS
350
ABB8
  0
XRECORD
  5
ABFE
102
{ACAD_REACTORS
330
4D
102
}
330
4D
100
AcDbXrecord
280
     1
 90
-1023410169
  0
ACAD_PROXY_OBJECT
  5
AB3A
330
AB37
100
AcDbProxyObject
 90
      499
 91
      509
 95
       25
 70
     0
 93
      156
310
000101439050D35154D6535093D314D256915080
330
AB37
 94
        0
  0
ACAD_PROXY_OBJECT
  5
AB3C
330
AB37
100
AcDbProxyObject
 90
      499
 91
      511
 95
       25
 70
     0
 93
      120
310
000101422565255A6557080C402B00
330
AB37
330
0
330
0
 94
        0
  0
ACAD_PROXY_OBJECT
  5
AB41
330
AB37
100
AcDbProxyObject
 90
      499
 91
      561
 95
       25
 70
     0
 93
      358
310
0001014124FEA55D00507392E322E302E32014124FEA55D00507392E322E302E3240501000041505391D311658
330
AB37
330
AB42
330
AB48
 94
        0
  0
ACAD_PROXY_OBJECT
  5
AB42
330
AB37
100
AcDbProxyObject
 90
      499
 91
      562
 95
       25
 70
     0
 93
       56
310
000190240E0000
330
AB37
330
AB43
330
AB45
 94
        0
  0
ACAD_PROXY_OBJECT
  5
AB43
330
AB37
100
AcDbProxyObject
 90
      499
 91
      563
 95
       25
 70
     0
 93
       48
310
0001AA000000
330
AB37
330
1E
330
AB44
330
0
 94
        0
  0
ACAD_PROXY_OBJECT
  5
AB44
330
AB37
100
AcDbProxyObject
 90
      499
 91
      564
 95
       25
 70
     0
 93
       28
310
0001AAA0
330
AB37
 94
        0
  0
ACAD_PROXY_OBJECT
  5
AB45
330
AB37
100
AcDbProxyObject
 90
      499
 91
      563
 95
       25
 70
     0
 93
       48
310
0001AA000000
330
AB37
330
26
330
AB46
330
0
 94
        0
  0
ACAD_PROXY_OBJECT
  5
AB46
330
AB37
100
AcDbProxyObject
 90
      499
 91
      564
 95
       25
 70
     0
 93
       28
310
0001AAA0
330
AB37
 94
        0
  0
ACAD_PROXY_OBJECT
  5
AB49
330
AB37
100
AcDbProxyObject
 90
      499
 91
      509
 95
       25
 70
     0
 93
      108
310
000101421053521310D05310D010
330
AB37
 94
        0
  0
ACAD_PROXY_OBJECT
  5
AB4A
330
AB37
100
AcDbProxyObject
 90
      499
 91
      509
 95
       25
 70
     0
 93
      124
310
00010142905354915554D15112535010
330
AB37
 94
        0
  0
ACAD_PROXY_OBJECT
  5
AB4B
330
AB37
100
AcDbProxyObject
 90
      499
 91
      509
 95
       25
 70
     0
 93
      132
310
00010143105354D150D51253D391125360
330
AB37
 94
        0
  0
ACAD_PROXY_OBJECT
  5
AB4C
330
AB37
100
AcDbProxyObject
 90
      499
 91
      509
 95
       25
 70
     0
 93
      124
310
00010142905355941093D49111549010
330
AB37
 94
        0
  0
ACAD_PROXY_OBJECT
  5
AB4D
330
AB37
100
AcDbProxyObject
 90
      499
 91
      509
 95
       25
 70
     0
 93
      116
310
0001014290535115D1D0D3D313D4A0
330
AB37
 94
        0
  0
ACAD_PROXY_OBJECT
  5
AB4E
330
AB37
100
AcDbProxyObject
 90
      499
 91
      509
 95
       25
 70
     0
 93
      148
310
00010143505355925155D49151949154D21010
330
AB37
 94
        0
  0
ACAD_PROXY_OBJECT
  5
AB4F
330
AB37
100
AcDbProxyObject
 90
      499
 91
      509
 95
       25
 70
     0
 93
      172
310
00010144105350539393D51154149154D15495915010
330
AB37
 94
        0
  0
ACAD_PROXY_OBJECT
  5
AB50
330
AB37
100
AcDbProxyObject
 90
      499
 91
      509
 95
       25
 70
     0
 93
      172
310
00010144105350555513D11253505494905391D15010
330
AB37
 94
        0
  0
ACAD_PROXY_OBJECT
  5
AB51
330
AB37
100
AcDbProxyObject
 90
      499
 91
      509
 95
       25
 70
     0
 93
      124
310
00010142D05351561514915191125360
330
AB37
 94
        0
  0
ACAD_PROXY_OBJECT
  5
AB52
330
AB37
100
AcDbProxyObject
 90
      499
 91
      509
 95
       25
 70
     0
 93
      132
310
00010142D05355105410539393D5115010
330
AB37
 94
        0
  0
ACAD_PROXY_OBJECT
  5
AB53
330
AB37
100
AcDbProxyObject
 90
      499
 91
      509
 95
       25
 70
     0
 93
      108
310
00010142105350555513D0D31010
330
AB37
 94
        0
  0
ACAD_PROXY_OBJECT
  5
AB54
330
AB37
100
AcDbProxyObject
 90
      499
 91
      509
 95
       25
 70
     0
 93
      108
310
00010142105350D3119150551050
330
AB37
 94
        0
  0
ACAD_PROXY_OBJECT
  5
AB55
330
AB37
100
AcDbProxyObject
 90
      499
 91
      509
 95
       25
 70
     0
 93
      108
310
00010142105350D315925155D3F0
330
AB37
 94
        0
  0
ACAD_PROXY_OBJECT
  5
AB56
330
AB37
100
AcDbProxyObject
 90
      499
 91
      509
 95
       25
 70
     0
 93
      148
310
0001014350535212511156915493D112535010
330
AB37
 94
        0
  0
ACAD_PROXY_OBJECT
  5
AB57
330
AB37
100
AcDbProxyObject
 90
      499
 91
      509
 95
       25
 70
     0
 93
      124
310
00010142905352105510D21254D3D010
330
AB37
 94
        0
  0
ACAD_PROXY_OBJECT
  5
AB58
330
AB37
100
AcDbProxyObject
 90
      499
 91
      509
 95
       25
 70
     0
 93
      148
310
00010143905354D25391D31152105513105660
330
AB37
 94
        0
  0
ACAD_PROXY_OBJECT
  5
AB59
330
AB37
100
AcDbProxyObject
 90
      499
 91
      509
 95
       25
 70
     0
 93
      124
310
00010142D0535115D1D193111254D420
330
AB37
 94
        0
  0
ACAD_PROXY_OBJECT
  5
AB5A
330
AB37
100
AcDbProxyObject
 90
      499
 91
      509
 95
       25
 70
     0
 93
      100
310
00010142105350555513D213A0
330
AB37
 94
        0
  0
ACAD_PROXY_OBJECT
  5
AB5B
330
AB37
100
AcDbProxyObject
 90
      499
 91
      509
 95
       25
 70
     0
 93
      116
310
000101425053521390D3D553951010
330
AB37
 94
        0
  0
ACAD_PROXY_OBJECT
  5
AB5C
330
AB37
100
AcDbProxyObject
 90
      499
 91
      509
 95
       25
 70
     0
 93
      108
310
0001014210535213941493D29010
330
AB37
 94
        0
  0
ACAD_PROXY_OBJECT
  5
AB5D
330
AB37
100
AcDbProxyObject
 90
      499
 91
      509
 95
       25
 70
     0
 93
      108
310
0001014210535213951654115070
330
AB37
 94
        0
  0
ACAD_PROXY_OBJECT
  5
AB5E
330
AB37
100
AcDbProxyObject
 90
      499
 91
      509
 95
       25
 70
     0
 93
      108
310
000101421053521395925155D0F0
330
AB37
 94
        0
  0
ACAD_PROXY_OBJECT
  5
AB5F
330
AB37
100
AcDbProxyObject
 90
      499
 91
      509
 95
       25
 70
     0
 93
      140
310
00010143505354D150D51253D390D3D41660
330
AB37
 94
        0
  0
ACAD_PROXY_OBJECT
  5
AB60
330
AB37
100
AcDbProxyObject
 90
      499
 91
      509
 95
       25
 70
     0
 93
      108
310
00010142105350D3141493D29030
330
AB37
 94
        0
  0
ACAD_PROXY_OBJECT
  5
AB61
330
AB37
100
AcDbProxyObject
 90
      499
 91
      508
 95
       25
 70
     0
 93
      212
310
00010143905350555513D2105510D21493D500000000000002E400
330
AB37
 94
        0
  0
ACAD_PROXY_OBJECT
  5
AB62
330
AB37
100
AcDbProxyObject
 90
      499
 91
      509
 95
       25
 70
     0
 93
      156
310
00010143905350555513D2105510D21111551010
330
AB37
 94
        0
  0
ACAD_PROXY_OBJECT
  5
AB6A
330
AB37
100
AcDbProxyObject
 90
      499
 91
      570
 95
       25
 70
     0
 93
      698
310
0001000000009AA6A9AA4051E546875204D61792031372030373A32303A343820323030372028555443290141CE4B8C8B8C0B8C805184D6F6E205365702032302031303A33333A333420323031300141CE4B8C8B8C0B8C80
330
AB37
330
AB6B
330
AB6C
330
AB6E
330
0
 94
        0
  0
ACAD_PROXY_OBJECT
  5
AB6B
330
AB37
100
AcDbProxyObject
 90
      499
 91
      571
 95
       25
 70
     0
 93
       70
310
0001AAA80820000000
330
AB37
330
AB6B
330
AB6B
 94
        0
  0
ACAD_PROXY_OBJECT
  5
AB6C
330
AB37
100
AcDbProxyObject
 90
      499
 91
      572
 95
       25
 70
     0
 93
       48
310
000100000000
330
AB37
330
0
330
AB6D
330
0
330
0
 94
        0
  0
ACAD_PROXY_OBJECT
  5
AB6D
330
AB37
100
AcDbProxyObject
 90
      499
 91
      573
 95
       25
 70
     0
 93
       40
310
000100AAAA
330
AB37
330
0
 94
        0
  0
ACAD_PROXY_OBJECT
  5
AB73
330
AB37
100
AcDbProxyObject
 90
      499
 91
      522
 95
       25
 70
     0
 93
      180
310
00010143105050D3D35411119390535140504434F4D500
330
AB37
 94
        0
  0
ACAD_PROXY_OBJECT
  5
AB74
330
AB37
100
AcDbProxyObject
 90
      499
 91
      522
 95
       25
 70
     0
 93
      212
310
0001014390505193D311115491119390535140506466F6C6465720
330
AB37
 94
        0
  0
ACAD_PROXY_OBJECT
  5
AB75
330
AB37
100
AcDbProxyObject
 90
      499
 91
      522
 95
       25
 70
     0
 93
      180
310
00010143105050539393D1119390535140504284156290
330
AB37
 94
        0
  0
ACAD_PROXY_OBJECT
  5
AB76
330
AB37
100
AcDbProxyObject
 90
      499
 91
      522
 95
       25
 70
     0
 93
      436
310
00010143905050D3D35415925155D31254D50052295BD96CA0A90B396CA0A894591A496CA0A8DB691A496CA0A89BA96CA0A95E28F95310
330
AB37
 94
        0
  0
ACAD_PROXY_OBJECT
  5
AB7B
330
AB37
100
AcDbProxyObject
 90
      499
 91
      578
 95
       25
 70
     0
 93
       32
310
00010000
330
AB37
340
AB78
330
AB7D
330
AB78
 94
        0
  0
ACAD_PROXY_OBJECT
  5
AB7C
330
AB37
100
AcDbProxyObject
 90
      499
 91
      579
 95
       25
 70
     0
 93
       18
310
000180
330
AB37
 94
        0
  0
ACAD_PROXY_OBJECT
  5
AB7D
330
AB37
100
AcDbProxyObject
 90
      499
 91
      580
 95
       25
 70
     0
 93
      202
310
00010143920D8CD04B55D20B50CCCC8B4E0DD050055401550000
330
AB37
330
AB7B
330
AB7C
 94
        0
  0
ACAD_PROXY_OBJECT
  5
AB7E
330
AB37
100
AcDbProxyObject
 90
      499
 91
      581
 95
       25
 70
     0
 93
      178
310
000100AAAAAABFA9845330C4D912A9C5A3C59C62A1B480
330
AB37
330
AB7D
 94
        0
  0
ACAD_PROXY_OBJECT
  5
AB7F
330
AB37
100
AcDbProxyObject
 90
      499
 91
      582
 95
       25
 70
     0
 93
      108
310
000190140A000000000000AAAAA0
330
AB37
330
AB80
330
AB80
330
AB80
330
AB80
330
AB80
330
0
 94
        0
  0
ACAD_PROXY_OBJECT
  5
AB80
330
AB37
100
AcDbProxyObject
 90
      499
 91
      583
 95
       25
 70
     0
 93
       51
310
00010000AAAA80
330
AB37
330
AB7F
330
AB7D
 94
        0
  0
ACAD_PROXY_OBJECT
  5
ABDF
330
AB37
100
AcDbProxyObject
 90
      499
 91
      522
 95
       25
 70
     0
 93
      140
310
00010142105350D55494D511005034A49530
330
AB37
 94
        0
  0
DICTIONARY
  5
40
102
{ACAD_REACTORS
330
3F
102
}
330
3F
100
AcDbDictionary
281
     1
  3
DWGSETTINGS
350
AB32
  3
TRANSSETTINGS
350
AB35
  0
ACAD_PROXY_OBJECT
  5
AB33
102
{ACAD_REACTORS
330
3F
102
}
330
3F
100
AcDbProxyObject
 90
      499
 91
      519
 95
       25
 70
     0
 93
    17944
310
41501491013041105357CC201C00030C0132441013141105357CC603800030C0132441013241105357CCA01400030C0132441013341105357CCE01800030C01199013441105357CD200C00030C01199013541105357CD600C00030C01199013641105357CDA00800030C01239013741105357CDE01000030C0119901384110
310
5357CE200400030C01199013941105357CE63F400030C0241102324141505357CC4C201C00030C0132902344141505357CC4C600C00030C0119902495041505357CC4CA01C00030C013240902304E41505357CC13A01C00030C0132902314E41505357CC53A03800030C0132902324E41505357CC93A01400030C013290233
310
4E41505357CCD3A01800030C0119902344E41505357CD13A00C00030C0119902354E41505357CD53A00C00030C0119902364E41505357CD93A00800030C0123902374E41505357CDD3A01000030C0119902384E41505357CE13A00400030C0119902394E41505357CE53A3F400030C024110332414E41905357CC4C13A01C0
310
0030C013290334414E41905357CC4C53A00C00030C011990349504E41905357CC4C93A01C00030C0132409044B4C494E41505357D0D3200400030C011942504494E464F42105357D410549151A01000030C011942D055241484D3541905357D093D4A01C00030C0132425045649455742105357D5925155D4E00400030C011
310
942D06424548494E4441905357D25395A3F400030C0243505545241494C41505357D514A00C00030C01194250348494441905357D21251201C00030C01194250356495341905357D59254E01C00030C01324250650415244494D42505357D41054911253600C00030C01194250652454644494D42505357D49151911253601
310
000030C0119425534110921395901398000000C0003FFFFFFFE415092139594D06424548494E448000000C0003FFFFFFFE411093D48C9055241484D358010000C300466411093D48CD055241484D358020000C30048E411093D48D5055241484D358000000C0003FFFFFFFE4110D0530C901348000000C0003FFFFFFFE4110
310
D0530CD01348020000C30048E4110D0530D501348070000C3004CA4110D0530DD013481E0000C30051A4110D15393901378000000C0003FFFFFFFE4110D15395D01378000000C0003FFFFFFFE4110D312539044B4C494E8000000C0003FFFFFFFE4110D3D38C501308000000C0003FFFFFFFD034110D3D38C901318000000C
310
0003FFFFFFFD034110D3D38CD01328000000C0003FFFFFFFD034110D3D38D101328000000C0003FFFFFFFD034111115510501348000000C0003FFFFFFFE4111125051D01358000000C0003FFFFFFFE4111125312501358000000C0003FFFFFFFE411112535410650415244494D8000000C0003FFFFFFFE4111125354906524
310
54644494D8000000C0003FFFFFFFE4111915353901388000000C0003FFFFFFFE415191535413901388030000C3003FFFFFFFE4151915354D410234418000000C0003FFFFFFFE4151915354D510234418030000C300466415191535593901328000000C0003FFFFFFFE415191535595101328030000C3004664112105510D01
310
388000000C0003FFFFFFFD014112125113901338000000C0003FFFFFFFD034112125115D01338000000C0003FFFFFFFD034112131253901348000000C0003FFFFFFFD01411213D0D3901378000000C0003FFFFFFFE411213D0D5D01378000000C0003FFFFFFFE4112539193D04494E464F8000000C0003FFFFFFFE41131150
310
51101358000000C0003FFFFFFFE419397D0921395902394E8000000C0003FFFFFFFE419397D0D3D38C502304E8000000C0003FFFFFFFD03419397D0D3D38C902314E8000000C0003FFFFFFFD03419397D0D3D38CD02324E8000000C0003FFFFFFFD03419397D0D3D38D102324E8000000C0003FFFFFFFD03419397D0D15393
310
902374E8000000C0003FFFFFFFE419397D0D15395D02374E8000000C0003FFFFFFFE419397D1125312502354E8000000C0003FFFFFFFE419397D2105510D02384E8000000C0003FFFFFFFD01419397D2125113902334E8000000C0003FFFFFFFD03419397D2125115D02334E8000000C0003FFFFFFFD03419397D311505110
310
2354E8000000C0003FFFFFFFE419397D391D25410349504E8000000C0003FFFFFFFE419397D412105390334414E8000000C0003FFFFFFFE419397D510D3D3902304E8000000C0003FFFFFFFD03419397D5121312502344E8000000C0003FFFFFFFD01419397D5131153902304E8000000C0003FFFFFFFD03419397D5941312
310
50332414E8000000C0003FFFFFFFE411391D25410249508000000C0003FFFFFFFE411410530C9055241484D358010000C300466411410530CD055241484D358020000C30048E411410530D5055241484D358000000C0003FFFFFFFE411412105390234418000000C0003FFFFFFFE411413D4D3901358000000C0003FFFFFFF
310
E411490D1D3901378000000C0003FFFFFFFE411490D1D5D01378000000C0003FFFFFFFE4114D09492D01348000000C0003FFFFFFFD014114D150D5101348000000C0003FFFFFFFD014114D6508CD01358020000C30048E411354D653501358020000C30048E411510D3D3901308000000C0003FFFFFFFD0341151213125013
310
48000000C0003FFFFFFFD01411512550C9055241484D358010000C300466411512550CD055241484D358020000C30048E411512550D5055241484D358000000C0003FFFFFFFE4115131153901308000000C0003FFFFFFFD03415514905253105545241494C8000000C0003FFFFFFFE4115149312501348000000C0003FFFFF
310
FFD01411516150C501368030000C300466411516150C901368030000C300466411516150CD01368000000C0003FFFFFFFE411516150D501368070000C3004CA411516150DD013681E0000C30051A4115925155D04564945578000000C0003FFFFFFFE41159151121034849448000000C0003FFFFFFFD024115915115903564
310
9538000000C0003FFFFFFFD02411594131250232418000000C0003FFFFFFFE4116925690501348000000C0003FFFFFFFD01AAA00000030401013F90A405194092340D1941119415324191941D3243932479467F6
340
16
340
16
340
16
340
43
340
16
340
16
340
16
340
44
340
16
340
16
340
44
340
45
340
16
340
16
340
16
340
16
340
43
340
16
340
16
340
16
340
44
340
16
340
16
340
44
340
45
340
16
340
46
340
16
340
16
340
16
340
16
340
16
340
43
340
16
340
16
340
16
340
15
340
15
340
15
340
15
340
15
340
15
340
15
340
15
340
15
340
48
340
15
340
15
340
15
340
15
340
15
340
15
340
15
340
15
340
15
340
15
340
15
340
15
340
15
340
16
340
15
340
15
340
15
340
15
340
47
340
15
340
15
340
48
340
15
340
15
340
15
340
15
340
15
340
15
340
15
340
15
340
48
340
15
340
15
340
15
340
47
340
15
340
15
340
15
340
15
340
15
340
15
340
15
340
15
340
15
340
15
340
15
340
15
340
15
340
15
340
48
340
15
340
15
340
15
340
15
340
15
340
15
340
15
340
15
340
15
340
15
340
15
340
15
340
15
340
15
340
15
340
15
340
15
340
15
340
15
340
15
340
15
340
15
340
4B
 94
        0
  0
XRECORD
  5
1CA0
102
{ACAD_REACTORS
330
1C9F
102
}
330
1C9F
100
AcDbXrecord
280
     1
  1
21000845__00___
  0

  0
XRECORD
  5
1CA2
102
{ACAD_REACTORS
330
1CA1
102
}
330
1CA1
100
AcDbXrecord
280
     1
  1
3
  0

  0
LAYER_INDEX
  5
AE17
102
{ACAD_REACTORS
330
AE16
102
}
330
AE16
100
AcDbIndex
 40
2455460.064985081
100
AcDbLayerIndex
  8
0
360
AE18
 90
        1
  8
AM_5
360
AE19
 90
        5
  8
Defpoints
360
AE1A
 90
        0
  8
AM_0
360
AE1B
 90
      208
  8
AM_7
360
AE1C
 90
        8
  8
AM_11
360
AE1F
 90
        6
  0
ACAD_PROXY_OBJECT
  5
AB8A
102
{ACAD_REACTORS
330
17E
102
}
330
17E
100
AcDbProxyObject
 90
      499
 91
      589
 95
       25
 70
     0
 93
     2497
310
5DC0000000000000C408000000C00040D254D3D01640600800030C0200800030C000000000000000C40C88A2085A0B6B23A22B233B2A9BA3220480A1C82C6DAA6EAE4CCA8CAF0E8A6E8C88120284A0B1B6A321A329BA3220480A1A82C6DAAECAD8C8D2DCCEA6E8C8812028420B1B6A4B229BA3220480A1682C6DA88C2E8EAD
310
AA6E8C88120284A0B1B6A127A6A9BA3220480A2082DAC8E888CAE8C2D2D8A6F2DAA6E8C88120288A0B6B23A29B2B1BA34B7B729BCB6A9BA3220480A2282DAC8E886CADCE8CAE498D2DCCAA6E8C88120285A0B6B23A2737BA32A9BA3220480A1682C682DACE98C2F2A6E8C88120285A0B1A0B6B3A234B6A9BA3220480A2282C
310
682DACE90DED8CA86D0C2E4E8A6E8C88120286A0B1A0B6B3AA34BA3632A9BA3220480A2282DAC8E8A8D0E4CAC2C898D2DCCAA6E8C8812032048080
340
AB8B
360
AB8C
360
AB8D
360
AB8E
360
AB90
360
AB92
360
AB93
360
AB96
360
AB97
360
AB98
360
AB9A
360
AB9B
360
ABA0
360
ABA9
360
ABB5
360
ABB6
360
ABB7
340
0
340
0
 94
        0
  0
ACAD_PROXY_OBJECT
  5
ABB8
102
{ACAD_REACTORS
330
17E
102
}
330
17E
100
AcDbProxyObject
 90
      499
 91
      526
 95
       25
 70
     0
 93
     2387
310
5DC33333333333309408030000C30040D29254D01640600800030C0200800030C003333333333330940C8121E8720B1B6A9BAB9332A32BC3A29BA3220480A1282C6DA8C868CA6E8C88120286A0B1B6ABB2B63234B733A9BA3220480A1082C6DA92C8A6E8C88120285A0B1B6A230BA3AB6A9BA3220480A1282C6DA849E9AA6E
310
8C8812028820B6B23A2232BA30B4B629BCB6A9BA3220480A2282DAC8E8A6CAC6E8D2DEDCA6F2DAA6E8C88120288A0B6B23A21B2B73A32B92634B732A9BA3220480A2282DAC8E8A8D0E4CAC2C898D2DCCAA6E8C88120285A0B6B23A2737BA32A9BA3220480A1682C682DACE98C2F2A6E8C88120285A0B1A0B6B3A234B6A9BA3
310
220480A2282C682DACE90DED8CA86D0C2E4E8A6E8C88120286A0B1A0B6B3AA34BA3632A9BA3220480A02812020
340
180
360
ABBA
360
ABBB
360
ABBD
360
ABBF
360
ABC0
360
ABC3
360
ABC4
360
ABC5
360
ABC6
360
ABC7
360
ABC8
360
ABCE
360
ABCF
360
ABDD
360
ABDE
340
0
340
0
 94
        0
  0
ACAD_PROXY_OBJECT
  5
AB32
102
{ACAD_REACTORS
330
40
102
}
330
40
100
AcDbProxyObject
 90
      499
 91
      518
 95
       25
 70
     0
 93
     2420
310
4050B44574753455454494E4753A1286829C8E82A4A482B282A106660F8686AF86C608321A2A720A723A0A849A1ABE1C983E18999AA0C868A9C889282940000000000000488083A1A2A72224A0A9A0A8418983E19183E199820E868A9C8892A6A894000000000000010808321A2A72622A7250000000000000122020C868A9
310
C9E8C8C940000000000000488084A1A624A720A92920ACA0A8418983E19183E19982108698929C8AA8B2A082A0AB098929C8A84A22BA3AAA9A1A0A622A50A0E9882A6A89E849482A086E6870628426A0A5A2AB24A2ABA7E8120CA0A68682988A0C00800010652455649534941501304154D0D0531150540CC4E8C50954494D
310
455354414D504A0F32AA781732B734141D5915494D253D3905414C4D4B8C0C1107B44574753455454494E4753454E447D0
  0
ACAD_PROXY_OBJECT
  5
AB35
102
{ACAD_REACTORS
330
40
102
}
330
40
100
AcDbProxyObject
 90
      499
 91
      518
 95
       25
 70
     0
 93
      852
310
4050D5452414E5353455454494E4753A2488A482AE929C8EA8A4829CA69882A8929E9C0C00800050D4F524947494E414C4C595F4F4E0600400028529A7AAA921A2A620A723A0A81A52827212AAA0A48AA68AA4AC8A0C0080001107B44574753455454494E4753454E447D0
  0
IDBUFFER
  5
AE18
330
AE17
100
AcDbIdBuffer
330
7481
  0
IDBUFFER
  5
AE19
330
AE17
100
AcDbIdBuffer
330
682B
330
682C
330
7A0E
330
81E7
330
9FE5
  0
IDBUFFER
  5
AE1A
330
AE17
100
AcDbIdBuffer
  0
IDBUFFER
  5
AE1B
330
AE17
100
AcDbIdBuffer
330
676A
330
6771
330
6775
330
67B3
330
67E6
330
67EA
330
67EE
330
67F2
330
67F3
330
67F4
330
67F5
330
67F6
330
681C
330
681D
330
681E
330
681F
330
6828
330
6829
330
682A
330
682D
330
682E
330
682F
330
6830
330
6851
330
6852
330
6853
330
6854
330
6855
330
6856
330
6857
330
6858
330
6859
330
685A
330
685B
330
685C
330
685D
330
685E
330
685F
330
6860
330
686C
330
686D
330
689A
330
689B
330
689C
330
68AB
330
68AC
330
68AD
330
696A
330
696B
330
696C
330
696E
330
696F
330
6970
330
6975
330
6976
330
6977
330
6978
330
6979
330
697A
330
6992
330
6993
330
6994
330
6995
330
6996
330
6997
330
699C
330
699D
330
699E
330
699F
330
69A0
330
69A1
330
69A2
330
69A3
330
69A4
330
69A5
330
69A6
330
69A7
330
69A8
330
69A9
330
69AA
330
69AB
330
69AC
330
69AD
330
69AE
330
69AF
330
69B0
330
69B2
330
69B3
330
69B8
330
69B9
330
69BB
330
69BD
330
69BE
330
69BF
330
69C4
330
69CD
330
69CE
330
69CF
330
69D0
330
69D1
330
69D2
330
69D3
330
69D4
330
69D5
330
69D6
330
69D7
330
69D8
330
69D9
330
6A4A
330
6A4B
330
6A4C
330
6A4D
330
6A4E
330
6A4F
330
6A50
330
6A51
330
6A52
330
6A53
330
6A54
330
6A55
330
6A65
330
6A66
330
6A67
330
6A68
330
6A69
330
6A6A
330
6A6B
330
6A6C
330
6A6D
330
6A6F
330
6A71
330
6A72
330
6A73
330
6A74
330
6A77
330
6A78
330
6A79
330
6A7A
330
6A7B
330
6A7C
330
6A7D
330
6A7E
330
6A7F
330
6A80
330
6A81
330
6A82
330
6A83
330
6A84
330
6A85
330
6A86
330
6A87
330
6A88
330
6A89
330
6A8A
330
6A8B
330
6A8C
330
6A8D
330
6A92
330
6A93
330
6A94
330
6A95
330
6A96
330
6A97
330
6A98
330
6A99
330
6A9A
330
6A9B
330
6A9C
330
6A9D
330
6A9E
330
6AA6
330
6AA7
330
6AAA
330
6AAB
330
6AAD
330
6AAF
330
6AB0
330
6AB1
330
6AB2
330
6AB4
330
6AB5
330
6AB6
330
6AB7
330
6AB9
330
6ABA
330
6ABB
330
6ABC
330
6ABD
330
6ABE
330
6ABF
330
6AC0
330
6AC1
330
6AC2
330
6AC3
330
6AC4
330
6AC5
330
6AC6
330
80F7
330
80F9
330
80FB
330
80FD
330
817C
330
8187
330
8189
330
A7EC
330
A6EF
330
A051
330
A5A7
  0
IDBUFFER
  5
AE1C
330
AE17
100
AcDbIdBuffer
330
6E64
330
6E65
330
6E66
330
6E67
330
A7EE
330
A6FC
330
9CBA
330
A6B3
  0
IDBUFFER
  5
AE1F
330
AE17
100
AcDbIdBuffer
330
69BA
330
69BC
330
69CB
330
816F
330
8170
330
817B
  0
ACAD_PROXY_OBJECT
  5
AB8C
330
AB8A
100
AcDbProxyObject
 90
      499
 91
      590
 95
       25
 70
     0
 93
       13
310
5DD0
  0
ACAD_PROXY_OBJECT
  5
AB8D
330
AB8A
100
AcDbProxyObject
 90
      499
 91
      591
 95
       25
 70
     0
 93
       96
310
5DEA0E80A0280A0280A0280F
  0
ACAD_PROXY_OBJECT
  5
AB8E
330
AB8A
100
AcDbProxyObject
 90
      499
 91
      592
 95
       25
 70
     0
 93
      272
310
5DD0E4050140501405014050140501405014050140D01405012C0000000000000040
340
AB8F
 94
        0
  0
ACAD_PROXY_OBJECT
  5
AB90
330
AB8A
100
AcDbProxyObject
 90
      499
 91
      593
 95
       25
 70
     0
 93
      497
310
5DE8666666666667A67E199999999999E99FD22405014050140501405014050140501405014050140501405014050140501405014050140501405014050100
340
AB91
 94
        0
  0
ACAD_PROXY_OBJECT
  5
AB92
330
AB8A
100
AcDbProxyObject
 90
      499
 91
      594
 95
       25
 70
     0
 93
       10
310
5DC0
  0
ACAD_PROXY_OBJECT
  5
AB93
330
AB8A
100
AcDbProxyObject
 90
      499
 91
      595
 95
       25
 70
     0
 93
      257
310
5DE290EA22A7D90F49F80000000000001081400000000000004204010000618000
340
AB94
340
AB95
 94
        0
  0
ACAD_PROXY_OBJECT
  5
AB96
330
AB8A
100
AcDbProxyObject
 90
      499
 91
      596
 95
       25
 70
     0
 93
    13453
310
5DD0E411255115350141236025B690140501406901000000000000091013347454E545241434F2C4A504E2C302C8D8096DA2C47454E54524154582C25732C2847454E4D53472067656E647767203232322940690120281A8AA2CA0282484A4BE52028120280A0320200000000000012202668E8A9CA8A482869E5894A09C58
310
605921292F94588E8A9CA8A482A8B0584AE658508E8A9C9AA68E40CECADCC8EECE406464665280D202405044E414D454050496BC914F4051C40640A80000000000004E404CD1D15395149050D3CB1294138B0C0B25AF2453CB11D15395149055160B095CCB0A11D1539354D1C819D95B991DD9C80C8C8D8A50192C3D494628
310
4953424C414E4B28504152543A4E414D45292C424C4F434B3A4E414D452C504152543A4E414D452940480A0A888AA686A480A09251B1DBE80A3A80C81D0000000000100A28099A3A2A72A2920A1A7962528271618164946C76F9623A2A72A2920AA2C1612B9961423A2A726A9A39033B2B7323BB39019189B94A0348090142
310
14D51053911054911014122D2E29A50147501904A000000000000125013347454E545241434F2C4A504E2C302C8B4B8A692C47454E54524154582C25732C2847454E4D53472067656E64776720323138294069012028426A0AA22A924A0A62028246EF4BDFA028EA0320B40000000000001CA02668E8A9CA8A482869E5894A
310
09C5860591BBD2F7E588E8A9CA8A482A8B0584AE658508E8A9C9AA68E40CECADCC8EECE406464625280D202405044E4F544540504928D8B4C4051D40641A80000000000003E404CD1D15395149050D3CB1294138B0C0B24A362D30B11D15395149055160B095CCB0A11D1539354D1C819D95B991DD9C80C8C8D4A501240480
310
A0CAC8A9C889EA480A1106F1072706BF02B680A3A80C83D00000000000007C809BA3A2A72A2920A1A79625282716181641BC41C9C1AFC0AD9623A2A72A2920AA2C1612B9961423A2A726A9A39033B2B7323BB39019191A14A0248090141911154D0D48C90141A43825AF880C90147501908A000000000020145013447454E5
310
45241434F2C4A504E2C302C90E096BE20322C47454E54524154582C25732C2847454E4D53472067656E6477672033362940490120284A9AA20A72220A922192028345A5C53490192028EA03213400000000000024A026A8E8A9CA8A482869E5894A09C586059169714D24064588E8A9CA8A482A8B0584AE658508E8A9C9AA6
310
8E40CECADCC8EECE4064646052809202405094D4154455249414C32405068DDE97BF20324051D40642A8713D0AD7A37045404D11D15395149050D3CB1294138B0C0B2377A5EFC80C8B11D15395149055160B095CCB0A11D1539354D1C819D95B991DD9C80D0C0A501240480A089A82A6A680A091D7F2F9480A3A80A0485A06
310
8100000000000007C809923A2A72A2920A1A796252827161816475FCBE51623A2A72A2920AA2C1612B9961423A2A726A9A39033B2B7323BB3901A1914A024809014154149250D150141226FE29A501475014090C409020000000000000F9013247454E545241434F2C4A504E2C302C89BF8A692C47454E54524154582C2573
310
2C2847454E4D53472067656E6477672034332940490120281A224A6A02824850CB202028EA028121A81A040000000000001F202648E8A9CA8A482869E5894A09C58605921432C80588E8A9CA8A482A8B0584AE658508E8A9C9AA68E40CECADCC8EECE406868528092024050E445020000000000000510201C00030C0001018
310
0000000000003E400000000000000F901073D3C4954454D3E4050180000000000003E400000000000000F901073D3C4954454D3E40501800000000000034400000000000000D101073D3C4954454D3E40501800000000000034400000000000000D101073D3C4954454D3E405029010000000000000F9000000000000003E4
310
041CF4F125511534F901418F4F1455164F9014060000000000000F9000000000000003E4041CF4F125511534F9014060000000000000D100000000000000344041CF4F125511534F901901000000000000000F9000000000000003E40A2200000000000008204018000618048220681A048120280A0D2B292AD32AB8882148
310
421F04D904E44104DF06A706AD06C5069C8820321F04D904E44104DF06A706AD06C5069C8520321F04D904E44104DF06A706AD06C5069C8452028521485214814000000000000F0BF0000000000003C2FD018020000C3008070000C3003373333333333B0FCCDCCCCCCCCCCEC3F00000000000003101203416405034110590
310
1A000000000000062040100006180401000061804008000618008098A02808
340
0
340
0
 94
        0
  0
ACAD_PROXY_OBJECT
  5
AB97
330
AB8A
100
AcDbProxyObject
 90
      499
 91
      597
 95
       25
 70
     0
 93
      898
310
5DC4000000000000144048CF4F11115510525317D3105091530F880A0F11115510525317D05094D4D0D053114F8A51141C9A9999999999B93F26A666666666724FC000000000000E03F400000000000000400000000000000510000000000000024408070000C300000000000000051000
340
16
340
AB8B
 94
        0
  0
ACAD_PROXY_OBJECT
  5
AB98
330
AB8A
100
AcDbProxyObject
 90
      499
 91
      598
 95
       25
 70
     0
 93
      823
310
5DC0B00000000000002880959E9E29A2A1AA24A7A72FA620A122A62FA324A929AA1F169E29A2A1AA24A7A72FA620A122A62FA620A9AA1F000000000000048803FFFE01C00030C0088C0380006180000000000000048800000000000000A2000000000000002880
340
652
340
AB8B
 94
        0
  0
ACAD_PROXY_OBJECT
  5
AB9A
330
AB8A
100
AcDbProxyObject
 90
      499
 91
      599
 95
       25
 70
     0
 93
      152
310
5DE80000000000000840A3D0A5723F0BD1F200
  0
ACAD_PROXY_OBJECT
  5
AB9B
330
AB8A
100
AcDbProxyObject
 90
      499
 91
      600
 95
       25
 70
     0
 93
     5143
310
5DD084050BA4050AA405024050A54656D706C6174652031405BE3D2525633C486F6C653A63746469613E2078203C486F6C653A637464657074683E20555C503C696628657175616C28486F6C653A7461707065642C223022292C222525632220486F6C653A6469612C20486F6C653A6E6F6D696E616C20222078202220486F
310
6C653A70697463686465736320222078202220486F6C653A7461706465707468293E203C696628657175616C28486F6C653A7465726D696E6174696F6E2C223022292C22202F202220486F6C653A64657074682C222022293E406901405034050A54656D706C6174652031405BF3D2525633C486F6C653A63746469613E207
310
8203C486F6C653A6374616E676C653E2525645C503C696628657175616C28486F6C653A7461707065642C223022292C222525632220486F6C653A6469612C20486F6C653A6E6F6D696E616C20222078202220486F6C653A70697463686465736320222078202220486F6C653A7461706465707468293E203C6966286571756
310
16C28486F6C653A7465726D696E6174696F6E2C223022292C22202F202220486F6C653A64657074682C222022293E406901405014050A54656D706C61746520314059A3D3C696628657175616C28486F6C653A7461707065642C223022292C222525632220486F6C653A6469612C20486F6C653A6E6F6D696E616C20222078
310
202220486F6C653A70697463686465736320222078202220486F6C653A7461706465707468293E203C696628657175616C28486F6C653A7465726D696E6174696F6E2C223022292C22202F202220486F6C653A64657074682C222022293E4069014051E4050A54656D706C61746520314050C3D3C535444503A444553433E4
310
0690140515AAAB5C
360
AB9C
330
AB9C
360
AB9D
330
AB9D
360
AB9E
330
AB9E
360
AB9F
330
AB9F
 94
        0
  0
ACAD_PROXY_OBJECT
  5
ABA0
330
AB8A
100
AcDbProxyObject
 90
      499
 91
      542
 95
       25
 70
     0
 93
    17870
310
5DD02491013041105357CC201C00030C0132441013141105357CC603800030C0132441013241105357CCA01400030C0132441013341105357CCE01800030C01199013441105357CD200C00030C01199013541105357CD600C00030C01199013641105357CDA00800030C01239013741105357CDE01000030C0119901384110
310
5357CE200400030C01199013941105357CE63F400030C0241102324141505357CC4C201C00030C0132902344141505357CC4C600C00030C0119902495041505357CC4CA01C00030C013240902304E41505357CC13A01C00030C0132902314E41505357CC53A03800030C0132902324E41505357CC93A01400030C013290233
310
4E41505357CCD3A01800030C0119902344E41505357CD13A00C00030C0119902354E41505357CD53A00C00030C0119902364E41505357CD93A00800030C0123902374E41505357CDD3A01000030C0119902384E41505357CE13A00400030C0119902394E41505357CE53A3F400030C024110332414E41905357CC4C13A01C0
310
0030C013290334414E41905357CC4C53A00C00030C011990349504E41905357CC4C93A01C00030C0132409044B4C494E41505357D0D3200400030C011942504494E464F42105357D410549151A01000030C011942D055241484D3541905357D093D4A01C00030C0132425045649455742105357D5925155D4E00400030C011
310
942D06424548494E4441905357D25395A3F400030C0243505545241494C41505357D514A00C00030C01194250348494441905357D21251201C00030C01194250356495341905357D59254E01C00030C01324250650415244494D42505357D41054911253600C00030C01194250652454644494D42505357D49151911253601
310
000030C0119425534110921395901398000000C0003FFFFFFFE415092139594D06424548494E448000000C0003FFFFFFFE411093D48C9055241484D358010000C300466411093D48CD055241484D358020000C30048E411093D48D5055241484D358000000C0003FFFFFFFE4110D0530C901348000000C0003FFFFFFFE4110
310
D0530CD01348020000C30048E4110D0530D501348070000C3004CA4110D0530DD013481E0000C30051A4110D15393901378000000C0003FFFFFFFE4110D15395D01378000000C0003FFFFFFFE4110D312539044B4C494E8000000C0003FFFFFFFE4110D3D38C501308000000C0003FFFFFFFD034110D3D38C901318000000C
310
0003FFFFFFFD034110D3D38CD01328000000C0003FFFFFFFD034110D3D38D101328000000C0003FFFFFFFD034111115510501348000000C0003FFFFFFFE4111125051D01358000000C0003FFFFFFFE4111125312501358000000C0003FFFFFFFE411112535410650415244494D8000000C0003FFFFFFFE4111125354906524
310
54644494D8000000C0003FFFFFFFE4111915353901388000000C0003FFFFFFFE415191535413901388030000C3003FFFFFFFE4151915354D410234418000000C0003FFFFFFFE4151915354D510234418030000C300466415191535593901328000000C0003FFFFFFFE415191535595101328030000C3004664112105510D01
310
388000000C0003FFFFFFFD014112125113901338000000C0003FFFFFFFD034112125115D01338000000C0003FFFFFFFD034112131253901348000000C0003FFFFFFFD01411213D0D3901378000000C0003FFFFFFFE411213D0D5D01378000000C0003FFFFFFFE4112539193D04494E464F8000000C0003FFFFFFFE41131150
310
51101358000000C0003FFFFFFFE419397D0921395902394E8000000C0003FFFFFFFE419397D0D3D38C502304E8000000C0003FFFFFFFD03419397D0D3D38C902314E8000000C0003FFFFFFFD03419397D0D3D38CD02324E8000000C0003FFFFFFFD03419397D0D3D38D102324E8000000C0003FFFFFFFD03419397D0D15393
310
902374E8000000C0003FFFFFFFE419397D0D15395D02374E8000000C0003FFFFFFFE419397D1125312502354E8000000C0003FFFFFFFE419397D2105510D02384E8000000C0003FFFFFFFD01419397D2125113902334E8000000C0003FFFFFFFD03419397D2125115D02334E8000000C0003FFFFFFFD03419397D311505110
310
2354E8000000C0003FFFFFFFE419397D391D25410349504E8000000C0003FFFFFFFE419397D412105390334414E8000000C0003FFFFFFFE419397D510D3D3902304E8000000C0003FFFFFFFD03419397D5121312502344E8000000C0003FFFFFFFD01419397D5131153902304E8000000C0003FFFFFFFD03419397D5941312
310
50332414E8000000C0003FFFFFFFE411391D25410249508000000C0003FFFFFFFE411410530C9055241484D358010000C300466411410530CD055241484D358020000C30048E411410530D5055241484D358000000C0003FFFFFFFE411412105390234418000000C0003FFFFFFFE411413D4D3901358000000C0003FFFFFFF
310
E411490D1D3901378000000C0003FFFFFFFE411490D1D5D01378000000C0003FFFFFFFE4114D09492D01348000000C0003FFFFFFFD014114D150D5101348000000C0003FFFFFFFD014114D6508CD01358020000C30048E411354D653501358020000C30048E411510D3D3901308000000C0003FFFFFFFD0341151213125013
310
48000000C0003FFFFFFFD01411512550C9055241484D358010000C300466411512550CD055241484D358020000C30048E411512550D5055241484D358000000C0003FFFFFFFE4115131153901308000000C0003FFFFFFFD03415514905253105545241494C8000000C0003FFFFFFFE4115149312501348000000C0003FFFFF
310
FFD01411516150C501368030000C300466411516150C901368030000C300466411516150CD01368000000C0003FFFFFFFE411516150D501368070000C3004CA411516150DD013681E0000C30051A4115925155D04564945578000000C0003FFFFFFFE41159151121034849448000000C0003FFFFFFFD024115915115903564
310
9538000000C0003FFFFFFFD02411594131250232418000000C0003FFFFFFFE4116925690501348000000C0003FFFFFFFD01429014650248D0346504465054C906465074C90E4C91E519FD8
340
AB33
340
16
340
16
340
16
340
43
340
16
340
16
340
16
340
44
340
16
340
16
340
44
340
45
340
16
340
16
340
16
340
16
340
43
340
16
340
16
340
16
340
44
340
16
340
16
340
44
340
45
340
16
340
46
340
16
340
16
340
16
340
16
340
16
340
43
340
16
340
16
340
16
340
15
340
15
340
15
340
15
340
15
340
15
340
15
340
15
340
15
340
48
340
15
340
15
340
15
340
15
340
15
340
15
340
15
340
15
340
15
340
15
340
15
340
15
340
15
340
16
340
15
340
15
340
15
340
15
340
47
340
15
340
15
340
48
340
15
340
15
340
15
340
15
340
15
340
15
340
15
340
15
340
48
340
15
340
15
340
15
340
47
340
15
340
15
340
15
340
15
340
15
340
15
340
15
340
15
340
15
340
15
340
15
340
15
340
15
340
15
340
48
340
15
340
15
340
15
340
15
340
15
340
15
340
15
340
15
340
15
340
15
340
15
340
15
340
15
340
15
340
15
340
15
340
15
340
15
340
15
340
15
340
15
340
15
340
4B
 94
        0
  0
ACAD_PROXY_OBJECT
  5
ABA9
330
AB8A
100
AcDbProxyObject
 90
      499
 91
      543
 95
       25
 70
     0
 93
      250
310
5DD020000000000000A1000000000000002440408F0F9023C3E409A0DCFFFF80
340
ABAA
340
0
340
0
340
ABAB
340
ABAC
340
ABAD
340
ABAE
340
ABAF
340
ABB0
340
0
 94
        0
  0
ACAD_PROXY_OBJECT
  5
ABB5
330
AB8A
100
AcDbProxyObject
 90
      499
 91
      602
 95
       25
 70
     0
 93
    14055
310
5DD1D023FFFFFFFD030300030CCCCCCCCCCCC250200800030C01030300030000000000000310200800030C0005134C697374206F6620436F6F7264696E61746573015091D15395149050D3CB1153954B0C0B131A5CDD081BD98810DBDBDC991A5B985D195CCB11D15395149055160B095CCB0A11D1539354D1C819D95B991A
310
5B5E880CCC0A78100C000000000000000000000000000000010CCCCCCCCCCCC250200800030C010CCCCCCCCCCCC250200800030C020143CF4F111959985D5B1D151A5D1B194F8050A486F6C65205461626C65014E51D15395149050D3CB1153954B0C0B121BDB19481518589B194B11D15395149055160B095CCB0A11D1539
310
354D1C819D95B991A5B5E880CCC4A78100C000000000000000000000000000000010CCCCCCCCCCCC250200800030C010CCCCCCCCCCCC250200800030C020143CF4F111959985D5B1D151A5D1B194F90D44111409034110541D0C4350F4050E44D03449074510F000141232D24D7C053447454E545241434F2C454E552C302C
310
4F726967696E2C47454E54524154582C25732C2847454E4D53472067656E64696D7A20312900010105002214000281464500A648E8A9CA8A482869E588A9CAA58605890DED8CA588E8A9CA8A482A8B0584AE658508E8A9C9AA68E40CECADCC8D2DAF4406452029F9E9E27B934B3B4B71F1E24A31427A91424A9A12620A7259
310
427B934B3B4B7149624A9A12620A7259424B73232BC149496111116111711149F1E24B73232BC1F00808200111A000140560052F47454E545241434F2C454E552C302C582C47454E54524154582C25732C2847454E4D53472067656E64696D7A20332900010100002054000280AC80A5E8E8A9CA8A482869E588A9CAA58605
310
8B2588E8A9CA8A482A8B0584AE658508E8A9C9AA68E40CECADCC8D2DAF4406852000202000040E800050172014BD1D15395149050D3CB1153954B0C0B1C8B11D15395149055160B095CCB0A11D1539354D1C819D95B991A5B5E880D8A400040400008250000A05090C029823A2A72A2920A1A79622A72A96181642431623A2
310
A72A2920AA2C1612B9961423A2A726A9A39033B2B73234B6BD101B948000808180105A000140C94958C053147454E545241434F2C454E552C302C2525632C47454E54524154582C25732C2847454E4D53472067656E64696D7A203829000101010020F400028248704B5F00A748E8A9CA8A482869E588A9CAA58605888CAE6
310
C6E4D2E0E8D2DEDC588E8A9CA8A482A8B0584AE658508E8A9C9AA68E40CECADCC8D2DAF440646052000200080043280005048B4B8A69014DD1D15395149050D3CB1153954B0C0B14DD185B99185C990B11D15395149055160B095CCB0A11D1539354D1C819D95B991A5B5E880C8C4A4000400100086D0000A09196926BE029
310
A23A2A72A2920A1A79622A72A96181627B934B3B4B71623A2A72A2920AA2C1612B9961423A2A726A9A39033B2B73234B6BD10189480A026202020A0043E80005048D8096DA014CD1D15395149050D3CB1153954B0C0B125D195B4B11D15395149055160B095CCB0A11D1539354D1C819D95B991A5B5E880C4D0A4000404140
310
080D0000A190687072706CD06C5069D06B0029A23A2A72A2920A1A79622A72A96181624B73232BC1623A2A72A2920AA2C1612B9961423A2A726A9A39033B2B73234B6BD10189A94800080828010EA000143A322A0D0E0E4E0D9A0D8A0D3A0D60053947454E545241434F2C454E552C302C486F6C6520496E6465782C47454E
310
54524154582C25732C2847454E4D53472067656E64696D7A2031372900010105002274000281464500A668E8A9CA8A482869E588A9CAA58605890DED8CA588E8A9CA8A482A8B0584AE658508E8A9C9AA68E40CECADCC8D2DAF440626C52000202080044A8000504909497CA014C91D15395149050D3CB1153954B0C0B145D1
310
E4B11D15395149055160B095CCB0A11D1539354D1C819D95B991A5B5E880C4E4A400040418008A521E000000000000001CA040C00000000000034408080000000000006881010000000000000D102040000000000001A204080000000000003440818000000000000728103000000000000125020600000000004028A04000
310
0000000000034408000000000000004881000000000000000D102000000000000001A204000000000000003440818000000000000508143C0000000000000039408180000000000006881030000000000000D102060000000000001A2040C00000000000034408180000000000006881030000000000000E50206000000000
310
00024A040C000000000080514080000000000000068810000000000000009102000000000000001A2040000000000000034408180000000000006881030000000000000A10283A2000000087800000204000000818000002080000008280000020E00000080A24000000
340
0
340
0
340
0
340
0
340
0
340
0
 94
        0
  0
ACAD_PROXY_OBJECT
  5
ABB6
330
AB8A
100
AcDbProxyObject
 90
      499
 91
      537
 95
       25
 70
     0
 93
     1578
310
5DD9740D254D3D0649534F5F4133429254D3D7D5125513115051349534F5F42525F5265766973696F6E6C697374A411105265766973696F6E6C6973745F424C5F44D254D3D7D09317D4995D9A5CDA5BDB9B1A5CDD1105265766973696F6E6C6973745F544C5F44D254D3D7D51317D4995D9A5CDA5BDB9B1A5CDD1105265766
310
973696F6E6C6973745F42525F44D254D3D7D09497D4995D9A5CDA5BDB9B1A5CDD1105265766973696F6E6C6973745F54525F44D254D3D7D51497D4995D9A5CDA5BDB9B1A5CDD00
  0
ACAD_PROXY_OBJECT
  5
ABB7
330
AB8A
100
AcDbProxyObject
 90
      499
 91
      603
 95
       25
 70
     0
 93
       14
310
5DE0
340
0
 94
        0
  0
ACAD_PROXY_OBJECT
  5
ABBA
330
ABB8
100
AcDbProxyObject
 90
      499
 91
      527
 95
       25
 70
     0
 93
       86
310
5DEA0C80A0280A0280A034
  0
ACAD_PROXY_OBJECT
  5
ABBB
330
ABB8
100
AcDbProxyObject
 90
      499
 91
      604
 95
       25
 70
     0
 93
      282
310
5DD0E4050140501405014050140501405014050141101405014048000000000000001000
340
187
 94
        0
  0
ACAD_PROXY_OBJECT
  5
ABBD
330
ABB8
100
AcDbProxyObject
 90
      499
 91
      529
 95
       25
 70
     0
 93
      387
310
5DC8666666666667A67E6DDB36EDDB36ED9F91740501405014050140501405014050140501405014050140501405014040
340
ABBE
 94
        0
  0
ACAD_PROXY_OBJECT
  5
ABBF
330
ABB8
100
AcDbProxyObject
 90
      499
 91
      530
 95
       25
 70
     0
 93
       10
310
5DC0
  0
ACAD_PROXY_OBJECT
  5
ABC0
330
ABB8
100
AcDbProxyObject
 90
      499
 91
      531
 95
       25
 70
     0
 93
      257
310
5DE0C16A22A7D90F49F80000000000001081400000000000004204010000618000
340
188
340
189
 94
        0
  0
ACAD_PROXY_OBJECT
  5
ABC3
330
ABB8
100
AcDbProxyObject
 90
      499
 91
      532
 95
       25
 70
     0
 93
    13013
310
5DD0E411255115350141236025B690140501406901000000000000091013347454E545241434F2C4A504E2C302C8D8096DA2C47454E54524154582C25732C2847454E4D53472067656E647767203232322940690120281A8AA2CA0282484A4BE52028120280A0320200000000000012202668E8A9CA8A482869E5894A09C58
310
605921292F94588E8A9CA8A482A8B0584AE658508E8A9C9AA68E40CECADCC8EECE406464665280D202405044E414D454050496BC914F4051C40640A80000000000004E404CD1D15395149050D3CB1294138B0C0B25AF2453CB11D15395149055160B095CCB0A11D1539354D1C819D95B991DD9C80C8C8D8A50192C3D494628
310
4953424C414E4B28504152543A4E414D45292C424C4F434B3A4E414D452C504152543A4E414D452940480A0A888AA686A480A09251B1DBE80A3A80C81D0000000000100A28099A3A2A72A2920A1A7962528271618164946C76F9623A2A72A2920AA2C1612B9961423A2A726A9A39033B2B7323BB39019189B94A0348090142
310
14D51053911054911014122D2E29A50147501904A000000000000125013347454E545241434F2C4A504E2C302C8B4B8A692C47454E54524154582C25732C2847454E4D53472067656E64776720323138294069012028426A0AA22A924A0A62028246EF4BDFA028EA0320B40000000000001CA02668E8A9CA8A482869E5894A
310
09C5860591BBD2F7E588E8A9CA8A482A8B0584AE658508E8A9C9AA68E40CECADCC8EECE406464625280D202405044E4F544540504928D8B4C4051D40641A80000000000003E404CD1D15395149050D3CB1294138B0C0B24A362D30B11D15395149055160B095CCB0A11D1539354D1C819D95B991DD9C80C8C8D4A501240480
310
A0CAC8A9C889EA480A1106F1072706BF02B680A3A80C83D00000000000007C809BA3A2A72A2920A1A79625282716181641BC41C9C1AFC0AD9623A2A72A2920AA2C1612B9961423A2A726A9A39033B2B7323BB39019191A14A0248090141911154D0D48C90141A43825AF880C90147501908A000000000020145013447454E5
310
45241434F2C4A504E2C302C90E096BE20322C47454E54524154582C25732C2847454E4D53472067656E6477672033362940490120284A9AA20A72220A922192028345A5C53490192028EA03213400000000000024A026A8E8A9CA8A482869E5894A09C586059169714D24064588E8A9CA8A482A8B0584AE658508E8A9C9AA6
310
8E40CECADCC8EECE4064646052809202405094D4154455249414C32405068DDE97BF20324051D40642A8713D0AD7A37045404D11D15395149050D3CB1294138B0C0B2377A5EFC80C8B11D15395149055160B095CCB0A11D1539354D1C819D95B991DD9C80D0C0A501240480A089A82A6A680A091D7F2F9480A3A80A0485A06
310
8100000000000007C809923A2A72A2920A1A796252827161816475FCBE51623A2A72A2920AA2C1612B9961423A2A726A9A39033B2B7323BB3901A1914A024809014154149250D150141226FE29A501475014090C409020000000000000F9013247454E545241434F2C4A504E2C302C89BF8A692C47454E54524154582C2573
310
2C2847454E4D53472067656E6477672034332940490120281A224A6A02824850CB202028EA028121A81A040000000000001F202648E8A9CA8A482869E5894A09C58605921432C80588E8A9CA8A482A8B0584AE658508E8A9C9AA68E40CECADCC8EECE406868528092024050E445020000000000000490201C00030C0001018
310
0000000000003B400000000000000ED01073D3C4954454D3E4050180000000000003B400000000000000ED01073D3C4954454D3E40501800000000000032400000000000000C901073D3C4954454D3E40501800000000000032400000000000000C901073D3C4954454D3E405029010000000000000ED000000000000003B4
310
041CF4F125511534F901418F4F1455164F9014060000000000000ED000000000000003B4041CF4F125511534F9014060000000000000D100000000000000344041CF4F125511534F901901000000000000000ED000000000000003B40A2200000000000008204018000618048220681A048120280C88214844882034852034
310
8452028521485214814000000000000F0BF0000000000003C2FD018020000C3008070000C3003373333333333B0FCCDCCCCCCCCCCEC3F0CCCCCCCCCCCC25012034164050341105901A19999999999984A040100006180401000061804008000618008098A02808
340
0
340
0
 94
        0
  0
ACAD_PROXY_OBJECT
  5
ABC4
330
ABB8
100
AcDbProxyObject
 90
      499
 91
      538
 95
       25
 70
     0
 93
      898
310
5DC4000000000000124048CF4F11115510525317D3105091530F880A0F11115510525317D05094D4D0D053114F8A50241C9A9999999999B93F26A666666666724FC000000000000E03F400000000000000400000000000000510000000000000024408070000C300000000000000049000
340
16
340
180
 94
        0
  0
ACAD_PROXY_OBJECT
  5
ABC5
330
ABB8
100
AcDbProxyObject
 90
      499
 91
      539
 95
       25
 70
     0
 93
      823
310
5DC0B00000000000002480959E9E29A2A1AA24A7A72FA620A122A62FA324A929AA1F169E29A2A1AA24A7A72FA620A122A62FA620A9AA1F000000000000048803FFFE01C00030C008140380006180000000000000048800000000000000A2000000000000002480
340
44
340
180
 94
        0
  0
ACAD_PROXY_OBJECT
  5
ABC6
330
ABB8
100
AcDbProxyObject
 90
      499
 91
      540
 95
       25
 70
     0
 93
      152
310
5DE8273108AC1C5A0640A3D0A5723F0BD1F200
  0
ACAD_PROXY_OBJECT
  5
ABC7
330
ABB8
100
AcDbProxyObject
 90
      499
 91
      605
 95
       25
 70
     0
 93
       14
310
5DE0
340
0
 94
        0
  0
ACAD_PROXY_OBJECT
  5
ABC8
330
ABB8
100
AcDbProxyObject
 90
      499
 91
      541
 95
       25
 70
     0
 93
     6059
310
5DD084050BA4050AA405024050E836583938376838C815B83672031405983D3C486F6C653A6469613E3C696628657175616C28486F6C653A7465726D696E6174696F6E2C223022292C2220905B82B320222C22208368838A838B22293E3C696628657175616C28486F6C653A7465726D696E6174696F6E2C223022292C486F
310
6C653A64657074682C2222293E2C203C486F6C653A63746469613E2082B482AE82E882CC905B82B3203C486F6C653A637464657074683E406901405034050E836583938376838C815B83672031405EF3D3C486F6C653A6374616E676C653E252564202525633C486F6C653A63746469613E208E4D8C8A2C203C69662865717
310
5616C28486F6C653A7461707065642C223022292C22252563222C486F6C653A6E6F6D696E616C202220782022293E3C696628657175616C28486F6C653A7461707065642C223022292C486F6C653A6469612C486F6C653A706974636864657363293E203C696628657175616C28486F6C653A7465726D696E6174696F6E2C2
310
23022292C22905B82B320222C222022293E3C696628657175616C28486F6C653A7465726D696E6174696F6E2C223022292C486F6C653A64657074682C2222293E406901405014050E836583938376838C815B83672031405C73D3C696628657175616C28486F6C653A7461707065642C223022292C22252563222C486F6C65
310
3A6E6F6D696E616C202220782022293E3C696628657175616C28486F6C653A7461707065642C223022292C486F6C653A6469612C486F6C653A706974636864657363293E203C696628657175616C28486F6C653A7465726D696E6174696F6E2C223022292C22905B82B320222C222022293E3C696628657175616C28486F6C
310
653A7465726D696E6174696F6E2C223022292C486F6C653A64657074682C2222293E4069014051E4090E836583938376838C815B83672032405173D3C535444503A444553433E203C535444503A5354443E40690E836583938376838C815B836720314050C3D3C535444503A444553433E40690240515AAABBA120
360
ABC9
330
ABC9
360
ABCA
330
ABCA
360
ABCB
330
ABCB
360
ABCC
360
ABCD
330
ABCC
330
ABCD
 94
        0
  0
ACAD_PROXY_OBJECT
  5
ABCE
330
ABB8
100
AcDbProxyObject
 90
      499
 91
      542
 95
       25
 70
     0
 93
       26
310
5DD02A80
340
AB33
 94
        0
  0
ACAD_PROXY_OBJECT
  5
ABCF
330
ABB8
100
AcDbProxyObject
 90
      499
 91
      543
 95
       25
 70
     0
 93
      250
310
5DD020000000000000A1000000000000002440408F0F9023C3E409A0DCFFFF80
340
58
340
0
340
0
340
5F
340
60
340
61
340
62
340
63
340
68
340
0
 94
        0
  0
ACAD_PROXY_OBJECT
  5
ABDD
330
ABB8
100
AcDbProxyObject
 90
      499
 91
      606
 95
       25
 70
     0
 93
    13889
310
5DD1D003FFFFFFFD030300030CCCCCCCCCCCC250200800030C01030300030CCCCCCCCCCCC250200800030C00050C8DC0955782CC838A83588367014ED1D15395149050D3CB1294138B0C0B23702555E0B320E2A0D620D9CB11D15395149055160B095CCB0A11D1539354D1C819D95B991A5B5E880CCC0A78000C0000000000
310
00000000000000000000010CCCCCCCCCCCC250200800030C010CCCCCCCCCCCC250200800030C020143CF4F111959985D5B1D151A5D1B194F8050A8C8A8365815B8375838B014E51D15395149050D3CB1294138B0C0B2322A0D96056E0DD60E2CB11D15395149055160B095CCB0A11D1539354D1C819D95B991A5B5E880CCC4
310
A78000C000000000000000000000000000000010CCCCCCCCCCCC250200800030C010CCCCCCCCCCCC250200800030C020143CF4F111959985D5B1D151A5D1B194F90D44111409034110541D0C4350F4050E44D03449074510F000141232D24D7C053247454E545241434F2C4A504E2C302C8CB4935F2C47454E54524154582C
310
25732C2847454E4D53472067656E64696D7A20312900010104002214000281464500A608E8A9CA8A482869E5894A09C5860591914588E8A9CA8A482A8B0584AE658508E8A9C9AA68E40CECADCC8D2DAF4406452029E9E9E27B934B3B4B71F1E24A31427A91424A9A12620A7259427B934B3B4B7149624A9A12620A7259424B
310
A32B6949496111116111711149F1E24BA32B69F00808200111A000140560052F47454E545241434F2C4A504E2C302C582C47454E54524154582C25732C2847454E4D53472067656E64696D7A20332900010100002054000280AC80A5E8E8A9CA8A482869E5894A09C586058B2588E8A9CA8A482A8B0584AE658508E8A9C9AA
310
68E40CECADCC8D2DAF4406852000202000040E800050152014BD1D15395149050D3CB1294138B0C0B148B11D15395149055160B095CCB0A11D1539354D1C819D95B991A5B5E880D8A400040400008250000A0507A6029823A2A72A2920A1A79625282716181641E99623A2A72A2920AA2C1612B9961423A2A726A9A39033B2
310
B73234B6BD101B948000808180105A000140A0F4C053047454E545241434F2C4A504E2C302C83D32C47454E54524154582C25732C2847454E4D53472067656E64696D7A203829000101010020F400028248704B5F00A668E8A9CA8A482869E5894A09C58605921C12D7C588E8A9CA8A482A8B0584AE658508E8A9C9AA68E40
310
CECADCC8D2DAF440646052000200080043280005048B4B8A69014CD1D15395149050D3CB1294138B0C0B22D2E29A4B11D15395149055160B095CCB0A11D1539354D1C819D95B991A5B5E880C8C4A4000400100086D0000A09196926BE029923A2A72A2920A1A796252827161816465A49AF9623A2A72A2920AA2C1612B9961
310
423A2A726A9A39033B2B73234B6BD10189480A02620202080043E80005048D8096DA014CD1D15395149050D3CB1294138B0C0B236025B68B11D15395149055160B095CCB0A11D1539354D1C819D95B991A5B5E880C4D0A4000404140280D0000A190687072706CD06C5069D06B0029DA3A2A72A2920A1A7962528271618164
310
1A1C1C9C1B341B141A741AC1623A2A72A2920AA2C1612B9961423A2A726A9A39033B2B73234B6BD10189A94800080820050EA000143A322A0D0E0E4E0D9A0D8A0D3A0D60053D47454E545241434F2C4A504E2C302C8C8A8343839383668362834E83582C47454E54524154582C25732C2847454E4D53472067656E64696D7A
310
2031372900010105002274000281464500A628E8A9CA8A482869E5894A09C5860591914588E8A9CA8A482A8B0584AE658508E8A9C9AA68E40CECADCC8D2DAF440626C52000202080044A8000504909497CA014CD1D15395149050D3CB1294138B0C0B242525F28B11D15395149055160B095CCB0A11D1539354D1C819D95B9
310
91A5B5E880C4E4A400040418008A521E000000000000001CA040C00000000000034408080000000000006881010000000000000D102040000000000001A204080000000000003440818000000000000728103000000000000125020600000000004028A040000000000000034408000000000000004881000000000000000D
310
102000000000000001A204000000000000003440818000000000000508143C0000000000000039408180000000000006881030000000000000D102060000000000001A2040C00000000000034408180000000000006881030000000000000E5020600000000000024A040C0000000000805140800000000000000688100000
310
00000000009102000000000000001A2040000000000000034408180000000000006881030000000000000A10284220000000878000002020000008380000020400000081800000208000000828000002028900000000
340
0
340
0
340
0
340
0
340
180
340
180
 94
        0
  0
ACAD_PROXY_OBJECT
  5
ABDE
330
ABB8
100
AcDbProxyObject
 90
      499
 91
      537
 95
       25
 70
     0
 93
     2482
310
5DD9740D29254D0A53484D323030355F413440DE184D1134A49535F42525F5265766973696F6E6C6973744050A53484D323030355F41344B10CE971058D8591B4C8C0C0D571058D8591B5711D95B97111DD9D7199BDC9B585D1714D2134C8C0C0D57D04D10140DE184D13C433A5C50726F6772616D2046696C65735C417574
310
6F6465736B5C416361646D20323030355C416361646D5C47656E5C4477675C5469746C655C7861344110E979A97F0838A835883675F42525F44D29254D7D09497D4995D9A5CDA5BDB9B1A5CDD10E979A97F0838A835883675F54525F44D29254D7D51497D4995D9A5CDA5BDB9B1A5CDD10E979A97F0838A835883675F424C5
310
F44D29254D7D09317D4995D9A5CDA5BDB9B1A5CDD10E979A97F0838A835883675F544C5F44D29254D7D51317D4995D9A5CDA5BDB9B1A5CDD00
  0
ACAD_PROXY_OBJECT
  5
AB9C
330
AB9B
100
AcDbProxyObject
 90
      499
 91
      601
 95
       25
 70
     0
 93
     1648
310
5DE014295195B5C1B185D19480C405BE3D2525633C486F6C653A63746469613E2078203C486F6C653A637464657074683E20555C503C696628657175616C28486F6C653A7461707065642C223022292C222525632220486F6C653A6469612C20486F6C653A6E6F6D696E616C20222078202220486F6C653A70697463686465
310
736320222078202220486F6C653A7461706465707468293E203C696628657175616C28486F6C653A7465726D696E6174696F6E2C223022292C22202F202220486F6C653A64657074682C222022293E
  0
ACAD_PROXY_OBJECT
  5
AB9D
330
AB9B
100
AcDbProxyObject
 90
      499
 91
      601
 95
       25
 70
     0
 93
     1656
310
5DE014295195B5C1B185D19480C405BF3D2525633C486F6C653A63746469613E2078203C486F6C653A6374616E676C653E2525645C503C696628657175616C28486F6C653A7461707065642C223022292C222525632220486F6C653A6469612C20486F6C653A6E6F6D696E616C20222078202220486F6C653A706974636864
310
65736320222078202220486F6C653A7461706465707468293E203C696628657175616C28486F6C653A7465726D696E6174696F6E2C223022292C22202F202220486F6C653A64657074682C222022293E
  0
ACAD_PROXY_OBJECT
  5
AB9E
330
AB9B
100
AcDbProxyObject
 90
      499
 91
      601
 95
       25
 70
     0
 93
     1360
310
5DE014295195B5C1B185D19480C4059A3D3C696628657175616C28486F6C653A7461707065642C223022292C222525632220486F6C653A6469612C20486F6C653A6E6F6D696E616C20222078202220486F6C653A70697463686465736320222078202220486F6C653A7461706465707468293E203C696628657175616C2848
310
6F6C653A7465726D696E6174696F6E2C223022292C22202F202220486F6C653A64657074682C222022293E
  0
ACAD_PROXY_OBJECT
  5
AB9F
330
AB9B
100
AcDbProxyObject
 90
      499
 91
      601
 95
       25
 70
     0
 93
      224
310
5DE014295195B5C1B185D19480C4050C3D3C535444503A444553433E
  0
ACAD_PROXY_OBJECT
  5
ABC9
330
ABC8
100
AcDbProxyObject
 90
      499
 91
      601
 95
       25
 70
     0
 93
     1376
310
5DE0143A0D960E4E0DDA0E32056E0D9C80C405983D3C486F6C653A6469613E3C696628657175616C28486F6C653A7465726D696E6174696F6E2C223022292C2220905B82B320222C22208368838A838B22293E3C696628657175616C28486F6C653A7465726D696E6174696F6E2C223022292C486F6C653A64657074682C22
310
22293E2C203C486F6C653A63746469613E2082B482AE82E882CC905B82B3203C486F6C653A637464657074683E
  0
ACAD_PROXY_OBJECT
  5
ABCA
330
ABC8
100
AcDbProxyObject
 90
      499
 91
      601
 95
       25
 70
     0
 93
     2072
310
5DE0143A0D960E4E0DDA0E32056E0D9C80C405EF3D3C486F6C653A6374616E676C653E252564202525633C486F6C653A63746469613E208E4D8C8A2C203C696628657175616C28486F6C653A7461707065642C223022292C22252563222C486F6C653A6E6F6D696E616C202220782022293E3C696628657175616C28486F6C
310
653A7461707065642C223022292C486F6C653A6469612C486F6C653A706974636864657363293E203C696628657175616C28486F6C653A7465726D696E6174696F6E2C223022292C22905B82B320222C222022293E3C696628657175616C28486F6C653A7465726D696E6174696F6E2C223022292C486F6C653A6465707468
310
2C2222293E
  0
ACAD_PROXY_OBJECT
  5
ABCB
330
ABC8
100
AcDbProxyObject
 90
      499
 91
      601
 95
       25
 70
     0
 93
     1752
310
5DE0143A0D960E4E0DDA0E32056E0D9C80C405C73D3C696628657175616C28486F6C653A7461707065642C223022292C22252563222C486F6C653A6E6F6D696E616C202220782022293E3C696628657175616C28486F6C653A7461707065642C223022292C486F6C653A6469612C486F6C653A706974636864657363293E20
310
3C696628657175616C28486F6C653A7465726D696E6174696F6E2C223022292C22905B82B320222C222022293E3C696628657175616C28486F6C653A7465726D696E6174696F6E2C223022292C486F6C653A64657074682C2222293E
  0
ACAD_PROXY_OBJECT
  5
ABCC
330
ABC8
100
AcDbProxyObject
 90
      499
 91
      601
 95
       25
 70
     0
 93
      344
310
5DE0143A0D960E4E0DDA0E32056E0D9C80C805173D3C535444503A444553433E203C535444503A5354443E
  0
ACAD_PROXY_OBJECT
  5
ABCD
330
ABC8
100
AcDbProxyObject
 90
      499
 91
      601
 95
       25
 70
     0
 93
      256
310
5DE0143A0D960E4E0DDA0E32056E0D9C80C4050C3D3C535444503A444553433E
  0
ENDSEC
  0
EOF
