  0
SECTION
  2
HEADER
  9
$ACADVER
  1
AC1015
  9
$ACADMAINTVER
 70
     6
  9
$DWGCODEPAGE
  3
ANSI_932
  9
$INSBASE
 10
0.0
 20
0.0
 30
0.0
  9
$EXTMIN
 10
-137.8253737167914
 20
-205.0738034444403
 30
0.0
  9
$EXTMAX
 10
198.8599132910993
 20
38.93783014137544
 30
0.0
  9
$LIMMIN
 10
0.0
 20
0.0
  9
$LIMMAX
 10
420.0
 20
297.0
  9
$ORTHOMODE
 70
     0
  9
$REGENMODE
 70
     1
  9
$FILLMODE
 70
     1
  9
$QTEXTMODE
 70
     0
  9
$MIRRTEXT
 70
     1
  9
$LTSCALE
 40
1.0
  9
$ATTMODE
 70
     1
  9
$TEXTSIZE
 40
3.0
  9
$TRACEWID
 40
1.0
  9
$TEXTSTYLE
  7
STANDARD
  9
$CLAYER
  8
AM_0
  9
$CELTYPE
  6
ByLayer
  9
$CECOLOR
 62
   256
  9
$CELTSCALE
 40
1.0
  9
$DISPSILH
 70
     0
  9
$DIMSCALE
 40
1.0
  9
$DIMASZ
 40
2.5
  9
$DIMEXO
 40
0.0
  9
$DIMDLI
 40
10.0
  9
$DIMRND
 40
0.0
  9
$DIMDLE
 40
0.0
  9
$DIMEXE
 40
1.0
  9
$DIMTP
 40
0.1
  9
$DIMTM
 40
0.1000000001
  9
$DIMTXT
 40
3.8
  9
$DIMCEN
 40
0.0
  9
$DIMTSZ
 40
0.0
  9
$DIMTOL
 70
     0
  9
$DIMLIM
 70
     0
  9
$DIMTIH
 70
     0
  9
$DIMTOH
 70
     0
  9
$DIMSE1
 70
     0
  9
$DIMSE2
 70
     0
  9
$DIMTAD
 70
     3
  9
$DIMZIN
 70
     1
  9
$DIMBLK
  1
Open30
  9
$DIMASO
 70
     1
  9
$DIMSHO
 70
     1
  9
$DIMPOST
  1

  9
$DIMAPOST
  1
"
  9
$DIMALT
 70
     0
  9
$DIMALTD
 70
     2
  9
$DIMALTF
 40
0.0393701
  9
$DIMLFAC
 40
1.0
  9
$DIMTOFL
 70
     1
  9
$DIMTVP
 40
0.0
  9
$DIMTIX
 70
     0
  9
$DIMSOXD
 70
     0
  9
$DIMSAH
 70
     0
  9
$DIMBLK1
  1

  9
$DIMBLK2
  1

  9
$DIMSTYLE
  2
AM_JIS
  9
$DIMCLRD
 70
   256
  9
$DIMCLRE
 70
   256
  9
$DIMCLRT
 70
     2
  9
$DIMTFAC
 40
0.71
  9
$DIMGAP
 40
1.5
  9
$DIMJUST
 70
     0
  9
$DIMSD1
 70
     0
  9
$DIMSD2
 70
     0
  9
$DIMTOLJ
 70
     0
  9
$DIMTZIN
 70
     8
  9
$DIMALTZ
 70
     0
  9
$DIMALTTZ
 70
     0
  9
$DIMUPT
 70
     0
  9
$DIMDEC
 70
     0
  9
$DIMTDEC
 70
     3
  9
$DIMALTU
 70
     2
  9
$DIMALTTD
 70
     2
  9
$DIMTXSTY
  7
STANDARD
  9
$DIMAUNIT
 70
     1
  9
$DIMADEC
 70
     2
  9
$DIMALTRND
 40
0.0
  9
$DIMAZIN
 70
     2
  9
$DIMDSEP
 70
    46
  9
$DIMATFIT
 70
     3
  9
$DIMFRAC
 70
     0
  9
$DIMLDRBLK
  1
Open30
  9
$DIMLUNIT
 70
     2
  9
$DIMLWD
 70
    -1
  9
$DIMLWE
 70
    -1
  9
$DIMTMOVE
 70
     0
  9
$LUNITS
 70
     2
  9
$LUPREC
 70
     2
  9
$SKETCHINC
 40
1.0
  9
$FILLETRAD
 40
1.5
  9
$AUNITS
 70
     1
  9
$AUPREC
 70
     5
  9
$MENU
  1
.
  9
$ELEVATION
 40
0.0
  9
$PELEVATION
 40
0.0
  9
$THICKNESS
 40
0.0
  9
$LIMCHECK
 70
     0
  9
$CHAMFERA
 40
2.5
  9
$CHAMFERB
 40
2.5
  9
$CHAMFERC
 40
20.0
  9
$CHAMFERD
 40
0.0
  9
$SKPOLY
 70
     0
  9
$TDCREATE
 40
2451943.610431667
  9
$TDUCREATE
 40
2451943.235431667
  9
$TDUPDATE
 40
2455482.431523438
  9
$TDUUPDATE
 40
2455482.056523438
  9
$TDINDWG
 40
0.5722377083
  9
$TDUSRTIMER
 40
0.5722375347
  9
$USRTIMER
 70
     1
  9
$ANGBASE
 50
0.0
  9
$ANGDIR
 70
     0
  9
$PDMODE
 70
     0
  9
$PDSIZE
 40
0.0
  9
$PLINEWID
 40
0.0
  9
$SPLFRAME
 70
     0
  9
$SPLINETYPE
 70
     6
  9
$SPLINESEGS
 70
     8
  9
$HANDSEED
  5
112AF
  9
$SURFTAB1
 70
     6
  9
$SURFTAB2
 70
     6
  9
$SURFTYPE
 70
     6
  9
$SURFU
 70
     6
  9
$SURFV
 70
     6
  9
$UCSBASE
  2

  9
$UCSNAME
  2

  9
$UCSORG
 10
0.0
 20
0.0
 30
0.0
  9
$UCSXDIR
 10
1.0
 20
0.0
 30
0.0
  9
$UCSYDIR
 10
0.0
 20
1.0
 30
0.0
  9
$UCSORTHOREF
  2

  9
$UCSORTHOVIEW
 70
     0
  9
$UCSORGTOP
 10
0.0
 20
0.0
 30
0.0
  9
$UCSORGBOTTOM
 10
0.0
 20
0.0
 30
0.0
  9
$UCSORGLEFT
 10
0.0
 20
0.0
 30
0.0
  9
$UCSORGRIGHT
 10
0.0
 20
0.0
 30
0.0
  9
$UCSORGFRONT
 10
0.0
 20
0.0
 30
0.0
  9
$UCSORGBACK
 10
0.0
 20
0.0
 30
0.0
  9
$PUCSBASE
  2

  9
$PUCSNAME
  2

  9
$PUCSORG
 10
0.0
 20
0.0
 30
0.0
  9
$PUCSXDIR
 10
1.0
 20
0.0
 30
0.0
  9
$PUCSYDIR
 10
0.0
 20
1.0
 30
0.0
  9
$PUCSORTHOREF
  2

  9
$PUCSORTHOVIEW
 70
     0
  9
$PUCSORGTOP
 10
0.0
 20
0.0
 30
0.0
  9
$PUCSORGBOTTOM
 10
0.0
 20
0.0
 30
0.0
  9
$PUCSORGLEFT
 10
0.0
 20
0.0
 30
0.0
  9
$PUCSORGRIGHT
 10
0.0
 20
0.0
 30
0.0
  9
$PUCSORGFRONT
 10
0.0
 20
0.0
 30
0.0
  9
$PUCSORGBACK
 10
0.0
 20
0.0
 30
0.0
  9
$USERI1
 70
     0
  9
$USERI2
 70
     0
  9
$USERI3
 70
     0
  9
$USERI4
 70
     0
  9
$USERI5
 70
     0
  9
$USERR1
 40
0.0
  9
$USERR2
 40
0.0
  9
$USERR3
 40
0.0
  9
$USERR4
 40
0.0
  9
$USERR5
 40
0.0
  9
$WORLDVIEW
 70
     1
  9
$SHADEDGE
 70
     3
  9
$SHADEDIF
 70
    70
  9
$TILEMODE
 70
     1
  9
$MAXACTVP
 70
    48
  9
$PINSBASE
 10
0.0
 20
0.0
 30
0.0
  9
$PLIMCHECK
 70
     0
  9
$PEXTMIN
 10
1.000000000000000E+20
 20
1.000000000000000E+20
 30
1.000000000000000E+20
  9
$PEXTMAX
 10
-1.000000000000000E+20
 20
-1.000000000000000E+20
 30
-1.000000000000000E+20
  9
$PLIMMIN
 10
0.0
 20
0.0
  9
$PLIMMAX
 10
420.0
 20
297.0
  9
$UNITMODE
 70
     0
  9
$VISRETAIN
 70
     1
  9
$PLINEGEN
 70
     0
  9
$PSLTSCALE
 70
     1
  9
$TREEDEPTH
 70
  3020
  9
$CMLSTYLE
  2
Standard
  9
$CMLJUST
 70
     0
  9
$CMLSCALE
 40
20.0
  9
$PROXYGRAPHICS
 70
     1
  9
$MEASUREMENT
 70
     1
  9
$CELWEIGHT
370
    -1
  9
$ENDCAPS
280
     0
  9
$JOINSTYLE
280
     0
  9
$LWDISPLAY
290
     0
  9
$INSUNITS
 70
     4
  9
$HYPERLINKBASE
  1

  9
$STYLESHEET
  1
sei_cad.ctb
  9
$XEDIT
290
     1
  9
$CEPSNTYPE
380
     0
  9
$PSTYLEMODE
290
     1
  9
$FINGERPRINTGUID
  2
{C77AB3BE-9CA2-11D3-BAF3-006094EB760E}
  9
$VERSIONGUID
  2
{88721738-AC4C-465F-BDF0-BB69F5F58463}
  9
$EXTNAMES
290
     1
  9
$PSVPSCALE
 40
0.0
  9
$OLESTARTUP
290
     0
  0
ENDSEC
  0
SECTION
  2
CLASSES
  0
CLASS
  1
ACDBDICTIONARYWDFLT
  2
AcDbDictionaryWithDefault
  3
ObjectDBX Classes
 90
        0
280
     0
281
     0
  0
CLASS
  1
ACDBPLACEHOLDER
  2
AcDbPlaceHolder
  3
ObjectDBX Classes
 90
        0
280
     0
281
     0
  0
CLASS
  1
LAYOUT
  2
AcDbLayout
  3
ObjectDBX Classes
 90
        0
280
     0
281
     0
  0
CLASS
  1
ACME_DOCUMENT
  2
AcMeDbDoc
  3
AcMeServices
 90
        0
280
     1
281
     0
  0
CLASS
  1
ACMESCOPE
  2
AcMeScope
  3
AcMeServices
 90
        0
280
     1
281
     0
  0
CLASS
  1
ACMECOMMANDHISTORY
  2
AcMeCommandHistory
  3
AcMeServices
 90
        0
280
     1
281
     0
  0
CLASS
  1
DICTIONARYVAR
  2
AcDbDictionaryVar
  3
ObjectDBX Classes
 90
        0
280
     0
281
     0
  0
CLASS
  1
ACIMSYSVARMAN
  2
AcImSysVarManager
  3
AcMeServices
 90
        0
280
     1
281
     0
  0
CLASS
  1
ACIMREALSYSVAR
  2
AcImRealSysVar
  3
AcMeServices
 90
        0
280
     1
281
     0
  0
CLASS
  1
ACIMINTSYSVAR
  2
AcImIntSysVar
  3
AcMeServices
 90
        0
280
     1
281
     0
  0
CLASS
  1
ACMEDRAWINGMAN
  2
AcMeDrawingMan
  3
AcMeServices
 90
        0
280
     1
281
     0
  0
CLASS
  1
ACMEVIEW
  2
AcMeView
  3
AcMeServices
 90
        0
280
     1
281
     0
  0
CLASS
  1
ACDBENTITYCACHE
  2
AcMeEntityCache
  3
AcMeServices
 90
        0
280
     1
281
     0
  0
CLASS
  1
GSMANAGER
  2
AcMeGSManager
  3
AcMeServices
 90
        0
280
     1
281
     0
  0
CLASS
  1
AMDTINTERNALREACTOR
  2
AmdtInternalReactor
  3
AcMeServices
 90
        0
280
     1
281
     0
  0
CLASS
  1
ACMESTATEMGR
  2
AcMeStateMgr
  3
AcMeServices
 90
        0
280
     1
281
     0
  0
CLASS
  1
ACME_DATABASE
  2
AcMeDbDatabase
  3
AcMeServices
 90
        0
280
     1
281
     0
  0
CLASS
  1
ACRFINSADJUSTERMGR
  2
AcRfInsAdjusterMgr
  3
AcMeServices
 90
        0
280
     1
281
     0
  0
CLASS
  1
AMGSETTINGSOBJ
  2
AmgSettingsObj
  3
"AcadM|Product Description: AutoCAD Mechanical 2000|Company: Autodesk"
 90
        0
280
     1
281
     0
  0
CLASS
  1
AMGOBJPROPCFG
  2
AmgObjPropCfg
  3
"AmgLay|Product Description: AutoCAD Mechanical 2000|Company: Autodesk"
 90
        1
280
     1
281
     0
  0
CLASS
  1
ACMDATADICTIONARY
  2
AcmDataDictionary
  3
"AcmSymBB|Product Description: AutoCAD Mechanical 2004 DX|Company: Autodesk"
 90
        0
280
     1
281
     0
  0
CLASS
  1
ACMDATAENTRYBLOCK
  2
AcmDataEntryBlock
  3
"AcmSymBB|Product Description: AutoCAD Mechanical 2004 DX|Company: Autodesk"
 90
        0
280
     1
281
     0
  0
CLASS
  1
ACIMSTRSYSVAR
  2
AcImStrSysVar
  3
AcMeServices
 90
        0
280
     1
281
     0
  0
CLASS
  1
ACAMGFILTERDAT
  2
AcAmgFilterDat
  3
"AcadM|Product Description: AutoCAD Mechanical 2000|Company: Autodesk"
 90
        0
280
     1
281
     0
  0
CLASS
  1
LAYER_INDEX
  2
AcDbLayerIndex
  3
ObjectDBX Classes
 90
        0
280
     0
281
     0
  0
CLASS
  1
IDBUFFER
  2
AcDbIdBuffer
  3
ObjectDBX Classes
 90
        0
280
     0
281
     0
  0
CLASS
  1
ACMSTANDARDJIS
  2
AcmStandardJIS
  3
"Amdt_StdImp|Product Description: AutoCAD Mechanical 2004 DX|Company: Autodesk"
 90
        0
280
     1
281
     0
  0
CLASS
  1
ACMSURFSTANDARDJIS
  2
AcmSurfTextStdJIS
  3
"Amdt_StdImp|Product Description: AutoCAD Mechanical 2004 DX|Company: Autodesk"
 90
        0
280
     1
281
     0
  0
CLASS
  1
ACMFCFSTANDARDJIS
  2
AcmFCFStdJIS
  3
"Amdt_StdImp|Product Description: AutoCAD Mechanical 2004 DX|Company: Autodesk"
 90
        0
280
     1
281
     0
  0
CLASS
  1
ACMWELDSTANDARDJIS
  2
AcmWeldingStdJIS
  3
"Amdt_StdImp|Product Description: AutoCAD Mechanical 2004 DX|Company: Autodesk"
 90
        0
280
     1
281
     0
  0
CLASS
  1
ACMIDSTANDARDJIS
  2
AcmIdStdJIS
  3
"Amdt_StdImp|Product Description: AutoCAD Mechanical 2004 DX|Company: Autodesk"
 90
        0
280
     1
281
     0
  0
CLASS
  1
ACMDATUMSTANDARDJIS
  2
AcmDatumStdJIS
  3
"Amdt_StdImp|Product Description: AutoCAD Mechanical 2004 DX|Company: Autodesk"
 90
        0
280
     1
281
     0
  0
CLASS
  1
ACMBOMSTANDARDJIS
  2
AcmBOMStdJIS
  3
"Amdt_StdImp|Product Description: AutoCAD Mechanical 2004 DX|Company: Autodesk"
 90
        0
280
     1
281
     0
  0
CLASS
  1
AMDTNOTE
  2
AmdtNote
  3
"AcmSymBB|Product Description: AutoCAD Mechanical 2004 DX|Company: Autodesk"
 90
     1023
280
     1
281
     1
  0
CLASS
  1
ACGREFMASTER
  2
AcGrefMaster
  3
AcAttribServices
 90
        0
280
     1
281
     0
  0
CLASS
  1
ACGREFACADMASTER
  2
AcGrefacadMaster
  3
AcGrefServices
 90
        0
280
     1
281
     0
  0
CLASS
  1
AMIMASTER
  2
AmiMaster
  3
AmiServices
 90
        0
280
     1
281
     0
  0
CLASS
  1
ACAMGTITLESTD
  2
AcAmgTitleStd
  3
"TITLEAPP"
 90
        0
280
     1
281
     0
  0
CLASS
  1
ACMDETAILSTANDARDJIS
  2
AmdtDetailSymStdJIS
  3
"Amdt_StdImp|Product Description: AutoCAD Mechanical 2004 DX|Company: Autodesk"
 90
        0
280
     1
281
     0
  0
CLASS
  1
ACMSECTIONSTANDARDJIS
  2
AmdtSectionSymStdJIS
  3
"Amdt_StdImp|Product Description: AutoCAD Mechanical 2004 DX|Company: Autodesk"
 90
        0
280
     1
281
     0
  0
CLASS
  1
ACMCENTERLINESTANDARDJIS
  2
AmdtCenterLineStdJIS
  3
"Amdt_StdImp|Product Description: AutoCAD Mechanical 2004 DX|Company: Autodesk"
 90
        0
280
     1
281
     0
  0
CLASS
  1
ACMNOTESTANDARDJIS
  2
AmdtNoteStdJIS
  3
"Amdt_StdImp|Product Description: AutoCAD Mechanical 2004 DX|Company: Autodesk"
 90
        0
280
     1
281
     0
  0
CLASS
  1
ACAMGLAYSTD
  2
AcAmgLayStd
  3
"AcAmgLayStd|Product Description: AutoCAD Mechanical 2000|Company: Autodesk"
 90
        0
280
     1
281
     0
  0
CLASS
  1
ACAMGDIMSTD
  2
AcAmgDimStd
  3
"AcAmgDimStd|Product Description: AutoCAD Mechanical 2000|Company: Autodesk"
 90
        0
280
     1
281
     0
  0
CLASS
  1
AMDTFORMULAUPDATEDISPATCHER
  2
AmdtFormulaUpdateDispatcher
  3
AcMeServices
 90
        0
280
     1
281
     0
  0
CLASS
  1
DUMMY
  2
AcDbLongTransaction
  3
DUMMY
 90
        0
280
     0
281
     0
  0
CLASS
  1
LWPOLYLINE
  2
AcDbPolyline
  3
AutoCAD 2000
 90
        0
280
     0
281
     1
  0
CLASS
  1
HATCH
  2
AcDbHatch
  3
AutoCAD 2000
 90
        0
280
     0
281
     1
  0
CLASS
  1
XRECORD
  2
AcDbXrecord
  3
AutoCAD 2000
 90
        0
280
     0
281
     0
  0
CLASS
  1
DUMMY
  2
AcDbLongTransaction
  3
DUMMY
 90
        0
280
     0
281
     0
  0
CLASS
  1
LWPOLYLINE
  2
AcDbPolyline
  3
AutoCAD 2000
 90
        0
280
     0
281
     1
  0
CLASS
  1
HATCH
  2
AcDbHatch
  3
AutoCAD 2000
 90
        0
280
     0
281
     1
  0
CLASS
  1
XRECORD
  2
AcDbXrecord
  3
AutoCAD 2000
 90
        0
280
     0
281
     0
  0
CLASS
  1
ACDBCIRCARCRES
  2
AcDbCircArcRes
  3
AcGrefServices
 90
        0
280
     1
281
     0
  0
CLASS
  1
ACDBLINERES
  2
AcDbLineRes
  3
AcGrefServices
 90
        0
280
     1
281
     0
  0
CLASS
  1
ACDBELLIPSERES
  2
AcDbEllipseRes
  3
AcGrefServices
 90
        0
280
     1
281
     0
  0
CLASS
  1
DUMMY
  2
AcDbLongTransaction
  3
DUMMY
 90
        0
280
     0
281
     0
  0
CLASS
  1
LWPOLYLINE
  2
AcDbPolyline
  3
AutoCAD 2000
 90
        0
280
     0
281
     1
  0
CLASS
  1
HATCH
  2
AcDbHatch
  3
AutoCAD 2000
 90
        0
280
     0
281
     1
  0
CLASS
  1
XRECORD
  2
AcDbXrecord
  3
AutoCAD 2000
 90
        0
280
     0
281
     0
  0
CLASS
  1
TABLESTYLE
  2
AcDbTableStyle
  3
ObjectDBX Classes
 90
     2047
280
     0
281
     0
  0
CLASS
  1
AM_DRAWING_MGR
  2
AcDmDwgMgr
  3
AcMechDwgViewMgmt
 90
        0
280
     1
281
     0
  0
CLASS
  1
AM_DWG_DOCUMENT
  2
AcDmDwgDocument
  3
AcMechDwgViewMgmt
 90
        0
280
     1
281
     0
  0
CLASS
  1
AM_DWG_SHEET
  2
AcDmSheet
  3
AcMechDwgViewMgmt
 90
        0
280
     1
281
     0
  0
CLASS
  1
AM_VIEWDIMPARMAP
  2
AcDmViewDimParMap
  3
AcMechDwgViewMgmt
 90
        0
280
     1
281
     0
  0
CLASS
  1
AM_DWGMGR_NAME
  2
AcDmDwgMgrName
  3
AcMechDwgViewMgmt
 90
        0
280
     1
281
     0
  0
CLASS
  1
AMDTMENUSTATEMGR
  2
AmdtMenuStateMgr
  3
McadcomServices
 90
        0
280
     1
281
     0
  0
CLASS
  1
AMDTMCOMMENUSTATE
  2
AmdtMcomMenuState
  3
McadcomServices
 90
        0
280
     1
281
     0
  0
CLASS
  1
MAPIAMMOUDLE
  2
MApiAmModule
  3
MApiAmServices
 90
        0
280
     1
281
     0
  0
CLASS
  1
AMDTADMENUSTATE
  2
AmdtAdMenuState
  3
DesignerServices
 90
        0
280
     1
281
     0
  0
CLASS
  1
ADAPPL
  2
AcAdAppl
  3
DesignerServices
 90
        0
280
     1
281
     0
  0
CLASS
  1
DEPMGR
  2
AcAdDepMgr
  3
DesignerServices
 90
        0
280
     1
281
     0
  0
CLASS
  1
PARAMMGR
  2
AcAdParamMgr
  3
DesignerServices
 90
        0
280
     1
281
     0
  0
CLASS
  1
PARAMSCOPE
  2
AcAdParamScope
  3
DesignerServices
 90
        0
280
     1
281
     0
  0
CLASS
  1
NAMEDAPPL
  2
AcAdNamedAppl
  3
DesignerServices
 90
        0
280
     1
281
     0
  0
CLASS
  1
AMDTDMMENUSTATE
  2
AmdtDmMenuState
  3
AcMechDwgViewMgmt
 90
        0
280
     1
281
     0
  0
CLASS
  1
AMDTAMMENUSTATE
  2
AmdtAmMenuState
  3
DesignerAssemblies
 90
        0
280
     1
281
     0
  0
CLASS
  1
ACAMPROJECT
  2
AcAmProject
  3
DesignerAssemblies
 90
        0
280
     1
281
     0
  0
CLASS
  1
ACAMGRCOMPDEF
  2
AcAmGrCompDef
  3
DesignerAssemblies
 90
        0
280
     1
281
     0
  0
CLASS
  1
ACCMCONTEXT
  2
AcCmContext
  3
DesignerAssemblies
 90
        0
280
     1
281
     0
  0
CLASS
  1
ACAMCOMPDEF
  2
AcAmCompDef
  3
DesignerAssemblies
 90
        0
280
     1
281
     0
  0
CLASS
  1
ACAMCOMPDEFMGR
  2
AcAmCompDefMgr
  3
DesignerAssemblies
 90
        0
280
     1
281
     0
  0
CLASS
  1
AMCONTEXTMGR
  2
AcAmContextMgr
  3
DesignerAssemblies
 90
        0
280
     1
281
     0
  0
CLASS
  1
ACAMCONTEXTMODELER
  2
AcAmContextModeler
  3
DesignerAssemblies
 90
        0
280
     1
281
     0
  0
CLASS
  1
CATALOGSTATE
  2
AcAmCatalogState
  3
DesignerAssemblies
 90
        0
280
     1
281
     0
  0
CLASS
  1
ACAMGRCOMPDEFSET
  2
AcAmGrCompDefSet
  3
DesignerAssemblies
 90
        0
280
     1
281
     0
  0
CLASS
  1
AMDTBROWSERDBTAB
  2
AmdtBrowserDbTab
  3
McadcomServices
 90
        0
280
     1
281
     0
  0
CLASS
  1
CBROWSERAPPOBJECT
  2
CBrowserAppObject
  3
McadcomServices
 90
        0
280
     1
281
     0
  0
CLASS
  1
DM_PLACEHOLDER
  2
AcDmSelsetPlaceholder
  3
AcMechDwgViewMgmt
 90
        0
280
     1
281
     0
  0
CLASS
  1
ACMSTANDARDISO
  2
AcmStandardISO
  3
"Amdt_StdImp|Product Description: AutoCAD Mechanical 2004 DX|Company: Autodesk"
 90
        0
280
     1
281
     0
  0
CLASS
  1
AMDTEDGESTANDARDISO13715
  2
AmdtEdgeStdISO13715
  3
"Amdt_StdImp|Product Description: AutoCAD Mechanical 2004 DX|Company: Autodesk"
 90
        0
280
     1
281
     0
  0
CLASS
  1
ACMSURFSTANDARDISO
  2
AcmSurfTextStdISO
  3
"Amdt_StdImp|Product Description: AutoCAD Mechanical 2004 DX|Company: Autodesk"
 90
        0
280
     1
281
     0
  0
CLASS
  1
ACMFCFSTANDARDISO
  2
AcmFCFStdISO
  3
"Amdt_StdImp|Product Description: AutoCAD Mechanical 2004 DX|Company: Autodesk"
 90
        0
280
     1
281
     0
  0
CLASS
  1
ACMWELDSTANDARDISO
  2
AcmWeldingStdISO
  3
"Amdt_StdImp|Product Description: AutoCAD Mechanical 2004 DX|Company: Autodesk"
 90
        0
280
     1
281
     0
  0
CLASS
  1
ACMIDSTANDARDISO
  2
AcmIdStdISO
  3
"Amdt_StdImp|Product Description: AutoCAD Mechanical 2004 DX|Company: Autodesk"
 90
        0
280
     1
281
     0
  0
CLASS
  1
ACMDATUMSTANDARDISO
  2
AcmDatumStdISO
  3
"Amdt_StdImp|Product Description: AutoCAD Mechanical 2004 DX|Company: Autodesk"
 90
        0
280
     1
281
     0
  0
CLASS
  1
ACMBOMSTANDARDISO
  2
AcmBOMStdISO
  3
"Amdt_StdImp|Product Description: AutoCAD Mechanical 2004 DX|Company: Autodesk"
 90
        0
280
     1
281
     0
  0
CLASS
  1
ACMDETAILSTANDARDISO
  2
AmdtDetailSymStdISO
  3
"Amdt_StdImp|Product Description: AutoCAD Mechanical 2004 DX|Company: Autodesk"
 90
        0
280
     1
281
     0
  0
CLASS
  1
ACMSECTIONSTANDARDISO
  2
AmdtSectionSymStdISO
  3
"Amdt_StdImp|Product Description: AutoCAD Mechanical 2004 DX|Company: Autodesk"
 90
        0
280
     1
281
     0
  0
CLASS
  1
ACMCENTERLINESTANDARDISO
  2
AmdtCenterLineStdISO
  3
"Amdt_StdImp|Product Description: AutoCAD Mechanical 2004 DX|Company: Autodesk"
 90
        0
280
     1
281
     0
  0
CLASS
  1
ACMTHREADLINESTANDARDISO
  2
AmdtThreadLineStdISO
  3
"Amdt_StdImp|Product Description: AutoCAD Mechanical 2004 DX|Company: Autodesk"
 90
        0
280
     1
281
     0
  0
CLASS
  1
ACMNOTESTANDARDISO
  2
AmdtNoteStdISO
  3
"Amdt_StdImp|Product Description: AutoCAD Mechanical 2004 DX|Company: Autodesk"
 90
        0
280
     1
281
     0
  0
CLASS
  1
AMDTNOTETEMPLATEDB
  2
AmdtNoteTemplateDB
  3
AMDT_STDIMP_MODULE_NAME
 90
        0
280
     1
281
     0
  0
CLASS
  1
ACAMGHOLECHARTSTDISO
  2
AcAmgHoleChartStdISO
  3
ACMSYMBB_MODULE_NAME
 90
        0
280
     1
281
     0
  0
CLASS
  1
ACMTHREADLINESTANDARDJIS
  2
AmdtThreadLineStdJIS
  3
"Amdt_StdImp|Product Description: AutoCAD Mechanical 2004 DX|Company: Autodesk"
 90
        0
280
     1
281
     0
  0
CLASS
  1
ACAMGHOLECHARTSTDJIS
  2
AcAmgHoleChartStdJIS
  3
ACMSYMBB_MODULE_NAME
 90
        0
280
     1
281
     0
  0
CLASS
  1
SORTENTSTABLE
  2
AcDbSortentsTable
  3
ObjectDBX Classes
 90
        0
280
     0
281
     0
  0
ENDSEC
  0
SECTION
  2
TABLES
  0
TABLE
  2
VPORT
  5
8
330
0
100
AcDbSymbolTable
 70
     3
  0
VPORT
  5
112A8
330
8
100
AcDbSymbolTableRecord
100
AcDbViewportTableRecord
  2
*Active
 70
     0
 10
0.0
 20
0.0
 11
1.0
 21
1.0
 12
83.47030267513097
 22
-55.35580218649888
 13
0.0
 23
0.0
 14
2.5
 24
2.5
 15
10.0
 25
10.0
 16
0.0
 26
0.0
 36
1.0
 17
0.0
 27
0.0
 37
0.0
 40
246.6293078245458
 41
1.51114922813036
 42
50.0
 43
0.0
 44
0.0
 50
0.0
 51
0.0
 71
    16
 72
  2000
 73
     1
 74
     3
 75
     0
 76
     0
 77
     0
 78
     0
281
     0
 65
     1
110
0.0
120
0.0
130
0.0
111
1.0
121
0.0
131
0.0
112
0.0
122
1.0
132
0.0
 79
     0
146
0.0
  0
ENDTAB
  0
TABLE
  2
LTYPE
  5
5
330
0
100
AcDbSymbolTable
 70
    16
  0
LTYPE
  5
14
330
5
100
AcDbSymbolTableRecord
100
AcDbLinetypeTableRecord
  2
ByBlock
 70
     0
  3

 72
    65
 73
     0
 40
0.0
  0
LTYPE
  5
15
330
5
100
AcDbSymbolTableRecord
100
AcDbLinetypeTableRecord
  2
ByLayer
 70
     0
  3

 72
    65
 73
     0
 40
0.0
  0
LTYPE
  5
16
330
5
100
AcDbSymbolTableRecord
100
AcDbLinetypeTableRecord
  2
Continuous
 70
     0
  3
Solid line
 72
    65
 73
     0
 40
0.0
  0
LTYPE
  5
43
330
5
100
AcDbSymbolTableRecord
100
AcDbLinetypeTableRecord
  2
AM_ISO02W050
 70
     0
  3
__ __ __ __ __ __ __ __ __ __ __ __ __ __ __
 72
    65
 73
     2
 40
7.5
 49
6.0
 74
     0
 49
-1.5
 74
     0
  0
LTYPE
  5
44
330
5
100
AcDbSymbolTableRecord
100
AcDbLinetypeTableRecord
  2
AM_ISO08W050
 70
     0
  3
____ . ____ . ____ . ____ . ____ . ____ . ____
 72
    65
 73
     4
 40
18.0
 49
12.0
 74
     0
 49
-1.5
 74
     0
 49
3.0
 74
     0
 49
-1.5
 74
     0
  0
LTYPE
  5
45
330
5
100
AcDbSymbolTableRecord
100
AcDbLinetypeTableRecord
  2
AM_ISO09W050
 70
     0
  3
_____ . . _____ . . _____ . . ____ .. ____
 72
    65
 73
     6
 40
22.5
 49
12.0
 74
     0
 49
-1.5
 74
     0
 49
3.0
 74
     0
 49
-1.5
 74
     0
 49
3.0
 74
     0
 49
-1.5
 74
     0
  0
LTYPE
  5
46
330
5
100
AcDbSymbolTableRecord
100
AcDbLinetypeTableRecord
  2
Amconstr
 70
     0
  3
_______________________
 72
    65
 73
     2
 40
9999.0
 49
9999.0
 74
     0
 49
0.0
 74
     0
  0
LTYPE
  5
47
330
5
100
AcDbSymbolTableRecord
100
AcDbLinetypeTableRecord
  2
AM_ISO02W050x2
 70
     0
  3
 _ _ _ _ _ _ _ _ _ _ _ _
 72
    65
 73
     2
 40
3.75
 49
3.0
 74
     0
 49
-0.75
 74
     0
  0
LTYPE
  5
48
330
5
100
AcDbSymbolTableRecord
100
AcDbLinetypeTableRecord
  2
AM_ISO08W050x2
 70
     0
  3
__ . __ . __ . __ . __ . __
 72
    65
 73
     4
 40
9.0
 49
6.0
 74
     0
 49
-0.75
 74
     0
 49
1.5
 74
     0
 49
-0.75
 74
     0
  0
LTYPE
  5
4B
330
5
100
AcDbSymbolTableRecord
100
AcDbLinetypeTableRecord
  2
Amzigzag
 70
     0
  3
/\/-/\/-/\/-/\/-/\/-/\/
 72
    65
 73
     2
 40
11.0001
 49
0.0001
 74
     4
 75
   135
340
4A
 46
0.04
 50
0.0
 44
0.0
 45
0.0
 49
-11.0
 74
     0
  0
LTYPE
  5
188
330
5
100
AcDbSymbolTableRecord
100
AcDbLinetypeTableRecord
  2
ACJISTGB
 70
     0
  3
__ . . __ . .
 72
    65
 73
     6
 40
9.0
 49
4.0
 74
     0
 49
-1.0
 74
     0
 49
1.0
 74
     0
 49
-1.0
 74
     0
 49
1.0
 74
     0
 49
-1.0
 74
     0
  0
LTYPE
  5
189
330
5
100
AcDbSymbolTableRecord
100
AcDbLinetypeTableRecord
  2
ACJISTGL
 70
     0
  3
_ _ _ _ _
 72
    65
 73
     2
 40
3.0
 49
2.0
 74
     0
 49
-1.0
 74
     0
  0
LTYPE
  5
652
330
5
100
AcDbSymbolTableRecord
100
AcDbLinetypeTableRecord
  2
CENTER
 70
     0
  3
____ _ ____ _ ____ _ ____ _ ____ _ ____ _ ____
 72
    65
 73
     4
 40
17.5
 49
13.0
 74
     0
 49
-1.5
 74
     0
 49
1.5
 74
     0
 49
-1.5
 74
     0
  0
LTYPE
  5
12AB
330
5
100
AcDbSymbolTableRecord
100
AcDbLinetypeTableRecord
  2
HIDDEN
 70
     0
  3
Hidden __ __ __ __ __ __ __ __ __ __ __ __ __ _
 72
    65
 73
     2
 40
0.375
 49
0.25
 74
     0
 49
-0.125
 74
     0
  0
LTYPE
  5
12AC
330
5
100
AcDbSymbolTableRecord
100
AcDbLinetypeTableRecord
  2
PHANTOM2
 70
     0
  3
Phantom (.5x) ___ _ _ ___ _ _ ___ _ _ ___ _ _
 72
    65
 73
     6
 40
1.25
 49
0.625
 74
     0
 49
-0.125
 74
     0
 49
0.125
 74
     0
 49
-0.125
 74
     0
 49
0.125
 74
     0
 49
-0.125
 74
     0
  0
LTYPE
  5
9A44
330
5
100
AcDbSymbolTableRecord
100
AcDbLinetypeTableRecord
  2
ACISOWELD
 70
     0
  3
_ _ _ _ _
 72
    65
 73
     2
 40
2.0
 49
2.0
 74
     0
 49
-1.0
 74
     0
  0
LTYPE
  5
9A45
330
5
100
AcDbSymbolTableRecord
100
AcDbLinetypeTableRecord
  2
ACISOTGB
 70
     0
  3
__ . . __ . .
 72
    65
 73
     6
 40
9.0
 49
4.0
 74
     0
 49
-1.0
 74
     0
 49
1.0
 74
     0
 49
-1.0
 74
     0
 49
1.0
 74
     0
 49
-1.0
 74
     0
  0
LTYPE
  5
9A46
330
5
100
AcDbSymbolTableRecord
100
AcDbLinetypeTableRecord
  2
ACISOTGL
 70
     0
  3
_ _ _ _ _
 72
    65
 73
     2
 40
3.0
 49
2.0
 74
     0
 49
-1.0
 74
     0
  0
ENDTAB
  0
TABLE
  2
LAYER
  5
2
102
{ACAD_XDICTIONARY
360
9B25
102
}
330
0
100
AcDbSymbolTable
 70
     8
  0
LAYER
  5
10
330
2
100
AcDbSymbolTableRecord
100
AcDbLayerTableRecord
  2
0
 70
     0
 62
     7
  6
Continuous
370
    -3
390
F
  0
LAYER
  5
7D
330
2
100
AcDbSymbolTableRecord
100
AcDbLayerTableRecord
  2
AM_5
 70
     0
 62
     3
  6
Continuous
370
    13
390
F
  0
LAYER
  5
7F
330
2
100
AcDbSymbolTableRecord
100
AcDbLayerTableRecord
  2
Defpoints
 70
     0
 62
     7
  6
Continuous
290
     0
370
    -3
390
F
  0
LAYER
  5
12B1
330
2
100
AcDbSymbolTableRecord
100
AcDbLayerTableRecord
  2
AM_0
 70
     0
 62
     7
  6
Continuous
370
    30
390
F
  0
LAYER
  5
1896
330
2
100
AcDbSymbolTableRecord
100
AcDbLayerTableRecord
  2
AM_7
 70
     0
 62
     4
  6
AM_ISO08W050
370
    13
390
F
  0
LAYER
  5
1898
330
2
100
AcDbSymbolTableRecord
100
AcDbLayerTableRecord
  2
AM_3
 70
     0
 62
     6
  6
AM_ISO02W050
370
    13
390
F
  0
LAYER
  5
2C94
330
2
100
AcDbSymbolTableRecord
100
AcDbLayerTableRecord
  2
AM_11
 70
     0
 62
     3
  6
AM_ISO09W050
370
    13
390
F
  0
ENDTAB
  0
TABLE
  2
STYLE
  5
3
330
0
100
AcDbSymbolTable
 70
     6
  0
STYLE
  5
11
330
3
100
AcDbSymbolTableRecord
100
AcDbTextStyleTableRecord
  2
STANDARD
 70
     0
 40
0.0
 41
1.0
 50
0.0
 71
     0
 42
3.0
  3
ISOCP.SHX
  4
EXTFONT.SHX
  0
STYLE
  5
4A
330
3
100
AcDbSymbolTableRecord
100
AcDbTextStyleTableRecord
  2

 70
     1
 40
0.0
 41
1.0
 50
0.0
 71
     0
 42
2.5
  3
ltypeshp.shx
  4

  0
STYLE
  5
180
330
3
100
AcDbSymbolTableRecord
100
AcDbTextStyleTableRecord
  2
ACJISTS
 70
     0
 40
1.0
 41
1.0
 50
0.0
 71
     0
 42
2.5
  3
isocp.shx
  4
bigfont.shx
  0
STYLE
  5
187
330
3
100
AcDbSymbolTableRecord
100
AcDbTextStyleTableRecord
  2
ACJISGDT
 70
     0
 40
0.0
 41
1.0
 50
0.0
 71
     0
 42
2.5
  3
amgdt.shx
  4

  0
STYLE
  5
9A36
330
3
100
AcDbSymbolTableRecord
100
AcDbTextStyleTableRecord
  2
ACISOTS
 70
     0
 40
1.0
 41
1.0
 50
0.0
 71
     0
 42
3.15
  3
isocp.shx
  4
extfont.shx
  0
STYLE
  5
9A43
330
3
100
AcDbSymbolTableRecord
100
AcDbTextStyleTableRecord
  2
ACISOGDT
 70
     0
 40
0.0
 41
1.0
 50
0.0
 71
     0
 42
3.15
  3
amgdt.shx
  4

  0
ENDTAB
  0
TABLE
  2
VIEW
  5
6
330
0
100
AcDbSymbolTable
 70
     6
  0
VIEW
  5
A30
330
6
100
AcDbSymbolTableRecord
100
AcDbViewTableRecord
  2
AM_VIEW1
 70
     0
 40
148.5
 10
108.6929657794677
 20
222.75
 41
217.3859315589354
 11
0.0
 21
0.0
 31
1.0
 12
0.0
 22
0.0
 32
0.0
 42
50.0
 43
0.0
 44
0.0
 50
0.0
 71
    16
281
     0
 72
     0
  0
VIEW
  5
A31
330
6
100
AcDbSymbolTableRecord
100
AcDbViewTableRecord
  2
AM_VIEW2
 70
     0
 40
148.5
 10
311.3070342205323
 20
222.75
 41
217.3859315589354
 11
0.0
 21
0.0
 31
1.0
 12
0.0
 22
0.0
 32
0.0
 42
50.0
 43
0.0
 44
0.0
 50
0.0
 71
    16
281
     0
 72
     0
  0
VIEW
  5
A32
330
6
100
AcDbSymbolTableRecord
100
AcDbViewTableRecord
  2
AM_VIEW3
 70
     0
 40
148.5
 10
108.6929657794677
 20
74.25
 41
217.3859315589354
 11
0.0
 21
0.0
 31
1.0
 12
0.0
 22
0.0
 32
0.0
 42
50.0
 43
0.0
 44
0.0
 50
0.0
 71
    16
281
     0
 72
     0
  0
VIEW
  5
A33
330
6
100
AcDbSymbolTableRecord
100
AcDbViewTableRecord
  2
AM_VIEW4
 70
     0
 40
148.5
 10
311.3070342205323
 20
74.25
 41
217.3859315589354
 11
0.0
 21
0.0
 31
1.0
 12
0.0
 22
0.0
 32
0.0
 42
50.0
 43
0.0
 44
0.0
 50
0.0
 71
    16
281
     0
 72
     0
  0
VIEW
  5
A34
330
6
100
AcDbSymbolTableRecord
100
AcDbViewTableRecord
  2
AM_VIEW5
 70
     0
 40
148.5
 10
210.0
 20
148.5
 41
217.3859315589353
 11
0.0
 21
0.0
 31
1.0
 12
0.0
 22
0.0
 32
0.0
 42
50.0
 43
0.0
 44
0.0
 50
0.0
 71
    16
281
     0
 72
     0
  0
VIEW
  5
A35
330
6
100
AcDbSymbolTableRecord
100
AcDbViewTableRecord
  2
AM_VIEW6
 70
     0
 40
296.99703
 10
210.0
 20
148.5
 41
434.7675153992395
 11
0.0
 21
0.0
 31
1.0
 12
0.0
 22
0.0
 32
0.0
 42
50.0
 43
0.0
 44
0.0
 50
0.0
 71
    16
281
     0
 72
     0
  0
ENDTAB
  0
TABLE
  2
UCS
  5
7
330
0
100
AcDbSymbolTable
 70
     0
  0
ENDTAB
  0
TABLE
  2
APPID
  5
9
330
0
100
AcDbSymbolTable
 70
    47
  0
APPID
  5
12
330
9
100
AcDbSymbolTableRecord
100
AcDbRegAppTableRecord
  2
ACAD
 70
     0
  0
APPID
  5
2C
330
9
100
AcDbSymbolTableRecord
100
AcDbRegAppTableRecord
  2
MCAD_NO_VIS
 70
     0
  0
APPID
  5
2D
330
9
100
AcDbSymbolTableRecord
100
AcDbRegAppTableRecord
  2
ACAD_TEMP_GRAPHIC
 70
     0
  0
APPID
  5
B9
330
9
100
AcDbSymbolTableRecord
100
AcDbRegAppTableRecord
  2
GENIUS_GENDTOL_13
 70
     0
  0
APPID
  5
359
330
9
100
AcDbSymbolTableRecord
100
AcDbRegAppTableRecord
  2
GENIUS_GENREC_14
 70
     0
  0
APPID
  5
35A
330
9
100
AcDbSymbolTableRecord
100
AcDbRegAppTableRecord
  2
GENIUS_GENODEF_13
 70
     0
  0
APPID
  5
35B
330
9
100
AcDbSymbolTableRecord
100
AcDbRegAppTableRecord
  2
GENIUS_GENOBJ-N-REC_13
 70
     0
  0
APPID
  5
667
330
9
100
AcDbSymbolTableRecord
100
AcDbRegAppTableRecord
  2
GENIUS_GENCFG_13
 70
     0
1001
GENIUS_GENCFG0_13
1000
GEN
  0
APPID
  5
668
330
9
100
AcDbSymbolTableRecord
100
AcDbRegAppTableRecord
  2
GENIUS_GENCFG0_13
 70
     0
1001
GENIUS_GENCFG_13
1071
1094015123
1000
668
1000
GEN
1070
     0
  0
APPID
  5
669
330
9
100
AcDbSymbolTableRecord
100
AcDbRegAppTableRecord
  2
GENIUS_GENCFG1_13
 70
     0
  0
APPID
  5
66A
330
9
100
AcDbSymbolTableRecord
100
AcDbRegAppTableRecord
  2
GENIUS_GENCFG2_13
 70
     0
  0
APPID
  5
66B
330
9
100
AcDbSymbolTableRecord
100
AcDbRegAppTableRecord
  2
GENIUS_GENCFG3_13
 70
     0
  0
APPID
  5
66C
330
9
100
AcDbSymbolTableRecord
100
AcDbRegAppTableRecord
  2
GENIUS_GENCFG4_13
 70
     0
  0
APPID
  5
A76
330
9
100
AcDbSymbolTableRecord
100
AcDbRegAppTableRecord
  2
GENIUS_GENBLLY_14
 70
     0
  0
APPID
  5
A77
330
9
100
AcDbSymbolTableRecord
100
AcDbRegAppTableRecord
  2
GENIUS_GENOBJ-N-CEN_13
 70
     0
  0
APPID
  5
A83
330
9
100
AcDbSymbolTableRecord
100
AcDbRegAppTableRecord
  2
GENIUS_GENTRA_14
 70
     0
  0
APPID
  5
A8D
330
9
100
AcDbSymbolTableRecord
100
AcDbRegAppTableRecord
  2
GENIUS_GENOBJ-N-TIT_13
 70
     0
  0
APPID
  5
A8E
330
9
100
AcDbSymbolTableRecord
100
AcDbRegAppTableRecord
  2
GENIUS_GENTITLE_13
 70
     0
  0
APPID
  5
A8F
330
9
100
AcDbSymbolTableRecord
100
AcDbRegAppTableRecord
  2
GENIUS_GENOENT_13
 70
     0
  0
APPID
  5
A90
330
9
100
AcDbSymbolTableRecord
100
AcDbRegAppTableRecord
  2
GENIUS_GENOREF_13
 70
     0
  0
APPID
  5
A91
330
9
100
AcDbSymbolTableRecord
100
AcDbRegAppTableRecord
  2
GENIUS_GENOLIS_13
 70
     0
  0
APPID
  5
A92
330
9
100
AcDbSymbolTableRecord
100
AcDbRegAppTableRecord
  2
GENIUS_GENZVEED_13
 70
     0
  0
APPID
  5
A93
330
9
100
AcDbSymbolTableRecord
100
AcDbRegAppTableRecord
  2
GENIUS_GENSCREG_15
 70
     0
  0
APPID
  5
A94
330
9
100
AcDbSymbolTableRecord
100
AcDbRegAppTableRecord
  2
GENIUS_GENOBJ-N-SDF_13
 70
     0
  0
APPID
  5
12B5
330
9
100
AcDbSymbolTableRecord
100
AcDbRegAppTableRecord
  2
GENIUS_GENOBJ-N-RSBK_13
 70
     0
  0
APPID
  5
12B6
330
9
100
AcDbSymbolTableRecord
100
AcDbRegAppTableRecord
  2
GENIUS_GENOBJ-N-LIB_13
 70
     0
  0
APPID
  5
12B7
330
9
100
AcDbSymbolTableRecord
100
AcDbRegAppTableRecord
  2
GENIUS_GENSCALE_13
 70
     0
  0
APPID
  5
12B8
330
9
100
AcDbSymbolTableRecord
100
AcDbRegAppTableRecord
  2
GENIUS_GENOBJ-N-HTC_13
 70
     0
  0
APPID
  5
12B9
330
9
100
AcDbSymbolTableRecord
100
AcDbRegAppTableRecord
  2
GENIUS_GENHATCH_13
 70
     0
  0
APPID
  5
189B
330
9
100
AcDbSymbolTableRecord
100
AcDbRegAppTableRecord
  2
BASE_TYPE
 70
     0
  0
APPID
  5
189C
330
9
100
AcDbSymbolTableRecord
100
AcDbRegAppTableRecord
  2
GENIUS_GENOBJ-N-FIL_13
 70
     0
  0
APPID
  5
23D0
330
9
100
AcDbSymbolTableRecord
100
AcDbRegAppTableRecord
  2
ACATTRIBSERVICES
 70
     0
  0
APPID
  5
264C
330
9
100
AcDbSymbolTableRecord
100
AcDbRegAppTableRecord
  2
GENIUS_GENSCREG_13
 70
     0
  0
APPID
  5
26E5
330
9
100
AcDbSymbolTableRecord
100
AcDbRegAppTableRecord
  2
CONTENTBLOCKICON
 70
     0
  0
APPID
  5
2747
330
9
100
AcDbSymbolTableRecord
100
AcDbRegAppTableRecord
  2
GENIUS_GENFIL_13
 70
     0
  0
APPID
  5
2748
330
9
100
AcDbSymbolTableRecord
100
AcDbRegAppTableRecord
  2
GENIUS_GENOBJ-N-CHA_13
 70
     0
  0
APPID
  5
2749
330
9
100
AcDbSymbolTableRecord
100
AcDbRegAppTableRecord
  2
GENIUS_GENDIMSH_14
 70
     0
  0
APPID
  5
274A
330
9
100
AcDbSymbolTableRecord
100
AcDbRegAppTableRecord
  2
GENIUS_GENOBJ-N-DIM_13
 70
     0
  0
APPID
  5
274B
330
9
100
AcDbSymbolTableRecord
100
AcDbRegAppTableRecord
  2
GENIUS_GENDIM_13
 70
     0
  0
APPID
  5
2A08
330
9
100
AcDbSymbolTableRecord
100
AcDbRegAppTableRecord
  2
GENIUS_GENOBJ-N-CRS_13
 70
     0
  0
APPID
  5
9A0B
330
9
100
AcDbSymbolTableRecord
100
AcDbRegAppTableRecord
  2
AD_DRAW
 70
     0
  0
APPID
  5
9A29
330
9
100
AcDbSymbolTableRecord
100
AcDbRegAppTableRecord
  2
DESIGNERASSEMBLIES
 70
     0
  0
APPID
  5
9A2F
330
9
100
AcDbSymbolTableRecord
100
AcDbRegAppTableRecord
  2
ACADM_DIM_EDIT
 70
     0
  0
APPID
  5
9A30
330
9
100
AcDbSymbolTableRecord
100
AcDbRegAppTableRecord
  2
AMDT_DM_ADJ
 70
     0
  0
APPID
  5
9B24
330
9
100
AcDbSymbolTableRecord
100
AcDbRegAppTableRecord
  2
GENIUS_GENCEN_19
 70
     0
  0
APPID
  5
A33D
330
9
100
AcDbSymbolTableRecord
100
AcDbRegAppTableRecord
  2
ACAD_DSTYLE_DIMTEXT_FILL
 70
     0
  0
APPID
  5
A33E
330
9
100
AcDbSymbolTableRecord
100
AcDbRegAppTableRecord
  2
ACAD_PSEXT
 70
     0
  0
ENDTAB
  0
TABLE
  2
DIMSTYLE
  5
A
330
0
100
AcDbSymbolTable
 70
    10
100
AcDbDimStyleTable
  0
DIMSTYLE
105
58
330
A
100
AcDbSymbolTableRecord
100
AcDbDimStyleTableRecord
  2
AM_JIS
 70
     0
  4
"
 41
2.5
 42
0.0
 43
10.0
 44
1.0
 47
0.1
 48
0.1000000001
 73
     0
 74
     0
 77
     3
 78
     1
 79
     2
140
3.8
141
0.0
143
0.0393701
146
0.71
147
1.5
172
     1
176
   256
177
   256
178
     2
179
     2
271
     3
272
     3
275
     1
283
     0
284
     8
340
11
341
59
342
59
371
    -1
372
    -1
  0
DIMSTYLE
105
5F
330
A
100
AcDbSymbolTableRecord
100
AcDbDimStyleTableRecord
  2
AM_JIS$3
 70
     0
  4
"
 41
2.5
 42
0.0
 43
10.0
 44
1.0
 47
0.1
 48
0.1000000001
 73
     0
 77
     3
 78
     1
 79
     2
140
3.8
141
0.0
143
0.0393701
146
0.71
147
1.5
172
     1
176
   256
177
   256
178
     2
179
     2
271
     3
272
     3
275
     1
283
     0
284
     8
288
     1
289
     0
340
11
341
59
342
59
371
    -1
372
    -1
  0
DIMSTYLE
105
60
330
A
100
AcDbSymbolTableRecord
100
AcDbDimStyleTableRecord
  2
AM_JIS$4
 70
     0
  4
"
 41
2.5
 42
0.0
 43
10.0
 44
1.0
 47
0.1
 48
0.1000000001
 73
     0
 77
     3
 78
     1
 79
     2
140
3.8
141
0.0
143
0.0393701
146
0.71
147
1.5
172
     1
176
   256
177
   256
178
     2
179
     2
271
     3
272
     3
275
     1
283
     0
284
     8
288
     1
289
     0
340
11
341
59
342
59
371
    -1
372
    -1
  0
DIMSTYLE
105
61
330
A
100
AcDbSymbolTableRecord
100
AcDbDimStyleTableRecord
  2
AM_JIS$6
 70
     0
  4
"
 41
2.5
 42
0.0
 43
10.0
 44
1.0
 47
0.1
 48
0.1000000001
 73
     0
 74
     0
 78
     1
 79
     2
140
3.8
141
0.0
143
0.0393701
146
0.71
147
1.5
172
     1
176
   256
177
   256
178
     2
179
     2
271
     3
272
     3
275
     1
283
     0
284
     8
340
11
341
59
342
59
371
    -1
372
    -1
  0
DIMSTYLE
105
62
330
A
100
AcDbSymbolTableRecord
100
AcDbDimStyleTableRecord
  2
AM_JIS$7
 70
     0
  4
"
 41
2.5
 42
0.0
 43
10.0
 44
1.0
 47
0.1
 48
0.1000000001
 73
     0
 74
     0
 77
     3
 78
     1
 79
     2
140
5.0
141
0.0
143
0.0393701
146
0.71
147
1.5
172
     1
176
   256
177
   256
178
     2
179
     2
271
     3
272
     3
275
     1
283
     0
284
     8
340
11
341
59
342
59
371
    -1
372
    -1
  0
DIMSTYLE
105
63
330
A
100
AcDbSymbolTableRecord
100
AcDbDimStyleTableRecord
  2
AM_JIS$SF
 70
     0
  4
"
 41
2.5
 42
1.0
 43
10.0
 44
1.0
 47
0.1
 48
0.1
 73
     0
 74
     0
 75
     1
 76
     1
 77
     3
 78
     8
 79
     2
140
3.5
141
0.0
143
0.0393701
146
0.71
147
1.5
176
   256
177
   256
178
     2
271
     2
272
     3
274
     4
340
11
341
59
342
59
343
59
344
59
371
    -1
372
    -1
  0
DIMSTYLE
105
68
330
A
100
AcDbSymbolTableRecord
100
AcDbDimStyleTableRecord
  2
AM_JIS$SH
 70
     0
  4
"
 41
2.5
 42
1.0
 43
10.0
 44
1.0
 47
0.1
 48
0.1
 73
     0
 74
     0
 75
     1
 76
     1
 77
     3
 78
     8
 79
     2
140
3.5
141
0.0
143
0.0393701
144
2.0
146
0.71
147
1.5
173
     1
176
   256
177
   256
178
     2
271
     2
272
     3
274
     4
340
11
341
59
342
59
343
64
344
59
371
    -1
372
    -1
  0
DIMSTYLE
105
65F
330
A
100
AcDbSymbolTableRecord
100
AcDbDimStyleTableRecord
  2
STANDARD
 70
     0
340
11
  0
DIMSTYLE
105
1899
102
{ACAD_REACTORS
330
FDD6
330
11150
102
}
330
A
100
AcDbSymbolTableRecord
100
AcDbDimStyleTableRecord
  2
AM_JIS$0
 70
     0
  4
"
 41
2.5
 42
0.0
 43
10.0
 44
1.0
 47
0.1
 48
0.1000000001
 73
     0
 74
     0
 77
     3
 78
     1
 79
     2
140
3.8
141
0.0
143
0.0393701
146
0.71
147
1.5
172
     1
176
     3
177
     3
178
     2
271
     3
272
     3
275
     1
283
     0
284
     8
289
     0
340
11
341
59
342
59
371
    13
372
    13
  0
DIMSTYLE
105
189A
102
{ACAD_REACTORS
330
FF49
330
10FDA
102
}
330
A
100
AcDbSymbolTableRecord
100
AcDbDimStyleTableRecord
  2
AM_JIS$2
 70
     0
  4
"
 41
2.5
 42
0.0
 43
10.0
 44
1.0
 47
0.1
 48
0.1000000001
 73
     0
 74
     0
 77
     3
 78
     1
 79
     2
140
3.8
141
0.0
143
0.0393701
146
0.71
147
1.5
172
     1
176
     3
177
     3
178
     2
179
     3
271
     3
272
     3
275
     1
283
     0
284
     8
289
     0
340
11
341
59
342
59
371
    13
372
    13
  0
ENDTAB
  0
TABLE
  2
BLOCK_RECORD
  5
1
330
0
100
AcDbSymbolTable
 70
     8
  0
BLOCK_RECORD
  5
1F
102
{ACAD_XDICTIONARY
360
165
102
}
330
1
100
AcDbSymbolTableRecord
100
AcDbBlockTableRecord
  2
*Model_Space
340
22
  0
BLOCK_RECORD
  5
1B
102
{ACAD_XDICTIONARY
360
264F
102
}
330
1
100
AcDbSymbolTableRecord
100
AcDbBlockTableRecord
  2
*Paper_Space
340
1E
  0
BLOCK_RECORD
  5
23
102
{ACAD_XDICTIONARY
360
2651
102
}
330
1
100
AcDbSymbolTableRecord
100
AcDbBlockTableRecord
  2
*Paper_Space0
340
26
  0
BLOCK_RECORD
  5
59
330
1
100
AcDbSymbolTableRecord
100
AcDbBlockTableRecord
  2
_Open30
340
0
102
{BLKREFS
331
11234
331
11235
331
1123D
331
1123E
331
11248
331
11249
331
11253
331
11254
102
}
  0
BLOCK_RECORD
  5
64
330
1
100
AcDbSymbolTableRecord
100
AcDbBlockTableRecord
  2
GENAXEH
340
0
  0
BLOCK_RECORD
  5
9A20
330
1
100
AcDbSymbolTableRecord
100
AcDbBlockTableRecord
  2
*U3
340
0
  0
BLOCK_RECORD
  5
FFC3
330
1
100
AcDbSymbolTableRecord
100
AcDbBlockTableRecord
  2
*D4
340
0
  0
BLOCK_RECORD
  5
1007E
330
1
100
AcDbSymbolTableRecord
100
AcDbBlockTableRecord
  2
*D5
340
0
  0
BLOCK_RECORD
  5
10FDB
330
1
100
AcDbSymbolTableRecord
100
AcDbBlockTableRecord
  2
*D6
340
0
  0
BLOCK_RECORD
  5
11151
330
1
100
AcDbSymbolTableRecord
100
AcDbBlockTableRecord
  2
*D7
340
0
  0
ENDTAB
  0
ENDSEC
  0
SECTION
  2
BLOCKS
  0
BLOCK
  5
20
330
1F
100
AcDbEntity
  8
0
100
AcDbBlockBegin
  2
*Model_Space
 70
     0
 71
     0
 10
0.0
 20
0.0
 30
0.0
  3
*Model_Space
  1

  0
ENDBLK
  5
21
330
1F
100
AcDbEntity
  8
0
100
AcDbBlockEnd
  0
BLOCK
  5
1C
330
1B
100
AcDbEntity
 67
     1
  8
0
100
AcDbBlockBegin
  2
*Paper_Space
 70
     0
 71
     0
 10
0.0
 20
0.0
 30
0.0
  3
*Paper_Space
  1

  0
ENDBLK
  5
1D
330
1B
100
AcDbEntity
 67
     1
  8
0
100
AcDbBlockEnd
  0
BLOCK
  5
24
330
23
100
AcDbEntity
  8
0
100
AcDbBlockBegin
  2
*Paper_Space0
 70
     0
 71
     0
 10
0.0
 20
0.0
 30
0.0
  3
*Paper_Space0
  1

  0
ENDBLK
  5
25
330
23
100
AcDbEntity
  8
0
100
AcDbBlockEnd
  0
BLOCK
  5
2F22
330
59
100
AcDbEntity
  8
0
100
AcDbBlockBegin
  2
_Open30
 70
     0
 71
     0
 10
0.0
 20
0.0
 30
0.0
  3
_Open30
  1

  0
LINE
  5
2F1F
330
59
100
AcDbEntity
  8
0
 62
     0
370
    -2
100
AcDbLine
 10
-1.0
 20
0.26794919
 30
0.0
 11
0.0
 21
0.0
 31
0.0
  0
LINE
  5
2F20
330
59
100
AcDbEntity
  8
0
 62
     0
370
    -2
100
AcDbLine
 10
0.0
 20
0.0
 30
0.0
 11
-1.0
 21
-0.26794919
 31
0.0
  0
LINE
  5
2F21
330
59
100
AcDbEntity
  8
0
 62
     0
370
    -2
100
AcDbLine
 10
0.0
 20
0.0
 30
0.0
 11
-1.0
 21
0.0
 31
0.0
  0
ENDBLK
  5
2F23
330
59
100
AcDbEntity
  8
0
100
AcDbBlockEnd
  0
BLOCK
  5
2F2E
330
64
100
AcDbEntity
  8
0
100
AcDbBlockBegin
  2
GENAXEH
 70
     0
 71
     0
 10
0.0
 20
0.0
 30
0.0
  3
GENAXEH
  1

  0
LINE
  5
2F2D
330
64
100
AcDbEntity
  8
0
100
AcDbLine
 10
-1.0
 20
0.0
 30
0.0
 11
1.0
 21
0.0
 31
0.0
  0
ENDBLK
  5
2F2F
330
64
100
AcDbEntity
  8
0
100
AcDbBlockEnd
  0
BLOCK
  5
9A21
330
9A20
100
AcDbEntity
  8
0
100
AcDbBlockBegin
  2
*U3
 70
     1
 71
     0
 10
0.0
 20
0.0
 30
0.0
  3
*U3
  1

  0
ENDBLK
  5
9A22
330
9A20
100
AcDbEntity
  8
0
100
AcDbBlockEnd
  0
BLOCK
  5
101B7
330
FFC3
100
AcDbEntity
  8
0
100
AcDbBlockBegin
  2
*D4
 70
     1
 71
     0
 10
0.0
 20
0.0
 30
0.0
  3
*D4
  1

  0
LINE
  5
11231
330
FFC3
100
AcDbEntity
  8
AM_5
 62
     3
370
    13
100
AcDbLine
 10
140.4391055555045
 20
31.5
 30
0.0
 11
198.8599132910993
 21
31.49999999999999
 31
0.0
  0
LINE
  5
11232
330
FFC3
100
AcDbEntity
  8
AM_5
 62
     3
370
    13
100
AcDbLine
 10
140.4391055555045
 20
-31.5
 30
0.0
 11
198.8599132910993
 21
-31.50000000000001
 31
0.0
  0
LINE
  5
11233
330
FFC3
100
AcDbEntity
  8
AM_5
 62
     3
370
    13
100
AcDbLine
 10
197.8599132910993
 20
28.99999999999999
 30
0.0
 11
197.8599132910993
 21
-29.00000000000001
 31
0.0
  0
INSERT
  5
11234
330
FFC3
100
AcDbEntity
  8
AM_5
 62
     3
370
    13
100
AcDbBlockReference
  2
_Open30
 10
197.8599132910993
 20
31.49999999999999
 30
0.0
 41
2.5
 42
2.5
 43
2.5
 50
90.0
  0
INSERT
  5
11235
330
FFC3
100
AcDbEntity
  8
AM_5
 62
     3
370
    13
100
AcDbBlockReference
  2
_Open30
 10
197.8599132910993
 20
-31.50000000000001
 30
0.0
 41
2.5
 42
2.5
 43
2.5
 50
270.0
  0
MTEXT
  5
11236
330
FFC3
100
AcDbEntity
  8
AM_5
 62
     2
100
AcDbMText
 10
194.4599132910992
 20
-0.000000000000028
 30
0.0
 40
3.8
 41
0.0
 71
     5
 72
     1
  1
%%c63
 11
6.123031769111886E-17
 21
1.0
 31
0.0
 73
     1
 44
1.0
  0
POINT
  5
11237
330
FFC3
100
AcDbEntity
  8
Defpoints
 62
     0
100
AcDbPoint
 10
140.4391055555045
 20
31.5
 30
0.0
  0
POINT
  5
11238
330
FFC3
100
AcDbEntity
  8
Defpoints
 62
     0
100
AcDbPoint
 10
140.4391055555045
 20
-31.5
 30
0.0
  0
POINT
  5
11239
330
FFC3
100
AcDbEntity
  8
Defpoints
 62
     0
100
AcDbPoint
 10
197.8599132910993
 20
-31.50000000000001
 30
0.0
  0
ENDBLK
  5
101B8
330
FFC3
100
AcDbEntity
  8
0
100
AcDbBlockEnd
  0
BLOCK
  5
101DB
330
1007E
100
AcDbEntity
  8
0
100
AcDbBlockBegin
  2
*D5
 70
     1
 71
     0
 10
0.0
 20
0.0
 30
0.0
  3
*D5
  1

  0
LINE
  5
1123A
330
1007E
100
AcDbEntity
  8
AM_5
 62
     3
370
    13
100
AcDbLine
 10
0.4391055555044527
 20
-32.46616832318
 30
0.0
 11
0.439105555504451
 21
-40.92963684365049
 31
0.0
  0
LINE
  5
1123B
330
1007E
100
AcDbEntity
  8
AM_5
 62
     3
370
    13
100
AcDbLine
 10
9.24932224754474
 20
-7.857846010289221
 30
0.0
 11
31.34749014595405
 21
-26.63154594287604
 31
0.0
  0
ARC
  5
1123C
330
1007E
100
AcDbEntity
  8
AM_5
 62
     3
370
    13
100
AcDbCircle
 10
0.439105555504451
 20
-0.3730461265242849
 30
0.0
 40
39.55659071712621
100
AcDbArc
 50
273.621730189984
 51
316.0284016983612
  0
INSERT
  5
1123D
330
1007E
100
AcDbEntity
  8
AM_5
 62
     3
370
    13
100
AcDbBlockReference
  2
_Open30
 10
0.4391055555044492
 20
-39.92963684365049
 30
0.0
 41
2.5
 42
2.5
 43
2.5
 50
181.810865094992
  0
INSERT
  5
1123E
330
1007E
100
AcDbEntity
  8
AM_5
 62
     3
370
    13
100
AcDbBlockReference
  2
_Open30
 10
30.58538504678462
 20
-25.98409261033388
 30
0.0
 41
2.5
 42
2.5
 43
2.5
 50
47.83926679335315
  0
MTEXT
  5
1123F
330
1007E
100
AcDbEntity
  8
AM_5
 62
     2
100
AcDbMText
 10
15.6194205103093
 20
-33.18854688696835
 30
0.0
 40
3.8
 41
0.0
 71
     5
 72
     1
  1
50°
 11
0.9075938884055357
 21
0.419849179740678
 31
0.0
 73
     1
 44
1.0
  0
POINT
  5
11240
330
1007E
100
AcDbEntity
  8
Defpoints
 62
     0
100
AcDbPoint
 10
11.70690722507582
 20
-38.29085875723177
 30
0.0
  0
POINT
  5
11241
330
1007E
100
AcDbEntity
  8
Defpoints
 62
     0
100
AcDbPoint
 10
0.4391055555044527
 20
-20.14900311338647
 30
0.0
  0
POINT
  5
11242
330
1007E
100
AcDbEntity
  8
Defpoints
 62
     0
100
AcDbPoint
 10
9.24932224754474
 20
-7.857846010289221
 30
0.0
  0
POINT
  5
11243
330
1007E
100
AcDbEntity
  8
Defpoints
 62
     0
100
AcDbPoint
 10
0.7213571659273725
 20
-0.6128355544954046
 30
0.0
  0
POINT
  5
11244
330
1007E
100
AcDbEntity
  8
Defpoints
 62
     0
100
AcDbPoint
 10
0.4391055555044527
 20
-32.46616832318
 30
0.0
  0
ENDBLK
  5
101DC
330
1007E
100
AcDbEntity
  8
0
100
AcDbBlockEnd
  0
BLOCK
  5
1101F
330
10FDB
100
AcDbEntity
  8
0
100
AcDbBlockBegin
  2
*D6
 70
     1
 71
     0
 10
0.0
 20
0.0
 30
0.0
  3
*D6
  1

  0
LINE
  5
11245
330
10FDB
100
AcDbEntity
  8
AM_5
 62
     3
370
    13
100
AcDbLine
 10
-0.0000000000003738
 20
-0.0000000000002457
 30
0.0
 11
-16.6741908693027
 21
14.165710815397
 31
0.0
  0
LINE
  5
11246
330
10FDB
100
AcDbEntity
  8
AM_5
 62
     3
370
    13
100
AcDbLine
 10
-0.0000000000003738
 20
-0.0000000000002457
 30
0.0
 11
-16.67419086930226
 21
-14.165710815398
 31
0.0
  0
ARC
  5
11247
330
10FDB
100
AcDbEntity
  8
AM_5
 62
     3
370
    13
100
AcDbCircle
 10
-0.0000000000003738
 20
-0.0000000000002457
 30
0.0
 40
20.87912256127716
100
AcDbArc
 50
146.5146518791408
 51
213.485348120861
  0
INSERT
  5
11248
330
10FDB
100
AcDbEntity
  8
AM_5
 62
     3
370
    13
100
AcDbBlockReference
  2
_Open30
 10
-15.91208577013326
 20
13.51825748285483
 30
0.0
 41
2.5
 42
2.5
 43
2.5
 50
53.08239188374298
  0
INSERT
  5
11249
330
10FDB
100
AcDbEntity
  8
AM_5
 62
     3
370
    13
100
AcDbBlockReference
  2
_Open30
 10
-15.91208577013285
 20
-13.51825748285582
 30
0.0
 41
2.5
 42
2.5
 43
2.5
 50
306.9176081162588
  0
MTEXT
  5
1124A
330
10FDB
100
AcDbEntity
  8
AM_5
 62
     2
100
AcDbMText
 10
-24.27891097144437
 20
0.1013626470351401
 30
0.0
 40
3.8
 41
0.0
 71
     5
 72
     1
  1
80%%D
 11
0.004174889219310353
 21
0.9999912851120286
 31
0.0
 73
     1
 44
1.0
  0
POINT
  5
1124B
330
10FDB
100
AcDbEntity
  8
Defpoints
 62
     0
100
AcDbPoint
 10
-20.30648022276683
 20
-4.856399889962756
 30
0.0
  0
POINT
  5
1124C
330
10FDB
100
AcDbEntity
  8
Defpoints
 62
     0
100
AcDbPoint
 10
0.7213571659273725
 20
0.61283555449495
 30
0.0
  0
POINT
  5
1124D
330
10FDB
100
AcDbEntity
  8
Defpoints
 62
     0
100
AcDbPoint
 10
9.24932224754474
 20
-7.857846010289222
 30
0.0
  0
POINT
  5
1124E
330
10FDB
100
AcDbEntity
  8
Defpoints
 62
     0
100
AcDbPoint
 10
0.7213571659273725
 20
-0.6128355544954047
 30
0.0
  0
POINT
  5
1124F
330
10FDB
100
AcDbEntity
  8
Defpoints
 62
     0
100
AcDbPoint
 10
9.24932224754474
 20
7.857846010289222
 30
0.0
  0
ENDBLK
  5
11020
330
10FDB
100
AcDbEntity
  8
0
100
AcDbBlockEnd
  0
BLOCK
  5
11179
330
11151
100
AcDbEntity
  8
0
100
AcDbBlockBegin
  2
*D7
 70
     1
 71
     0
 10
0.0
 20
0.0
 30
0.0
  3
*D7
  1

  0
LINE
  5
11250
330
11151
100
AcDbEntity
  8
AM_5
 62
     3
370
    13
100
AcDbLine
 10
140.4391055555045
 20
-31.5
 30
0.0
 11
140.4391055555045
 21
-68.00199834284263
 31
0.0
  0
LINE
  5
11251
330
11151
100
AcDbEntity
  8
AM_5
 62
     3
370
    13
100
AcDbLine
 10
0.4391055555044545
 20
0.0
 30
0.0
 11
0.4391055555044504
 21
-68.00199834284263
 31
0.0
  0
LINE
  5
11252
330
11151
100
AcDbEntity
  8
AM_5
 62
     3
370
    13
100
AcDbLine
 10
137.9391055555045
 20
-67.00199834284263
 30
0.0
 11
2.939105555504451
 21
-67.00199834284263
 31
0.0
  0
INSERT
  5
11253
330
11151
100
AcDbEntity
  8
AM_5
 62
     3
370
    13
100
AcDbBlockReference
  2
_Open30
 10
140.4391055555045
 20
-67.00199834284263
 30
0.0
 41
2.5
 42
2.5
 43
2.5
  0
INSERT
  5
11254
330
11151
100
AcDbEntity
  8
AM_5
 62
     3
370
    13
100
AcDbBlockReference
  2
_Open30
 10
0.4391055555044504
 20
-67.00199834284263
 30
0.0
 41
2.5
 42
2.5
 43
2.5
 50
180.0
  0
MTEXT
  5
11255
330
11151
100
AcDbEntity
  8
AM_5
 62
     2
100
AcDbMText
 10
70.43910555550446
 20
-63.60199834284263
 30
0.0
 40
3.8
 41
0.0
 71
     5
 72
     1
  1
140
 73
     1
 44
1.0
  0
POINT
  5
11256
330
11151
100
AcDbEntity
  8
Defpoints
 62
     0
100
AcDbPoint
 10
140.4391055555045
 20
-31.5
 30
0.0
  0
POINT
  5
11257
330
11151
100
AcDbEntity
  8
Defpoints
 62
     0
100
AcDbPoint
 10
0.4391055555044545
 20
0.0
 30
0.0
  0
POINT
  5
11258
330
11151
100
AcDbEntity
  8
Defpoints
 62
     0
100
AcDbPoint
 10
0.4391055555044504
 20
-67.00199834284263
 30
0.0
  0
ENDBLK
  5
1117A
330
11151
100
AcDbEntity
  8
0
100
AcDbBlockEnd
  0
ENDSEC
  0
SECTION
  2
ENTITIES
  0
LINE
  5
FAF1
330
1F
100
AcDbEntity
  8
AM_0
100
AcDbLine
 10
-104.6195095712833
 20
-0.6128355544951489
 30
0.0
 11
-103.2688125947239
 21
-7.857846010288967
 31
0.0
  0
LINE
  5
FAF2
330
1F
100
AcDbEntity
  8
AM_0
100
AcDbLine
 10
-98.56741609349189
 20
-7.857846010289194
 30
0.0
 11
-103.2688125947239
 21
-7.857846010289194
 31
0.0
  0
LINE
  5
FAF3
330
1F
100
AcDbEntity
  8
AM_0
100
AcDbLine
 10
-98.56741609349189
 20
-7.857846010288967
 30
0.0
 11
-99.91811307005042
 21
-0.6128355544951489
 31
0.0
  0
LINE
  5
FAF4
330
1F
100
AcDbEntity
  8
AM_0
100
AcDbLine
 10
-98.48697278480682
 20
8.045010455794028
 30
0.0
 11
-103.1883692860397
 21
8.045010455794028
 31
0.0
  0
LINE
  5
FAF5
330
1F
100
AcDbEntity
  8
AM_0
100
AcDbLine
 10
-98.48697278480682
 20
-8.045010455793971
 30
0.0
 11
-103.1883692860397
 21
-8.045010455793971
 31
0.0
  0
ELLIPSE
  5
FAF6
330
1F
100
AcDbEntity
  8
AM_0
100
AcDbEllipse
 10
-98.48697278480682
 20
0.0000000000000284
 30
0.0
 11
5.654068888872007E-16
 21
2.579999999999999
 31
0.0
210
0.0
220
0.0
230
1.0
 40
0.1564344650402308
 41
5.896738444227198
 42
7.068583470577046
  0
ELLIPSE
  5
FAF7
330
1F
100
AcDbEntity
  8
AM_0
100
AcDbEllipse
 10
-98.48697278480682
 20
0.0000000000000284
 30
0.0
 11
5.654068888872007E-16
 21
2.579999999999999
 31
0.0
210
0.0
220
0.0
230
1.0
 40
0.1564344650402308
 41
0.7853981633974602
 42
3.528039516542354
  0
ELLIPSE
  5
FAF8
330
1F
100
AcDbEntity
  8
AM_0
100
AcDbEllipse
 10
-103.1883692860397
 20
7.245010455794301
 30
0.0
 11
-1.753199655464188E-16
 21
-0.7999999999999998
 31
0.0
210
0.0
220
0.0
230
1.0
 40
0.1564344650402309
 41
3.141592653589797
 42
3.839724354387517
  0
ELLIPSE
  5
FAF9
330
1F
100
AcDbEntity
  8
AM_0
100
AcDbEllipse
 10
-98.48697278480682
 20
7.245010455794301
 30
0.0
 11
1.753199655464188E-16
 21
0.7999999999999998
 31
0.0
210
0.0
220
0.0
230
1.0
 40
0.1564344650402309
 41
5.585053606381946
 42
6.981317007977362
  0
ELLIPSE
  5
FAFA
330
1F
100
AcDbEntity
  8
AM_0
100
AcDbEllipse
 10
-104.5390662625992
 20
0.0000000000000284
 30
0.0
 11
-1.753199655464188E-16
 21
-0.7999999999999998
 31
0.0
210
0.0
220
0.0
230
1.0
 40
0.1564344650402309
 41
3.839724354387556
 42
5.585053606381895
  0
ELLIPSE
  5
FAFB
330
1F
100
AcDbEntity
  8
AM_0
100
AcDbEllipse
 10
-99.83766976136627
 20
0.0000000000000284
 30
0.0
 11
1.753199655464188E-16
 21
0.7999999999999998
 31
0.0
210
0.0
220
0.0
230
1.0
 40
0.1564344650402309
 41
0.6981317007977637
 42
2.443460952792103
  0
ELLIPSE
  5
FAFC
330
1F
100
AcDbEntity
  8
AM_0
100
AcDbEllipse
 10
-103.1883692860397
 20
-7.245010455793789
 30
0.0
 11
-1.753199655464188E-16
 21
-0.7999999999999998
 31
0.0
210
0.0
220
0.0
230
1.0
 40
0.1564344650402309
 41
5.585053606381908
 42
6.28318530717959
  0
ELLIPSE
  5
FAFD
330
1F
100
AcDbEntity
  8
AM_0
100
AcDbEllipse
 10
-98.48697278480682
 20
-7.245010455793789
 30
0.0
 11
1.753199655464188E-16
 21
0.7999999999999998
 31
0.0
210
0.0
220
0.0
230
1.0
 40
0.1564344650402309
 41
2.443460952792103
 42
3.839724354387518
  0
LINE
  5
FAFE
330
1F
100
AcDbEntity
  8
AM_0
100
AcDbLine
 10
-103.3256517504884
 20
7.552966170506835
 30
0.0
 11
-108.0168242637452
 21
7.552966170506835
 31
0.0
  0
LINE
  5
FAFF
330
1F
100
AcDbEntity
  8
AM_0
100
AcDbLine
 10
-108.0168242637452
 20
7.552966170506835
 30
0.0
 11
-109.2487192633449
 21
0.8722728484267748
 31
0.0
  0
LINE
  5
FB00
330
1F
100
AcDbEntity
  8
AM_0
100
AcDbLine
 10
-104.5711423300414
 20
0.8722728484267748
 30
0.0
 11
-109.2487192633449
 21
0.8722728484267748
 31
0.0
  0
LINE
  5
FB01
330
1F
100
AcDbEntity
  8
AM_0
100
AcDbLine
 10
-104.5536300766758
 20
-0.966206914271396
 30
0.0
 11
-109.2471634376157
 21
-0.966206914271396
 31
0.0
  0
LINE
  5
FB02
330
1F
100
AcDbEntity
  8
AM_0
100
AcDbLine
 10
-109.2471634376157
 20
-0.966206914271396
 30
0.0
 11
-108.0040337057467
 21
-7.561311472133156
 31
0.0
  0
LINE
  5
FB03
330
1F
100
AcDbEntity
  8
AM_0
100
AcDbLine
 10
-103.3240959247592
 20
-7.561311472133156
 30
0.0
 11
-108.0040337057467
 21
-7.561311472133156
 31
0.0
  0
LINE
  5
FB04
330
1F
100
AcDbEntity
  8
AM_0
100
AcDbLine
 10
-103.2725313536872
 20
7.837898939970756
 30
0.0
 11
-107.8953831534068
 21
7.837898939970756
 31
0.0
  0
LINE
  5
FB05
330
1F
100
AcDbEntity
  8
AM_0
100
AcDbLine
 10
-103.2725313536872
 20
-7.837898939970927
 30
0.0
 11
-107.8841484211376
 21
-7.837898939970927
 31
0.0
  0
ELLIPSE
  5
FB06
330
1F
100
AcDbEntity
  8
AM_0
100
AcDbEllipse
 10
-107.8953831534068
 20
6.637898939970938
 30
0.0
 11
-2.629799483196284E-16
 21
-1.2
 31
0.0
210
0.0
220
0.0
230
1.0
 40
0.1564344650402251
 41
3.141592653584407
 42
3.845133957675703
  0
ELLIPSE
  5
FB07
330
1F
100
AcDbEntity
  8
AM_0
100
AcDbEllipse
 10
-109.1272781530075
 20
-0.0427943821091219
 30
0.0
 11
-2.629799483196284E-16
 21
-1.2
 31
0.0
210
0.0
220
0.0
230
1.0
 40
0.1564344650402279
 41
3.845133957676745
 42
5.590463209670801
  0
ELLIPSE
  5
FB08
330
1F
100
AcDbEntity
  8
AM_0
100
AcDbEllipse
 10
-107.8841484211376
 20
-6.637898939970881
 30
0.0
 11
-2.629799483196283E-16
 21
-1.2
 31
0.0
210
0.0
220
0.0
230
1.0
 40
0.1564344650402255
 41
5.590463209672117
 42
6.283185307176254
  0
ELLIPSE
  5
FB09
330
1F
100
AcDbEntity
  8
AM_0
100
AcDbEllipse
 10
-99.59601499793513
 20
8.299611833512728
 30
0.0
 11
-8.65032903051841
 21
6.203474596791457
 31
0.0
210
0.0
220
0.0
230
1.0
 40
0.4004711026506904
 41
2.56604738326562
 42
3.264179084063356
  0
ELLIPSE
  5
FB0A
330
1F
100
AcDbEntity
  8
AM_0
100
AcDbEllipse
 10
-100.032604443311
 20
7.514726266291319
 30
0.0
 11
9.726363537225241
 21
-6.04064484682402
 31
0.0
210
0.0
220
0.0
230
1.0
 40
0.3846158677094977
 41
5.66244938753698
 42
6.360581088334716
  0
SPLINE
  5
FB0B
330
1F
100
AcDbEntity
  8
AM_0
100
AcDbSpline
210
0.0
220
0.0
230
1.0
 70
     8
 71
     3
 72
    18
 73
    14
 74
     0
 42
0.0000000001
 43
0.0000000001
 40
9.28033164244842
 40
9.28033164244842
 40
9.28033164244842
 40
9.28033164244842
 40
9.31735987719081
 40
9.31735987719081
 40
10.01296202430315
 40
10.01296202430315
 40
10.70856417141549
 40
10.70856417141549
 40
11.40416631852782
 40
11.40416631852782
 40
12.09976846564016
 40
12.09976846564016
 40
12.13679670038255
 40
12.13679670038255
 40
12.13679670038255
 40
12.13679670038255
 10
-89.66472252077853
 20
3.244999294433029
 30
0.0
 10
-89.66327121255159
 20
3.253912733196586
 30
0.0
 10
-89.66183863299153
 20
3.262791894348112
 30
0.0
 10
-89.63383069677508
 20
3.437775872123922
 30
0.0
 10
-89.61283180056449
 20
3.591215619341739
 30
0.0
 10
-89.56432456544968
 20
3.862528204341317
 30
0.0
 10
-89.5366065551612
 20
3.980393651573678
 30
0.0
 10
-89.47085927256973
 20
4.176376431757063
 30
0.0
 10
-89.43058880382574
 20
4.26117443487604
 30
0.0
 10
-89.34354799582303
 20
4.393910219509991
 30
0.0
 10
-89.29698499576858
 20
4.441862343449458
 30
0.0
 10
-89.25640711237753
 20
4.471322398614603
 30
0.0
 10
-89.25438016213008
 20
4.472755576515311
 30
0.0
 10
-89.25237913054076
 20
4.474133044515867
 30
0.0
  0
LINE
  5
FB0C
330
1F
100
AcDbEntity
  8
AM_0
100
AcDbLine
 10
-89.25237913054076
 20
4.474133044515867
 30
0.0
 11
-89.07596402256473
 21
5.000000000000028
 31
0.0
  0
LINE
  5
FB0D
330
1F
100
AcDbEntity
  8
AM_0
100
AcDbLine
 10
-89.62706291778392
 20
5.784885567221892
 30
0.0
 11
-90.70681993257909
 21
2.566291986734569
 31
0.0
  0
LINE
  5
FB0E
330
1F
100
AcDbEntity
  8
AM_0
100
AcDbLine
 10
-90.15572103735991
 20
1.781406419513615
 30
0.0
 11
-89.66472252077853
 21
3.244999294433029
 31
0.0
  0
ARC
  5
FB0F
330
1F
100
AcDbEntity
  8
AM_0
100
AcDbCircle
 10
-99.47816871747781
 20
1.245513418662569
 30
0.0
 40
1.035840517028626
100
AcDbArc
 50
333.1136001396628
 51
16.63321734795812
  0
LINE
  5
FB10
330
1F
100
AcDbEntity
  8
AM_0
100
AcDbLine
 10
-98.55429748715829
 20
0.7770824989902678
 30
0.0
 11
-93.47201415340584
 21
0.425117392367639
 31
0.0
  0
LINE
  5
FB11
330
1F
100
AcDbEntity
  8
AM_0
100
AcDbLine
 10
-93.69148373702006
 20
1.210002959588593
 30
0.0
 11
-98.48567109791526
 21
1.54201645723154
 31
0.0
  0
ELLIPSE
  5
FB12
330
1F
100
AcDbEntity
  8
AM_0
100
AcDbEllipse
 10
-90.22776177075645
 20
5.784885567221892
 30
0.0
 11
0.5923352606463161
 21
0.2784625059196539
 31
0.0
210
0.0
220
0.0
230
1.0
 40
0.7010917929256422
 41
5.69250641734418
 42
7.263302744139075
  0
ELLIPSE
  5
FB13
330
1F
100
AcDbEntity
  8
AM_0
100
AcDbEllipse
 10
-90.66435121613228
 20
5.000000000000028
 30
0.0
 11
-1.427748863791255
 21
-0.8095051125413676
 31
0.0
210
0.0
220
0.0
230
1.0
 40
0.8844797096074635
 41
2.571547485755071
 42
4.142343812549967
  0
ELLIPSE
  5
FB14
330
1F
100
AcDbEntity
  8
AM_0
100
AcDbEllipse
 10
-96.26332280822186
 20
5.500000000000028
 30
0.0
 11
-2.619133147199842E-16
 21
-0.9999999999999998
 31
0.0
210
0.0
220
0.0
230
1.0
 40
0.2648460584760617
 41
3.141592653589793
 42
3.809877550961786
  0
LINE
  5
FB15
330
1F
100
AcDbEntity
  8
AM_0
100
AcDbLine
 10
-96.42743221581765
 20
6.284885567221892
 30
0.0
 11
-90.0600243743134
 21
6.284885567221892
 31
0.0
  0
LINE
  5
FB16
330
1F
100
AcDbEntity
  8
AM_0
100
AcDbLine
 10
-90.49661381968923
 20
6.500000000000028
 30
0.0
 11
-96.26332280822186
 21
6.500000000000028
 31
0.0
  0
LINE
  5
FB17
330
1F
100
AcDbEntity
  8
AM_0
100
AcDbLine
 10
-89.07596402256473
 20
5.000000000000028
 30
0.0
 11
-88.16018461563141
 21
5.000000000000028
 31
0.0
  0
LINE
  5
FB18
330
1F
100
AcDbEntity
  8
AM_0
100
AcDbLine
 10
-89.64171712652438
 20
6.500000000000028
 30
0.0
 11
-90.49661381968923
 21
6.500000000000028
 31
0.0
  0
SPLINE
  5
FB19
330
1F
100
AcDbEntity
  8
AM_0
100
AcDbSpline
210
0.0
220
0.0
230
1.0
 70
     8
 71
     3
 72
    18
 73
    14
 74
     0
 42
0.0000000001
 43
0.0000000001
 40
1.725867467603311
 40
1.725867467603311
 40
1.725867467603311
 40
1.725867467603311
 40
1.762895702346222
 40
1.762895702346222
 40
2.458497849458611
 40
2.458497849458611
 40
3.154099996571
 40
3.154099996571
 40
3.849702143683388
 40
3.849702143683388
 40
4.545304290795777
 40
4.545304290795777
 40
4.582332525538685
 40
4.582332525538685
 40
4.582332525538685
 40
4.582332525538685
 10
-89.25237913054076
 20
-4.474133044515355
 30
0.0
 10
-89.25438016213008
 20
-4.4727555765148
 30
0.0
 10
-89.25640711237753
 20
-4.471322398614092
 30
0.0
 10
-89.29698499576858
 20
-4.441862343448719
 30
0.0
 10
-89.34354799582303
 20
-4.393910219509024
 30
0.0
 10
-89.43058880382665
 20
-4.261174434875528
 30
0.0
 10
-89.47085927256973
 20
-4.176376431756552
 30
0.0
 10
-89.5366065551612
 20
-3.980393651572712
 30
0.0
 10
-89.56432456544968
 20
-3.862528204340578
 30
0.0
 10
-89.61283180056449
 20
-3.591215619341227
 30
0.0
 10
-89.63383069677508
 20
-3.437775872122955
 30
0.0
 10
-89.66183863299153
 20
-3.262791894347146
 30
0.0
 10
-89.66327121255159
 20
-3.253912733195847
 30
0.0
 10
-89.66472252077853
 20
-3.244999294431608
 30
0.0
  0
LINE
  5
FB1A
330
1F
100
AcDbEntity
  8
AM_0
100
AcDbLine
 10
-90.15572103735991
 20
-1.781406419512422
 30
0.0
 11
-90.15572103735991
 21
1.781406419513615
 31
0.0
  0
LINE
  5
FB1B
330
1F
100
AcDbEntity
  8
AM_0
100
AcDbLine
 10
-89.66472252077853
 20
-3.244999294431608
 30
0.0
 11
-90.15572103735991
 21
-1.781406419512422
 31
0.0
  0
LINE
  5
FB1C
330
1F
100
AcDbEntity
  8
AM_0
100
AcDbLine
 10
-89.17700863839269
 20
4.500000000000028
 30
0.0
 11
-89.02057417335305
 21
4.500000000000028
 31
0.0
  0
LINE
  5
FB1D
330
1F
100
AcDbEntity
  8
AM_0
100
AcDbLine
 10
-89.02057417335305
 20
-4.499999999999744
 30
0.0
 11
-89.17700863839269
 21
-4.499999999999744
 31
0.0
  0
LINE
  5
FB1E
330
1F
100
AcDbEntity
  8
AM_0
100
AcDbLine
 10
-89.07596402256473
 20
-4.999999999999744
 30
0.0
 11
-89.25237913054076
 21
-4.474133044515355
 31
0.0
  0
LINE
  5
FB1F
330
1F
100
AcDbEntity
  8
AM_0
100
AcDbLine
 10
-88.16018461563141
 20
-4.999999999999744
 30
0.0
 11
-89.07596402256473
 21
-4.999999999999744
 31
0.0
  0
LINE
  5
FB20
330
1F
100
AcDbEntity
  8
AM_0
100
AcDbLine
 10
-88.16018461563141
 20
5.000000000000028
 30
0.0
 11
-88.16018461563141
 21
3.797628848273263
 31
0.0
  0
LINE
  5
FB21
330
1F
100
AcDbEntity
  8
AM_0
100
AcDbLine
 10
-88.16018461563141
 20
-3.797628848272296
 30
0.0
 11
-88.16018461563141
 21
-4.999999999999744
 31
0.0
  0
LINE
  5
FB22
330
1F
100
AcDbEntity
  8
AM_0
100
AcDbLine
 10
-93.47201415340584
 20
0.425117392367639
 30
0.0
 11
-93.47201415340584
 21
-0.4251173923666727
 31
0.0
  0
ELLIPSE
  5
FB23
330
1F
100
AcDbEntity
  8
AM_0
100
AcDbEllipse
 10
-100.032604443311
 20
-7.514726266290353
 30
0.0
 11
-9.726363537225016
 21
-6.040644846824398
 31
0.0
210
0.0
220
0.0
230
1.0
 40
0.3846158677094969
 41
3.064196872434156
 42
3.762328573231893
  0
ELLIPSE
  5
FB24
330
1F
100
AcDbEntity
  8
AM_0
100
AcDbEllipse
 10
-96.73870295046032
 20
0.0000000000000284
 30
0.0
 11
5.751188620175941E-16
 21
2.0
 31
0.0
210
0.0
220
0.0
230
1.0
 40
0.9852033873517184
 41
1.171748398871885
 42
1.969844254717856
  0
LINE
  5
FB25
330
1F
100
AcDbEntity
  8
AM_0
100
AcDbLine
 10
-93.47201415340584
 20
-0.4251173923666727
 30
0.0
 11
-98.55429748715829
 21
-0.7770824989897562
 31
0.0
  0
ELLIPSE
  5
FB26
330
1F
100
AcDbEntity
  8
AM_0
100
AcDbEllipse
 10
-94.97478801917492
 20
0.0000000000000284
 30
0.0
 11
-3.541728652452226
 21
1.840793579357771
 31
0.0
210
0.0
220
0.0
230
1.0
 40
0.2207880113561848
 41
0.0346301069573848
 42
0.2886712719030435
  0
ELLIPSE
  5
FB27
330
1F
100
AcDbEntity
  8
AM_0
100
AcDbEllipse
 10
-94.97478801917492
 20
0.0000000000000284
 30
0.0
 11
-3.54172865245222
 21
-1.840793579357777
 31
0.0
210
0.0
220
0.0
230
1.0
 40
0.2207880113561845
 41
5.994514035276467
 42
6.248555200222207
  0
ARC
  5
FB28
330
1F
100
AcDbEntity
  8
AM_0
100
AcDbCircle
 10
-99.47816871747691
 20
-1.245513418661602
 30
0.0
 40
1.035840517027692
100
AcDbArc
 50
343.3667826520144
 51
26.88639986035398
  0
ELLIPSE
  5
FB29
330
1F
100
AcDbEntity
  8
AM_0
100
AcDbEllipse
 10
-99.59601499793513
 20
-8.299611833511762
 30
0.0
 11
8.650329030518684
 21
6.203474596791088
 31
0.0
210
0.0
220
0.0
230
1.0
 40
0.4004711026506895
 41
6.160598876706522
 42
6.858730577504258
  0
LINE
  5
FB2A
330
1F
100
AcDbEntity
  8
AM_0
100
AcDbLine
 10
-98.48567109791526
 20
-1.542016457230346
 30
0.0
 11
-93.69148373702006
 21
-1.210002959587627
 31
0.0
  0
LINE
  5
FB2B
330
1F
100
AcDbEntity
  8
AM_0
100
AcDbLine
 10
-90.70681993257909
 20
-2.56629198673383
 30
0.0
 11
-89.62706291778392
 21
-5.784885567221153
 31
0.0
  0
ELLIPSE
  5
FB2C
330
1F
100
AcDbEntity
  8
AM_0
100
AcDbEllipse
 10
-90.66435121613228
 20
-4.999999999999744
 30
0.0
 11
1.427748863791326
 21
-0.809505112541242
 31
0.0
210
0.0
220
0.0
230
1.0
 40
0.8844797096074629
 41
5.282434148219294
 42
6.853230475014192
  0
ELLIPSE
  5
FB2D
330
1F
100
AcDbEntity
  8
AM_0
100
AcDbEllipse
 10
-90.22776177075645
 20
-5.784885567220925
 30
0.0
 11
-0.5923352606462963
 21
0.2784625059196989
 31
0.0
210
0.0
220
0.0
230
1.0
 40
0.7010917929256416
 41
2.161475216630493
 42
3.732271543425391
  0
ELLIPSE
  5
FB2E
330
1F
100
AcDbEntity
  8
AM_0
100
AcDbEllipse
 10
-96.26332280822186
 20
-5.499999999999744
 30
0.0
 11
-3.029471007820854E-16
 21
-0.9999999999999997
 31
0.0
210
0.0
220
0.0
230
1.0
 40
0.2648460584760625
 41
5.614900409807595
 42
6.283185307179586
  0
LINE
  5
FB2F
330
1F
100
AcDbEntity
  8
AM_0
100
AcDbLine
 10
-96.26332280822186
 20
-6.499999999999744
 30
0.0
 11
-90.49661381968923
 21
-6.499999999999744
 31
0.0
  0
LINE
  5
FB30
330
1F
100
AcDbEntity
  8
AM_0
100
AcDbLine
 10
-90.0600243743134
 20
-6.284885567220925
 30
0.0
 11
-96.42743221581765
 21
-6.284885567220925
 31
0.0
  0
LINE
  5
FB31
330
1F
100
AcDbEntity
  8
AM_0
100
AcDbLine
 10
-96.42743221581765
 20
6.284885567221892
 30
0.0
 11
-97.43309322966485
 21
3.287161043124826
 31
0.0
  0
LINE
  5
FB32
330
1F
100
AcDbEntity
  8
AM_0
100
AcDbLine
 10
-97.43309322966485
 20
3.287161043124826
 30
0.0
 11
-98.00515463248263
 21
3.372524983312843
 31
0.0
  0
LINE
  5
FB33
330
1F
100
AcDbEntity
  8
AM_0
100
AcDbLine
 10
-98.00515463248263
 20
3.372524983312843
 30
0.0
 11
-98.52846491846645
 21
1.812615574073817
 31
0.0
  0
LINE
  5
FB34
330
1F
100
AcDbEntity
  8
AM_0
100
AcDbLine
 10
-90.49661381968923
 20
-6.499999999999744
 30
0.0
 11
-89.64171712652438
 21
-6.499999999999744
 31
0.0
  0
LINE
  5
FB35
330
1F
100
AcDbEntity
  8
AM_0
100
AcDbLine
 10
-98.52846491846645
 20
-1.812615574072851
 30
0.0
 11
-98.00515463248263
 21
-3.372524983312104
 31
0.0
  0
LINE
  5
FB36
330
1F
100
AcDbEntity
  8
AM_0
100
AcDbLine
 10
-98.00515463248263
 20
-3.372524983312104
 30
0.0
 11
-97.43309322966485
 21
-3.287161043124087
 31
0.0
  0
LINE
  5
FB37
330
1F
100
AcDbEntity
  8
AM_0
100
AcDbLine
 10
-97.43309322966485
 20
-3.287161043124087
 30
0.0
 11
-96.42743221581765
 21
-6.284885567220925
 31
0.0
  0
LINE
  5
FB38
330
1F
100
AcDbEntity
  8
AM_0
100
AcDbLine
 10
-98.46560216698941
 20
-1.999999999999744
 30
0.0
 11
-98.74193696867729
 21
-1.999999999999744
 31
0.0
  0
LINE
  5
FB39
330
1F
100
AcDbEntity
  8
AM_0
100
AcDbLine
 10
-98.46560216698941
 20
2.000000000000028
 30
0.0
 11
-98.74193696867729
 21
2.000000000000028
 31
0.0
  0
LINE
  5
FB3A
330
1F
100
AcDbEntity
  8
AM_0
100
AcDbLine
 10
-88.14171712652438
 20
5.000000000000028
 30
0.0
 11
-88.14171712652438
 21
3.778692131279087
 31
0.0
  0
LINE
  5
FB3B
330
1F
100
AcDbEntity
  8
AM_0
100
AcDbLine
 10
-88.14171712652438
 20
-3.778692131278575
 30
0.0
 11
-88.14171712652438
 21
-4.999999999999744
 31
0.0
  0
ELLIPSE
  5
FB3C
330
1F
100
AcDbEntity
  8
AM_0
100
AcDbEllipse
 10
-91.14340937795492
 20
1.781406419513615
 30
0.0
 11
0.9480724607091976
 21
-0.3180544123963811
 31
0.0
210
0.0
220
0.0
230
1.0
 40
0.8951496342466802
 41
0.3585685845535476
 42
1.40576613575014
  0
ELLIPSE
  5
FB3D
330
1F
100
AcDbEntity
  8
AM_0
100
AcDbEllipse
 10
-94.1280731823968
 20
0.425117392367639
 30
0.0
 11
0.06908786673843198
 21
0.9976105786676118
 31
0.0
210
0.0
220
0.0
230
1.0
 40
0.6551647656140452
 41
4.757730233200579
 42
5.66197250630817
  0
ELLIPSE
  5
FB3E
330
1F
100
AcDbEntity
  8
AM_0
100
AcDbEllipse
 10
-90.06365236315975
 20
5.000000000000028
 30
0.0
 11
0.9480724607091996
 21
-0.3180544123963756
 31
0.0
210
0.0
220
0.0
230
1.0
 40
0.8951496342466796
 41
0.3585685845535415
 42
1.405766135750138
  0
ELLIPSE
  5
FB3F
330
1F
100
AcDbEntity
  8
AM_0
100
AcDbEllipse
 10
-90.49661381968923
 20
5.500000000000028
 30
0.0
 11
2.191499569330235E-16
 21
0.9999999999999998
 31
0.0
210
0.0
220
0.0
230
1.0
 40
0.7045847978729137
 41
5.614900409807593
 42
6.283185307179588
  0
ELLIPSE
  5
FB40
330
1F
100
AcDbEntity
  8
AM_0
100
AcDbEllipse
 10
-89.64171712652438
 20
5.000000000000028
 30
0.0
 11
3.287249353995353E-16
 21
1.5
 31
0.0
210
0.0
220
0.0
230
1.0
 40
0.9876883405951379
 41
4.71238898038469
 42
6.283185307179586
  0
ELLIPSE
  5
FB41
330
1F
100
AcDbEntity
  8
AM_0
100
AcDbEllipse
 10
-89.17700863839269
 20
0.0000000000000284
 30
0.0
 11
9.861748061986058E-16
 21
4.499999999999999
 31
0.0
210
0.0
220
0.0
230
1.0
 40
0.1564344650402308
 41
0.7653918169748407
 42
2.376200836614812
  0
ELLIPSE
  5
FB42
330
1F
100
AcDbEntity
  8
AM_0
100
AcDbEllipse
 10
-89.17700863839269
 20
0.0000000000000284
 30
0.0
 11
9.861748061986058E-16
 21
4.499999999999999
 31
0.0
210
0.0
220
0.0
230
1.0
 40
0.1564344650402308
 41
3.034319844567607
 42
3.141592653589792
  0
ELLIPSE
  5
FB43
330
1F
100
AcDbEntity
  8
AM_0
100
AcDbEllipse
 10
-89.17700863839269
 20
0.0000000000000284
 30
0.0
 11
9.861748061986058E-16
 21
4.499999999999999
 31
0.0
210
0.0
220
0.0
230
1.0
 40
0.1564344650402308
 41
0.0000000000000003
 42
0.1072728090223284
  0
ELLIPSE
  5
FB44
330
1F
100
AcDbEntity
  8
AM_0
100
AcDbEllipse
 10
-89.02057417335305
 20
0.0000000000000284
 30
0.0
 11
9.861748061986058E-16
 21
4.499999999999999
 31
0.0
210
0.0
220
0.0
230
1.0
 40
0.1564344650402308
 41
5.922188066425278
 42
6.283185307179586
  0
ELLIPSE
  5
FB45
330
1F
100
AcDbEntity
  8
AM_0
100
AcDbEllipse
 10
-89.02057417335305
 20
0.0000000000000284
 30
0.0
 11
9.861748061986058E-16
 21
4.499999999999999
 31
0.0
210
0.0
220
0.0
230
1.0
 40
0.1564344650402308
 41
3.141592653589794
 42
3.502589894344075
  0
ELLIPSE
  5
FB46
330
1F
100
AcDbEntity
  8
AM_0
100
AcDbEllipse
 10
-94.1280731823968
 20
-0.4251173923666727
 30
0.0
 11
-0.06908786673843445
 21
0.9976105786676188
 31
0.0
210
0.0
220
0.0
230
1.0
 40
0.6551647656140445
 41
3.7628054544612
 42
4.667047727568798
  0
ELLIPSE
  5
FB47
330
1F
100
AcDbEntity
  8
AM_0
100
AcDbEllipse
 10
-91.14340937795492
 20
-1.781406419512422
 30
0.0
 11
0.9480724607091976
 21
0.3180544123963814
 31
0.0
210
0.0
220
0.0
230
1.0
 40
0.8951496342466805
 41
4.877419171429445
 42
5.924616722626051
  0
ELLIPSE
  5
FB48
330
1F
100
AcDbEntity
  8
AM_0
100
AcDbEllipse
 10
-90.06365236315975
 20
-4.999999999999744
 30
0.0
 11
0.9480724607091979
 21
0.3180544123963767
 31
0.0
210
0.0
220
0.0
230
1.0
 40
0.8951496342466797
 41
4.877419171429447
 42
5.924616722626054
  0
ELLIPSE
  5
FB49
330
1F
100
AcDbEntity
  8
AM_0
100
AcDbEllipse
 10
-90.49661381968923
 20
-5.499999999999744
 30
0.0
 11
2.191499569330240E-16
 21
1.000000000000002
 31
0.0
210
0.0
220
0.0
230
1.0
 40
0.7045847978729151
 41
3.141592653589809
 42
3.809877550961785
  0
LINE
  5
FB4A
330
1F
100
AcDbEntity
  8
AM_0
100
AcDbLine
 10
-88.16018461563141
 20
-4.999999999999744
 30
0.0
 11
-88.14171712652438
 21
-4.999999999999744
 31
0.0
  0
ELLIPSE
  5
FB4B
330
1F
100
AcDbEntity
  8
AM_0
100
AcDbEllipse
 10
-89.64171712652438
 20
-4.999999999999744
 30
0.0
 11
3.287249353995353E-16
 21
1.5
 31
0.0
210
0.0
220
0.0
230
1.0
 40
0.9876883405951379
 41
3.141592653589793
 42
4.71238898038469
  0
LINE
  5
FB4C
330
1F
100
AcDbEntity
  8
AM_0
100
AcDbLine
 10
-88.14171712652438
 20
5.000000000000028
 30
0.0
 11
-88.16018461563141
 21
5.000000000000028
 31
0.0
  0
ARC
  5
FB4D
330
1F
100
AcDbEntity
  8
AM_0
100
AcDbCircle
 10
-89.64171712652441
 20
-4.999999999999744
 30
0.0
 40
1.5
100
AcDbArc
 50
270.0
 51
0.0
  0
ARC
  5
FB4E
330
1F
100
AcDbEntity
  8
AM_0
100
AcDbCircle
 10
-89.64171712652441
 20
5.000000000000028
 30
0.0
 40
1.5
100
AcDbArc
 50
0.0
 51
90.0
  0
LINE
  5
FB4F
330
1F
100
AcDbEntity
  8
AM_0
100
AcDbLine
 10
-87.05845130485483
 20
0.0000000000000284
 30
0.0
 11
-87.23908626585813
 21
-1.999999999999744
 31
0.0
  0
LINE
  5
FB50
330
1F
100
AcDbEntity
  8
AM_0
100
AcDbLine
 10
-87.05845130485483
 20
0.0000000000000284
 30
0.0
 11
-87.78099114886715
 21
0.0000000000000284
 31
0.0
  0
LINE
  5
FB51
330
1F
100
AcDbEntity
  8
AM_0
100
AcDbLine
 10
-87.23908626585813
 20
2.000000000000028
 30
0.0
 11
-87.05845130485483
 21
0.0000000000000284
 31
0.0
  0
LINE
  5
FB52
330
1F
100
AcDbEntity
  8
AM_0
100
AcDbLine
 10
-87.60035618786384
 20
2.000000000000028
 30
0.0
 11
-87.23908626585813
 21
2.000000000000028
 31
0.0
  0
LINE
  5
FB53
330
1F
100
AcDbEntity
  8
AM_0
100
AcDbLine
 10
-87.78099114886715
 20
0.0000000000000284
 30
0.0
 11
-87.60035618786384
 21
2.000000000000028
 31
0.0
  0
LINE
  5
FB54
330
1F
100
AcDbEntity
  8
AM_0
100
AcDbLine
 10
-87.60035618786384
 20
-1.999999999999744
 30
0.0
 11
-87.78099114886715
 21
0.0000000000000284
 31
0.0
  0
LINE
  5
FB55
330
1F
100
AcDbEntity
  8
AM_0
100
AcDbLine
 10
-87.23908626585813
 20
-1.999999999999744
 30
0.0
 11
-87.60035618786384
 21
-1.999999999999744
 31
0.0
  0
ARC
  5
FB56
330
1F
100
AcDbEntity
  8
AM_0
100
AcDbCircle
 10
-89.07224460285906
 20
-3.133038772174785
 30
0.0
 40
1.11699588523976
100
AcDbArc
 50
270.4513475082726
 51
316.1290003805019
  0
ARC
  5
FB57
330
1F
100
AcDbEntity
  8
AM_0
100
AcDbCircle
 10
-89.07224460285906
 20
3.133038772175524
 30
0.0
 40
1.116995885239764
100
AcDbArc
 50
43.87099961949816
 51
89.54865249172745
  0
LINE
  5
FB58
330
1F
100
AcDbEntity
  8
AM_0
100
AcDbLine
 10
-87.62742113617657
 20
-3.251328743454423
 30
0.0
 11
-88.267000050641
 21
-3.907158284114274
 31
0.0
  0
LINE
  5
FB59
330
1F
100
AcDbEntity
  8
AM_0
100
AcDbLine
 10
-87.62742113617657
 20
3.251328743454934
 30
0.0
 11
-88.267000050641
 21
3.907158284115241
 31
0.0
  0
LINE
  5
FB5A
330
1F
100
AcDbEntity
  8
AM_0
100
AcDbLine
 10
-89.06344555867742
 20
-4.249999999999744
 30
0.0
 11
-89.43220164152132
 21
-4.249999999999744
 31
0.0
  0
LINE
  5
FB5B
330
1F
100
AcDbEntity
  8
AM_0
100
AcDbLine
 10
-89.06344555867742
 20
4.250000000000028
 30
0.0
 11
-89.43220164152132
 21
4.250000000000028
 31
0.0
  0
ARC
  5
FB5C
330
1F
100
AcDbEntity
  8
AM_0
100
AcDbCircle
 10
-95.77975310773363
 20
0.0000000000000284
 30
0.0
 40
8.776767922901785
100
AcDbArc
 50
338.2568026169773
 51
21.74319738302241
  0
ELLIPSE
  5
FB5D
330
1F
100
AcDbEntity
  8
AM_0
100
AcDbEllipse
 10
-89.06344555867742
 20
0.0000000000000284
 30
0.0
 11
-9.313873169653499E-16
 21
-4.249999999999999
 31
0.0
210
0.0
220
0.0
230
1.0
 40
0.1564344650402308
 41
4.712388980384676
 42
6.283185307179573
  0
ELLIPSE
  5
FB5E
330
1F
100
AcDbEntity
  8
AM_0
100
AcDbEllipse
 10
-89.06344555867742
 20
0.0000000000000284
 30
0.0
 11
-9.313873169653499E-16
 21
-4.249999999999999
 31
0.0
210
0.0
220
0.0
230
1.0
 40
0.1564344650402308
 41
3.141592653589781
 42
4.712388980384676
  0
ELLIPSE
  5
FB5F
330
1F
100
AcDbEntity
  8
AM_0
100
AcDbEllipse
 10
-88.36504443534392
 20
0.0000000000000284
 30
0.0
 11
8.671997806764071E-16
 21
3.957106781186547
 31
0.0
210
0.0
220
0.0
230
1.0
 40
0.1564344650402309
 41
6.124131082473981
 42
7.853981633974462
  0
ELLIPSE
  5
FB60
330
1F
100
AcDbEntity
  8
AM_0
100
AcDbEllipse
 10
-88.36504443534392
 20
0.0000000000000284
 30
0.0
 11
8.671997806764071E-16
 21
3.957106781186547
 31
0.0
210
0.0
220
0.0
230
1.0
 40
0.1564344650402309
 41
1.570796326794876
 42
3.300646878295399
  0
ELLIPSE
  5
FB61
330
1F
100
AcDbEntity
  8
AM_0
100
AcDbEllipse
 10
-87.70900844412205
 20
0.0000000000000284
 30
0.0
 11
-7.216374070880133E-16
 21
-3.292893218813451
 31
0.0
210
0.0
220
0.0
230
1.0
 40
0.1564344650402308
 41
4.712388980384703
 42
6.442239531885198
  0
ELLIPSE
  5
FB62
330
1F
100
AcDbEntity
  8
AM_0
100
AcDbEllipse
 10
-87.70900844412205
 20
0.0000000000000284
 30
0.0
 11
-7.216374070880133E-16
 21
-3.292893218813451
 31
0.0
210
0.0
220
0.0
230
1.0
 40
0.1564344650402308
 41
2.982538428884189
 42
4.712388980384702
  0
ELLIPSE
  5
FB63
330
1F
100
AcDbEntity
  8
AM_0
100
AcDbEllipse
 10
-87.41972122686144
 20
0.0000000000000284
 30
0.0
 11
5.666749864439326E-16
 21
2.585786437626904
 31
0.0
210
0.0
220
0.0
230
1.0
 40
0.1564344650402308
 41
0.0000000000000002
 42
6.283185307179585
  0
SPLINE
  5
FB64
330
1F
100
AcDbEntity
  8
AM_0
100
AcDbSpline
210
0.0
220
0.0
230
1.0
 70
     8
 71
     3
 72
    22
 73
    18
 74
     0
 42
0.0000000001
 43
0.0000000001
 40
0.0
 40
0.0
 40
0.0
 40
0.0
 40
0.5653838168161441
 40
0.5653838168161441
 40
1.130767633632288
 40
1.130767633632288
 40
1.696151450448432
 40
1.696151450448432
 40
2.261535267264577
 40
2.261535267264577
 40
2.84290313066558
 40
2.84290313066558
 40
3.424270994066584
 40
3.424270994066584
 40
4.005638857467587
 40
4.005638857467587
 40
4.58700672086859
 40
4.58700672086859
 40
4.58700672086859
 40
4.58700672086859
 10
114.4391055555045
 20
29.66479394838257
 30
0.0
 10
114.250644283232
 20
29.66479394838257
 30
0.0
 10
114.0560625740138
 20
29.67029013172646
 30
0.0
 10
113.6696757569955
 20
29.69307857799117
 30
0.0
 10
113.4778665235692
 20
29.71036092892496
 30
0.0
 10
113.1106356070815
 20
29.75509692905575
 30
0.0
 10
112.9348998668531
 20
29.78257232032115
 30
0.0
 10
112.6103402229939
 20
29.84434987081454
 30
0.0
 10
112.4615204804797
 20
29.87863437725332
 30
0.0
 10
112.1945298329549
 20
29.95040555554783
 30
0.0
 10
112.0678286561371
 20
29.99052406548231
 30
0.0
 10
111.8446671120939
 20
30.07471192398839
 30
0.0
 10
111.7481881434616
 20
30.11876098466678
 30
0.0
 10
111.5931621508682
 20
30.20685629907689
 30
0.0
 10
111.5345020335137
 20
30.25095591149398
 30
0.0
 10
111.4574627003541
 20
30.33568204620383
 30
0.0
 10
111.4391055555045
 20
30.37630504740059
 30
0.0
 10
111.4391055555045
 20
30.41381265149153
 30
0.0
  0
SPLINE
  5
FB65
330
1F
100
AcDbEntity
  8
AM_0
100
AcDbSpline
210
0.0
220
0.0
230
1.0
 70
     8
 71
     3
 72
    22
 73
    18
 74
     0
 42
0.0000000001
 43
0.0000000001
 40
4.548124682787284
 40
4.548124682787284
 40
4.548124682787284
 40
4.548124682787284
 40
5.129492546188287
 40
5.129492546188287
 40
5.710860409589291
 40
5.710860409589291
 40
6.292228272990295
 40
6.292228272990295
 40
6.873596136391298
 40
6.873596136391298
 40
7.438979953207442
 40
7.438979953207442
 40
8.004363770023586
 40
8.004363770023586
 40
8.56974758683973
 40
8.56974758683973
 40
9.135131403655874
 40
9.135131403655874
 40
9.135131403655874
 40
9.135131403655874
 10
111.4391055555045
 20
30.41381265149107
 30
0.0
 10
111.4391055555045
 20
30.37630504740059
 30
0.0
 10
111.4574627003541
 20
30.33568204620383
 30
0.0
 10
111.5345020335137
 20
30.25095591149398
 30
0.0
 10
111.5931621508682
 20
30.20685629907689
 30
0.0
 10
111.7481881434616
 20
30.11876098466678
 30
0.0
 10
111.8446671120939
 20
30.07471192398839
 30
0.0
 10
112.0678286561371
 20
29.99052406548231
 30
0.0
 10
112.1945298329549
 20
29.95040555554783
 30
0.0
 10
112.4615204804797
 20
29.87863437725332
 30
0.0
 10
112.6103402229939
 20
29.84434987081454
 30
0.0
 10
112.9348998668531
 20
29.78257232032115
 30
0.0
 10
113.1106356070815
 20
29.75509692905575
 30
0.0
 10
113.4778665235692
 20
29.71036092892496
 30
0.0
 10
113.6696757569955
 20
29.69307857799117
 30
0.0
 10
114.0560625740138
 20
29.67029013172646
 30
0.0
 10
114.250644283232
 20
29.66479394838257
 30
0.0
 10
114.4391055555045
 20
29.66479394838257
 30
0.0
  0
ARC
  5
FB66
330
1F
100
AcDbEntity
  8
AM_0
100
AcDbCircle
 10
113.8319757343044
 20
-34.43034531717785
 30
0.0
 40
4.521335507167163
100
AcDbArc
 50
82.28294962582393
 51
121.9540977775118
  0
ARC
  5
FB67
330
1F
100
AcDbEntity
  8
AM_0
100
AcDbCircle
 10
113.8319757343044
 20
-34.43034531717831
 30
0.0
 40
4.521335507167409
100
AcDbArc
 50
82.28294962582393
 51
121.9540977775118
  0
LINE
  5
FB68
330
1F
100
AcDbEntity
  8
AM_0
100
AcDbLine
 10
34.80499762709104
 20
6.499999999999773
 30
0.0
 11
34.80499762709104
 21
-6.5
 31
0.0
  0
LINE
  5
FB69
330
1F
100
AcDbEntity
  8
AM_0
100
AcDbLine
 10
14.77706874422955
 20
-4.024679150143356
 30
0.0
 11
9.98310912099322
 21
-8.097431238431454
 31
0.0
  0
LINE
  5
FB6A
330
1F
100
AcDbEntity
  8
AM_0
100
AcDbLine
 10
9.98310912099322
 20
-8.097431238431454
 30
0.0
 11
36.53666088086146
 21
-30.40952702595541
 31
0.0
  0
ELLIPSE
  5
FB6B
330
1F
100
AcDbEntity
  8
AM_0
100
AcDbEllipse
 10
0.4391055555049093
 20
-0.0000000000002274
 30
0.0
 11
-195.7262969549246
 21
6.686217623444451E-14
 31
0.0
210
0.0
220
0.0
230
1.0
 40
0.1583844403245377
 41
4.526898375116791
 42
4.529901122163967
  0
LINE
  5
FB6C
330
1F
100
AcDbEntity
  8
AM_0
100
AcDbLine
 10
35.95886420833421
 20
30.48525269832703
 30
0.0
 11
9.93843043089754
 21
8.13538842678804
 31
0.0
  0
LINE
  5
FB6D
330
1F
100
AcDbEntity
  8
AM_0
100
AcDbLine
 10
9.93843043089754
 20
8.13538842678804
 30
0.0
 11
14.77706874422955
 21
4.024679150143811
 31
0.0
  0
ARC
  5
FB6E
330
1F
100
AcDbEntity
  8
AM_0
100
AcDbCircle
 10
37.05692717675868
 20
-22.77309290052401
 30
0.0
 40
7.706363368786505
100
AcDbArc
 50
266.6302594534582
 51
295.8942990079866
  0
ARC
  5
FB6F
330
1F
100
AcDbEntity
  8
AM_0
100
AcDbCircle
 10
37.01951862415325
 20
22.64649290861078
 30
0.0
 40
7.836619516873641
100
AcDbArc
 50
64.26388083426798
 51
93.53254947327875
  0
ELLIPSE
  5
FB70
330
1F
100
AcDbEntity
  8
AM_0
100
AcDbEllipse
 10
35.75448855566054
 20
-30.40952702595541
 30
0.0
 11
4.989779664431381
 21
-4.131631491040665
 31
0.0
210
0.0
220
0.0
230
1.0
 40
0.0773372906699563
 41
1.464024653451449
 42
1.477666109467608
  0
ELLIPSE
  5
FB71
330
1F
100
AcDbEntity
  8
AM_0
100
AcDbEllipse
 10
37.01986093487602
 20
-0.0000000000002274
 30
0.0
 11
3.872726395885903E-15
 21
30.99999999999999
 31
0.0
210
0.0
220
0.0
230
1.0
 40
0.3838640350354156
 41
3.431571582661011
 42
5.993206378108369
  0
ELLIPSE
  5
FB72
330
1F
100
AcDbEntity
  8
AM_0
100
AcDbEllipse
 10
0.3440568481680089
 20
-0.0000000000002274
 30
0.0
 11
-38.08570936763189
 21
30.90620635513641
 31
0.0
210
0.0
220
0.0
230
1.0
 40
0.0632691140415381
 41
2.877927661078751
 42
3.063783548851552
  0
SPLINE
  5
FB73
330
1F
100
AcDbEntity
  8
AM_0
100
AcDbSpline
210
0.0
220
0.0
230
1.0
 70
     8
 71
     3
 72
    26
 73
    22
 74
     0
 42
0.0000000001
 43
0.0000000001
 40
-3.178695967760164
 40
-3.178695967760164
 40
-3.178695967760164
 40
-3.178695967760164
 40
-2.985940191262535
 40
-2.985940191262535
 40
-2.793184414764905
 40
-2.793184414764905
 40
-2.454564954443052
 40
-2.454564954443052
 40
-2.115945494121199
 40
-2.115945494121199
 40
-1.60365369899743
 40
-1.60365369899743
 40
-1.091361903873661
 40
-1.091361903873661
 40
-0.8170010649551092
 40
-0.8170010649551092
 40
-0.542640226036557
 40
-0.542640226036557
 40
-0.2713201130182785
 40
-0.2713201130182785
 40
0.0
 40
0.0
 40
0.0
 40
0.0
 10
32.75330432578511
 20
-6.5
 30
0.0
 10
32.75330432578511
 20
-6.56425192549932
 30
0.0
 10
32.75879638761279
 20
-6.633758843383703
 30
0.0
 10
32.78177380951519
 20
-6.767696949087849
 30
0.0
 10
32.79924534476749
 20
-6.832195889670402
 30
0.0
 10
32.85469129097027
 20
-6.986795120075158
 30
0.0
 10
32.90619561899501
 20
-7.082498418248406
 30
0.0
 10
33.03452633483056
 20
-7.246897308281632
 30
0.0
 10
33.11143132479327
 20
-7.31554699499884
 30
0.0
 10
33.30858759862866
 20
-7.442393355665217
 30
0.0
 10
33.45294022546631
 20
-7.491497132794166
 30
0.0
 10
33.75189214659594
 20
-7.506414859804863
 30
0.0
 10
33.90626314202899
 20
-7.472133151970866
 30
0.0
 10
34.11357513962201
 20
-7.365620069000897
 30
0.0
 10
34.18829007980429
 20
-7.3141204849519
 30
0.0
 10
34.32168410074581
 20
-7.188222698748632
 30
0.0
 10
34.38030415656039
 20
-7.113786468571561
 30
0.0
 10
34.47012691280696
 20
-6.963043243262973
 30
0.0
 10
34.50892896100839
 20
-6.874495541941542
 30
0.0
 10
34.56000315284354
 20
-6.688196797579849
 30
0.0
 10
34.5722465419355
 20
-6.590440037672806
 30
0.0
 10
34.5722465419355
 20
-6.5
 30
0.0
  0
LINE
  5
FB74
330
1F
100
AcDbEntity
  8
AM_0
100
AcDbLine
 10
34.5722465419355
 20
-6.5
 30
0.0
 11
34.80499762709104
 21
-6.5
 31
0.0
  0
LINE
  5
FB75
330
1F
100
AcDbEntity
  8
AM_0
100
AcDbLine
 10
34.5722465419355
 20
-6.5
 30
0.0
 11
34.5722465419355
 21
6.499999999999773
 31
0.0
  0
LINE
  5
FB76
330
1F
100
AcDbEntity
  8
AM_0
100
AcDbLine
 10
34.5722465419355
 20
6.499999999999773
 30
0.0
 11
34.80499762709104
 21
6.499999999999773
 31
0.0
  0
SPLINE
  5
FB77
330
1F
100
AcDbEntity
  8
AM_0
100
AcDbSpline
210
0.0
220
0.0
230
1.0
 70
     8
 71
     3
 72
    26
 73
    22
 74
     0
 42
0.0000000001
 43
0.0000000001
 40
0.0
 40
0.0
 40
0.0
 40
0.0
 40
0.2713201130182791
 40
0.2713201130182791
 40
0.5426402260365582
 40
0.5426402260365582
 40
0.8170010649551114
 40
0.8170010649551114
 40
1.091361903873665
 40
1.091361903873665
 40
1.603653698997454
 40
1.603653698997454
 40
2.115945494121243
 40
2.115945494121243
 40
2.454564954443121
 40
2.454564954443121
 40
2.793184414765
 40
2.793184414765
 40
2.985940191262638
 40
2.985940191262638
 40
3.178695967760276
 40
3.178695967760276
 40
3.178695967760276
 40
3.178695967760276
 10
34.5722465419355
 20
6.499999999999773
 30
0.0
 10
34.5722465419355
 20
6.590440037672806
 30
0.0
 10
34.56000315284354
 20
6.688196797579394
 30
0.0
 10
34.50892896100839
 20
6.874495541941315
 30
0.0
 10
34.47012691280696
 20
6.963043243262973
 30
0.0
 10
34.38030415656039
 20
7.113786468571334
 30
0.0
 10
34.32168410074581
 20
7.188222698748859
 30
0.0
 10
34.18829007980429
 20
7.3141204849519
 30
0.0
 10
34.11357513962201
 20
7.365620069000897
 30
0.0
 10
33.90626314202899
 20
7.472133151971093
 30
0.0
 10
33.75189214659594
 20
7.506414859804636
 30
0.0
 10
33.45294022546631
 20
7.491497132794166
 30
0.0
 10
33.30858759862866
 20
7.442393355665217
 30
0.0
 10
33.11143132479327
 20
7.315546994998613
 30
0.0
 10
33.03452633483056
 20
7.246897308281632
 30
0.0
 10
32.90619561899501
 20
7.082498418247951
 30
0.0
 10
32.85469129097027
 20
6.986795120075158
 30
0.0
 10
32.79924534476749
 20
6.832195889670174
 30
0.0
 10
32.78177380951519
 20
6.767696949087394
 30
0.0
 10
32.75879638761279
 20
6.633758843383703
 30
0.0
 10
32.75330432578511
 20
6.564251925499093
 30
0.0
 10
32.75330432578511
 20
6.499999999999773
 30
0.0
  0
LINE
  5
FB78
330
1F
100
AcDbEntity
  8
AM_0
100
AcDbLine
 10
32.75330432578511
 20
-6.5
 30
0.0
 11
32.9597978196386
 21
-6.5
 31
0.0
  0
LINE
  5
FB79
330
1F
100
AcDbEntity
  8
AM_0
100
AcDbLine
 10
32.75330432578511
 20
6.499999999999773
 30
0.0
 11
32.9597978196386
 21
6.499999999999773
 31
0.0
  0
LINE
  5
FB7A
330
1F
100
AcDbEntity
  8
AM_0
100
AcDbLine
 10
32.9597978196386
 20
6.499999999999773
 30
0.0
 11
32.9597978196386
 21
6.490358615046034
 31
0.0
  0
LINE
  5
FB7B
330
1F
100
AcDbEntity
  8
AM_0
100
AcDbLine
 10
32.9597978196386
 20
-6.490358615045807
 30
0.0
 11
32.9597978196386
 21
-6.5
 31
0.0
  0
ELLIPSE
  5
FB7C
330
1F
100
AcDbEntity
  8
AM_0
100
AcDbEllipse
 10
0.4676469483326287
 20
-0.0000000000002274
 30
0.0
 11
37.26695721662989
 21
30.90540088557121
 31
0.0
210
0.0
220
0.0
230
1.0
 40
0.0649357514730267
 41
0.0781426596482591
 42
0.2606305178689827
  0
LINE
  5
FB7F
330
1F
100
AcDbEntity
  8
AM_0
100
AcDbLine
 10
111.4391055555045
 20
30.99999999999977
 30
0.0
 11
111.4391055555045
 21
30.41381265149107
 31
0.0
  0
LINE
  5
FB80
330
1F
100
AcDbEntity
  8
AM_0
100
AcDbLine
 10
111.4391055555045
 20
-30.59411708155653
 30
0.0
 11
111.4391055555045
 21
-31.0
 31
0.0
  0
ELLIPSE
  5
FB81
330
1F
100
AcDbEntity
  8
AM_0
100
AcDbEllipse
 10
33.04691238083132
 20
6.499999999999773
 30
0.0
 11
2.257596567122379E-17
 21
1.780000000000008
 31
0.0
210
0.0
220
0.0
230
1.0
 40
0.9876883405951378
 41
4.71238898038469
 42
7.853981633974483
  0
ELLIPSE
  5
FB82
330
1F
100
AcDbEntity
  8
AM_0
100
AcDbEllipse
 10
33.04691238083132
 20
-6.5
 30
0.0
 11
2.257596567122379E-17
 21
1.780000000000008
 31
0.0
210
0.0
220
0.0
230
1.0
 40
0.9876883405951378
 41
1.570796326794897
 42
4.71238898038469
  0
ELLIPSE
  5
FB83
330
1F
100
AcDbEntity
  8
AM_0
100
AcDbEllipse
 10
33.94748616023361
 20
-6.5
 30
0.0
 11
-1.268312678158634E-17
 21
-0.9999999999999998
 31
0.0
210
0.0
220
0.0
230
1.0
 40
0.9876883405951378
 41
4.71238898038469
 42
6.123570681053236
  0
ELLIPSE
  5
FB84
330
1F
100
AcDbEntity
  8
AM_0
100
AcDbEllipse
 10
33.94748616023361
 20
6.499999999999773
 30
0.0
 11
-1.268312678158634E-17
 21
-0.9999999999999998
 31
0.0
210
0.0
220
0.0
230
1.0
 40
0.9876883405951378
 41
3.301207279716143
 42
4.71238898038469
  0
ELLIPSE
  5
FB85
330
1F
100
AcDbEntity
  8
AM_0
100
AcDbEllipse
 10
33.45364198993565
 20
-0.0000000000002274
 30
0.0
 11
-1.902469017237951E-17
 21
-1.5
 31
0.0
210
0.0
220
0.0
230
1.0
 40
0.9876883405951379
 41
0.6476486847413785
 42
0.8557030219316595
  0
ELLIPSE
  5
FB86
330
1F
100
AcDbEntity
  8
AM_0
100
AcDbEllipse
 10
33.45364198993565
 20
-0.0000000000002274
 30
0.0
 11
-1.902469017237951E-17
 21
-1.5
 31
0.0
210
0.0
220
0.0
230
1.0
 40
0.9876883405951379
 41
2.285889631658126
 42
2.493943968848414
  0
LINE
  5
FB87
330
1F
100
AcDbEntity
  8
AM_0
100
AcDbLine
 10
14.77706874423046
 20
-4.024679150143356
 30
0.0
 11
10.26512037165111
 21
-7.857846010289222
 31
0.0
  0
LINE
  5
FB88
330
1F
100
AcDbEntity
  8
AM_0
100
AcDbLine
 10
10.26512037165111
 20
7.857846010289677
 30
0.0
 11
14.77706874422955
 21
4.024679150143811
 31
0.0
  0
LINE
  5
FB89
330
1F
100
AcDbEntity
  8
AM_0
100
AcDbLine
 10
0.7213571659273725
 20
0.61283555449495
 30
0.0
 11
9.24932224754474
 21
7.857846010289222
 31
0.0
  0
LINE
  5
FB8A
330
1F
100
AcDbEntity
  8
AM_0
100
AcDbLine
 10
9.24932224754474
 20
-7.857846010289222
 30
0.0
 11
0.7213571659273725
 21
-0.6128355544954047
 31
0.0
  0
LINE
  5
FB8B
330
1F
100
AcDbEntity
  8
AM_0
100
AcDbLine
 10
9.757221309597924
 20
8.045010455793772
 30
0.0
 11
10.04481263496535
 21
8.045010455793772
 31
0.0
  0
LINE
  5
FB8C
330
1F
100
AcDbEntity
  8
AM_0
100
AcDbLine
 10
9.757221309597924
 20
-8.045010455794227
 30
0.0
 11
10.04481263496444
 21
-8.045010455794227
 31
0.0
  0
ELLIPSE
  5
FB8D
330
1F
100
AcDbEntity
  8
AM_0
100
AcDbEllipse
 10
9.757221309597924
 20
-0.0000000000002274
 30
0.0
 11
7.942867110859296E-16
 21
2.579999999999999
 31
0.0
210
0.0
220
0.0
230
1.0
 40
0.9876883405951377
 41
5.896738444227195
 42
7.068583470577043
  0
ELLIPSE
  5
FB8E
330
1F
100
AcDbEntity
  8
AM_0
100
AcDbEllipse
 10
9.757221309597924
 20
-0.0000000000002274
 30
0.0
 11
7.942867110859296E-16
 21
2.579999999999999
 31
0.0
210
0.0
220
0.0
230
1.0
 40
0.9876883405951377
 41
0.7853981633974564
 42
3.528039516542329
  0
ELLIPSE
  5
FB8F
330
1F
100
AcDbEntity
  8
AM_0
100
AcDbEllipse
 10
10.50184936318937
 20
-0.0000000000002274
 30
0.0
 11
-7.942867110859296E-16
 21
-2.579999999999999
 31
0.0
210
0.0
220
0.0
230
1.0
 40
0.9876883405951377
 41
3.926990816987249
 42
6.136553846442834
  0
ELLIPSE
  5
FB90
330
1F
100
AcDbEntity
  8
AM_0
100
AcDbEllipse
 10
10.50184936318937
 20
-0.0000000000002274
 30
0.0
 11
-7.942867110859296E-16
 21
-2.579999999999999
 31
0.0
210
0.0
220
0.0
230
1.0
 40
0.9876883405951377
 41
3.288224114326545
 42
3.926990816987249
  0
ELLIPSE
  5
FB91
330
1F
100
AcDbEntity
  8
AM_0
100
AcDbEllipse
 10
9.757221309597924
 20
7.245010455794045
 30
0.0
 11
2.462904530499006E-16
 21
0.7999999999999998
 31
0.0
210
0.0
220
0.0
230
1.0
 40
0.9876883405951378
 41
5.585053606381942
 42
6.981317007977358
  0
ELLIPSE
  5
FB92
330
1F
100
AcDbEntity
  8
AM_0
100
AcDbEllipse
 10
1.229256227980557
 20
-0.0000000000002274
 30
0.0
 11
2.462904530499006E-16
 21
0.7999999999999998
 31
0.0
210
0.0
220
0.0
230
1.0
 40
0.9876883405951378
 41
0.6981317007977602
 42
2.443460952792099
  0
ELLIPSE
  5
FB93
330
1F
100
AcDbEntity
  8
AM_0
100
AcDbEllipse
 10
9.757221309597924
 20
-7.245010455794045
 30
0.0
 11
2.462904530499006E-16
 21
0.7999999999999998
 31
0.0
210
0.0
220
0.0
230
1.0
 40
0.9876883405951378
 41
2.443460952792099
 42
3.839724354387514
  0
ELLIPSE
  5
FB94
330
1F
100
AcDbEntity
  8
AM_0
100
AcDbEllipse
 10
20.01462805467025
 20
8.299611833512472
 30
0.0
 11
-8.655260910482674
 21
-6.221159005073538
 31
0.0
210
0.0
220
0.0
230
1.0
 40
0.3965619428574118
 41
0.4379110499973504
 42
1.136042750795087
  0
ELLIPSE
  5
FB95
330
1F
100
AcDbEntity
  8
AM_0
100
AcDbEllipse
 10
20.45433739338631
 20
7.514726266291063
 30
0.0
 11
9.729713277375602
 21
6.06177500419273
 31
0.0
210
0.0
220
0.0
230
1.0
 40
0.3809543443012059
 41
3.624148396648336
 42
4.322280097446073
  0
ARC
  5
FB96
330
1F
100
AcDbEntity
  8
AM_0
100
AcDbCircle
 10
25.09206500290082
 20
0.0463156020739746
 30
0.0
 40
4.455801297464422
100
AcDbArc
 50
96.42474726246739
 51
134.1211415110383
  0
LINE
  5
FB97
330
1F
100
AcDbEntity
  8
AM_0
100
AcDbLine
 10
24.59346907542903
 20
4.474133044515611
 30
0.0
 11
25.70731023062552
 21
4.999999999999773
 31
0.0
  0
LINE
  5
FB98
330
1F
100
AcDbEntity
  8
AM_0
100
AcDbLine
 10
25.42403535695001
 20
5.784885567221636
 30
0.0
 11
18.60671786930806
 21
2.566291986734314
 31
0.0
  0
LINE
  5
FB99
330
1F
100
AcDbEntity
  8
AM_0
100
AcDbLine
 10
18.88999274298357
 20
1.78140641951336
 30
0.0
 11
21.99003537075322
 21
3.244999294432773
 31
0.0
  0
ARC
  5
FB9A
330
1F
100
AcDbEntity
  8
AM_0
100
AcDbCircle
 10
10.08560206027568
 20
0.1885358563243074
 30
0.0
 40
1.701361507504607
100
AcDbArc
 50
127.2948514199189
 51
159.7616150378387
  0
LINE
  5
FB9B
330
1F
100
AcDbEntity
  8
AM_0
100
AcDbLine
 10
8.48928009130276
 20
0.777082498990012
 30
0.0
 11
12.90724159115842
 21
0.4251173923673832
 31
0.0
  0
LINE
  5
FB9C
330
1F
100
AcDbEntity
  8
AM_0
100
AcDbLine
 10
13.22224183266525
 20
1.210002959588337
 30
0.0
 11
9.054718341233354
 21
1.542016457231284
 31
0.0
  0
ELLIPSE
  5
FB9D
330
1F
100
AcDbEntity
  8
AM_0
100
AcDbEllipse
 10
24.82759867488375
 20
5.784885567221636
 30
0.0
 11
1.212797165876403
 21
0.4509226727143578
 31
0.0
210
0.0
220
0.0
230
1.0
 40
0.178125000854934
 41
5.159163600199706
 42
6.729959926994601
  0
ELLIPSE
  5
FB9E
330
1F
100
AcDbEntity
  8
AM_0
100
AcDbEllipse
 10
25.2673080135998
 20
4.999999999999773
 30
0.0
 11
1.110843120709007
 21
1.484768361962575
 31
0.0
210
0.0
220
0.0
230
1.0
 40
0.1919445970000269
 41
4.855018973293068
 42
6.425815300087964
  0
ELLIPSE
  5
FB9F
330
1F
100
AcDbEntity
  8
AM_0
100
AcDbEllipse
 10
20.60056810662053
 20
5.499999999999773
 30
0.0
 11
-1.67217220285895
 21
8.407508654217192E-16
 31
0.0
210
0.0
220
0.0
230
1.0
 40
0.5980245325752203
 41
4.712388980384691
 42
5.380673877756684
  0
LINE
  5
FBA0
330
1F
100
AcDbEntity
  8
AM_0
100
AcDbLine
 10
19.5644220858382
 20
6.284885567221636
 30
0.0
 11
25.88665091574029
 21
6.284885567221636
 31
0.0
  0
LINE
  5
FBA1
330
1F
100
AcDbEntity
  8
AM_0
100
AcDbLine
 10
26.32636025445635
 20
6.499999999999773
 30
0.0
 11
20.60056810662053
 21
6.499999999999773
 31
0.0
  0
LINE
  5
FBA2
330
1F
100
AcDbEntity
  8
AM_0
100
AcDbLine
 10
25.70731023062552
 20
4.999999999999773
 30
0.0
 11
31.48931384826
 21
4.999999999999773
 31
0.0
  0
LINE
  5
FBA3
330
1F
100
AcDbEntity
  8
AM_0
100
AcDbLine
 10
31.72396554582036
 20
6.499999999999773
 30
0.0
 11
26.32636025445635
 21
6.499999999999773
 31
0.0
  0
ARC
  5
FBA4
330
1F
100
AcDbEntity
  8
AM_0
100
AcDbCircle
 10
25.09206500290082
 20
-0.046315602073463
 30
0.0
 40
4.455801297464164
100
AcDbArc
 50
225.8788584889596
 51
263.5752527375457
  0
LINE
  5
FBA5
330
1F
100
AcDbEntity
  8
AM_0
100
AcDbLine
 10
18.88999274298357
 20
-1.781406419512678
 30
0.0
 11
18.88999274298357
 21
1.78140641951336
 31
0.0
  0
LINE
  5
FBA6
330
1F
100
AcDbEntity
  8
AM_0
100
AcDbLine
 10
21.99003537075322
 20
-3.244999294431864
 30
0.0
 11
18.88999274298357
 21
-1.781406419512678
 31
0.0
  0
LINE
  5
FBA7
330
1F
100
AcDbEntity
  8
AM_0
100
AcDbLine
 10
25.06933963439195
 20
4.499999999999773
 30
0.0
 11
26.05702797498697
 21
4.499999999999773
 31
0.0
  0
LINE
  5
FBA8
330
1F
100
AcDbEntity
  8
AM_0
100
AcDbLine
 10
26.05702797498697
 20
-4.5
 30
0.0
 11
25.06933963439195
 21
-4.5
 31
0.0
  0
LINE
  5
FBA9
330
1F
100
AcDbEntity
  8
AM_0
100
AcDbLine
 10
25.70731023062552
 20
-5.0
 30
0.0
 11
24.59346907542994
 21
-4.474133044515611
 31
0.0
  0
LINE
  5
FBAA
330
1F
100
AcDbEntity
  8
AM_0
100
AcDbLine
 10
31.48931384826
 20
-5.0
 30
0.0
 11
25.70731023062552
 21
-5.0
 31
0.0
  0
LINE
  5
FBAB
330
1F
100
AcDbEntity
  8
AM_0
100
AcDbLine
 10
31.48931384826
 20
4.999999999999773
 30
0.0
 11
31.48931384826
 21
-5.0
 31
0.0
  0
LINE
  5
FBAC
330
1F
100
AcDbEntity
  8
AM_0
100
AcDbLine
 10
12.90724159115842
 20
0.4251173923673832
 30
0.0
 11
12.90724159115842
 21
-0.4251173923669285
 31
0.0
  0
ELLIPSE
  5
FBAD
330
1F
100
AcDbEntity
  8
AM_0
100
AcDbEllipse
 10
20.45433739338631
 20
-7.514726266290609
 30
0.0
 11
-9.729713277375835
 21
6.06177500419234
 31
0.0
210
0.0
220
0.0
230
1.0
 40
0.3809543443012066
 41
5.102497863322781
 42
5.800629564120518
  0
ELLIPSE
  5
FBAE
330
1F
100
AcDbEntity
  8
AM_0
100
AcDbEllipse
 10
10.0675523433062
 20
-0.0000000000002274
 30
0.0
 11
1.315879596761149E-15
 21
2.0
 31
0.0
210
0.0
220
0.0
230
1.0
 40
0.8564242386764636
 41
1.171748398871885
 42
1.969844254717856
  0
LINE
  5
FBAF
330
1F
100
AcDbEntity
  8
AM_0
100
AcDbLine
 10
12.90724159115842
 20
-0.4251173923669285
 30
0.0
 11
8.48928009130276
 21
-0.777082498990012
 31
0.0
  0
ELLIPSE
  5
FBB0
330
1F
100
AcDbEntity
  8
AM_0
100
AcDbEllipse
 10
9.788175664134258
 20
-0.0000000000002274
 30
0.0
 11
-1.244526245592406
 21
-1.772265250489574
 31
0.0
210
0.0
220
0.0
230
1.0
 40
0.7447520434598948
 41
4.059788968142058
 42
4.313830133087718
  0
ELLIPSE
  5
FBB1
330
1F
100
AcDbEntity
  8
AM_0
100
AcDbEllipse
 10
9.788175664134258
 20
-0.0000000000002274
 30
0.0
 11
1.244526245592543
 21
-1.772265250489479
 31
0.0
210
0.0
220
0.0
230
1.0
 40
0.7447520434598948
 41
5.110947827681479
 42
5.364988992627219
  0
ARC
  5
FBB2
330
1F
100
AcDbEntity
  8
AM_0
100
AcDbCircle
 10
10.08560206027659
 20
-0.1885358563237958
 30
0.0
 40
1.701361507505086
100
AcDbArc
 50
200.238384962167
 51
232.7051485800664
  0
ELLIPSE
  5
FBB3
330
1F
100
AcDbEntity
  8
AM_0
100
AcDbEllipse
 10
20.01462805467025
 20
-8.299611833512017
 30
0.0
 11
8.655260910482413
 21
-6.221159005073877
 31
0.0
210
0.0
220
0.0
230
1.0
 40
0.3965619428574126
 41
2.005549902795212
 42
2.703681603592949
  0
LINE
  5
FBB4
330
1F
100
AcDbEntity
  8
AM_0
100
AcDbLine
 10
9.054718341233354
 20
-1.542016457230602
 30
0.0
 11
13.22224183266525
 21
-1.210002959587882
 31
0.0
  0
LINE
  5
FBB5
330
1F
100
AcDbEntity
  8
AM_0
100
AcDbLine
 10
18.60671786930806
 20
-2.566291986734086
 30
0.0
 11
25.42403535695001
 21
-5.784885567221409
 31
0.0
  0
ELLIPSE
  5
FBB6
330
1F
100
AcDbEntity
  8
AM_0
100
AcDbEllipse
 10
25.2673080135998
 20
-5.0
 30
0.0
 11
-1.11084312070904
 21
1.484768361962554
 31
0.0
210
0.0
220
0.0
230
1.0
 40
0.1919445970000276
 41
2.998962660679081
 42
4.569758987473978
  0
ELLIPSE
  5
FBB7
330
1F
100
AcDbEntity
  8
AM_0
100
AcDbEllipse
 10
24.82759867488375
 20
-5.784885567221181
 30
0.0
 11
1.21279716587641
 21
-0.4509226727143592
 31
0.0
210
0.0
220
0.0
230
1.0
 40
0.1781250008549332
 41
5.836410687364565
 42
7.407207014159464
  0
ELLIPSE
  5
FBB8
330
1F
100
AcDbEntity
  8
AM_0
100
AcDbEllipse
 10
20.60056810662053
 20
-5.5
 30
0.0
 11
-1.672172202858955
 21
1.284840075271784E-15
 31
0.0
210
0.0
220
0.0
230
1.0
 40
0.5980245325752185
 41
0.9025114294229065
 42
1.570796326794898
  0
LINE
  5
FBB9
330
1F
100
AcDbEntity
  8
AM_0
100
AcDbLine
 10
20.60056810662053
 20
-6.5
 30
0.0
 11
26.32636025445635
 21
-6.5
 31
0.0
  0
LINE
  5
FBBA
330
1F
100
AcDbEntity
  8
AM_0
100
AcDbLine
 10
25.88665091574029
 20
-6.284885567221181
 30
0.0
 11
19.56442208583911
 21
-6.284885567221181
 31
0.0
  0
LINE
  5
FBBB
330
1F
100
AcDbEntity
  8
AM_0
100
AcDbLine
 10
19.5644220858382
 20
6.284885567221636
 30
0.0
 11
13.21492833640849
 21
3.28716104312457
 31
0.0
  0
LINE
  5
FBBC
330
1F
100
AcDbEntity
  8
AM_0
100
AcDbLine
 10
13.21492833640849
 20
3.28716104312457
 30
0.0
 11
12.79930139863126
 21
3.372524983312587
 31
0.0
  0
LINE
  5
FBBD
330
1F
100
AcDbEntity
  8
AM_0
100
AcDbLine
 10
12.79930139863126
 20
3.372524983312587
 30
0.0
 11
9.49525028785564
 21
1.812615574073561
 31
0.0
  0
LINE
  5
FBBE
330
1F
100
AcDbEntity
  8
AM_0
100
AcDbLine
 10
34.34746965150742
 20
-5.0
 30
0.0
 11
34.34746965150742
 21
-0.0000000000002274
 31
0.0
  0
LINE
  5
FBBF
330
1F
100
AcDbEntity
  8
AM_0
100
AcDbLine
 10
34.34746965150742
 20
-0.0000000000002274
 30
0.0
 11
34.34746965150742
 21
4.999999999999773
 31
0.0
  0
LINE
  5
FBC0
330
1F
100
AcDbEntity
  8
AM_0
100
AcDbLine
 10
33.20549805671334
 20
4.999999999999773
 30
0.0
 11
34.34746965150742
 21
4.999999999999773
 31
0.0
  0
LINE
  5
FBC1
330
1F
100
AcDbEntity
  8
AM_0
100
AcDbLine
 10
33.20549805671334
 20
-5.0
 30
0.0
 11
33.20549805671334
 21
4.999999999999773
 31
0.0
  0
LINE
  5
FBC2
330
1F
100
AcDbEntity
  8
AM_0
100
AcDbLine
 10
34.34746965150742
 20
-5.0
 30
0.0
 11
33.20549805671334
 21
-5.0
 31
0.0
  0
ELLIPSE
  5
FBC3
330
1F
100
AcDbEntity
  8
AM_0
100
AcDbEllipse
 10
32.76360633107259
 20
4.999999999999773
 30
0.0
 11
1.733165649110599
 21
-3.712220825170511E-15
 31
0.0
210
0.0
220
0.0
230
1.0
 40
0.8654683415689368
 41
1.151993903726288
 42
1.570796326794899
  0
LINE
  5
FBC4
330
1F
100
AcDbEntity
  8
AM_0
100
AcDbLine
 10
32.76360633107259
 20
6.499999999999773
 30
0.0
 11
31.72396554582036
 21
6.499999999999773
 31
0.0
  0
LINE
  5
FBC5
330
1F
100
AcDbEntity
  8
AM_0
100
AcDbLine
 10
26.32636025445635
 20
-6.5
 30
0.0
 11
31.72396554582036
 21
-6.5
 31
0.0
  0
LINE
  5
FBC6
330
1F
100
AcDbEntity
  8
AM_0
100
AcDbLine
 10
31.72396554582036
 20
-6.5
 30
0.0
 11
32.76360633107259
 21
-6.5
 31
0.0
  0
ELLIPSE
  5
FBC7
330
1F
100
AcDbEntity
  8
AM_0
100
AcDbEllipse
 10
32.76360633107259
 20
-5.0
 30
0.0
 11
1.733165649110599
 21
1.616849693030240E-15
 31
0.0
210
0.0
220
0.0
230
1.0
 40
0.8654683415689368
 41
4.712388980384687
 42
5.131191403453299
  0
LINE
  5
FBC8
330
1F
100
AcDbEntity
  8
AM_0
100
AcDbLine
 10
9.49525028785564
 20
-1.812615574073107
 30
0.0
 11
12.79930139863126
 21
-3.37252498331236
 31
0.0
  0
LINE
  5
FBC9
330
1F
100
AcDbEntity
  8
AM_0
100
AcDbLine
 10
12.79930139863126
 20
-3.37252498331236
 30
0.0
 11
13.21492833640849
 21
-3.287161043124343
 31
0.0
  0
LINE
  5
FBCA
330
1F
100
AcDbEntity
  8
AM_0
100
AcDbLine
 10
13.21492833640849
 20
-3.287161043124343
 30
0.0
 11
19.56442208583911
 21
-6.284885567221181
 31
0.0
  0
ELLIPSE
  5
FBCB
330
1F
100
AcDbEntity
  8
AM_0
100
AcDbEllipse
 10
19.04642720802411
 20
1.78140641951336
 30
0.0
 11
0.4269308993585695
 21
-0.9042842513130941
 31
0.0
210
0.0
220
0.0
230
1.0
 40
0.1417777738268757
 41
3.598354972461994
 42
4.645552523658587
  0
ELLIPSE
  5
FBCC
330
1F
100
AcDbEntity
  8
AM_0
100
AcDbEllipse
 10
13.6619511713813
 20
0.4251173923673832
 30
0.0
 11
0.07941523887666603
 21
0.9968416222420474
 31
0.0
210
0.0
220
0.0
230
1.0
 40
0.7536808478867625
 41
0.7265254373343284
 42
1.630767710441919
  0
ELLIPSE
  5
FBCD
330
1F
100
AcDbEntity
  8
AM_0
100
AcDbEllipse
 10
25.86374469566607
 20
4.999999999999773
 30
0.0
 11
0.4269308993585713
 21
-0.9042842513130933
 31
0.0
210
0.0
220
0.0
230
1.0
 40
0.1417777738268737
 41
3.598354972462019
 42
4.645552523658616
  0
ELLIPSE
  5
FBCE
330
1F
100
AcDbEntity
  8
AM_0
100
AcDbEllipse
 10
26.32636025445635
 20
5.499999999999773
 30
0.0
 11
-6.626252334379401E-16
 21
0.9999999999999998
 31
0.0
210
0.0
220
0.0
230
1.0
 40
0.7096198014474973
 41
-0.0000000000000015
 42
0.6682848973719937
  0
ELLIPSE
  5
FBCF
330
1F
100
AcDbEntity
  8
AM_0
100
AcDbEllipse
 10
31.72396554582036
 20
4.999999999999773
 30
0.0
 11
1.003162191967443E-15
 21
1.5
 31
0.0
210
0.0
220
0.0
230
1.0
 40
0.1564344650402308
 41
0.0000000000000029
 42
1.570796326794899
  0
ELLIPSE
  5
FBD0
330
1F
100
AcDbEntity
  8
AM_0
100
AcDbEllipse
 10
25.06933963439195
 20
-0.0000000000002274
 30
0.0
 11
1.017087200174413E-15
 21
4.499999999999999
 31
0.0
210
0.0
220
0.0
230
1.0
 40
0.9876883405951378
 41
0.7653918169748406
 42
2.376200836614811
  0
ELLIPSE
  5
FBD1
330
1F
100
AcDbEntity
  8
AM_0
100
AcDbEllipse
 10
25.06933963439195
 20
-0.0000000000002274
 30
0.0
 11
1.017087200174413E-15
 21
4.499999999999999
 31
0.0
210
0.0
220
0.0
230
1.0
 40
0.9876883405951378
 41
3.034319844567607
 42
3.141592653589793
  0
ELLIPSE
  5
FBD2
330
1F
100
AcDbEntity
  8
AM_0
100
AcDbEllipse
 10
25.58557336902476
 20
-0.0000000000002274
 30
0.0
 11
-1.017087200174413E-15
 21
-4.499999999999999
 31
0.0
210
0.0
220
0.0
230
1.0
 40
0.9876883405951378
 41
3.141592653589793
 42
6.283185307179586
  0
ELLIPSE
  5
FBD3
330
1F
100
AcDbEntity
  8
AM_0
100
AcDbEllipse
 10
25.06933963439195
 20
-0.0000000000002274
 30
0.0
 11
1.017087200174413E-15
 21
4.499999999999999
 31
0.0
210
0.0
220
0.0
230
1.0
 40
0.9876883405951378
 41
0.0
 42
0.1072728090223282
  0
ELLIPSE
  5
FBD4
330
1F
100
AcDbEntity
  8
AM_0
100
AcDbEllipse
 10
26.05702797498697
 20
-0.0000000000002274
 30
0.0
 11
1.017087200174413E-15
 21
4.499999999999999
 31
0.0
210
0.0
220
0.0
230
1.0
 40
0.9876883405951378
 41
3.141592653589793
 42
6.283185307179586
  0
ELLIPSE
  5
FBD5
330
1F
100
AcDbEntity
  8
AM_0
100
AcDbEllipse
 10
13.6619511713813
 20
-0.4251173923669285
 30
0.0
 11
-0.07941523887666907
 21
0.9968416222420544
 31
0.0
210
0.0
220
0.0
230
1.0
 40
0.753680847886763
 41
1.510824943147868
 42
2.415067216255465
  0
ELLIPSE
  5
FBD6
330
1F
100
AcDbEntity
  8
AM_0
100
AcDbEllipse
 10
19.04642720802411
 20
-1.781406419512678
 30
0.0
 11
-0.4269308993585689
 21
-0.9042842513130946
 31
0.0
210
0.0
220
0.0
230
0.9999999999999999
 40
0.1417777738268757
 41
4.779225437110771
 42
5.826422988307378
  0
ELLIPSE
  5
FBD7
330
1F
100
AcDbEntity
  8
AM_0
100
AcDbEllipse
 10
25.86374469566607
 20
-5.0
 30
0.0
 11
-0.4269308993585689
 21
-0.9042842513130927
 31
0.0
210
0.0
220
0.0
230
1.0
 40
0.1417777738268738
 41
4.779225437110734
 42
5.826422988307341
  0
ELLIPSE
  5
FBD8
330
1F
100
AcDbEntity
  8
AM_0
100
AcDbEllipse
 10
26.32636025445635
 20
-5.5
 30
0.0
 11
2.116301494439737E-15
 21
1.000000000000002
 31
0.0
210
0.0
220
0.0
230
1.0
 40
0.7096198014474958
 41
2.473307756217801
 42
3.141592653589777
  0
ELLIPSE
  5
FBD9
330
1F
100
AcDbEntity
  8
AM_0
100
AcDbEllipse
 10
33.24383393422858
 20
-0.0000000000002274
 30
0.0
 11
-3.277280978339777E-16
 21
-1.45
 31
0.0
210
0.0
220
0.0
230
1.0
 40
0.9876883405951377
 41
0.8798065979545032
 42
1.187846669376159
  0
ELLIPSE
  5
FBDA
330
1F
100
AcDbEntity
  8
AM_0
100
AcDbEllipse
 10
33.24383393422858
 20
-0.0000000000002274
 30
0.0
 11
-3.277280978339777E-16
 21
-1.45
 31
0.0
210
0.0
220
0.0
230
1.0
 40
0.9876883405951377
 41
1.953745984213634
 42
2.261786055635298
  0
ELLIPSE
  5
FBDB
330
1F
100
AcDbEntity
  8
AM_0
100
AcDbEllipse
 10
31.72396554582036
 20
-5.0
 30
0.0
 11
-3.390290667248044E-16
 21
-1.5
 31
0.0
210
0.0
220
0.0
230
1.0
 40
0.9876883405951379
 41
0.0000000000000187
 42
1.570796326794897
  0
LINE
  5
FBDC
330
1F
100
AcDbEntity
  8
AM_0
100
AcDbLine
 10
31.48931384826
 20
-5.0
 30
0.0
 11
33.20549805671334
 21
-5.0
 31
0.0
  0
ELLIPSE
  5
FBDD
330
1F
100
AcDbEntity
  8
AM_0
100
AcDbEllipse
 10
31.72396554582036
 20
-5.0
 30
0.0
 11
1.003162191967443E-15
 21
1.5
 31
0.0
210
0.0
220
0.0
230
1.0
 40
0.1564344650402308
 41
1.570796326794899
 42
3.141592653589795
  0
LINE
  5
FBDE
330
1F
100
AcDbEntity
  8
AM_0
100
AcDbLine
 10
33.20549805671334
 20
4.999999999999773
 30
0.0
 11
31.48931384826
 21
4.999999999999773
 31
0.0
  0
ELLIPSE
  5
FBDF
330
1F
100
AcDbEntity
  8
AM_0
100
AcDbEllipse
 10
31.72396554582036
 20
4.999999999999773
 30
0.0
 11
-3.390290667248044E-16
 21
-1.5
 31
0.0
210
0.0
220
0.0
230
1.0
 40
0.9876883405951379
 41
1.570796326794897
 42
3.141592653589775
  0
ELLIPSE
  5
FBE0
330
1F
100
AcDbEntity
  8
AM_0
100
AcDbEllipse
 10
32.86593714061445
 20
4.999999999999773
 30
0.0
 11
-3.390290667248044E-16
 21
-1.5
 31
0.0
210
0.0
220
0.0
230
1.0
 40
0.9876883405951379
 41
1.570796326794897
 42
2.722790230521213
  0
ELLIPSE
  5
FBE1
330
1F
100
AcDbEntity
  8
AM_0
100
AcDbEllipse
 10
32.86593714061445
 20
-5.0
 30
0.0
 11
-3.390290667248044E-16
 21
-1.5
 31
0.0
210
0.0
220
0.0
230
1.0
 40
0.9876883405951379
 41
0.4188024230685804
 42
1.570796326794897
  0
LINE
  5
FBE2
330
1F
100
AcDbEntity
  8
AM_0
100
AcDbLine
 10
27.57821373139331
 20
-0.0000000000002274
 30
0.0
 11
26.4377294727571
 21
-2.0
 31
0.0
  0
LINE
  5
FBE3
330
1F
100
AcDbEntity
  8
AM_0
100
AcDbLine
 10
26.4377294727571
 20
1.999999999999773
 30
0.0
 11
27.57821373139331
 21
-0.0000000000002274
 31
0.0
  0
LINE
  5
FBE4
330
1F
100
AcDbEntity
  8
AM_0
100
AcDbLine
 10
24.15676095548469
 20
1.999999999999773
 30
0.0
 11
26.4377294727571
 21
1.999999999999773
 31
0.0
  0
LINE
  5
FBE5
330
1F
100
AcDbEntity
  8
AM_0
100
AcDbLine
 10
24.62606435060542
 20
1.999999999999773
 30
0.0
 11
23.48558009196921
 21
-0.0000000000002274
 31
0.0
  0
LINE
  5
FBE6
330
1F
100
AcDbEntity
  8
AM_0
100
AcDbLine
 10
23.01627669684848
 20
-0.0000000000002274
 30
0.0
 11
24.15676095548469
 21
1.999999999999773
 31
0.0
  0
LINE
  5
FBE7
330
1F
100
AcDbEntity
  8
AM_0
100
AcDbLine
 10
23.01627669684848
 20
-0.0000000000002274
 30
0.0
 11
23.48558009196921
 21
-0.0000000000002274
 31
0.0
  0
LINE
  5
FBE8
330
1F
100
AcDbEntity
  8
AM_0
100
AcDbLine
 10
23.48558009196921
 20
-0.0000000000002274
 30
0.0
 11
24.62606435060542
 21
-2.0
 31
0.0
  0
LINE
  5
FBE9
330
1F
100
AcDbEntity
  8
AM_0
100
AcDbLine
 10
24.15676095548469
 20
-2.0
 30
0.0
 11
23.01627669684848
 21
-0.0000000000002274
 31
0.0
  0
LINE
  5
FBEA
330
1F
100
AcDbEntity
  8
AM_0
100
AcDbLine
 10
26.4377294727571
 20
-2.0
 30
0.0
 11
24.15676095548469
 21
-2.0
 31
0.0
  0
ARC
  5
FBEB
330
1F
100
AcDbEntity
  8
AM_0
100
AcDbCircle
 10
25.59804824396332
 20
-0.000000000000199
 30
0.0
 40
4.25019261066894
100
AcDbArc
 50
90.54547535574609
 51
269.4545246442539
  0
LINE
  5
FBEC
330
1F
100
AcDbEntity
  8
AM_0
100
AcDbLine
 10
25.55758557246344
 20
4.249999999999773
 30
0.0
 11
26.07941753932181
 21
4.249999999999773
 31
0.0
  0
LINE
  5
FBED
330
1F
100
AcDbEntity
  8
AM_0
100
AcDbLine
 10
25.55758557246344
 20
-4.25
 30
0.0
 11
26.07941753932181
 21
-4.25
 31
0.0
  0
ELLIPSE
  5
FBEE
330
1F
100
AcDbEntity
  8
AM_0
100
AcDbEllipse
 10
25.55758557246344
 20
-0.0000000000002274
 30
0.0
 11
-9.605823557202792E-16
 21
-4.249999999999999
 31
0.0
210
0.0
220
0.0
230
1.0
 40
0.9876883405951378
 41
-0.0000000000000135
 42
3.141592653589779
  0
ELLIPSE
  5
FBEF
330
1F
100
AcDbEntity
  8
AM_0
100
AcDbEllipse
 10
25.44696970142257
 20
-0.0000000000002274
 30
0.0
 11
8.943828126373802E-16
 21
3.957106781186547
 31
0.0
210
0.0
220
0.0
230
1.0
 40
0.9876883405951378
 41
0.0000000000000002
 42
6.283185307179586
  0
ELLIPSE
  5
FBF0
330
1F
100
AcDbEntity
  8
AM_0
100
AcDbEllipse
 10
25.34306380811967
 20
-0.0000000000002274
 30
0.0
 11
-7.442576765325078E-16
 21
-3.292893218813451
 31
0.0
210
0.0
220
0.0
230
1.0
 40
0.9876883405951378
 41
0.0
 42
6.283185307179586
  0
ELLIPSE
  5
FBF1
330
1F
100
AcDbEntity
  8
AM_0
100
AcDbEllipse
 10
26.07941753932181
 20
-0.0000000000002274
 30
0.0
 11
-9.605823557202792E-16
 21
-4.249999999999999
 31
0.0
210
0.0
220
0.0
230
1.0
 40
0.9876883405951378
 41
1.570796326794897
 42
3.141592653589793
  0
ELLIPSE
  5
FBF2
330
1F
100
AcDbEntity
  8
AM_0
100
AcDbEllipse
 10
26.07941753932181
 20
-0.0000000000002274
 30
0.0
 11
-9.605823557202792E-16
 21
-4.249999999999999
 31
0.0
210
0.0
220
0.0
230
1.0
 40
0.9876883405951378
 41
0.0
 42
1.570796326794897
  0
ELLIPSE
  5
FBF3
330
1F
100
AcDbEntity
  8
AM_0
100
AcDbEllipse
 10
25.29724521412089
 20
-0.0000000000002274
 30
0.0
 11
5.844378417988709E-16
 21
2.585786437626904
 31
0.0
210
0.0
220
0.0
230
1.0
 40
0.9876883405951378
 41
0.0000000000000002
 42
6.283185307179586
  0
LINE
  5
FBF4
330
1F
100
AcDbEntity
  8
AM_0
100
AcDbLine
 10
11.47236522817565
 20
-144.9217949627288
 30
0.0
 11
11.1553236644906
 21
-144.9720094133529
 31
0.0
  0
LINE
  5
FBF5
330
1F
100
AcDbEntity
  8
AM_0
100
AcDbLine
 10
9.983109120992765
 20
-135.519001960263
 30
0.0
 11
36.53666088086101
 21
-131.3133325261476
 31
0.0
  0
LINE
  5
FBF6
330
1F
100
AcDbEntity
  8
AM_0
100
AcDbLine
 10
9.983109120992765
 20
-135.519001960263
 30
0.0
 11
11.47236522817565
 21
-144.9217949627288
 31
0.0
  0
ARC
  5
FBF7
330
1F
100
AcDbEntity
  8
AM_0
100
AcDbCircle
 10
35.75406684276925
 20
-126.3743772533687
 30
0.0
 40
5.00057776063654
100
AcDbArc
 50
279.7853598098965
 51
338.9962380462406
  0
ARC
  5
FBF8
330
1F
100
AcDbEntity
  8
AM_0
100
AcDbCircle
 10
35.75448855566003
 20
-126.3748908231719
 30
0.0
 40
5.0
100
AcDbArc
 50
279.0000000000051
 51
279.7815978561353
  0
LINE
  5
FBF9
330
1F
100
AcDbEntity
  8
AM_0
100
AcDbLine
 10
40.42239068814632
 20
-128.1667305708983
 30
0.0
 11
48.9196460209734
 21
-106.0306236234382
 31
0.0
  0
ARC
  5
FBFA
330
1F
100
AcDbEntity
  8
AM_0
100
AcDbCircle
 10
6.573583144302688
 20
-185.6088538020953
 30
0.0
 40
17.59194048869527
100
AcDbArc
 50
87.73779163334092
 51
92.25953128190663
  0
LINE
  5
FBFB
330
1F
100
AcDbEntity
  8
AM_0
100
AcDbLine
 10
6.243260704906049
 20
-168.0199792293612
 30
0.0
 11
2.802360262122591
 21
-146.2949888468881
 31
0.0
  0
ELLIPSE
  5
FBFC
330
1F
100
AcDbEntity
  8
AM_0
100
AcDbEllipse
 10
0.3440568481675541
 20
-137.0306236234382
 30
0.0
 11
-37.22875312266336
 21
10.56147509411986
 31
0.0
210
0.0
220
0.0
230
1.0
 40
0.782873801593836
 41
1.94465633286074
 42
3.675102166415923
  0
LINE
  5
FBFD
330
1F
100
AcDbEntity
  8
AM_0
100
AcDbLine
 10
2.44544350259747
 20
-146.3515189080878
 30
0.0
 11
5.879071691305569
 21
-168.0305940853736
 31
0.0
  0
LINE
  5
FC00
330
1F
100
AcDbEntity
  8
AM_0
100
AcDbLine
 10
0.7213571659269178
 20
-136.9859193600907
 30
0.0
 11
1.465985219518359
 21
-141.6873158613236
 31
0.0
  0
LINE
  5
FC01
330
1F
100
AcDbEntity
  8
AM_0
100
AcDbLine
 10
1.465985219518359
 20
-141.6873158613236
 30
0.0
 11
9.993950301135726
 21
-140.3366188847644
 31
0.0
  0
LINE
  5
FC02
330
1F
100
AcDbEntity
  8
AM_0
100
AcDbLine
 10
9.249322247544285
 20
-135.6352223835317
 30
0.0
 11
9.993950301135726
 21
-140.3366188847644
 31
0.0
  0
LINE
  5
FC03
330
1F
100
AcDbEntity
  8
AM_0
100
AcDbLine
 10
9.249322247544285
 20
-135.6352223835317
 30
0.0
 11
0.7213571659269178
 21
-136.9859193600907
 31
0.0
  0
LINE
  5
FC04
330
1F
100
AcDbEntity
  8
AM_0
100
AcDbLine
 10
0.4391055555044545
 20
-137.0306236234382
 30
0.0
 11
1.183733609095896
 21
-141.7320201246711
 31
0.0
  0
LINE
  5
FC05
330
1F
100
AcDbEntity
  8
AM_0
100
AcDbLine
 10
1.465985219518359
 20
-141.6873158613236
 30
0.0
 11
1.183733609095896
 21
-141.7320201246711
 31
0.0
  0
LINE
  5
FC06
330
1F
100
AcDbEntity
  8
AM_0
100
AcDbLine
 10
0.4391055555044545
 20
-137.0306236234382
 30
0.0
 11
0.7213571659269178
 21
-136.9859193600907
 31
0.0
  0
LINE
  5
FC07
330
1F
100
AcDbEntity
  8
AM_0
100
AcDbLine
 10
10.72773717458421
 20
-140.2203984614959
 30
0.0
 11
9.993950301135726
 21
-140.3366188847644
 31
0.0
  0
LINE
  5
FC08
330
1F
100
AcDbEntity
  8
AM_0
100
AcDbLine
 10
9.249322247544285
 20
-135.6352223835317
 30
0.0
 11
9.983109120992765
 21
-135.519001960263
 31
0.0
  0
LINE
  5
FC09
330
1F
100
AcDbEntity
  8
AM_0
100
AcDbLine
 10
1.931577892316625
 20
-141.6135732264233
 30
0.0
 11
2.676205945908066
 21
-146.3149697276562
 31
0.0
  0
LINE
  5
FC0A
330
1F
100
AcDbEntity
  8
AM_0
100
AcDbLine
 10
2.676205945908066
 20
-146.3149697276562
 30
0.0
 11
10.52501817343745
 21
-145.0718399957868
 31
0.0
  0
LINE
  5
FC0B
330
1F
100
AcDbEntity
  8
AM_0
100
AcDbLine
 10
9.780390119846004
 20
-140.3704434945539
 30
0.0
 11
10.52501817343745
 21
-145.0718399957868
 31
0.0
  0
LINE
  5
FC0C
330
1F
100
AcDbEntity
  8
AM_0
100
AcDbLine
 10
1.503277780887572
 20
-141.6814092998631
 30
0.0
 11
2.247905834479013
 21
-146.3828058010958
 31
0.0
  0
LINE
  5
FC0D
330
1F
100
AcDbEntity
  8
AM_0
100
AcDbLine
 10
2.676205945908066
 20
-146.3149697276562
 30
0.0
 11
2.247905834479013
 21
-146.3828058010958
 31
0.0
  0
LINE
  5
FC0E
330
1F
100
AcDbEntity
  8
AM_0
100
AcDbLine
 10
11.1553236644906
 20
-144.9720094133529
 30
0.0
 11
10.52501817343745
 21
-145.0718399957868
 31
0.0
  0
ARC
  5
FC0F
330
1F
100
AcDbEntity
  8
AM_0
100
AcDbCircle
 10
18.72923871522573
 20
-97.71978054468855
 30
0.0
 40
29.19541670849238
100
AcDbArc
 50
276.4126679614208
 51
281.5873320385719
  0
LINE
  5
FC10
330
1F
100
AcDbEntity
  8
AM_0
100
AcDbLine
 10
21.99003537075276
 20
-126.7325288108183
 30
0.0
 11
18.88999274298311
 21
-127.2235273274
 31
0.0
  0
LINE
  5
FC11
330
1F
100
AcDbEntity
  8
AM_0
100
AcDbLine
 10
25.70731023062507
 20
-126.143770312605
 30
0.0
 11
24.59346907542948
 21
-126.3201854205813
 31
0.0
  0
LINE
  5
FC12
330
1F
100
AcDbEntity
  8
AM_0
100
AcDbLine
 10
31.48931384825954
 20
-125.2279909056715
 30
0.0
 11
25.70731023062507
 21
-126.143770312605
 31
0.0
  0
ARC
  5
FC13
330
1F
100
AcDbEntity
  8
AM_0
100
AcDbCircle
 10
20.4543373933858
 20
-137.1004107333512
 30
0.0
 40
10.0
100
AcDbArc
 50
99.00000000000516
 51
139.0000000000021
  0
LINE
  5
FC14
330
1F
100
AcDbEntity
  8
AM_0
100
AcDbLine
 10
8.354703865952786
 20
-135.776916015204
 30
0.0
 11
8.489280091302305
 21
-135.6221037771981
 31
0.0
  0
LINE
  5
FC15
330
1F
100
AcDbEntity
  8
AM_0
100
AcDbLine
 10
12.90724159115797
 20
-130.5398204434461
 30
0.0
 11
8.489280091302305
 21
-135.6221037771981
 31
0.0
  0
ELLIPSE
  5
FC16
330
1F
100
AcDbEntity
  8
AM_0
100
AcDbEllipse
 10
9.788175664133803
 20
-132.0425943092154
 30
0.0
 11
-0.569429655284344
 21
-3.554275704801866
 31
0.0
210
0.0
220
0.0
230
1.0
 40
0.484604732367245
 41
6.186250579042227
 42
6.440291743987967
  0
SPLINE
  5
FC17
330
1F
100
AcDbEntity
  8
AM_0
100
AcDbSpline
210
0.0
220
0.0
230
1.0
 70
     8
 71
     3
 72
    14
 73
    10
 74
     0
 42
0.0000000001
 43
0.0000000001
 40
1.717671851546749
 40
1.717671851546749
 40
1.717671851546749
 40
1.717671851546749
 40
1.765885894744827
 40
1.765885894744827
 40
2.201983172992251
 40
2.201983172992251
 40
2.638080451239675
 40
2.638080451239675
 40
2.664546665281525
 40
2.664546665281525
 40
2.664546665281525
 40
2.664546665281525
 10
8.489280091302305
 20
-135.6221037771981
 30
0.0
 10
8.494446322539432
 20
-135.6161607079991
 30
0.0
 10
8.499811419603418
 20
-135.6104831768984
 30
0.0
 10
8.555527320028148
 20
-135.5560875302294
 30
0.0
 10
8.629416242173818
 20
-135.5220131409935
 30
0.0
 10
8.813847969183541
 20
-135.4987806450926
 30
0.0
 10
8.92423712327053
 20
-135.5087317570657
 30
0.0
 10
9.04105047623051
 20
-135.5484969880637
 30
0.0
 10
9.04784118886181
 20
-135.5509132190998
 30
0.0
 10
9.054718341232899
 20
-135.5534773879558
 30
0.0
  0
ARC
  5
FC18
330
1F
100
AcDbEntity
  8
AM_0
100
AcDbCircle
 10
20.01462805466974
 20
-136.6638212879752
 30
0.0
 40
9.000000000000002
100
AcDbArc
 50
99.00000000000516
 51
139.0000000000021
  0
LINE
  5
FC19
330
1F
100
AcDbEntity
  8
AM_0
100
AcDbLine
 10
9.054718341232899
 20
-135.5534773879558
 30
0.0
 11
13.22224183266479
 21
-130.7592900270606
 31
0.0
  0
LINE
  5
FC1A
330
1F
100
AcDbEntity
  8
AM_0
100
AcDbLine
 10
18.6067178693076
 20
-127.7746262226189
 30
0.0
 11
25.42403535694956
 21
-126.6948692078242
 31
0.0
  0
ELLIPSE
  5
FC1B
330
1F
100
AcDbEntity
  8
AM_0
100
AcDbEllipse
 10
25.26730801359935
 20
-127.7321575061721
 30
0.0
 11
0.7980528971728067
 21
1.53906843138595
 31
0.0
210
0.0
220
0.0
230
1.0
 40
0.5351242527584477
 41
5.088269789880663
 42
6.65906611667556
  0
ELLIPSE
  5
FC1C
330
1F
100
AcDbEntity
  8
AM_0
100
AcDbEllipse
 10
24.82759867488329
 20
-127.2955680607963
 30
0.0
 11
1.205395585688677
 21
0.493903036957888
 31
0.0
210
0.0
220
0.0
230
1.0
 40
0.3159413125143905
 41
5.641540763443614
 42
7.212337090238512
  0
LINE
  5
FC1D
330
1F
100
AcDbEntity
  8
AM_0
100
AcDbLine
 10
20.60056810662007
 20
-133.3311290982617
 30
0.0
 11
19.56442208583866
 21
-133.4952385058577
 31
0.0
  0
LINE
  5
FC1E
330
1F
100
AcDbEntity
  8
AM_0
100
AcDbLine
 10
20.60056810662007
 20
-133.3311290982617
 30
0.0
 11
26.32636025445589
 21
-127.5644201097297
 31
0.0
  0
LINE
  5
FC1F
330
1F
100
AcDbEntity
  8
AM_0
100
AcDbLine
 10
25.88665091573984
 20
-127.1278306643537
 30
0.0
 11
19.56442208583866
 21
-133.4952385058577
 31
0.0
  0
LINE
  5
FC20
330
1F
100
AcDbEntity
  8
AM_0
100
AcDbLine
 10
31.03044068196158
 20
-131.9194595891601
 30
0.0
 11
31.07153569964083
 21
-132.1789233192787
 31
0.0
  0
LINE
  5
FC21
330
1F
100
AcDbEntity
  8
AM_0
100
AcDbLine
 10
30.99331846712101
 20
-131.6850791489812
 30
0.0
 11
31.03044068196158
 21
-131.9194595891601
 31
0.0
  0
LINE
  5
FC22
330
1F
100
AcDbEntity
  8
AM_0
100
AcDbLine
 10
34.03460072142588
 20
-131.709619924158
 30
0.0
 11
33.20549805671288
 21
-126.4748717190038
 31
0.0
  0
LINE
  5
FC23
330
1F
100
AcDbEntity
  8
AM_0
100
AcDbLine
 10
26.32636025445589
 20
-127.5644201097297
 30
0.0
 11
31.72396554581991
 21
-126.7095234165642
 31
0.0
  0
LINE
  5
FC24
330
1F
100
AcDbEntity
  8
AM_0
100
AcDbLine
 10
31.72396554581991
 20
-126.7095234165642
 30
0.0
 11
32.55306821053381
 21
-131.9442716217183
 31
0.0
  0
LINE
  5
FC25
330
1F
100
AcDbEntity
  8
AM_0
100
AcDbLine
 10
12.7993013986308
 20
-135.0729609225231
 30
0.0
 11
13.21492833640804
 21
-134.5008995197053
 31
0.0
  0
LINE
  5
FC26
330
1F
100
AcDbEntity
  8
AM_0
100
AcDbLine
 10
13.21492833640804
 20
-134.5008995197053
 30
0.0
 11
19.56442208583866
 21
-133.4952385058577
 31
0.0
  0
LINE
  5
FC27
330
1F
100
AcDbEntity
  8
AM_0
100
AcDbLine
 10
20.60056810662007
 20
-133.3311290982617
 30
0.0
 11
30.99331846712101
 21
-131.6850791489812
 31
0.0
  0
LINE
  5
FC28
330
1F
100
AcDbEntity
  8
AM_0
100
AcDbLine
 10
31.03044068196158
 20
-131.9194595891601
 30
0.0
 11
31.31348954228196
 21
-132.1406015953275
 31
0.0
  0
ELLIPSE
  5
FC29
330
1F
100
AcDbEntity
  8
AM_0
100
AcDbEllipse
 10
13.66195117138085
 20
-131.1958794724366
 30
0.0
 11
-0.754709580222779
 21
0.6560590289905062
 31
0.0
210
0.0
220
0.0
230
1.0
 40
0.0521949176317423
 41
5.378943034071988
 42
6.283185307179585
  0
ELLIPSE
  5
FC2A
330
1F
100
AcDbEntity
  8
AM_0
100
AcDbEllipse
 10
19.04642720802366
 20
-128.211215667995
 30
0.0
 11
-0.1564344650402327
 21
0.9876883405951376
 31
0.0
210
0.0
220
0.0
230
1.0
 40
0.4226182617406986
 41
-0.0000000000000115
 42
1.047197551196595
  0
ELLIPSE
  5
FC2B
330
1F
100
AcDbEntity
  8
AM_0
100
AcDbEllipse
 10
25.86374469566562
 20
-127.1314586532
 30
0.0
 11
-0.1564344650402304
 21
0.9876883405951362
 31
0.0
210
0.0
220
0.0
230
0.9999999999999999
 40
0.4226182617406994
 41
-0.0000000000000104
 42
1.047197551196596
  0
LINE
  5
FC2C
330
1F
100
AcDbEntity
  8
AM_0
100
AcDbLine
 10
26.32636025445589
 20
-127.5644201097297
 30
0.0
 11
25.88665091573984
 21
-127.1278306643537
 31
0.0
  0
LINE
  5
FC2D
330
1F
100
AcDbEntity
  8
AM_0
100
AcDbLine
 10
33.20549805671288
 20
-126.4748717190038
 30
0.0
 11
31.72396554581991
 21
-126.7095234165642
 31
0.0
  0
ARC
  5
FC2E
330
1F
100
AcDbEntity
  8
AM_0
100
AcDbCircle
 10
31.72396554581985
 20
-126.7095234165643
 30
0.0
 40
1.5
100
AcDbArc
 50
8.999999999998849
 51
99.00000000000516
  0
LINE
  5
FC2F
330
1F
100
AcDbEntity
  8
AM_0
100
AcDbLine
 10
31.72396554581991
 20
-126.7095234165642
 30
0.0
 11
31.48931384825954
 21
-125.2279909056715
 31
0.0
  0
LINE
  5
FC30
330
1F
100
AcDbEntity
  8
AM_0
100
AcDbLine
 10
28.59541604716668
 20
-124.2616927450428
 30
0.0
 11
29.35535793168964
 21
-124.8138228429618
 31
0.0
  0
LINE
  5
FC31
330
1F
100
AcDbEntity
  8
AM_0
100
AcDbLine
 10
22.09071156907265
 20
-125.2919367232823
 30
0.0
 11
21.53858147115369
 21
-126.0518786078057
 31
0.0
  0
LINE
  5
FC32
330
1F
100
AcDbEntity
  8
AM_0
100
AcDbLine
 10
29.75526101999202
 20
-125.4664053722965
 30
0.0
 11
29.7608592522185
 21
-125.501751219492
 31
0.0
  0
LINE
  5
FC33
330
1F
100
AcDbEntity
  8
AM_0
100
AcDbLine
 10
21.35991012493395
 20
-126.7960983251384
 30
0.0
 11
21.36550835715951
 21
-126.8314441723339
 31
0.0
  0
LINE
  5
FC34
330
1F
100
AcDbEntity
  8
AM_0
100
AcDbLine
 10
24.15771731547483
 20
-133.2739645745602
 30
0.0
 11
24.07950008295501
 21
-132.7801204042627
 31
0.0
  0
LINE
  5
FC35
330
1F
100
AcDbEntity
  8
AM_0
100
AcDbLine
 10
29.09615901845081
 20
-132.4917922493591
 30
0.0
 11
29.01794178593008
 21
-131.9979480790616
 31
0.0
  0
LINE
  5
FC36
330
1F
100
AcDbEntity
  8
AM_0
100
AcDbLine
 10
29.75526101999293
 20
-125.4664053722965
 30
0.0
 11
21.35991012493395
 21
-126.7960983251384
 31
0.0
  0
LINE
  5
FC37
330
1F
100
AcDbEntity
  8
AM_0
100
AcDbLine
 10
21.53858147115369
 20
-126.0518786078057
 30
0.0
 11
29.35535793168964
 21
-124.8138228429618
 31
0.0
  0
LINE
  5
FC38
330
1F
100
AcDbEntity
  8
AM_0
100
AcDbLine
 10
28.59541604716668
 20
-124.2616927450428
 30
0.0
 11
22.09071156907265
 21
-125.2919367232823
 31
0.0
  0
LINE
  5
FC39
330
1F
100
AcDbEntity
  8
AM_0
100
AcDbLine
 10
22.74329409840738
 20
-124.8920336349797
 30
0.0
 11
27.8511963298335
 21
-124.0830213988226
 31
0.0
  0
ARC
  5
FC3A
330
1F
100
AcDbEntity
  8
AM_0
100
AcDbCircle
 10
28.76757267939695
 20
-125.6228398373366
 30
0.0
 40
1.0
100
AcDbArc
 50
8.999999999998849
 51
54.00000000000365
  0
ARC
  5
FC3B
330
1F
100
AcDbEntity
  8
AM_0
100
AcDbCircle
 10
22.3475984655289
 20
-126.6396638600982
 30
0.0
 40
1.0
100
AcDbArc
 50
144.0000000000061
 51
188.9999999999987
  0
ARC
  5
FC3C
330
1F
100
AcDbEntity
  8
AM_0
100
AcDbCircle
 10
22.89972856344787
 20
-125.8797219755747
 30
0.0
 40
0.9999999999999999
100
AcDbArc
 50
99.00000000000516
 51
143.9999999999945
  0
ARC
  5
FC3D
330
1F
100
AcDbEntity
  8
AM_0
100
AcDbCircle
 10
28.00763079487399
 20
-125.0707097394179
 30
0.0
 40
1.0
100
AcDbArc
 50
54.00000000000365
 51
99.00000000000516
  0
LINE
  5
FC3E
330
1F
100
AcDbEntity
  8
AM_0
100
AcDbLine
 10
-90.96281733339816
 20
30.18691769624732
 30
0.0
 11
-90.96281733339816
 21
29.66479394838282
 31
0.0
  0
LINE
  5
FC3F
330
1F
100
AcDbEntity
  8
AM_0
100
AcDbLine
 10
-108.9628173333982
 20
29.66479394838282
 30
0.0
 11
-108.9628173333982
 21
30.18691769624732
 31
0.0
  0
LINE
  5
FC40
330
1F
100
AcDbEntity
  8
AM_0
100
AcDbLine
 10
-107.9628173333982
 20
-30.46719547316383
 30
0.0
 11
-107.9628173333982
 21
-29.94995826374355
 31
0.0
  0
LINE
  5
FC41
330
1F
100
AcDbEntity
  8
AM_0
100
AcDbLine
 10
-107.8610650820133
 20
8.135388426788296
 30
0.0
 11
-107.8056037196243
 21
7.837898939970756
 31
0.0
  0
LINE
  5
FC42
330
1F
100
AcDbEntity
  8
AM_0
100
AcDbLine
 10
-107.9174560153174
 20
7.829574593894478
 30
0.0
 11
-107.8610650820133
 21
8.135388426788296
 31
0.0
  0
LINE
  5
FC43
330
1F
100
AcDbEntity
  8
AM_0
100
AcDbLine
 10
-107.853988672689
 20
-8.097431238430971
 30
0.0
 11
-107.9042031233126
 21
-7.831031406064284
 31
0.0
  0
LINE
  5
FC44
330
1F
100
AcDbEntity
  8
AM_0
100
AcDbLine
 10
-107.8056037196253
 20
-7.837898939970927
 30
0.0
 11
-107.853988672689
 21
-8.097431238430971
 31
0.0
  0
LINE
  5
FC45
330
1F
100
AcDbEntity
  8
AM_0
100
AcDbLine
 10
-97.55788214906221
 20
-3.305782250216652
 30
0.0
 11
-98.45119567022317
 21
-8.097431238431199
 31
0.0
  0
LINE
  5
FC46
330
1F
100
AcDbEntity
  8
AM_0
100
AcDbLine
 10
-98.45119567022317
 20
-8.097431238431199
 30
0.0
 11
-94.24552623610776
 21
-30.40952702595513
 31
0.0
  0
ARC
  5
FC47
330
1F
100
AcDbEntity
  8
AM_0
100
AcDbCircle
 10
-99.96281733339819
 20
0.0000000000000284
 30
0.0
 40
31.0
100
AcDbArc
 50
79.37217117882935
 51
79.54421591157079
  0
LINE
  5
FC48
330
1F
100
AcDbEntity
  8
AM_0
100
AcDbLine
 10
-94.33704023870683
 20
30.48525269832729
 30
0.0
 11
-98.45827207954841
 21
8.135388426788296
 31
0.0
  0
LINE
  5
FC49
330
1F
100
AcDbEntity
  8
AM_0
100
AcDbLine
 10
-98.45827207954841
 20
8.135388426788296
 30
0.0
 11
-97.55788214906221
 21
3.305782250217391
 31
0.0
  0
LINE
  5
FC4A
330
1F
100
AcDbEntity
  8
AM_0
100
AcDbLine
 10
-98.45119567022317
 20
-8.097431238431199
 30
0.0
 11
-107.853988672689
 21
-8.097431238430971
 31
0.0
  0
ARC
  5
FC4B
330
1F
100
AcDbEntity
  8
AM_0
100
AcDbCircle
 10
-99.96486975101706
 20
0.0084632108833205
 30
0.0
 40
31.00869672624284
100
AcDbArc
 50
280.6495953116322
 51
286.6137314389092
  0
ARC
  5
FC4C
330
1F
100
AcDbEntity
  8
AM_0
100
AcDbCircle
 10
-99.96490476749258
 20
-0.0086144715041598
 30
0.0
 40
31.00885168419367
100
AcDbArc
 50
73.38628647191622
 51
79.37131592339726
  0
ELLIPSE
  5
FC4D
330
1F
100
AcDbEntity
  8
AM_0
100
AcDbEllipse
 10
-89.30708453313179
 20
-30.40952702595513
 30
0.0
 11
4.810181696188341
 21
-1.743073939273379
 31
0.0
210
0.0
220
0.0
230
1.0
 40
0.7828738015938358
 41
3.57510068277759
 42
3.588742138793749
  0
ARC
  5
FC4E
330
1F
100
AcDbEntity
  8
AM_0
100
AcDbCircle
 10
-99.96281733339819
 20
0.0000000000000284
 30
0.0
 40
31.0
100
AcDbArc
 50
286.6145687834985
 51
73.38543121650149
  0
ARC
  5
FC4F
330
1F
100
AcDbEntity
  8
AM_0
100
AcDbCircle
 10
-99.96267142770157
 20
0.0000002178512943
 30
0.0
 40
31.0001458613061
100
AcDbArc
 50
178.6695869689441
 51
181.5015083645877
  0
LINE
  5
FC50
330
1F
100
AcDbEntity
  8
AM_0
100
AcDbLine
 10
-130.9521729393214
 20
-0.8123048255765468
 30
0.0
 11
-109.2713213976318
 21
-0.8123048255774563
 31
0.0
  0
LINE
  5
FC51
330
1F
100
AcDbEntity
  8
AM_0
100
AcDbLine
 10
-109.272223638252
 20
0.7197616433377618
 30
0.0
 11
-130.9544604517737
 21
0.7197616433386713
 31
0.0
  0
ARC
  5
FC52
330
1F
100
AcDbEntity
  8
AM_0
100
AcDbCircle
 10
-99.96281733339819
 20
0.0000000000000284
 30
0.0
 40
31.0
100
AcDbArc
 50
181.501515028332
 51
280.6487579670317
  0
LINE
  5
FC53
330
1F
100
AcDbEntity
  8
AM_0
100
AcDbLine
 10
-107.8610650820133
 20
8.135388426788296
 30
0.0
 11
-98.45827207954841
 21
8.135388426788296
 31
0.0
  0
ARC
  5
FC54
330
1F
100
AcDbEntity
  8
AM_0
100
AcDbCircle
 10
-96.29163156695867
 20
-6.559720511595941
 30
0.0
 40
1.452710495620551
100
AcDbArc
 50
329.0033354535835
 51
2.356077003576482
  0
ARC
  5
FC55
330
1F
100
AcDbEntity
  8
AM_0
100
AcDbCircle
 10
-96.29163156695776
 20
6.559720511596453
 30
0.0
 40
1.452710495620389
100
AcDbArc
 50
357.6439229964234
 51
30.99666454641648
  0
ARC
  5
FC56
330
1F
100
AcDbEntity
  8
AM_0
100
AcDbCircle
 10
-99.96281733339819
 20
0.0000000000000284
 30
0.0
 40
31.00000000000001
100
AcDbArc
 50
79.54421591157079
 51
178.6695803052094
  0
LINE
  5
FC57
330
1F
100
AcDbEntity
  8
AM_0
100
AcDbLine
 10
-91.96281733339816
 20
-29.94995826374355
 30
0.0
 11
-91.96281733339816
 21
-30.46719547316383
 31
0.0
  0
ARC
  5
FC58
330
1F
100
AcDbEntity
  8
AM_0
100
AcDbCircle
 10
-99.96281733339819
 20
-0.0000000000004263
 30
0.0
 40
31.50000000000073
100
AcDbArc
 50
73.39845040098365
 51
106.6015495990163
  0
ARC
  5
FC59
330
1F
100
AcDbEntity
  8
AM_0
100
AcDbCircle
 10
-99.96281733339819
 20
0.0000000000004832
 30
0.0
 40
31.50000000000019
100
AcDbArc
 50
255.2875420391035
 51
284.7124579608965
  0
ELLIPSE
  5
FC5A
330
1F
100
AcDbEntity
  8
AM_0
100
AcDbEllipse
 10
-94.79824809915823
 20
6.500000000000028
 30
0.0
 11
3.900869233407837E-16
 21
1.780000000000008
 31
0.0
210
0.0
220
0.0
230
1.0
 40
0.1564344650402309
 41
4.712388980384681
 42
7.853981633974474
  0
ELLIPSE
  5
FC5B
330
1F
100
AcDbEntity
  8
AM_0
100
AcDbEllipse
 10
-94.79824809915823
 20
-6.499999999999744
 30
0.0
 11
3.900869233407837E-16
 21
1.780000000000008
 31
0.0
210
0.0
220
0.0
230
1.0
 40
0.1564344650402309
 41
1.570796326794889
 42
4.712388980384682
  0
ARC
  5
FC5C
330
1F
100
AcDbEntity
  8
AM_0
100
AcDbCircle
 10
-99.96281733339819
 20
0.0000000000000284
 30
0.0
 40
31.5
100
AcDbArc
 50
106.6015495990163
 51
255.2875420391035
  0
ARC
  5
FC5D
330
1F
100
AcDbEntity
  8
AM_0
100
AcDbCircle
 10
-99.96281733339819
 20
0.0000000000000284
 30
0.0
 40
31.5
100
AcDbArc
 50
284.7124579608965
 51
73.39845040098365
  0
LINE
  5
FC5E
330
1F
100
AcDbEntity
  8
AM_0
100
AcDbLine
 10
-97.55788214906221
 20
-3.305782250216652
 30
0.0
 11
-98.40652947612176
 21
-7.857846010288967
 31
0.0
  0
LINE
  5
FC5F
330
1F
100
AcDbEntity
  8
AM_0
100
AcDbLine
 10
-98.40652947612176
 20
7.857846010289933
 30
0.0
 11
-97.55788214906221
 21
3.305782250217391
 31
0.0
  0
LINE
  5
FC60
330
1F
100
AcDbEntity
  8
AM_0
100
AcDbLine
 10
-98.56741609349189
 20
7.857846010289478
 30
0.0
 11
-103.2688125947239
 21
7.857846010289478
 31
0.0
  0
LINE
  5
FC61
330
1F
100
AcDbEntity
  8
AM_0
100
AcDbLine
 10
-103.2688125947239
 20
7.857846010289478
 30
0.0
 11
-104.6195095712833
 21
0.6128355544952058
 31
0.0
  0
LINE
  5
FC62
330
1F
100
AcDbEntity
  8
AM_0
100
AcDbLine
 10
-99.91811307005042
 20
0.6128355544952058
 30
0.0
 11
-104.6195095712833
 21
0.6128355544952058
 31
0.0
  0
LINE
  5
FC63
330
1F
100
AcDbEntity
  8
AM_0
100
AcDbLine
 10
-99.91811307005042
 20
0.6128355544952058
 30
0.0
 11
-98.56741609349189
 21
7.857846010289478
 31
0.0
  0
LINE
  5
FC64
330
1F
100
AcDbEntity
  8
AM_0
100
AcDbLine
 10
-99.91811307005042
 20
-0.6128355544951489
 30
0.0
 11
-104.6195095712833
 21
-0.6128355544951489
 31
0.0
  0
LINE
  5
FC65
330
1F
100
AcDbEntity
  8
AM_0
100
AcDbLine
 10
120.705953771818
 20
26.5
 30
0.0
 11
121.5641055555045
 21
26.5
 31
0.0
  0
LINE
  5
FC66
330
1F
100
AcDbEntity
  8
AM_0
100
AcDbLine
 10
123.3141055555045
 20
26.5
 30
0.0
 11
121.5641055555045
 21
26.5
 31
0.0
  0
LINE
  5
FC67
330
1F
100
AcDbEntity
  8
AM_0
100
AcDbLine
 10
123.3141055555045
 20
26.5
 30
0.0
 11
124.1722573391909
 21
26.5
 31
0.0
  0
LINE
  5
FC68
330
1F
100
AcDbEntity
  8
AM_0
100
AcDbLine
 10
119.0616064807456
 20
30.18691769624729
 30
0.0
 11
114.4391055555045
 21
30.18691769624729
 31
0.0
  0
SPLINE
  5
FC69
330
1F
100
AcDbEntity
  8
AM_0
100
AcDbSpline
210
0.0
220
0.0
230
1.0
 70
    12
 71
     2
 72
     6
 73
     3
 74
     0
 42
0.0000000001
 43
0.0000000001
 40
0.0
 40
0.0
 40
0.0
 40
3.113143699890185
 40
3.113143699890185
 40
3.113143699890185
 10
120.5641055555045
 20
27.4603534582684
 30
0.0
 41
1.0
 10
119.848388144488
 20
28.76489463188588
 30
0.0
 41
1.001020531935521
 10
119.0616064807456
 20
30.18691769624729
 30
0.0
 41
1.0
  0
ARC
  5
FC6A
330
1F
100
AcDbEntity
  8
AM_0
100
AcDbCircle
 10
121.6661693700727
 20
27.04086158464907
 30
0.0
 40
1.102064085650231
100
AcDbArc
 50
179.9598130706537
 51
209.3912990857471
  0
ARC
  5
FC6B
330
1F
100
AcDbEntity
  8
AM_0
100
AcDbCircle
 10
121.6230454097587
 20
-27.34889958628173
 30
0.0
 40
1.058952913756587
100
AcDbArc
 50
126.71295074953
 51
180.2845529351275
  0
SPLINE
  5
FC6C
330
1F
100
AcDbEntity
  8
AM_0
100
AcDbSpline
210
0.0
220
0.0
230
1.0
 70
    12
 71
     2
 72
     6
 73
     3
 74
     0
 42
0.0000000001
 43
0.0000000001
 40
0.0004629399900766
 40
0.0004629399900766
 40
0.0004629399900766
 40
3.089518613366919
 40
3.089518613366919
 40
3.089518613366919
 10
119.0616064807456
 20
-30.46719547316383
 30
0.0
 41
1.00000029977658
 10
119.8476741256984
 20
-29.05953270801126
 30
0.0
 41
1.001000308211577
 10
120.5641055555044
 20
-27.76816544269838
 30
0.0
 41
1.00000032891449
  0
LINE
  5
FC6D
330
1F
100
AcDbEntity
  8
AM_0
100
AcDbLine
 10
114.4391055555045
 20
-30.46719547316388
 30
0.0
 11
119.0616064807456
 21
-30.46719547316388
 31
0.0
  0
LINE
  5
FC6E
330
1F
100
AcDbEntity
  8
AM_0
100
AcDbLine
 10
123.3141055555045
 20
-26.5
 30
0.0
 11
123.8882144876517
 21
-26.5
 31
0.0
  0
LINE
  5
FC6F
330
1F
100
AcDbEntity
  8
AM_0
100
AcDbLine
 10
121.5641055555045
 20
-26.5
 30
0.0
 11
123.3141055555045
 21
-26.5
 31
0.0
  0
LINE
  5
FC70
330
1F
100
AcDbEntity
  8
AM_0
100
AcDbLine
 10
120.9899966233581
 20
-26.5
 30
0.0
 11
121.5641055555045
 21
-26.5
 31
0.0
  0
ARC
  5
FC71
330
1F
100
AcDbEntity
  8
AM_0
100
AcDbCircle
 10
150.6142373922295
 20
47.37263673449706
 30
0.0
 40
23.9594551963814
100
AcDbArc
 50
256.2984766703751
 51
277.9767128774107
  0
ARC
  5
FC72
330
1F
100
AcDbEntity
  8
AM_0
100
AcDbCircle
 10
150.6142373922295
 20
-47.37263673449706
 30
0.0
 40
23.95945519638139
100
AcDbArc
 50
82.02328712258932
 51
103.701523329625
  0
SPLINE
  5
FC73
330
1F
100
AcDbEntity
  8
AM_0
100
AcDbSpline
210
0.0
220
0.0
230
1.0
 70
     8
 71
     3
 72
     8
 73
     4
 74
     0
 42
0.0000000001
 43
0.0000000001
 40
2.048349944607707
 40
2.048349944607707
 40
2.048349944607707
 40
2.048349944607707
 40
2.082808961106547
 40
2.082808961106547
 40
2.082808961106547
 40
2.082808961106547
 10
172.4386605032434
 20
-20.29583066739818
 30
0.0
 10
172.4389599483258
 20
-20.28406332142552
 30
0.0
 10
172.4391055555045
 20
-20.27242226426827
 30
0.0
 10
172.4391055555045
 20
-20.26093592543478
 30
0.0
  0
SPLINE
  5
FC74
330
1F
100
AcDbEntity
  8
AM_0
100
AcDbSpline
210
0.0
220
0.0
230
1.0
 70
     8
 71
     3
 72
     8
 73
     4
 74
     0
 42
0.0000000001
 43
0.0000000001
 40
5.80931992843316
 40
5.80931992843316
 40
5.80931992843316
 40
5.80931992843316
 40
5.823322112792894
 40
5.823322112792894
 40
5.823322112792894
 40
5.823322112792894
 10
172.4391055555045
 20
20.28191457645241
 30
0.0
 10
172.4391055555045
 20
20.28658197123875
 30
0.0
 10
172.4390814941691
 20
20.29127491188044
 30
0.0
 10
172.4390327642142
 20
20.29599149296698
 30
0.0
  0
SPLINE
  5
FC75
330
1F
100
AcDbEntity
  8
AM_0
100
AcDbSpline
210
0.0
220
0.0
230
1.0
 70
     8
 71
     3
 72
    16
 73
    12
 74
     0
 42
0.0000000001
 43
0.0000000001
 40
-1.965007727733835
 40
-1.965007727733835
 40
-1.965007727733835
 40
-1.965007727733835
 40
-1.602152014354634
 40
-1.602152014354634
 40
-0.9617068588456064
 40
-0.9617068588456064
 40
-0.4733245765258282
 40
-0.4733245765258282
 40
-0.1927584624124154
 40
-0.1927584624124154
 40
-0.0001921708555565
 40
-0.0001921708555565
 40
-0.0001921708555565
 40
-0.0001921708555565
 10
172.4390327642142
 20
20.29616059051293
 30
0.0
 10
172.4376553522617
 20
20.38573514765719
 30
0.0
 10
172.4168467515548
 20
20.46895818018945
 30
0.0
 10
172.3079064615715
 20
20.67167276063444
 30
0.0
 10
172.188954772788
 20
20.75496673622999
 30
0.0
 10
171.9443847300501
 20
20.83981341560863
 30
0.0
 10
171.8274269444093
 20
20.85632464283296
 30
0.0
 10
171.640802889364
 20
20.86802084104144
 30
0.0
 10
171.5638358135849
 20
20.86965914293521
 30
0.0
 10
171.4232512425344
 20
20.87031290871798
 30
0.0
 10
171.3626970166308
 20
20.87008831058481
 30
0.0
 10
171.2990306958374
 20
20.86999999999986
 30
0.0
  0
SPLINE
  5
FC76
330
1F
100
AcDbEntity
  8
AM_0
100
AcDbSpline
210
0.0
220
0.0
230
1.0
 70
     8
 71
     3
 72
    16
 73
    12
 74
     0
 42
0.0000000001
 43
0.0000000001
 40
-4.40429224599759
 40
-4.40429224599759
 40
-4.40429224599759
 40
-4.40429224599759
 40
-4.141910802677585
 40
-4.141910802677585
 40
-3.871634509130126
 40
-3.871634509130126
 40
-3.14310442813097
 40
-3.14310442813097
 40
-2.420961954899249
 40
-2.420961954899249
 40
-1.953365045766561
 40
-1.953365045766561
 40
-1.953365045766561
 40
-1.953365045766561
 10
171.2990306958374
 20
-20.86999999999992
 30
0.0
 10
171.3673904577065
 20
-20.86992338016992
 30
0.0
 10
171.4323488468673
 20
-20.86972611045897
 30
0.0
 10
171.5567528464337
 20
-20.86778624592628
 30
0.0
 10
171.6159697914147
 20
-20.8659244406654
 30
0.0
 10
171.8165444214939
 20
-20.8538162595278
 30
0.0
 10
171.9601564610877
 20
-20.83280259993447
 30
0.0
 10
172.2086330675294
 20
-20.73018404392045
 30
0.0
 10
172.3081311972912
 20
-20.65113651526193
 30
0.0
 10
172.4104407254619
 20
-20.47232009367602
 30
0.0
 10
172.4350954727917
 20
-20.38954393635143
 30
0.0
 10
172.4386605032434
 20
-20.29595168313793
 30
0.0
  0
ARC
  5
FC77
330
1F
100
AcDbEntity
  8
AM_0
100
AcDbCircle
 10
123.2120417409362
 20
27.04086158464907
 30
0.0
 40
1.102064085651275
100
AcDbArc
 50
330.6087009142617
 51
0.0401869293332346
  0
SPLINE
  5
FC78
330
1F
100
AcDbEntity
  8
AM_0
100
AcDbSpline
210
0.0
220
0.0
230
1.0
 70
    12
 71
     2
 72
     6
 73
     3
 74
     0
 42
0.0000000001
 43
0.0000000001
 40
0.0
 40
0.0
 40
0.0
 40
3.113143699890207
 40
3.113143699890207
 40
3.113143699890207
 10
125.8166046302642
 20
30.18691769624729
 30
0.0
 41
1.0
 10
125.0298229665334
 20
28.76489463190683
 30
0.0
 41
1.001020531934115
 10
124.3141055555045
 20
27.4603534582684
 30
0.0
 41
1.0
  0
LINE
  5
FC79
330
1F
100
AcDbEntity
  8
AM_0
100
AcDbLine
 10
126.4391055555045
 20
30.18691769624729
 30
0.0
 11
125.8166046302642
 21
30.18691769624729
 31
0.0
  0
ARC
  5
FC7A
330
1F
100
AcDbEntity
  8
AM_0
100
AcDbCircle
 10
126.2018120704435
 20
63.31335143878368
 30
0.0
 40
33.12728362991341
100
AcDbArc
 50
270.4104179389327
 51
286.1911316600851
  0
ARC
  5
FC7B
330
1F
100
AcDbEntity
  8
AM_0
100
AcDbCircle
 10
123.2551657012501
 20
-27.34889958628264
 30
0.0
 40
1.058952913757433
100
AcDbArc
 50
359.7154470648854
 51
53.28704925043751
  0
SPLINE
  5
FC7C
330
1F
100
AcDbEntity
  8
AM_0
100
AcDbSpline
210
0.0
220
0.0
230
1.0
 70
     8
 71
     3
 72
     8
 73
     4
 74
     0
 42
0.0000000001
 43
0.0000000001
 40
1.776340743961663
 40
1.776340743961663
 40
1.776340743961663
 40
1.776340743961663
 40
2.063575594279487
 40
2.063575594279487
 40
2.063575594279487
 40
2.063575594279487
 10
124.3141055555045
 20
-20.30394050424638
 30
0.0
 10
124.3141055555045
 20
-20.20819555414073
 30
0.0
 10
124.3067192703012
 20
-20.10344515595716
 30
0.0
 10
124.2905588853311
 20
-20.0
 30
0.0
  0
LINE
  5
FC7D
330
1F
100
AcDbEntity
  8
AM_0
100
AcDbLine
 10
124.2905588853311
 20
-20.0
 30
0.0
 11
124.3141055555045
 21
-20.0
 31
0.0
  0
ARC
  5
FC7E
330
1F
100
AcDbEntity
  8
AM_0
100
AcDbCircle
 10
121.6037821032797
 20
-17.51309475951348
 30
0.0
 40
6.647400590745968
100
AcDbArc
 50
201.9697455278659
 51
247.5156208110634
  0
LINE
  5
FC7F
330
1F
100
AcDbEntity
  8
AM_0
100
AcDbLine
 10
115.4391055555045
 20
-20.0
 30
0.0
 11
119.0616064807456
 21
-20.0
 31
0.0
  0
LINE
  5
FC80
330
1F
100
AcDbEntity
  8
AM_0
100
AcDbLine
 10
119.0616064807456
 20
-20.0
 30
0.0
 11
120.5641055555045
 21
-20.0
 31
0.0
  0
LINE
  5
FC81
330
1F
100
AcDbEntity
  8
AM_0
100
AcDbLine
 10
120.5641055555045
 20
-20.0
 30
0.0
 11
120.5648315439641
 21
-20.0
 31
0.0
  0
SPLINE
  5
FC82
330
1F
100
AcDbEntity
  8
AM_0
100
AcDbSpline
210
0.0
220
0.0
230
1.0
 70
     8
 71
     3
 72
     8
 73
     4
 74
     0
 42
0.0000000001
 43
0.0000000001
 40
-1.94204761059973
 40
-1.94204761059973
 40
-1.94204761059973
 40
-1.94204761059973
 40
-1.894302822527507
 40
-1.894302822527507
 40
-1.894302822527507
 40
-1.894302822527507
 10
120.5648315439641
 20
-20.0
 30
0.0
 10
120.5643465193545
 20
-20.01797842666383
 30
0.0
 10
120.5641055555045
 20
-20.03597907479525
 30
0.0
 10
120.5641055555045
 20
-20.05399192398545
 30
0.0
  0
LINE
  5
FC83
330
1F
100
AcDbEntity
  8
AM_0
100
AcDbLine
 10
125.8166046302642
 20
-30.46719547316388
 30
0.0
 11
127.4391055555045
 21
-30.46719547316388
 31
0.0
  0
SPLINE
  5
FC84
330
1F
100
AcDbEntity
  8
AM_0
100
AcDbSpline
210
0.0
220
0.0
230
1.0
 70
    12
 71
     2
 72
     6
 73
     3
 74
     0
 42
0.0000000001
 43
0.0000000001
 40
0.0
 40
0.0
 40
0.0
 40
3.089056677703773
 40
3.089056677703773
 40
3.089056677703773
 10
124.3141055555045
 20
-27.76816544269786
 30
0.0
 41
1.0
 10
125.0305369852905
 20
-29.05953270797363
 30
0.0
 41
1.000999993556015
 10
125.8166046302642
 20
-30.46719547316388
 30
0.0
 41
1.0
  0
ARC
  5
FC85
330
1F
100
AcDbEntity
  8
AM_0
100
AcDbCircle
 10
127.2748751805995
 20
-63.23930744120844
 30
0.0
 40
32.77252346802263
100
AcDbArc
 50
75.5746650841989
 51
89.71287695489545
  0
SPLINE
  5
FC86
330
1F
100
AcDbEntity
  8
AM_0
100
AcDbSpline
210
0.0
220
0.0
230
1.0
 70
    12
 71
     2
 72
     6
 73
     3
 74
     0
 42
0.0000000001
 43
0.0000000001
 40
0.0
 40
0.0
 40
0.0
 40
3.788582771409939
 40
3.788582771409939
 40
3.788582771409939
 10
125.8166046302642
 20
-24.33618704727542
 30
0.0
 41
1.0
 10
125.0075445952708
 20
-22.52234529161615
 30
0.0
 41
1.001661993538315
 10
124.3141055555045
 20
-20.85835592881267
 30
0.0
 41
1.0
  0
LINE
  5
FC87
330
1F
100
AcDbEntity
  8
AM_0
100
AcDbLine
 10
124.3141055555045
 20
-20.0
 30
0.0
 11
125.8166046302642
 21
-20.0
 31
0.0
  0
LINE
  5
FC88
330
1F
100
AcDbEntity
  8
AM_0
100
AcDbLine
 10
124.3141055555045
 20
-20.85835592881267
 30
0.0
 11
124.3141055555045
 21
-20.30394050424638
 31
0.0
  0
LINE
  5
FC89
330
1F
100
AcDbEntity
  8
AM_0
100
AcDbLine
 10
120.5641055555045
 20
-20.05399192398545
 30
0.0
 11
120.5641055555045
 21
-20.61513046624532
 31
0.0
  0
ARC
  5
FC8A
330
1F
100
AcDbEntity
  8
AM_0
100
AcDbCircle
 10
67.05896554770624
 20
3.937617959195478
 30
0.0
 40
58.86966504488657
100
AcDbArc
 50
332.0494046668657
 51
335.3502823397771
  0
ARC
  5
FC8B
330
1F
100
AcDbEntity
  8
AM_0
100
AcDbCircle
 10
128.8013881011449
 20
-17.11358135752744
 30
0.0
 40
7.238142412492669
100
AcDbArc
 50
266.2452459749703
 51
336.4981347158565
  0
LINE
  5
FC8C
330
1F
100
AcDbEntity
  8
AM_0
100
AcDbLine
 10
125.8166046302642
 20
-20.0
 30
0.0
 11
135.4391055555045
 21
-20.0
 31
0.0
  0
LINE
  5
FC8D
330
1F
100
AcDbEntity
  8
AM_0
100
AcDbLine
 10
128.3273916518485
 20
-24.33618704727542
 30
0.0
 11
125.8166046302642
 21
-24.33618704727542
 31
0.0
  0
LINE
  5
FC8E
330
1F
100
AcDbEntity
  8
AM_0
100
AcDbLine
 10
166.4391055555045
 20
-20.86999999999992
 30
0.0
 11
171.2990306958374
 21
-20.86999999999992
 31
0.0
  0
LINE
  5
FC8F
330
1F
100
AcDbEntity
  8
AM_0
100
AcDbLine
 10
162.4391055555045
 20
20.86999999999986
 30
0.0
 11
171.2990306958374
 21
20.86999999999986
 31
0.0
  0
LINE
  5
FC90
330
1F
100
AcDbEntity
  8
AM_11
  6
ACJISTGB
100
AcDbLine
 10
171.2990306958373
 20
-22.77700374298294
 30
0.0
 11
166.4391055555045
 21
-23.01999999999956
 31
0.0
  0
LINE
  5
FC91
330
1F
100
AcDbEntity
  8
AM_0
100
AcDbLine
 10
144.9391055555045
 20
-24.09500000000026
 30
0.0
 11
140.4391055555045
 21
-24.31999999999971
 31
0.0
  0
LINE
  5
FC92
330
1F
100
AcDbEntity
  8
AM_11
  6
ACJISTGB
100
AcDbLine
 10
171.2990306958373
 20
22.7770037429834
 30
0.0
 11
162.4391055555045
 21
23.22000000000023
 31
0.0
  0
LINE
  5
FC93
330
1F
100
AcDbEntity
  8
AM_0
100
AcDbLine
 10
144.9391055555045
 20
24.09500000000026
 30
0.0
 11
140.4391055555045
 21
24.32000000000062
 31
0.0
  0
LINE
  5
FC94
330
1F
100
AcDbEntity
  8
AM_0
100
AcDbLine
 10
140.4391055555045
 20
-31.5
 30
0.0
 11
135.4391055555045
 21
-31.5
 31
0.0
  0
LINE
  5
FC95
330
1F
100
AcDbEntity
  8
AM_0
100
AcDbLine
 10
140.4391055555045
 20
31.5
 30
0.0
 11
135.4391055555045
 21
31.5
 31
0.0
  0
LINE
  5
FC96
330
1F
100
AcDbEntity
  8
AM_0
100
AcDbLine
 10
114.4391055555045
 20
30.18691769624729
 30
0.0
 11
114.4391055555045
 21
-30.46719547316388
 31
0.0
  0
LINE
  5
FC97
330
1F
100
AcDbEntity
  8
AM_11
  6
ACJISTGB
100
AcDbLine
 10
172.4391055555045
 20
21.57850093632985
 30
0.0
 11
172.4391055555045
 21
20.28895312868858
 31
0.0
  0
LINE
  5
FC98
330
1F
100
AcDbEntity
  8
AM_0
100
AcDbLine
 10
166.4391055555045
 20
-20.86999999999992
 30
0.0
 11
166.4391055555045
 21
-23.01999999999956
 31
0.0
  0
LINE
  5
FC99
330
1F
100
AcDbEntity
  8
AM_0
100
AcDbLine
 10
162.4391055555045
 20
23.22000000000023
 30
0.0
 11
162.4391055555045
 21
20.86999999999986
 31
0.0
  0
LINE
  5
FC9A
330
1F
100
AcDbEntity
  8
AM_0
100
AcDbLine
 10
123.3141055555045
 20
26.5
 30
0.0
 11
123.3141055555045
 21
-26.5
 31
0.0
  0
LINE
  5
FC9B
330
1F
100
AcDbEntity
  8
AM_0
100
AcDbLine
 10
119.0616064807456
 20
-23.65518542296377
 30
0.0
 11
119.0616064807456
 21
-30.46719547316388
 31
0.0
  0
LINE
  5
FC9C
330
1F
100
AcDbEntity
  8
AM_0
100
AcDbLine
 10
119.0616064807456
 20
30.18691769624729
 30
0.0
 11
119.0616064807456
 21
-20.0
 31
0.0
  0
LINE
  5
FC9D
330
1F
100
AcDbEntity
  8
AM_0
100
AcDbLine
 10
121.5641055555045
 20
26.5
 30
0.0
 11
121.5641055555045
 21
-26.5
 31
0.0
  0
LINE
  5
FC9E
330
1F
100
AcDbEntity
  8
AM_0
100
AcDbLine
 10
120.5641055555045
 20
27.4603534582684
 30
0.0
 11
120.5641055555045
 21
-20.0
 31
0.0
  0
LINE
  5
FC9F
330
1F
100
AcDbEntity
  8
AM_0
100
AcDbLine
 10
125.8166046302642
 20
-24.33618704727542
 30
0.0
 11
125.8166046302642
 21
-30.46719547316388
 31
0.0
  0
LINE
  5
FCA0
330
1F
100
AcDbEntity
  8
AM_0
100
AcDbLine
 10
124.3141055555045
 20
-20.85835592881267
 30
0.0
 11
124.3141055555045
 21
-27.76816544269786
 31
0.0
  0
LINE
  5
FCA1
330
1F
100
AcDbEntity
  8
AM_0
100
AcDbLine
 10
124.3141055555045
 20
27.4603534582684
 30
0.0
 11
124.3141055555045
 21
-20.0
 31
0.0
  0
LINE
  5
FCA2
330
1F
100
AcDbEntity
  8
AM_0
100
AcDbLine
 10
125.8166046302642
 20
30.18691769624729
 30
0.0
 11
125.8166046302642
 21
-20.0
 31
0.0
  0
LINE
  5
FCA3
330
1F
100
AcDbEntity
  8
AM_0
100
AcDbLine
 10
120.5641055555045
 20
-20.61513046624532
 30
0.0
 11
120.5641055555045
 21
-27.76816544269786
 31
0.0
  0
LINE
  5
FCA4
330
1F
100
AcDbEntity
  8
AM_0
100
AcDbLine
 10
140.4391055555045
 20
31.5
 30
0.0
 11
140.4391055555045
 21
-31.5
 31
0.0
  0
ARC
  5
FCA5
330
1F
100
AcDbEntity
  8
AM_0
100
AcDbCircle
 10
114.4391085185717
 20
-142.0306206603709
 30
0.0
 40
3.000002963068777
100
AcDbArc
 50
180.000056590357
 51
269.99994340963
  0
ARC
  5
FCA6
330
1F
100
AcDbEntity
  8
AM_0
100
AcDbCircle
 10
114.4391085185717
 20
-132.0306265865056
 30
0.0
 40
3.000002963068682
100
AcDbArc
 50
90.00005659035696
 51
179.99994340963
  0
LINE
  5
FCA7
330
1F
100
AcDbEntity
  8
AM_0
100
AcDbLine
 10
120.5641055555045
 20
-129.0306236234383
 30
0.0
 11
120.9899966233581
 21
-129.0306236234383
 31
0.0
  0
LINE
  5
FCA8
330
1F
100
AcDbEntity
  8
AM_0
100
AcDbLine
 10
119.0616064807456
 20
-129.0306236234383
 30
0.0
 11
120.5641055555045
 21
-129.0306236234383
 31
0.0
  0
LINE
  5
FCA9
330
1F
100
AcDbEntity
  8
AM_0
100
AcDbLine
 10
114.4391055555045
 20
-129.0306236234383
 30
0.0
 11
119.0616064807456
 21
-129.0306236234383
 31
0.0
  0
SPLINE
  5
FCAA
330
1F
100
AcDbEntity
  8
AM_0
100
AcDbSpline
210
0.0
220
0.0
230
1.0
 70
     8
 71
     3
 72
    16
 73
    12
 74
     0
 42
0.0000000001
 43
0.0000000001
 40
5.956346460088473
 40
5.956346460088473
 40
5.956346460088473
 40
5.956346460088473
 40
6.062495147234408
 40
6.062495147234408
 40
6.202228077623816
 40
6.202228077623816
 40
6.481227230306896
 40
6.481227230306896
 40
6.760226382989976
 40
6.760226382989976
 40
6.821665582602051
 40
6.821665582602051
 40
6.821665582602051
 40
6.821665582602051
 10
121.5641055555045
 20
-144.3790928517882
 30
0.0
 10
121.5287226597895
 20
-144.3790928517882
 30
0.0
 10
121.4872378462489
 20
-144.3881381406608
 30
0.0
 10
121.4114417737011
 20
-144.4193228383292
 30
0.0
 10
121.3653946797523
 20
-144.4510042497959
 30
0.0
 10
121.2609937360496
 20
-144.5436448600294
 30
0.0
 10
121.2010755396825
 20
-144.6243849439115
 30
0.0
 10
121.0960404959234
 20
-144.7967772673036
 30
0.0
 10
121.0512176539916
 20
-144.8886084664054
 30
0.0
 10
121.005869818997
 20
-144.9926332692511
 30
0.0
 10
120.9978549967147
 20
-145.0115578002305
 30
0.0
 10
120.9899966233581
 20
-145.0306236234382
 30
0.0
  0
LINE
  5
FCAB
330
1F
100
AcDbEntity
  8
AM_0
100
AcDbLine
 10
123.3141055555045
 20
-144.3790928517882
 30
0.0
 11
121.5641055555045
 21
-144.3790928517882
 31
0.0
  0
SPLINE
  5
FCAC
330
1F
100
AcDbEntity
  8
AM_0
100
AcDbSpline
210
0.0
220
0.0
230
1.0
 70
     8
 71
     3
 72
    16
 73
    12
 74
     0
 42
0.0000000001
 43
0.0000000001
 40
5.091027337574894
 40
5.091027337574894
 40
5.091027337574894
 40
5.091027337574894
 40
5.15246653718697
 40
5.15246653718697
 40
5.43146568987005
 40
5.43146568987005
 40
5.71046484255313
 40
5.71046484255313
 40
5.850197772942538
 40
5.850197772942538
 40
5.956346460088473
 40
5.956346460088473
 40
5.956346460088473
 40
5.956346460088473
 10
123.8882144876517
 20
-145.0306236234382
 30
0.0
 10
123.8803561142951
 20
-145.0115578002305
 30
0.0
 10
123.8723412920128
 20
-144.9926332692511
 30
0.0
 10
123.8269934570182
 20
-144.8886084664054
 30
0.0
 10
123.7821706150855
 20
-144.7967772673036
 30
0.0
 10
123.6771355713274
 20
-144.6243849439115
 30
0.0
 10
123.6172173749603
 20
-144.5436448600294
 30
0.0
 10
123.5128164312566
 20
-144.4510042497959
 30
0.0
 10
123.4667693373087
 20
-144.4193228383292
 30
0.0
 10
123.39097326476
 20
-144.3881381406608
 30
0.0
 10
123.3494884512203
 20
-144.3790928517882
 30
0.0
 10
123.3141055555045
 20
-144.3790928517882
 30
0.0
  0
SPLINE
  5
FCAD
330
1F
100
AcDbEntity
  8
AM_0
100
AcDbSpline
210
0.0
220
0.0
230
1.0
 70
     8
 71
     3
 72
    16
 73
    12
 74
     0
 42
0.0000000001
 43
0.0000000001
 40
5.956346460088472
 40
5.956346460088472
 40
5.956346460088472
 40
5.956346460088472
 40
6.062495147234407
 40
6.062495147234407
 40
6.202228077623815
 40
6.202228077623815
 40
6.481227230306895
 40
6.481227230306895
 40
6.760226382989975
 40
6.760226382989975
 40
6.821665582602113
 40
6.821665582602113
 40
6.821665582602113
 40
6.821665582602113
 10
123.3141055555045
 20
-129.6821543950891
 30
0.0
 10
123.3494884512203
 20
-129.6821543950891
 30
0.0
 10
123.39097326476
 20
-129.6731091062165
 30
0.0
 10
123.4667693373087
 20
-129.6419244085482
 30
0.0
 10
123.5128164312566
 20
-129.6102429970815
 30
0.0
 10
123.6172173749603
 20
-129.517602386848
 30
0.0
 10
123.6771355713274
 20
-129.4368623029659
 30
0.0
 10
123.7821706150855
 20
-129.2644699795737
 30
0.0
 10
123.8269934570182
 20
-129.172638780472
 30
0.0
 10
123.8723412920128
 20
-129.0686139776253
 30
0.0
 10
123.8803561142951
 20
-129.0496894466469
 30
0.0
 10
123.8882144876517
 20
-129.0306236234383
 30
0.0
  0
LINE
  5
FCAE
330
1F
100
AcDbEntity
  8
AM_0
100
AcDbLine
 10
121.5641055555045
 20
-129.6821543950891
 30
0.0
 11
123.3141055555045
 21
-129.6821543950891
 31
0.0
  0
SPLINE
  5
FCAF
330
1F
100
AcDbEntity
  8
AM_0
100
AcDbSpline
210
0.0
220
0.0
230
1.0
 70
     8
 71
     3
 72
    16
 73
    12
 74
     0
 42
0.0000000001
 43
0.0000000001
 40
5.091027337574832
 40
5.091027337574832
 40
5.091027337574832
 40
5.091027337574832
 40
5.152466537186969
 40
5.152466537186969
 40
5.431465689870049
 40
5.431465689870049
 40
5.71046484255313
 40
5.71046484255313
 40
5.850197772942537
 40
5.850197772942537
 40
5.956346460088472
 40
5.956346460088472
 40
5.956346460088472
 40
5.956346460088472
 10
120.9899966233581
 20
-129.0306236234383
 30
0.0
 10
120.9978549967147
 20
-129.0496894466469
 30
0.0
 10
121.005869818997
 20
-129.0686139776253
 30
0.0
 10
121.0512176539916
 20
-129.172638780472
 30
0.0
 10
121.0960404959234
 20
-129.2644699795737
 30
0.0
 10
121.2010755396825
 20
-129.4368623029659
 30
0.0
 10
121.2609937360496
 20
-129.517602386848
 30
0.0
 10
121.3653946797523
 20
-129.6102429970815
 30
0.0
 10
121.4114417737011
 20
-129.6419244085482
 30
0.0
 10
121.4872378462489
 20
-129.6731091062165
 30
0.0
 10
121.5287226597895
 20
-129.6821543950891
 30
0.0
 10
121.5641055555045
 20
-129.6821543950891
 30
0.0
  0
LINE
  5
FCB0
330
1F
100
AcDbEntity
  8
AM_0
100
AcDbLine
 10
119.0616064807456
 20
-145.0306236234382
 30
0.0
 11
114.4391055555045
 21
-145.0306236234382
 31
0.0
  0
LINE
  5
FCB1
330
1F
100
AcDbEntity
  8
AM_0
100
AcDbLine
 10
119.0616064807456
 20
-145.0306236234382
 30
0.0
 11
120.5641055555045
 21
-145.0306236234382
 31
0.0
  0
LINE
  5
FCB2
330
1F
100
AcDbEntity
  8
AM_0
100
AcDbLine
 10
120.5641055555045
 20
-145.0306236234382
 30
0.0
 11
120.9899966233581
 21
-145.0306236234382
 31
0.0
  0
ARC
  5
FCB3
330
1F
100
AcDbEntity
  8
AM_0
100
AcDbCircle
 10
133.4003042889909
 20
-200.1170635508269
 30
0.0
 40
31.98582038169304
100
AcDbArc
 50
80.93630643191762
 51
89.930495784383
  0
ARC
  5
FCB4
330
1F
100
AcDbEntity
  8
AM_0
100
AcDbCircle
 10
133.4779068220188
 20
-200.1170635508242
 30
0.0
 40
31.98582038169042
100
AcDbArc
 50
90.06950421560396
 51
99.06369356809559
  0
LINE
  5
FCB8
330
1F
100
AcDbEntity
  8
AM_0
100
AcDbLine
 10
170.4391055555045
 20
-130.8181236234386
 30
0.0
 11
172.4391055555045
 21
-129.6634230850596
 31
0.0
  0
LINE
  5
FCB9
330
1F
100
AcDbEntity
  8
AM_0
100
AcDbLine
 10
170.4391055555045
 20
-143.2431236234388
 30
0.0
 11
167.9391055555045
 21
-143.2431236234388
 31
0.0
  0
LINE
  5
FCBA
330
1F
100
AcDbEntity
  8
AM_0
100
AcDbLine
 10
167.9391055555045
 20
-130.8181236234386
 30
0.0
 11
170.4391055555045
 21
-130.8181236234386
 31
0.0
  0
LINE
  5
FCBB
330
1F
100
AcDbEntity
  8
AM_0
100
AcDbLine
 10
172.4386605032434
 20
-129.6061800361022
 30
0.0
 11
172.4391055555045
 21
-129.6059230850597
 31
0.0
  0
LINE
  5
FCBC
330
1F
100
AcDbEntity
  8
AM_0
100
AcDbLine
 10
170.4391055555045
 20
-143.2431236234388
 30
0.0
 11
172.4391055555045
 21
-144.3978241618179
 31
0.0
  0
LINE
  5
FCBD
330
1F
100
AcDbEntity
  8
AM_0
100
AcDbLine
 10
172.4386605032434
 20
-144.4550672107753
 30
0.0
 11
172.4391055555045
 21
-144.4553241618178
 31
0.0
  0
SPLINE
  5
FCBE
330
1F
100
AcDbEntity
  8
AM_0
100
AcDbSpline
210
0.0
220
0.0
230
1.0
 70
     8
 71
     3
 72
    16
 73
    12
 74
     0
 42
0.0000000001
 43
0.0000000001
 40
-1.936088707179519
 40
-1.936088707179519
 40
-1.936088707179519
 40
-1.936088707179519
 40
-1.618608641566384
 40
-1.618608641566384
 40
-0.9853554418149393
 40
-0.9853554418149393
 40
-0.4905148334691103
 40
-0.4905148334691103
 40
-0.2011422780024802
 40
-0.2011422780024802
 40
-0.0002750058701333
 40
-0.0002750058701333
 40
-0.0002750058701333
 40
-0.0002750058701333
 10
172.4386605032434
 20
-144.4550672107753
 30
0.0
 10
172.4354891337
 20
-144.5663227797641
 30
0.0
 10
172.4155882196585
 20
-144.6833833421833
 30
0.0
 10
172.3173694603931
 20
-145.0414017340127
 30
0.0
 10
172.2033515217365
 20
-145.2834974474063
 30
0.0
 10
171.9627110736785
 20
-145.6647379506758
 30
0.0
 10
171.8448509093443
 20
-145.8130078890981
 30
0.0
 10
171.6541786612517
 20
-145.9908904859631
 30
0.0
 10
171.5747246691537
 20
-146.0519754343404
 30
0.0
 10
171.4287401492085
 20
-146.1248573895427
 30
0.0
 10
171.3654872105391
 20
-146.146097156442
 30
0.0
 10
171.2990306958374
 20
-146.1542221837772
 30
0.0
  0
SPLINE
  5
FCBF
330
1F
100
AcDbEntity
  8
AM_0
100
AcDbSpline
210
0.0
220
0.0
230
1.0
 70
     8
 71
     3
 72
    16
 73
    12
 74
     0
 42
0.0000000001
 43
0.0000000001
 40
-4.40429224599759
 40
-4.40429224599759
 40
-4.40429224599759
 40
-4.40429224599759
 40
-4.141910802677585
 40
-4.141910802677585
 40
-3.871634509130126
 40
-3.871634509130126
 40
-3.14310442813097
 40
-3.14310442813097
 40
-2.420961954899249
 40
-2.420961954899249
 40
-1.953365045766561
 40
-1.953365045766561
 40
-1.953365045766561
 40
-1.953365045766561
 10
171.2990306958374
 20
-127.9070250631003
 30
0.0
 10
171.3673904577065
 20
-127.9153827829759
 30
0.0
 10
171.4323488468673
 20
-127.9376179588053
 30
0.0
 10
171.5567528464337
 20
-128.0009405614119
 30
0.0
 10
171.6159697914147
 20
-128.0425678958463
 30
0.0
 10
171.8165444214939
 20
-128.2103188620322
 30
0.0
 10
171.9601564610877
 20
-128.3878494821984
 30
0.0
 10
172.2086330675294
 20
-128.7913420349805
 30
0.0
 10
172.3081311972912
 20
-129.0068177174626
 30
0.0
 10
172.4104407254619
 20
-129.3489944306002
 30
0.0
 10
172.4350954727917
 20
-129.481114355197
 30
0.0
 10
172.4386605032434
 20
-129.6061800361022
 30
0.0
  0
ARC
  5
FCC0
330
1F
100
AcDbEntity
  8
AM_0
100
AcDbCircle
 10
175.1564887450169
 20
-90.95992515232683
 30
0.0
 40
37.14792288160733
100
AcDbArc
 50
259.2369973264174
 51
264.0396343738103
  0
ARC
  5
FCC1
330
1F
100
AcDbEntity
  8
AM_0
100
AcDbCircle
 10
175.1564887450132
 20
-183.1013220945233
 30
0.0
 40
37.14792288157967
100
AcDbArc
 50
95.96036562618976
 51
100.7630026735891
  0
LINE
  5
FCC2
330
1F
100
AcDbEntity
  8
AM_0
100
AcDbLine
 10
124.3141055555045
 20
-145.0306236234382
 30
0.0
 11
125.8166046302642
 21
-145.0306236234382
 31
0.0
  0
LINE
  5
FCC3
330
1F
100
AcDbEntity
  8
AM_0
100
AcDbLine
 10
123.8882144876517
 20
-145.0306236234382
 30
0.0
 11
124.3141055555045
 21
-145.0306236234382
 31
0.0
  0
LINE
  5
FCC4
330
1F
100
AcDbEntity
  8
AM_0
100
AcDbLine
 10
123.8882144876517
 20
-129.0306236234383
 30
0.0
 11
124.3141055555045
 21
-129.0306236234383
 31
0.0
  0
LINE
  5
FCC5
330
1F
100
AcDbEntity
  8
AM_0
100
AcDbLine
 10
124.2905588853311
 20
-117.0306236234383
 30
0.0
 11
124.3141055555045
 21
-117.0306236234383
 31
0.0
  0
SPLINE
  5
FCC6
330
1F
100
AcDbEntity
  8
AM_0
100
AcDbSpline
210
0.0
220
0.0
230
1.0
 70
     8
 71
     3
 72
     8
 73
     4
 74
     0
 42
0.0000000001
 43
0.0000000001
 40
-2.06357559427948
 40
-2.06357559427948
 40
-2.06357559427948
 40
-2.06357559427948
 40
-1.776340743961663
 40
-1.776340743961663
 40
-1.776340743961663
 40
-1.776340743961663
 10
124.2905588853311
 20
-117.0306236234383
 30
0.0
 10
124.3067192703012
 20
-116.9271784674811
 30
0.0
 10
124.3141055555045
 20
-116.8224280692975
 30
0.0
 10
124.3141055555045
 20
-116.7266831191919
 30
0.0
  0
ARC
  5
FCC7
330
1F
100
AcDbEntity
  8
AM_0
100
AcDbCircle
 10
122.5517288280645
 20
-109.0296917906589
 30
0.0
 40
8.001235164662798
100
AcDbArc
 50
207.259568843859
 51
244.1384544096971
  0
LINE
  5
FCC8
330
1F
100
AcDbEntity
  8
AM_0
100
AcDbLine
 10
115.4391055555045
 20
-112.6944365761628
 30
0.0
 11
119.0616064807456
 21
-112.6944365761628
 31
0.0
  0
SPLINE
  5
FCC9
330
1F
100
AcDbEntity
  8
AM_0
100
AcDbSpline
210
0.0
220
0.0
230
1.0
 70
    12
 71
     2
 72
     6
 73
     3
 74
     0
 42
0.0000000001
 43
0.0000000001
 40
0.0
 40
0.0
 40
0.0
 40
3.788582771409915
 40
3.788582771409915
 40
3.788582771409915
 10
119.0616064807456
 20
-112.6944365761628
 30
0.0
 41
1.0
 10
119.870666515738
 20
-114.508278331823
 30
0.0
 41
1.001661993538562
 10
120.5641055555045
 20
-116.1722676946256
 30
0.0
 41
1.0
  0
SPLINE
  5
FCCA
330
1F
100
AcDbEntity
  8
AM_0
100
AcDbSpline
210
0.0
220
0.0
230
1.0
 70
     8
 71
     3
 72
     8
 73
     4
 74
     0
 42
0.0000000001
 43
0.0000000001
 40
1.776340743961663
 40
1.776340743961663
 40
1.776340743961663
 40
1.776340743961663
 40
1.82900694760964
 40
1.82900694760964
 40
1.82900694760964
 40
1.82900694760964
 10
120.5641055555045
 20
-116.7266831191919
 30
0.0
 10
120.5641055555045
 20
-116.7442385204076
 30
0.0
 10
120.5643406248448
 20
-116.7620970154712
 30
0.0
 10
120.5648315439641
 20
-116.780194708389
 30
0.0
  0
SPLINE
  5
FCCB
330
1F
100
AcDbEntity
  8
AM_0
100
AcDbSpline
210
0.0
220
0.0
230
1.0
 70
    24
 71
     3
 72
     8
 73
     4
 74
     0
 42
0.0000000001
 43
0.0000000001
 40
-1.94204761059973
 40
-1.94204761059973
 40
-1.94204761059973
 40
-1.94204761059973
 40
-1.894302822527507
 40
-1.894302822527507
 40
-1.894302822527507
 40
-1.894302822527507
 10
120.5648315439641
 20
-116.780194708389
 30
0.0
 10
120.5643465193545
 20
-116.7800704107985
 30
0.0
 10
120.5641055555045
 20
-116.7800086225871
 30
0.0
 10
120.5641055555045
 20
-116.7800086225871
 30
0.0
  0
LINE
  5
FCCC
330
1F
100
AcDbEntity
  8
AM_0
100
AcDbLine
 10
120.5641055555045
 20
-116.1722676946256
 30
0.0
 11
120.5641055555045
 21
-116.7266831191919
 31
0.0
  0
LINE
  5
FCCD
330
1F
100
AcDbEntity
  8
AM_0
100
AcDbLine
 10
127.4391055555045
 20
-145.0306236234382
 30
0.0
 11
125.8166046302642
 21
-145.0306236234382
 31
0.0
  0
LINE
  5
FCCE
330
1F
100
AcDbEntity
  8
AM_0
100
AcDbLine
 10
125.8166046302642
 20
-129.0306236234383
 30
0.0
 11
127.4391055555045
 21
-129.0306236234383
 31
0.0
  0
LINE
  5
FCCF
330
1F
100
AcDbEntity
  8
AM_0
100
AcDbLine
 10
124.3141055555045
 20
-129.0306236234383
 30
0.0
 11
125.8166046302642
 21
-129.0306236234383
 31
0.0
  0
ARC
  5
FCD0
330
1F
100
AcDbEntity
  8
AM_0
100
AcDbCircle
 10
127.4391055555044
 20
-137.0306236234382
 30
0.0
 40
8.000000000000057
100
AcDbArc
 50
270.0
 51
90.0
  0
LINE
  5
FCD1
330
1F
100
AcDbEntity
  8
AM_0
100
AcDbLine
 10
124.3141055555045
 20
-117.0306236234383
 30
0.0
 11
125.8166046302642
 21
-117.0306236234383
 31
0.0
  0
SPLINE
  5
FCD2
330
1F
100
AcDbEntity
  8
AM_0
100
AcDbSpline
210
0.0
220
0.0
230
1.0
 70
    12
 71
     2
 72
     6
 73
     3
 74
     0
 42
0.0000000001
 43
0.0000000001
 40
0.0
 40
0.0
 40
0.0
 40
3.788582771409939
 40
3.788582771409939
 40
3.788582771409939
 10
124.3141055555045
 20
-116.1722676946256
 30
0.0
 41
1.0
 10
125.0075445952708
 20
-114.508278331823
 30
0.0
 41
1.001661993538315
 10
125.8166046302642
 20
-112.6944365761628
 30
0.0
 41
1.0
  0
LINE
  5
FCD3
330
1F
100
AcDbEntity
  8
AM_0
100
AcDbLine
 10
124.3141055555045
 20
-116.7266831191919
 30
0.0
 11
124.3141055555045
 21
-116.1722676946256
 31
0.0
  0
ARC
  5
FCD4
330
1F
100
AcDbEntity
  8
AM_0
100
AcDbCircle
 10
122.550229297046
 20
-109.0322346679532
 30
0.0
 40
7.99829286590654
100
AcDbArc
 50
244.1401747691823
 51
255.6219705914312
  0
ARC
  5
FCD5
330
1F
100
AcDbEntity
  8
AM_0
100
AcDbCircle
 10
128.3271935491795
 20
-109.0302987182877
 30
0.0
 40
8.000324907604083
100
AcDbArc
 50
270.0014187482344
 51
332.7419619425978
  0
LINE
  5
FCD6
330
1F
100
AcDbEntity
  8
AM_0
100
AcDbLine
 10
125.8166046302642
 20
-112.6944365761628
 30
0.0
 11
135.4391055555045
 21
-112.6944365761628
 31
0.0
  0
LINE
  5
FCD7
330
1F
100
AcDbEntity
  8
AM_0
100
AcDbLine
 10
128.3273916518485
 20
-117.0306236234383
 30
0.0
 11
125.8166046302642
 21
-117.0306236234383
 31
0.0
  0
LINE
  5
FCD8
330
1F
100
AcDbEntity
  8
AM_0
100
AcDbLine
 10
171.2990306958374
 20
-159.8076273664219
 30
0.0
 11
140.4391055555045
 21
-161.3506236234389
 31
0.0
  0
LINE
  5
FCD9
330
1F
100
AcDbEntity
  8
AM_0
100
AcDbLine
 10
171.2990306958374
 20
-114.2536198804555
 30
0.0
 11
140.4391055555045
 21
-112.7106236234386
 31
0.0
  0
LINE
  5
FCDA
330
1F
100
AcDbEntity
  8
AM_0
100
AcDbLine
 10
124.3141055555045
 20
-165.9282188876305
 30
0.0
 11
125.8166046302642
 21
-168.5306236234383
 31
0.0
  0
LINE
  5
FCDB
330
1F
100
AcDbEntity
  8
AM_0
100
AcDbLine
 10
119.0616064807456
 20
-168.5306236234383
 30
0.0
 11
114.4391055555045
 21
-168.5306236234383
 31
0.0
  0
LINE
  5
FCDC
330
1F
100
AcDbEntity
  8
AM_0
100
AcDbLine
 10
119.0616064807456
 20
-105.5306236234383
 30
0.0
 11
114.4391055555045
 21
-105.5306236234383
 31
0.0
  0
LINE
  5
FCDD
330
1F
100
AcDbEntity
  8
AM_0
100
AcDbLine
 10
123.3141055555045
 20
-164.5306236234383
 30
0.0
 11
121.5641055555045
 21
-164.5306236234383
 31
0.0
  0
LINE
  5
FCDE
330
1F
100
AcDbEntity
  8
AM_0
100
AcDbLine
 10
123.3141055555045
 20
-109.5306236234383
 30
0.0
 11
121.5641055555045
 21
-109.5306236234383
 31
0.0
  0
LINE
  5
FCDF
330
1F
100
AcDbEntity
  8
AM_0
100
AcDbLine
 10
120.5641055555045
 20
-165.9282188876305
 30
0.0
 11
119.0616064807456
 21
-168.5306236234383
 31
0.0
  0
LINE
  5
FCE0
330
1F
100
AcDbEntity
  8
AM_0
100
AcDbLine
 10
120.5641055555045
 20
-108.133028359247
 30
0.0
 11
119.0616064807456
 21
-105.5306236234383
 31
0.0
  0
LINE
  5
FCE1
330
1F
100
AcDbEntity
  8
AM_0
100
AcDbLine
 10
124.3141055555045
 20
-108.133028359247
 30
0.0
 11
125.8166046302642
 21
-105.5306236234383
 31
0.0
  0
LINE
  5
FCE2
330
1F
100
AcDbEntity
  8
AM_0
100
AcDbLine
 10
140.4391055555045
 20
-168.5306236234383
 30
0.0
 11
138.4391055555045
 21
-168.5306236234383
 31
0.0
  0
LINE
  5
FCE3
330
1F
100
AcDbEntity
  8
AM_0
100
AcDbLine
 10
128.4391055555045
 20
-168.5306236234383
 30
0.0
 11
125.8166046302642
 21
-168.5306236234383
 31
0.0
  0
LINE
  5
FCE4
330
1F
100
AcDbEntity
  8
AM_0
100
AcDbLine
 10
140.4391055555045
 20
-105.5306236234383
 30
0.0
 11
125.8166046302642
 21
-105.5306236234383
 31
0.0
  0
LINE
  5
FCE5
330
1F
100
AcDbEntity
  8
AM_0
100
AcDbLine
 10
111.4391055555045
 20
-132.0306236234382
 30
0.0
 11
111.4391055555045
 21
-142.0306236234382
 31
0.0
  0
LINE
  5
FCE6
330
1F
100
AcDbEntity
  8
AM_0
100
AcDbLine
 10
114.4391055555045
 20
-105.5306236234383
 30
0.0
 11
114.4391055555045
 21
-129.0306236234383
 31
0.0
  0
LINE
  5
FCE7
330
1F
100
AcDbEntity
  8
AM_0
100
AcDbLine
 10
114.4391055555045
 20
-145.0306236234382
 30
0.0
 11
114.4391055555045
 21
-168.5306236234383
 31
0.0
  0
LINE
  5
FCE8
330
1F
100
AcDbEntity
  8
AM_0
100
AcDbLine
 10
172.4391055555045
 20
-129.6634230850596
 30
0.0
 11
172.4391055555045
 21
-129.6059230850597
 31
0.0
  0
LINE
  5
FCE9
330
1F
100
AcDbEntity
  8
AM_0
100
AcDbLine
 10
172.4391055555045
 20
-144.4553241618178
 30
0.0
 11
172.4391055555045
 21
-144.3978241618179
 31
0.0
  0
LINE
  5
FCEA
330
1F
100
AcDbEntity
  8
AM_0
100
AcDbLine
 10
172.4391055555045
 20
-144.4553241618178
 30
0.0
 11
172.4391055555045
 21
-158.609124559769
 31
0.0
  0
LINE
  5
FCEB
330
1F
100
AcDbEntity
  8
AM_0
100
AcDbLine
 10
172.4391055555045
 20
-115.4521226871084
 30
0.0
 11
172.4391055555045
 21
-129.6059230850597
 31
0.0
  0
LINE
  5
FCEC
330
1F
100
AcDbEntity
  8
AM_0
100
AcDbLine
 10
166.4391055555045
 20
-128.9279554272623
 30
0.0
 11
166.4391055555045
 21
-145.1332918196154
 31
0.0
  0
LINE
  5
FCED
330
1F
100
AcDbEntity
  8
AM_0
100
AcDbLine
 10
125.8166046302642
 20
-145.0306236234391
 30
0.0
 11
125.8166046302642
 21
-168.5306236234383
 31
0.0
  0
LINE
  5
FCEE
330
1F
100
AcDbEntity
  8
AM_0
100
AcDbLine
 10
124.3141055555045
 20
-145.0306236234382
 30
0.0
 11
124.3141055555045
 21
-165.9282188876305
 31
0.0
  0
LINE
  5
FCEF
330
1F
100
AcDbEntity
  8
AM_0
100
AcDbLine
 10
123.3141055555045
 20
-144.3790928517882
 30
0.0
 11
123.3141055555045
 21
-164.5306236234383
 31
0.0
  0
LINE
  5
FCF0
330
1F
100
AcDbEntity
  8
AM_0
100
AcDbLine
 10
119.0616064807456
 20
-145.0306236234382
 30
0.0
 11
119.0616064807456
 21
-168.5306236234383
 31
0.0
  0
LINE
  5
FCF1
330
1F
100
AcDbEntity
  8
AM_0
100
AcDbLine
 10
119.0616064807456
 20
-116.2296091624758
 30
0.0
 11
119.0616064807456
 21
-129.0306236234383
 31
0.0
  0
LINE
  5
FCF2
330
1F
100
AcDbEntity
  8
AM_0
100
AcDbLine
 10
119.0616064807456
 20
-105.5306236234383
 30
0.0
 11
119.0616064807456
 21
-112.6944365761628
 31
0.0
  0
LINE
  5
FCF3
330
1F
100
AcDbEntity
  8
AM_0
100
AcDbLine
 10
121.5641055555045
 20
-144.3790928517882
 30
0.0
 11
121.5641055555045
 21
-164.5306236234383
 31
0.0
  0
LINE
  5
FCF4
330
1F
100
AcDbEntity
  8
AM_0
100
AcDbLine
 10
120.5641055555045
 20
-145.0306236234382
 30
0.0
 11
120.5641055555045
 21
-165.9282188876305
 31
0.0
  0
LINE
  5
FCF5
330
1F
100
AcDbEntity
  8
AM_0
100
AcDbLine
 10
120.5641055555045
 20
-108.133028359247
 30
0.0
 11
120.5641055555045
 21
-116.1722676946256
 31
0.0
  0
LINE
  5
FCF6
330
1F
100
AcDbEntity
  8
AM_0
100
AcDbLine
 10
125.8166046302642
 20
-117.0306236234383
 30
0.0
 11
125.8166046302642
 21
-129.0306236234383
 31
0.0
  0
LINE
  5
FCF7
330
1F
100
AcDbEntity
  8
AM_0
100
AcDbLine
 10
124.3141055555045
 20
-117.0306236234383
 30
0.0
 11
124.3141055555045
 21
-129.0306236234383
 31
0.0
  0
LINE
  5
FCF8
330
1F
100
AcDbEntity
  8
AM_0
100
AcDbLine
 10
124.3141055555045
 20
-108.133028359247
 30
0.0
 11
124.3141055555045
 21
-116.1722676946256
 31
0.0
  0
LINE
  5
FCF9
330
1F
100
AcDbEntity
  8
AM_0
100
AcDbLine
 10
125.8166046302642
 20
-105.5306236234383
 30
0.0
 11
125.8166046302642
 21
-112.6944365761628
 31
0.0
  0
LINE
  5
FCFA
330
1F
100
AcDbEntity
  8
AM_0
100
AcDbLine
 10
120.5641055555045
 20
-116.7800086225871
 30
0.0
 11
120.5641055555045
 21
-129.0306236234383
 31
0.0
  0
LINE
  5
FCFB
330
1F
100
AcDbEntity
  8
AM_0
100
AcDbLine
 10
140.4391055555045
 20
-105.5306236234383
 30
0.0
 11
140.4391055555045
 21
-168.5306236234383
 31
0.0
  0
ARC
  5
FCFC
330
1F
100
AcDbEntity
  8
AM_0
100
AcDbCircle
 10
171.2391055555046
 20
-158.609124559769
 30
0.0
 40
1.2
100
AcDbArc
 50
272.8624052261126
 51
0.0
  0
ARC
  5
FCFD
330
1F
100
AcDbEntity
  8
AM_0
100
AcDbCircle
 10
171.2391055555046
 20
-115.4521226871084
 30
0.0
 40
1.2
100
AcDbArc
 50
0.0
 51
87.13759477388736
  0
ARC
  5
FCFE
330
1F
100
AcDbEntity
  8
AM_0
100
AcDbCircle
 10
123.3141055555044
 20
-165.5306236234382
 30
0.0
 40
1.0
100
AcDbArc
 50
0.0
 51
90.0
  0
ARC
  5
FCFF
330
1F
100
AcDbEntity
  8
AM_0
100
AcDbCircle
 10
123.3141055555044
 20
-108.5306236234383
 30
0.0
 40
1.0
100
AcDbArc
 50
270.0
 51
0.0
  0
ARC
  5
FD00
330
1F
100
AcDbEntity
  8
AM_0
100
AcDbCircle
 10
121.5641055555044
 20
-165.5306236234382
 30
0.0
 40
1.0
100
AcDbArc
 50
90.0
 51
180.0
  0
ARC
  5
FD01
330
1F
100
AcDbEntity
  8
AM_0
100
AcDbCircle
 10
121.5641055555044
 20
-108.5306236234383
 30
0.0
 40
1.0
100
AcDbArc
 50
180.0
 51
270.0
  0
LINE
  5
FD9B
330
1F
100
AcDbEntity
  8
AM_3
  6
ACJISTGL
100
AcDbLine
 10
120.4391055555045
 20
-128.0306236234383
 30
0.0
 11
120.9391055555045
 21
-128.5306236234383
 31
0.0
  0
ARC
  5
FDC2
330
1F
100
AcDbEntity
  8
AM_0
100
AcDbCircle
 10
167.9391055555044
 20
-132.3181236234386
 30
0.0
 40
1.5
100
AcDbArc
 50
90.0
 51
180.0
1001
GENIUS_GENOBJ-N-FIL_13
1002
{
1000
OWNER
1000
GEN
1002
}
1001
GENIUS_GENODEF_13
1002
{
1000
HIER
1070
     0
1002
}
1002
{
1000
MANEDIT
1070
     0
1002
}
1002
{
1000
NOSEL
1070
     0
1002
}
1002
{
1000
BEHIND
1070
     0
1002
}
1002
{
1000
OTHER
1070
     0
1002
}
1002
{
1000
REACTOR
1002
}
  0
ARC
  5
FDC3
330
1F
100
AcDbEntity
  8
AM_0
100
AcDbCircle
 10
167.9391055555044
 20
-141.7431236234388
 30
0.0
 40
1.5
100
AcDbArc
 50
180.0
 51
270.0
1001
GENIUS_GENODEF_13
1002
{
1000
HIER
1070
     0
1002
}
1002
{
1000
MANEDIT
1070
     0
1002
}
1002
{
1000
NOSEL
1070
     0
1002
}
1002
{
1000
BEHIND
1070
     0
1002
}
1002
{
1000
OTHER
1070
     0
1002
}
1002
{
1000
REACTOR
1002
}
1001
GENIUS_GENOBJ-N-FIL_13
1002
{
1000
OWNER
1000
GEN
1002
}
  0
ARC
  5
FDC4
330
1F
100
AcDbEntity
  8
AM_0
100
AcDbCircle
 10
167.9391055555044
 20
-145.1332918196154
 30
0.0
 40
1.5
100
AcDbArc
 50
180.0
 51
280.7630026735891
1001
GENIUS_GENOBJ-N-FIL_13
1002
{
1000
OWNER
1000
GEN
1002
}
1001
GENIUS_GENODEF_13
1002
{
1000
HIER
1070
     0
1002
}
1002
{
1000
MANEDIT
1070
     0
1002
}
1002
{
1000
NOSEL
1070
     0
1002
}
1002
{
1000
BEHIND
1070
     0
1002
}
1002
{
1000
OTHER
1070
     0
1002
}
1002
{
1000
REACTOR
1002
}
  0
ARC
  5
FDC5
330
1F
100
AcDbEntity
  8
AM_0
100
AcDbCircle
 10
167.9391055555044
 20
-128.9279554272623
 30
0.0
 40
1.5
100
AcDbArc
 50
79.23699732641735
 51
179.9999999999994
1001
GENIUS_GENOBJ-N-FIL_13
1002
{
1000
OWNER
1000
GEN
1002
}
1001
GENIUS_GENODEF_13
1002
{
1000
HIER
1070
     0
1002
}
1002
{
1000
MANEDIT
1070
     0
1002
}
1002
{
1000
NOSEL
1070
     0
1002
}
1002
{
1000
BEHIND
1070
     0
1002
}
1002
{
1000
OTHER
1070
     0
1002
}
1002
{
1000
REACTOR
1002
}
  0
ARC
  5
FDCA
330
1F
100
AcDbEntity
  8
AM_11
  6
ACJISTGB
100
AcDbCircle
 10
171.2391055555046
 20
21.57850093632987
 30
0.0
 40
1.2
100
AcDbArc
 50
0.0
 51
87.13759477388736
  0
ARC
  5
FDCB
330
1F
100
AcDbEntity
  8
AM_11
  6
ACJISTGB
100
AcDbCircle
 10
171.2391055555046
 20
-21.57850093633078
 30
0.0
 40
1.2
100
AcDbArc
 50
272.8624052261126
 51
0.0
  0
LINE
  5
FDCC
330
1F
100
AcDbEntity
  8
AM_11
  6
ACJISTGB
100
AcDbLine
 10
172.4391055555045
 20
-20.26093592543688
 30
0.0
 11
172.4391055555045
 21
-21.57850093633081
 31
0.0
  0
LINE
  5
FDCD
330
1F
100
AcDbEntity
  8
AM_0
100
AcDbLine
 10
166.4391055555045
 20
-23.01999999999956
 30
0.0
 11
153.9391055555045
 21
-23.64499999999956
 31
0.0
  0
LINE
  5
FDCE
330
1F
100
AcDbEntity
  8
AM_0
100
AcDbLine
 10
172.4391055555045
 20
20.28895312868858
 30
0.0
 11
172.4391055555045
 21
-20.26093592543688
 31
0.0
  0
LINE
  5
FDCF
330
1F
100
AcDbEntity
  8
AM_0
100
AcDbLine
 10
162.4391055555045
 20
23.22000000000023
 30
0.0
 11
153.9391055555045
 21
23.64500000000041
 31
0.0
  0
DIMENSION
  5
FDD6
330
1F
100
AcDbEntity
  8
AM_5
100
AcDbDimension
  2
*D4
 10
197.8599132910993
 20
-31.50000000000001
 30
0.0
 11
197.8599132910993
 21
-0.0000000000000284
 31
0.0
 70
   160
  1
%%c<>
 71
     5
 42
63.0
  3
AM_JIS$0
100
AcDbAlignedDimension
 13
140.4391055555045
 23
31.5
 33
0.0
 14
140.4391055555045
 24
-31.5
 34
0.0
 50
90.0
100
AcDbRotatedDimension
1001
ACAD
1000
DSTYLE
1002
{
1070
   179
1070
     0
1070
   271
1070
     0
1070
   272
1070
     2
1002
}
  0
TEXT
  5
FE36
330
1F
100
AcDbEntity
  8
AM_0
 62
     0
100
AcDbText
 10
-57.17140061116157
 20
-205.0390316203087
 30
0.0
 40
5.0
  1
H63A-WH-DCMNN-L12
100
AcDbText
  0
LINE
  5
FF1B
330
1F
100
AcDbEntity
  8
AM_7
100
AcDbLine
 10
185.924429077332
 20
0.0
 30
0.0
 11
-10.73356853111415
 21
0.0
 31
0.0
1001
GENIUS_GENODEF_13
1002
{
1000
HIER
1070
     0
1002
}
1002
{
1000
MANEDIT
1070
     0
1002
}
1002
{
1000
NOSEL
1070
     0
1002
}
1002
{
1000
BEHIND
1070
     0
1002
}
1002
{
1000
OTHER
1070
     0
1002
}
1002
{
1000
REACTOR
1002
}
1001
GENIUS_GENOBJ-N-CEN_13
1002
{
1000
OWNER
1000
GEN
1002
}
  0
LINE
  5
FF1C
330
1F
100
AcDbEntity
  8
AM_7
100
AcDbLine
 10
-99.96281733339816
 20
0.0000000000000284
 30
0.0
 11
-62.85218503295488
 21
0.0
 31
0.0
1001
GENIUS_GENOREF_13
1005
FF53
  0
LINE
  5
FF1D
330
1F
100
AcDbEntity
  8
AM_7
100
AcDbLine
 10
-99.96281733339816
 20
0.0000000000000284
 30
0.0
 11
-99.96281733339816
 21
37.11063230044331
 31
0.0
1001
GENIUS_GENOREF_13
1005
FF53
  0
LINE
  5
FF1E
330
1F
100
AcDbEntity
  8
AM_7
100
AcDbLine
 10
-99.96281733339816
 20
0.0000000000000284
 30
0.0
 11
-137.0734496338415
 21
0.0000000000000284
 31
0.0
1001
GENIUS_GENOREF_13
1005
FF53
  0
LINE
  5
FF1F
330
1F
100
AcDbEntity
  8
AM_7
100
AcDbLine
 10
-99.96281733339816
 20
0.0000000000000284
 30
0.0
 11
-99.96281733339816
 21
-37.11063230044323
 31
0.0
1001
GENIUS_GENOREF_13
1005
FF53
  0
LINE
  5
FF20
330
1F
100
AcDbEntity
  8
AM_7
100
AcDbLine
 10
179.9095236860232
 20
-137.0306236234383
 30
0.0
 11
-10.73356853111415
 21
-137.0306236234382
 31
0.0
1001
GENIUS_GENODEF_13
1002
{
1000
HIER
1070
     0
1002
}
1002
{
1000
MANEDIT
1070
     0
1002
}
1002
{
1000
NOSEL
1070
     0
1002
}
1002
{
1000
BEHIND
1070
     0
1002
}
1002
{
1000
OTHER
1070
     0
1002
}
1002
{
1000
REACTOR
1002
}
1001
GENIUS_GENOBJ-N-CEN_13
1002
{
1000
OWNER
1000
GEN
1002
}
  0
LINE
  5
FF23
330
1F
100
AcDbEntity
  8
AM_0
100
AcDbLine
 10
114.4391055555045
 20
-106.0306236234384
 30
0.0
 11
48.9196460209734
 21
-106.0306236234382
 31
0.0
  0
LINE
  5
FF24
330
1F
100
AcDbEntity
  8
AM_0
100
AcDbLine
 10
114.4391055555045
 20
-168.0306236234383
 30
0.0
 11
5.880003888155613
 21
-168.0306236234382
 31
0.0
  0
LINE
  5
FF27
330
1F
100
AcDbEntity
  8
AM_0
100
AcDbLine
 10
111.4391055555044
 20
30.9999999999998
 30
0.0
 11
37.46421865050769
 21
30.99999999999977
 31
0.0
  0
LINE
  5
FF28
330
1F
100
AcDbEntity
  8
AM_0
100
AcDbLine
 10
111.4391055555045
 20
-30.99999999999994
 30
0.0
 11
38.16253894757818
 21
-31.0
 31
0.0
  0
DIMENSION
  5
FF49
330
1F
100
AcDbEntity
  8
AM_5
100
AcDbDimension
  2
*D5
 10
0.4391055555044545
 20
-32.46616832318
 30
0.0
 11
15.6194205103093
 21
-33.18854688696835
 31
0.0
 70
    34
 71
     5
 42
0.8665582755010534
  3
AM_JIS$2
100
AcDb2LineAngularDimension
 13
9.24932224754474
 23
-7.857846010289222
 33
0.0
 14
0.7213571659273725
 24
-0.6128355544954047
 34
0.0
 15
0.4391055555044545
 25
-20.14900311338647
 35
0.0
 16
11.70690722507582
 26
-38.29085875723177
 36
0.0
1001
ACAD
1000
DSTYLE
1002
{
1070
    79
1070
     1
1070
   179
1070
     0
1070
   271
1070
     0
1070
   272
1070
     2
1002
}
  0
POINT
  5
FF53
330
1F
100
AcDbEntity
  8
0
 60
     1
100
AcDbPoint
 10
-596.0690445237045
 20
24.85960244156547
 30
0.0
1001
GENIUS_GENOLIS_13
1002
{
1000
ENT
1005
FF1F
1005
FF1E
1005
FF1D
1005
FF1C
1002
}
1001
GENIUS_GENOBJ-N-CRS_13
1002
{
1000
OWNER
1000
GEN
1002
}
1001
GENIUS_GENOENT_13
1002
{
1000
MYREF
1005
FF53
1002
}
1002
{
1000
GRP
1005
0
1002
}
1001
GENIUS_GENODEF_13
1002
{
1000
HIER
1070
    10
1002
}
1002
{
1000
MANEDIT
1070
     0
1002
}
1002
{
1000
NOSEL
1070
     0
1002
}
1002
{
1000
BEHIND
1070
     0
1002
}
1002
{
1000
OTHER
1070
     0
1002
}
1002
{
1000
REACTOR
1002
}
  0
ELLIPSE
  5
10BAA
330
1F
100
AcDbEntity
  8
AM_0
100
AcDbEllipse
 10
44.00101705961379
 20
-10.15000000000021
 30
0.0
 11
2.956606960078189E-15
 21
5.499999999999989
 31
0.0
210
0.0
220
0.0
230
1.0
 40
0.3838640350354155
 41
4.71238898038469
 42
7.853981633974483
  0
SPLINE
  5
10BAB
330
1F
100
AcDbEntity
  8
AM_0
100
AcDbSpline
210
0.0
220
0.0
230
1.0
 70
    11
 71
     3
 72
    70
 73
    66
 74
     0
 42
0.0000000001
 43
0.0000000001
 40
0.0
 40
0.0
 40
0.0
 40
0.0
 40
0.6597791926620007
 40
0.6597791926620007
 40
1.319558385324001
 40
1.319558385324001
 40
1.979337577986002
 40
1.979337577986002
 40
2.639116770648003
 40
2.639116770648003
 40
3.298892640286395
 40
3.298892640286395
 40
3.958668509924787
 40
3.958668509924787
 40
4.618444379563178
 40
4.618444379563178
 40
5.278220249201571
 40
5.278220249201571
 40
5.937996118839964
 40
5.937996118839964
 40
6.597771988478357
 40
6.597771988478357
 40
7.25754785811675
 40
7.25754785811675
 40
7.917323727755142
 40
7.917323727755142
 40
8.577102920417142
 40
8.577102920417142
 40
9.236882113079142
 40
9.236882113079142
 40
9.896661305741141
 40
9.896661305741141
 40
10.55644049840314
 40
10.55644049840314
 40
11.21621969106514
 40
11.21621969106514
 40
11.87599888372714
 40
11.87599888372714
 40
12.53577807638915
 40
12.53577807638915
 40
13.19555726905115
 40
13.19555726905115
 40
13.85533313868954
 40
13.85533313868954
 40
14.51510900832793
 40
14.51510900832793
 40
15.17488487796633
 40
15.17488487796633
 40
15.83466074760472
 40
15.83466074760472
 40
16.49443661724311
 40
16.49443661724311
 40
17.15421248688151
 40
17.15421248688151
 40
17.8139883565199
 40
17.8139883565199
 40
18.47376422615829
 40
18.47376422615829
 40
19.13354341882029
 40
19.13354341882029
 40
19.79332261148229
 40
19.79332261148229
 40
20.45310180414429
 40
20.45310180414429
 40
21.11288099680629
 40
21.11288099680629
 40
21.11288099680629
 40
21.11288099680629
 10
109.4391055555045
 20
-12.74715956369261
 30
0.0
 10
109.6590319530585
 20
-12.74715956369261
 30
0.0
 10
109.8864127904661
 20
-12.76658088414291
 30
0.0
 10
110.3386141064666
 20
-12.84818746944865
 30
0.0
 10
110.5634385659764
 20
-12.91035248670193
 30
0.0
 10
110.9945489665107
 20
-13.07421152305119
 30
0.0
 10
111.201181657341
 20
-13.17602744946919
 30
0.0
 10
111.5832644547041
 20
-13.41034706683814
 30
0.0
 10
111.7587049655593
 20
-13.54285294560378
 30
0.0
 10
112.0692528317056
 20
-13.82393563893453
 30
0.0
 10
112.2149980955959
 20
-13.98215051592024
 30
0.0
 10
112.4719402524146
 20
-14.32481845191683
 30
0.0
 10
112.5831535923746
 20
-14.50925129806097
 30
0.0
 10
112.7618033164419
 20
-14.89170967498438
 30
0.0
 10
112.8293818843368
 20
-15.09003456421885
 30
0.0
 10
112.918042796509
 20
-15.48644910680952
 30
0.0
 10
112.9391055555045
 20
-15.68453911202977
 30
0.0
 10
112.9391055555045
 20
-16.06546088797029
 30
0.0
 10
112.918042796509
 20
-16.26120532851604
 30
0.0
 10
112.8293818843368
 20
-16.64802667782692
 30
0.0
 10
112.7618033164419
 20
-16.83911011221801
 30
0.0
 10
112.5831535923746
 20
-17.20335884419006
 30
0.0
 10
112.4719402524146
 20
-17.37682535586265
 30
0.0
 10
112.2149980955959
 20
-17.69594464794557
 30
0.0
 10
112.0692528317056
 20
-17.84160102490642
 30
0.0
 10
111.7587049655593
 20
-18.09840301392313
 30
0.0
 10
111.5832644547041
 20
-18.21833548308456
 30
0.0
 10
111.201181657341
 20
-18.42905212088152
 30
0.0
 10
110.9945489665107
 20
-18.51986266317891
 30
0.0
 10
110.5634385659764
 20
-18.66543324197608
 30
0.0
 10
110.3386141064666
 20
-18.72031768038102
 30
0.0
 10
109.8864127904661
 20
-18.79227659714979
 30
0.0
 10
109.6590319530585
 20
-18.80933739018366
 30
0.0
 10
109.2191791579505
 20
-18.80933739018366
 30
0.0
 10
108.9917983205429
 20
-18.79227659714979
 30
0.0
 10
108.5395970045424
 20
-18.72031768038102
 30
0.0
 10
108.3147725450327
 20
-18.66543324197608
 30
0.0
 10
107.8836621444983
 20
-18.51986266317891
 30
0.0
 10
107.677029453668
 20
-18.42905212088152
 30
0.0
 10
107.2949466563049
 20
-18.21833548308456
 30
0.0
 10
107.1195061454497
 20
-18.09840301392313
 30
0.0
 10
106.8089582793034
 20
-17.84160102490642
 30
0.0
 10
106.6632130154131
 20
-17.69594464794557
 30
0.0
 10
106.4062708585944
 20
-17.37682535586265
 30
0.0
 10
106.2950575186345
 20
-17.20335884419006
 30
0.0
 10
106.1164077945671
 20
-16.83911011221801
 30
0.0
 10
106.0488292266722
 20
-16.64802667782692
 30
0.0
 10
105.9601683145
 20
-16.26120532851604
 30
0.0
 10
105.9391055555045
 20
-16.06546088797029
 30
0.0
 10
105.9391055555045
 20
-15.68453911202977
 30
0.0
 10
105.9601683145
 20
-15.48644910680952
 30
0.0
 10
106.0488292266722
 20
-15.09003456421885
 30
0.0
 10
106.1164077945671
 20
-14.89170967498438
 30
0.0
 10
106.2950575186345
 20
-14.50925129806097
 30
0.0
 10
106.4062708585944
 20
-14.32481845191683
 30
0.0
 10
106.6632130154131
 20
-13.98215051592024
 30
0.0
 10
106.8089582793034
 20
-13.82393563893453
 30
0.0
 10
107.1195061454497
 20
-13.54285294560378
 30
0.0
 10
107.2949466563049
 20
-13.41034706683814
 30
0.0
 10
107.677029453668
 20
-13.17602744946919
 30
0.0
 10
107.8836621444984
 20
-13.07421152305119
 30
0.0
 10
108.3147725450327
 20
-12.91035248670193
 30
0.0
 10
108.5395970045424
 20
-12.84818746944865
 30
0.0
 10
108.9917983205429
 20
-12.76658088414291
 30
0.0
 10
109.2191791579505
 20
-12.74715956369261
 30
0.0
 10
109.4391055555045
 20
-12.74715956369261
 30
0.0
  0
ELLIPSE
  5
10BAC
330
1F
100
AcDbEntity
  8
AM_0
100
AcDbEllipse
 10
109.4391055555045
 20
-15.37500000000006
 30
0.0
 11
-3.0
 21
3.885076497181760E-16
 31
0.0
210
0.0
220
0.0
230
1.0
 40
0.8660254037844387
 41
0.0000000000000002
 42
6.283185307179586
  0
ELLIPSE
  5
10BAD
330
1F
100
AcDbEntity
  8
AM_0
100
AcDbEllipse
 10
109.4391055555045
 20
-15.37500000000006
 30
0.0
 11
-3.5
 21
4.532589246712055E-16
 31
0.0
210
0.0
220
0.0
230
1.0
 40
0.8660254037844386
 41
0.0824640831713056
 42
3.059128570418557
  0
LINE
  5
10BC1
330
1F
100
AcDbEntity
  8
AM_0
100
AcDbLine
 10
44.23910555550503
 20
-7.935489202799829
 30
0.0
 11
44.23910555550503
 21
-12.36451079720058
 31
0.0
  0
ARC
  5
10BC2
330
1F
100
AcDbEntity
  8
AM_0
100
AcDbCircle
 10
47.58901258583245
 20
-10.36451079720038
 30
0.0
 40
3.901522409500942
100
AcDbArc
 50
210.8385318138122
 51
239.4457706852613
  0
ARC
  5
10BC3
330
1F
100
AcDbEntity
  8
AM_0
100
AcDbCircle
 10
47.58901258583245
 20
-9.935489202799971
 30
0.0
 40
3.901522409500942
100
AcDbArc
 50
120.5542293147387
 51
149.1614681861879
  0
LINE
  5
10BC4
330
1F
100
AcDbEntity
  8
AM_0
100
AcDbLine
 10
108.5730801517201
 20
-13.9122867597286
 30
0.0
 11
110.3051309592889
 21
-13.9122867597286
 31
0.0
  0
LINE
  5
10BC5
330
1F
100
AcDbEntity
  8
AM_0
100
AcDbLine
 10
110.3051309592889
 20
-13.9122867597286
 30
0.0
 11
111.1711563630734
 21
-15.21132486540523
 31
0.0
  0
LINE
  5
10BC6
330
1F
100
AcDbEntity
  8
AM_0
100
AcDbLine
 10
111.1711563630734
 20
-15.21132486540523
 30
0.0
 11
110.3051309592889
 21
-16.51036297108186
 31
0.0
  0
LINE
  5
10BC7
330
1F
100
AcDbEntity
  8
AM_0
100
AcDbLine
 10
110.3051309592889
 20
-15.26036297108192
 30
0.0
 11
110.7544896964067
 21
-14.58632486540517
 31
0.0
  0
LINE
  5
10BC8
330
1F
100
AcDbEntity
  8
AM_0
100
AcDbLine
 10
110.3051309592889
 20
-16.51036297108192
 30
0.0
 11
110.3051309592889
 21
-15.26036297108192
 31
0.0
  0
LINE
  5
10BC9
330
1F
100
AcDbEntity
  8
AM_0
100
AcDbLine
 10
110.3051309592889
 20
-16.51036297108192
 30
0.0
 11
108.5730801517201
 21
-16.51036297108192
 31
0.0
  0
LINE
  5
10BCA
330
1F
100
AcDbEntity
  8
AM_0
100
AcDbLine
 10
108.5730801517201
 20
-15.26036297108192
 30
0.0
 11
110.3051309592889
 21
-15.26036297108192
 31
0.0
  0
LINE
  5
10BCB
330
1F
100
AcDbEntity
  8
AM_0
100
AcDbLine
 10
108.5730801517201
 20
-16.51036297108192
 30
0.0
 11
108.5730801517201
 21
-15.26036297108192
 31
0.0
  0
LINE
  5
10BCC
330
1F
100
AcDbEntity
  8
AM_0
100
AcDbLine
 10
108.5730801517201
 20
-16.51036297108192
 30
0.0
 11
107.7070547479356
 21
-15.21132486540523
 31
0.0
  0
LINE
  5
10BCD
330
1F
100
AcDbEntity
  8
AM_0
100
AcDbLine
 10
108.1237214146023
 20
-14.58632486540529
 30
0.0
 11
108.5730801517201
 21
-15.26036297108192
 31
0.0
  0
LINE
  5
10BCE
330
1F
100
AcDbEntity
  8
AM_0
100
AcDbLine
 10
107.7070547479356
 20
-15.21132486540523
 30
0.0
 11
108.5730801517201
 21
-13.9122867597286
 31
0.0
  0
ELLIPSE
  5
10BCF
330
1F
100
AcDbEntity
  8
AM_0
100
AcDbEllipse
 10
109.4391055555045
 20
-14.96132486540523
 30
0.0
 11
-3.0
 21
1.123271462011602E-15
 31
0.0
210
0.0
220
0.0
230
1.0
 40
0.8660254037844387
 41
0.0796961547003937
 42
3.0618964988894
  0
ELLIPSE
  5
10BD0
330
1F
100
AcDbEntity
  8
AM_0
100
AcDbEllipse
 10
109.4391055555045
 20
-15.21132486540523
 30
0.0
 11
-2.5
 21
9.360595516763351E-16
 31
0.0
210
0.0
220
0.0
230
1.0
 40
0.8660254037844386
 41
0.0000000000000002
 42
6.283185307179586
  0
SPLINE
  5
10BD1
330
1F
100
AcDbEntity
  8
AM_0
100
AcDbSpline
210
0.0
220
0.0
230
1.0
 70
    11
 71
     3
 72
    70
 73
    66
 74
     0
 42
0.0000000001
 43
0.0000000001
 40
0.0
 40
0.0
 40
0.0
 40
0.0
 40
0.6597791926620007
 40
0.6597791926620007
 40
1.319558385324001
 40
1.319558385324001
 40
1.979337577986002
 40
1.979337577986002
 40
2.639116770648003
 40
2.639116770648003
 40
3.298892640286395
 40
3.298892640286395
 40
3.958668509924787
 40
3.958668509924787
 40
4.618444379563178
 40
4.618444379563178
 40
5.278220249201571
 40
5.278220249201571
 40
5.937996118839964
 40
5.937996118839964
 40
6.597771988478357
 40
6.597771988478357
 40
7.25754785811675
 40
7.25754785811675
 40
7.917323727755142
 40
7.917323727755142
 40
8.577102920417142
 40
8.577102920417142
 40
9.236882113079142
 40
9.236882113079142
 40
9.896661305741141
 40
9.896661305741141
 40
10.55644049840314
 40
10.55644049840314
 40
11.21621969106514
 40
11.21621969106514
 40
11.87599888372714
 40
11.87599888372714
 40
12.53577807638915
 40
12.53577807638915
 40
13.19555726905115
 40
13.19555726905115
 40
13.85533313868954
 40
13.85533313868954
 40
14.51510900832793
 40
14.51510900832793
 40
15.17488487796633
 40
15.17488487796633
 40
15.83466074760472
 40
15.83466074760472
 40
16.49443661724311
 40
16.49443661724311
 40
17.15421248688151
 40
17.15421248688151
 40
17.8139883565199
 40
17.8139883565199
 40
18.47376422615829
 40
18.47376422615829
 40
19.13354341882029
 40
19.13354341882029
 40
19.79332261148229
 40
19.79332261148229
 40
20.45310180414429
 40
20.45310180414429
 40
21.11288099680629
 40
21.11288099680629
 40
21.11288099680629
 40
21.11288099680629
 10
109.4391055555045
 20
-107.9518956069352
 30
0.0
 10
109.6590319530585
 20
-107.9518956069352
 30
0.0
 10
109.8864127904661
 20
-107.9603828092466
 30
0.0
 10
110.3386141064666
 20
-107.9963582251868
 30
0.0
 10
110.5634385659764
 20
-108.0238423263162
 30
0.0
 10
110.9945489665107
 20
-108.0973286932801
 30
0.0
 10
111.201181657341
 20
-108.1434042228362
 30
0.0
 10
111.5832644547041
 20
-108.2514343437813
 30
0.0
 10
111.7587049655593
 20
-108.3134181257167
 30
0.0
 10
112.0692528317056
 20
-108.4476643520321
 30
0.0
 10
112.2149980955959
 20
-108.5245084471097
 30
0.0
 10
112.4719402524146
 20
-108.6951562403948
 30
0.0
 10
112.5831535923746
 20
-108.7889757614452
 30
0.0
 10
112.7618033164419
 20
-108.9887615214867
 30
0.0
 10
112.8293818843368
 20
-109.0949027378669
 30
0.0
 10
112.918042796509
 20
-109.3126955152973
 30
0.0
 10
112.9391055555045
 20
-109.4243544083426
 30
0.0
 10
112.9391055555045
 20
-109.6442796982221
 30
0.0
 10
112.918042796509
 20
-109.760001228456
 30
0.0
 10
112.8293818843368
 20
-109.9944099040538
 30
0.0
 10
112.7618033164419
 20
-110.1130936881435
 30
0.0
 10
112.5831535923746
 20
-110.3444194784286
 30
0.0
 10
112.4719402524146
 20
-110.4572332479565
 30
0.0
 10
112.2149980955959
 20
-110.6686684889493
 30
0.0
 10
112.0692528317056
 20
-110.7672645441368
 30
0.0
 10
111.7587049655593
 20
-110.9435661839678
 30
0.0
 10
111.5832644547041
 20
-111.0273277501619
 30
0.0
 10
111.201181657341
 20
-111.1762394309359
 30
0.0
 10
110.9945489665107
 20
-111.2413768449456
 30
0.0
 10
110.5634385659764
 20
-111.3465397495818
 30
0.0
 10
110.3386141064666
 20
-111.3866341831851
 30
0.0
 10
109.8864127904661
 20
-111.4393198512059
 30
0.0
 10
109.6590319530585
 20
-111.4518956069352
 30
0.0
 10
109.2191791579505
 20
-111.4518956069352
 30
0.0
 10
108.9917983205429
 20
-111.4393198512059
 30
0.0
 10
108.5395970045424
 20
-111.3866341831851
 30
0.0
 10
108.3147725450327
 20
-111.3465397495818
 30
0.0
 10
107.8836621444983
 20
-111.2413768449456
 30
0.0
 10
107.677029453668
 20
-111.1762394309359
 30
0.0
 10
107.2949466563049
 20
-111.0273277501619
 30
0.0
 10
107.1195061454497
 20
-110.9435661839678
 30
0.0
 10
106.8089582793034
 20
-110.7672645441368
 30
0.0
 10
106.6632130154131
 20
-110.6686684889493
 30
0.0
 10
106.4062708585944
 20
-110.4572332479565
 30
0.0
 10
106.2950575186345
 20
-110.3444194784286
 30
0.0
 10
106.1164077945671
 20
-110.1130936881435
 30
0.0
 10
106.0488292266722
 20
-109.9944099040538
 30
0.0
 10
105.9601683145
 20
-109.760001228456
 30
0.0
 10
105.9391055555045
 20
-109.6442796982221
 30
0.0
 10
105.9391055555045
 20
-109.4243544083426
 30
0.0
 10
105.9601683145
 20
-109.3126955152973
 30
0.0
 10
106.0488292266722
 20
-109.0949027378669
 30
0.0
 10
106.1164077945671
 20
-108.9887615214867
 30
0.0
 10
106.2950575186345
 20
-108.7889757614452
 30
0.0
 10
106.4062708585944
 20
-108.6951562403949
 30
0.0
 10
106.6632130154131
 20
-108.5245084471097
 30
0.0
 10
106.8089582793034
 20
-108.4476643520321
 30
0.0
 10
107.1195061454497
 20
-108.3134181257167
 30
0.0
 10
107.2949466563049
 20
-108.2514343437813
 30
0.0
 10
107.677029453668
 20
-108.1434042228362
 30
0.0
 10
107.8836621444984
 20
-108.0973286932801
 30
0.0
 10
108.3147725450327
 20
-108.0238423263162
 30
0.0
 10
108.5395970045424
 20
-107.9963582251868
 30
0.0
 10
108.9917983205429
 20
-107.9603828092466
 30
0.0
 10
109.2191791579505
 20
-107.9518956069352
 30
0.0
 10
109.4391055555045
 20
-107.9518956069352
 30
0.0
  0
ELLIPSE
  5
10BD2
330
1F
100
AcDbEntity
  8
AM_0
100
AcDbEllipse
 10
109.4391055555045
 20
-110.4003424570668
 30
0.0
 11
-3.0
 21
6.574498707990706E-16
 31
0.0
210
0.0
220
0.0
230
1.0
 40
0.5000000000000001
 41
3.085553389985114
 42
3.141592653589793
  0
ELLIPSE
  5
10BD3
330
1F
100
AcDbEntity
  8
AM_0
100
AcDbEllipse
 10
109.4391055555045
 20
-110.4003424570668
 30
0.0
 11
-3.0
 21
6.574498707990706E-16
 31
0.0
210
0.0
220
0.0
230
1.0
 40
0.5000000000000001
 41
3.141592653589793
 42
6.33922457078427
  0
ELLIPSE
  5
10BD4
330
1F
100
AcDbEntity
  8
AM_0
100
AcDbEllipse
 10
109.4391055555045
 20
-110.4003424570668
 30
0.0
 11
-3.5
 21
7.670248492655822E-16
 31
0.0
210
0.0
220
0.0
230
1.0
 40
0.5000000000000001
 41
3.388679077802071
 42
6.036098882967309
  0
LINE
  5
10BD5
330
1F
100
AcDbEntity
  8
AM_0
100
AcDbLine
 10
44.23910555550458
 20
-117.2357971262379
 30
0.0
 11
44.23910555550464
 21
-118.2238484068885
 31
0.0
  0
ARC
  5
10BD6
330
1F
100
AcDbEntity
  8
AM_0
100
AcDbCircle
 10
47.589012585832
 20
-119.235797126238
 30
0.0
 40
3.901522409500941
100
AcDbArc
 50
132.4490690046633
 51
149.1614681861879
  0
LINE
  5
10BD7
330
1F
100
AcDbEntity
  8
AM_0
100
AcDbLine
 10
108.5730801517201
 20
-109.9338361061206
 30
0.0
 11
110.3051309592889
 21
-109.9338361061206
 31
0.0
  0
LINE
  5
10BD8
330
1F
100
AcDbEntity
  8
AM_0
100
AcDbLine
 10
110.3051309592889
 20
-109.9338361061206
 30
0.0
 11
110.3051309592889
 21
-111.3871886716228
 31
0.0
  0
LINE
  5
10BD9
330
1F
100
AcDbEntity
  8
AM_0
100
AcDbLine
 10
110.3051309592889
 20
-109.9338361061206
 30
0.0
 11
111.1711563630734
 21
-110.6838361061206
 31
0.0
  0
LINE
  5
10BDA
330
1F
100
AcDbEntity
  8
AM_0
100
AcDbLine
 10
111.1711563630734
 20
-110.6838361061206
 30
0.0
 11
110.3709725444271
 21
-111.3768156207655
 31
0.0
  0
LINE
  5
10BDB
330
1F
100
AcDbEntity
  8
AM_0
100
AcDbLine
 10
109.8988012212942
 20
-111.4338361061206
 30
0.0
 11
108.9794098897149
 21
-111.4338361061206
 31
0.0
  0
LINE
  5
10BDC
330
1F
100
AcDbEntity
  8
AM_0
100
AcDbLine
 10
108.5072385665819
 20
-111.3768156207655
 30
0.0
 11
107.7070547479356
 21
-110.6838361061206
 31
0.0
  0
LINE
  5
10BDD
330
1F
100
AcDbEntity
  8
AM_0
100
AcDbLine
 10
107.7070547479356
 20
-110.6838361061206
 30
0.0
 11
108.5730801517201
 21
-109.9338361061206
 31
0.0
  0
LINE
  5
10BDE
330
1F
100
AcDbEntity
  8
AM_0
100
AcDbLine
 10
108.5730801517201
 20
-109.9338361061206
 30
0.0
 11
108.5730801517201
 21
-111.3871886716228
 31
0.0
  0
LINE
  5
10BDF
330
1F
100
AcDbEntity
  8
AM_0
100
AcDbLine
 10
107.3978641031852
 20
-109.9621482696336
 30
0.0
 11
106.9896158127214
 21
-110.2508234042284
 31
0.0
  0
LINE
  5
10BE0
330
1F
100
AcDbEntity
  8
AM_0
100
AcDbLine
 10
111.4803470078238
 20
-109.9621482696336
 30
0.0
 11
111.8885952982877
 21
-110.2508234042284
 31
0.0
  0
ELLIPSE
  5
10BE1
330
1F
100
AcDbEntity
  8
AM_0
100
AcDbEllipse
 10
109.4391055555045
 20
-111.1168488080128
 30
0.0
 11
-3.0
 21
6.574498707990706E-16
 31
0.0
210
0.0
220
0.0
230
1.0
 40
0.5000000000000001
 41
5.667705598509191
 42
5.946228784361887
  0
ELLIPSE
  5
10BE2
330
1F
100
AcDbEntity
  8
AM_0
100
AcDbEllipse
 10
109.4391055555045
 20
-111.1168488080128
 30
0.0
 11
-3.0
 21
6.574498707990706E-16
 31
0.0
210
0.0
220
0.0
230
1.0
 40
0.5000000000000001
 41
3.478549176407511
 42
3.757072362260191
  0
ELLIPSE
  5
10BE3
330
1F
100
AcDbEntity
  8
AM_0
100
AcDbEllipse
 10
109.4391055555045
 20
-110.6838361061206
 30
0.0
 11
-2.5
 21
5.478748923325589E-16
 31
0.0
210
0.0
220
0.0
230
1.0
 40
0.5000000000000001
 41
3.004690770204869
 42
3.141592653589794
  0
ELLIPSE
  5
10BE4
330
1F
100
AcDbEntity
  8
AM_0
100
AcDbEllipse
 10
109.4391055555045
 20
-110.6838361061206
 30
0.0
 11
-2.5
 21
5.478748923325589E-16
 31
0.0
210
0.0
220
0.0
230
1.0
 40
0.5000000000000001
 41
3.141592653589794
 42
6.420087190564483
  0
CIRCLE
  5
10BE5
330
1F
100
AcDbEntity
  8
AM_0
100
AcDbCircle
 10
-82.38250163657412
 20
-10.15000000000012
 30
0.0
 40
4.999999999999992
  0
CIRCLE
  5
10BE6
330
1F
100
AcDbEntity
  8
AM_0
100
AcDbCircle
 10
-82.38250163657412
 20
-10.15000000000012
 30
0.0
 40
2.214510797200376
  0
CIRCLE
  5
10BE7
330
1F
100
AcDbEntity
  8
AM_0
100
AcDbCircle
 10
-82.38250163657412
 20
-10.15000000000012
 30
0.0
 40
3.75
  0
CIRCLE
  5
10BE8
330
1F
100
AcDbEntity
  8
AM_0
100
AcDbCircle
 10
-82.38250163657412
 20
-10.15000000000012
 30
0.0
 40
5.0
  0
CIRCLE
  5
10BE9
330
1F
100
AcDbEntity
  8
AM_0
100
AcDbCircle
 10
-82.38250163657412
 20
-10.15000000000012
 30
0.0
 40
2.0
  0
LINE
  5
10BF5
330
1F
100
AcDbEntity
  8
AM_7
100
AcDbLine
 10
-99.96281733339828
 20
0.0000000000000284
 30
0.0
 11
-70.95266663489412
 21
-16.74901831501313
 31
0.0
1001
GENIUS_GENODEF_13
1002
{
1000
HIER
1070
     0
1002
}
1002
{
1000
MANEDIT
1070
     0
1002
}
1002
{
1000
NOSEL
1070
     0
1002
}
1002
{
1000
BEHIND
1070
     0
1002
}
1002
{
1000
OTHER
1070
     0
1002
}
1002
{
1000
REACTOR
1002
}
1001
GENIUS_GENOBJ-N-CEN_13
1002
{
1000
OWNER
1000
GEN
1002
}
1001
GENIUS_GENCEN_19
1002
{
1040
2.794
1002
}
  0
LINE
  5
10BF6
330
1F
100
AcDbEntity
  8
AM_7
  6
AM_ISO08W050x2
100
AcDbLine
 10
-79.30138634408996
 20
-4.813351769440033
 30
0.0
 11
-85.74059075316706
 21
-15.9663809662832
 31
0.0
1001
GENIUS_GENOBJ-N-CEN_13
1002
{
1000
OWNER
1000
GEN
1002
}
1001
GENIUS_GENODEF_13
1002
{
1000
HIER
1070
     0
1002
}
1002
{
1000
MANEDIT
1070
     0
1002
}
1002
{
1000
NOSEL
1070
     0
1002
}
1002
{
1000
BEHIND
1070
     0
1002
}
1002
{
1000
OTHER
1070
     0
1002
}
1002
{
1000
REACTOR
1002
}
1001
GENIUS_GENCEN_19
1002
{
1040
2.794
1002
}
  0
ELLIPSE
  5
10C00
330
1F
100
AcDbEntity
  8
AM_0
100
AcDbEllipse
 10
44.00101705961379
 20
-10.15000000000015
 30
0.0
 11
5.459574338149341E-16
 21
-5.499999999999989
 31
0.0
210
0.0
220
0.0
230
-1.0
 40
0.3838640350354155
 41
4.71238898038469
 42
7.853981633974483
  0
CIRCLE
  5
10C01
330
1F
100
AcDbEntity
  8
AM_0
100
AcDbCircle
 10
-82.38250163657412
 20
-10.15000000000012
 30
0.0
 40
5.5
  0
DIMENSION
  5
10FDA
330
1F
100
AcDbEntity
  8
AM_5
100
AcDbDimension
  2
*D6
 10
9.24932224754474
 20
7.857846010289222
 30
0.0
 11
-20.87894060206347
 21
0.0871680236894861
 31
0.0
 70
   162
  1
80%%D
 71
     5
 42
1.408476102587718
  3
AM_JIS$2
100
AcDb2LineAngularDimension
 13
9.24932224754474
 23
-7.857846010289222
 33
0.0
 14
0.7213571659273725
 24
-0.6128355544954047
 34
0.0
 15
0.7213571659273725
 25
0.61283555449495
 35
0.0
 16
-20.30648022276683
 26
-4.856399889962756
 36
0.0
1001
ACAD
1000
DSTYLE
1002
{
1070
   179
1070
     2
1002
}
  0
DIMENSION
  5
11150
330
1F
100
AcDbEntity
  8
AM_5
100
AcDbDimension
  2
*D7
 10
0.4391055555044504
 20
-67.00199834284263
 30
0.0
 11
70.43910555550446
 21
-63.60199834284263
 31
0.0
 70
    32
 71
     5
 42
140.0
  3
AM_JIS$0
100
AcDbAlignedDimension
 13
140.4391055555045
 23
-31.5
 33
0.0
 14
0.4391055555044545
 24
0.0
 34
0.0
 50
180.0
100
AcDbRotatedDimension
1001
ACAD
1000
DSTYLE
1002
{
1070
   179
1070
     2
1070
   271
1070
     0
1002
}
  0
ENDSEC
  0
SECTION
  2
OBJECTS
  0
DICTIONARY
  5
C
330
0
100
AcDbDictionary
281
     1
  3
ACAD_COLOR
350
99D5
  3
ACAD_GROUP
350
D
  3
ACAD_LAYOUT
350
1A
  3
ACAD_MATERIAL
350
99D4
  3
ACAD_MLINESTYLE
350
17
  3
ACAD_PLOTSETTINGS
350
19
  3
ACAD_PLOTSTYLENAME
350
E
  3
ACAD_TABLESTYLE
350
99D6
  3
AcAmCatalogState
350
9A2C
  3
ACDBHEADERROUNDTRIPXREC
350
112AB
  3
AcDbVariableDictionary
350
30
  3
ACDMSYSVARMGR
350
99EF
  3
ACGREF_MASTER
350
23CD
  3
ACGREFACAD_MASTER
350
23D1
  3
AcmDictionary
350
4D
  3
ACME_BOM_MANAGER_NAME
350
99A7
  3
ACME_COMMAND_HISTORY
350
99A2
  3
ACME_SCOPE_NAME
350
99A1
  3
ACMESTATEMGR
350
99AC
  3
AcmeSysVarManager
350
99A3
  3
AcmSystemVariableManager
350
9A2A
  3
AD_APPL
350
9A17
  3
ADSYSVARMGR
350
9A16
  3
AmdtNamedDwgMgr
350
9A0A
  3
AMG
350
3F
  3
AMGSNAPSETTINGS
350
73
  3
AMI_MASTER
350
23D2
  3
AUTOCAD_ASSEMBLIES_PROJECT
350
9A1F
  3
Designer_Assemblies_SysVars
350
9A1A
  3
DWGPROPS
350
112AE
  3
FILENAME
350
1C9F
  3
GREFAM_MODULE
350
9A10
  3
ZWKSIZE
350
1CA1
  0
DICTIONARY
  5
9B25
330
2
100
AcDbDictionary
280
     1
281
     1
  3
ACAD_LAYERFILTERS
360
9F3B
  3
ACAD_LAYERSTATES
360
9B26
  3
ACLYDICTIONARY
360
9F3A
  3
AMLAYER_GROUPCOLORS
360
9F39
  0
DICTIONARY
  5
165
330
1F
100
AcDbDictionary
280
     1
281
     1
  3
ACAD_LAYOUTSELFREF
360
98ED
  3
ACAD_SORTENTS
360
C040
  0
DICTIONARY
  5
264F
330
1B
100
AcDbDictionary
280
     1
281
     1
  3
ACAD_LAYOUTSELFREF
360
98EC
  0
DICTIONARY
  5
2651
330
23
100
AcDbDictionary
280
     1
281
     1
  3
ACAD_LAYOUTSELFREF
360
98EE
  0
DICTIONARY
  5
99D5
102
{ACAD_REACTORS
330
C
102
}
330
C
100
AcDbDictionary
281
     1
  0
DICTIONARY
  5
D
102
{ACAD_REACTORS
330
C
102
}
330
C
100
AcDbDictionary
281
     1
  0
DICTIONARY
  5
1A
102
{ACAD_REACTORS
330
C
102
}
330
C
100
AcDbDictionary
281
     1
  3
Model
350
22
  3
ﾚｲｱｳﾄ1
350
1E
  3
ﾚｲｱｳﾄ2
350
26
  0
DICTIONARY
  5
99D4
102
{ACAD_REACTORS
330
C
102
}
330
C
100
AcDbDictionary
281
     1
  0
DICTIONARY
  5
17
102
{ACAD_REACTORS
330
C
102
}
330
C
100
AcDbDictionary
281
     1
  3
Standard
350
18
  0
DICTIONARY
  5
19
102
{ACAD_REACTORS
330
C
102
}
330
C
100
AcDbDictionary
281
     1
  0
ACDBDICTIONARYWDFLT
  5
E
102
{ACAD_REACTORS
330
C
102
}
330
C
100
AcDbDictionary
281
     1
  3
Normal
350
F
100
AcDbDictionaryWithDefault
340
F
  0
DICTIONARY
  5
99D6
102
{ACAD_REACTORS
330
C
102
}
330
C
100
AcDbDictionary
281
     1
  3
Standard
350
99D7
  0
ACAD_PROXY_OBJECT
  5
9A2C
102
{ACAD_REACTORS
330
C
102
}
330
C
100
AcDbProxyObject
 90
      499
 91
      584
 95
       25
 70
     0
 93
      424
310
3FFFFFFFE00A0281402902C1D2E482B415AC15141BA41A441C5C1AFAE20A1A0A226991818182E24A1AA26C00A3FFFFFFFCFFFF1F40
  0
DICTIONARY
  5
112AB
102
{ACAD_REACTORS
330
C
102
}
330
C
100
AcDbDictionary
281
     1
  3
COLORDICT
350
112AC
  3
MATERIALDICT
350
112AD
  0
DICTIONARY
  5
30
102
{ACAD_REACTORS
330
C
102
}
330
C
100
AcDbDictionary
281
     1
  3
CTABLESTYLE
350
9A53
  3
HIDETEXT
350
112AA
  3
INDEXCTL
350
112A9
  0
ACAD_PROXY_OBJECT
  5
99EF
102
{ACAD_REACTORS
330
C
102
}
330
C
100
AcDbProxyObject
 90
      499
 91
      507
 95
       25
 70
     0
 93
      240
310
4C51A47A0000000000000000000000000000000000000000000000000000
330
99F0
330
99F1
330
99F2
330
99F3
330
99F4
330
99F5
330
99F6
330
99F7
330
99F8
330
99F9
330
99FA
330
99FB
330
99FC
330
99FD
330
99FE
330
99FF
330
9A00
330
9A01
330
9A02
330
9A03
330
9A04
330
9A05
330
9A06
330
9A07
330
9A08
330
9A09
 94
        0
  0
ACAD_PROXY_OBJECT
  5
23CD
102
{ACAD_REACTORS
330
C
102
}
330
C
100
AcDbProxyObject
 90
      499
 91
      534
 95
       25
 70
     0
 93
       34
310
0400004280
  0
ACAD_PROXY_OBJECT
  5
23D1
102
{ACAD_REACTORS
330
C
102
}
330
C
100
AcDbProxyObject
 90
      499
 91
      535
 95
       25
 70
     0
 93
      114
310
04000041C080000000000000000000
  0
DICTIONARY
  5
4D
102
{ACAD_REACTORS
330
C
102
}
330
C
100
AcDbDictionary
281
     1
  3
AcmBOMDATA
350
99B0
  3
AcmStdDictionary
350
17E
  3
AMDTSECTSYM_ARROWCOLOR
350
9A47
  0
ACAD_PROXY_OBJECT
  5
99A7
102
{ACAD_REACTORS
330
C
102
}
330
C
100
AcDbProxyObject
 90
      499
 91
      510
 95
       25
 70
     0
 93
       50
310
00010040400000
330
0
330
0
330
99A8
 94
        0
  0
ACAD_PROXY_OBJECT
  5
99A2
102
{ACAD_REACTORS
330
C
102
}
330
C
100
AcDbProxyObject
 90
      499
 91
      505
 95
       25
 70
     0
 93
     5932
310
47805054552415345805054552415345805054552415345404052D4D5347202D205050413A2020206465736B746F702E6172782046696C6556657273696F6E3A20392E322E302E34014151549054D16014151549054D1501014B5354D1C80B481414104E88080819195CDADD1BDC0B985C9E08119A5B1955995C9CDA5BDB8E
310
880E4B8C8B8C0B8D005054552415345805054552415345805054552415345805054552415345404052D4D5347202D205050413A2020206465736B746F702E6172782046696C6556657273696F6E3A20392E322E302E34014151549054D1501014B5354D1C80B481414104E88080819195CDADD1BDC0B985C9E08119A5B1955
310
995C9CDA5BDB8E880E4B8C8B8C0B8D005054552415345805054552415345805054552415345805054552415345805054552415345805054552415345404052D4D5347202D205050413A2020206465736B746F702E6172782046696C6556657273696F6E3A20392E322E302E34014151549054D16014151549054D160141515
310
49054D16014115539113E014156131253916014191561511539110101461354D1C80B4810DBDB5B585B990810D05390D1531311510B805054552415345404052D4D5347202D205050413A2020206465736B746F702E6172782046696C6556657273696F6E3A20392E322E302E3401415454D05591501014B5354D1C80B4814
310
14104E88080819195CDADD1BDC0B985C9E08119A5B1955995C9CDA5BDB8E880E4B8C8B8C0B8D005045A4F4F4D40805184D5347202D20436F6D6D616E642043414E43454C4C45442E014B5354D1C80B481414104E88080819195CDADD1BDC0B985C9E08119A5B1955995C9CDA5BDB8E880E4B8C8B8C0B8D0050E414D4454524
310
553455444424D4F4440805084E202D20554E444F014213880B4815539113C0504554E444F80504554E444F805055055524745805055153415645404052D4D5347202D205050413A2020206465736B746F702E6172782046696C6556657273696F6E3A20392E322E302E340
  0
ACAD_PROXY_OBJECT
  5
99A1
102
{ACAD_REACTORS
330
C
102
}
330
C
100
AcDbProxyObject
 90
      499
 91
      504
 95
       25
 70
     0
 93
      578
310
09000046408000000000000000001334DE000000000000000000000000000000000000000000000000000000000000000000000000000000000000000000000000000000AAA406AA80
360
99A4
360
99A5
360
99A6
360
99A8
360
99E8
360
99E9
360
99EA
360
99EB
360
99EC
360
99ED
360
99F0
360
99F1
360
99F2
360
99F3
360
99F4
360
99F5
360
99F6
360
99F7
360
99F8
360
99F9
360
99FA
360
99FB
360
99FC
360
99FD
360
99FE
360
99FF
360
9A00
360
9A01
360
9A02
360
9A03
360
9A04
360
9A05
360
9A06
360
9A07
360
9A08
360
9A09
360
9A12
360
9A13
360
9A14
360
9A15
360
9A1B
360
9A1C
360
9A1D
360
9A1E
360
9A23
360
9A24
360
9A25
360
9A26
360
9A27
360
9A28
360
9A2B
 94
        0
  0
ACAD_PROXY_OBJECT
  5
99AC
102
{ACAD_REACTORS
330
C
102
}
330
C
100
AcDbProxyObject
 90
      499
 91
      515
 95
       25
 70
     0
 93
       50
310
09000042641280
  0
ACAD_PROXY_OBJECT
  5
99A3
102
{ACAD_REACTORS
330
C
102
}
330
C
100
AcDbProxyObject
 90
      499
 91
      507
 95
       25
 70
     0
 93
       48
310
903412000000
330
99A4
330
99A5
330
99A6
 94
        0
  0
ACAD_PROXY_OBJECT
  5
9A2A
102
{ACAD_REACTORS
330
C
102
}
330
C
100
AcDbProxyObject
 90
      499
 91
      507
 95
       25
 70
     0
 93
       32
310
90140A00
330
9A2B
 94
        0
  0
ACAD_PROXY_OBJECT
  5
9A17
102
{ACAD_REACTORS
330
C
102
}
330
C
100
AcDbProxyObject
 90
      499
 91
      574
 95
       25
 70
     0
 93
       42
310
000900004040
330
9A12
 94
        0
  0
ACAD_PROXY_OBJECT
  5
9A16
102
{ACAD_REACTORS
330
C
102
}
330
C
100
AcDbProxyObject
 90
      499
 91
      507
 95
       25
 70
     0
 93
        8
310
AA
  0
ACAD_PROXY_OBJECT
  5
9A0A
102
{ACAD_REACTORS
330
C
102
}
330
C
100
AcDbProxyObject
 90
      499
 91
      565
 95
       25
 70
     0
 93
       42
310
000100005E80
330
99E8
 94
        0
  0
DICTIONARY
  5
3F
102
{ACAD_REACTORS
330
C
102
}
330
C
100
AcDbDictionary
281
     1
  3
AcMgSettings
350
40
  3
AMGLAYCFG
350
99B4
  0
DICTIONARY
  5
73
102
{ACAD_REACTORS
330
C
102
}
330
C
100
AcDbDictionary
281
     1
  0
ACAD_PROXY_OBJECT
  5
23D2
102
{ACAD_REACTORS
330
C
102
}
330
C
100
AcDbProxyObject
 90
      499
 91
      536
 95
       25
 70
     0
 93
       34
310
0500004280
  0
ACAD_PROXY_OBJECT
  5
9A1F
102
{ACAD_REACTORS
330
C
102
}
330
C
100
AcDbProxyObject
 90
      499
 91
      577
 95
       25
 70
     0
 93
       98
310
0900004E400000000000000000
330
9A26
330
0
330
9A27
330
0
330
0
330
0
330
0
330
0
 94
        0
  0
ACAD_PROXY_OBJECT
  5
9A1A
102
{ACAD_REACTORS
330
C
102
}
330
C
100
AcDbProxyObject
 90
      499
 91
      507
 95
       25
 70
     0
 93
       56
310
90441600000000
330
9A1B
330
9A1C
330
9A1D
330
9A1E
 94
        0
  0
XRECORD
  5
112AE
102
{ACAD_REACTORS
330
C
102
}
330
C
100
AcDbXrecord
280
     1
  1
DWGPROPS COOKIE
  2

  3

  4

  6

  7

  8

  9

300
AmdtFileType=84
301
=
302
=
303
=
304
=
305
=
306
=
307
=
308
=
309
=
 40
0.0
 41
2451943.235431667
 42
2455482.056523438
  1

 90
        1
  0
DICTIONARY
  5
1C9F
102
{ACAD_REACTORS
330
C
102
}
330
C
100
AcDbDictionary
281
     1
  3
FILENAME
350
1CA0
  0
ACAD_PROXY_OBJECT
  5
9A10
102
{ACAD_REACTORS
330
C
102
}
330
C
100
AcDbProxyObject
 90
      499
 91
      568
 95
       25
 70
     0
 93
        8
310
05
  0
DICTIONARY
  5
1CA1
102
{ACAD_REACTORS
330
C
102
}
330
C
100
AcDbDictionary
281
     1
  3
ZWKSIZE
350
1CA2
  0
DICTIONARY
  5
9F3B
102
{ACAD_REACTORS
330
9B25
102
}
330
9B25
100
AcDbDictionary
281
     1
  0
DICTIONARY
  5
9B26
102
{ACAD_REACTORS
330
9B25
102
}
330
9B25
100
AcDbDictionary
281
     1
  0
DICTIONARY
  5
9F3A
102
{ACAD_REACTORS
330
9B25
102
}
330
9B25
100
AcDbDictionary
281
     1
1001
ACAD
1000
<All
  0
DICTIONARY
  5
9F39
102
{ACAD_REACTORS
330
9B25
102
}
330
9B25
100
AcDbDictionary
280
     1
281
     1
  0
XRECORD
  5
98ED
102
{ACAD_REACTORS
330
165
102
}
330
165
100
AcDbXrecord
280
     1
340
1F
  0
SORTENTSTABLE
  5
C040
102
{ACAD_REACTORS
330
165
102
}
330
165
100
AcDbSortentsTable
330
1F
331
FAF1
  5
FAF1
331
FAF2
  5
FAF2
331
FAF3
  5
FAF3
331
FAF4
  5
FAF4
331
FAF5
  5
FAF5
331
FAF6
  5
FAF6
331
FAF7
  5
FAF7
331
FAF8
  5
FAF8
331
FAF9
  5
FAF9
331
FAFA
  5
FAFA
331
FAFB
  5
FAFB
331
FAFC
  5
FAFC
331
FAFD
  5
FAFD
331
FAFE
  5
FAFE
331
FAFF
  5
FAFF
331
FB00
  5
FB00
331
FB01
  5
FB01
331
FB02
  5
FB02
331
FB03
  5
FB03
331
FB04
  5
FB04
331
FB05
  5
FB05
331
FB06
  5
FB06
331
FB07
  5
FB07
331
FB08
  5
FB08
331
FB09
  5
FB09
331
FB0A
  5
FB0A
331
FB0B
  5
FB0B
331
FB0C
  5
FB0C
331
FB0D
  5
FB0D
331
FB0E
  5
FB0E
331
FB0F
  5
FB0F
331
FB10
  5
FB10
331
FB11
  5
FB11
331
FB12
  5
FB12
331
FB13
  5
FB13
331
FB14
  5
FB14
331
FB15
  5
FB15
331
FB16
  5
FB16
331
FB17
  5
FB17
331
FB18
  5
FB18
331
FB19
  5
FB19
331
FB1A
  5
FB1A
331
FB1B
  5
FB1B
331
FB1C
  5
FB1C
331
FB1D
  5
FB1D
331
FB1E
  5
FB1E
331
FB1F
  5
FB1F
331
FB20
  5
FB20
331
FB21
  5
FB21
331
FB22
  5
FB22
331
FB23
  5
FB23
331
FB24
  5
FB24
331
FB25
  5
FB25
331
FB26
  5
FB26
331
FB27
  5
FB27
331
FB28
  5
FB28
331
FB29
  5
FB29
331
FB2A
  5
FB2A
331
FB2B
  5
FB2B
331
FB2C
  5
FB2C
331
FB2D
  5
FB2D
331
FB2E
  5
FB2E
331
FB2F
  5
FB2F
331
FB30
  5
FB30
331
FB31
  5
FB31
331
FB32
  5
FB32
331
FB33
  5
FB33
331
FB34
  5
FB34
331
FB35
  5
FB35
331
FB36
  5
FB36
331
FB37
  5
FB37
331
FB38
  5
FB38
331
FB39
  5
FB39
331
FB3A
  5
FB3A
331
FB3B
  5
FB3B
331
FB3C
  5
FB3C
331
FB3D
  5
FB3D
331
FB3E
  5
FB3E
331
FB3F
  5
FB3F
331
FB40
  5
FB40
331
FB41
  5
FB41
331
FB42
  5
FB42
331
FB43
  5
FB43
331
FB44
  5
FB44
331
FB45
  5
FB45
331
FB46
  5
FB46
331
FB47
  5
FB47
331
FB48
  5
FB48
331
FB49
  5
FB49
331
FB4A
  5
FB4A
331
FB4B
  5
FB4B
331
FB4C
  5
FB4C
331
FB4D
  5
FB4D
331
FB4E
  5
FB4E
331
FB4F
  5
FB4F
331
FB50
  5
FB50
331
FB51
  5
FB51
331
FB52
  5
FB52
331
FB53
  5
FB53
331
FB54
  5
FB54
331
FB55
  5
FB55
331
FB56
  5
FB56
331
FB57
  5
FB57
331
FB58
  5
FB58
331
FB59
  5
FB59
331
FB5A
  5
FB5A
331
FB5B
  5
FB5B
331
FB5C
  5
FB5C
331
FB5D
  5
FB5D
331
FB5E
  5
FB5E
331
FB5F
  5
FB5F
331
FB60
  5
FB60
331
FB61
  5
FB61
331
FB62
  5
FB62
331
FB63
  5
FB63
331
FB64
  5
FB64
331
FB65
  5
FB65
331
FB66
  5
FB66
331
FB67
  5
FB67
331
FB68
  5
FB68
331
FB69
  5
FB69
331
FB6A
  5
FB6A
331
FB6B
  5
FB6B
331
FB6C
  5
FB6C
331
FB6D
  5
FB6D
331
FB6E
  5
FB6E
331
FB6F
  5
FB6F
331
FB70
  5
FB70
331
FB71
  5
FB71
331
FB72
  5
FB72
331
FB73
  5
FB73
331
FB74
  5
FB74
331
FB75
  5
FB75
331
FB76
  5
FB76
331
FB77
  5
FB77
331
FB78
  5
FB78
331
FB79
  5
FB79
331
FB7A
  5
FB7A
331
FB7B
  5
FB7B
331
FB7C
  5
FB7C
331
FB7F
  5
FB7F
331
FB80
  5
FB80
331
FB81
  5
FB81
331
FB82
  5
FB82
331
FB83
  5
FB83
331
FB84
  5
FB84
331
FB85
  5
FB85
331
FB86
  5
FB86
331
FB87
  5
FB87
331
FB88
  5
FB88
331
FB89
  5
FB89
331
FB8A
  5
FB8A
331
FB8B
  5
FB8B
331
FB8C
  5
FB8C
331
FB8D
  5
FB8D
331
FB8E
  5
FB8E
331
FB8F
  5
FB8F
331
FB90
  5
FB90
331
FB91
  5
FB91
331
FB92
  5
FB92
331
FB93
  5
FB93
331
FB94
  5
FB94
331
FB95
  5
FB95
331
FB96
  5
FB96
331
FB97
  5
FB97
331
FB98
  5
FB98
331
FB99
  5
FB99
331
FB9A
  5
FB9A
331
FB9B
  5
FB9B
331
FB9C
  5
FB9C
331
FB9D
  5
FB9D
331
FB9E
  5
FB9E
331
FB9F
  5
FB9F
331
FBA0
  5
FBA0
331
FBA1
  5
FBA1
331
FBA2
  5
FBA2
331
FBA3
  5
FBA3
331
FBA4
  5
FBA4
331
FBA5
  5
FBA5
331
FBA6
  5
FBA6
331
FBA7
  5
FBA7
331
FBA8
  5
FBA8
331
FBA9
  5
FBA9
331
FBAA
  5
FBAA
331
FBAB
  5
FBAB
331
FBAC
  5
FBAC
331
FBAD
  5
FBAD
331
FBAE
  5
FBAE
331
FBAF
  5
FBAF
331
FBB0
  5
FBB0
331
FBB1
  5
FBB1
331
FBB2
  5
FBB2
331
FBB3
  5
FBB3
331
FBB4
  5
FBB4
331
FBB5
  5
FBB5
331
FBB6
  5
FBB6
331
FBB7
  5
FBB7
331
FBB8
  5
FBB8
331
FBB9
  5
FBB9
331
FBBA
  5
FBBA
331
FBBB
  5
FBBB
331
FBBC
  5
FBBC
331
FBBD
  5
FBBD
331
FBBE
  5
FBBE
331
FBBF
  5
FBBF
331
FBC0
  5
FBC0
331
FBC1
  5
FBC1
331
FBC2
  5
FBC2
331
FBC3
  5
FBC3
331
FBC4
  5
FBC4
331
FBC5
  5
FBC5
331
FBC6
  5
FBC6
331
FBC7
  5
FBC7
331
FBC8
  5
FBC8
331
FBC9
  5
FBC9
331
FBCA
  5
FBCA
331
FBCB
  5
FBCB
331
FBCC
  5
FBCC
331
FBCD
  5
FBCD
331
FBCE
  5
FBCE
331
FBCF
  5
FBCF
331
FBD0
  5
FBD0
331
FBD1
  5
FBD1
331
FBD2
  5
FBD2
331
FBD3
  5
FBD3
331
FBD4
  5
FBD4
331
FBD5
  5
FBD5
331
FBD6
  5
FBD6
331
FBD7
  5
FBD7
331
FBD8
  5
FBD8
331
FBD9
  5
FBD9
331
FBDA
  5
FBDA
331
FBDB
  5
FBDB
331
FBDC
  5
FBDC
331
FBDD
  5
FBDD
331
FBDE
  5
FBDE
331
FBDF
  5
FBDF
331
FBE0
  5
FBE0
331
FBE1
  5
FBE1
331
FBE2
  5
FBE2
331
FBE3
  5
FBE3
331
FBE4
  5
FBE4
331
FBE5
  5
FBE5
331
FBE6
  5
FBE6
331
FBE7
  5
FBE7
331
FBE8
  5
FBE8
331
FBE9
  5
FBE9
331
FBEA
  5
FBEA
331
FBEB
  5
FBEB
331
FBEC
  5
FBEC
331
FBED
  5
FBED
331
FBEE
  5
FBEE
331
FBEF
  5
FBEF
331
FBF0
  5
FBF0
331
FBF1
  5
FBF1
331
FBF2
  5
FBF2
331
FBF3
  5
FBF3
331
FBF4
  5
FBF4
331
FBF5
  5
FBF5
331
FBF6
  5
FBF6
331
FBF7
  5
FBF7
331
FBF8
  5
FBF8
331
FBF9
  5
FBF9
331
FBFA
  5
FBFA
331
FBFB
  5
FBFB
331
FBFC
  5
FBFC
331
FBFD
  5
FBFD
331
FC00
  5
FC00
331
FC01
  5
FC01
331
FC02
  5
FC02
331
FC03
  5
FC03
331
FC04
  5
FC04
331
FC05
  5
FC05
331
FC06
  5
FC06
331
FC07
  5
FC07
331
FC08
  5
FC08
331
FC09
  5
FC09
331
FC0A
  5
FC0A
331
FC0B
  5
FC0B
331
FC0C
  5
FC0C
331
FC0D
  5
FC0D
331
FC0E
  5
FC0E
331
FC0F
  5
FC0F
331
FC10
  5
FC10
331
FC11
  5
FC11
331
FC12
  5
FC12
331
FC13
  5
FC13
331
FC14
  5
FC14
331
FC15
  5
FC15
331
FC16
  5
FC16
331
FC17
  5
FC17
331
FC18
  5
FC18
331
FC19
  5
FC19
331
FC1A
  5
FC1A
331
FC1B
  5
FC1B
331
FC1C
  5
FC1C
331
FC1D
  5
FC1D
331
FC1E
  5
FC1E
331
FC1F
  5
FC1F
331
FC20
  5
FC20
331
FC21
  5
FC21
331
FC22
  5
FC22
331
FC23
  5
FC23
331
FC24
  5
FC24
331
FC25
  5
FC25
331
FC26
  5
FC26
331
FC27
  5
FC27
331
FC28
  5
FC28
331
FC29
  5
FC29
331
FC2A
  5
FC2A
331
FC2B
  5
FC2B
331
FC2C
  5
FC2C
331
FC2D
  5
FC2D
331
FC2E
  5
FC2E
331
FC2F
  5
FC2F
331
FC30
  5
FC30
331
FC31
  5
FC31
331
FC32
  5
FC32
331
FC33
  5
FC33
331
FC34
  5
FC34
331
FC35
  5
FC35
331
FC36
  5
FC36
331
FC37
  5
FC37
331
FC38
  5
FC38
331
FC39
  5
FC39
331
FC3A
  5
FC3A
331
FC3B
  5
FC3B
331
FC3C
  5
FC3C
331
FC3D
  5
FC3D
331
FC3E
  5
FC3E
331
FC3F
  5
FC3F
331
FC40
  5
FC40
331
FC41
  5
FC41
331
FC42
  5
FC42
331
FC43
  5
FC43
331
FC44
  5
FC44
331
FC45
  5
FC45
331
FC46
  5
FC46
331
FC47
  5
FC47
331
FC48
  5
FC48
331
FC49
  5
FC49
331
FC4A
  5
FC4A
331
FC4B
  5
FC4B
331
FC4C
  5
FC4C
331
FC4D
  5
FC4D
331
FC4E
  5
FC4E
331
FC4F
  5
FC4F
331
FC50
  5
FC50
331
FC51
  5
FC51
331
FC52
  5
FC52
331
FC53
  5
FC53
331
FC54
  5
FC54
331
FC55
  5
FC55
331
FC56
  5
FC56
331
FC57
  5
FC57
331
FC58
  5
FC58
331
FC59
  5
FC59
331
FC5A
  5
FC5A
331
FC5B
  5
FC5B
331
FC5C
  5
FC5C
331
FC5D
  5
FC5D
331
FC5E
  5
FC5E
331
FC5F
  5
FC5F
331
FC60
  5
FC60
331
FC61
  5
FC61
331
FC62
  5
FC62
331
FC63
  5
FC63
331
FC64
  5
FC64
331
FC65
  5
FC65
331
FC66
  5
FC66
331
FC67
  5
FC67
331
FC68
  5
FC68
331
FC69
  5
FC69
331
FC6A
  5
FC6A
331
FC6B
  5
FC6B
331
FC6C
  5
FC6C
331
FC6D
  5
FC6D
331
FC6E
  5
FC6E
331
FC6F
  5
FC6F
331
FC70
  5
FC70
331
FC71
  5
FC71
331
FC72
  5
FC72
331
FC73
  5
FC73
331
FC74
  5
FC74
331
FC75
  5
FC75
331
FC76
  5
FC76
331
FC77
  5
FC77
331
FC78
  5
FC78
331
FC79
  5
FC79
331
FC7A
  5
FC7A
331
FC7B
  5
FC7B
331
FC7C
  5
FC7C
331
FC7D
  5
FC7D
331
FC7E
  5
FC7E
331
FC7F
  5
FC7F
331
FC80
  5
FC80
331
FC81
  5
FC81
331
FC82
  5
FC82
331
FC83
  5
FC83
331
FC84
  5
FC84
331
FC85
  5
FC85
331
FC86
  5
FC86
331
FC87
  5
FC87
331
FC88
  5
FC88
331
FC89
  5
FC89
331
FC8A
  5
FC8A
331
FC8B
  5
FC8B
331
FC8C
  5
FC8C
331
FC8D
  5
FC8D
331
FC8E
  5
FC8E
331
FC8F
  5
FC8F
331
FC90
  5
FC90
331
FC91
  5
FC91
331
FC92
  5
FC92
331
FC93
  5
FC93
331
FC94
  5
FC94
331
FC95
  5
FC95
331
FC96
  5
FC96
331
FC97
  5
FC97
331
FC98
  5
FC98
331
FC99
  5
FC99
331
FC9A
  5
FC9A
331
FC9B
  5
FC9B
331
FC9C
  5
FC9C
331
FC9D
  5
FC9D
331
FC9E
  5
FC9E
331
FC9F
  5
FC9F
331
FCA0
  5
FCA0
331
FCA1
  5
FCA1
331
FCA2
  5
FCA2
331
FCA3
  5
FCA3
331
FCA4
  5
FCA4
331
FCA5
  5
FCA5
331
FCA6
  5
FCA6
331
FCA7
  5
FCA7
331
FCA8
  5
FCA8
331
FCA9
  5
FCA9
331
FCAA
  5
FCAA
331
FCAB
  5
FCAB
331
FCAC
  5
FCAC
331
FCAD
  5
FCAD
331
FCAE
  5
FCAE
331
FCAF
  5
FCAF
331
FCB0
  5
FCB0
331
FCB1
  5
FCB1
331
FCB2
  5
FCB2
331
FCB3
  5
FCB3
331
FCB4
  5
FCB4
331
FCB8
  5
FCB8
331
FCB9
  5
FCB9
331
FCBA
  5
FCBA
331
FCBB
  5
FCBB
331
FCBC
  5
FCBC
331
FCBD
  5
FCBD
331
FCBE
  5
FCBE
331
FCBF
  5
FCBF
331
FCC0
  5
FCC0
331
FCC1
  5
FCC1
331
FCC2
  5
FCC2
331
FCC3
  5
FCC3
331
FCC4
  5
FCC4
331
FCC5
  5
FCC5
331
FCC6
  5
FCC6
331
FCC7
  5
FCC7
331
FCC8
  5
FCC8
331
FCC9
  5
FCC9
331
FCCA
  5
FCCA
331
FCCB
  5
FCCB
331
FCCC
  5
FCCC
331
FCCD
  5
FCCD
331
FCCE
  5
FCCE
331
FCCF
  5
FCCF
331
FCD0
  5
FCD0
331
FCD1
  5
FCD1
331
FCD2
  5
FCD2
331
FCD3
  5
FCD3
331
FCD4
  5
FCD4
331
FCD5
  5
FCD5
331
FCD6
  5
FCD6
331
FCD7
  5
FCD7
331
FCD8
  5
FCD8
331
FCD9
  5
FCD9
331
FCDA
  5
FCDA
331
FCDB
  5
FCDB
331
FCDC
  5
FCDC
331
FCDD
  5
FCDD
331
FCDE
  5
FCDE
331
FCDF
  5
FCDF
331
FCE0
  5
FCE0
331
FCE1
  5
FCE1
331
FCE2
  5
FCE2
331
FCE3
  5
FCE3
331
FCE4
  5
FCE4
331
FCE5
  5
FCE5
331
FCE6
  5
FCE6
331
FCE7
  5
FCE7
331
FCE8
  5
FCE8
331
FCE9
  5
FCE9
331
FCEA
  5
FCEA
331
FCEB
  5
FCEB
331
FCEC
  5
FCEC
331
FCED
  5
FCED
331
FCEE
  5
FCEE
331
FCEF
  5
FCEF
331
FCF0
  5
FCF0
331
FCF1
  5
FCF1
331
FCF2
  5
FCF2
331
FCF3
  5
FCF3
331
FCF4
  5
FCF4
331
FCF5
  5
FCF5
331
FCF6
  5
FCF6
331
FCF7
  5
FCF7
331
FCF8
  5
FCF8
331
FCF9
  5
FCF9
331
FCFA
  5
FCFA
331
FCFB
  5
FCFB
331
FCFC
  5
FCFC
331
FCFD
  5
FCFD
331
FCFE
  5
FCFE
331
FCFF
  5
FCFF
331
FD00
  5
FD00
331
FD01
  5
FD01
331
FD9B
  5
FD9B
331
FDC2
  5
FDC2
331
FDC3
  5
FDC3
331
FDC4
  5
FDC4
331
FDC5
  5
FDC5
331
FDCA
  5
FDCA
331
FDCB
  5
FDCB
331
FDCC
  5
FDCC
331
FDCD
  5
FDCD
331
FDCE
  5
FDCE
331
FDCF
  5
FDCF
331
FDD6
  5
FDD6
331
FE36
  5
FE36
331
FF1B
  5
FF1B
331
FF1C
  5
FF1C
331
FF1D
  5
FF1D
331
FF1E
  5
FF1E
331
FF1F
  5
FF1F
331
FF20
  5
FF20
331
FF23
  5
FF23
331
FF24
  5
FF24
331
FF27
  5
FF27
331
FF28
  5
FF28
331
FF49
  5
FF49
331
10BAA
  5
10BAE
331
10BAB
  5
10BAF
331
10BAC
  5
10BB0
331
10BAD
  5
10BB1
331
10BC1
  5
10BC5
331
10BC2
  5
10BC6
331
10BC3
  5
10BC7
331
10BC4
  5
10BC8
331
10BC5
  5
10BC9
331
10BC6
  5
10BCA
331
10BC7
  5
10BCB
331
10BC8
  5
10BCC
331
10BC9
  5
10BCD
331
10BCA
  5
10BCE
331
10BCB
  5
10BCF
331
10BCC
  5
10BD0
331
10BCD
  5
10BD1
331
10BCE
  5
10BD2
331
10BCF
  5
10BD3
331
10BD0
  5
10BD4
331
10BD1
  5
10BD5
331
10BD2
  5
10BD6
331
10BD3
  5
10BD7
331
10BD4
  5
10BD8
331
10BD5
  5
10BD9
331
10BD6
  5
10BDA
331
10BD7
  5
10BDB
331
10BD8
  5
10BDC
331
10BD9
  5
10BDD
331
10BDA
  5
10BDE
331
10BDB
  5
10BDF
331
10BDC
  5
10BE0
331
10BDD
  5
10BE1
331
10BDE
  5
10BE2
331
10BDF
  5
10BE3
331
10BE0
  5
10BE4
331
10BE1
  5
10BE5
331
10BE2
  5
10BE6
331
10BE3
  5
10BE7
331
10BE4
  5
10BE8
331
10BE5
  5
10BE9
331
10BE6
  5
10BEA
331
10BE7
  5
10BEB
331
10BE8
  5
10BEC
331
10BE9
  5
10BED
331
10BF5
  5
10BF9
331
10BF6
  5
10BFA
331
10C00
  5
10DF8
331
10C01
  5
10DF9
  0
XRECORD
  5
98EC
102
{ACAD_REACTORS
330
264F
102
}
330
264F
100
AcDbXrecord
280
     1
340
1B
  0
XRECORD
  5
98EE
102
{ACAD_REACTORS
330
2651
102
}
330
2651
100
AcDbXrecord
280
     1
340
23
  0
LAYOUT
  5
22
102
{ACAD_REACTORS
330
1A
102
}
330
1A
100
AcDbPlotSettings
  1

  2
SII LP-2150 (D-SCAN C2)
  4
User120
  6
AM_VIEW1
 40
3.174999952316284
 41
3.174999952316284
 42
3.17498779296875
 43
3.17498779296875
 44
296.9259948730469
 45
419.9889831542969
 46
0.0
 47
0.0
 48
0.0
 49
0.0
140
420.0
141
297.0
142
1.0
143
1.022107788374329
 70
 11952
 72
     1
 73
     1
 74
     4
  7
sei_cad.ctb
 75
     0
147
0.9783703943695685
148
0.0
149
0.0
100
AcDbLayout
  1
Model
 70
     1
 71
     0
 10
0.0
 20
0.0
 11
12.0
 21
9.0
 12
0.0
 22
0.0
 32
0.0
 14
0.0
 24
0.0
 34
0.0
 15
0.0
 25
0.0
 35
0.0
146
0.0
 13
0.0
 23
0.0
 33
0.0
 16
1.0
 26
0.0
 36
0.0
 17
0.0
 27
1.0
 37
0.0
 76
     0
330
1F
1001
ACAD_PSEXT
1000
SII LP-2150 (D-SCAN C2)
1000
SII LP-2150 (D-SCAN C2)
1000
133.153.16.130#3000
1000

1070
     0
  0
LAYOUT
  5
1E
102
{ACAD_REACTORS
330
1A
102
}
330
1A
100
AcDbPlotSettings
  1

  2
Canon LASER SHOT LBP-2030
  4

  6

 40
0.0
 41
0.0
 42
0.0
 43
0.0
 44
0.0
 45
0.0
 46
0.0
 47
0.0
 48
0.0
 49
0.0
140
0.0
141
0.0
142
1.0
143
1.0
 70
   688
 72
     0
 73
     0
 74
     5
  7
sei_cad.ctb
 75
    16
147
1.0
148
0.0
149
0.0
100
AcDbLayout
  1
ﾚｲｱｳﾄ1
 70
     1
 71
     1
 10
0.0
 20
0.0
 11
420.0
 21
297.0
 12
0.0
 22
0.0
 32
0.0
 14
1.000000000000000E+20
 24
1.000000000000000E+20
 34
1.000000000000000E+20
 15
-1.000000000000000E+20
 25
-1.000000000000000E+20
 35
-1.000000000000000E+20
146
0.0
 13
0.0
 23
0.0
 33
0.0
 16
1.0
 26
0.0
 36
0.0
 17
0.0
 27
1.0
 37
0.0
 76
     0
330
1B
  0
LAYOUT
  5
26
102
{ACAD_REACTORS
330
1A
102
}
330
1A
100
AcDbPlotSettings
  1

  2
Canon LASER SHOT LBP-2030
  4

  6

 40
0.0
 41
0.0
 42
0.0
 43
0.0
 44
0.0
 45
0.0
 46
0.0
 47
0.0
 48
0.0
 49
0.0
140
0.0
141
0.0
142
1.0
143
1.0
 70
   688
 72
     0
 73
     0
 74
     5
  7
sei_cad.ctb
 75
    16
147
1.0
148
0.0
149
0.0
100
AcDbLayout
  1
ﾚｲｱｳﾄ2
 70
     1
 71
     2
 10
0.0
 20
0.0
 11
12.0
 21
9.0
 12
0.0
 22
0.0
 32
0.0
 14
0.0
 24
0.0
 34
0.0
 15
0.0
 25
0.0
 35
0.0
146
0.0
 13
0.0
 23
0.0
 33
0.0
 16
1.0
 26
0.0
 36
0.0
 17
0.0
 27
1.0
 37
0.0
 76
     0
330
23
  0
MLINESTYLE
  5
18
102
{ACAD_REACTORS
330
17
102
}
330
17
100
AcDbMlineStyle
  2
STANDARD
 70
     0
  3

 62
   256
 51
90.0
 52
90.0
 71
     2
 49
0.5
 62
   256
  6
BYLAYER
 49
-0.5
 62
   256
  6
BYLAYER
  0
ACDBPLACEHOLDER
  5
F
102
{ACAD_REACTORS
330
E
102
}
330
E
  0
TABLESTYLE
  5
99D7
102
{ACAD_REACTORS
330
99D6
102
}
330
99D6
100
AcDbTableStyle
  3
Standard
 70
     0
 71
     8
 40
1.5
 41
1.5
280
     0
281
     0
  7
STANDARD
140
4.5
170
     2
 62
     0
 63
     7
283
     0
274
    -2
284
     1
 64
     0
275
    -2
285
     1
 65
     0
276
    -2
286
     1
 66
     0
277
    -2
287
     1
 67
     0
278
    -2
288
     1
 68
     0
279
    -2
289
     1
 69
     0
  7
STANDARD
140
6.0
170
     5
 62
     0
 63
     7
283
     0
274
    -2
284
     1
 64
     0
275
    -2
285
     1
 65
     0
276
    -2
286
     1
 66
     0
277
    -2
287
     1
 67
     0
278
    -2
288
     1
 68
     0
279
    -2
289
     1
 69
     0
  7
STANDARD
140
4.5
170
     5
 62
     0
 63
     7
283
     0
274
    -2
284
     1
 64
     0
275
    -2
285
     1
 65
     0
276
    -2
286
     1
 66
     0
277
    -2
287
     1
 67
     0
278
    -2
288
     1
 68
     0
279
    -2
289
     1
 69
     0
  0
XRECORD
  5
112AC
102
{ACAD_REACTORS
330
112AB
102
}
330
112AB
100
AcDbXrecord
280
     1
340
99D5
  0
XRECORD
  5
112AD
102
{ACAD_REACTORS
330
112AB
102
}
330
112AB
100
AcDbXrecord
280
     1
340
99D4
  0
DICTIONARYVAR
  5
9A53
102
{ACAD_REACTORS
330
30
102
}
330
30
100
DictionaryVariables
280
     0
  1
STANDARD
  0
DICTIONARYVAR
  5
112AA
102
{ACAD_REACTORS
330
30
102
}
330
30
100
DictionaryVariables
280
     0
  1
0
  0
DICTIONARYVAR
  5
112A9
102
{ACAD_REACTORS
330
30
102
}
330
30
100
DictionaryVariables
280
     0
  1
1
  0
ACAD_PROXY_OBJECT
  5
99B0
102
{ACAD_REACTORS
330
4D
102
}
330
4D
100
AcDbProxyObject
 90
      499
 91
      520
 95
       25
 70
     0
 93
      118
310
405010040CA904C415CD5B075DD1B8
350
99B1
 94
        0
  0
DICTIONARY
  5
17E
102
{ACAD_REACTORS
330
4D
102
}
330
4D
100
AcDbDictionary
281
     1
  3
ISO
350
9A35
  3
JIS
350
9CBB
  0
XRECORD
  5
9A47
102
{ACAD_REACTORS
330
4D
102
}
330
4D
100
AcDbXrecord
280
     1
 90
-1023410169
  0
ACAD_PROXY_OBJECT
  5
99A4
330
99A1
100
AcDbProxyObject
 90
      499
 91
      508
 95
       25
 70
     0
 93
      156
310
00010143D050D351505391D5531054925390D490
330
99A1
 94
        0
  0
ACAD_PROXY_OBJECT
  5
99A5
330
99A1
100
AcDbProxyObject
 90
      499
 91
      508
 95
       25
 70
     0
 93
      148
310
000101439050D351531253915054925390D490
330
99A1
 94
        0
  0
ACAD_PROXY_OBJECT
  5
99A6
330
99A1
100
AcDbProxyObject
 90
      499
 91
      509
 95
       25
 70
     0
 93
      156
310
000101439050D35154D6535093D314D256915080
330
99A1
 94
        0
  0
ACAD_PROXY_OBJECT
  5
99A8
330
99A1
100
AcDbProxyObject
 90
      499
 91
      511
 95
       25
 70
     0
 93
       88
310
000101411093D34C402B00
330
99A1
330
0
330
0
 94
        0
  0
ACAD_PROXY_OBJECT
  5
99E8
330
99A1
100
AcDbProxyObject
 90
      499
 91
      561
 95
       25
 70
     0
 93
      358
310
0001014124FEA55D00507392E322E302E32014124FEA55D00507392E322E302E3240501000041505391D311658
330
99A1
330
99E9
330
99EF
 94
        0
  0
ACAD_PROXY_OBJECT
  5
99E9
330
99A1
100
AcDbProxyObject
 90
      499
 91
      562
 95
       25
 70
     0
 93
       56
310
000190240E0000
330
99A1
330
99EA
330
99EC
 94
        0
  0
ACAD_PROXY_OBJECT
  5
99EA
330
99A1
100
AcDbProxyObject
 90
      499
 91
      563
 95
       25
 70
     0
 93
       48
310
0001AA000000
330
99A1
330
1E
330
99EB
330
0
 94
        0
  0
ACAD_PROXY_OBJECT
  5
99EB
330
99A1
100
AcDbProxyObject
 90
      499
 91
      564
 95
       25
 70
     0
 93
       28
310
0001AAA0
330
99A1
 94
        0
  0
ACAD_PROXY_OBJECT
  5
99EC
330
99A1
100
AcDbProxyObject
 90
      499
 91
      563
 95
       25
 70
     0
 93
       48
310
0001AA000000
330
99A1
330
26
330
99ED
330
0
 94
        0
  0
ACAD_PROXY_OBJECT
  5
99ED
330
99A1
100
AcDbProxyObject
 90
      499
 91
      564
 95
       25
 70
     0
 93
       28
310
0001AAA0
330
99A1
 94
        0
  0
ACAD_PROXY_OBJECT
  5
99F0
330
99A1
100
AcDbProxyObject
 90
      499
 91
      509
 95
       25
 70
     0
 93
      108
310
000101421053521310D05310D010
330
99A1
 94
        0
  0
ACAD_PROXY_OBJECT
  5
99F1
330
99A1
100
AcDbProxyObject
 90
      499
 91
      509
 95
       25
 70
     0
 93
      124
310
00010142905354915554D15112535010
330
99A1
 94
        0
  0
ACAD_PROXY_OBJECT
  5
99F2
330
99A1
100
AcDbProxyObject
 90
      499
 91
      509
 95
       25
 70
     0
 93
      132
310
00010143105354D150D51253D391125360
330
99A1
 94
        0
  0
ACAD_PROXY_OBJECT
  5
99F3
330
99A1
100
AcDbProxyObject
 90
      499
 91
      509
 95
       25
 70
     0
 93
      124
310
00010142905355941093D49111549010
330
99A1
 94
        0
  0
ACAD_PROXY_OBJECT
  5
99F4
330
99A1
100
AcDbProxyObject
 90
      499
 91
      509
 95
       25
 70
     0
 93
      116
310
0001014290535115D1D0D3D313D4A0
330
99A1
 94
        0
  0
ACAD_PROXY_OBJECT
  5
99F5
330
99A1
100
AcDbProxyObject
 90
      499
 91
      509
 95
       25
 70
     0
 93
      148
310
00010143505355925155D49151949154D21010
330
99A1
 94
        0
  0
ACAD_PROXY_OBJECT
  5
99F6
330
99A1
100
AcDbProxyObject
 90
      499
 91
      509
 95
       25
 70
     0
 93
      172
310
00010144105350539393D51154149154D15495915010
330
99A1
 94
        0
  0
ACAD_PROXY_OBJECT
  5
99F7
330
99A1
100
AcDbProxyObject
 90
      499
 91
      509
 95
       25
 70
     0
 93
      172
310
00010144105350555513D11253505494905391D15010
330
99A1
 94
        0
  0
ACAD_PROXY_OBJECT
  5
99F8
330
99A1
100
AcDbProxyObject
 90
      499
 91
      509
 95
       25
 70
     0
 93
      124
310
00010142D05351561514915191125360
330
99A1
 94
        0
  0
ACAD_PROXY_OBJECT
  5
99F9
330
99A1
100
AcDbProxyObject
 90
      499
 91
      509
 95
       25
 70
     0
 93
      132
310
00010142D05355105410539393D5115010
330
99A1
 94
        0
  0
ACAD_PROXY_OBJECT
  5
99FA
330
99A1
100
AcDbProxyObject
 90
      499
 91
      509
 95
       25
 70
     0
 93
      108
310
00010142105350555513D0D31010
330
99A1
 94
        0
  0
ACAD_PROXY_OBJECT
  5
99FB
330
99A1
100
AcDbProxyObject
 90
      499
 91
      509
 95
       25
 70
     0
 93
      108
310
00010142105350D3119150551050
330
99A1
 94
        0
  0
ACAD_PROXY_OBJECT
  5
99FC
330
99A1
100
AcDbProxyObject
 90
      499
 91
      509
 95
       25
 70
     0
 93
      108
310
00010142105350D315925155D3F0
330
99A1
 94
        0
  0
ACAD_PROXY_OBJECT
  5
99FD
330
99A1
100
AcDbProxyObject
 90
      499
 91
      509
 95
       25
 70
     0
 93
      148
310
0001014350535212511156915493D112535010
330
99A1
 94
        0
  0
ACAD_PROXY_OBJECT
  5
99FE
330
99A1
100
AcDbProxyObject
 90
      499
 91
      509
 95
       25
 70
     0
 93
      124
310
00010142905352105510D21254D3D010
330
99A1
 94
        0
  0
ACAD_PROXY_OBJECT
  5
99FF
330
99A1
100
AcDbProxyObject
 90
      499
 91
      509
 95
       25
 70
     0
 93
      148
310
00010143905354D25391D31152105513105660
330
99A1
 94
        0
  0
ACAD_PROXY_OBJECT
  5
9A00
330
99A1
100
AcDbProxyObject
 90
      499
 91
      509
 95
       25
 70
     0
 93
      124
310
00010142D0535115D1D193111254D420
330
99A1
 94
        0
  0
ACAD_PROXY_OBJECT
  5
9A01
330
99A1
100
AcDbProxyObject
 90
      499
 91
      509
 95
       25
 70
     0
 93
      100
310
00010142105350555513D213A0
330
99A1
 94
        0
  0
ACAD_PROXY_OBJECT
  5
9A02
330
99A1
100
AcDbProxyObject
 90
      499
 91
      509
 95
       25
 70
     0
 93
      116
310
000101425053521390D3D553951010
330
99A1
 94
        0
  0
ACAD_PROXY_OBJECT
  5
9A03
330
99A1
100
AcDbProxyObject
 90
      499
 91
      509
 95
       25
 70
     0
 93
      108
310
0001014210535213941493D29010
330
99A1
 94
        0
  0
ACAD_PROXY_OBJECT
  5
9A04
330
99A1
100
AcDbProxyObject
 90
      499
 91
      509
 95
       25
 70
     0
 93
      108
310
0001014210535213951654115070
330
99A1
 94
        0
  0
ACAD_PROXY_OBJECT
  5
9A05
330
99A1
100
AcDbProxyObject
 90
      499
 91
      509
 95
       25
 70
     0
 93
      108
310
000101421053521395925155D0F0
330
99A1
 94
        0
  0
ACAD_PROXY_OBJECT
  5
9A06
330
99A1
100
AcDbProxyObject
 90
      499
 91
      509
 95
       25
 70
     0
 93
      140
310
00010143505354D150D51253D390D3D41660
330
99A1
 94
        0
  0
ACAD_PROXY_OBJECT
  5
9A07
330
99A1
100
AcDbProxyObject
 90
      499
 91
      509
 95
       25
 70
     0
 93
      108
310
00010142105350D3141493D29030
330
99A1
 94
        0
  0
ACAD_PROXY_OBJECT
  5
9A08
330
99A1
100
AcDbProxyObject
 90
      499
 91
      508
 95
       25
 70
     0
 93
      212
310
00010143905350555513D2105510D21493D500000000000002E400
330
99A1
 94
        0
  0
ACAD_PROXY_OBJECT
  5
9A09
330
99A1
100
AcDbProxyObject
 90
      499
 91
      509
 95
       25
 70
     0
 93
      156
310
00010143905350555513D2105510D21111551010
330
99A1
 94
        0
  0
ACAD_PROXY_OBJECT
  5
9A12
330
99A1
100
AcDbProxyObject
 90
      499
 91
      570
 95
       25
 70
     0
 93
      698
310
0001000000009AA6A9AA4051E467269204A756E2032332030373A34373A333020323030362028555443290141CE4B8C8B8C0B8C80518547565204F63742031322031303A32313A323320323031300141CE4B8C8B8C0B8C80
330
99A1
330
9A13
330
9A14
330
9A16
330
0
 94
        0
  0
ACAD_PROXY_OBJECT
  5
9A13
330
99A1
100
AcDbProxyObject
 90
      499
 91
      571
 95
       25
 70
     0
 93
       70
310
0001AAA80820000000
330
99A1
330
9A13
330
9A13
 94
        0
  0
ACAD_PROXY_OBJECT
  5
9A14
330
99A1
100
AcDbProxyObject
 90
      499
 91
      572
 95
       25
 70
     0
 93
       48
310
000100000000
330
99A1
330
0
330
9A15
330
0
330
0
 94
        0
  0
ACAD_PROXY_OBJECT
  5
9A15
330
99A1
100
AcDbProxyObject
 90
      499
 91
      573
 95
       25
 70
     0
 93
       40
310
000100AAAA
330
99A1
330
0
 94
        0
  0
ACAD_PROXY_OBJECT
  5
9A1B
330
99A1
100
AcDbProxyObject
 90
      499
 91
      522
 95
       25
 70
     0
 93
      180
310
00010143105050D3D35411119390535140504434F4D500
330
99A1
 94
        0
  0
ACAD_PROXY_OBJECT
  5
9A1C
330
99A1
100
AcDbProxyObject
 90
      499
 91
      522
 95
       25
 70
     0
 93
      212
310
0001014390505193D311115491119390535140506466F6C6465720
330
99A1
 94
        0
  0
ACAD_PROXY_OBJECT
  5
9A1D
330
99A1
100
AcDbProxyObject
 90
      499
 91
      522
 95
       25
 70
     0
 93
      180
310
00010143105050539393D1119390535140504284156290
330
99A1
 94
        0
  0
ACAD_PROXY_OBJECT
  5
9A1E
330
99A1
100
AcDbProxyObject
 90
      499
 91
      522
 95
       25
 70
     0
 93
      436
310
00010143905050D3D35415925155D31254D50052295BD96CA0A90B396CA0A894591A496CA0A8DB691A496CA0A89BA96CA0A95E28F95310
330
99A1
 94
        0
  0
ACAD_PROXY_OBJECT
  5
9A23
330
99A1
100
AcDbProxyObject
 90
      499
 91
      578
 95
       25
 70
     0
 93
       32
310
00010000
330
99A1
340
9A20
330
9A25
330
9A20
 94
        0
  0
ACAD_PROXY_OBJECT
  5
9A24
330
99A1
100
AcDbProxyObject
 90
      499
 91
      579
 95
       25
 70
     0
 93
       18
310
000180
330
99A1
 94
        0
  0
ACAD_PROXY_OBJECT
  5
9A25
330
99A1
100
AcDbProxyObject
 90
      499
 91
      580
 95
       25
 70
     0
 93
      226
310
00010144520D8CD04B55D20B5110D353938B530C4C9050055401550000
330
99A1
330
9A23
330
9A24
 94
        0
  0
ACAD_PROXY_OBJECT
  5
9A26
330
99A1
100
AcDbProxyObject
 90
      499
 91
      581
 95
       25
 70
     0
 93
      178
310
000100AAAAAAB54A018816C84011E71A8B242D3714CA40
330
99A1
330
9A25
 94
        0
  0
ACAD_PROXY_OBJECT
  5
9A27
330
99A1
100
AcDbProxyObject
 90
      499
 91
      582
 95
       25
 70
     0
 93
      108
310
000190140A000000000000AAAAA0
330
99A1
330
9A28
330
9A28
330
9A28
330
9A28
330
9A28
330
0
 94
        0
  0
ACAD_PROXY_OBJECT
  5
9A28
330
99A1
100
AcDbProxyObject
 90
      499
 91
      583
 95
       25
 70
     0
 93
       51
310
00010000AAAA80
330
99A1
330
9A27
330
9A25
 94
        0
  0
ACAD_PROXY_OBJECT
  5
9A2B
330
99A1
100
AcDbProxyObject
 90
      499
 91
      522
 95
       25
 70
     0
 93
      140
310
00010142105350D55494D511005034A49530
330
99A1
 94
        0
  0
DICTIONARY
  5
40
102
{ACAD_REACTORS
330
3F
102
}
330
3F
100
AcDbDictionary
281
     1
  3
DWGSETTINGS
350
999E
  3
Shaft
350
9F38
  3
TRANSSETTINGS
350
999F
  0
ACAD_PROXY_OBJECT
  5
99B4
102
{ACAD_REACTORS
330
3F
102
}
330
3F
100
AcDbProxyObject
 90
      499
 91
      519
 95
       25
 70
     0
 93
    17944
310
41502491013041105357CC201C00030C0132441013141105357CC603800030C0132441013241105357CCA01400030C0132441013341105357CCE01800030C01199013441105357CD200C00030C01199013541105357CD600C00030C01199013641105357CDA00800030C01239013741105357CDE01000030C0119901384110
310
5357CE200400030C01199013941105357CE63F400030C0241102324141505357CC4C201C00030C0132902344141505357CC4C600C00030C0119902495041505357CC4CA01C00030C013240902304E41505357CC13A01C00030C0132902314E41505357CC53A03800030C0132902324E41505357CC93A01400030C013290233
310
4E41505357CCD3A01800030C0119902344E41505357CD13A00C00030C0119902354E41505357CD53A00C00030C0119902364E41505357CD93A00800030C0123902374E41505357CDD3A01000030C0119902384E41505357CE13A00400030C0119902394E41505357CE53A3F400030C024110332414E41905357CC4C13A01C0
310
0030C013290334414E41905357CC4C53A00C00030C011990349504E41905357CC4C93A01C00030C0132409044B4C494E41505357D0D3200400030C011942504494E464F42105357D410549151A01000030C011942D055241484D3541905357D093D4A01C00030C0132425045649455742105357D5925155D4E00400030C011
310
942D06424548494E4441905357D25395A3F400030C0243505545241494C41505357D514A00C00030C01194250348494441905357D21251201C00030C01194250356495341905357D59254E01C00030C01324250650415244494D42505357D41054911253600C00030C01194250652454644494D42505357D49151911253601
310
000030C0119425534110921395901398000000C0003FFFFFFFE415092139594D06424548494E448000000C0003FFFFFFFE411093D48C9055241484D358010000C300466411093D48CD055241484D358020000C30048E411093D48D5055241484D358000000C0003FFFFFFFE4110D0530C901348000000C0003FFFFFFFE4110
310
D0530CD01348020000C30048E4110D0530D501348070000C3004CA4110D0530DD013481E0000C30051A4110D15393901378000000C0003FFFFFFFE4110D15395D01378000000C0003FFFFFFFE4110D312539044B4C494E8000000C0003FFFFFFFE4110D3D38C501308000000C0003FFFFFFFD034110D3D38C901318000000C
310
0003FFFFFFFD034110D3D38CD01328000000C0003FFFFFFFD034110D3D38D101328000000C0003FFFFFFFD034111115510501348000000C0003FFFFFFFE4111125051D01358000000C0003FFFFFFFE4111125312501358000000C0003FFFFFFFE411112535410650415244494D8000000C0003FFFFFFFE4111125354906524
310
54644494D8000000C0003FFFFFFFE4111915353901388000000C0003FFFFFFFE415191535413901388030000C3003FFFFFFFE4151915354D410234418000000C0003FFFFFFFE4151915354D510234418030000C300466415191535593901328000000C0003FFFFFFFE415191535595101328030000C3004664112105510D01
310
388000000C0003FFFFFFFD014112125113901338000000C0003FFFFFFFD034112125115D01338000000C0003FFFFFFFD034112131253901348000000C0003FFFFFFFD01411213D0D3901378000000C0003FFFFFFFE411213D0D5D01378000000C0003FFFFFFFE4112539193D04494E464F8000000C0003FFFFFFFE41131150
310
51101358000000C0003FFFFFFFE419397D0921395902394E8000000C0003FFFFFFFE419397D0D3D38C502304E8000000C0003FFFFFFFD03419397D0D3D38C902314E8000000C0003FFFFFFFD03419397D0D3D38CD02324E8000000C0003FFFFFFFD03419397D0D3D38D102324E8000000C0003FFFFFFFD03419397D0D15393
310
902374E8000000C0003FFFFFFFE419397D0D15395D02374E8000000C0003FFFFFFFE419397D1125312502354E8000000C0003FFFFFFFE419397D2105510D02384E8000000C0003FFFFFFFD01419397D2125113902334E8000000C0003FFFFFFFD03419397D2125115D02334E8000000C0003FFFFFFFD03419397D311505110
310
2354E8000000C0003FFFFFFFE419397D391D25410349504E8000000C0003FFFFFFFE419397D412105390334414E8000000C0003FFFFFFFE419397D510D3D3902304E8000000C0003FFFFFFFD03419397D5121312502344E8000000C0003FFFFFFFD01419397D5131153902304E8000000C0003FFFFFFFD03419397D5941312
310
50332414E8000000C0003FFFFFFFE411391D25410249508000000C0003FFFFFFFE411410530C9055241484D358010000C300466411410530CD055241484D358020000C30048E411410530D5055241484D358000000C0003FFFFFFFE411412105390234418000000C0003FFFFFFFE411413D4D3901358000000C0003FFFFFFF
310
E411490D1D3901378000000C0003FFFFFFFE411490D1D5D01378000000C0003FFFFFFFE4114D09492D01348000000C0003FFFFFFFD014114D150D5101348000000C0003FFFFFFFD014114D6508CD01358020000C30048E411354D653501358020000C30048E411510D3D3901308000000C0003FFFFFFFD0341151213125013
310
48000000C0003FFFFFFFD01411512550C9055241484D358010000C300466411512550CD055241484D358020000C30048E411512550D5055241484D358000000C0003FFFFFFFE4115131153901308000000C0003FFFFFFFD03415514905253105545241494C8000000C0003FFFFFFFE4115149312501348000000C0003FFFFF
310
FFD01411516150C501368030000C300466411516150C901368030000C300466411516150CD01368000000C0003FFFFFFFE411516150D501368070000C3004CA411516150DD013681E0000C30051A4115925155D04564945578000000C0003FFFFFFFE41159151121034849448000000C0003FFFFFFFD024115915115903564
310
9538000000C0003FFFFFFFD02411594131250232418000000C0003FFFFFFFE4116925690501348000000C0003FFFFFFFD01AAA00000030401013F90A4393241D3241919415324111940D194092340519479467F6
340
16
340
16
340
16
340
43
340
16
340
16
340
16
340
44
340
16
340
16
340
44
340
45
340
16
340
16
340
16
340
16
340
43
340
16
340
16
340
16
340
44
340
16
340
16
340
44
340
45
340
16
340
46
340
16
340
16
340
16
340
16
340
16
340
43
340
16
340
16
340
16
340
15
340
15
340
15
340
15
340
15
340
15
340
15
340
15
340
15
340
48
340
15
340
15
340
15
340
15
340
15
340
15
340
15
340
15
340
15
340
15
340
15
340
15
340
15
340
16
340
15
340
15
340
15
340
15
340
47
340
15
340
15
340
48
340
15
340
15
340
15
340
15
340
15
340
15
340
15
340
15
340
48
340
15
340
15
340
15
340
47
340
15
340
15
340
15
340
15
340
15
340
15
340
15
340
15
340
15
340
15
340
15
340
15
340
15
340
15
340
48
340
15
340
15
340
15
340
15
340
15
340
15
340
15
340
15
340
15
340
15
340
15
340
15
340
15
340
15
340
15
340
15
340
15
340
15
340
15
340
15
340
15
340
15
340
4B
 94
        0
  0
XRECORD
  5
1CA0
102
{ACAD_REACTORS
330
1C9F
102
}
330
1C9F
100
AcDbXrecord
280
     1
  1
21000845__00___
  0

  0
XRECORD
  5
1CA2
102
{ACAD_REACTORS
330
1CA1
102
}
330
1CA1
100
AcDbXrecord
280
     1
  1
3
  0

  0
ACAD_PROXY_OBJECT
  5
99B1
102
{ACAD_REACTORS
330
99B0
102
}
330
99B0
100
AcDbProxyObject
 90
      499
 91
      521
 95
       25
 70
     0
 93
      157
310
057356C1D77406406AA8FFFFFFFF05DD01009010
330
1F
330
0
330
9A25
 94
        0
  0
ACAD_PROXY_OBJECT
  5
9A35
102
{ACAD_REACTORS
330
17E
102
}
330
17E
100
AcDbProxyObject
 90
      499
 91
      589
 95
       25
 70
     0
 93
     2497
310
5DC0000000000000C408030000C30040D254D3D01640600800030C0200800030C000000000000000C40C88A2085A0B6B23A22B233B2A9BA3220480A1C82C6DAA6EAE4CCA8CAF0E8A6E8C88120284A0B1B6A321A329BA3220480A1A82C6DAAECAD8C8D2DCCEA6E8C8812028420B1B6A4B229BA3220480A1682C6DA88C2E8EAD
310
AA6E8C88120284A0B1B6A127A6A9BA3220480A2082DAC8E888CAE8C2D2D8A6F2DAA6E8C88120288A0B6B23A29B2B1BA34B7B729BCB6A9BA3220480A2282DAC8E886CADCE8CAE498D2DCCAA6E8C88120288A0B6B23A2A343932B0B22634B732A9BA3220480A1682DAC8E89CDEE8CAA6E8C88120285A0B1A0B6B3A630BCA9BA3
310
220480A1682C682DACE88D2DAA6E8C88120288A0B1A0B6B3A437B632A1B430B93A29BA3220480A1A82C682DACEA8D2E8D8CAA6E8C8812032048080
340
9A36
360
9A37
360
9A38
360
9A39
360
9A3A
360
9A3B
360
9A3C
360
9A3D
360
9A3E
360
9A3F
360
9A40
360
9A41
360
9A42
360
9A4D
360
9A4E
360
9A4F
360
9A50
340
0
340
0
 94
        0
  0
ACAD_PROXY_OBJECT
  5
9CBB
102
{ACAD_REACTORS
330
17E
102
}
330
17E
100
AcDbProxyObject
 90
      499
 91
      526
 95
       25
 70
     0
 93
     2379
310
5DC33333333333309408000000C00040D29254D01640600800030C0200800030C003333333333330940C8121E8720B1B6A9BAB9332A32BC3A29BA3220480A1282C6DA8C868CA6E8C88120286A0B1B6ABB2B63234B733A9BA3220480A1082C6DA92C8A6E8C88120285A0B1B6A230BA3AB6A9BA3220480A1282C6DA849E9AA6E
310
8C88120286A0B1A0B6B3AA34BA3632A9BA3220480A2082DAC8E888CAE8C2D2D8A6F2DAA6E8C88120288A0B6B23A29B2B1BA34B7B729BCB6A9BA3220480A2282DAC8E886CADCE8CAE498D2DCCAA6E8C88120288A0B6B23A2A343932B0B22634B732A9BA3220480A1682DAC8E89CDEE8CAA6E8C88120285A0B1A0B6B3A630BCA
310
9BA3220480A1682C682DACE88D2DAA6E8C88120288A0B1A0B6B3A437B632A1B430B93A29BA3220480C812020
340
180
360
9CBC
360
9CBD
360
9CBE
360
9CBF
360
9CC0
360
9CC1
360
9CC2
360
9CC3
360
9CC4
360
9CC5
360
9CC6
360
9CC7
360
9CCD
360
9CCE
360
9CCF
340
0
340
0
 94
        0
  0
ACAD_PROXY_OBJECT
  5
999E
102
{ACAD_REACTORS
330
40
102
}
330
40
100
AcDbProxyObject
 90
      499
 91
      518
 95
       25
 70
     0
 93
     2892
310
4050B44574753455454494E4753A0E8482A68AA6A88882A069492A684A1A0A723A0A92920ACA0A8419983E1A1ABE1B1820C868A9C829C8E82A12686AF87260F862666A8321A2A72224A0A50000000000000122020E868A9C889282A682A106260F86460F8666083A1A2A72224A9AA250000000000000042020C868A9C988A9
310
C94000000000000048808321A2A727A323250000000000000122020E868A9C9E8C8C62940000000000000488083A1A2A727A3231925000000000000012202128698929C82A4A482B282A066268608421A624A722AA2CA820A82AC2624A722A1288AE8EAAA68682988A94283A620A9AA27A12520A8223231A99A109A82968AA
310
C928AAE9FA04832829A1A0A622830020000419491559254D2505404C1055343414C4541503313A314214D510539110549110540D29254D0954494D455354414D504A0AF42A241792B734141D5915494D253D3905414C4D4B8C0C1107B44574753455454494E4753454E447D0
  0
ACAD_PROXY_OBJECT
  5
9F38
102
{ACAD_REACTORS
330
40
102
}
330
40
100
AcDbProxyObject
 90
      499
 91
      518
 95
       25
 70
     0
 93
      199
310
405055368616674220F688AE8EA68AA8A8929C8EA68A9C88FA
  0
ACAD_PROXY_OBJECT
  5
999F
102
{ACAD_REACTORS
330
40
102
}
330
40
100
AcDbProxyObject
 90
      499
 91
      518
 95
       25
 70
     0
 93
      852
310
4050D5452414E5353455454494E4753A2488A482AE929C8EA8A4829CA69882A8929E9C0C00800050D4F524947494E414C4C595F4F4E0600400008529A7AAA921A2A620A723A0A81A52827212AAA0A48AA68AA4AC8A0C0080001107B44574753455454494E4753454E447D0
  0
ACAD_PROXY_OBJECT
  5
9A37
330
9A35
100
AcDbProxyObject
 90
      499
 91
      590
 95
       25
 70
     0
 93
       13
310
5DD8
  0
ACAD_PROXY_OBJECT
  5
9A38
330
9A35
100
AcDbProxyObject
 90
      499
 91
      591
 95
       25
 70
     0
 93
       96
310
5DEA0E80A0280A0280A0280F
  0
ACAD_PROXY_OBJECT
  5
9A39
330
9A35
100
AcDbProxyObject
 90
      499
 91
      592
 95
       25
 70
     0
 93
      272
310
5DD0E4050140501405014050140501405014050140D01405012C0000000000000040
340
9A43
 94
        0
  0
ACAD_PROXY_OBJECT
  5
9A3A
330
9A35
100
AcDbProxyObject
 90
      499
 91
      593
 95
       25
 70
     0
 93
      497
310
5DE8666666666667A67E199999999999E99FD22405014050140501405014050140501405014050140501405014050140501405014050140501405014050100
340
9A44
 94
        0
  0
ACAD_PROXY_OBJECT
  5
9A3B
330
9A35
100
AcDbProxyObject
 90
      499
 91
      594
 95
       25
 70
     0
 93
       10
310
5DC0
  0
ACAD_PROXY_OBJECT
  5
9A3C
330
9A35
100
AcDbProxyObject
 90
      499
 91
      595
 95
       25
 70
     0
 93
      257
310
5DE290EA22A7D90F49F80000000000001081400000000000004204010000618000
340
9A45
340
9A46
 94
        0
  0
ACAD_PROXY_OBJECT
  5
9A3D
330
9A35
100
AcDbProxyObject
 90
      499
 91
      596
 95
       25
 70
     0
 93
    13013
310
5DD0E411255115350141236025B690140501406901000000000000091013347454E545241434F2C4A504E2C302C8D8096DA2C47454E54524154582C25732C2847454E4D53472067656E647767203232322940690120281A8AA2CA0282484A4BE52028120280A0320200000000000012202668E8A9CA8A482869E5894A09C58
310
605921292F94588E8A9CA8A482A8B0584AE658508E8A9C9AA68E40CECADCC8EECE406464665280D202405044E414D454050496BC914F4051C40640A80000000000004E404CD1D15395149050D3CB1294138B0C0B25AF2453CB11D15395149055160B095CCB0A11D1539354D1C819D95B991DD9C80C8C8D8A50192C3D494628
310
4953424C414E4B28504152543A4E414D45292C424C4F434B3A4E414D452C504152543A4E414D452940480A0A888AA686A480A09251B1DBE80A3A80C81D0000000000100A28099A3A2A72A2920A1A7962528271618164946C76F9623A2A72A2920AA2C1612B9961423A2A726A9A39033B2B7323BB39019189B94A0348090142
310
14D51053911054911014122D2E29A50147501904A000000000000125013347454E545241434F2C4A504E2C302C8B4B8A692C47454E54524154582C25732C2847454E4D53472067656E64776720323138294069012028426A0AA22A924A0A62028246EF4BDFA028EA0320B40000000000001CA02668E8A9CA8A482869E5894A
310
09C5860591BBD2F7E588E8A9CA8A482A8B0584AE658508E8A9C9AA68E40CECADCC8EECE406464625280D202405044E4F544540504928D8B4C4051D40641A80000000000003E404CD1D15395149050D3CB1294138B0C0B24A362D30B11D15395149055160B095CCB0A11D1539354D1C819D95B991DD9C80C8C8D4A501240480
310
A0CAC8A9C889EA480A1106F1072706BF02B680A3A80C83D00000000000007C809BA3A2A72A2920A1A79625282716181641BC41C9C1AFC0AD9623A2A72A2920AA2C1612B9961423A2A726A9A39033B2B7323BB39019191A14A0248090141911154D0D48C90141A43825AF880C90147501908A000000000020145013447454E5
310
45241434F2C4A504E2C302C90E096BE20322C47454E54524154582C25732C2847454E4D53472067656E6477672033362940490120284A9AA20A72220A922192028345A5C53490192028EA03213400000000000024A026A8E8A9CA8A482869E5894A09C586059169714D24064588E8A9CA8A482A8B0584AE658508E8A9C9AA6
310
8E40CECADCC8EECE4064646052809202405094D4154455249414C32405068DDE97BF20324051D40642A8713D0AD7A37045404D11D15395149050D3CB1294138B0C0B2377A5EFC80C8B11D15395149055160B095CCB0A11D1539354D1C819D95B991DD9C80D0C0A501240480A089A82A6A680A091D7F2F9480A3A80A0485A06
310
8100000000000007C809923A2A72A2920A1A796252827161816475FCBE51623A2A72A2920AA2C1612B9961423A2A726A9A39033B2B7323BB3901A1914A024809014154149250D150141226FE29A501475014090C409020000000000000F9013247454E545241434F2C4A504E2C302C89BF8A692C47454E54524154582C2573
310
2C2847454E4D53472067656E6477672034332940490120281A224A6A02824850CB202028EA028121A81A040000000000001F202648E8A9CA8A482869E5894A09C58605921432C80588E8A9CA8A482A8B0584AE658508E8A9C9AA68E40CECADCC8EECE406868528092024050E445020000000000000510201C00030C0001018
310
0000000000003E400000000000000F901073D3C4954454D3E4050180000000000003E400000000000000F901073D3C4954454D3E40501800000000000034400000000000000D101073D3C4954454D3E40501800000000000034400000000000000D101073D3C4954454D3E405029010000000000000F9000000000000003E4
310
041CF4F125511534F901418F4F1455164F9014060000000000000F9000000000000003E4041CF4F125511534F9014060000000000000D100000000000000344041CF4F125511534F901901000000000000000F9000000000000003E40A2200000000000008204038000618048220681A048120280C88214844882034852034
310
8452028521485214814000000000000F0BF0000000000003C2FD018020000C3008070000C3003373333333333B0FCCDCCCCCCCCCCEC3F000000000000031012034164050341105901A000000000000062040100006180401000061804008000618008098A02808
340
0
340
0
 94
        0
  0
ACAD_PROXY_OBJECT
  5
9A3E
330
9A35
100
AcDbProxyObject
 90
      499
 91
      597
 95
       25
 70
     0
 93
      898
310
5DC4000000000000144048CF4F11115510525317D3105091530F880A0F11115510525317D05094D4D0D053114F8A51141C9A9999999999B93F26A666666666724FC000000000000E03F400000000000000400000000000000510000000000000024408070000C300000000000000051000
340
16
340
9A36
 94
        0
  0
ACAD_PROXY_OBJECT
  5
9A3F
330
9A35
100
AcDbProxyObject
 90
      499
 91
      598
 95
       25
 70
     0
 93
      823
310
5DC0B00000000000002880959E9E29A2A1AA24A7A72FA620A122A62FA324A929AA1F169E29A2A1AA24A7A72FA620A122A62FA620A9AA1F000000000000048803FFFE01C00030C0088C0380006180000000000000048800000000000000A2000000000000002880
340
652
340
9A36
 94
        0
  0
ACAD_PROXY_OBJECT
  5
9A40
330
9A35
100
AcDbProxyObject
 90
      499
 91
      599
 95
       25
 70
     0
 93
      152
310
5DE80000000000000840A3D0A5723F0BD1F200
  0
ACAD_PROXY_OBJECT
  5
9A41
330
9A35
100
AcDbProxyObject
 90
      499
 91
      600
 95
       25
 70
     0
 93
       14
310
5DE0
340
0
 94
        0
  0
ACAD_PROXY_OBJECT
  5
9A42
330
9A35
100
AcDbProxyObject
 90
      499
 91
      601
 95
       25
 70
     0
 93
     8619
310
5DD084050BA4050AA405024050E836583938376838C815B836720314043A013D2525633C486F6C653A63746469613E2078203C486F6C653A637464657074683E20555C503C696628657175616C28486F6C653A7461707065642C223022292C22252563222C486F6C653A6E6F6D696E616C202220782022293E3C6966286571
310
75616C28486F6C653A7461707065642C223022292C486F6C653A6469612C486F6C653A706974636864657363293E3C696628657175616C28486F6C653A7461707065642C223122292C22207820222C2222293E3C696628657175616C28486F6C653A7461707065642C223122292C486F6C653A74617064657074682C222229
310
3E203C696628657175616C28486F6C653A7465726D696E6174696F6E2C223022292C22202F20222C2222293E3C696628657175616C28486F6C653A7465726D696E6174696F6E2C223022292C486F6C653A64657074682C2222293E406901405034050E836583938376838C815B836720314043B013D2525633C486F6C653A6
310
3746469613E2078203C486F6C653A6374616E676C653E2525645C503C696628657175616C28486F6C653A7461707065642C223022292C22252563222C486F6C653A6E6F6D696E616C202220782022293E3C696628657175616C28486F6C653A7461707065642C223022292C486F6C653A6469612C486F6C653A70697463686
310
4657363293E3C696628657175616C28486F6C653A7461707065642C223122292C22207820222C2222293E3C696628657175616C28486F6C653A7461707065642C223122292C486F6C653A74617064657074682C2222293E203C696628657175616C28486F6C653A7465726D696E6174696F6E2C223022292C22202F20222C2
310
222293E3C696628657175616C28486F6C653A7465726D696E6174696F6E2C223022292C486F6C653A64657074682C2222293E406901405014050E836583938376838C815B8367203140416013D3C696628657175616C28486F6C653A7461707065642C223022292C22252563222C486F6C653A6E6F6D696E616C2022207820
310
22293E3C696628657175616C28486F6C653A7461707065642C223022292C486F6C653A6469612C486F6C653A706974636864657363293E3C696628657175616C28486F6C653A7461707065642C223122292C22207820222C2222293E3C696628657175616C28486F6C653A7461707065642C223122292C486F6C653A746170
310
64657074682C2222293E203C696628657175616C28486F6C653A7465726D696E6174696F6E2C223022292C22202F20222C2222293E3C696628657175616C28486F6C653A7465726D696E6174696F6E2C223022292C486F6C653A64657074682C2222293E4069014051E4090E836583938376838C815B83672032405173D3C5
310
35444503A444553433E203C535444503A5354443E40690E836583938376838C815B836720314050C3D3C535444503A444553433E40690240515AAABBA120
360
9A4B
330
9A4B
360
9A4C
330
9A4C
360
9A4A
330
9A4A
360
9A49
360
9A48
330
9A49
330
9A48
 94
        0
  0
ACAD_PROXY_OBJECT
  5
9A4D
330
9A35
100
AcDbProxyObject
 90
      499
 91
      542
 95
       25
 70
     0
 93
    23182
310
5DD02491013041105357CC201C00030C0132441013141105357CC603800030C0132441013241105357CCA01400030C0132441013341105357CCE01800030C01199013441105357CD200C00030C01199013541105357CD600C00030C01199013641105357CDA00800030C01239013741105357CDE01000030C0119901384110
310
5357CE200400030C01199013941105357CE63F400030C0241102324141505357CC4C201C00030C0132902344141505357CC4C600C00030C0119902495041505357CC4CA01C00030C013240902304E41505357CC13A01C00030C0132902314E41505357CC53A03800030C0132902324E41505357CC93A01400030C013290233
310
4E41505357CCD3A01800030C0119902344E41505357CD13A00C00030C0119902354E41505357CD53A00C00030C0119902364E41505357CD93A00800030C0123902374E41505357CDD3A01000030C0119902384E41505357CE13A00400030C0119902394E41505357CE53A3F400030C024110332414E41905357CC4C13A01C0
310
0030C013290334414E41905357CC4C53A00C00030C011990349504E41905357CC4C93A01C00030C0132409044B4C494E41505357D0D3200400030C011942504494E464F42105357D410549151A01000030C011942D055241484D3541905357D093D4A01C00030C0132425045649455742105357D5925155D4E00400030C011
310
942D06424548494E4441905357D25395A3F400030C0243505545241494C41505357D514A00C00030C01194250348494441905357D21251201C00030C01194250356495341905357D59254E01C00030C01324250650415244494D42505357D41054911253600C00030C01194250652454644494D42505357D49151911253601
310
000030C0119425774110531514901348070000C3004C9034110915312501348000000C0003FFFFFFFD034110921395901398000000C0003FFFFFFFE415092139594D06424548494E448000000C0003FFFFFFFE411093125110234418000000C0003FFFFFFFD03411093D05410234418000000C0003FFFFFFFD03411093D48C
310
9055241484D358010000C300466411093D48CD055241484D358020000C30048E411093D48D5055241484D358000000C0003FFFFFFFE411093D48DD055241484D3581E0000C30051903411094105410234418000000C0003FFFFFFFD03411094115610234418000000C0003FFFFFFFD034110951112501358000000C0003FFF
310
FFFFD034110D0530C901348000000C0003FFFFFFFE4110D0530CD01348020000C30048E4110D0530D501348070000C3004CA4110D0530DD013481E0000C30051A4110D15393901378000000C0003FFFFFFFE4110D15395D01378000000C0003FFFFFFFE4110D312539044B4C494E8000000C0003FFFFFFFE4110D3D38C5013
310
08000000C0003FFFFFFFD034110D3D38C901318000000C0003FFFFFFFD034110D3D38CD01328000000C0003FFFFFFFD034110D3D38D101328000000C0003FFFFFFFD034111115494101348000000C0003FFFFFFFD034111115510501348000000C0003FFFFFFFE4111125051D01358000000C0003FFFFFFFE4111125312501
310
358000000C0003FFFFFFFE411112535410650415244494D8000000C0003FFFFFFFE411112535490652454644494D8000000C0003FFFFFFFE411156135410234418000000C0003FFFFFFFD034111915353901388000000C0003FFFFFFFE415191535413901388030000C3003FFFFFFFE4151915354D410234418000000C0003
310
FFFFFFFE4151915354D510234418030000C300466415191535593901328000000C0003FFFFFFFE415191535595101328030000C3004664111931055101308000000C0003FFFFFFFD03411194905490234418000000C0003FFFFFFFD034111D49312501358000000C0003FFFFFFFD034111D5931250234418000000C0003FFF
310
FFFFD034112105510D01388000000C0003FFFFFFFD014112125113901338000000C0003FFFFFFFD034112125115D01338000000C0003FFFFFFFD034112131253901348000000C0003FFFFFFFD01411213D0D3901378000000C0003FFFFFFFE411213D0D5D01378000000C0003FFFFFFFE4112539193D04494E464F8000000C
310
0003FFFFFFFE4113105112501348000000C0003FFFFFFFD034113115051101358000000C0003FFFFFFFE419397D0921395902394E8000000C0003FFFFFFFE419397D0D3D38C502304E8000000C0003FFFFFFFD03419397D0D3D38C902314E8000000C0003FFFFFFFD03419397D0D3D38CD02324E8000000C0003FFFFFFFD03
310
419397D0D3D38D102324E8000000C0003FFFFFFFD03419397D0D15393902374E8000000C0003FFFFFFFE419397D0D15395D02374E8000000C0003FFFFFFFE419397D1125312502354E8000000C0003FFFFFFFE419397D2105510D02384E8000000C0003FFFFFFFD01419397D2125113902334E8000000C0003FFFFFFFD0341
310
9397D2125115D02334E8000000C0003FFFFFFFD03419397D3115051102354E8000000C0003FFFFFFFE419397D391D25410349504E8000000C0003FFFFFFFE419397D412105390334414E8000000C0003FFFFFFFE419397D510D3D3902304E8000000C0003FFFFFFFD03419397D5121312502344E8000000C0003FFFFFFFD01
310
419397D5131153902304E8000000C0003FFFFFFFD03419397D516150CD02364E8000000C0003FFFFFFFD03419397D594131250332414E8000000C0003FFFFFFFE411391D25410249508000000C0003FFFFFFFE411410530C9055241484D358010000C300466411410530CD055241484D358020000C30048E411410530D5055
310
241484D358000000C0003FFFFFFFE411410530DD055241484D3581E0000C30051903411412105390234418000000C0003FFFFFFFE411413D4D3901368070000C3004CA419413D4D49151901368050000C3004C903411413D4D6101368000000C0003FFFFFFFD03411414D150D0234418000000C0003FFFFFFFD03411490D1D
310
3901378000000C0003FFFFFFFE411490D1D5D01378000000C0003FFFFFFFE4114919112501348000000C0003FFFFFFFD034114945514901348070000C3004C903411494D093D01348000000C0003FFFFFFFD034114D09492D01348000000C0003FFFFFFFD014114D0D153901378000000C0003FFFFFFFD034114D150D51013
310
48000000C0003FFFFFFFD014114D15313901378000000C0003FFFFFFFD034114D15315D01378000000C0003FFFFFFFD034114D4D654D01308000000C0003FFFFFFFD034114D51312501348070000C3004C9034114D6508C501358000000C0003FFFFFFFD034114D6508C901358000000C0003FFFFFFFD034114D6508CD0135
310
8020000C30048E4114D6508D501358070000C3004C9034114D65353901378000000C0003FFFFFFFD034114D65355D01378000000C0003FFFFFFFD03411510D3D3901308000000C0003FFFFFFFD034115121312501348000000C0003FFFFFFFD01411512550C9055241484D358010000C300466411512550CD055241484D358
310
020000C30048E411512550D5055241484D358000000C0003FFFFFFFE411512550DD055241484D3581E0000C300519034115131153901308000000C0003FFFFFFFD03415514905253105545241494C8000000C0003FFFFFFFE41151492D3901378000000C0003FFFFFFFD0341151492D5D01378000000C0003FFFFFFFD03411
310
5149312501348000000C0003FFFFFFFD01411516150C501368030000C300466411516150C901368030000C300466411516150CD01368000000C0003FFFFFFFE411516150D501368070000C3004CA411516150DD013681E0000C30051A4115925155D04564945578000000C0003FFFFFFFE41159151121034849448000000C0
310
003FFFFFFFD0241159151159035649538000000C0003FFFFFFFD02411594131250232418000000C0003FFFFFFFE4116925690501348000000C0003FFFFFFFD01411354D653501358020000C30048E4290E4C9074C906465054C904465034650248D014651E519FD8
340
99B4
340
16
340
16
340
16
340
43
340
16
340
16
340
16
340
44
340
16
340
16
340
44
340
45
340
16
340
16
340
16
340
16
340
43
340
16
340
16
340
16
340
44
340
16
340
16
340
44
340
45
340
16
340
46
340
16
340
16
340
16
340
16
340
16
340
43
340
16
340
16
340
16
340
47
340
15
340
15
340
15
340
15
340
15
340
15
340
15
340
15
340
15
340
15
340
15
340
15
340
15
340
15
340
15
340
15
340
48
340
15
340
15
340
15
340
15
340
15
340
15
340
15
340
15
340
15
340
15
340
15
340
15
340
15
340
15
340
15
340
16
340
15
340
15
340
15
340
15
340
15
340
15
340
15
340
15
340
47
340
15
340
15
340
48
340
15
340
15
340
15
340
15
340
15
340
15
340
15
340
15
340
15
340
48
340
15
340
15
340
15
340
47
340
15
340
15
340
15
340
15
340
15
340
15
340
15
340
15
340
15
340
15
340
15
340
15
340
15
340
15
340
15
340
15
340
15
340
15
340
15
340
48
340
15
340
15
340
48
340
15
340
15
340
16
340
15
340
48
340
15
340
15
340
47
340
15
340
15
340
16
340
15
340
48
340
15
340
15
340
15
340
15
340
15
340
15
340
15
340
15
340
15
340
48
340
15
340
15
340
15
340
15
340
15
340
15
340
15
340
15
340
15
340
15
340
15
340
4B
340
16
 94
        0
  0
ACAD_PROXY_OBJECT
  5
9A4E
330
9A35
100
AcDbProxyObject
 90
      499
 91
      543
 95
       25
 70
     0
 93
      250
310
5DD020000000000000A1000000000000002440408F0F9023C3E409A0DCFFFF80
340
0
340
0
340
0
340
0
340
0
340
0
340
0
340
0
340
0
340
0
 94
        0
  0
ACAD_PROXY_OBJECT
  5
9A4F
330
9A35
100
AcDbProxyObject
 90
      499
 91
      603
 95
       25
 70
     0
 93
    13889
310
5DD1D003FFFFFFFD030300030000000000000310200800030C01030300030000000000000310200800030C00050C8DC0955782CC838A83588367014ED1D15395149050D3CB1294138B0C0B23702555E0B320E2A0D620D9CB11D15395149055160B095CCB0A11D1539354D1C819D95B991A5B5E880CCC0A78000C0000000000
310
00000000000000000000010000000000000310200800030C010000000000000310200800030C020143CF4F111959985D5B1D151A5D1B194F8050A8C8A8365815B8375838B014E51D15395149050D3CB1294138B0C0B2322A0D96056E0DD60E2CB11D15395149055160B095CCB0A11D1539354D1C819D95B991A5B5E880CCC4
310
A78000C000000000000000000000000000000010000000000000310200800030C010000000000000310200800030C020143CF4F111959985D5B1D151A5D1B194F90D44111409034110541D0C4350F4050E44D03449074510F000141232D24D7C053247454E545241434F2C4A504E2C302C8CB4935F2C47454E54524154582C
310
25732C2847454E4D53472067656E64696D7A20312900010104002214000281464500A608E8A9CA8A482869E5894A09C5860591914588E8A9CA8A482A8B0584AE658508E8A9C9AA68E40CECADCC8D2DAF4406452029E9E9E27B934B3B4B71F1E24A31427A91424A9A12620A7259427B934B3B4B7149624A9A12620A7259424B
310
A32B6949496111116111711149F1E24BA32B69F00808200111A000140560052F47454E545241434F2C4A504E2C302C582C47454E54524154582C25732C2847454E4D53472067656E64696D7A20332900010100002054000280AC80A5E8E8A9CA8A482869E5894A09C586058B2588E8A9CA8A482A8B0584AE658508E8A9C9AA
310
68E40CECADCC8D2DAF4406852000202000040E800050152014BD1D15395149050D3CB1294138B0C0B148B11D15395149055160B095CCB0A11D1539354D1C819D95B991A5B5E880D8A400040400008250000A0507A6029823A2A72A2920A1A79625282716181641E99623A2A72A2920AA2C1612B9961423A2A726A9A39033B2
310
B73234B6BD101B948000808180105A000140A0F4C053047454E545241434F2C4A504E2C302C83D32C47454E54524154582C25732C2847454E4D53472067656E64696D7A203829000101010020F400028248704B5F00A668E8A9CA8A482869E5894A09C58605921C12D7C588E8A9CA8A482A8B0584AE658508E8A9C9AA68E40
310
CECADCC8D2DAF440646052000200080043280005048B4B8A69014CD1D15395149050D3CB1294138B0C0B22D2E29A4B11D15395149055160B095CCB0A11D1539354D1C819D95B991A5B5E880C8C4A4000400100086D0000A09196926BE029923A2A72A2920A1A796252827161816465A49AF9623A2A72A2920AA2C1612B9961
310
423A2A726A9A39033B2B73234B6BD10189480A02620202080043E80005048D8096DA014CD1D15395149050D3CB1294138B0C0B236025B68B11D15395149055160B095CCB0A11D1539354D1C819D95B991A5B5E880C4D0A4000404140280D0000A190687072706CD06C5069D06B0029DA3A2A72A2920A1A7962528271618164
310
1A1C1C9C1B341B141A741AC1623A2A72A2920AA2C1612B9961423A2A726A9A39033B2B73234B6BD10189A94800080828050EA000143A322A0D0E0E4E0D9A0D8A0D3A0D60053D47454E545241434F2C4A504E2C302C8C8A8343839383668362834E83582C47454E54524154582C25732C2847454E4D53472067656E64696D7A
310
2031372900010105002274000281464500A628E8A9CA8A482869E5894A09C5860591914588E8A9CA8A482A8B0584AE658508E8A9C9AA68E40CECADCC8D2DAF440626C52000202080044A8000504909497CA014CD1D15395149050D3CB1294138B0C0B242525F28B11D15395149055160B095CCB0A11D1539354D1C819D95B9
310
91A5B5E880C4E4A400040418008A521E000000000000001CA040C00000000000034408080000000000006881010000000000000D102040000000000001A204080000000000003440818000000000000728103000000000000125020600000000004028A040000000000000034408000000000000004881000000000000000D
310
102000000000000001A204000000000000003440818000000000000508143C0000000000000039408180000000000006881030000000000000D102060000000000001A2040C00000000000034408180000000000006881030000000000000E5020600000000000024A040C0000000000805140800000000000000688100000
310
00000000009102000000000000001A2040000000000000034408180000000000006881030000000000000A10284220000000878000002020000008380000020400000081800000208000000828000002028900000000
340
0
340
0
340
0
340
0
340
9A36
340
9A36
 94
        0
  0
ACAD_PROXY_OBJECT
  5
9A50
330
9A35
100
AcDbProxyObject
 90
      499
 91
      537
 95
       25
 70
     0
 93
     7018
310
5DD9740D254D3D0649534F5F4133429254D3D7D5125513115051349534F5F42525F5265766973696F6E6C69737446111413478342028323937783834316D6D2920421254D3D7D04D1E0D11141327835202835393478323130326D6D29421254D3D7D04C9E0D51141347839202832393778313839326D6D29421254D3D7D04D
310
1E0E51141337837202834323078323038306D6D29421254D3D7D04CDE0DD1141347838202832393778313638326D6D29421254D3D7D04D1E0E11141327834202835393478313638326D6D29421254D3D7D04C9E0D10E41312028353934783834316D6D29419254D3D7D04C51141347837202832393778313437316D6D29421
310
254D3D7D04D1E0DD1141347836202832393778313236316D6D29421254D3D7D04D1E0D91141347835202832393778313035316D6D29421254D3D7D04D1E0D5104130202838343078313138396D6D2920419254D3D7D04C10E41332028323937783432306D6D29419254D3D7D04CD1141327833202835393478313236316D6D
310
29421254D3D7D04C9E0CD10413478332028323937783633306D6D29421254D3D7D04D1E0CD1141337834202834323078313138396D6D29421254D3D7D04CDE0D11141337836202834323078313738336D6D29421254D3D7D04CDE0D91141337835202834323078313438366D6D29421254D3D7D04CDE0D50E4132202834323
310
0783539346D6D29419254D3D7D04C910413378332028343230783839316D6D29421254D3D7D04CDE0CD0E41342028323937783231306D6D29419254D3D7D04D1124130783220283131383978313638326D6D29421254D3D7D04C1E0C9124130783320283131383978323532336D6D29421254D3D7D04C1E0CD114131783420
310
2838343178323337386D6D29421254D3D7D04C5E0D11141317833202838343178313738336D6D29421254D3D7D04C5E0CD02431254D3C82557247A25E4C81050A49534F5F5449544C4541431254D3C82557247A25E4C81090A49534F5F5449544C45424110E979A97F0838A835883675F42525F44D254D3D7D09497D4995D9
310
A5CDA5BDB9B1A5CDD10E979A97F0838A835883675F54525F44D254D3D7D51497D4995D9A5CDA5BDB9B1A5CDD10E979A97F0838A835883675F424C5F44D254D3D7D09317D4995D9A5CDA5BDB9B1A5CDD10E979A97F0838A835883675F544C5F44D254D3D7D51317D4995D9A5CDA5BDB9B1A5CDD00
  0
ACAD_PROXY_OBJECT
  5
9CBC
330
9CBB
100
AcDbProxyObject
 90
      499
 91
      527
 95
       25
 70
     0
 93
       86
310
5DEA0C80A0280A0280A034
  0
ACAD_PROXY_OBJECT
  5
9CBD
330
9CBB
100
AcDbProxyObject
 90
      499
 91
      528
 95
       25
 70
     0
 93
      282
310
5DD0E4050140501405014050140501405014050141101405014041000000000000001000
340
187
 94
        0
  0
ACAD_PROXY_OBJECT
  5
9CBE
330
9CBB
100
AcDbProxyObject
 90
      499
 91
      529
 95
       25
 70
     0
 93
      323
310
5DCC199999999999E99F91740501405014050140501405014050140501405014050140501405014040
340
0
 94
        0
  0
ACAD_PROXY_OBJECT
  5
9CBF
330
9CBB
100
AcDbProxyObject
 90
      499
 91
      530
 95
       25
 70
     0
 93
       10
310
5DC0
  0
ACAD_PROXY_OBJECT
  5
9CC0
330
9CBB
100
AcDbProxyObject
 90
      499
 91
      531
 95
       25
 70
     0
 93
      257
310
5DE0C16A22A7D90F49F80000000000001081400000000000004204010000618000
340
188
340
189
 94
        0
  0
ACAD_PROXY_OBJECT
  5
9CC1
330
9CBB
100
AcDbProxyObject
 90
      499
 91
      532
 95
       25
 70
     0
 93
     5277
310
5DD06411255115350141236025B6901405014069010000000000000910240690120281A8AA2CA0282484A4BE52028120280A032020000000000001220480D202405044E414D454050496BC914F4051C40640A80000000000004E4090193C3D3C4946284953424C414E4B28504152543A4E414D45292C424C4F434B3A4E414D
310
452C504152543A4E414D45293E3C41435F44455343524950544E3E40480A109A82A88AA492829880A091BBD2F7E80A3A80C81D0E27A15AF46E08A81203480901411393D5115014124A363B7D0147501904A0000000000000F902406428F4F1050D7D393D5114F901202832B22A72227A92028366EF6EE06F582028EA0320B4
310
0000000000001F20480C879E9E20A1AFAB27222FA620A122A61F20240506445020000000000000490201C00030C00010180000000000003E400000000000000F901073D3C4954454D3E4050180000000000003E400000000000000F901073D3C4954454D3E40501800000000000034400000000000000D101073D3C4954454
310
D3E40501800000000000034400000000000000D101073D3C4954454D3E405029010000000000000F9000000000000003E4041CF4F125511534F901418F4F1455164F9014060000000000000F9000000000000003E4041CF4F125511534F901800000000000034400000000000000D101073D3C4954454D3E40640400000000
310
0000003E400000000000000F90288800000000000020810000001800120881A068120480A032208521122080D21480D211480A1485214852050000000000003C2FC000000000000F0BF40600800030C0200400030C00CDCCCCCCCCCCEC3F3373333333333B0FC3333333333330940C80D069014090341504901A1999999999
310
9984A040100006180400800061804010000618008098A02808
340
0
340
0
 94
        0
  0
ACAD_PROXY_OBJECT
  5
9CC2
330
9CBB
100
AcDbProxyObject
 90
      499
 91
      537
 95
       25
 70
     0
 93
     3042
310
5DD9740D29254D064A49535F413342929254D7D512551311505134A49535F42525F5265766973696F6E6C6973744190F4134522028323937783231306D6D2941D29254D7D04D1490E41312028353934783834316D6D2941929254D7D04C50F41344C2028323130783239376D6D2941D29254D7D04D1310E413320283239377
310
83432306D6D2941929254D7D04CD0E41322028343230783539346D6D2941929254D7D04C90F4130202838343178313138396D6D2941929254D7D04C10243129254C82557247A25E4C81050A4A49535F5449544C454143129254C82557247A25E4C81090A4A49535F5449544C45424110E979A97F0838A835883675F42525F4
310
4D29254D7D09497D4995D9A5CDA5BDB9B1A5CDD10E979A97F0838A835883675F54525F44D29254D7D51497D4995D9A5CDA5BDB9B1A5CDD10E979A97F0838A835883675F424C5F44D29254D7D09317D4995D9A5CDA5BDB9B1A5CDD10E979A97F0838A835883675F544C5F44D29254D7D51317D4995D9A5CDA5BDB9B1A5CDD00
  0
ACAD_PROXY_OBJECT
  5
9CC3
330
9CBB
100
AcDbProxyObject
 90
      499
 91
      538
 95
       25
 70
     0
 93
      898
310
5DC4000000000000124048CF4F11115510525317D3105091530F880A0F11115510525317D05094D4D0D053114F8A50241C9A9999999999B93F26A666666666724FC000000000000E03F400000000000000400000000000000510000000000000024408070000C300000000000000049000
340
16
340
180
 94
        0
  0
ACAD_PROXY_OBJECT
  5
9CC4
330
9CBB
100
AcDbProxyObject
 90
      499
 91
      539
 95
       25
 70
     0
 93
      823
310
5DC0B00000000000002480959E9E29A2A1AA24A7A72FA620A122A62FA324A929AA1F169E29A2A1AA24A7A72FA620A122A62FA620A9AA1F000000000000048803FFFE01C00030C008140380006180000000000000048800000000000000A2000000000000002480
340
652
340
180
 94
        0
  0
ACAD_PROXY_OBJECT
  5
9CC5
330
9CBB
100
AcDbProxyObject
 90
      499
 91
      540
 95
       25
 70
     0
 93
      152
310
5DE8273108AC1C5A0640A3D0A5723F0BD1F200
  0
ACAD_PROXY_OBJECT
  5
9CC6
330
9CBB
100
AcDbProxyObject
 90
      499
 91
      604
 95
       25
 70
     0
 93
       14
310
5DE0
340
0
 94
        0
  0
ACAD_PROXY_OBJECT
  5
9CC7
330
9CBB
100
AcDbProxyObject
 90
      499
 91
      541
 95
       25
 70
     0
 93
     6059
310
5DD084050BA4050AA405024050E836583938376838C815B83672031405983D3C486F6C653A6469613E3C696628657175616C28486F6C653A7465726D696E6174696F6E2C223022292C2220905B82B320222C22208368838A838B22293E3C696628657175616C28486F6C653A7465726D696E6174696F6E2C223022292C486F
310
6C653A64657074682C2222293E2C203C486F6C653A63746469613E2082B482AE82E882CC905B82B3203C486F6C653A637464657074683E406901405034050E836583938376838C815B83672031405EF3D3C486F6C653A6374616E676C653E252564202525633C486F6C653A63746469613E208E4D8C8A2C203C69662865717
310
5616C28486F6C653A7461707065642C223022292C22252563222C486F6C653A6E6F6D696E616C202220782022293E3C696628657175616C28486F6C653A7461707065642C223022292C486F6C653A6469612C486F6C653A706974636864657363293E203C696628657175616C28486F6C653A7465726D696E6174696F6E2C2
310
23022292C22905B82B320222C222022293E3C696628657175616C28486F6C653A7465726D696E6174696F6E2C223022292C486F6C653A64657074682C2222293E406901405014050E836583938376838C815B83672031405C73D3C696628657175616C28486F6C653A7461707065642C223022292C22252563222C486F6C65
310
3A6E6F6D696E616C202220782022293E3C696628657175616C28486F6C653A7461707065642C223022292C486F6C653A6469612C486F6C653A706974636864657363293E203C696628657175616C28486F6C653A7465726D696E6174696F6E2C223022292C22905B82B320222C222022293E3C696628657175616C28486F6C
310
653A7465726D696E6174696F6E2C223022292C486F6C653A64657074682C2222293E4069014051E4090E836583938376838C815B83672032405173D3C535444503A444553433E203C535444503A5354443E40690E836583938376838C815B836720314050C3D3C535444503A444553433E40690240515AAABBA120
360
9CC8
330
9CC8
360
9CC9
330
9CC9
360
9CCA
330
9CCA
360
9CCB
360
9CCC
330
9CCB
330
9CCC
 94
        0
  0
ACAD_PROXY_OBJECT
  5
9CCD
330
9CBB
100
AcDbProxyObject
 90
      499
 91
      542
 95
       25
 70
     0
 93
       26
310
5DD02A80
340
0
 94
        0
  0
ACAD_PROXY_OBJECT
  5
9CCE
330
9CBB
100
AcDbProxyObject
 90
      499
 91
      543
 95
       25
 70
     0
 93
      250
310
5DD020000000000000A1000000000000002440408F0F9023C3E409A0DCFFFF80
340
58
340
1899
340
189A
340
5F
340
60
340
61
340
62
340
63
340
68
340
0
 94
        0
  0
ACAD_PROXY_OBJECT
  5
9CCF
330
9CBB
100
AcDbProxyObject
 90
      499
 91
      605
 95
       25
 70
     0
 93
    13889
310
5DD1D003FFFFFFFD030300030CCCCCCCCCCCC250200800030C01030300030CCCCCCCCCCCC250200800030C00050C8DC0955782CC838A83588367014ED1D15395149050D3CB1294138B0C0B23702555E0B320E2A0D620D9CB11D15395149055160B095CCB0A11D1539354D1C819D95B991A5B5E880CCC0A78000C0000000000
310
00000000000000000000010CCCCCCCCCCCC250200800030C010CCCCCCCCCCCC250200800030C020143CF4F111959985D5B1D151A5D1B194F8050A8C8A8365815B8375838B014E51D15395149050D3CB1294138B0C0B2322A0D96056E0DD60E2CB11D15395149055160B095CCB0A11D1539354D1C819D95B991A5B5E880CCC4
310
A78000C000000000000000000000000000000010CCCCCCCCCCCC250200800030C010CCCCCCCCCCCC250200800030C020143CF4F111959985D5B1D151A5D1B194F90D44111409034110541D0C4350F4050E44D03449074510F000141232D24D7C053247454E545241434F2C4A504E2C302C8CB4935F2C47454E54524154582C
310
25732C2847454E4D53472067656E64696D7A20312900010104002214000281464500A608E8A9CA8A482869E5894A09C5860591914588E8A9CA8A482A8B0584AE658508E8A9C9AA68E40CECADCC8D2DAF4406452029E9E9E27B934B3B4B71F1E24A31427A91424A9A12620A7259427B934B3B4B7149624A9A12620A7259424B
310
A32B6949496111116111711149F1E24BA32B69F00808200111A000140560052F47454E545241434F2C4A504E2C302C582C47454E54524154582C25732C2847454E4D53472067656E64696D7A20332900010100002054000280AC80A5E8E8A9CA8A482869E5894A09C586058B2588E8A9CA8A482A8B0584AE658508E8A9C9AA
310
68E40CECADCC8D2DAF4406852000202000040E800050152014BD1D15395149050D3CB1294138B0C0B148B11D15395149055160B095CCB0A11D1539354D1C819D95B991A5B5E880D8A400040400008250000A0507A6029823A2A72A2920A1A79625282716181641E99623A2A72A2920AA2C1612B9961423A2A726A9A39033B2
310
B73234B6BD101B948000808180105A000140A0F4C053047454E545241434F2C4A504E2C302C83D32C47454E54524154582C25732C2847454E4D53472067656E64696D7A203829000101010020F400028248704B5F00A668E8A9CA8A482869E5894A09C58605921C12D7C588E8A9CA8A482A8B0584AE658508E8A9C9AA68E40
310
CECADCC8D2DAF440646052000200080043280005048B4B8A69014CD1D15395149050D3CB1294138B0C0B22D2E29A4B11D15395149055160B095CCB0A11D1539354D1C819D95B991A5B5E880C8C4A4000400100086D0000A09196926BE029923A2A72A2920A1A796252827161816465A49AF9623A2A72A2920AA2C1612B9961
310
423A2A726A9A39033B2B73234B6BD10189480A02620202080043E80005048D8096DA014CD1D15395149050D3CB1294138B0C0B236025B68B11D15395149055160B095CCB0A11D1539354D1C819D95B991A5B5E880C4D0A4000404140280D0000A190687072706CD06C5069D06B0029DA3A2A72A2920A1A7962528271618164
310
1A1C1C9C1B341B141A741AC1623A2A72A2920AA2C1612B9961423A2A726A9A39033B2B73234B6BD10189A94800080820050EA000143A322A0D0E0E4E0D9A0D8A0D3A0D60053D47454E545241434F2C4A504E2C302C8C8A8343839383668362834E83582C47454E54524154582C25732C2847454E4D53472067656E64696D7A
310
2031372900010105002274000281464500A628E8A9CA8A482869E5894A09C5860591914588E8A9CA8A482A8B0584AE658508E8A9C9AA68E40CECADCC8D2DAF440626C52000202080044A8000504909497CA014CD1D15395149050D3CB1294138B0C0B242525F28B11D15395149055160B095CCB0A11D1539354D1C819D95B9
310
91A5B5E880C4E4A400040418008A521E000000000000001CA040C00000000000034408080000000000006881010000000000000D102040000000000001A204080000000000003440818000000000000728103000000000000125020600000000004028A040000000000000034408000000000000004881000000000000000D
310
102000000000000001A204000000000000003440818000000000000508143C0000000000000039408180000000000006881030000000000000D102060000000000001A2040C00000000000034408180000000000006881030000000000000E5020600000000000024A040C0000000000805140800000000000000688100000
310
00000000009102000000000000001A2040000000000000034408180000000000006881030000000000000A10284220000000878000002020000008380000020400000081800000208000000828000002028900000000
340
0
340
0
340
0
340
0
340
180
340
180
 94
        0
  0
ACAD_PROXY_OBJECT
  5
9A4B
330
9A42
100
AcDbProxyObject
 90
      499
 91
      602
 95
       25
 70
     0
 93
     2680
310
5DE0143A0D960E4E0DDA0E32056E0D9C80C4043A013D2525633C486F6C653A63746469613E2078203C486F6C653A637464657074683E20555C503C696628657175616C28486F6C653A7461707065642C223022292C22252563222C486F6C653A6E6F6D696E616C202220782022293E3C696628657175616C28486F6C653A74
310
61707065642C223022292C486F6C653A6469612C486F6C653A706974636864657363293E3C696628657175616C28486F6C653A7461707065642C223122292C22207820222C2222293E3C696628657175616C28486F6C653A7461707065642C223122292C486F6C653A74617064657074682C2222293E203C69662865717561
310
6C28486F6C653A7465726D696E6174696F6E2C223022292C22202F20222C2222293E3C696628657175616C28486F6C653A7465726D696E6174696F6E2C223022292C486F6C653A64657074682C2222293E
  0
ACAD_PROXY_OBJECT
  5
9A4C
330
9A42
100
AcDbProxyObject
 90
      499
 91
      602
 95
       25
 70
     0
 93
     2688
310
5DE0143A0D960E4E0DDA0E32056E0D9C80C4043B013D2525633C486F6C653A63746469613E2078203C486F6C653A6374616E676C653E2525645C503C696628657175616C28486F6C653A7461707065642C223022292C22252563222C486F6C653A6E6F6D696E616C202220782022293E3C696628657175616C28486F6C653A
310
7461707065642C223022292C486F6C653A6469612C486F6C653A706974636864657363293E3C696628657175616C28486F6C653A7461707065642C223122292C22207820222C2222293E3C696628657175616C28486F6C653A7461707065642C223122292C486F6C653A74617064657074682C2222293E203C696628657175
310
616C28486F6C653A7465726D696E6174696F6E2C223022292C22202F20222C2222293E3C696628657175616C28486F6C653A7465726D696E6174696F6E2C223022292C486F6C653A64657074682C2222293E
  0
ACAD_PROXY_OBJECT
  5
9A4A
330
9A42
100
AcDbProxyObject
 90
      499
 91
      602
 95
       25
 70
     0
 93
     2392
310
5DE0143A0D960E4E0DDA0E32056E0D9C80C40416013D3C696628657175616C28486F6C653A7461707065642C223022292C22252563222C486F6C653A6E6F6D696E616C202220782022293E3C696628657175616C28486F6C653A7461707065642C223022292C486F6C653A6469612C486F6C653A706974636864657363293E
310
3C696628657175616C28486F6C653A7461707065642C223122292C22207820222C2222293E3C696628657175616C28486F6C653A7461707065642C223122292C486F6C653A74617064657074682C2222293E203C696628657175616C28486F6C653A7465726D696E6174696F6E2C223022292C22202F20222C2222293E3C69
310
6628657175616C28486F6C653A7465726D696E6174696F6E2C223022292C486F6C653A64657074682C2222293E
  0
ACAD_PROXY_OBJECT
  5
9A49
330
9A42
100
AcDbProxyObject
 90
      499
 91
      602
 95
       25
 70
     0
 93
      344
310
5DE0143A0D960E4E0DDA0E32056E0D9C80C805173D3C535444503A444553433E203C535444503A5354443E
  0
ACAD_PROXY_OBJECT
  5
9A48
330
9A42
100
AcDbProxyObject
 90
      499
 91
      602
 95
       25
 70
     0
 93
      256
310
5DE0143A0D960E4E0DDA0E32056E0D9C80C4050C3D3C535444503A444553433E
  0
ACAD_PROXY_OBJECT
  5
9CC8
330
9CC7
100
AcDbProxyObject
 90
      499
 91
      602
 95
       25
 70
     0
 93
     1376
310
5DE0143A0D960E4E0DDA0E32056E0D9C80C405983D3C486F6C653A6469613E3C696628657175616C28486F6C653A7465726D696E6174696F6E2C223022292C2220905B82B320222C22208368838A838B22293E3C696628657175616C28486F6C653A7465726D696E6174696F6E2C223022292C486F6C653A64657074682C22
310
22293E2C203C486F6C653A63746469613E2082B482AE82E882CC905B82B3203C486F6C653A637464657074683E
  0
ACAD_PROXY_OBJECT
  5
9CC9
330
9CC7
100
AcDbProxyObject
 90
      499
 91
      602
 95
       25
 70
     0
 93
     2072
310
5DE0143A0D960E4E0DDA0E32056E0D9C80C405EF3D3C486F6C653A6374616E676C653E252564202525633C486F6C653A63746469613E208E4D8C8A2C203C696628657175616C28486F6C653A7461707065642C223022292C22252563222C486F6C653A6E6F6D696E616C202220782022293E3C696628657175616C28486F6C
310
653A7461707065642C223022292C486F6C653A6469612C486F6C653A706974636864657363293E203C696628657175616C28486F6C653A7465726D696E6174696F6E2C223022292C22905B82B320222C222022293E3C696628657175616C28486F6C653A7465726D696E6174696F6E2C223022292C486F6C653A6465707468
310
2C2222293E
  0
ACAD_PROXY_OBJECT
  5
9CCA
330
9CC7
100
AcDbProxyObject
 90
      499
 91
      602
 95
       25
 70
     0
 93
     1752
310
5DE0143A0D960E4E0DDA0E32056E0D9C80C405C73D3C696628657175616C28486F6C653A7461707065642C223022292C22252563222C486F6C653A6E6F6D696E616C202220782022293E3C696628657175616C28486F6C653A7461707065642C223022292C486F6C653A6469612C486F6C653A706974636864657363293E20
310
3C696628657175616C28486F6C653A7465726D696E6174696F6E2C223022292C22905B82B320222C222022293E3C696628657175616C28486F6C653A7465726D696E6174696F6E2C223022292C486F6C653A64657074682C2222293E
  0
ACAD_PROXY_OBJECT
  5
9CCB
330
9CC7
100
AcDbProxyObject
 90
      499
 91
      602
 95
       25
 70
     0
 93
      344
310
5DE0143A0D960E4E0DDA0E32056E0D9C80C805173D3C535444503A444553433E203C535444503A5354443E
  0
ACAD_PROXY_OBJECT
  5
9CCC
330
9CC7
100
AcDbProxyObject
 90
      499
 91
      602
 95
       25
 70
     0
 93
      256
310
5DE0143A0D960E4E0DDA0E32056E0D9C80C4050C3D3C535444503A444553433E
  0
ENDSEC
  0
EOF
