  0
SECTION
  2
HEADER
  9
$ACADVER
  1
AC1015
  9
$ACADMAINTVER
 70
     6
  9
$DWGCODEPAGE
  3
ANSI_932
  9
$INSBASE
 10
0.0
 20
0.0
 30
0.0
  9
$EXTMIN
 10
-115.5811167315487
 20
-151.9797658129021
 30
0.0
  9
$EXTMAX
 10
122.195674711576
 20
84.83595014969581
 30
0.0000000000001137
  9
$LIMMIN
 10
0.0
 20
0.0
  9
$LIMMAX
 10
420.0
 20
297.0
  9
$ORTHOMODE
 70
     0
  9
$REGENMODE
 70
     1
  9
$FILLMODE
 70
     1
  9
$QTEXTMODE
 70
     0
  9
$MIRRTEXT
 70
     1
  9
$LTSCALE
 40
1.0
  9
$ATTMODE
 70
     1
  9
$TEXTSIZE
 40
3.0
  9
$TRACEWID
 40
1.0
  9
$TEXTSTYLE
  7
STANDARD
  9
$CLAYER
  8
AM_0
  9
$CELTYPE
  6
ByLayer
  9
$CECOLOR
 62
   256
  9
$CELTSCALE
 40
1.0
  9
$DISPSILH
 70
     0
  9
$DIMSCALE
 40
1.0
  9
$DIMASZ
 40
2.5
  9
$DIMEXO
 40
0.0
  9
$DIMDLI
 40
10.0
  9
$DIMRND
 40
0.0
  9
$DIMDLE
 40
0.0
  9
$DIMEXE
 40
1.0
  9
$DIMTP
 40
0.1
  9
$DIMTM
 40
0.1000000001
  9
$DIMTXT
 40
3.8
  9
$DIMCEN
 40
0.0
  9
$DIMTSZ
 40
0.0
  9
$DIMTOL
 70
     0
  9
$DIMLIM
 70
     0
  9
$DIMTIH
 70
     0
  9
$DIMTOH
 70
     0
  9
$DIMSE1
 70
     0
  9
$DIMSE2
 70
     0
  9
$DIMTAD
 70
     3
  9
$DIMZIN
 70
     1
  9
$DIMBLK
  1
Open30
  9
$DIMASO
 70
     1
  9
$DIMSHO
 70
     1
  9
$DIMPOST
  1

  9
$DIMAPOST
  1
"
  9
$DIMALT
 70
     0
  9
$DIMALTD
 70
     2
  9
$DIMALTF
 40
0.0393701
  9
$DIMLFAC
 40
1.0
  9
$DIMTOFL
 70
     1
  9
$DIMTVP
 40
0.0
  9
$DIMTIX
 70
     0
  9
$DIMSOXD
 70
     0
  9
$DIMSAH
 70
     0
  9
$DIMBLK1
  1

  9
$DIMBLK2
  1

  9
$DIMSTYLE
  2
AM_JIS
  9
$DIMCLRD
 70
   256
  9
$DIMCLRE
 70
   256
  9
$DIMCLRT
 70
     2
  9
$DIMTFAC
 40
0.71
  9
$DIMGAP
 40
1.5
  9
$DIMJUST
 70
     0
  9
$DIMSD1
 70
     0
  9
$DIMSD2
 70
     0
  9
$DIMTOLJ
 70
     0
  9
$DIMTZIN
 70
     8
  9
$DIMALTZ
 70
     0
  9
$DIMALTTZ
 70
     0
  9
$DIMUPT
 70
     0
  9
$DIMDEC
 70
     0
  9
$DIMTDEC
 70
     2
  9
$DIMALTU
 70
     2
  9
$DIMALTTD
 70
     2
  9
$DIMTXSTY
  7
STANDARD
  9
$DIMAUNIT
 70
     1
  9
$DIMADEC
 70
     1
  9
$DIMALTRND
 40
0.0
  9
$DIMAZIN
 70
     2
  9
$DIMDSEP
 70
    46
  9
$DIMATFIT
 70
     3
  9
$DIMFRAC
 70
     0
  9
$DIMLDRBLK
  1
Open30
  9
$DIMLUNIT
 70
     2
  9
$DIMLWD
 70
    -1
  9
$DIMLWE
 70
    -1
  9
$DIMTMOVE
 70
     0
  9
$LUNITS
 70
     2
  9
$LUPREC
 70
     2
  9
$SKETCHINC
 40
1.0
  9
$FILLETRAD
 40
0.794
  9
$AUNITS
 70
     1
  9
$AUPREC
 70
     5
  9
$MENU
  1
.
  9
$ELEVATION
 40
0.0
  9
$PELEVATION
 40
0.0
  9
$THICKNESS
 40
0.0
  9
$LIMCHECK
 70
     0
  9
$CHAMFERA
 40
1.0
  9
$CHAMFERB
 40
1.0
  9
$CHAMFERC
 40
20.0
  9
$CHAMFERD
 40
0.0
  9
$SKPOLY
 70
     0
  9
$TDCREATE
 40
2451943.610431667
  9
$TDUCREATE
 40
2451943.235431667
  9
$TDUPDATE
 40
2455457.47126772
  9
$TDUUPDATE
 40
2455457.09626772
  9
$TDINDWG
 40
2.1753659259
  9
$TDUSRTIMER
 40
2.1753657523
  9
$USRTIMER
 70
     1
  9
$ANGBASE
 50
0.0
  9
$ANGDIR
 70
     0
  9
$PDMODE
 70
     0
  9
$PDSIZE
 40
0.0
  9
$PLINEWID
 40
0.0
  9
$SPLFRAME
 70
     0
  9
$SPLINETYPE
 70
     6
  9
$SPLINESEGS
 70
     8
  9
$HANDSEED
  5
36045
  9
$SURFTAB1
 70
     6
  9
$SURFTAB2
 70
     6
  9
$SURFTYPE
 70
     6
  9
$SURFU
 70
     6
  9
$SURFV
 70
     6
  9
$UCSBASE
  2

  9
$UCSNAME
  2

  9
$UCSORG
 10
0.0
 20
0.0
 30
0.0
  9
$UCSXDIR
 10
1.0
 20
0.0
 30
0.0
  9
$UCSYDIR
 10
0.0
 20
1.0
 30
0.0
  9
$UCSORTHOREF
  2

  9
$UCSORTHOVIEW
 70
     0
  9
$UCSORGTOP
 10
0.0
 20
0.0
 30
0.0
  9
$UCSORGBOTTOM
 10
0.0
 20
0.0
 30
0.0
  9
$UCSORGLEFT
 10
0.0
 20
0.0
 30
0.0
  9
$UCSORGRIGHT
 10
0.0
 20
0.0
 30
0.0
  9
$UCSORGFRONT
 10
0.0
 20
0.0
 30
0.0
  9
$UCSORGBACK
 10
0.0
 20
0.0
 30
0.0
  9
$PUCSBASE
  2

  9
$PUCSNAME
  2

  9
$PUCSORG
 10
0.0
 20
0.0
 30
0.0
  9
$PUCSXDIR
 10
1.0
 20
0.0
 30
0.0
  9
$PUCSYDIR
 10
0.0
 20
1.0
 30
0.0
  9
$PUCSORTHOREF
  2

  9
$PUCSORTHOVIEW
 70
     0
  9
$PUCSORGTOP
 10
0.0
 20
0.0
 30
0.0
  9
$PUCSORGBOTTOM
 10
0.0
 20
0.0
 30
0.0
  9
$PUCSORGLEFT
 10
0.0
 20
0.0
 30
0.0
  9
$PUCSORGRIGHT
 10
0.0
 20
0.0
 30
0.0
  9
$PUCSORGFRONT
 10
0.0
 20
0.0
 30
0.0
  9
$PUCSORGBACK
 10
0.0
 20
0.0
 30
0.0
  9
$USERI1
 70
     0
  9
$USERI2
 70
     0
  9
$USERI3
 70
     0
  9
$USERI4
 70
     0
  9
$USERI5
 70
     0
  9
$USERR1
 40
0.0
  9
$USERR2
 40
0.0
  9
$USERR3
 40
0.0
  9
$USERR4
 40
0.0
  9
$USERR5
 40
0.0
  9
$WORLDVIEW
 70
     1
  9
$SHADEDGE
 70
     3
  9
$SHADEDIF
 70
    70
  9
$TILEMODE
 70
     1
  9
$MAXACTVP
 70
    64
  9
$PINSBASE
 10
0.0
 20
0.0
 30
0.0
  9
$PLIMCHECK
 70
     0
  9
$PEXTMIN
 10
1.000000000000000E+20
 20
1.000000000000000E+20
 30
1.000000000000000E+20
  9
$PEXTMAX
 10
-1.000000000000000E+20
 20
-1.000000000000000E+20
 30
-1.000000000000000E+20
  9
$PLIMMIN
 10
0.0
 20
0.0
  9
$PLIMMAX
 10
420.0
 20
297.0
  9
$UNITMODE
 70
     0
  9
$VISRETAIN
 70
     1
  9
$PLINEGEN
 70
     0
  9
$PSLTSCALE
 70
     1
  9
$TREEDEPTH
 70
  3020
  9
$CMLSTYLE
  2
Standard
  9
$CMLJUST
 70
     0
  9
$CMLSCALE
 40
20.0
  9
$PROXYGRAPHICS
 70
     1
  9
$MEASUREMENT
 70
     1
  9
$CELWEIGHT
370
    -1
  9
$ENDCAPS
280
     0
  9
$JOINSTYLE
280
     0
  9
$LWDISPLAY
290
     0
  9
$INSUNITS
 70
     4
  9
$HYPERLINKBASE
  1

  9
$STYLESHEET
  1
sei_cad.ctb
  9
$XEDIT
290
     1
  9
$CEPSNTYPE
380
     0
  9
$PSTYLEMODE
290
     1
  9
$FINGERPRINTGUID
  2
{C77AB3BE-9CA2-11D3-BAF3-006094EB760E}
  9
$VERSIONGUID
  2
{83EF2FA6-7A77-4C50-A4D2-4D54CEAEB70B}
  9
$EXTNAMES
290
     1
  9
$PSVPSCALE
 40
0.0
  9
$OLESTARTUP
290
     0
  0
ENDSEC
  0
SECTION
  2
CLASSES
  0
CLASS
  1
ACDBDICTIONARYWDFLT
  2
AcDbDictionaryWithDefault
  3
ObjectDBX Classes
 90
        0
280
     0
281
     0
  0
CLASS
  1
ACDBPLACEHOLDER
  2
AcDbPlaceHolder
  3
ObjectDBX Classes
 90
        0
280
     0
281
     0
  0
CLASS
  1
LAYOUT
  2
AcDbLayout
  3
ObjectDBX Classes
 90
        0
280
     0
281
     0
  0
CLASS
  1
ACME_DOCUMENT
  2
AcMeDbDoc
  3
AcMeServices
 90
        0
280
     1
281
     0
  0
CLASS
  1
ACMESCOPE
  2
AcMeScope
  3
AcMeServices
 90
        0
280
     1
281
     0
  0
CLASS
  1
ACMECOMMANDHISTORY
  2
AcMeCommandHistory
  3
AcMeServices
 90
        0
280
     1
281
     0
  0
CLASS
  1
DICTIONARYVAR
  2
AcDbDictionaryVar
  3
ObjectDBX Classes
 90
        0
280
     0
281
     0
  0
CLASS
  1
ACIMSYSVARMAN
  2
AcImSysVarManager
  3
AcMeServices
 90
        0
280
     1
281
     0
  0
CLASS
  1
ACIMREALSYSVAR
  2
AcImRealSysVar
  3
AcMeServices
 90
        0
280
     1
281
     0
  0
CLASS
  1
ACIMINTSYSVAR
  2
AcImIntSysVar
  3
AcMeServices
 90
        0
280
     1
281
     0
  0
CLASS
  1
ACMEDRAWINGMAN
  2
AcMeDrawingMan
  3
AcMeServices
 90
        0
280
     1
281
     0
  0
CLASS
  1
ACMEVIEW
  2
AcMeView
  3
AcMeServices
 90
        0
280
     1
281
     0
  0
CLASS
  1
ACDBENTITYCACHE
  2
AcMeEntityCache
  3
AcMeServices
 90
        0
280
     1
281
     0
  0
CLASS
  1
GSMANAGER
  2
AcMeGSManager
  3
AcMeServices
 90
        0
280
     1
281
     0
  0
CLASS
  1
AMDTINTERNALREACTOR
  2
AmdtInternalReactor
  3
AcMeServices
 90
        0
280
     1
281
     0
  0
CLASS
  1
ACMESTATEMGR
  2
AcMeStateMgr
  3
AcMeServices
 90
        0
280
     1
281
     0
  0
CLASS
  1
ACME_DATABASE
  2
AcMeDbDatabase
  3
AcMeServices
 90
        0
280
     1
281
     0
  0
CLASS
  1
ACRFINSADJUSTERMGR
  2
AcRfInsAdjusterMgr
  3
AcMeServices
 90
        0
280
     1
281
     0
  0
CLASS
  1
AMGSETTINGSOBJ
  2
AmgSettingsObj
  3
"AcadM|Product Description: AutoCAD Mechanical 2000|Company: Autodesk"
 90
        0
280
     1
281
     0
  0
CLASS
  1
AMGOBJPROPCFG
  2
AmgObjPropCfg
  3
"AmgLay|Product Description: AutoCAD Mechanical 2000|Company: Autodesk"
 90
        1
280
     1
281
     0
  0
CLASS
  1
ACMDATADICTIONARY
  2
AcmDataDictionary
  3
"AcmSymBB|Product Description: AutoCAD Mechanical 2004 DX|Company: Autodesk"
 90
        0
280
     1
281
     0
  0
CLASS
  1
ACMDATAENTRYBLOCK
  2
AcmDataEntryBlock
  3
"AcmSymBB|Product Description: AutoCAD Mechanical 2004 DX|Company: Autodesk"
 90
        0
280
     1
281
     0
  0
CLASS
  1
ACIMSTRSYSVAR
  2
AcImStrSysVar
  3
AcMeServices
 90
        0
280
     1
281
     0
  0
CLASS
  1
ACAMGFILTERDAT
  2
AcAmgFilterDat
  3
"AcadM|Product Description: AutoCAD Mechanical 2000|Company: Autodesk"
 90
        0
280
     1
281
     0
  0
CLASS
  1
LAYER_INDEX
  2
AcDbLayerIndex
  3
ObjectDBX Classes
 90
        0
280
     0
281
     0
  0
CLASS
  1
IDBUFFER
  2
AcDbIdBuffer
  3
ObjectDBX Classes
 90
        0
280
     0
281
     0
  0
CLASS
  1
ACMSTANDARDJIS
  2
AcmStandardJIS
  3
"Amdt_StdImp|Product Description: AutoCAD Mechanical 2004 DX|Company: Autodesk"
 90
        0
280
     1
281
     0
  0
CLASS
  1
ACMSURFSTANDARDJIS
  2
AcmSurfTextStdJIS
  3
"Amdt_StdImp|Product Description: AutoCAD Mechanical 2004 DX|Company: Autodesk"
 90
        0
280
     1
281
     0
  0
CLASS
  1
ACMFCFSTANDARDJIS
  2
AcmFCFStdJIS
  3
"Amdt_StdImp|Product Description: AutoCAD Mechanical 2004 DX|Company: Autodesk"
 90
        0
280
     1
281
     0
  0
CLASS
  1
ACMWELDSTANDARDJIS
  2
AcmWeldingStdJIS
  3
"Amdt_StdImp|Product Description: AutoCAD Mechanical 2004 DX|Company: Autodesk"
 90
        0
280
     1
281
     0
  0
CLASS
  1
ACMIDSTANDARDJIS
  2
AcmIdStdJIS
  3
"Amdt_StdImp|Product Description: AutoCAD Mechanical 2004 DX|Company: Autodesk"
 90
        0
280
     1
281
     0
  0
CLASS
  1
ACMDATUMSTANDARDJIS
  2
AcmDatumStdJIS
  3
"Amdt_StdImp|Product Description: AutoCAD Mechanical 2004 DX|Company: Autodesk"
 90
        0
280
     1
281
     0
  0
CLASS
  1
ACMBOMSTANDARDJIS
  2
AcmBOMStdJIS
  3
"Amdt_StdImp|Product Description: AutoCAD Mechanical 2004 DX|Company: Autodesk"
 90
        0
280
     1
281
     0
  0
CLASS
  1
AMDTNOTE
  2
AmdtNote
  3
"AcmSymBB|Product Description: AutoCAD Mechanical 2004 DX|Company: Autodesk"
 90
     1023
280
     1
281
     1
  0
CLASS
  1
ACMDATUMID
  2
AcmDatumId
  3
"AcmSymBB|Product Description: AutoCAD Mechanical 2004 DX|Company: Autodesk"
 90
     1023
280
     1
281
     1
  0
CLASS
  1
TABLESTYLE
  2
AcDbTableStyle
  3
ObjectDBX Classes
 90
     2047
280
     0
281
     0
  0
CLASS
  1
ACGREFMASTER
  2
AcGrefMaster
  3
AcAttribServices
 90
        0
280
     1
281
     0
  0
CLASS
  1
AM_DRAWING_MGR
  2
AcDmDwgMgr
  3
AcMechDwgViewMgmt
 90
        0
280
     1
281
     0
  0
CLASS
  1
AM_DWG_DOCUMENT
  2
AcDmDwgDocument
  3
AcMechDwgViewMgmt
 90
        0
280
     1
281
     0
  0
CLASS
  1
AM_DWG_SHEET
  2
AcDmSheet
  3
AcMechDwgViewMgmt
 90
        0
280
     1
281
     0
  0
CLASS
  1
AM_VIEWDIMPARMAP
  2
AcDmViewDimParMap
  3
AcMechDwgViewMgmt
 90
        0
280
     1
281
     0
  0
CLASS
  1
AM_DWGMGR_NAME
  2
AcDmDwgMgrName
  3
AcMechDwgViewMgmt
 90
        0
280
     1
281
     0
  0
CLASS
  1
ACGREFACADMASTER
  2
AcGrefacadMaster
  3
AcGrefServices
 90
        0
280
     1
281
     0
  0
CLASS
  1
AMDTMENUSTATEMGR
  2
AmdtMenuStateMgr
  3
McadcomServices
 90
        0
280
     1
281
     0
  0
CLASS
  1
AMDTMCOMMENUSTATE
  2
AmdtMcomMenuState
  3
McadcomServices
 90
        0
280
     1
281
     0
  0
CLASS
  1
AMIMASTER
  2
AmiMaster
  3
AmiServices
 90
        0
280
     1
281
     0
  0
CLASS
  1
MAPIAMMOUDLE
  2
MApiAmModule
  3
MApiAmServices
 90
        0
280
     1
281
     0
  0
CLASS
  1
AMDTADMENUSTATE
  2
AmdtAdMenuState
  3
DesignerServices
 90
        0
280
     1
281
     0
  0
CLASS
  1
ADAPPL
  2
AcAdAppl
  3
DesignerServices
 90
        0
280
     1
281
     0
  0
CLASS
  1
DEPMGR
  2
AcAdDepMgr
  3
DesignerServices
 90
        0
280
     1
281
     0
  0
CLASS
  1
PARAMMGR
  2
AcAdParamMgr
  3
DesignerServices
 90
        0
280
     1
281
     0
  0
CLASS
  1
PARAMSCOPE
  2
AcAdParamScope
  3
DesignerServices
 90
        0
280
     1
281
     0
  0
CLASS
  1
NAMEDAPPL
  2
AcAdNamedAppl
  3
DesignerServices
 90
        0
280
     1
281
     0
  0
CLASS
  1
AMDTDMMENUSTATE
  2
AmdtDmMenuState
  3
AcMechDwgViewMgmt
 90
        0
280
     1
281
     0
  0
CLASS
  1
AMDTAMMENUSTATE
  2
AmdtAmMenuState
  3
DesignerAssemblies
 90
        0
280
     1
281
     0
  0
CLASS
  1
ACAMPROJECT
  2
AcAmProject
  3
DesignerAssemblies
 90
        0
280
     1
281
     0
  0
CLASS
  1
ACAMGRCOMPDEF
  2
AcAmGrCompDef
  3
DesignerAssemblies
 90
        0
280
     1
281
     0
  0
CLASS
  1
ACCMCONTEXT
  2
AcCmContext
  3
DesignerAssemblies
 90
        0
280
     1
281
     0
  0
CLASS
  1
ACAMCOMPDEF
  2
AcAmCompDef
  3
DesignerAssemblies
 90
        0
280
     1
281
     0
  0
CLASS
  1
ACAMCOMPDEFMGR
  2
AcAmCompDefMgr
  3
DesignerAssemblies
 90
        0
280
     1
281
     0
  0
CLASS
  1
AMCONTEXTMGR
  2
AcAmContextMgr
  3
DesignerAssemblies
 90
        0
280
     1
281
     0
  0
CLASS
  1
ACAMCONTEXTMODELER
  2
AcAmContextModeler
  3
DesignerAssemblies
 90
        0
280
     1
281
     0
  0
CLASS
  1
ACAMGTITLESTD
  2
AcAmgTitleStd
  3
"TITLEAPP"
 90
        0
280
     1
281
     0
  0
CLASS
  1
ACMDETAILSTANDARDJIS
  2
AmdtDetailSymStdJIS
  3
"Amdt_StdImp|Product Description: AutoCAD Mechanical 2004 DX|Company: Autodesk"
 90
        0
280
     1
281
     0
  0
CLASS
  1
ACMSECTIONSTANDARDJIS
  2
AmdtSectionSymStdJIS
  3
"Amdt_StdImp|Product Description: AutoCAD Mechanical 2004 DX|Company: Autodesk"
 90
        0
280
     1
281
     0
  0
CLASS
  1
ACMCENTERLINESTANDARDJIS
  2
AmdtCenterLineStdJIS
  3
"Amdt_StdImp|Product Description: AutoCAD Mechanical 2004 DX|Company: Autodesk"
 90
        0
280
     1
281
     0
  0
CLASS
  1
ACMTHREADLINESTANDARDJIS
  2
AmdtThreadLineStdJIS
  3
"Amdt_StdImp|Product Description: AutoCAD Mechanical 2004 DX|Company: Autodesk"
 90
        0
280
     1
281
     0
  0
CLASS
  1
ACMNOTESTANDARDJIS
  2
AmdtNoteStdJIS
  3
"Amdt_StdImp|Product Description: AutoCAD Mechanical 2004 DX|Company: Autodesk"
 90
        0
280
     1
281
     0
  0
CLASS
  1
AMDTNOTETEMPLATEDB
  2
AmdtNoteTemplateDB
  3
AMDT_STDIMP_MODULE_NAME
 90
        0
280
     1
281
     0
  0
CLASS
  1
ACAMGLAYSTD
  2
AcAmgLayStd
  3
"AcAmgLayStd|Product Description: AutoCAD Mechanical 2000|Company: Autodesk"
 90
        0
280
     1
281
     0
  0
CLASS
  1
ACAMGDIMSTD
  2
AcAmgDimStd
  3
"AcAmgDimStd|Product Description: AutoCAD Mechanical 2000|Company: Autodesk"
 90
        0
280
     1
281
     0
  0
CLASS
  1
ACAMGHOLECHARTSTDJIS
  2
AcAmgHoleChartStdJIS
  3
ACMSYMBB_MODULE_NAME
 90
        0
280
     1
281
     0
  0
CLASS
  1
CATALOGSTATE
  2
AcAmCatalogState
  3
DesignerAssemblies
 90
        0
280
     1
281
     0
  0
CLASS
  1
ACAMGRCOMPDEFSET
  2
AcAmGrCompDefSet
  3
DesignerAssemblies
 90
        0
280
     1
281
     0
  0
CLASS
  1
AMDTBROWSERDBTAB
  2
AmdtBrowserDbTab
  3
McadcomServices
 90
        0
280
     1
281
     0
  0
CLASS
  1
CBROWSERAPPOBJECT
  2
CBrowserAppObject
  3
McadcomServices
 90
        0
280
     1
281
     0
  0
CLASS
  1
DM_PLACEHOLDER
  2
AcDmSelsetPlaceholder
  3
AcMechDwgViewMgmt
 90
        0
280
     1
281
     0
  0
CLASS
  1
SORTENTSTABLE
  2
AcDbSortentsTable
  3
ObjectDBX Classes
 90
        0
280
     0
281
     0
  0
CLASS
  1
ACMSTANDARDISO
  2
AcmStandardISO
  3
"Amdt_StdImp|Product Description: AutoCAD Mechanical 2004 DX|Company: Autodesk"
 90
        0
280
     1
281
     0
  0
CLASS
  1
AMDTEDGESTANDARDISO13715
  2
AmdtEdgeStdISO13715
  3
"Amdt_StdImp|Product Description: AutoCAD Mechanical 2004 DX|Company: Autodesk"
 90
        0
280
     1
281
     0
  0
CLASS
  1
ACMSURFSTANDARDISO
  2
AcmSurfTextStdISO
  3
"Amdt_StdImp|Product Description: AutoCAD Mechanical 2004 DX|Company: Autodesk"
 90
        0
280
     1
281
     0
  0
CLASS
  1
ACMFCFSTANDARDISO
  2
AcmFCFStdISO
  3
"Amdt_StdImp|Product Description: AutoCAD Mechanical 2004 DX|Company: Autodesk"
 90
        0
280
     1
281
     0
  0
CLASS
  1
ACMWELDSTANDARDISO
  2
AcmWeldingStdISO
  3
"Amdt_StdImp|Product Description: AutoCAD Mechanical 2004 DX|Company: Autodesk"
 90
        0
280
     1
281
     0
  0
CLASS
  1
ACMIDSTANDARDISO
  2
AcmIdStdISO
  3
"Amdt_StdImp|Product Description: AutoCAD Mechanical 2004 DX|Company: Autodesk"
 90
        0
280
     1
281
     0
  0
CLASS
  1
ACMDATUMSTANDARDISO
  2
AcmDatumStdISO
  3
"Amdt_StdImp|Product Description: AutoCAD Mechanical 2004 DX|Company: Autodesk"
 90
        0
280
     1
281
     0
  0
CLASS
  1
ACMBOMSTANDARDISO
  2
AcmBOMStdISO
  3
"Amdt_StdImp|Product Description: AutoCAD Mechanical 2004 DX|Company: Autodesk"
 90
        0
280
     1
281
     0
  0
CLASS
  1
ACMDETAILSTANDARDISO
  2
AmdtDetailSymStdISO
  3
"Amdt_StdImp|Product Description: AutoCAD Mechanical 2004 DX|Company: Autodesk"
 90
        0
280
     1
281
     0
  0
CLASS
  1
ACMSECTIONSTANDARDISO
  2
AmdtSectionSymStdISO
  3
"Amdt_StdImp|Product Description: AutoCAD Mechanical 2004 DX|Company: Autodesk"
 90
        0
280
     1
281
     0
  0
CLASS
  1
ACMCENTERLINESTANDARDISO
  2
AmdtCenterLineStdISO
  3
"Amdt_StdImp|Product Description: AutoCAD Mechanical 2004 DX|Company: Autodesk"
 90
        0
280
     1
281
     0
  0
CLASS
  1
ACMTHREADLINESTANDARDISO
  2
AmdtThreadLineStdISO
  3
"Amdt_StdImp|Product Description: AutoCAD Mechanical 2004 DX|Company: Autodesk"
 90
        0
280
     1
281
     0
  0
CLASS
  1
ACMNOTESTANDARDISO
  2
AmdtNoteStdISO
  3
"Amdt_StdImp|Product Description: AutoCAD Mechanical 2004 DX|Company: Autodesk"
 90
        0
280
     1
281
     0
  0
CLASS
  1
ACAMGHOLECHARTSTDISO
  2
AcAmgHoleChartStdISO
  3
ACMSYMBB_MODULE_NAME
 90
        0
280
     1
281
     0
  0
CLASS
  1
AMDTFORMULAUPDATEDISPATCHER
  2
AmdtFormulaUpdateDispatcher
  3
AcMeServices
 90
        0
280
     1
281
     0
  0
CLASS
  1
ACDBLINERES
  2
AcDbLineRes
  3
AcGrefServices
 90
        0
280
     1
281
     0
  0
ENDSEC
  0
SECTION
  2
TABLES
  0
TABLE
  2
VPORT
  5
8
330
0
100
AcDbSymbolTable
 70
    16
  0
VPORT
  5
3603E
330
8
100
AcDbSymbolTableRecord
100
AcDbViewportTableRecord
  2
*Active
 70
     0
 10
0.0
 20
0.0
 11
1.0
 21
1.0
 12
39.20564355942713
 22
-25.9303175392013
 13
0.0
 23
0.0
 14
2.5
 24
2.5
 15
10.0
 25
10.0
 16
0.0
 26
0.0
 36
1.0
 17
0.0
 27
0.0
 37
0.0
 40
422.3083521547214
 41
1.372924648786718
 42
50.0
 43
0.0
 44
0.0
 50
0.0
 51
0.0
 71
    16
 72
 20000
 73
     1
 74
     3
 75
     0
 76
     0
 77
     0
 78
     0
281
     0
 65
     1
110
0.0
120
0.0
130
0.0
111
1.0
121
0.0
131
0.0
112
0.0
122
1.0
132
0.0
 79
     0
146
0.0
  0
ENDTAB
  0
TABLE
  2
LTYPE
  5
5
330
0
100
AcDbSymbolTable
 70
    16
  0
LTYPE
  5
14
330
5
100
AcDbSymbolTableRecord
100
AcDbLinetypeTableRecord
  2
ByBlock
 70
     0
  3

 72
    65
 73
     0
 40
0.0
  0
LTYPE
  5
15
330
5
100
AcDbSymbolTableRecord
100
AcDbLinetypeTableRecord
  2
ByLayer
 70
     0
  3

 72
    65
 73
     0
 40
0.0
  0
LTYPE
  5
16
330
5
100
AcDbSymbolTableRecord
100
AcDbLinetypeTableRecord
  2
Continuous
 70
     0
  3
Solid line
 72
    65
 73
     0
 40
0.0
  0
LTYPE
  5
43
330
5
100
AcDbSymbolTableRecord
100
AcDbLinetypeTableRecord
  2
AM_ISO02W050
 70
     0
  3
__ __ __ __ __ __ __ __ __ __ __ __ __ __ __
 72
    65
 73
     2
 40
7.5
 49
6.0
 74
     0
 49
-1.5
 74
     0
  0
LTYPE
  5
44
330
5
100
AcDbSymbolTableRecord
100
AcDbLinetypeTableRecord
  2
AM_ISO08W050
 70
     0
  3
____ . ____ . ____ . ____ . ____ . ____ . ____
 72
    65
 73
     4
 40
18.0
 49
12.0
 74
     0
 49
-1.5
 74
     0
 49
3.0
 74
     0
 49
-1.5
 74
     0
  0
LTYPE
  5
45
330
5
100
AcDbSymbolTableRecord
100
AcDbLinetypeTableRecord
  2
AM_ISO09W050
 70
     0
  3
_____ . . _____ . . _____ . . ____ .. ____
 72
    65
 73
     6
 40
22.5
 49
12.0
 74
     0
 49
-1.5
 74
     0
 49
3.0
 74
     0
 49
-1.5
 74
     0
 49
3.0
 74
     0
 49
-1.5
 74
     0
  0
LTYPE
  5
46
330
5
100
AcDbSymbolTableRecord
100
AcDbLinetypeTableRecord
  2
Amconstr
 70
     0
  3
_______________________
 72
    65
 73
     2
 40
9999.0
 49
9999.0
 74
     0
 49
0.0
 74
     0
  0
LTYPE
  5
47
330
5
100
AcDbSymbolTableRecord
100
AcDbLinetypeTableRecord
  2
AM_ISO02W050x2
 70
     0
  3
 _ _ _ _ _ _ _ _ _ _ _ _
 72
    65
 73
     2
 40
3.75
 49
3.0
 74
     0
 49
-0.75
 74
     0
  0
LTYPE
  5
48
330
5
100
AcDbSymbolTableRecord
100
AcDbLinetypeTableRecord
  2
AM_ISO08W050x2
 70
     0
  3
__ . __ . __ . __ . __ . __
 72
    65
 73
     4
 40
9.0
 49
6.0
 74
     0
 49
-0.75
 74
     0
 49
1.5
 74
     0
 49
-0.75
 74
     0
  0
LTYPE
  5
4B
330
5
100
AcDbSymbolTableRecord
100
AcDbLinetypeTableRecord
  2
Amzigzag
 70
     0
  3
/\/-/\/-/\/-/\/-/\/-/\/
 72
    65
 73
     2
 40
11.0001
 49
0.0001
 74
     4
 75
   135
340
4A
 46
0.04
 50
0.0
 44
0.0
 45
0.0
 49
-11.0
 74
     0
  0
LTYPE
  5
188
330
5
100
AcDbSymbolTableRecord
100
AcDbLinetypeTableRecord
  2
ACJISTGB
 70
     0
  3
__ . . __ . .
 72
    65
 73
     6
 40
9.0
 49
4.0
 74
     0
 49
-1.0
 74
     0
 49
1.0
 74
     0
 49
-1.0
 74
     0
 49
1.0
 74
     0
 49
-1.0
 74
     0
  0
LTYPE
  5
189
330
5
100
AcDbSymbolTableRecord
100
AcDbLinetypeTableRecord
  2
ACJISTGL
 70
     0
  3
_ _ _ _ _
 72
    65
 73
     2
 40
3.0
 49
2.0
 74
     0
 49
-1.0
 74
     0
  0
LTYPE
  5
652
330
5
100
AcDbSymbolTableRecord
100
AcDbLinetypeTableRecord
  2
CENTER
 70
     0
  3
____ _ ____ _ ____ _ ____ _ ____ _ ____ _ ____
 72
    65
 73
     4
 40
17.5
 49
13.0
 74
     0
 49
-1.5
 74
     0
 49
1.5
 74
     0
 49
-1.5
 74
     0
  0
LTYPE
  5
12AB
330
5
100
AcDbSymbolTableRecord
100
AcDbLinetypeTableRecord
  2
HIDDEN
 70
     0
  3
Hidden __ __ __ __ __ __ __ __ __ __ __ __ __ _
 72
    65
 73
     2
 40
0.375
 49
0.25
 74
     0
 49
-0.125
 74
     0
  0
LTYPE
  5
12AC
330
5
100
AcDbSymbolTableRecord
100
AcDbLinetypeTableRecord
  2
PHANTOM2
 70
     0
  3
Phantom (.5x) ___ _ _ ___ _ _ ___ _ _ ___ _ _
 72
    65
 73
     6
 40
1.25
 49
0.625
 74
     0
 49
-0.125
 74
     0
 49
0.125
 74
     0
 49
-0.125
 74
     0
 49
0.125
 74
     0
 49
-0.125
 74
     0
  0
LTYPE
  5
1341A
330
5
100
AcDbSymbolTableRecord
100
AcDbLinetypeTableRecord
  2
ACISOTGB
 70
     0
  3
__ . . __ . .
 72
    65
 73
     6
 40
9.0
 49
4.0
 74
     0
 49
-1.0
 74
     0
 49
1.0
 74
     0
 49
-1.0
 74
     0
 49
1.0
 74
     0
 49
-1.0
 74
     0
  0
LTYPE
  5
233DE
330
5
100
AcDbSymbolTableRecord
100
AcDbLinetypeTableRecord
  2
ACISOWELD
 70
     0
  3
_ _ _ _ _
 72
    65
 73
     2
 40
2.0
 49
2.0
 74
     0
 49
-1.0
 74
     0
  0
LTYPE
  5
233DF
330
5
100
AcDbSymbolTableRecord
100
AcDbLinetypeTableRecord
  2
ACISOTGL
 70
     0
  3
_ _ _ _ _
 72
    65
 73
     2
 40
3.0
 49
2.0
 74
     0
 49
-1.0
 74
     0
  0
ENDTAB
  0
TABLE
  2
LAYER
  5
2
102
{ACAD_XDICTIONARY
360
233EB
102
}
330
0
100
AcDbSymbolTable
 70
     8
  0
LAYER
  5
10
330
2
100
AcDbSymbolTableRecord
100
AcDbLayerTableRecord
  2
0
 70
     0
 62
     7
  6
Continuous
370
    -3
390
F
  0
LAYER
  5
7D
330
2
100
AcDbSymbolTableRecord
100
AcDbLayerTableRecord
  2
AM_5
 70
     0
 62
     3
  6
Continuous
370
    13
390
F
  0
LAYER
  5
7F
330
2
100
AcDbSymbolTableRecord
100
AcDbLayerTableRecord
  2
Defpoints
 70
     0
 62
     7
  6
Continuous
290
     0
370
    -3
390
F
  0
LAYER
  5
12B1
330
2
100
AcDbSymbolTableRecord
100
AcDbLayerTableRecord
  2
AM_0
 70
     0
 62
     7
  6
Continuous
370
    30
390
F
  0
LAYER
  5
18A4
330
2
100
AcDbSymbolTableRecord
100
AcDbLayerTableRecord
  2
AM_7
 70
     0
 62
     4
  6
AM_ISO08W050
370
    13
390
F
  0
LAYER
  5
18A5
330
2
100
AcDbSymbolTableRecord
100
AcDbLayerTableRecord
  2
AM_6
 70
     0
 62
     2
  6
Continuous
370
    30
390
F
  0
LAYER
  5
18A6
330
2
100
AcDbSymbolTableRecord
100
AcDbLayerTableRecord
  2
AM_11
 70
     0
 62
     3
  6
AM_ISO09W050
370
    13
390
F
  0
LAYER
  5
263B
330
2
100
AcDbSymbolTableRecord
100
AcDbLayerTableRecord
  2
AM_3
 70
     0
 62
     6
  6
AM_ISO02W050
370
    13
390
F
  0
ENDTAB
  0
TABLE
  2
STYLE
  5
3
330
0
100
AcDbSymbolTable
 70
     6
  0
STYLE
  5
11
330
3
100
AcDbSymbolTableRecord
100
AcDbTextStyleTableRecord
  2
STANDARD
 70
     0
 40
0.0
 41
1.0
 50
0.0
 71
     0
 42
3.0
  3
ISOCP.SHX
  4
EXTFONT.SHX
  0
STYLE
  5
4A
330
3
100
AcDbSymbolTableRecord
100
AcDbTextStyleTableRecord
  2

 70
     1
 40
0.0
 41
1.0
 50
0.0
 71
     0
 42
2.5
  3
ltypeshp.shx
  4

  0
STYLE
  5
180
330
3
100
AcDbSymbolTableRecord
100
AcDbTextStyleTableRecord
  2
ACJISTS
 70
     0
 40
1.0
 41
1.0
 50
0.0
 71
     0
 42
2.5
  3
isocp.shx
  4
bigfont.shx
  0
STYLE
  5
187
330
3
100
AcDbSymbolTableRecord
100
AcDbTextStyleTableRecord
  2
ACJISGDT
 70
     0
 40
0.0
 41
1.0
 50
0.0
 71
     0
 42
2.5
  3
amgdt.shx
  4

  0
STYLE
  5
233E2
330
3
100
AcDbSymbolTableRecord
100
AcDbTextStyleTableRecord
  2
ACISOTS
 70
     0
 40
1.0
 41
1.0
 50
0.0
 71
     0
 42
2.5
  3
isocp.shx
  4
extfont.shx
  0
STYLE
  5
233E3
330
3
100
AcDbSymbolTableRecord
100
AcDbTextStyleTableRecord
  2
ACISOGDT
 70
     0
 40
0.0
 41
1.0
 50
0.0
 71
     0
 42
2.5
  3
amgdt.shx
  4

  0
ENDTAB
  0
TABLE
  2
VIEW
  5
6
330
0
100
AcDbSymbolTable
 70
     6
  0
VIEW
  5
A30
330
6
100
AcDbSymbolTableRecord
100
AcDbViewTableRecord
  2
AM_VIEW1
 70
     0
 40
148.5
 10
108.6929657794677
 20
222.75
 41
217.3859315589354
 11
0.0
 21
0.0
 31
1.0
 12
0.0
 22
0.0
 32
0.0
 42
50.0
 43
0.0
 44
0.0
 50
0.0
 71
    16
281
     0
 72
     0
  0
VIEW
  5
A31
330
6
100
AcDbSymbolTableRecord
100
AcDbViewTableRecord
  2
AM_VIEW2
 70
     0
 40
148.5
 10
311.3070342205323
 20
222.75
 41
217.3859315589354
 11
0.0
 21
0.0
 31
1.0
 12
0.0
 22
0.0
 32
0.0
 42
50.0
 43
0.0
 44
0.0
 50
0.0
 71
    16
281
     0
 72
     0
  0
VIEW
  5
A32
330
6
100
AcDbSymbolTableRecord
100
AcDbViewTableRecord
  2
AM_VIEW3
 70
     0
 40
148.5
 10
108.6929657794677
 20
74.25
 41
217.3859315589354
 11
0.0
 21
0.0
 31
1.0
 12
0.0
 22
0.0
 32
0.0
 42
50.0
 43
0.0
 44
0.0
 50
0.0
 71
    16
281
     0
 72
     0
  0
VIEW
  5
A33
330
6
100
AcDbSymbolTableRecord
100
AcDbViewTableRecord
  2
AM_VIEW4
 70
     0
 40
148.5
 10
311.3070342205323
 20
74.25
 41
217.3859315589354
 11
0.0
 21
0.0
 31
1.0
 12
0.0
 22
0.0
 32
0.0
 42
50.0
 43
0.0
 44
0.0
 50
0.0
 71
    16
281
     0
 72
     0
  0
VIEW
  5
A34
330
6
100
AcDbSymbolTableRecord
100
AcDbViewTableRecord
  2
AM_VIEW5
 70
     0
 40
148.5
 10
210.0
 20
148.5
 41
217.3859315589353
 11
0.0
 21
0.0
 31
1.0
 12
0.0
 22
0.0
 32
0.0
 42
50.0
 43
0.0
 44
0.0
 50
0.0
 71
    16
281
     0
 72
     0
  0
VIEW
  5
A35
330
6
100
AcDbSymbolTableRecord
100
AcDbViewTableRecord
  2
AM_VIEW6
 70
     0
 40
296.99703
 10
210.0
 20
148.5
 41
434.7675153992395
 11
0.0
 21
0.0
 31
1.0
 12
0.0
 22
0.0
 32
0.0
 42
50.0
 43
0.0
 44
0.0
 50
0.0
 71
    16
281
     0
 72
     0
  0
ENDTAB
  0
TABLE
  2
UCS
  5
7
330
0
100
AcDbSymbolTable
 70
     0
  0
ENDTAB
  0
TABLE
  2
APPID
  5
9
330
0
100
AcDbSymbolTable
 70
    46
  0
APPID
  5
12
330
9
100
AcDbSymbolTableRecord
100
AcDbRegAppTableRecord
  2
ACAD
 70
     0
  0
APPID
  5
2C
330
9
100
AcDbSymbolTableRecord
100
AcDbRegAppTableRecord
  2
MCAD_NO_VIS
 70
     0
  0
APPID
  5
2D
330
9
100
AcDbSymbolTableRecord
100
AcDbRegAppTableRecord
  2
ACAD_TEMP_GRAPHIC
 70
     0
  0
APPID
  5
B9
330
9
100
AcDbSymbolTableRecord
100
AcDbRegAppTableRecord
  2
GENIUS_GENDTOL_13
 70
     0
  0
APPID
  5
359
330
9
100
AcDbSymbolTableRecord
100
AcDbRegAppTableRecord
  2
GENIUS_GENREC_14
 70
     0
  0
APPID
  5
35A
330
9
100
AcDbSymbolTableRecord
100
AcDbRegAppTableRecord
  2
GENIUS_GENODEF_13
 70
     0
  0
APPID
  5
35B
330
9
100
AcDbSymbolTableRecord
100
AcDbRegAppTableRecord
  2
GENIUS_GENOBJ-N-REC_13
 70
     0
  0
APPID
  5
667
330
9
100
AcDbSymbolTableRecord
100
AcDbRegAppTableRecord
  2
GENIUS_GENCFG_13
 70
     0
  0
APPID
  5
668
330
9
100
AcDbSymbolTableRecord
100
AcDbRegAppTableRecord
  2
GENIUS_GENCFG0_13
 70
     0
  0
APPID
  5
669
330
9
100
AcDbSymbolTableRecord
100
AcDbRegAppTableRecord
  2
GENIUS_GENCFG1_13
 70
     0
  0
APPID
  5
66A
330
9
100
AcDbSymbolTableRecord
100
AcDbRegAppTableRecord
  2
GENIUS_GENCFG2_13
 70
     0
  0
APPID
  5
66B
330
9
100
AcDbSymbolTableRecord
100
AcDbRegAppTableRecord
  2
GENIUS_GENCFG3_13
 70
     0
  0
APPID
  5
66C
330
9
100
AcDbSymbolTableRecord
100
AcDbRegAppTableRecord
  2
GENIUS_GENCFG4_13
 70
     0
  0
APPID
  5
A76
330
9
100
AcDbSymbolTableRecord
100
AcDbRegAppTableRecord
  2
GENIUS_GENBLLY_14
 70
     0
  0
APPID
  5
A77
330
9
100
AcDbSymbolTableRecord
100
AcDbRegAppTableRecord
  2
GENIUS_GENOBJ-N-CEN_13
 70
     0
  0
APPID
  5
A83
330
9
100
AcDbSymbolTableRecord
100
AcDbRegAppTableRecord
  2
GENIUS_GENTRA_14
 70
     0
  0
APPID
  5
A8D
330
9
100
AcDbSymbolTableRecord
100
AcDbRegAppTableRecord
  2
GENIUS_GENOBJ-N-TIT_13
 70
     0
  0
APPID
  5
A8E
330
9
100
AcDbSymbolTableRecord
100
AcDbRegAppTableRecord
  2
GENIUS_GENTITLE_13
 70
     0
  0
APPID
  5
A8F
330
9
100
AcDbSymbolTableRecord
100
AcDbRegAppTableRecord
  2
GENIUS_GENOENT_13
 70
     0
  0
APPID
  5
A90
330
9
100
AcDbSymbolTableRecord
100
AcDbRegAppTableRecord
  2
GENIUS_GENOREF_13
 70
     0
  0
APPID
  5
A91
330
9
100
AcDbSymbolTableRecord
100
AcDbRegAppTableRecord
  2
GENIUS_GENOLIS_13
 70
     0
  0
APPID
  5
A92
330
9
100
AcDbSymbolTableRecord
100
AcDbRegAppTableRecord
  2
GENIUS_GENZVEED_13
 70
     0
  0
APPID
  5
A93
330
9
100
AcDbSymbolTableRecord
100
AcDbRegAppTableRecord
  2
GENIUS_GENSCREG_15
 70
     0
  0
APPID
  5
A94
330
9
100
AcDbSymbolTableRecord
100
AcDbRegAppTableRecord
  2
GENIUS_GENOBJ-N-SDF_13
 70
     0
  0
APPID
  5
12B5
330
9
100
AcDbSymbolTableRecord
100
AcDbRegAppTableRecord
  2
GENIUS_GENOBJ-N-RSBK_13
 70
     0
  0
APPID
  5
12B6
330
9
100
AcDbSymbolTableRecord
100
AcDbRegAppTableRecord
  2
GENIUS_GENOBJ-N-LIB_13
 70
     0
  0
APPID
  5
12B7
330
9
100
AcDbSymbolTableRecord
100
AcDbRegAppTableRecord
  2
GENIUS_GENSCALE_13
 70
     0
  0
APPID
  5
12B8
330
9
100
AcDbSymbolTableRecord
100
AcDbRegAppTableRecord
  2
GENIUS_GENOBJ-N-HTC_13
 70
     0
  0
APPID
  5
12B9
330
9
100
AcDbSymbolTableRecord
100
AcDbRegAppTableRecord
  2
GENIUS_GENHATCH_13
 70
     0
  0
APPID
  5
18AA
330
9
100
AcDbSymbolTableRecord
100
AcDbRegAppTableRecord
  2
BASE_TYPE
 70
     0
  0
APPID
  5
18AB
330
9
100
AcDbSymbolTableRecord
100
AcDbRegAppTableRecord
  2
GENIUS_GENOBJ-N-FIL_13
 70
     0
  0
APPID
  5
1E91
330
9
100
AcDbSymbolTableRecord
100
AcDbRegAppTableRecord
  2
GENIUS_GENOBJ-N-CRS_13
 70
     0
  0
APPID
  5
3B24
330
9
100
AcDbSymbolTableRecord
100
AcDbRegAppTableRecord
  2
GENIUS_GENDIMSH_14
 70
     0
  0
APPID
  5
576E
330
9
100
AcDbSymbolTableRecord
100
AcDbRegAppTableRecord
  2
GENIUS_GENFIL_13
 70
     0
  0
APPID
  5
576F
330
9
100
AcDbSymbolTableRecord
100
AcDbRegAppTableRecord
  2
GENIUS_GENOBJ-N-CHA_13
 70
     0
  0
APPID
  5
D3D6
330
9
100
AcDbSymbolTableRecord
100
AcDbRegAppTableRecord
  2
GENIUS_GENOBJ-N-DIM_13
 70
     0
  0
APPID
  5
D3E0
330
9
100
AcDbSymbolTableRecord
100
AcDbRegAppTableRecord
  2
GENIUS_GENDIM_13
 70
     0
  0
APPID
  5
23301
330
9
100
AcDbSymbolTableRecord
100
AcDbRegAppTableRecord
  2
AD_DRAW
 70
     0
  0
APPID
  5
23304
330
9
100
AcDbSymbolTableRecord
100
AcDbRegAppTableRecord
  2
ACATTRIBSERVICES
 70
     0
  0
APPID
  5
23322
330
9
100
AcDbSymbolTableRecord
100
AcDbRegAppTableRecord
  2
DESIGNERASSEMBLIES
 70
     0
  0
APPID
  5
23335
330
9
100
AcDbSymbolTableRecord
100
AcDbRegAppTableRecord
  2
ACADM_DIM_EDIT
 70
     0
  0
APPID
  5
23336
330
9
100
AcDbSymbolTableRecord
100
AcDbRegAppTableRecord
  2
AMDT_DM_ADJ
 70
     0
  0
APPID
  5
25646
330
9
100
AcDbSymbolTableRecord
100
AcDbRegAppTableRecord
  2
ACAD_DSTYLE_DIMTEXT_FILL
 70
     0
  0
APPID
  5
25647
330
9
100
AcDbSymbolTableRecord
100
AcDbRegAppTableRecord
  2
ACAD_PSEXT
 70
     0
  0
APPID
  5
25961
330
9
100
AcDbSymbolTableRecord
100
AcDbRegAppTableRecord
  2
GENIUS_GENSCREG_13
 70
     0
  0
APPID
  5
26FE7
330
9
100
AcDbSymbolTableRecord
100
AcDbRegAppTableRecord
  2
GENIUS_GENCEN_19
 70
     0
  0
ENDTAB
  0
TABLE
  2
DIMSTYLE
  5
A
330
0
100
AcDbSymbolTable
 70
    17
100
AcDbDimStyleTable
  0
DIMSTYLE
105
58
330
A
100
AcDbSymbolTableRecord
100
AcDbDimStyleTableRecord
  2
AM_JIS
 70
     0
  4
"
 41
2.5
 42
0.0
 43
10.0
 44
1.0
 47
0.1
 48
0.1000000001
 73
     0
 74
     0
 77
     3
 78
     1
 79
     2
140
3.8
141
0.0
143
0.0393701
146
0.71
147
1.5
172
     1
176
   256
177
   256
178
     2
179
     1
271
     2
272
     2
275
     1
283
     0
284
     8
340
11
341
59
342
59
371
    -1
372
    -1
  0
DIMSTYLE
105
5F
330
A
100
AcDbSymbolTableRecord
100
AcDbDimStyleTableRecord
  2
AM_JIS$3
 70
     0
  4
"
 41
2.5
 42
0.0
 43
10.0
 44
1.0
 47
0.1
 48
0.1000000001
 73
     0
 77
     3
 78
     1
 79
     2
140
3.8
141
0.0
143
0.0393701
146
0.71
147
1.5
172
     1
176
   256
177
   256
178
     2
179
     1
271
     2
272
     2
275
     1
283
     0
284
     8
288
     1
289
     0
340
11
341
59
342
59
371
    -1
372
    -1
  0
DIMSTYLE
105
60
330
A
100
AcDbSymbolTableRecord
100
AcDbDimStyleTableRecord
  2
AM_JIS$4
 70
     0
  4
"
 41
2.5
 42
0.0
 43
10.0
 44
1.0
 47
0.1
 48
0.1000000001
 73
     0
 77
     3
 78
     1
 79
     2
140
3.8
141
0.0
143
0.0393701
146
0.71
147
1.5
172
     1
176
   256
177
   256
178
     2
179
     1
271
     2
272
     2
275
     1
283
     0
284
     8
288
     1
289
     0
340
11
341
59
342
59
371
    -1
372
    -1
  0
DIMSTYLE
105
61
330
A
100
AcDbSymbolTableRecord
100
AcDbDimStyleTableRecord
  2
AM_JIS$6
 70
     0
  4
"
 41
2.5
 42
0.0
 43
10.0
 44
1.0
 47
0.1
 48
0.1000000001
 73
     0
 74
     0
 78
     1
 79
     2
140
3.8
141
0.0
143
0.0393701
146
0.71
147
1.5
172
     1
176
   256
177
   256
178
     2
179
     1
271
     2
272
     2
275
     1
283
     0
284
     8
340
11
341
59
342
59
371
    -1
372
    -1
  0
DIMSTYLE
105
62
330
A
100
AcDbSymbolTableRecord
100
AcDbDimStyleTableRecord
  2
AM_JIS$7
 70
     0
  4
"
 41
2.5
 42
0.0
 43
10.0
 44
1.0
 47
0.1
 48
0.1000000001
 73
     0
 74
     0
 77
     3
 78
     1
 79
     2
140
5.0
141
0.0
143
0.0393701
146
0.71
147
1.5
172
     1
176
   256
177
   256
178
     2
179
     1
271
     2
272
     2
275
     1
283
     0
284
     8
340
11
341
59
342
59
371
    -1
372
    -1
  0
DIMSTYLE
105
63
330
A
100
AcDbSymbolTableRecord
100
AcDbDimStyleTableRecord
  2
AM_JIS$SF
 70
     0
  4
"
 41
2.5
 42
1.0
 43
10.0
 44
1.0
 47
0.1
 48
0.1
 73
     0
 74
     0
 75
     1
 76
     1
 77
     3
 78
     8
 79
     2
140
3.5
141
0.0
143
0.0393701
146
0.71
147
1.5
176
   256
177
   256
178
     2
271
     2
272
     3
274
     4
340
11
341
59
342
59
343
59
344
59
371
    -1
372
    -1
  0
DIMSTYLE
105
68
330
A
100
AcDbSymbolTableRecord
100
AcDbDimStyleTableRecord
  2
AM_JIS$SH
 70
     0
  4
"
 41
2.5
 42
1.0
 43
10.0
 44
1.0
 47
0.1
 48
0.1
 73
     0
 74
     0
 75
     1
 76
     1
 77
     3
 78
     8
 79
     2
140
3.5
141
0.0
143
0.0393701
144
2.0
146
0.71
147
1.5
173
     1
176
   256
177
   256
178
     2
271
     2
272
     3
274
     4
340
11
341
59
342
59
343
64
344
59
371
    -1
372
    -1
  0
DIMSTYLE
105
65F
330
A
100
AcDbSymbolTableRecord
100
AcDbDimStyleTableRecord
  2
STANDARD
 70
     0
340
11
  0
DIMSTYLE
105
18A8
102
{ACAD_REACTORS
330
35BFA
330
35C14
330
35C53
102
}
330
A
100
AcDbSymbolTableRecord
100
AcDbDimStyleTableRecord
  2
AM_JIS$0
 70
     0
  4
"
 41
2.5
 42
0.0
 43
10.0
 44
1.0
 47
0.1
 48
0.1000000001
 73
     0
 74
     0
 77
     3
 78
     1
 79
     2
140
3.8
141
0.0
143
0.0393701
146
0.71
147
1.5
172
     1
176
     3
177
     3
178
     2
271
     2
272
     2
275
     1
283
     0
284
     8
289
     0
340
11
341
59
342
59
371
    13
372
    13
  0
DIMSTYLE
105
18A9
102
{ACAD_REACTORS
330
35C54
102
}
330
A
100
AcDbSymbolTableRecord
100
AcDbDimStyleTableRecord
  2
AM_JIS$2
 70
     0
  4
"
 41
2.5
 42
0.0
 43
10.0
 44
1.0
 47
0.1
 48
0.1000000001
 73
     0
 74
     0
 77
     3
 78
     1
 79
     2
140
3.8
141
0.0
143
0.0393701
146
0.71
147
1.5
172
     1
176
     3
177
     3
178
     2
271
     2
272
     2
275
     1
283
     0
284
     8
289
     0
340
11
341
59
342
59
371
    13
372
    13
  0
DIMSTYLE
105
233E4
330
A
100
AcDbSymbolTableRecord
100
AcDbDimStyleTableRecord
  2
AM_ISO
 70
     0
  4
"
 41
2.5
 42
1.0
 43
10.0
 44
1.0
 47
0.1
 48
0.1
 73
     0
 74
     0
 77
     1
 78
     8
 79
     2
140
3.5
141
0.0
143
0.0393701
146
0.71
147
1.5
172
     1
176
   256
177
   256
178
     2
271
     2
272
     3
274
     4
283
     0
284
     8
340
11
371
    -1
372
    -1
  0
DIMSTYLE
105
233E5
330
A
100
AcDbSymbolTableRecord
100
AcDbDimStyleTableRecord
  2
AM_ISO$3
 70
     0
  4
"
 41
2.5
 42
1.0
 43
10.0
 44
1.0
 47
0.1
 48
0.1
 73
     0
 77
     1
 78
     8
 79
     2
140
3.5
141
0.0
143
0.0393701
146
0.71
147
1.5
176
   256
177
   256
178
     2
271
     2
272
     3
274
     4
283
     0
284
     8
288
     1
289
     0
340
11
371
    -1
372
    -1
  0
DIMSTYLE
105
233E6
330
A
100
AcDbSymbolTableRecord
100
AcDbDimStyleTableRecord
  2
AM_ISO$4
 70
     0
  4
"
 41
2.5
 42
1.0
 43
10.0
 44
1.0
 47
0.1
 48
0.1
 73
     0
 77
     1
 78
     8
 79
     2
140
3.5
141
0.0
143
0.0393701
146
0.71
147
1.5
176
   256
177
   256
178
     2
271
     2
272
     3
274
     4
283
     0
284
     8
288
     1
289
     0
340
11
371
    -1
372
    -1
  0
DIMSTYLE
105
233E7
330
A
100
AcDbSymbolTableRecord
100
AcDbDimStyleTableRecord
  2
AM_ISO$6
 70
     0
  4
"
 41
2.5
 42
1.0
 43
10.0
 44
1.0
 47
0.1
 48
0.1
 73
     0
 74
     0
 78
     8
 79
     2
140
3.5
141
0.0
143
0.0393701
146
0.71
147
1.5
172
     1
176
   256
177
   256
178
     2
271
     2
272
     3
274
     4
283
     0
284
     8
340
11
371
    -1
372
    -1
  0
DIMSTYLE
105
233E8
330
A
100
AcDbSymbolTableRecord
100
AcDbDimStyleTableRecord
  2
AM_ISO$7
 70
     0
  4
"
 41
2.5
 42
1.0
 43
10.0
 44
1.0
 47
0.1
 48
0.1
 73
     0
 74
     0
 77
     1
 78
     8
 79
     2
140
5.0
141
0.0
143
0.0393701
146
0.71
147
1.5
172
     1
176
   256
177
   256
178
     2
271
     2
272
     3
274
     4
283
     0
284
     8
340
11
371
    -1
372
    -1
  0
DIMSTYLE
105
233E9
330
A
100
AcDbSymbolTableRecord
100
AcDbDimStyleTableRecord
  2
AM_ISO$SF
 70
     0
  4
"
 41
2.5
 42
1.0
 43
10.0
 44
1.0
 47
0.1
 48
0.1
 73
     0
 74
     0
 75
     1
 76
     1
 77
     1
 78
     8
 79
     2
140
3.5
141
0.0
143
0.0393701
146
0.71
147
1.5
172
     1
176
   256
177
   256
178
     2
271
     2
272
     3
274
     4
283
     0
284
     8
340
11
371
    -1
372
    -1
  0
DIMSTYLE
105
233EA
330
A
100
AcDbSymbolTableRecord
100
AcDbDimStyleTableRecord
  2
AM_ISO$SH
 70
     0
  4
"
 41
2.5
 42
1.0
 43
10.0
 44
1.0
 47
0.1
 48
0.1
 73
     0
 74
     0
 75
     1
 76
     1
 77
     1
 78
     8
 79
     2
140
3.5
141
0.0
143
0.0393701
144
2.0
146
0.71
147
1.5
172
     1
173
     1
176
   256
177
   256
178
     2
271
     2
272
     3
274
     4
283
     0
284
     8
340
11
343
64
371
    -1
372
    -1
  0
ENDTAB
  0
TABLE
  2
BLOCK_RECORD
  5
1
330
0
100
AcDbSymbolTable
 70
     8
  0
BLOCK_RECORD
  5
1F
102
{ACAD_XDICTIONARY
360
165
102
}
330
1
100
AcDbSymbolTableRecord
100
AcDbBlockTableRecord
  2
*Model_Space
340
22
  0
BLOCK_RECORD
  5
1B
330
1
100
AcDbSymbolTableRecord
100
AcDbBlockTableRecord
  2
*Paper_Space
340
1E
  0
BLOCK_RECORD
  5
23
330
1
100
AcDbSymbolTableRecord
100
AcDbBlockTableRecord
  2
*Paper_Space0
340
26
  0
BLOCK_RECORD
  5
59
330
1
100
AcDbSymbolTableRecord
100
AcDbBlockTableRecord
  2
_Open30
340
0
102
{BLKREFS
331
35FE7
331
35FE8
331
35FF0
331
35FF1
331
35FF9
331
35FFA
331
3600B
331
3600C
102
}
  0
BLOCK_RECORD
  5
64
330
1
100
AcDbSymbolTableRecord
100
AcDbBlockTableRecord
  2
GENAXEH
340
0
  0
BLOCK_RECORD
  5
23319
330
1
100
AcDbSymbolTableRecord
100
AcDbBlockTableRecord
  2
*U3
340
0
  0
BLOCK_RECORD
  5
35E76
330
1
100
AcDbSymbolTableRecord
100
AcDbBlockTableRecord
  2
*D4
340
0
  0
BLOCK_RECORD
  5
35E80
330
1
100
AcDbSymbolTableRecord
100
AcDbBlockTableRecord
  2
*D5
340
0
  0
BLOCK_RECORD
  5
35E8A
330
1
100
AcDbSymbolTableRecord
100
AcDbBlockTableRecord
  2
*D6
340
0
  0
BLOCK_RECORD
  5
35E94
330
1
100
AcDbSymbolTableRecord
100
AcDbBlockTableRecord
  2
*D7
340
0
  0
ENDTAB
  0
ENDSEC
  0
SECTION
  2
BLOCKS
  0
BLOCK
  5
20
330
1F
100
AcDbEntity
  8
0
100
AcDbBlockBegin
  2
*Model_Space
 70
     0
 71
     0
 10
0.0
 20
0.0
 30
0.0
  3
*Model_Space
  1

  0
ENDBLK
  5
21
330
1F
100
AcDbEntity
  8
0
100
AcDbBlockEnd
  0
BLOCK
  5
1C
330
1B
100
AcDbEntity
 67
     1
  8
0
100
AcDbBlockBegin
  2
*Paper_Space
 70
     0
 71
     0
 10
0.0
 20
0.0
 30
0.0
  3
*Paper_Space
  1

  0
ENDBLK
  5
1D
330
1B
100
AcDbEntity
 67
     1
  8
0
100
AcDbBlockEnd
  0
BLOCK
  5
24
330
23
100
AcDbEntity
  8
0
100
AcDbBlockBegin
  2
*Paper_Space0
 70
     0
 71
     0
 10
0.0
 20
0.0
 30
0.0
  3
*Paper_Space0
  1

  0
ENDBLK
  5
25
330
23
100
AcDbEntity
  8
0
100
AcDbBlockEnd
  0
BLOCK
  5
5D
330
59
100
AcDbEntity
  8
0
100
AcDbBlockBegin
  2
_Open30
 70
     0
 71
     0
 10
0.0
 20
0.0
 30
0.0
  3
_Open30
  1

  0
LINE
  5
5A
330
59
100
AcDbEntity
  8
0
 62
     0
370
    -2
100
AcDbLine
 10
-1.0
 20
0.26794919
 30
0.0
 11
0.0
 21
0.0
 31
0.0
  0
LINE
  5
5B
330
59
100
AcDbEntity
  8
0
 62
     0
370
    -2
100
AcDbLine
 10
0.0
 20
0.0
 30
0.0
 11
-1.0
 21
-0.26794919
 31
0.0
  0
LINE
  5
5C
330
59
100
AcDbEntity
  8
0
 62
     0
370
    -2
100
AcDbLine
 10
0.0
 20
0.0
 30
0.0
 11
-1.0
 21
0.0
 31
0.0
  0
ENDBLK
  5
5E
330
59
100
AcDbEntity
  8
0
100
AcDbBlockEnd
  0
BLOCK
  5
66
330
64
100
AcDbEntity
  8
0
100
AcDbBlockBegin
  2
GENAXEH
 70
     0
 71
     0
 10
0.0
 20
0.0
 30
0.0
  3
GENAXEH
  1

  0
LINE
  5
65
330
64
100
AcDbEntity
  8
0
100
AcDbLine
 10
-1.0
 20
0.0
 30
0.0
 11
1.0
 21
0.0
 31
0.0
  0
ENDBLK
  5
67
330
64
100
AcDbEntity
  8
0
100
AcDbBlockEnd
  0
BLOCK
  5
2331A
330
23319
100
AcDbEntity
  8
0
100
AcDbBlockBegin
  2
*U3
 70
     1
 71
     0
 10
0.0
 20
0.0
 30
0.0
  3
*U3
  1

  0
ENDBLK
  5
2331B
330
23319
100
AcDbEntity
  8
0
100
AcDbBlockEnd
  0
BLOCK
  5
35EC4
330
35E76
100
AcDbEntity
  8
0
100
AcDbBlockBegin
  2
*D4
 70
     1
 71
     0
 10
0.0
 20
0.0
 30
0.0
  3
*D4
  1

  0
LINE
  5
35FE4
330
35E76
100
AcDbEntity
  8
AM_5
 62
     3
370
    13
100
AcDbLine
 10
0.0
 20
-4.651820149539503
 30
0.0
 11
-0.0000000000000012
 21
-23.73035378183343
 31
0.0
  0
LINE
  5
35FE5
330
35E76
100
AcDbEntity
  8
AM_5
 62
     3
370
    13
100
AcDbLine
 10
65.0
 20
13.5
 30
0.0
 11
65.0
 21
-23.73035378183343
 31
0.0
  0
LINE
  5
35FE6
330
35E76
100
AcDbEntity
  8
AM_5
 62
     3
370
    13
100
AcDbLine
 10
2.499999999999999
 20
-22.73035378183343
 30
0.0
 11
62.5
 21
-22.73035378183343
 31
0.0
  0
INSERT
  5
35FE7
330
35E76
100
AcDbEntity
  8
AM_5
 62
     3
370
    13
100
AcDbBlockReference
  2
_Open30
 10
-0.0000000000000011
 20
-22.73035378183343
 30
0.0
 41
2.5
 42
2.5
 43
2.5
 50
180.0
  0
INSERT
  5
35FE8
330
35E76
100
AcDbEntity
  8
AM_5
 62
     3
370
    13
100
AcDbBlockReference
  2
_Open30
 10
65.0
 20
-22.73035378183343
 30
0.0
 41
2.5
 42
2.5
 43
2.5
  0
MTEXT
  5
35FE9
330
35E76
100
AcDbEntity
  8
AM_5
 62
     2
100
AcDbMText
 10
32.5
 20
-19.33035378183343
 30
0.0
 40
3.8
 41
0.0
 71
     5
 72
     1
  1
65
 73
     1
 44
1.0
  0
POINT
  5
35FEA
330
35E76
100
AcDbEntity
  8
Defpoints
 62
     0
100
AcDbPoint
 10
0.0
 20
-4.651820149539503
 30
0.0
  0
POINT
  5
35FEB
330
35E76
100
AcDbEntity
  8
Defpoints
 62
     0
100
AcDbPoint
 10
65.0
 20
13.5
 30
0.0
  0
POINT
  5
35FEC
330
35E76
100
AcDbEntity
  8
Defpoints
 62
     0
100
AcDbPoint
 10
65.0
 20
-22.73035378183343
 30
0.0
  0
ENDBLK
  5
35EC5
330
35E76
100
AcDbEntity
  8
0
100
AcDbBlockEnd
  0
BLOCK
  5
35EC6
330
35E80
100
AcDbEntity
  8
0
100
AcDbBlockBegin
  2
*D5
 70
     1
 71
     0
 10
0.0
 20
0.0
 30
0.0
  3
*D5
  1

  0
LINE
  5
35FED
330
35E80
100
AcDbEntity
  8
AM_5
 62
     3
370
    13
100
AcDbLine
 10
65.0
 20
76.5
 30
0.0
 11
122.195674711576
 21
76.49999999999999
 31
0.0
  0
LINE
  5
35FEE
330
35E80
100
AcDbEntity
  8
AM_5
 62
     3
370
    13
100
AcDbLine
 10
65.0
 20
13.5
 30
0.0
 11
122.195674711576
 21
13.49999999999998
 31
0.0
  0
LINE
  5
35FEF
330
35E80
100
AcDbEntity
  8
AM_5
 62
     3
370
    13
100
AcDbLine
 10
121.195674711576
 20
73.99999999999999
 30
0.0
 11
121.195674711576
 21
15.99999999999998
 31
0.0
  0
INSERT
  5
35FF0
330
35E80
100
AcDbEntity
  8
AM_5
 62
     3
370
    13
100
AcDbBlockReference
  2
_Open30
 10
121.195674711576
 20
76.49999999999999
 30
0.0
 41
2.5
 42
2.5
 43
2.5
 50
90.0
  0
INSERT
  5
35FF1
330
35E80
100
AcDbEntity
  8
AM_5
 62
     3
370
    13
100
AcDbBlockReference
  2
_Open30
 10
121.195674711576
 20
13.49999999999998
 30
0.0
 41
2.5
 42
2.5
 43
2.5
 50
270.0
  0
MTEXT
  5
35FF2
330
35E80
100
AcDbEntity
  8
AM_5
 62
     2
100
AcDbMText
 10
117.795674711576
 20
45.00000000000001
 30
0.0
 40
3.8
 41
0.0
 71
     5
 72
     1
  1
%%c63
 11
6.123031769111886E-17
 21
1.0
 31
0.0
 73
     1
 44
1.0
  0
POINT
  5
35FF3
330
35E80
100
AcDbEntity
  8
Defpoints
 62
     0
100
AcDbPoint
 10
65.0
 20
76.5
 30
0.0
  0
POINT
  5
35FF4
330
35E80
100
AcDbEntity
  8
Defpoints
 62
     0
100
AcDbPoint
 10
65.0
 20
13.5
 30
0.0
  0
POINT
  5
35FF5
330
35E80
100
AcDbEntity
  8
Defpoints
 62
     0
100
AcDbPoint
 10
121.195674711576
 20
13.49999999999998
 30
0.0
  0
ENDBLK
  5
35EC7
330
35E80
100
AcDbEntity
  8
0
100
AcDbBlockEnd
  0
BLOCK
  5
35EC8
330
35E8A
100
AcDbEntity
  8
0
100
AcDbBlockBegin
  2
*D6
 70
     1
 71
     0
 10
0.0
 20
0.0
 30
0.0
  3
*D6
  1

  0
LINE
  5
35FF6
330
35E8A
100
AcDbEntity
  8
AM_5
 62
     3
370
    13
100
AcDbLine
 10
-4.532715215226745
 20
45.0
 30
0.0
 11
-14.72959417068795
 21
45.0
 31
0.0
  0
LINE
  5
35FF7
330
35E8A
100
AcDbEntity
  8
AM_5
 62
     3
370
    13
100
AcDbLine
 10
-5.190742844615784
 20
0.0
 30
0.0
 11
-14.72959417068796
 21
0.0000000000000027
 31
0.0
  0
LINE
  5
35FF8
330
35E8A
100
AcDbEntity
  8
AM_5
 62
     3
370
    13
100
AcDbLine
 10
-13.72959417068795
 20
42.5
 30
0.0
 11
-13.72959417068796
 21
2.500000000000003
 31
0.0
  0
INSERT
  5
35FF9
330
35E8A
100
AcDbEntity
  8
AM_5
 62
     3
370
    13
100
AcDbBlockReference
  2
_Open30
 10
-13.72959417068795
 20
45.0
 30
0.0
 41
2.5
 42
2.5
 43
2.5
 50
90.0
  0
INSERT
  5
35FFA
330
35E8A
100
AcDbEntity
  8
AM_5
 62
     3
370
    13
100
AcDbBlockReference
  2
_Open30
 10
-13.72959417068796
 20
0.0000000000000024
 30
0.0
 41
2.5
 42
2.5
 43
2.5
 50
270.0
  0
MTEXT
  5
35FFB
330
35E8A
100
AcDbEntity
  8
AM_5
 62
     2
100
AcDbMText
 10
-17.12959417068796
 20
22.5
 30
0.0
 40
3.8
 41
0.0
 71
     5
 72
     1
  1
45
 11
6.123031769111886E-17
 21
1.0
 31
0.0
 73
     1
 44
1.0
  0
POINT
  5
35FFC
330
35E8A
100
AcDbEntity
  8
Defpoints
 62
     0
100
AcDbPoint
 10
-4.532715215226745
 20
45.0
 30
0.0
  0
POINT
  5
35FFD
330
35E8A
100
AcDbEntity
  8
Defpoints
 62
     0
100
AcDbPoint
 10
-5.190742844615784
 20
0.0
 30
0.0
  0
POINT
  5
35FFE
330
35E8A
100
AcDbEntity
  8
Defpoints
 62
     0
100
AcDbPoint
 10
-13.72959417068796
 20
0.0000000000000024
 30
0.0
  0
ENDBLK
  5
35EC9
330
35E8A
100
AcDbEntity
  8
0
100
AcDbBlockEnd
  0
BLOCK
  5
35ECA
330
35E94
100
AcDbEntity
  8
0
100
AcDbBlockBegin
  2
*D7
 70
     1
 71
     0
 10
0.0
 20
0.0
 30
0.0
  3
*D7
  1

  0
LINE
  5
36009
330
35E94
100
AcDbEntity
  8
AM_5
 62
     3
370
    13
100
AcDbLine
 10
0.0
 20
-4.651820149539504
 30
0.0
 11
-0.0000000000000036
 21
-15.63840910622603
 31
0.0
  0
ARC
  5
3600A
330
35E94
100
AcDbEntity
  8
AM_5
 62
     3
370
    13
100
AcDbCircle
 10
-0.0000000000000002
 20
-0.5187499485972563
 30
0.0
 40
14.11965915762877
100
AcDbArc
 50
280.157980028022
 51
17.34201997197857
  0
INSERT
  5
3600B
330
35E94
100
AcDbEntity
  8
AM_5
 62
     3
370
    13
100
AcDbBlockReference
  2
_Open30
 10
-0.0000000000000027
 20
-14.63840910622603
 30
0.0
 41
2.5
 42
2.5
 43
2.5
 50
185.078990014011
  0
INSERT
  5
3600C
330
35E94
100
AcDbEntity
  8
AM_5
 62
     3
370
    13
100
AcDbBlockReference
  2
_Open30
 10
12.52429063360074
 20
6.000983086789301
 30
0.0
 41
2.5
 42
2.5
 43
2.5
 50
112.4210099859896
  0
MTEXT
  5
3600D
330
35E94
100
AcDbEntity
  8
AM_5
 62
     2
100
AcDbMText
 10
10.35540532339986
 20
-5.98243133236771
 30
0.0
 40
3.8
 41
0.0
 71
     5
 72
     1
  1
117°30'
 73
     1
 44
1.0
  0
POINT
  5
3600E
330
35E94
100
AcDbEntity
  8
Defpoints
 62
     0
100
AcDbPoint
 10
8.917671051728426
 20
-11.46589193821148
 30
0.0
  0
POINT
  5
3600F
330
35E94
100
AcDbEntity
  8
Defpoints
 62
     0
100
AcDbPoint
 10
1.158909437757984
 20
0.084540119273015
 30
0.0
  0
POINT
  5
36010
330
35E94
100
AcDbEntity
  8
Defpoints
 62
     0
100
AcDbPoint
 10
0.0
 20
0.8191865462955549
 30
0.0
  0
POINT
  5
36011
330
35E94
100
AcDbEntity
  8
Defpoints
 62
     0
100
AcDbPoint
 10
0.0
 20
-4.651820149539504
 30
0.0
  0
POINT
  5
36012
330
35E94
100
AcDbEntity
  8
Defpoints
 62
     0
100
AcDbPoint
 10
13.15661058467231
 20
6.330148018723662
 30
0.0
  0
ENDBLK
  5
35ECB
330
35E94
100
AcDbEntity
  8
0
100
AcDbBlockEnd
  0
ENDSEC
  0
SECTION
  2
ENTITIES
  0
TEXT
  5
1E47B
330
1F
100
AcDbEntity
  8
AM_6
100
AcDbText
 10
151.2162403638389
 20
-76.45697250710231
 30
0.0
 40
3.0
  1

100
AcDbText
  0
TEXT
  5
1E47F
330
1F
100
AcDbEntity
  8
AM_6
100
AcDbText
 10
163.4073958784107
 20
-76.45697250710231
 30
0.0
 40
3.0
  1

100
AcDbText
  0
TEXT
  5
30710
330
1F
100
AcDbEntity
  8
AM_0
100
AcDbText
 10
-88.77876936850305
 20
-151.9449939887706
 30
0.0
 40
5.0
  1
H63A-WH-DVPNR-DX16
100
AcDbText
  0
LINE
  5
35AF3
330
1F
100
AcDbEntity
  8
AM_0
100
AcDbLine
 10
45.26684821631352
 20
71.5
 30
0.0
 11
46.125
 21
71.5
 31
0.0
  0
LINE
  5
35AF4
330
1F
100
AcDbEntity
  8
AM_0
100
AcDbLine
 10
47.875
 20
71.5
 30
0.0
 11
46.125
 21
71.5
 31
0.0
  0
LINE
  5
35AF5
330
1F
100
AcDbEntity
  8
AM_0
100
AcDbLine
 10
47.875
 20
71.5
 30
0.0
 11
48.73315178368648
 21
71.5
 31
0.0
  0
LINE
  5
35AF6
330
1F
100
AcDbEntity
  8
AM_0
100
AcDbLine
 10
43.62250092524118
 20
75.18691769624729
 30
0.0
 11
39.0
 21
75.18691769624729
 31
0.0
  0
SPLINE
  5
35AF7
330
1F
100
AcDbEntity
  8
AM_0
100
AcDbSpline
210
0.0
220
0.0
230
1.0
 70
    12
 71
     2
 72
     6
 73
     3
 74
     0
 42
0.0000000001
 43
0.0000000001
 40
0.0
 40
0.0
 40
0.0
 40
3.113143699890185
 40
3.113143699890185
 40
3.113143699890185
 10
45.125
 20
72.4603534582684
 30
0.0
 41
1.0
 10
44.40928258898305
 20
73.76489463188591
 30
0.0
 41
1.001020531935521
 10
43.62250092524118
 20
75.18691769624729
 30
0.0
 41
1.0
  0
ARC
  5
35AF8
330
1F
100
AcDbEntity
  8
AM_0
100
AcDbCircle
 10
46.22706381456828
 20
72.04086158464904
 30
0.0
 40
1.102064085650231
100
AcDbArc
 50
179.9598130706537
 51
209.3912990857467
  0
ARC
  5
35AF9
330
1F
100
AcDbEntity
  8
AM_0
100
AcDbCircle
 10
46.18393985425428
 20
17.65110041371824
 30
0.0
 40
1.058952913756587
100
AcDbArc
 50
126.7129507495303
 51
180.2845529351275
  0
SPLINE
  5
35AFA
330
1F
100
AcDbEntity
  8
AM_0
100
AcDbSpline
210
0.0
220
0.0
230
1.0
 70
    12
 71
     2
 72
     6
 73
     3
 74
     0
 42
0.0000000001
 43
0.0000000001
 40
0.0004629399900766
 40
0.0004629399900766
 40
0.0004629399900766
 40
3.089518613366919
 40
3.089518613366919
 40
3.089518613366919
 10
43.62250092524084
 20
14.53280452683611
 30
0.0
 41
1.00000029977658
 10
44.40856857019367
 20
15.94046729198888
 30
0.0
 41
1.001000308211577
 10
45.125
 20
17.23183455730128
 30
0.0
 41
1.00000032891449
  0
LINE
  5
35AFB
330
1F
100
AcDbEntity
  8
AM_0
100
AcDbLine
 10
39.0
 20
14.53280452683612
 30
0.0
 11
43.62250092524118
 21
14.53280452683612
 31
0.0
  0
LINE
  5
35AFC
330
1F
100
AcDbEntity
  8
AM_0
100
AcDbLine
 10
47.875
 20
18.5
 30
0.0
 11
48.44910893214728
 21
18.5
 31
0.0
  0
LINE
  5
35AFD
330
1F
100
AcDbEntity
  8
AM_0
100
AcDbLine
 10
46.125
 20
18.5
 30
0.0
 11
47.875
 21
18.5
 31
0.0
  0
LINE
  5
35AFE
330
1F
100
AcDbEntity
  8
AM_0
100
AcDbLine
 10
45.55089106785363
 20
18.5
 30
0.0
 11
46.125
 21
18.5
 31
0.0
  0
ARC
  5
35AFF
330
1F
100
AcDbEntity
  8
AM_0
100
AcDbCircle
 10
75.17513183672509
 20
92.37263673449704
 30
0.0
 40
23.9594551963814
100
AcDbArc
 50
256.2984766703751
 51
277.9767128774108
  0
ARC
  5
35B00
330
1F
100
AcDbEntity
  8
AM_0
100
AcDbCircle
 10
75.17513183672509
 20
-2.372636734497092
 30
0.0
 40
23.95945519638139
100
AcDbArc
 50
82.02328712258925
 51
103.7015233296248
  0
SPLINE
  5
35B01
330
1F
100
AcDbEntity
  8
AM_0
100
AcDbSpline
210
0.0
220
0.0
230
1.0
 70
     8
 71
     3
 72
     8
 73
     4
 74
     0
 42
0.0000000001
 43
0.0000000001
 40
2.048349944607707
 40
2.048349944607707
 40
2.048349944607707
 40
2.048349944607707
 40
2.082808961106547
 40
2.082808961106547
 40
2.082808961106547
 40
2.082808961106547
 10
96.99955494773894
 20
24.70416933260179
 30
0.0
 10
96.99985439282136
 20
24.71593667857445
 30
0.0
 10
97.0
 20
24.7275777357317
 30
0.0
 10
97.0
 20
24.73906407456519
 30
0.0
  0
SPLINE
  5
35B02
330
1F
100
AcDbEntity
  8
AM_0
100
AcDbSpline
210
0.0
220
0.0
230
1.0
 70
     8
 71
     3
 72
     8
 73
     4
 74
     0
 42
0.0000000001
 43
0.0000000001
 40
5.80931992843316
 40
5.80931992843316
 40
5.80931992843316
 40
5.80931992843316
 40
5.823322112792894
 40
5.823322112792894
 40
5.823322112792894
 40
5.823322112792894
 10
97.0
 20
65.28191457645238
 30
0.0
 10
97.0
 20
65.28658197123872
 30
0.0
 10
96.99997593866465
 20
65.29127491188041
 30
0.0
 10
96.99992720870978
 20
65.29599149296695
 30
0.0
  0
SPLINE
  5
35B03
330
1F
100
AcDbEntity
  8
AM_0
100
AcDbSpline
210
0.0
220
0.0
230
1.0
 70
     8
 71
     3
 72
    16
 73
    12
 74
     0
 42
0.0000000001
 43
0.0000000001
 40
-1.965007727733835
 40
-1.965007727733835
 40
-1.965007727733835
 40
-1.965007727733835
 40
-1.602152014354634
 40
-1.602152014354634
 40
-0.9617068588456064
 40
-0.9617068588456064
 40
-0.4733245765258282
 40
-0.4733245765258282
 40
-0.1927584624124154
 40
-0.1927584624124154
 40
-0.0001921708555565
 40
-0.0001921708555565
 40
-0.0001921708555565
 40
-0.0001921708555565
 10
96.99992720870978
 20
65.2961605905129
 30
0.0
 10
96.99854979675729
 20
65.38573514765716
 30
0.0
 10
96.97774119605037
 20
65.46895818018942
 30
0.0
 10
96.86880090606701
 20
65.67167276063441
 30
0.0
 10
96.74984921728355
 20
65.75496673622996
 30
0.0
 10
96.50527917454565
 20
65.8398134156086
 30
0.0
 10
96.38832138890484
 20
65.85632464283293
 30
0.0
 10
96.20169733385956
 20
65.86802084104141
 30
0.0
 10
96.12473025808049
 20
65.86965914293518
 30
0.0
 10
95.98414568702992
 20
65.87031290871795
 30
0.0
 10
95.92359146112631
 20
65.87008831058478
 30
0.0
 10
95.85992514033296
 20
65.86999999999983
 30
0.0
  0
SPLINE
  5
35B04
330
1F
100
AcDbEntity
  8
AM_0
100
AcDbSpline
210
0.0
220
0.0
230
1.0
 70
     8
 71
     3
 72
    16
 73
    12
 74
     0
 42
0.0000000001
 43
0.0000000001
 40
-4.40429224599759
 40
-4.40429224599759
 40
-4.40429224599759
 40
-4.40429224599759
 40
-4.141910802677585
 40
-4.141910802677585
 40
-3.871634509130126
 40
-3.871634509130126
 40
-3.14310442813097
 40
-3.14310442813097
 40
-2.420961954899249
 40
-2.420961954899249
 40
-1.953365045766561
 40
-1.953365045766561
 40
-1.953365045766561
 40
-1.953365045766561
 10
95.85992514033296
 20
24.13000000000005
 30
0.0
 10
95.928284902202
 20
24.13007661983005
 30
0.0
 10
95.99324329136289
 20
24.130273889541
 30
0.0
 10
96.1176472909292
 20
24.13221375407369
 30
0.0
 10
96.17686423591022
 20
24.13407555933458
 30
0.0
 10
96.37743886598946
 20
24.14618374047217
 30
0.0
 10
96.52105090558325
 20
24.1671974000655
 30
0.0
 10
96.76952751202498
 20
24.26981595607953
 30
0.0
 10
96.86902564178672
 20
24.34886348473805
 30
0.0
 10
96.97133516995746
 20
24.52767990632395
 30
0.0
 10
96.99598991728726
 20
24.61045606364854
 30
0.0
 10
96.99955494773894
 20
24.70404831686204
 30
0.0
  0
ARC
  5
35B05
330
1F
100
AcDbEntity
  8
AM_0
100
AcDbCircle
 10
47.77293618543172
 20
72.04086158464904
 30
0.0
 40
1.102064085651275
100
AcDbArc
 50
330.6087009142617
 51
0.0401869293332346
  0
SPLINE
  5
35B06
330
1F
100
AcDbEntity
  8
AM_0
100
AcDbSpline
210
0.0
220
0.0
230
1.0
 70
    12
 71
     2
 72
     6
 73
     3
 74
     0
 42
0.0000000001
 43
0.0000000001
 40
0.0
 40
0.0
 40
0.0
 40
3.113143699890207
 40
3.113143699890207
 40
3.113143699890207
 10
50.37749907475973
 20
75.18691769624729
 30
0.0
 41
1.0
 10
49.59071741102878
 20
73.76489463190694
 30
0.0
 41
1.001020531934115
 10
48.875
 20
72.4603534582684
 30
0.0
 41
1.0
  0
LINE
  5
35B07
330
1F
100
AcDbEntity
  8
AM_0
100
AcDbLine
 10
51.0
 20
75.18691769624729
 30
0.0
 11
50.37749907475973
 21
75.18691769624729
 31
0.0
  0
ARC
  5
35B08
330
1F
100
AcDbEntity
  8
AM_0
100
AcDbCircle
 10
50.76270651493906
 20
108.3133514387837
 30
0.0
 40
33.12728362991341
100
AcDbArc
 50
270.4104179389327
 51
286.1911316600853
  0
ARC
  5
35B09
330
1F
100
AcDbEntity
  8
AM_0
100
AcDbCircle
 10
47.81606014574572
 20
17.65110041371733
 30
0.0
 40
1.058952913757433
100
AcDbArc
 50
359.7154470648854
 51
53.28704925043718
  0
SPLINE
  5
35B0A
330
1F
100
AcDbEntity
  8
AM_0
100
AcDbSpline
210
0.0
220
0.0
230
1.0
 70
     8
 71
     3
 72
     8
 73
     4
 74
     0
 42
0.0000000001
 43
0.0000000001
 40
1.776340743961663
 40
1.776340743961663
 40
1.776340743961663
 40
1.776340743961663
 40
2.063575594279487
 40
2.063575594279487
 40
2.063575594279487
 40
2.063575594279487
 10
48.875
 20
24.69605949575362
 30
0.0
 10
48.875
 20
24.79180444585927
 30
0.0
 10
48.86761371479679
 20
24.89655484404284
 30
0.0
 10
48.85145332982665
 20
25.0
 30
0.0
  0
LINE
  5
35B0B
330
1F
100
AcDbEntity
  8
AM_0
100
AcDbLine
 10
48.85145332982665
 20
25.0
 30
0.0
 11
48.875
 21
25.0
 31
0.0
  0
ARC
  5
35B0C
330
1F
100
AcDbEntity
  8
AM_0
100
AcDbCircle
 10
46.16467654777534
 20
27.48690524048649
 30
0.0
 40
6.647400590745968
100
AcDbArc
 50
201.9697455278659
 51
247.5156208110631
  0
LINE
  5
35B0D
330
1F
100
AcDbEntity
  8
AM_0
100
AcDbLine
 10
40.0
 20
25.0
 30
0.0
 11
43.62250092524118
 21
25.0
 31
0.0
  0
LINE
  5
35B0E
330
1F
100
AcDbEntity
  8
AM_0
100
AcDbLine
 10
43.62250092524118
 20
25.0
 30
0.0
 11
45.125
 21
25.0
 31
0.0
  0
LINE
  5
35B0F
330
1F
100
AcDbEntity
  8
AM_0
100
AcDbLine
 10
45.125
 20
25.0
 30
0.0
 11
45.12572598845964
 21
25.0
 31
0.0
  0
SPLINE
  5
35B10
330
1F
100
AcDbEntity
  8
AM_0
100
AcDbSpline
210
0.0
220
0.0
230
1.0
 70
     8
 71
     3
 72
     8
 73
     4
 74
     0
 42
0.0000000001
 43
0.0000000001
 40
-1.94204761059973
 40
-1.94204761059973
 40
-1.94204761059973
 40
-1.94204761059973
 40
-1.894302822527507
 40
-1.894302822527507
 40
-1.894302822527507
 40
-1.894302822527507
 10
45.12572598845964
 20
25.0
 30
0.0
 10
45.12524096385005
 20
24.98202157333617
 30
0.0
 10
45.125
 20
24.96402092520475
 30
0.0
 10
45.125
 20
24.94600807601455
 30
0.0
  0
LINE
  5
35B11
330
1F
100
AcDbEntity
  8
AM_0
100
AcDbLine
 10
50.37749907475973
 20
14.53280452683612
 30
0.0
 11
52.0
 21
14.53280452683612
 31
0.0
  0
SPLINE
  5
35B12
330
1F
100
AcDbEntity
  8
AM_0
100
AcDbSpline
210
0.0
220
0.0
230
1.0
 70
    12
 71
     2
 72
     6
 73
     3
 74
     0
 42
0.0000000001
 43
0.0000000001
 40
0.0
 40
0.0
 40
0.0
 40
3.089056677703773
 40
3.089056677703773
 40
3.089056677703773
 10
48.875
 20
17.23183455730214
 30
0.0
 41
1.0
 10
49.59143142978542
 20
15.94046729202625
 30
0.0
 41
1.000999993556015
 10
50.37749907475973
 20
14.53280452683612
 30
0.0
 41
1.0
  0
ARC
  5
35B13
330
1F
100
AcDbEntity
  8
AM_0
100
AcDbCircle
 10
51.83576962509505
 20
-18.23930744120847
 30
0.0
 40
32.77252346802263
100
AcDbArc
 50
75.57466508419866
 51
89.71287695489545
  0
SPLINE
  5
35B14
330
1F
100
AcDbEntity
  8
AM_0
100
AcDbSpline
210
0.0
220
0.0
230
1.0
 70
    12
 71
     2
 72
     6
 73
     3
 74
     0
 42
0.0000000001
 43
0.0000000001
 40
0.0
 40
0.0
 40
0.0
 40
3.788582771409939
 40
3.788582771409939
 40
3.788582771409939
 10
50.37749907475973
 20
20.66381295272458
 30
0.0
 41
1.0
 10
49.56843903976642
 20
22.47765470838385
 30
0.0
 41
1.001661993538315
 10
48.875
 20
24.14164407118733
 30
0.0
 41
1.0
  0
LINE
  5
35B15
330
1F
100
AcDbEntity
  8
AM_0
100
AcDbLine
 10
48.875
 20
25.0
 30
0.0
 11
50.37749907475973
 21
25.0
 31
0.0
  0
LINE
  5
35B16
330
1F
100
AcDbEntity
  8
AM_0
100
AcDbLine
 10
48.875
 20
24.14164407118733
 30
0.0
 11
48.875
 21
24.69605949575362
 31
0.0
  0
LINE
  5
35B17
330
1F
100
AcDbEntity
  8
AM_0
100
AcDbLine
 10
45.125
 20
24.94600807601455
 30
0.0
 11
45.125
 21
24.38486953375468
 31
0.0
  0
ARC
  5
35B18
330
1F
100
AcDbEntity
  8
AM_0
100
AcDbCircle
 10
-8.380140007798218
 20
48.93761795919542
 30
0.0
 40
58.86966504488657
100
AcDbArc
 50
332.0494046668653
 51
335.3502823397773
  0
ARC
  5
35B19
330
1F
100
AcDbEntity
  8
AM_0
100
AcDbCircle
 10
53.36228254564048
 20
27.88641864247254
 30
0.0
 40
7.238142412492669
100
AcDbArc
 50
266.2452459749702
 51
336.4981347158563
  0
LINE
  5
35B1A
330
1F
100
AcDbEntity
  8
AM_0
100
AcDbLine
 10
50.37749907475973
 20
25.0
 30
0.0
 11
60.0
 21
25.0
 31
0.0
  0
LINE
  5
35B1B
330
1F
100
AcDbEntity
  8
AM_0
100
AcDbLine
 10
52.88828609634402
 20
20.66381295272458
 30
0.0
 11
50.37749907475973
 21
20.66381295272458
 31
0.0
  0
LINE
  5
35B1C
330
1F
100
AcDbEntity
  8
AM_0
100
AcDbLine
 10
91.0
 20
24.13000000000011
 30
0.0
 11
95.85992514033296
 21
24.13000000000005
 31
0.0
  0
LINE
  5
35B1D
330
1F
100
AcDbEntity
  8
AM_0
100
AcDbLine
 10
87.0
 20
65.86999999999989
 30
0.0
 11
95.85992514033296
 21
65.86999999999983
 31
0.0
  0
LINE
  5
35B1E
330
1F
100
AcDbEntity
  8
AM_11
  6
ACJISTGB
100
AcDbLine
 10
95.85992514033273
 20
22.22299625701709
 30
0.0
 11
91.0
 21
21.98000000000047
 31
0.0
  0
LINE
  5
35B1F
330
1F
100
AcDbEntity
  8
AM_0
100
AcDbLine
 10
69.5
 20
20.90499999999975
 30
0.0
 11
65.0
 21
20.68000000000029
 31
0.0
  0
LINE
  5
35B20
330
1F
100
AcDbEntity
  8
AM_11
  6
ACJISTGB
100
AcDbLine
 10
95.85992514033296
 20
67.77700374298337
 30
0.0
 11
87.0
 21
68.22000000000026
 31
0.0
  0
LINE
  5
35B21
330
1F
100
AcDbEntity
  8
AM_0
100
AcDbLine
 10
69.5
 20
69.09500000000026
 30
0.0
 11
65.0
 21
69.32000000000062
 31
0.0
  0
LINE
  5
35B22
330
1F
100
AcDbEntity
  8
AM_0
100
AcDbLine
 10
65.0
 20
13.5
 30
0.0
 11
60.0
 21
13.5
 31
0.0
  0
LINE
  5
35B23
330
1F
100
AcDbEntity
  8
AM_0
100
AcDbLine
 10
65.0
 20
76.5
 30
0.0
 11
60.0
 21
76.5
 31
0.0
  0
LINE
  5
35B24
330
1F
100
AcDbEntity
  8
AM_0
100
AcDbLine
 10
39.0
 20
75.18691769624729
 30
0.0
 11
39.0
 21
14.53280452683612
 31
0.0
  0
LINE
  5
35B25
330
1F
100
AcDbEntity
  8
AM_11
  6
ACJISTGB
100
AcDbLine
 10
97.0
 20
66.57850093632982
 30
0.0
 11
97.0
 21
65.28895312868855
 31
0.0
  0
LINE
  5
35B26
330
1F
100
AcDbEntity
  8
AM_0
100
AcDbLine
 10
91.0
 20
24.13000000000011
 30
0.0
 11
91.0
 21
21.98000000000047
 31
0.0
  0
LINE
  5
35B27
330
1F
100
AcDbEntity
  8
AM_0
100
AcDbLine
 10
87.0
 20
68.22000000000026
 30
0.0
 11
87.0
 21
65.86999999999989
 31
0.0
  0
LINE
  5
35B28
330
1F
100
AcDbEntity
  8
AM_0
100
AcDbLine
 10
47.875
 20
71.5
 30
0.0
 11
47.875
 21
18.5
 31
0.0
  0
LINE
  5
35B29
330
1F
100
AcDbEntity
  8
AM_0
100
AcDbLine
 10
43.62250092524118
 20
21.34481457703623
 30
0.0
 11
43.62250092524118
 21
14.53280452683612
 31
0.0
  0
LINE
  5
35B2A
330
1F
100
AcDbEntity
  8
AM_0
100
AcDbLine
 10
43.62250092524118
 20
75.18691769624729
 30
0.0
 11
43.62250092524118
 21
25.0
 31
0.0
  0
LINE
  5
35B2B
330
1F
100
AcDbEntity
  8
AM_0
100
AcDbLine
 10
46.125
 20
71.5
 30
0.0
 11
46.125
 21
18.5
 31
0.0
  0
LINE
  5
35B2C
330
1F
100
AcDbEntity
  8
AM_0
100
AcDbLine
 10
45.125
 20
72.4603534582684
 30
0.0
 11
45.125
 21
25.0
 31
0.0
  0
LINE
  5
35B2D
330
1F
100
AcDbEntity
  8
AM_0
100
AcDbLine
 10
50.37749907475973
 20
20.66381295272458
 30
0.0
 11
50.37749907475973
 21
14.53280452683612
 31
0.0
  0
LINE
  5
35B2E
330
1F
100
AcDbEntity
  8
AM_0
100
AcDbLine
 10
48.875
 20
24.14164407118733
 30
0.0
 11
48.875
 21
17.23183455730214
 31
0.0
  0
LINE
  5
35B2F
330
1F
100
AcDbEntity
  8
AM_0
100
AcDbLine
 10
48.875
 20
72.4603534582684
 30
0.0
 11
48.875
 21
25.0
 31
0.0
  0
LINE
  5
35B30
330
1F
100
AcDbEntity
  8
AM_0
100
AcDbLine
 10
50.37749907475973
 20
75.18691769624729
 30
0.0
 11
50.37749907475973
 21
25.0
 31
0.0
  0
LINE
  5
35B31
330
1F
100
AcDbEntity
  8
AM_0
100
AcDbLine
 10
45.125
 20
24.38486953375468
 30
0.0
 11
45.125
 21
17.23183455730214
 31
0.0
  0
LINE
  5
35B32
330
1F
100
AcDbEntity
  8
AM_0
100
AcDbLine
 10
65.0
 20
76.5
 30
0.0
 11
65.0
 21
13.5
 31
0.0
  0
ARC
  5
35B33
330
1F
100
AcDbEntity
  8
AM_0
100
AcDbCircle
 10
39.00000296306735
 20
-92.03062066037091
 30
0.0
 40
3.000002963068777
100
AcDbArc
 50
180.000056590357
 51
269.99994340963
  0
ARC
  5
35B34
330
1F
100
AcDbEntity
  8
AM_0
100
AcDbCircle
 10
39.00000296306735
 20
-82.03062658650561
 30
0.0
 40
3.000002963068682
100
AcDbArc
 50
90.00005659035688
 51
179.99994340963
  0
LINE
  5
35B35
330
1F
100
AcDbEntity
  8
AM_0
100
AcDbLine
 10
45.125
 20
-79.03062362343832
 30
0.0
 11
45.55089106785363
 21
-79.03062362343832
 31
0.0
  0
LINE
  5
35B36
330
1F
100
AcDbEntity
  8
AM_0
100
AcDbLine
 10
43.62250092524118
 20
-79.03062362343832
 30
0.0
 11
45.125
 21
-79.03062362343832
 31
0.0
  0
LINE
  5
35B37
330
1F
100
AcDbEntity
  8
AM_0
100
AcDbLine
 10
39.0
 20
-79.03062362343832
 30
0.0
 11
43.62250092524118
 21
-79.03062362343832
 31
0.0
  0
SPLINE
  5
35B38
330
1F
100
AcDbEntity
  8
AM_0
100
AcDbSpline
210
0.0
220
0.0
230
1.0
 70
     8
 71
     3
 72
    16
 73
    12
 74
     0
 42
0.0000000001
 43
0.0000000001
 40
5.956346460088473
 40
5.956346460088473
 40
5.956346460088473
 40
5.956346460088473
 40
6.062495147234408
 40
6.062495147234408
 40
6.202228077623816
 40
6.202228077623816
 40
6.481227230306896
 40
6.481227230306896
 40
6.760226382989976
 40
6.760226382989976
 40
6.821665582602051
 40
6.821665582602051
 40
6.821665582602051
 40
6.821665582602051
 10
46.125
 20
-94.37909285178836
 30
0.0
 10
46.08961710428503
 20
-94.37909285178836
 30
0.0
 10
46.04813229074443
 20
-94.38813814066094
 30
0.0
 10
45.97233621819669
 20
-94.41932283832927
 30
0.0
 10
45.92628912424789
 20
-94.45100424979597
 30
0.0
 10
45.8218881805451
 20
-94.54364486002947
 30
0.0
 10
45.761969984178
 20
-94.62438494391159
 30
0.0
 10
45.65693494041898
 20
-94.79677726730375
 30
0.0
 10
45.61211209848716
 20
-94.88860846640552
 30
0.0
 10
45.56676426349259
 20
-94.99263326925126
 30
0.0
 10
45.55874944121024
 20
-95.01155780023061
 30
0.0
 10
45.55089106785363
 20
-95.03062362343832
 30
0.0
  0
LINE
  5
35B39
330
1F
100
AcDbEntity
  8
AM_0
100
AcDbLine
 10
47.875
 20
-94.37909285178836
 30
0.0
 11
46.125
 21
-94.37909285178836
 31
0.0
  0
SPLINE
  5
35B3A
330
1F
100
AcDbEntity
  8
AM_0
100
AcDbSpline
210
0.0
220
0.0
230
1.0
 70
     8
 71
     3
 72
    16
 73
    12
 74
     0
 42
0.0000000001
 43
0.0000000001
 40
5.091027337574894
 40
5.091027337574894
 40
5.091027337574894
 40
5.091027337574894
 40
5.15246653718697
 40
5.15246653718697
 40
5.43146568987005
 40
5.43146568987005
 40
5.71046484255313
 40
5.71046484255313
 40
5.850197772942538
 40
5.850197772942538
 40
5.956346460088473
 40
5.956346460088473
 40
5.956346460088473
 40
5.956346460088473
 10
48.44910893214728
 20
-95.03062362343832
 30
0.0
 10
48.44125055879067
 20
-95.01155780023061
 30
0.0
 10
48.43323573650832
 20
-94.99263326925126
 30
0.0
 10
48.38788790151375
 20
-94.88860846640552
 30
0.0
 10
48.34306505958102
 20
-94.79677726730375
 30
0.0
 10
48.23803001582292
 20
-94.62438494391159
 30
0.0
 10
48.17811181945581
 20
-94.54364486002947
 30
0.0
 10
48.07371087575211
 20
-94.45100424979597
 30
0.0
 10
48.02766378180422
 20
-94.41932283832927
 30
0.0
 10
47.95186770925557
 20
-94.38813814066094
 30
0.0
 10
47.91038289571588
 20
-94.37909285178836
 30
0.0
 10
47.875
 20
-94.37909285178836
 30
0.0
  0
SPLINE
  5
35B3B
330
1F
100
AcDbEntity
  8
AM_0
100
AcDbSpline
210
0.0
220
0.0
230
1.0
 70
     8
 71
     3
 72
    16
 73
    12
 74
     0
 42
0.0000000001
 43
0.0000000001
 40
5.956346460088472
 40
5.956346460088472
 40
5.956346460088472
 40
5.956346460088472
 40
6.062495147234407
 40
6.062495147234407
 40
6.202228077623815
 40
6.202228077623815
 40
6.481227230306895
 40
6.481227230306895
 40
6.760226382989975
 40
6.760226382989975
 40
6.821665582602113
 40
6.821665582602113
 40
6.821665582602113
 40
6.821665582602113
 10
47.875
 20
-79.68215439508919
 30
0.0
 10
47.91038289571588
 20
-79.68215439508919
 30
0.0
 10
47.95186770925557
 20
-79.6731091062166
 30
0.0
 10
48.02766378180422
 20
-79.64192440854828
 30
0.0
 10
48.07371087575211
 20
-79.61024299708157
 30
0.0
 10
48.17811181945581
 20
-79.51760238684807
 30
0.0
 10
48.23803001582292
 20
-79.43686230296595
 30
0.0
 10
48.34306505958102
 20
-79.26446997957379
 30
0.0
 10
48.38788790151375
 20
-79.17263878047203
 30
0.0
 10
48.43323573650832
 20
-79.06861397762538
 30
0.0
 10
48.44125055879067
 20
-79.04968944664694
 30
0.0
 10
48.44910893214728
 20
-79.03062362343832
 30
0.0
  0
LINE
  5
35B3C
330
1F
100
AcDbEntity
  8
AM_0
100
AcDbLine
 10
46.125
 20
-79.68215439508919
 30
0.0
 11
47.875
 21
-79.68215439508919
 31
0.0
  0
SPLINE
  5
35B3D
330
1F
100
AcDbEntity
  8
AM_0
100
AcDbSpline
210
0.0
220
0.0
230
1.0
 70
     8
 71
     3
 72
    16
 73
    12
 74
     0
 42
0.0000000001
 43
0.0000000001
 40
5.091027337574832
 40
5.091027337574832
 40
5.091027337574832
 40
5.091027337574832
 40
5.152466537186969
 40
5.152466537186969
 40
5.431465689870049
 40
5.431465689870049
 40
5.71046484255313
 40
5.71046484255313
 40
5.850197772942537
 40
5.850197772942537
 40
5.956346460088472
 40
5.956346460088472
 40
5.956346460088472
 40
5.956346460088472
 10
45.55089106785363
 20
-79.03062362343832
 30
0.0
 10
45.55874944121024
 20
-79.04968944664694
 30
0.0
 10
45.56676426349259
 20
-79.06861397762538
 30
0.0
 10
45.61211209848716
 20
-79.17263878047203
 30
0.0
 10
45.65693494041898
 20
-79.26446997957379
 30
0.0
 10
45.761969984178
 20
-79.43686230296595
 30
0.0
 10
45.8218881805451
 20
-79.51760238684807
 30
0.0
 10
45.92628912424789
 20
-79.61024299708157
 30
0.0
 10
45.97233621819669
 20
-79.64192440854828
 30
0.0
 10
46.04813229074443
 20
-79.6731091062166
 30
0.0
 10
46.08961710428503
 20
-79.68215439508919
 30
0.0
 10
46.125
 20
-79.68215439508919
 30
0.0
  0
LINE
  5
35B3E
330
1F
100
AcDbEntity
  8
AM_0
100
AcDbLine
 10
43.62250092524118
 20
-95.03062362343832
 30
0.0
 11
39.0
 21
-95.03062362343832
 31
0.0
  0
LINE
  5
35B3F
330
1F
100
AcDbEntity
  8
AM_0
100
AcDbLine
 10
43.62250092524118
 20
-95.03062362343832
 30
0.0
 11
45.125
 21
-95.03062362343832
 31
0.0
  0
LINE
  5
35B40
330
1F
100
AcDbEntity
  8
AM_0
100
AcDbLine
 10
45.125
 20
-95.03062362343832
 30
0.0
 11
45.55089106785363
 21
-95.03062362343832
 31
0.0
  0
ARC
  5
35B41
330
1F
100
AcDbEntity
  8
AM_0
100
AcDbCircle
 10
57.96119873348653
 20
-150.117063550827
 30
0.0
 40
31.98582038169304
100
AcDbArc
 50
80.93630643191753
 51
89.930495784383
  0
ARC
  5
35B42
330
1F
100
AcDbEntity
  8
AM_0
100
AcDbCircle
 10
58.03880126651438
 20
-150.1170635508242
 30
0.0
 40
31.98582038169042
100
AcDbArc
 50
90.06950421560396
 51
99.06369356809559
  0
ARC
  5
35B43
330
1F
100
AcDbEntity
  8
AM_0
100
AcDbCircle
 10
74.0
 20
-87.03062362343826
 30
0.0
 40
4.499999999999965
100
AcDbArc
 50
228.8076280850552
 51
131.1923719149448
  0
ARC
  5
35B44
330
1F
100
AcDbEntity
  8
AM_0
100
AcDbCircle
 10
74.00000000252749
 20
-87.03062362343826
 30
0.0
 40
4.500000001664618
100
AcDbArc
 50
131.1923719391818
 51
228.8076280608183
  0
CIRCLE
  5
35B45
330
1F
100
AcDbEntity
  8
AM_0
100
AcDbCircle
 10
74.0
 20
-87.03062362343826
 30
0.0
 40
4.500000000000006
  0
LINE
  5
35B46
330
1F
100
AcDbEntity
  8
AM_0
100
AcDbLine
 10
95.0
 20
-80.81812362343868
 30
0.0
 11
97.0
 21
-79.66342308505961
 31
0.0
  0
LINE
  5
35B47
330
1F
100
AcDbEntity
  8
AM_0
100
AcDbLine
 10
95.0
 20
-93.24312362343886
 30
0.0
 11
92.5
 21
-93.24312362343886
 31
0.0
  0
LINE
  5
35B48
330
1F
100
AcDbEntity
  8
AM_0
100
AcDbLine
 10
92.5
 20
-80.81812362343868
 30
0.0
 11
95.0
 21
-80.81812362343868
 31
0.0
  0
LINE
  5
35B49
330
1F
100
AcDbEntity
  8
AM_0
100
AcDbLine
 10
96.99955494773894
 20
-79.60618003610222
 30
0.0
 11
97.0
 21
-79.60592308505972
 31
0.0
  0
LINE
  5
35B4A
330
1F
100
AcDbEntity
  8
AM_0
100
AcDbLine
 10
95.0
 20
-93.24312362343886
 30
0.0
 11
97.0
 21
-94.39782416181794
 31
0.0
  0
LINE
  5
35B4B
330
1F
100
AcDbEntity
  8
AM_0
100
AcDbLine
 10
96.99955494773894
 20
-94.45506721077533
 30
0.0
 11
97.0
 21
-94.45532416181783
 31
0.0
  0
SPLINE
  5
35B4C
330
1F
100
AcDbEntity
  8
AM_0
100
AcDbSpline
210
0.0
220
0.0
230
1.0
 70
     8
 71
     3
 72
    16
 73
    12
 74
     0
 42
0.0000000001
 43
0.0000000001
 40
-1.936088707179519
 40
-1.936088707179519
 40
-1.936088707179519
 40
-1.936088707179519
 40
-1.618608641566384
 40
-1.618608641566384
 40
-0.9853554418149393
 40
-0.9853554418149393
 40
-0.4905148334691103
 40
-0.4905148334691103
 40
-0.2011422780024802
 40
-0.2011422780024802
 40
-0.0002750058701333
 40
-0.0002750058701333
 40
-0.0002750058701333
 40
-0.0002750058701333
 10
96.99955494773894
 20
-94.45506721077533
 30
0.0
 10
96.99638357819549
 20
-94.56632277976411
 30
0.0
 10
96.97648266415399
 20
-94.68338334218339
 30
0.0
 10
96.87826390488863
 20
-95.04140173401271
 30
0.0
 10
96.76424596623201
 20
-95.28349744740632
 30
0.0
 10
96.52360551817401
 20
-95.66473795067583
 30
0.0
 10
96.40574535383985
 20
-95.81300788909817
 30
0.0
 10
96.21507310574725
 20
-95.99089048596312
 30
0.0
 10
96.13561911364923
 20
-96.05197543434048
 30
0.0
 10
95.98963459370407
 20
-96.1248573895428
 30
0.0
 10
95.92638165503468
 20
-96.14609715644207
 30
0.0
 10
95.85992514033296
 20
-96.15422218377722
 30
0.0
  0
SPLINE
  5
35B4D
330
1F
100
AcDbEntity
  8
AM_0
100
AcDbSpline
210
0.0
220
0.0
230
1.0
 70
     8
 71
     3
 72
    16
 73
    12
 74
     0
 42
0.0000000001
 43
0.0000000001
 40
-4.40429224599759
 40
-4.40429224599759
 40
-4.40429224599759
 40
-4.40429224599759
 40
-4.141910802677585
 40
-4.141910802677585
 40
-3.871634509130126
 40
-3.871634509130126
 40
-3.14310442813097
 40
-3.14310442813097
 40
-2.420961954899249
 40
-2.420961954899249
 40
-1.953365045766561
 40
-1.953365045766561
 40
-1.953365045766561
 40
-1.953365045766561
 10
95.85992514033296
 20
-77.90702506310032
 30
0.0
 10
95.928284902202
 20
-77.915382782976
 30
0.0
 10
95.99324329136289
 20
-77.93761795880533
 30
0.0
 10
96.1176472909292
 20
-78.00094056141194
 30
0.0
 10
96.17686423591022
 20
-78.04256789584639
 30
0.0
 10
96.37743886598946
 20
-78.21031886203224
 30
0.0
 10
96.52105090558325
 20
-78.38784948219842
 30
0.0
 10
96.76952751202498
 20
-78.79134203498057
 30
0.0
 10
96.86902564178672
 20
-79.00681771746264
 30
0.0
 10
96.97133516995746
 20
-79.34899443060027
 30
0.0
 10
96.99598991728726
 20
-79.48111435519701
 30
0.0
 10
96.99955494773894
 20
-79.60618003610222
 30
0.0
  0
ARC
  5
35B4E
330
1F
100
AcDbEntity
  8
AM_0
100
AcDbCircle
 10
99.71738318951248
 20
-40.95992515232692
 30
0.0
 40
37.14792288160733
100
AcDbArc
 50
259.2369973264173
 51
264.0396343738103
  0
ARC
  5
35B4F
330
1F
100
AcDbEntity
  8
AM_0
100
AcDbCircle
 10
99.71738318950884
 20
-133.1013220945234
 30
0.0
 40
37.14792288157967
100
AcDbArc
 50
95.96036562618968
 51
100.7630026735891
  0
LINE
  5
35B50
330
1F
100
AcDbEntity
  8
AM_0
100
AcDbLine
 10
48.875
 20
-95.03062362343832
 30
0.0
 11
50.37749907475973
 21
-95.03062362343832
 31
0.0
  0
LINE
  5
35B51
330
1F
100
AcDbEntity
  8
AM_0
100
AcDbLine
 10
48.44910893214728
 20
-95.03062362343832
 30
0.0
 11
48.875
 21
-95.03062362343832
 31
0.0
  0
LINE
  5
35B52
330
1F
100
AcDbEntity
  8
AM_0
100
AcDbLine
 10
48.44910893214728
 20
-79.03062362343832
 30
0.0
 11
48.875
 21
-79.03062362343832
 31
0.0
  0
LINE
  5
35B53
330
1F
100
AcDbEntity
  8
AM_0
100
AcDbLine
 10
48.85145332982665
 20
-67.03062362343832
 30
0.0
 11
48.875
 21
-67.03062362343832
 31
0.0
  0
SPLINE
  5
35B54
330
1F
100
AcDbEntity
  8
AM_0
100
AcDbSpline
210
0.0
220
0.0
230
1.0
 70
     8
 71
     3
 72
     8
 73
     4
 74
     0
 42
0.0000000001
 43
0.0000000001
 40
-2.06357559427948
 40
-2.06357559427948
 40
-2.06357559427948
 40
-2.06357559427948
 40
-1.776340743961663
 40
-1.776340743961663
 40
-1.776340743961663
 40
-1.776340743961663
 10
48.85145332982665
 20
-67.03062362343832
 30
0.0
 10
48.86761371479679
 20
-66.92717846748116
 30
0.0
 10
48.875
 20
-66.82242806929759
 30
0.0
 10
48.875
 20
-66.72668311919193
 30
0.0
  0
ARC
  5
35B55
330
1F
100
AcDbEntity
  8
AM_0
100
AcDbCircle
 10
47.11262327256009
 20
-59.02969179065894
 30
0.0
 40
8.001235164662798
100
AcDbArc
 50
207.2595688438588
 51
244.1384544096968
  0
LINE
  5
35B56
330
1F
100
AcDbEntity
  8
AM_0
100
AcDbLine
 10
40.0
 20
-62.6944365761629
 30
0.0
 11
43.62250092524118
 21
-62.6944365761629
 31
0.0
  0
SPLINE
  5
35B57
330
1F
100
AcDbEntity
  8
AM_0
100
AcDbSpline
210
0.0
220
0.0
230
1.0
 70
    12
 71
     2
 72
     6
 73
     3
 74
     0
 42
0.0000000001
 43
0.0000000001
 40
0.0
 40
0.0
 40
0.0
 40
3.788582771409915
 40
3.788582771409915
 40
3.788582771409915
 10
43.62250092524118
 20
-62.6944365761629
 30
0.0
 41
1.0
 10
44.43156096023347
 20
-64.50827833182308
 30
0.0
 41
1.001661993538562
 10
45.125
 20
-66.17226769462565
 30
0.0
 41
1.0
  0
SPLINE
  5
35B58
330
1F
100
AcDbEntity
  8
AM_0
100
AcDbSpline
210
0.0
220
0.0
230
1.0
 70
     8
 71
     3
 72
     8
 73
     4
 74
     0
 42
0.0000000001
 43
0.0000000001
 40
1.776340743961663
 40
1.776340743961663
 40
1.776340743961663
 40
1.776340743961663
 40
1.82900694760964
 40
1.82900694760964
 40
1.82900694760964
 40
1.82900694760964
 10
45.125
 20
-66.72668311919193
 30
0.0
 10
45.125
 20
-66.74423852040769
 30
0.0
 10
45.12523506934031
 20
-66.76209701547128
 30
0.0
 10
45.12572598845964
 20
-66.78019470838905
 30
0.0
  0
SPLINE
  5
35B59
330
1F
100
AcDbEntity
  8
AM_0
100
AcDbSpline
210
0.0
220
0.0
230
1.0
 70
    24
 71
     3
 72
     8
 73
     4
 74
     0
 42
0.0000000001
 43
0.0000000001
 40
-1.94204761059973
 40
-1.94204761059973
 40
-1.94204761059973
 40
-1.94204761059973
 40
-1.894302822527507
 40
-1.894302822527507
 40
-1.894302822527507
 40
-1.894302822527507
 10
45.12572598845964
 20
-66.78019470838905
 30
0.0
 10
45.12524096385005
 20
-66.7800704107986
 30
0.0
 10
45.125
 20
-66.7800086225871
 30
0.0
 10
45.125
 20
-66.7800086225871
 30
0.0
  0
LINE
  5
35B5A
330
1F
100
AcDbEntity
  8
AM_0
100
AcDbLine
 10
45.125
 20
-66.17226769462565
 30
0.0
 11
45.125
 21
-66.72668311919193
 31
0.0
  0
LINE
  5
35B5B
330
1F
100
AcDbEntity
  8
AM_0
100
AcDbLine
 10
52.0
 20
-95.03062362343832
 30
0.0
 11
50.37749907475973
 21
-95.03062362343832
 31
0.0
  0
LINE
  5
35B5C
330
1F
100
AcDbEntity
  8
AM_0
100
AcDbLine
 10
50.37749907475973
 20
-79.03062362343832
 30
0.0
 11
52.0
 21
-79.03062362343832
 31
0.0
  0
LINE
  5
35B5D
330
1F
100
AcDbEntity
  8
AM_0
100
AcDbLine
 10
48.875
 20
-79.03062362343832
 30
0.0
 11
50.37749907475973
 21
-79.03062362343832
 31
0.0
  0
ARC
  5
35B5E
330
1F
100
AcDbEntity
  8
AM_0
100
AcDbCircle
 10
52.0
 20
-87.03062362343826
 30
0.0
 40
8.000000000000057
100
AcDbArc
 50
270.0
 51
90.0
  0
LINE
  5
35B5F
330
1F
100
AcDbEntity
  8
AM_0
100
AcDbLine
 10
48.875
 20
-67.03062362343832
 30
0.0
 11
50.37749907475973
 21
-67.03062362343832
 31
0.0
  0
SPLINE
  5
35B60
330
1F
100
AcDbEntity
  8
AM_0
100
AcDbSpline
210
0.0
220
0.0
230
1.0
 70
    12
 71
     2
 72
     6
 73
     3
 74
     0
 42
0.0000000001
 43
0.0000000001
 40
0.0
 40
0.0
 40
0.0
 40
3.788582771409939
 40
3.788582771409939
 40
3.788582771409939
 10
48.875
 20
-66.17226769462565
 30
0.0
 41
1.0
 10
49.56843903976642
 20
-64.50827833182308
 30
0.0
 41
1.001661993538315
 10
50.37749907475973
 20
-62.6944365761629
 30
0.0
 41
1.0
  0
LINE
  5
35B61
330
1F
100
AcDbEntity
  8
AM_0
100
AcDbLine
 10
48.875
 20
-66.72668311919193
 30
0.0
 11
48.875
 21
-66.17226769462565
 31
0.0
  0
ARC
  5
35B62
330
1F
100
AcDbEntity
  8
AM_0
100
AcDbCircle
 10
47.11112374154163
 20
-59.03223466795316
 30
0.0
 40
7.99829286590654
100
AcDbArc
 50
244.1401747691827
 51
255.6219705914311
  0
ARC
  5
35B63
330
1F
100
AcDbEntity
  8
AM_0
100
AcDbCircle
 10
52.88808799367507
 20
-59.03029871828767
 30
0.0
 40
8.000324907604083
100
AcDbArc
 50
270.0014187482344
 51
332.7419619425979
  0
LINE
  5
35B64
330
1F
100
AcDbEntity
  8
AM_0
100
AcDbLine
 10
50.37749907475973
 20
-62.6944365761629
 30
0.0
 11
60.0
 21
-62.6944365761629
 31
0.0
  0
LINE
  5
35B65
330
1F
100
AcDbEntity
  8
AM_0
100
AcDbLine
 10
52.88828609634402
 20
-67.03062362343832
 30
0.0
 11
50.37749907475973
 21
-67.03062362343832
 31
0.0
  0
LINE
  5
35B66
330
1F
100
AcDbEntity
  8
AM_0
100
AcDbLine
 10
95.85992514033296
 20
-109.807627366422
 30
0.0
 11
65.0
 21
-111.3506236234389
 31
0.0
  0
LINE
  5
35B67
330
1F
100
AcDbEntity
  8
AM_0
100
AcDbLine
 10
95.85992514033296
 20
-64.25361988045557
 30
0.0
 11
65.0
 21
-62.71062362343861
 31
0.0
  0
LINE
  5
35B68
330
1F
100
AcDbEntity
  8
AM_0
100
AcDbLine
 10
48.875
 20
-115.9282188876305
 30
0.0
 11
50.37749907475973
 21
-118.5306236234383
 31
0.0
  0
LINE
  5
35B69
330
1F
100
AcDbEntity
  8
AM_0
100
AcDbLine
 10
43.62250092524118
 20
-118.5306236234383
 30
0.0
 11
39.0
 21
-118.5306236234383
 31
0.0
  0
LINE
  5
35B6A
330
1F
100
AcDbEntity
  8
AM_0
100
AcDbLine
 10
43.62250092524118
 20
-55.53062362343832
 30
0.0
 11
39.0
 21
-55.53062362343832
 31
0.0
  0
LINE
  5
35B6B
330
1F
100
AcDbEntity
  8
AM_0
100
AcDbLine
 10
47.875
 20
-114.5306236234383
 30
0.0
 11
46.125
 21
-114.5306236234383
 31
0.0
  0
LINE
  5
35B6C
330
1F
100
AcDbEntity
  8
AM_0
100
AcDbLine
 10
47.875
 20
-59.53062362343832
 30
0.0
 11
46.125
 21
-59.53062362343832
 31
0.0
  0
LINE
  5
35B6D
330
1F
100
AcDbEntity
  8
AM_0
100
AcDbLine
 10
45.125
 20
-115.9282188876305
 30
0.0
 11
43.62250092524118
 21
-118.5306236234383
 31
0.0
  0
LINE
  5
35B6E
330
1F
100
AcDbEntity
  8
AM_0
100
AcDbLine
 10
45.125
 20
-58.13302835924702
 30
0.0
 11
43.62250092524118
 21
-55.53062362343832
 31
0.0
  0
LINE
  5
35B6F
330
1F
100
AcDbEntity
  8
AM_0
100
AcDbLine
 10
48.875
 20
-58.13302835924702
 30
0.0
 11
50.37749907475973
 21
-55.53062362343832
 31
0.0
  0
LINE
  5
35B70
330
1F
100
AcDbEntity
  8
AM_0
100
AcDbLine
 10
65.0
 20
-118.5306236234383
 30
0.0
 11
63.0
 21
-118.5306236234383
 31
0.0
  0
LINE
  5
35B71
330
1F
100
AcDbEntity
  8
AM_0
100
AcDbLine
 10
53.0
 20
-118.5306236234383
 30
0.0
 11
50.37749907475973
 21
-118.5306236234383
 31
0.0
  0
LINE
  5
35B72
330
1F
100
AcDbEntity
  8
AM_0
100
AcDbLine
 10
65.0
 20
-55.53062362343832
 30
0.0
 11
50.37749907475973
 21
-55.53062362343832
 31
0.0
  0
LINE
  5
35B73
330
1F
100
AcDbEntity
  8
AM_0
100
AcDbLine
 10
36.0
 20
-82.03062362343832
 30
0.0
 11
36.0
 21
-92.03062362343832
 31
0.0
  0
LINE
  5
35B74
330
1F
100
AcDbEntity
  8
AM_0
100
AcDbLine
 10
39.0
 20
-55.53062362343832
 30
0.0
 11
39.0
 21
-79.03062362343832
 31
0.0
  0
LINE
  5
35B75
330
1F
100
AcDbEntity
  8
AM_0
100
AcDbLine
 10
39.0
 20
-95.03062362343832
 30
0.0
 11
39.0
 21
-118.5306236234383
 31
0.0
  0
LINE
  5
35B76
330
1F
100
AcDbEntity
  8
AM_0
100
AcDbLine
 10
97.0
 20
-79.66342308505961
 30
0.0
 11
97.0
 21
-79.60592308505972
 31
0.0
  0
LINE
  5
35B77
330
1F
100
AcDbEntity
  8
AM_0
100
AcDbLine
 10
97.0
 20
-94.45532416181783
 30
0.0
 11
97.0
 21
-94.39782416181794
 31
0.0
  0
LINE
  5
35B78
330
1F
100
AcDbEntity
  8
AM_0
100
AcDbLine
 10
97.0
 20
-94.45532416181783
 30
0.0
 11
97.0
 21
-108.6091245597691
 31
0.0
  0
LINE
  5
35B79
330
1F
100
AcDbEntity
  8
AM_0
100
AcDbLine
 10
97.0
 20
-65.45212268710844
 30
0.0
 11
97.0
 21
-79.60592308505972
 31
0.0
  0
LINE
  5
35B7A
330
1F
100
AcDbEntity
  8
AM_0
100
AcDbLine
 10
91.0
 20
-78.92795542726236
 30
0.0
 11
91.0
 21
-95.13329181961547
 31
0.0
  0
LINE
  5
35B7B
330
1F
100
AcDbEntity
  8
AM_0
100
AcDbLine
 10
50.37749907475973
 20
-95.03062362343923
 30
0.0
 11
50.37749907475973
 21
-118.5306236234383
 31
0.0
  0
LINE
  5
35B7C
330
1F
100
AcDbEntity
  8
AM_0
100
AcDbLine
 10
48.875
 20
-95.03062362343832
 30
0.0
 11
48.875
 21
-115.9282188876305
 31
0.0
  0
LINE
  5
35B7D
330
1F
100
AcDbEntity
  8
AM_0
100
AcDbLine
 10
47.875
 20
-94.37909285178836
 30
0.0
 11
47.875
 21
-114.5306236234383
 31
0.0
  0
LINE
  5
35B7E
330
1F
100
AcDbEntity
  8
AM_0
100
AcDbLine
 10
43.62250092524118
 20
-95.03062362343832
 30
0.0
 11
43.62250092524118
 21
-118.5306236234383
 31
0.0
  0
LINE
  5
35B7F
330
1F
100
AcDbEntity
  8
AM_0
100
AcDbLine
 10
43.62250092524118
 20
-66.22960916247581
 30
0.0
 11
43.62250092524118
 21
-79.03062362343832
 31
0.0
  0
LINE
  5
35B80
330
1F
100
AcDbEntity
  8
AM_0
100
AcDbLine
 10
43.62250092524118
 20
-55.53062362343832
 30
0.0
 11
43.62250092524118
 21
-62.6944365761629
 31
0.0
  0
LINE
  5
35B81
330
1F
100
AcDbEntity
  8
AM_0
100
AcDbLine
 10
46.125
 20
-94.37909285178836
 30
0.0
 11
46.125
 21
-114.5306236234383
 31
0.0
  0
LINE
  5
35B82
330
1F
100
AcDbEntity
  8
AM_0
100
AcDbLine
 10
45.125
 20
-95.03062362343832
 30
0.0
 11
45.125
 21
-115.9282188876305
 31
0.0
  0
LINE
  5
35B83
330
1F
100
AcDbEntity
  8
AM_0
100
AcDbLine
 10
45.125
 20
-58.13302835924702
 30
0.0
 11
45.125
 21
-66.17226769462565
 31
0.0
  0
LINE
  5
35B84
330
1F
100
AcDbEntity
  8
AM_0
100
AcDbLine
 10
50.37749907475973
 20
-67.03062362343832
 30
0.0
 11
50.37749907475973
 21
-79.03062362343832
 31
0.0
  0
LINE
  5
35B85
330
1F
100
AcDbEntity
  8
AM_0
100
AcDbLine
 10
48.875
 20
-67.03062362343832
 30
0.0
 11
48.875
 21
-79.03062362343832
 31
0.0
  0
LINE
  5
35B86
330
1F
100
AcDbEntity
  8
AM_0
100
AcDbLine
 10
48.875
 20
-58.13302835924702
 30
0.0
 11
48.875
 21
-66.17226769462565
 31
0.0
  0
LINE
  5
35B87
330
1F
100
AcDbEntity
  8
AM_0
100
AcDbLine
 10
50.37749907475973
 20
-55.53062362343832
 30
0.0
 11
50.37749907475973
 21
-62.6944365761629
 31
0.0
  0
LINE
  5
35B88
330
1F
100
AcDbEntity
  8
AM_0
100
AcDbLine
 10
45.125
 20
-66.7800086225871
 30
0.0
 11
45.125
 21
-79.03062362343832
 31
0.0
  0
LINE
  5
35B89
330
1F
100
AcDbEntity
  8
AM_0
100
AcDbLine
 10
65.0
 20
-55.53062362343832
 30
0.0
 11
65.0
 21
-118.5306236234383
 31
0.0
  0
ARC
  5
35B8A
330
1F
100
AcDbEntity
  8
AM_0
100
AcDbCircle
 10
95.80000000000018
 20
-108.6091245597691
 30
0.0
 40
1.2
100
AcDbArc
 50
272.8624052261126
 51
0.0
  0
ARC
  5
35B8B
330
1F
100
AcDbEntity
  8
AM_0
100
AcDbCircle
 10
95.80000000000018
 20
-65.45212268710844
 30
0.0
 40
1.2
100
AcDbArc
 50
0.0
 51
87.13759477388736
  0
ARC
  5
35B8C
330
1F
100
AcDbEntity
  8
AM_0
100
AcDbCircle
 10
47.875
 20
-115.5306236234383
 30
0.0
 40
1.0
100
AcDbArc
 50
0.0
 51
90.0
  0
ARC
  5
35B8D
330
1F
100
AcDbEntity
  8
AM_0
100
AcDbCircle
 10
47.875
 20
-58.53062362343826
 30
0.0
 40
1.0
100
AcDbArc
 50
270.0
 51
0.0
  0
ARC
  5
35B8E
330
1F
100
AcDbEntity
  8
AM_0
100
AcDbCircle
 10
46.125
 20
-115.5306236234383
 30
0.0
 40
1.0
100
AcDbArc
 50
90.0
 51
180.0
  0
ARC
  5
35B8F
330
1F
100
AcDbEntity
  8
AM_0
100
AcDbCircle
 10
46.125
 20
-58.53062362343826
 30
0.0
 40
1.0
100
AcDbArc
 50
180.0
 51
270.0
  0
LINE
  5
35BE3
330
1F
100
AcDbEntity
  8
AM_3
  6
ACJISTGL
100
AcDbLine
 10
45.0
 20
-78.03062362343832
 30
0.0
 11
45.5
 21
-78.53062362343832
 31
0.0
  0
DIMENSION
  5
35BFA
330
1F
100
AcDbEntity
  8
AM_5
100
AcDbDimension
  2
*D4
 10
65.0
 20
-22.73035378183343
 30
0.0
 11
32.5
 21
-19.33035378183343
 31
0.0
 70
    32
  1
<>
 71
     5
 42
65.0
  3
AM_JIS$0
100
AcDbAlignedDimension
 13
0.0
 23
-4.651820149539503
 33
0.0
 14
65.0
 24
13.5
 34
0.0
100
AcDbRotatedDimension
1001
ACAD
1000
DSTYLE
1002
{
1070
   179
1070
     0
1070
   271
1070
     0
1070
   272
1070
     2
1002
}
  0
ARC
  5
35C00
330
1F
100
AcDbEntity
  8
AM_0
100
AcDbCircle
 10
92.5
 20
-82.31812362343868
 30
0.0
 40
1.5
100
AcDbArc
 50
90.0
 51
180.0
1001
GENIUS_GENOBJ-N-FIL_13
1002
{
1000
OWNER
1000
GEN
1002
}
1001
GENIUS_GENODEF_13
1002
{
1000
HIER
1070
     0
1002
}
1002
{
1000
MANEDIT
1070
     0
1002
}
1002
{
1000
NOSEL
1070
     0
1002
}
1002
{
1000
BEHIND
1070
     0
1002
}
1002
{
1000
OTHER
1070
     0
1002
}
1002
{
1000
REACTOR
1002
}
  0
ARC
  5
35C01
330
1F
100
AcDbEntity
  8
AM_0
100
AcDbCircle
 10
92.5
 20
-91.74312362343886
 30
0.0
 40
1.5
100
AcDbArc
 50
180.0
 51
270.0
1001
GENIUS_GENODEF_13
1002
{
1000
HIER
1070
     0
1002
}
1002
{
1000
MANEDIT
1070
     0
1002
}
1002
{
1000
NOSEL
1070
     0
1002
}
1002
{
1000
BEHIND
1070
     0
1002
}
1002
{
1000
OTHER
1070
     0
1002
}
1002
{
1000
REACTOR
1002
}
1001
GENIUS_GENOBJ-N-FIL_13
1002
{
1000
OWNER
1000
GEN
1002
}
  0
ARC
  5
35C02
330
1F
100
AcDbEntity
  8
AM_0
100
AcDbCircle
 10
92.5
 20
-95.13329181961552
 30
0.0
 40
1.5
100
AcDbArc
 50
180.0
 51
280.7630026735891
1001
GENIUS_GENOBJ-N-FIL_13
1002
{
1000
OWNER
1000
GEN
1002
}
1001
GENIUS_GENODEF_13
1002
{
1000
HIER
1070
     0
1002
}
1002
{
1000
MANEDIT
1070
     0
1002
}
1002
{
1000
NOSEL
1070
     0
1002
}
1002
{
1000
BEHIND
1070
     0
1002
}
1002
{
1000
OTHER
1070
     0
1002
}
1002
{
1000
REACTOR
1002
}
  0
ARC
  5
35C03
330
1F
100
AcDbEntity
  8
AM_0
100
AcDbCircle
 10
92.5
 20
-78.92795542726236
 30
0.0
 40
1.5
100
AcDbArc
 50
79.23699732641728
 51
180.0
1001
GENIUS_GENOBJ-N-FIL_13
1002
{
1000
OWNER
1000
GEN
1002
}
1001
GENIUS_GENODEF_13
1002
{
1000
HIER
1070
     0
1002
}
1002
{
1000
MANEDIT
1070
     0
1002
}
1002
{
1000
NOSEL
1070
     0
1002
}
1002
{
1000
BEHIND
1070
     0
1002
}
1002
{
1000
OTHER
1070
     0
1002
}
1002
{
1000
REACTOR
1002
}
  0
ARC
  5
35C08
330
1F
100
AcDbEntity
  8
AM_11
  6
ACJISTGB
100
AcDbCircle
 10
95.80000000000018
 20
66.57850093632979
 30
0.0
 40
1.2
100
AcDbArc
 50
0.0
 51
87.13759477388736
  0
ARC
  5
35C09
330
1F
100
AcDbEntity
  8
AM_11
  6
ACJISTGB
100
AcDbCircle
 10
95.80000000000018
 20
23.42149906366913
 30
0.0
 40
1.2
100
AcDbArc
 50
272.8624052261126
 51
0.0
  0
LINE
  5
35C0A
330
1F
100
AcDbEntity
  8
AM_11
  6
ACJISTGB
100
AcDbLine
 10
97.0
 20
24.73906407456315
 30
0.0
 11
97.0
 21
23.42149906366916
 31
0.0
  0
LINE
  5
35C0B
330
1F
100
AcDbEntity
  8
AM_0
100
AcDbLine
 10
91.0
 20
21.98000000000047
 30
0.0
 11
78.5
 21
21.35500000000047
 31
0.0
  0
LINE
  5
35C0C
330
1F
100
AcDbEntity
  8
AM_0
100
AcDbLine
 10
97.0
 20
65.28895312868855
 30
0.0
 11
97.0
 21
24.73906407456315
 31
0.0
  0
LINE
  5
35C0D
330
1F
100
AcDbEntity
  8
AM_0
100
AcDbLine
 10
87.0
 20
68.22000000000026
 30
0.0
 11
78.5
 21
68.64500000000044
 31
0.0
  0
DIMENSION
  5
35C14
330
1F
100
AcDbEntity
  8
AM_5
100
AcDbDimension
  2
*D5
 10
121.195674711576
 20
13.49999999999998
 30
0.0
 11
117.795674711576
 21
45.00000000000001
 31
0.0
 70
    32
  1
%%c<>
 71
     5
 42
63.0
  3
AM_JIS$0
100
AcDbAlignedDimension
 13
65.0
 23
76.5
 33
0.0
 14
65.0
 24
13.5
 34
0.0
 50
90.0
100
AcDbRotatedDimension
1001
ACAD
1000
DSTYLE
1002
{
1070
   179
1070
     0
1070
   271
1070
     0
1070
   272
1070
     2
1002
}
  0
LINE
  5
35C49
330
1F
100
AcDbEntity
  8
AM_7
100
AcDbLine
 10
100.0013493436918
 20
44.99999999999994
 30
0.0
 11
-4.532715215226745
 21
45.0
 31
0.0
1001
GENIUS_GENODEF_13
1002
{
1000
HIER
1070
     0
1002
}
1002
{
1000
MANEDIT
1070
     0
1002
}
1002
{
1000
NOSEL
1070
     0
1002
}
1002
{
1000
BEHIND
1070
     0
1002
}
1002
{
1000
OTHER
1070
     0
1002
}
1002
{
1000
REACTOR
1002
}
1001
GENIUS_GENOBJ-N-CEN_13
1002
{
1000
OWNER
1000
GEN
1002
}
  0
LINE
  5
35C4A
330
1F
100
AcDbEntity
  8
AM_7
100
AcDbLine
 10
104.4704181305187
 20
-87.03062362343832
 30
0.0
 11
-6.271727454530264
 21
-87.03062362343826
 31
0.0
1001
GENIUS_GENODEF_13
1002
{
1000
HIER
1070
     0
1002
}
1002
{
1000
MANEDIT
1070
     0
1002
}
1002
{
1000
NOSEL
1070
     0
1002
}
1002
{
1000
BEHIND
1070
     0
1002
}
1002
{
1000
OTHER
1070
     0
1002
}
1002
{
1000
REACTOR
1002
}
1001
GENIUS_GENOBJ-N-CEN_13
1002
{
1000
OWNER
1000
GEN
1002
}
  0
LINE
  5
35C4E
330
1F
100
AcDbEntity
  8
AM_7
100
AcDbLine
 10
-115.5811167315487
 20
45.0
 30
0.0
 11
-39.17175393552225
 21
45.0
 31
0.0
1001
GENIUS_GENODEF_13
1002
{
1000
HIER
1070
     0
1002
}
1002
{
1000
MANEDIT
1070
     0
1002
}
1002
{
1000
NOSEL
1070
     0
1002
}
1002
{
1000
BEHIND
1070
     0
1002
}
1002
{
1000
OTHER
1070
     0
1002
}
1002
{
1000
REACTOR
1002
}
1001
GENIUS_GENOBJ-N-CEN_13
1002
{
1000
OWNER
1000
GEN
1002
}
1001
GENIUS_GENCEN_19
1002
{
1040
2.794
1002
}
  0
LINE
  5
35C4F
330
1F
100
AcDbEntity
  8
AM_7
100
AcDbLine
 10
-77.50166685288923
 20
84.83595014969581
 30
0.0
 11
-77.50166685288923
 21
-2.437465034561228
 31
0.0
1001
GENIUS_GENOBJ-N-CEN_13
1002
{
1000
OWNER
1000
GEN
1002
}
1001
GENIUS_GENODEF_13
1002
{
1000
HIER
1070
     0
1002
}
1002
{
1000
MANEDIT
1070
     0
1002
}
1002
{
1000
NOSEL
1070
     0
1002
}
1002
{
1000
BEHIND
1070
     0
1002
}
1002
{
1000
OTHER
1070
     0
1002
}
1002
{
1000
REACTOR
1002
}
1001
GENIUS_GENCEN_19
1002
{
1040
2.794
1002
}
  0
LINE
  5
35C50
330
1F
100
AcDbEntity
  8
AM_5
100
AcDbLine
 10
0.8109150405642822
 20
0.0
 30
0.0
 11
-5.190742844615784
 21
0.0
 31
0.0
  0
LINE
  5
35C51
330
1F
100
AcDbEntity
  8
AM_5
100
AcDbLine
 10
0.0
 20
0.8191865462955548
 30
0.0
 11
0.0
 21
-4.651820149539503
 31
0.0
  0
DIMENSION
  5
35C53
330
1F
100
AcDbEntity
  8
AM_5
100
AcDbDimension
  2
*D6
 10
-13.72959417068796
 20
0.0000000000000024
 30
0.0
 11
-17.12959417068796
 21
22.5
 31
0.0
 70
    32
 71
     5
 42
45.0
  3
AM_JIS$0
100
AcDbAlignedDimension
 13
-4.532715215226745
 23
45.0
 33
0.0
 14
-5.190742844615784
 24
0.0
 34
0.0
 50
90.0
100
AcDbRotatedDimension
1001
ACAD
1000
DSTYLE
1002
{
1070
   179
1070
     1
1070
   271
1070
     0
1002
}
  0
DIMENSION
  5
35C54
330
1F
100
AcDbEntity
  8
AM_5
100
AcDbDimension
  2
*D7
 10
13.15661058467231
 20
6.330148018723662
 30
0.0
 11
19.39724294853125
 21
-10.75305289325183
 31
0.0
 70
   162
 71
     5
 42
2.050761871093347
  3
AM_JIS$2
100
AcDb2LineAngularDimension
 13
0.0
 23
0.8191865462955548
 33
0.0
 14
0.0
 24
-4.651820149539503
 34
0.0
 15
1.158909437757984
 25
0.0845401192730151
 35
0.0
 16
8.917671051728426
 26
-11.46589193821148
 36
0.0
1001
ACAD
1000
DSTYLE
1002
{
1070
   179
1070
     1
1070
   271
1070
     0
1070
   279
1070
     1
1002
}
  0
LINE
  5
35C71
330
1F
100
AcDbEntity
  8
AM_0
100
AcDbLine
 10
26.25096086870349
 20
-77.70620220806313
 30
0.0
 11
27.69860452373041
 21
-78.1808670910184
 31
0.0
  0
LINE
  5
35C72
330
1F
100
AcDbEntity
  8
AM_0
100
AcDbLine
 10
25.97484680092316
 20
-77.94316305669736
 30
0.0
 11
26.30544530352245
 21
-78.05156231572551
 31
0.0
  0
ELLIPSE
  5
35C73
330
1F
100
AcDbEntity
  8
AM_0
100
AcDbEllipse
 10
25.73818846913127
 20
-77.91925340314083
 30
0.0
 11
0.5488470330659484
 21
-0.1579597935788712
 31
0.0
210
0.0
220
0.0
230
1.0
 40
0.0815346338363243
 41
1.148576199819278
 42
1.832717021888923
  0
LINE
  5
35C74
330
1F
100
AcDbEntity
  8
AM_0
100
AcDbLine
 10
25.99250256411665
 20
-78.01994562838695
 30
0.0
 11
25.97484680092316
 21
-77.94316305669736
 31
0.0
  0
LINE
  5
35C75
330
1F
100
AcDbEntity
  8
AM_0
100
AcDbLine
 10
25.28483754429385
 20
-77.93956430727121
 30
0.0
 11
25.34639471754576
 21
-78.20726828678426
 31
0.0
  0
LINE
  5
35C76
330
1F
100
AcDbEntity
  8
AM_0
100
AcDbLine
 10
24.52865607989634
 20
-78.47111836980002
 30
0.0
 11
24.46709890664442
 21
-78.20341439028675
 31
0.0
  0
LINE
  5
35C77
330
1F
100
AcDbEntity
  8
AM_0
100
AcDbLine
 10
28.65878521836635
 20
-71.83783436666454
 30
0.0
 11
30.0363966362786
 21
-77.82888365167901
 31
0.0
  0
LINE
  5
35C78
330
1F
100
AcDbEntity
  8
AM_0
100
AcDbLine
 10
6.277343397745881
 20
-83.16905685772258
 30
0.0
 11
6.390937751678848
 21
-83.66306363210242
 31
0.0
  0
LINE
  5
35C79
330
1F
100
AcDbEntity
  8
AM_0
100
AcDbLine
 10
24.50781271893948
 20
-70.39466083117304
 30
0.0
 11
27.34771270044166
 21
-70.68157667385276
 31
0.0
  0
ARC
  5
35C7A
330
1F
100
AcDbEntity
  8
AM_0
100
AcDbCircle
 10
21.55737396673931
 20
-85.91044582959239
 30
0.0
 40
15.65669762443553
100
AcDbArc
 50
148.5553003466548
 51
167.4002407043709
  0
ARC
  5
35C7B
330
1F
100
AcDbEntity
  8
AM_0
100
AcDbCircle
 10
15.40203636673846
 20
-82.28986321959587
 30
0.0
 40
8.517415852707158
100
AcDbArc
 50
122.3615504492682
 51
147.7331815569389
  0
ARC
  5
35C7C
330
1F
100
AcDbEntity
  8
AM_0
100
AcDbCircle
 10
17.39399337463169
 20
-85.29702905983822
 30
0.0
 40
12.12396529754454
100
AcDbArc
 50
107.9681693619875
 51
122.7063726689091
  0
LINE
  5
35C7D
330
1F
100
AcDbEntity
  8
AM_0
100
AcDbLine
 10
23.74221586886029
 20
-70.50929162323018
 30
0.0
 11
23.89643041812838
 21
-70.45953303319516
 31
0.0
  0
LINE
  5
35C7E
330
1F
100
AcDbEntity
  8
AM_0
100
AcDbLine
 10
13.65388844141035
 20
-73.76437326749965
 30
0.0
 11
15.22019698884333
 21
-73.25899095921568
 31
0.0
  0
LINE
  5
35C7F
330
1F
100
AcDbEntity
  8
AM_0
100
AcDbLine
 10
24.41587248742962
 20
-78.21994301488667
 30
0.0
 11
24.47742966068154
 21
-78.48764699439971
 31
0.0
  0
ELLIPSE
  5
35C80
330
1F
100
AcDbEntity
  8
AM_0
100
AcDbEllipse
 10
26.11863320424436
 20
-78.18625911847244
 30
0.0
 11
0.05025928171877157
 21
0.4974675915083446
 31
0.0
210
0.0
220
0.0
230
1.0
 40
0.8795934571387016
 41
6.092390367905503
 42
6.650895728543671
  0
ELLIPSE
  5
35C81
330
1F
100
AcDbEntity
  8
AM_0
100
AcDbEllipse
 10
11.42629252895472
 20
-80.40574946669699
 30
0.0
 11
9.745669087206469
 21
2.240967211421938
 31
0.0
210
0.0
220
0.0
230
0.9999999999999999
 40
0.1710139572598722
 41
4.932059137247992
 42
5.179784419229174
  0
ELLIPSE
  5
35C82
330
1F
100
AcDbEntity
  8
AM_0
100
AcDbEllipse
 10
8.607947852927509
 20
-83.40321253751745
 30
0.0
 11
1.461850363080973
 21
0.3361450817132788
 31
0.0
210
0.0
220
0.0
230
1.0
 40
0.1710139572598683
 41
3.608988092434272
 42
4.787085337530433
  0
ELLIPSE
  5
35C83
330
1F
100
AcDbEntity
  8
AM_0
100
AcDbEllipse
 10
12.17395809557615
 20
-82.5350341120843
 30
0.0
 11
1.461850363080975
 21
0.3361450817132792
 31
0.0
210
0.0
220
0.0
230
1.0
 40
0.1710139572598682
 41
4.78708533753043
 42
6.283185307179434
  0
ELLIPSE
  5
35C84
330
1F
100
AcDbEntity
  8
AM_0
100
AcDbEllipse
 10
7.852788114759733
 20
-83.32691855038911
 30
0.0
 11
1.461850363080973
 21
0.3361450817132788
 31
0.0
210
0.0
220
0.0
230
1.0
 40
0.1710139572598683
 41
3.141592653589874
 42
3.608988092434272
  0
ELLIPSE
  5
35C85
330
1F
100
AcDbEntity
  8
AM_0
100
AcDbEllipse
 10
27.19693485528546
 20
-72.17397944837785
 30
0.0
 11
1.461850363080972
 21
0.3361450817132846
 31
0.0
210
0.0
220
0.0
230
1.0
 40
0.1710139572598702
 41
5.179784419228957
 42
6.283185307179583
  0
ELLIPSE
  5
35C86
330
1F
100
AcDbEntity
  8
AM_0
100
AcDbEllipse
 10
8.494353498994542
 20
-82.90920576313738
 30
0.0
 11
1.461850363080972
 21
0.3361450817132846
 31
0.0
210
0.0
220
0.0
230
1.0
 40
0.1710139572598702
 41
3.608988092434271
 42
4.787085337530433
  0
ELLIPSE
  5
35C87
330
1F
100
AcDbEntity
  8
AM_0
100
AcDbEllipse
 10
8.494353498994542
 20
-82.90920576313738
 30
0.0
 11
0.1507778451563148
 21
1.492402774525033
 31
0.0
210
0.0
220
0.0
230
1.0
 40
0.8795934571387019
 41
1.29355707682469
 42
1.938506748159104
  0
ELLIPSE
  5
35C88
330
1F
100
AcDbEntity
  8
AM_0
100
AcDbEllipse
 10
8.494353498994542
 20
-82.90920576313738
 30
0.0
 11
-1.345332229147076
 21
0.6633861569389481
 31
0.0
210
0.0
220
0.0
230
1.0
 40
0.0861869919346744
 41
0.4771724911157205
 42
1.737175734608764
  0
ELLIPSE
  5
35C89
330
1F
100
AcDbEntity
  8
AM_0
100
AcDbEllipse
 10
11.69937380808938
 20
-78.76274106442861
 30
0.0
 11
-0.9886813269523918
 21
1.128055510041798
 31
0.0
210
0.0
220
0.0
230
1.0
 40
0.015354160162607
 41
0.378663037538034
 42
1.757415916657159
  0
ELLIPSE
  5
35C8A
330
1F
100
AcDbEntity
  8
AM_0
100
AcDbEllipse
 10
19.71433617982325
 20
-87.48144693059521
 30
0.0
 11
1.407259888125607
 21
13.92909256223366
 31
0.0
210
0.0
220
0.0
230
0.9999999999999999
 40
0.8795934571387017
 41
0.3677104213641952
 42
0.6085622978621426
  0
ELLIPSE
  5
35C8B
330
1F
100
AcDbEntity
  8
AM_0
100
AcDbEllipse
 10
20.42431117519891
 20
-87.55317589126526
 30
0.0
 11
1.256482042969289
 21
12.43668978770862
 31
0.0
210
0.0
220
0.0
230
1.0
 40
0.8795934571387015
 41
0.3677104213641928
 42
0.6085622978621353
  0
ELLIPSE
  5
35C8C
330
1F
100
AcDbEntity
  8
AM_0
100
AcDbEllipse
 10
14.49141089509158
 20
-76.64568001733164
 30
0.0
 11
-0.8085071538266219
 21
1.263454068105037
 31
0.0
210
0.0
220
0.0
230
1.0
 40
0.3903193899628935
 41
4.412516614117251
 42
5.983312940912134
  0
ELLIPSE
  5
35C8D
330
1F
100
AcDbEntity
  8
AM_0
100
AcDbEllipse
 10
27.19693485528546
 20
-72.17397944837785
 30
0.0
 11
0.1507778451563147
 21
1.492402774525034
 31
0.0
210
0.0
220
0.0
230
1.0
 40
0.879593457138702
 41
0.0000000000002371
 42
0.367710421364389
  0
ELLIPSE
  5
35C8E
330
1F
100
AcDbEntity
  8
AM_0
100
AcDbEllipse
 10
24.35703487378351
 20
-71.88706360569813
 30
0.0
 11
0.1507778451563148
 21
1.492402774525033
 31
0.0
210
0.0
220
0.0
230
1.0
 40
0.8795934571387019
 41
-0.0000000000002349
 42
0.3677104213642143
  0
ELLIPSE
  5
35C8F
330
1F
100
AcDbEntity
  8
AM_0
100
AcDbEllipse
 10
7.739193760826765
 20
-82.83291177600927
 30
0.0
 11
0.1507778451563146
 21
1.492402774525033
 31
0.0
210
0.0
220
0.0
230
1.0
 40
0.8795934571387019
 41
1.29355707682469
 42
1.938506748159104
  0
ELLIPSE
  5
35C90
330
1F
100
AcDbEntity
  8
AM_0
100
AcDbEllipse
 10
7.739193760826765
 20
-82.83291177600927
 30
0.0
 11
1.461850363080972
 21
0.3361450817132846
 31
0.0
210
0.0
220
0.0
230
1.0
 40
0.1710139572598702
 41
3.141592653589872
 42
3.608988092434271
  0
ELLIPSE
  5
35C91
330
1F
100
AcDbEntity
  8
AM_0
100
AcDbEllipse
 10
7.739193760826765
 20
-82.8329117760095
 30
0.0
 11
-1.461467790638546
 21
0.3378045247261554
 31
0.0
210
0.0
220
0.0
230
1.0
 40
0.3388843483896137
 41
5.775291534540759
 42
6.28318530717943
  0
ELLIPSE
  5
35C92
330
1F
100
AcDbEntity
  8
AM_0
100
AcDbEllipse
 10
9.471968283525484
 20
-78.53770569796097
 30
0.0
 11
-1.272013030610128
 21
0.7949734900976495
 31
0.0
210
0.0
220
0.0
230
1.0
 40
0.5790753037969889
 41
5.812623189460649
 42
6.283185307179595
  0
ELLIPSE
  5
35C93
330
1F
100
AcDbEntity
  8
AM_0
100
AcDbEllipse
 10
16.87443619832129
 20
-87.19453108791572
 30
0.0
 11
1.407259888125608
 21
13.92909256223366
 31
0.0
210
0.0
220
0.0
230
1.0
 40
0.8795934571387019
 41
0.3677104213641953
 42
0.6085622978621422
  0
ELLIPSE
  5
35C94
330
1F
100
AcDbEntity
  8
AM_0
100
AcDbEllipse
 10
11.65151091358939
 20
-76.35876417465192
 30
0.0
 11
-0.8085071538266238
 21
1.263454068105039
 31
0.0
210
0.0
220
0.0
230
1.0
 40
0.3903193899628936
 41
5.983312940912134
 42
6.283185307179526
  0
ELLIPSE
  5
35C95
330
1F
100
AcDbEntity
  8
AM_0
100
AcDbEllipse
 10
14.11449289706525
 20
-75.19190384000285
 30
0.0
 11
-0.4606044556548351
 21
1.42753057250306
 31
0.0
210
0.0
220
0.0
230
0.9999999999999999
 40
0.4439251925506215
 41
6.091157122251222
 42
6.283185307179675
  0
ELLIPSE
  5
35C96
330
1F
100
AcDbEntity
  8
AM_0
100
AcDbEllipse
 10
24.35703487378351
 20
-71.88706360569813
 30
0.0
 11
-0.460604455654835
 21
1.42753057250306
 31
0.0
210
0.0
220
0.0
230
1.0
 40
0.4439251925506214
 41
6.091157122251222
 42
6.283185307179606
  0
ELLIPSE
  5
35C97
330
1F
100
AcDbEntity
  8
AM_0
100
AcDbEllipse
 10
27.19693485528546
 20
-72.17397944837785
 30
0.0
 11
-0.4606044556548351
 21
1.42753057250306
 31
0.0
210
0.0
220
0.0
230
1.0
 40
0.4439251925506214
 41
4.520360795456362
 42
6.091157122251222
  0
ELLIPSE
  5
35C98
330
1F
100
AcDbEntity
  8
AM_0
100
AcDbEllipse
 10
16.95439287856743
 20
-75.47881968268257
 30
0.0
 11
-0.460604455654835
 21
1.42753057250306
 31
0.0
210
0.0
220
0.0
230
1.0
 40
0.4439251925506214
 41
4.520360795456362
 42
6.091157122251222
  0
ELLIPSE
  5
35C99
330
1F
100
AcDbEntity
  8
AM_0
100
AcDbEllipse
 10
19.50150564016008
 20
-73.02390475618768
 30
0.0
 11
4.385551089242916
 21
1.008435245139854
 31
0.0
210
0.0
220
0.0
230
0.9999999999999998
 40
0.1710139572598702
 41
2.577830235013661
 42
2.815784913561285
  0
ELLIPSE
  5
35C9A
330
1F
100
AcDbEntity
  8
AM_0
100
AcDbEllipse
 10
19.39110790810969
 20
-72.54379966627107
 30
0.0
 11
4.385551089242933
 21
1.008435245139777
 31
0.0
210
0.0
220
0.0
230
1.0
 40
0.1710139572598702
 41
2.879260436210034
 42
4.338715748662541
  0
ELLIPSE
  5
35C9B
330
1F
100
AcDbEntity
  8
AM_0
100
AcDbEllipse
 10
20.24388026871179
 20
-72.26864566500581
 30
0.0
 11
4.385551089242933
 21
1.008435245139777
 31
0.0
210
0.0
220
0.0
230
1.0
 40
0.1710139572598702
 41
6.020853089797127
 42
6.846947725758668
  0
ELLIPSE
  5
35C9C
330
1F
100
AcDbEntity
  8
AM_0
100
AcDbEllipse
 10
20.35427800076195
 20
-72.74875075492241
 30
0.0
 11
4.385551089242916
 21
1.008435245139854
 31
0.0
210
0.0
220
0.0
230
0.9999999999999998
 40
0.1710139572598702
 41
0.3182622994977764
 42
0.5637624185777794
  0
ARC
  5
35C9D
330
1F
100
AcDbEntity
  8
AM_0
100
AcDbCircle
 10
27.19693485528546
 20
-72.17397944837785
 30
0.0
 40
1.5
100
AcDbArc
 50
12.94976781263421
 51
84.23096756185865
  0
ARC
  5
35C9E
330
1F
100
AcDbEntity
  8
AM_0
100
AcDbCircle
 10
24.35703487378351
 20
-71.88706360569813
 30
0.0
 40
1.5
100
AcDbArc
 50
84.23096756185865
 51
107.882721648898
  0
ARC
  5
35C9F
330
1F
100
AcDbEntity
  8
AM_0
100
AcDbCircle
 10
7.739193760826765
 20
-82.83291177600927
 30
0.0
 40
1.5
100
AcDbArc
 50
166.9851834545538
 51
192.9497678126342
  0
LINE
  5
35CA0
330
1F
100
AcDbEntity
  8
AM_0
100
AcDbLine
 10
18.01556083508126
 20
-67.88748134571119
 30
0.0
 11
20.24043004035207
 21
-67.45473698068554
 31
0.0
  0
LINE
  5
35CA1
330
1F
100
AcDbEntity
  8
AM_0
100
AcDbLine
 10
20.24043004035207
 20
-67.45473698068554
 30
0.0
 11
20.35674655531261
 21
-67.96058207221768
 31
0.0
  0
LINE
  5
35CA2
330
1F
100
AcDbEntity
  8
AM_0
100
AcDbLine
 10
20.24043004035207
 20
-67.45473698068554
 30
0.0
 11
21.04878370522761
 21
-67.65253249136458
 31
0.0
  0
LINE
  5
35CA3
330
1F
100
AcDbEntity
  8
AM_0
100
AcDbLine
 10
21.04878370522738
 20
-67.65253249136458
 30
0.0
 11
19.63226816483211
 21
-68.28307236706928
 31
0.0
  0
LINE
  5
35CA4
330
1F
100
AcDbEntity
  8
AM_0
100
AcDbLine
 10
19.63226816483211
 20
-68.28307236706928
 30
0.0
 11
17.40739895956131
 21
-68.71581673209494
 31
0.0
  0
LINE
  5
35CA5
330
1F
100
AcDbEntity
  8
AM_0
100
AcDbLine
 10
17.40739895956131
 20
-68.71581673209494
 30
0.0
 11
16.59904529468577
 21
-68.51802122141589
 31
0.0
  0
LINE
  5
35CA6
330
1F
100
AcDbEntity
  8
AM_0
100
AcDbLine
 10
16.59904529468599
 20
-68.51802122141589
 30
0.0
 11
18.01556083508126
 21
-67.88748134571119
 31
0.0
  0
LINE
  5
35CA7
330
1F
100
AcDbEntity
  8
AM_0
100
AcDbLine
 10
18.01556083508126
 20
-67.88748134571119
 30
0.0
 11
18.17184258398265
 21
-68.56712993735482
 31
0.0
  0
ARC
  5
35CA8
330
1F
100
AcDbEntity
  8
AM_0
100
AcDbCircle
 10
20.61318464500346
 20
-75.8665753298194
 30
0.0
 40
8.441302536758098
100
AcDbArc
 50
80.35742446700657
 51
125.5421111582333
  0
LINE
  5
35CA9
330
1F
100
AcDbEntity
  8
AM_0
100
AcDbLine
 10
24.06980118252182
 20
-71.93391669070115
 30
0.0
 11
23.33327466788592
 21
-68.73086059554271
 31
0.0
  0
LINE
  5
35CAA
330
1F
100
AcDbEntity
  8
AM_0
100
AcDbLine
 10
15.77637394040039
 20
-73.79695265043461
 30
0.0
 11
15.04945594376022
 21
-70.6356827252514
 31
0.0
  0
LINE
  5
35CAB
330
1F
100
AcDbEntity
  8
AM_0
100
AcDbLine
 10
15.70624572137717
 20
-68.99798457793395
 30
0.0
 11
15.21098767562467
 21
-69.76314352850636
 31
0.0
  0
LINE
  5
35CAC
330
1F
100
AcDbEntity
  8
AM_0
100
AcDbLine
 10
22.02711444972465
 20
-67.54453285069235
 30
0.0
 11
22.80684665004537
 21
-68.01651425637101
 31
0.0
  0
ARC
  5
35CAD
330
1F
100
AcDbEntity
  8
AM_0
100
AcDbCircle
 10
22.22983751142078
 20
-68.99287868074521
 30
0.0
 40
1.134119497778355
100
AcDbArc
 50
13.3578473399258
 51
59.41787971929066
  0
ARC
  5
35CAE
330
1F
100
AcDbEntity
  8
AM_0
100
AcDbCircle
 10
16.1565133857016
 20
-70.38940878127346
 30
0.0
 40
1.13411949777769
100
AcDbArc
 50
146.4816559059328
 51
192.5416882853228
  0
LINE
  5
35CAF
330
1F
100
AcDbEntity
  8
AM_0
100
AcDbLine
 10
23.76766454457697
 20
-78.42909262780563
 30
0.0
 11
23.82922171782889
 21
-78.6967966073189
 31
0.0
  0
ELLIPSE
  5
35CB0
330
1F
100
AcDbEntity
  8
AM_0
100
AcDbEllipse
 10
18.82391449995657
 20
-68.08527685639024
 30
0.0
 11
2.520021895129839
 21
0.5794662622460888
 31
0.0
210
0.0
220
0.0
230
1.0
 40
0.17101395725987
 41
2.210264180953248
 42
8.493449488132834
  0
ELLIPSE
  5
35CB1
330
1F
100
AcDbEntity
  8
AM_0
100
AcDbEllipse
 10
19.92789182045908
 20
-72.88632775555539
 30
0.0
 11
4.141909362062753
 21
0.952411064854307
 31
0.0
210
0.0
220
0.0
230
1.0
 40
0.1710139572598701
 41
4.61642926377455
 42
6.283185307179586
  0
ELLIPSE
  5
35CB2
330
1F
100
AcDbEntity
  8
AM_0
100
AcDbEllipse
 10
18.88858399413653
 20
-68.36651590669908
 30
0.0
 11
3.209144765006212
 21
0.7379265734074464
 31
0.0
210
0.0
220
0.0
230
1.0
 40
0.17101395725987
 41
2.967138199157093
 42
6.457639761612295
  0
ELLIPSE
  5
35CB3
330
1F
100
AcDbEntity
  8
AM_0
100
AcDbEllipse
 10
19.03523933590236
 20
-69.0043005308728
 30
0.0
 11
3.856465323218504
 21
0.8867746548733625
 31
0.0
210
0.0
220
0.0
230
0.9999999999999999
 40
0.1710139572598701
 41
2.967138199158399
 42
6.457639761613534
  0
ELLIPSE
  5
35CB4
330
1F
100
AcDbEntity
  8
AM_0
100
AcDbEllipse
 10
19.19136530582318
 20
-69.68327166039717
 30
0.0
 11
4.141909362062754
 21
0.9524110648543068
 31
0.0
210
0.0
220
0.0
230
0.9999999999999999
 40
0.1710139572598701
 41
3.141592653589794
 42
6.283185307179587
  0
LINE
  5
35CB5
330
1F
100
AcDbEntity
  8
AM_0
100
AcDbLine
 10
13.15661058467185
 20
-82.87717619519663
 30
0.0
 11
13.67780852306214
 21
-82.5686302332997
 31
0.0
  0
LINE
  5
35CB6
330
1F
100
AcDbEntity
  8
AM_0
100
AcDbLine
 10
14.20759699379028
 20
-87.44777665120182
 30
0.0
 11
14.72879493218056
 21
-87.1392306893049
 31
0.0
  0
LINE
  5
35CB7
330
1F
100
AcDbEntity
  8
AM_0
100
AcDbLine
 10
1.158909437757529
 20
-86.7483329412089
 30
0.0
 11
13.15661058467185
 21
-82.87717619519663
 31
0.0
  0
LINE
  5
35CB8
330
1F
100
AcDbEntity
  8
AM_0
100
AcDbLine
 10
13.15661058467185
 20
-82.87717619519663
 30
0.0
 11
14.20759699379005
 21
-87.44777665120182
 31
0.0
  0
LINE
  5
35CB9
330
1F
100
AcDbEntity
  8
AM_0
100
AcDbLine
 10
2.209895846875725
 20
-91.3189333972141
 30
0.0
 11
14.20759699379005
 21
-87.44777665120205
 31
0.0
  0
LINE
  5
35CBA
330
1F
100
AcDbEntity
  8
AM_0
100
AcDbLine
 10
1.158909437757529
 20
-86.7483329412089
 30
0.0
 11
2.209895846875725
 21
-91.3189333972141
 31
0.0
  0
LINE
  5
35CBB
330
1F
100
AcDbEntity
  8
AM_0
100
AcDbLine
 10
6.087205533095585
 20
-83.24804555989067
 30
0.0
 11
0.0787773515437493
 21
-86.80499795017045
 31
0.0
  0
LINE
  5
35CBC
330
1F
100
AcDbEntity
  8
AM_0
100
AcDbLine
 10
6.281119286254807
 20
-83.18547769588963
 30
0.0
 11
6.087205533095585
 21
-83.24804555989067
 31
0.0
  0
LINE
  5
35CBD
330
1F
100
AcDbEntity
  8
AM_0
100
AcDbLine
 10
0.0006025799141298
 20
-86.88935487243202
 30
0.0
 11
1.051588989032325
 21
-91.45995532843722
 31
0.0
  0
ELLIPSE
  5
35CBE
330
1F
100
AcDbEntity
  8
AM_0
100
AcDbEllipse
 10
0.7802561068906471
 20
-86.71007749551836
 30
0.0
 11
0.7796535269765186
 21
0.179277376913752
 31
0.0
210
0.0
220
0.0
230
1.0
 40
0.1710139572598701
 41
2.649057003837517
 42
5.179784419229113
  0
ELLIPSE
  5
35CBF
330
1F
100
AcDbEntity
  8
AM_0
100
AcDbEllipse
 10
1.831242516008842
 20
-91.28067795152356
 30
0.0
 11
0.7796535269765186
 21
0.179277376913752
 31
0.0
210
0.0
220
0.0
230
1.0
 40
0.1710139572598701
 41
3.14159265358979
 42
5.179784419229113
  0
LINE
  5
35CC0
330
1F
100
AcDbEntity
  8
AM_0
100
AcDbLine
 10
3.34455719560151
 20
-95.85501524169331
 30
0.0
 11
15.23075109955425
 21
-92.01983722281648
 31
0.0
  0
LINE
  5
35CC1
330
1F
100
AcDbEntity
  8
AM_0
100
AcDbLine
 10
2.295180582992998
 20
-91.29141557713274
 30
0.0
 11
3.34455719560151
 21
-95.85501524169331
 31
0.0
  0
LINE
  5
35CC2
330
1F
100
AcDbEntity
  8
AM_0
100
AcDbLine
 10
14.18137448694574
 20
-87.45623755825591
 30
0.0
 11
15.23075109955425
 21
-92.01983722281648
 31
0.0
  0
LINE
  5
35CC3
330
1F
100
AcDbEntity
  8
AM_0
100
AcDbLine
 10
15.23075109955425
 20
-92.01983722281648
 30
0.0
 11
15.77674210670239
 21
-91.6966139172755
 31
0.0
  0
LINE
  5
35CC4
330
1F
100
AcDbEntity
  8
AM_0
100
AcDbLine
 10
1.152675373844659
 20
-91.50115678208294
 30
0.0
 11
2.186250337757883
 21
-95.9960371729162
 31
0.0
  0
ELLIPSE
  5
35CC5
330
1F
100
AcDbEntity
  8
AM_0
100
AcDbEllipse
 10
2.965903864734628
 20
-95.81675979600277
 30
0.0
 11
0.7796535269765186
 21
0.179277376913752
 31
0.0
210
0.0
220
0.0
230
1.0
 40
0.1710139572598701
 41
3.141592653589507
 42
5.179784419229113
  0
LINE
  5
35CC6
330
1F
100
AcDbEntity
  8
AM_0
100
AcDbLine
 10
22.09558735011274
 20
-67.58598033197177
 30
0.0
 11
23.0508141658986
 21
-67.14491735782144
 31
0.0
  0
LINE
  5
35CC7
330
1F
100
AcDbEntity
  8
AM_0
100
AcDbLine
 10
-67.66274479649724
 20
24.06962267874633
 30
0.0
 11
-66.7681273337746
 21
24.44189687843254
 31
0.0
  0
LINE
  5
35CC8
330
1F
100
AcDbEntity
  8
AM_0
100
AcDbLine
 10
-67.71747437452632
 20
23.06292095819481
 30
0.0
 11
-67.66274479649724
 21
24.06962267874633
 31
0.0
  0
LINE
  5
35CC9
330
1F
100
AcDbEntity
  8
AM_0
100
AcDbLine
 10
-67.66274479672393
 20
24.06962267457197
 30
0.0
 11
-67.88765564978326
 21
24.10967942029311
 31
0.0
  0
ARC
  5
35CCA
330
1F
100
AcDbEntity
  8
AM_0
100
AcDbCircle
 10
-68.39525126979879
 20
24.18213801641377
 30
0.0
 40
0.741097452861862
100
AcDbArc
 50
351.267436658541
 51
31.42246619409902
  0
LINE
  5
35CCB
330
1F
100
AcDbEntity
  8
AM_0
100
AcDbLine
 10
-69.44324724284979
 20
19.11582554783217
 30
0.0
 11
-69.67481890787258
 21
19.1570685878005
 31
0.0
  0
LINE
  5
35CCC
330
1F
100
AcDbEntity
  8
AM_0
100
AcDbLine
 10
-82.71055625615486
 20
15.34262398126248
 30
0.0
 11
-108.5016668528892
 21
19.93603485932863
 31
0.0
  0
LINE
  5
35CCD
330
1F
100
AcDbEntity
  8
AM_0
100
AcDbLine
 10
-96.490906239374
 20
21.87075548753933
 30
0.0
 11
-108.5016668528892
 21
24.00987851014224
 31
0.0
  0
LINE
  5
35CCE
330
1F
100
AcDbEntity
  8
AM_0
100
AcDbLine
 10
-82.71055625615486
 20
15.34262398126248
 30
0.0
 11
-82.78087567694888
 21
15.10115570462563
 31
0.0
  0
LINE
  5
35CCF
330
1F
100
AcDbEntity
  8
AM_0
100
AcDbLine
 10
-66.7681273337746
 20
24.44189687843254
 30
0.0
 11
-66.85148065260842
 21
22.90868700352758
 31
0.0
  0
LINE
  5
35CD0
330
1F
100
AcDbEntity
  8
AM_0
100
AcDbLine
 10
-68.28740028036418
 20
20.30721610407204
 30
0.0
 11
-68.18707504051463
 21
22.15260931206058
 31
0.0
  0
LINE
  5
35CD1
330
1F
100
AcDbEntity
  8
AM_0
100
AcDbLine
 10
-69.44324724284979
 20
19.11582554783217
 30
0.0
 11
-69.92419393131172
 21
17.81037146111112
 31
0.0
  0
LINE
  5
35CD2
330
1F
100
AcDbEntity
  8
AM_0
100
AcDbLine
 10
-70.77032319811588
 20
18.74840862059341
 30
0.0
 11
-69.67819609719595
 21
21.71281573954866
 31
0.0
  0
LINE
  5
35CD3
330
1F
100
AcDbEntity
  8
AM_0
100
AcDbLine
 10
-73.30647052168956
 20
13.90316110475646
 30
0.0
 11
-71.09836586359847
 21
17.46565076875481
 31
0.0
  0
LINE
  5
35CD4
330
1F
100
AcDbEntity
  8
AM_0
100
AcDbLine
 10
-64.41769713004123
 20
50.44637523854931
 30
0.0
 11
-69.32550822128064
 21
27.99999999999955
 31
0.0
  0
LINE
  5
35CD5
330
1F
100
AcDbEntity
  8
AM_0
100
AcDbLine
 10
-69.32550822128064
 20
27.99999999999955
 30
0.0
 11
-108.5016668528892
 21
27.99999999999955
 31
0.0
  0
LINE
  5
35CD6
330
1F
100
AcDbEntity
  8
AM_0
100
AcDbLine
 10
-69.32550822128064
 20
27.99999999999955
 30
0.0
 11
-73.36444241978006
 21
14.13079474564597
 31
0.0
  0
ELLIPSE
  5
35CD7
330
1F
100
AcDbEntity
  8
AM_0
100
AcDbEllipse
 10
-97.24936921055246
 20
19.26628655882132
 30
0.0
 11
23.67231399885095
 21
-5.533902854751801
 31
0.0
210
0.0
220
0.0
230
1.0
 40
0.1114246483019127
 41
0.1618996114108627
 42
1.56480359988713
  0
LINE
  5
35CD8
330
1F
100
AcDbEntity
  8
AM_0
100
AcDbLine
 10
-108.5016668528892
 20
24.68698393688692
 30
0.0
 11
-96.490906239374
 21
21.87075548753955
 31
0.0
  0
LINE
  5
35CD9
330
1F
100
AcDbEntity
  8
AM_0
100
AcDbLine
 10
-69.92419393131013
 20
17.81037146111567
 30
0.0
 11
-70.00101074569693
 21
17.82405257769642
 31
0.0
  0
LINE
  5
35CDA
330
1F
100
AcDbEntity
  8
AM_0
100
AcDbLine
 10
-69.92419393131172
 20
17.81037146111135
 30
0.0
 11
-70.00324277607547
 21
17.53892741194795
 31
0.0
  0
LINE
  5
35CDB
330
1F
100
AcDbEntity
  8
AM_0
100
AcDbLine
 10
-73.7872274916856
 20
14.22992746386217
 30
0.0
 11
-73.36444241978006
 21
14.1307947456462
 31
0.0
  0
LINE
  5
35CDC
330
1F
100
AcDbEntity
  8
AM_0
100
AcDbLine
 10
-73.36444241978006
 20
14.13079474564597
 30
0.0
 11
-73.30647052168956
 21
13.90316110475646
 31
0.0
  0
LINE
  5
35CDD
330
1F
100
AcDbEntity
  8
AM_0
100
AcDbLine
 10
-73.30647052168933
 20
13.90316110475533
 30
0.0
 11
-82.5244882480863
 21
15.54489509445011
 31
0.0
  0
LINE
  5
35CDE
330
1F
100
AcDbEntity
  8
AM_0
100
AcDbLine
 10
-82.58881851338947
 20
15.79749563010068
 30
0.0
 11
-82.52448824808676
 21
15.54489509445148
 31
0.0
  0
LINE
  5
35CDF
330
1F
100
AcDbEntity
  8
AM_0
100
AcDbLine
 10
-82.58881851338947
 20
15.79749563010091
 30
0.0
 11
-73.7872274916856
 21
14.22992746386217
 31
0.0
  0
LINE
  5
35CE0
330
1F
100
AcDbEntity
  8
AM_0
100
AcDbLine
 10
-72.43237029957595
 20
5.999999999999773
 30
0.0
 11
-68.85222232210413
 21
6.0
 31
0.0
  0
ARC
  5
35CE1
330
1F
100
AcDbEntity
  8
AM_0
100
AcDbCircle
 10
-77.50166685288923
 20
44.99999999999955
 30
0.0
 40
31.0
100
AcDbArc
 50
21.90417032324216
 51
180.0
  0
LINE
  5
35CE2
330
1F
100
AcDbEntity
  8
AM_0
100
AcDbLine
 10
-68.85221430409888
 20
5.999998115545395
 30
0.0
 11
-68.71678469444601
 21
6.576226055124607
 31
0.0
  0
LINE
  5
35CE3
330
1F
100
AcDbEntity
  8
AM_0
100
AcDbLine
 10
-73.55285198411161
 20
5.999999999999773
 30
0.0
 11
-72.43237029957663
 21
5.999999999999773
 31
0.0
  0
LINE
  5
35CE4
330
1F
100
AcDbEntity
  8
AM_0
100
AcDbLine
 10
-108.5016668528892
 20
27.99999999999955
 30
0.0
 11
-108.5016668528892
 21
24.68698393688692
 31
0.0
  0
LINE
  5
35CE5
330
1F
100
AcDbEntity
  8
AM_0
100
AcDbLine
 10
-108.5016668528892
 20
24.68698393688692
 30
0.0
 11
-108.5016668528892
 21
24.00987851014224
 31
0.0
  0
LINE
  5
35CE6
330
1F
100
AcDbEntity
  8
AM_0
100
AcDbLine
 10
-108.5016668528892
 20
24.00987851014224
 30
0.0
 11
-108.5016668528892
 21
19.93603485932863
 31
0.0
  0
LINE
  5
35CE7
330
1F
100
AcDbEntity
  8
AM_0
100
AcDbLine
 10
-108.5016668528892
 20
19.93603485932863
 30
0.0
 11
-108.5016668528892
 21
10.34094634875328
 31
0.0
  0
LINE
  5
35CE8
330
1F
100
AcDbEntity
  8
AM_0
100
AcDbLine
 10
-108.5016668528892
 20
44.99999999999977
 30
0.0
 11
-108.5016668528892
 21
27.99999999999955
 31
0.0
  0
LINE
  5
35CE9
330
1F
100
AcDbEntity
  8
AM_0
100
AcDbLine
 10
-68.50166685288923
 20
75.18691769624729
 30
0.0
 11
-68.50166685288923
 21
74.66479394838279
 31
0.0
  0
LINE
  5
35CEA
330
1F
100
AcDbEntity
  8
AM_0
100
AcDbLine
 10
-86.50166685288946
 20
74.66479394838279
 30
0.0
 11
-86.50166685288946
 21
75.18691769624729
 31
0.0
  0
ARC
  5
35CEB
330
1F
100
AcDbEntity
  8
AM_0
100
AcDbCircle
 10
-77.50166701021999
 20
44.99999902972286
 30
0.0
 40
31.50000097478274
100
AcDbArc
 50
73.39845063098136
 51
88.18078047597032
  0
LINE
  5
35CEC
330
1F
100
AcDbEntity
  8
AM_0
100
AcDbLine
 10
-76.50166685288923
 20
75.98386676965902
 30
0.0
 11
-76.50166685288923
 21
76.48412298286235
 31
0.0
  0
LINE
  5
35CED
330
1F
100
AcDbEntity
  8
AM_0
100
AcDbLine
 10
-78.50166685288946
 20
75.98386676965902
 30
0.0
 11
-78.50166685288946
 21
76.48412298286235
 31
0.0
  0
ARC
  5
35CEE
330
1F
100
AcDbEntity
  8
AM_0
100
AcDbCircle
 10
-77.5016666955612
 20
44.99999902973832
 30
0.0
 40
31.50000097476684
100
AcDbArc
 50
91.81921952402961
 51
106.6015493690186
  0
ELLIPSE
  5
35CEF
330
1F
100
AcDbEntity
  8
AM_0
100
AcDbEllipse
 10
-59.87259276522173
 20
42.6848953370536
 30
0.0
 11
1.913058670809505
 21
1.84137313945176
 31
0.0
210
0.0
220
0.0
230
1.0
 40
0.6695461451565815
 41
0.0182853465445023
 42
0.3062233530730796
  0
LINE
  5
35CF0
330
1F
100
AcDbEntity
  8
AM_0
100
AcDbLine
 10
-64.4176971300401
 20
50.44637523854908
 30
0.0
 11
-65.92377260162107
 21
22.74346169315959
 31
0.0
  0
LINE
  5
35CF1
330
1F
100
AcDbEntity
  8
AM_0
100
AcDbLine
 10
-48.73958465367514
 20
56.56471476369597
 30
0.0
 11
-64.4176971300401
 21
50.44637523854908
 31
0.0
  0
ARC
  5
35CF2
330
1F
100
AcDbEntity
  8
AM_0
100
AcDbCircle
 10
-77.50166685288923
 20
45.0
 30
0.0
 40
31.00000000000009
100
AcDbArc
 50
302.2629877105684
 51
21.90417032324216
  0
LINE
  5
35CF3
330
1F
100
AcDbEntity
  8
AM_0
100
AcDbLine
 10
-59.28852914035974
 20
45.37685348374021
 30
0.0
 11
-58.42019683949388
 21
44.82673992653554
 31
0.0
  0
LINE
  5
35CF4
330
1F
100
AcDbEntity
  8
AM_0
100
AcDbLine
 10
-57.98239636501398
 20
44.54938069882746
 30
0.0
 11
-57.11406406414812
 21
43.9992671416228
 31
0.0
  0
ELLIPSE
  5
35CF5
330
1F
100
AcDbEntity
  8
AM_0
100
AcDbEllipse
 10
-59.87259276522332
 20
42.68489533705201
 30
0.0
 11
-2.332998379035551
 21
-2.245576999330926
 31
0.0
210
0.0
220
0.0
230
1.0
 40
0.6695461451565682
 41
1.696071456972113
 42
2.679793532875383
  0
ELLIPSE
  5
35CF6
330
1F
100
AcDbEntity
  8
AM_0
100
AcDbEllipse
 10
-59.87259276522332
 20
42.68489533705201
 30
0.0
 11
-2.332998379035551
 21
-2.245576999330926
 31
0.0
210
0.0
220
0.0
230
1.0
 40
0.6695461451565682
 41
3.927900473921756
 42
6.056434726622894
  0
ARC
  5
35CF7
330
1F
100
AcDbEntity
  8
AM_0
100
AcDbCircle
 10
-77.50166685288923
 20
45.0
 30
0.0
 40
46.50000000000001
100
AcDbArc
 50
228.1896851042112
 51
236.3840057567302
  0
LINE
  5
35CF8
330
1F
100
AcDbEntity
  8
AM_0
100
AcDbLine
 10
-103.2485220850565
 20
6.27096232142685
 30
0.0
 11
-100.5914989620953
 21
4.624201228858055
 31
0.0
  0
LINE
  5
35CF9
330
1F
100
AcDbEntity
  8
AM_0
100
AcDbLine
 10
-103.2451846887357
 20
6.276347157899863
 30
0.0
 11
-86.27243312453606
 21
3.253490837956178
 31
0.0
  0
LINE
  5
35CFA
330
1F
100
AcDbEntity
  8
AM_0
100
AcDbLine
 10
-100.585290511257
 20
4.634218466640959
 30
0.0
 11
-86.50891745880631
 21
2.127208740932474
 31
0.0
  0
ELLIPSE
  5
35CFB
330
1F
100
AcDbEntity
  8
AM_0
100
AcDbEllipse
 10
-83.06650796109989
 20
16.74031122708857
 30
0.0
 11
0.5260240756832734
 21
2.953523094848177
 31
0.0
210
0.0
220
0.0
230
1.0
 40
0.2207954641004688
 41
4.259156872528584
 42
4.427049210847327
  0
ELLIPSE
  5
35CFC
330
1F
100
AcDbEntity
  8
AM_0
100
AcDbEllipse
 10
-67.47760118712404
 20
23.29725309524292
 30
0.0
 11
0.4521108497186073
 21
2.538514676045163
 31
0.0
210
0.0
220
0.0
230
1.0
 40
0.2207954641004736
 41
5.219087961126713
 42
8.360680614716506
  0
ELLIPSE
  5
35CFD
330
1F
100
AcDbEntity
  8
AM_0
100
AcDbEllipse
 10
-69.56072167002276
 20
20.41432064369064
 30
0.0
 11
0.3506827171222833
 21
1.969015396565636
 31
0.0
210
0.0
220
0.0
230
1.0
 40
0.2207954641004737
 41
4.032264069770119
 42
7.173856723359867
  0
ELLIPSE
  5
35CFE
330
1F
100
AcDbEntity
  8
AM_0
100
AcDbEllipse
 10
-70.652848770942
 20
17.44991352473789
 30
0.0
 11
0.3506827171222484
 21
1.96901539656544
 31
0.0
210
0.0
220
0.0
230
1.0
 40
0.2207954641004737
 41
0.8906714161819284
 42
1.602113512885223
  0
ARC
  5
35CFF
330
1F
100
AcDbEntity
  8
AM_0
100
AcDbCircle
 10
-77.50166685288923
 20
45.0
 30
0.0
 40
31.5
100
AcDbArc
 50
106.6015495990162
 51
190.2221793905756
  0
ELLIPSE
  5
35D00
330
1F
100
AcDbEntity
  8
AM_0
100
AcDbEllipse
 10
-73.26816280012031
 20
4.074852884884876
 30
0.0
 11
0.5260240756833725
 21
2.95352309484816
 31
0.0
210
0.0
220
0.0
230
0.9999999999999999
 40
0.2207954641004737
 41
5.461002613256095
 42
5.881411277779674
  0
ARC
  5
35D01
330
1F
100
AcDbEntity
  8
AM_0
100
AcDbCircle
 10
-77.50166685288923
 20
45.0
 30
0.0
 40
31.5
100
AcDbArc
 50
303.114415966321
 51
73.39845040098375
  0
ARC
  5
35D02
330
1F
100
AcDbEntity
  8
AM_0
100
AcDbCircle
 10
-77.50166685288923
 20
45.0
 30
0.0
 40
31.5
100
AcDbArc
 50
88.18078070597051
 51
91.81921929402949
  0
ELLIPSE
  5
35D03
330
1F
100
AcDbEntity
  8
AM_0
100
AcDbEllipse
 10
-59.47713714218708
 20
44.16831587215575
 30
0.0
 11
1.980822572501589
 21
-0.5280548610419409
 31
0.0
210
0.0
220
0.0
230
1.0
 40
0.487185032392609
 41
1.142359241660443
 42
1.858315394403665
  0
ELLIPSE
  5
35D04
330
1F
100
AcDbEntity
  8
AM_0
100
AcDbEllipse
 10
-59.47713714218708
 20
44.16831587215575
 30
0.0
 11
1.980822572501589
 21
-0.5280548610419409
 31
0.0
210
0.0
220
0.0
230
1.0
 40
0.487185032392609
 41
-0.0000000000002482
 42
0.85442123513187
  0
ELLIPSE
  5
35D05
330
1F
100
AcDbEntity
  8
AM_0
100
AcDbEllipse
 10
-59.47713714218821
 20
44.16831587215529
 30
0.0
 11
2.415637283537996
 21
-0.6439693427339337
 31
0.0
210
0.0
220
0.0
230
1.0
 40
0.4871850323926088
 41
5.673799999149396
 42
6.153900604096214
  0
LINE
  5
35D06
330
1F
100
AcDbEntity
  8
AM_0
100
AcDbLine
 10
-73.79297999448636
 20
7.664702145173351
 30
0.0
 11
-74.2869867688662
 21
7.752685021395791
 31
0.0
  0
LINE
  5
35D07
330
1F
100
AcDbEntity
  8
AM_0
100
AcDbLine
 10
-74.21069278173809
 20
9.156044792754074
 30
0.0
 11
-74.2869867688662
 21
7.752685021395791
 31
0.0
  0
LINE
  5
35D08
330
1F
100
AcDbEntity
  8
AM_0
100
AcDbLine
 10
-73.71668600735825
 20
9.068061916531406
 30
0.0
 11
-73.79297999448636
 21
7.664702145173351
 31
0.0
  0
LINE
  5
35D09
330
1F
100
AcDbEntity
  8
AM_0
100
AcDbLine
 10
-67.74682349398768
 20
21.17936643762073
 30
0.0
 11
-70.92461200326147
 21
16.05241800373233
 31
0.0
  0
LINE
  5
35D0A
330
1F
100
AcDbEntity
  8
AM_0
100
AcDbLine
 10
-68.10992699835879
 20
22.9413780025684
 30
0.0
 11
-62.28637787447951
 21
21.90420072420943
 31
0.0
  0
ARC
  5
35D0B
330
1F
100
AcDbEntity
  8
AM_0
100
AcDbCircle
 10
-73.84065026460849
 20
15.9777747791984
 30
0.0
 40
2.569623509165682
100
AcDbArc
 50
300.9493676693074
 51
330.0627301676047
  0
LINE
  5
35D0C
330
1F
100
AcDbEntity
  8
AM_0
100
AcDbLine
 10
-66.75807844343331
 20
15.31035610198683
 30
0.0
 11
-70.92461200326147
 21
16.05241800373233
 31
0.0
  0
LINE
  5
35D0D
330
1F
100
AcDbEntity
  8
AM_0
100
AcDbLine
 10
-72.8867693944685
 20
13.53416603331925
 30
0.0
 11
-73.88963817763874
 21
10.78606594495409
 31
0.0
  0
LINE
  5
35D0E
330
1F
100
AcDbEntity
  8
AM_0
100
AcDbLine
 10
-72.88628413655511
 20
13.53342076562558
 30
0.0
 11
-72.51844104956581
 21
13.77293036787205
 31
0.0
  0
LINE
  5
35D0F
330
1F
100
AcDbEntity
  8
AM_0
100
AcDbLine
 10
-69.10042532520993
 20
13.16513332118575
 30
0.0
 11
-72.51914327306463
 21
13.774008854165
 31
0.0
  0
LINE
  5
35D10
330
1F
100
AcDbEntity
  8
AM_0
100
AcDbLine
 10
-72.76792337669849
 20
9.047609111815746
 30
0.0
 11
-72.8442173638266
 21
7.644249340457463
 31
0.0
  0
LINE
  5
35D11
330
1F
100
AcDbEntity
  8
AM_0
100
AcDbLine
 10
-73.71668600735825
 20
9.068061916531406
 30
0.0
 11
-74.21069278173809
 21
9.156044792754074
 31
0.0
  0
LINE
  5
35D12
330
1F
100
AcDbEntity
  8
AM_0
100
AcDbLine
 10
-73.39563140325913
 20
10.69808306873119
 30
0.0
 11
-73.88963817763874
 21
10.78606594495386
 31
0.0
  0
ELLIPSE
  5
35D13
330
1F
100
AcDbEntity
  8
AM_0
100
AcDbEllipse
 10
-78.04503788803663
 20
10.41066157267801
 30
0.0
 11
-13.9145210794946
 21
1.930342526977373
 31
0.0
210
0.0
220
0.0
230
1.0
 40
0.1568603366391494
 41
1.975528064262348
 42
2.379213257484641
  0
ARC
  5
35D14
330
1F
100
AcDbEntity
  8
AM_0
100
AcDbCircle
 10
-68.18469186762491
 20
11.41948915650619
 30
0.0
 40
3.912271789676124
100
AcDbArc
 50
269.9039197495609
 51
307.2534232159056
  0
ELLIPSE
  5
35D15
330
1F
100
AcDbEntity
  8
AM_0
100
AcDbEllipse
 10
-77.66470298717536
 20
20.05702132241822
 30
0.0
 11
-12.36891777146427
 21
-2.679229478279105
 31
0.0
210
0.0
220
0.0
230
1.0
 40
0.8063257115255859
 41
1.744797383767451
 42
2.148482576989826
  0
ELLIPSE
  5
35D16
330
1F
100
AcDbEntity
  8
AM_0
100
AcDbEllipse
 10
-77.57302658937692
 20
19.09288795904422
 30
0.0
 11
13.95495253336571
 21
2.150291827059387
 31
0.0
210
0.0
220
0.0
230
1.0
 40
0.7753904500543221
 41
4.942410058098092
 42
5.346095251320371
  0
LINE
  5
35D17
330
1F
100
AcDbEntity
  8
AM_0
100
AcDbLine
 10
-67.96604213937508
 20
11.64632760429845
 30
0.0
 11
-65.53019071606673
 21
13.58386424231708
 31
0.0
  0
LINE
  5
35D18
330
1F
100
AcDbEntity
  8
AM_0
100
AcDbLine
 10
-69.10387603885806
 20
13.16888420086161
 30
0.0
 11
-66.76635068271958
 21
15.31934791568278
 31
0.0
  0
LINE
  5
35D19
330
1F
100
AcDbEntity
  8
AM_0
100
AcDbLine
 10
-62.28637787447951
 20
21.90420072420943
 30
0.0
 11
-65.59121810878401
 21
16.57227085723685
 31
0.0
  0
LINE
  5
35D1A
330
1F
100
AcDbEntity
  8
AM_0
100
AcDbLine
 10
-61.67333639645244
 20
19.10931628925482
 30
0.0
 11
-60.91779156539997
 21
20.32828960261168
 31
0.0
  0
LINE
  5
35D1B
330
1F
100
AcDbEntity
  8
AM_0
100
AcDbLine
 10
-60.91779156539997
 20
20.32828960261168
 30
0.0
 11
-61.00398442610458
 21
18.74284889038381
 31
0.0
  0
LINE
  5
35D1C
330
1F
100
AcDbEntity
  8
AM_0
100
AcDbLine
 10
-64.08119539372706
 20
10.40988963146833
 30
0.0
 11
-64.50954764238418
 21
9.718798992806796
 31
0.0
  0
LINE
  5
35D1D
330
1F
100
AcDbEntity
  8
AM_0
100
AcDbLine
 10
-64.22263179970446
 20
14.99635973563909
 30
0.0
 11
-64.50954764238418
 21
9.718798992806569
 31
0.0
  0
LINE
  5
35D1E
330
1F
100
AcDbEntity
  8
AM_0
100
AcDbLine
 10
-64.22263179970446
 20
14.99635973563909
 30
0.0
 11
-63.7942795510487
 21
15.68745037429835
 31
0.0
  0
LINE
  5
35D1F
330
1F
100
AcDbEntity
  8
AM_0
100
AcDbLine
 10
-63.92248769803337
 20
10.62887915173246
 30
0.0
 11
-64.07227363775201
 21
10.38721902022348
 31
0.0
  0
LINE
  5
35D20
330
1F
100
AcDbEntity
  8
AM_0
100
AcDbLine
 10
-63.79724681888933
 20
17.43991596830483
 30
0.0
 11
-63.44959638958699
 21
18.00080471809133
 31
0.0
  0
LINE
  5
35D21
330
1F
100
AcDbEntity
  8
AM_0
100
AcDbLine
 10
-62.87130251640451
 20
18.93380666544817
 30
0.0
 11
-62.52365208710125
 21
19.49469541523604
 31
0.0
  0
SPLINE
  5
35D22
330
1F
100
AcDbEntity
  8
AM_0
100
AcDbSpline
210
0.0
220
0.0
230
1.0
 70
     8
 71
     3
 72
    10
 73
     6
 74
     0
 42
0.0000000001
 43
0.0000000001
 40
3.067847702325723
 40
3.067847702325723
 40
3.067847702325723
 40
3.067847702325723
 40
3.530110897271872
 40
3.530110897271872
 40
4.034412454024997
 40
4.034412454024997
 40
4.034412454024997
 40
4.034412454024997
 10
-64.05388782581485
 20
10.18700842623457
 30
0.0
 10
-64.04345873352895
 20
10.2038128236095
 30
0.0
 10
-64.03869341026007
 20
10.22913314159996
 30
0.0
 10
-64.0444735144431
 20
10.30109494149065
 30
0.0
 10
-64.05635121392834
 20
10.34943057767464
 30
0.0
 10
-64.08119539372706
 20
10.4098896314681
 30
0.0
  0
ARC
  5
35D23
330
1F
100
AcDbEntity
  8
AM_0
100
AcDbCircle
 10
-68.05108117844657
 20
16.55647808363528
 30
0.0
 40
4.344602312596527
100
AcDbArc
 50
348.4615974480912
 51
11.73242834285219
  0
SPLINE
  5
35D24
330
1F
100
AcDbEntity
  8
AM_0
100
AcDbSpline
210
0.0
220
0.0
230
1.0
 70
     8
 71
     3
 72
    12
 73
     8
 74
     0
 42
0.0000000001
 43
0.0000000001
 40
2.048907805611841
 40
2.048907805611841
 40
2.048907805611841
 40
2.048907805611841
 40
3.025809340519053
 40
3.025809340519053
 40
3.530110897272228
 40
3.530110897272228
 40
4.034412454025404
 40
4.034412454025404
 40
4.034412454025404
 40
4.034412454025404
 10
-62.52365208710125
 20
19.49469541523604
 30
0.0
 10
-62.31937714191849
 20
19.4868717377276
 30
0.0
 10
-62.13643683130772
 20
19.45127551391488
 30
0.0
 10
-61.91362039488604
 20
19.35616239549177
 30
0.0
 10
-61.84740076571484
 20
19.3165891407898
 30
0.0
 10
-61.73973078871632
 20
19.22339566999403
 30
0.0
 10
-61.69818057625093
 20
19.16977534304829
 30
0.0
 10
-61.67333639645244
 20
19.10931628925482
 30
0.0
  0
LINE
  5
35D25
330
1F
100
AcDbEntity
  8
AM_0
100
AcDbLine
 10
-68.19186670447425
 20
22.06447093193492
 30
0.0
 11
-67.74687167349475
 21
21.30998164152106
 31
0.0
  0
LINE
  5
35D26
330
1F
100
AcDbEntity
  8
AM_0
100
AcDbLine
 10
-67.74687167349475
 20
21.30998164152106
 30
0.0
 11
-67.75465994488377
 21
21.16672334336454
 31
0.0
  0
LINE
  5
35D27
330
1F
100
AcDbEntity
  8
AM_0
100
AcDbLine
 10
-73.64326103043027
 20
6.85382838657506
 30
0.0
 11
-74.13726780481034
 21
6.941811262797728
 31
0.0
  0
ARC
  5
35D28
330
1F
100
AcDbEntity
  8
AM_0
100
AcDbCircle
 10
-72.40672193325986
 20
14.65501199674918
 30
0.0
 40
0.6210022161356106
100
AcDbArc
 50
258.3539206904243
 51
310.6878050861411
  0
LINE
  5
35D29
330
1F
100
AcDbEntity
  8
AM_0
100
AcDbLine
 10
-62.09509479730764
 20
22.06157208592549
 30
0.0
 11
-68.08277519623835
 21
23.12798123397943
 31
0.0
  0
LINE
  5
35D2A
330
1F
100
AcDbEntity
  8
AM_0
100
AcDbLine
 10
-73.5253893086167
 20
6.820235066208852
 30
0.0
 11
-69.26997978950635
 21
6.542780317390225
 31
0.0
  0
ARC
  5
35D2B
330
1F
100
AcDbEntity
  8
AM_0
100
AcDbCircle
 10
-69.0611499901238
 20
11.2669850682023
 30
0.0
 40
4.709479424049565
100
AcDbArc
 50
267.473858023149
 51
307.5737840117585
  0
ARC
  5
35D2C
330
1F
100
AcDbEntity
  8
AM_0
100
AcDbCircle
 10
-70.11218517094335
 20
12.6536396253573
 30
0.0
 40
6.449413612722544
100
AcDbArc
 50
307.4623786102651
 51
327.465268373937
  0
LINE
  5
35D2D
330
1F
100
AcDbEntity
  8
AM_0
100
AcDbLine
 10
-60.86031861780953
 20
20.50338292648985
 30
0.0
 11
-60.95649032920437
 21
18.73439016579596
 31
0.0
  0
LINE
  5
35D2E
330
1F
100
AcDbEntity
  8
AM_0
100
AcDbLine
 10
-64.05388782581508
 20
10.18700842623457
 30
0.0
 11
-64.67490647875889
 21
9.185075603822043
 31
0.0
  0
ELLIPSE
  5
35D2F
330
1F
100
AcDbEntity
  8
AM_0
100
AcDbEllipse
 10
-73.87425576696865
 20
8.418572810221804
 30
0.0
 11
0.2630120378416339
 21
1.476761547424089
 31
0.0
210
0.0
220
0.0
230
1.0
 40
0.2207954641004648
 41
2.077495307535582
 42
3.141592653588354
  0
ELLIPSE
  5
35D30
330
1F
100
AcDbEntity
  8
AM_0
100
AcDbEllipse
 10
-72.79509299667006
 20
12.57003266994525
 30
0.0
 11
0.2630120378416342
 21
1.476761547424091
 31
0.0
210
0.0
220
0.0
230
0.9999999999999999
 40
0.2207954641004648
 41
-0.0000000000012848
 42
0.8993980624396785
  0
ELLIPSE
  5
35D31
330
1F
100
AcDbEntity
  8
AM_0
100
AcDbEllipse
 10
-68.22692858390406
 20
21.26487341625079
 30
0.0
 11
0.4992627391132878
 21
-0.02714253733712274
 31
0.0
210
0.0
220
0.0
230
1.0
 40
0.4733166635836867
 41
6.02983391584567
 42
6.588339276483839
  0
ELLIPSE
  5
35D32
330
1F
100
AcDbEntity
  8
AM_0
100
AcDbEllipse
 10
-71.40280507439434
 20
7.256483432345249
 30
0.0
 11
1.753413585610936
 21
9.845076982827257
 31
0.0
210
0.0
220
0.0
230
0.9999999999999998
 40
0.2207954641004724
 41
0.5066989807407625
 42
0.7544242627219142
  0
ELLIPSE
  5
35D33
330
1F
100
AcDbEntity
  8
AM_0
100
AcDbEllipse
 10
-73.79796177984031
 20
9.821932581579858
 30
0.0
 11
0.2630120378416339
 21
1.476761547424089
 31
0.0
210
0.0
220
0.0
230
1.0
 40
0.2207954641004648
 41
0.8993980624394634
 42
2.077495307535648
  0
ELLIPSE
  5
35D34
330
1F
100
AcDbEntity
  8
AM_0
100
AcDbEllipse
 10
-73.38024899258858
 20
8.330589933999363
 30
0.0
 11
0.2630120378416371
 21
1.476761547424089
 31
0.0
210
0.0
220
0.0
230
0.9999999999999999
 40
0.2207954641004686
 41
2.077495307535582
 42
3.141592653588656
  0
ELLIPSE
  5
35D35
330
1F
100
AcDbEntity
  8
AM_0
100
AcDbEllipse
 10
-73.38024899258858
 20
8.330589933999363
 30
0.0
 11
1.497788217339863
 21
-0.08142761201136821
 31
0.0
210
0.0
220
0.0
230
1.0
 40
0.4733166635836867
 41
4.459037589050651
 42
5.103987260385065
  0
ELLIPSE
  5
35D36
330
1F
100
AcDbEntity
  8
AM_0
100
AcDbEllipse
 10
-73.38024899258858
 20
8.330589933999363
 30
0.0
 11
0.144013380646132
 21
1.493070710380101
 31
0.0
210
0.0
220
0.0
230
1.0
 40
0.4406117883954321
 41
3.141592653589787
 42
4.277689917576288
  0
ELLIPSE
  5
35D37
330
1F
100
AcDbEntity
  8
AM_0
100
AcDbEllipse
 10
-69.23378429388004
 20
8.061675322655447
 30
0.0
 11
0.03493700081655592
 21
1.499593080130056
 31
0.0
210
0.0
220
0.0
230
1.0
 40
0.7519483550190448
 41
3.141592653589814
 42
4.351242783654547
  0
ELLIPSE
  5
35D38
330
1F
100
AcDbEntity
  8
AM_0
100
AcDbEllipse
 10
-77.95249016004664
 20
12.11299439444497
 30
0.0
 11
13.97935669517206
 21
-0.759991045439437
 31
0.0
210
0.0
220
0.0
230
0.9999999999999999
 40
0.4733166635836868
 41
5.788982039347612
 42
6.029833915845559
  0
ELLIPSE
  5
35D39
330
1F
100
AcDbEntity
  8
AM_0
100
AcDbEllipse
 10
-67.11672324678284
 20
8.713405173446517
 30
0.0
 11
0.927331787786525
 21
-1.179006257557881
 31
0.0
210
0.0
220
0.0
230
1.0
 40
0.7754908544803761
 41
0.0000000000000897
 42
0.7232188712787782
  0
ELLIPSE
  5
35D3A
330
1F
100
AcDbEntity
  8
AM_0
100
AcDbEllipse
 10
-62.35810683514933
 20
20.58481053850142
 30
0.0
 11
0.2630120378416371
 21
1.476761547424089
 31
0.0
210
0.0
220
0.0
230
1.0
 40
0.2207954641004686
 41
-0.0000000000011378
 42
0.5066989807408904
  0
ELLIPSE
  5
35D3B
330
1F
100
AcDbEntity
  8
AM_0
100
AcDbEllipse
 10
-62.35810683514933
 20
20.58481053850142
 30
0.0
 11
1.497788217339863
 21
-0.08142761201136821
 31
0.0
210
0.0
220
0.0
230
1.0
 40
0.4733166635836867
 41
6.029833915845541
 42
6.283185307179595
  0
ELLIPSE
  5
35D3C
330
1F
100
AcDbEntity
  8
AM_0
100
AcDbEllipse
 10
-73.30395500546047
 20
9.733949705357418
 30
0.0
 11
1.497788217339863
 21
-0.08142761201136813
 31
0.0
210
0.0
220
0.0
230
1.0
 40
0.4733166635836867
 41
4.459037589050651
 42
5.103987260385066
  0
ELLIPSE
  5
35D3D
330
1F
100
AcDbEntity
  8
AM_0
100
AcDbEllipse
 10
-73.30395500546047
 20
9.733949705357418
 30
0.0
 11
0.2630120378416371
 21
1.476761547424089
 31
0.0
210
0.0
220
0.0
230
0.9999999999999999
 40
0.2207954641004686
 41
0.8993980624394632
 42
2.077495307535648
  0
ELLIPSE
  5
35D3E
330
1F
100
AcDbEntity
  8
AM_0
100
AcDbEllipse
 10
-73.30395500546069
 20
9.733949705357418
 30
0.0
 11
0.5201355380266149
 21
-1.40693248668198
 31
0.0
210
0.0
220
0.0
230
1.0
 40
0.2118773123095832
 41
0.9847322391501542
 42
2.244735482643105
  0
ELLIPSE
  5
35D3F
330
1F
100
AcDbEntity
  8
AM_0
100
AcDbEllipse
 10
-69.00874892741217
 20
12.20099995780947
 30
0.0
 11
0.9631618581663234
 21
-1.14992140382445
 31
0.0
210
0.0
220
0.0
230
1.0
 40
0.4320808431204919
 41
0.7529920760582781
 42
2.131744955177451
  0
ELLIPSE
  5
35D40
330
1F
100
AcDbEntity
  8
AM_0
100
AcDbEllipse
 10
-77.5938453566971
 20
18.70994532298528
 30
0.0
 11
12.4815684778322
 21
-0.6785634334280686
 31
0.0
210
0.0
220
0.0
230
0.9999999999999999
 40
0.4733166635836867
 41
5.788982039347619
 42
6.029833915845562
  0
ELLIPSE
  5
35D41
330
1F
100
AcDbEntity
  8
AM_0
100
AcDbEllipse
 10
-77.66557431736692
 20
17.39055513727726
 30
0.0
 11
13.97935669517206
 21
-0.7599910454394363
 31
0.0
210
0.0
220
0.0
230
0.9999999999999999
 40
0.4733166635836868
 41
5.788982039347613
 42
6.029833915845559
  0
ELLIPSE
  5
35D42
330
1F
100
AcDbEntity
  8
AM_0
100
AcDbEllipse
 10
-66.82980740410312
 20
13.99096591627881
 30
0.0
 11
0.9273317877865261
 21
-1.179006257557883
 31
0.0
210
0.0
220
0.0
230
0.9999999999999999
 40
0.7754908544803763
 41
0.7232188712787789
 42
2.294015198073689
  0
ELLIPSE
  5
35D43
330
1F
100
AcDbEntity
  8
AM_0
100
AcDbEllipse
 10
-65.66294706945405
 20
15.25288067152883
 30
0.0
 11
1.274956433374805
 21
-0.7902443248744016
 31
0.0
210
0.0
220
0.0
230
1.0
 40
0.8527723606019754
 41
0.436478561053069
 42
2.007274887848003
  0
ELLIPSE
  5
35D44
330
1F
100
AcDbEntity
  8
AM_0
100
AcDbEllipse
 10
-62.35810683514933
 20
20.58481053850142
 30
0.0
 11
1.274956433374874
 21
-0.7902443248742888
 31
0.0
210
0.0
220
0.0
230
0.9999999999999999
 40
0.8527723606019754
 41
0.4364785610529784
 42
2.007274887847912
  0
ELLIPSE
  5
35D45
330
1F
100
AcDbEntity
  8
AM_0
100
AcDbEllipse
 10
-65.94986291213377
 20
9.975319928696536
 30
0.0
 11
1.274956433374805
 21
-0.7902443248744011
 31
0.0
210
0.0
220
0.0
230
0.9999999999999998
 40
0.8527723606019754
 41
0.0000000000001039
 42
0.436478561053069
  0
ELLIPSE
  5
35D46
330
1F
100
AcDbEntity
  8
AM_0
100
AcDbEllipse
 10
-63.01484289572227
 20
14.5376403640862
 30
0.0
 11
0.7890361135250128
 21
4.430284642272249
 31
0.0
210
0.0
220
0.0
230
1.0
 40
0.2207954641004686
 41
1.347767651311441
 42
2.807222963763947
  0
ELLIPSE
  5
35D47
330
1F
100
AcDbEntity
  8
AM_0
100
AcDbEllipse
 10
-62.73968889445723
 20
14.98156555663695
 30
0.0
 11
0.7890361135250128
 21
4.430284642272249
 31
0.0
210
0.0
220
0.0
230
1.0
 40
0.2207954641004686
 41
5.810882308457639
 42
5.948815617353626
  0
ELLIPSE
  5
35D48
330
1F
100
AcDbEntity
  8
AM_0
100
AcDbEllipse
 10
-63.21979398437361
 20
15.06707253526702
 30
0.0
 11
0.7890361135249112
 21
4.430284642272267
 31
0.0
210
0.0
220
0.0
230
1.0
 40
0.2207954641004686
 41
5.810882308456363
 42
6.238210104823484
  0
ARC
  5
35D49
330
1F
100
AcDbEntity
  8
AM_0
100
AcDbCircle
 10
-73.38024899258858
 20
8.330589933999363
 30
0.0
 40
1.5
100
AcDbArc
 50
259.9014763275013
 51
264.4906078539781
  0
ARC
  5
35D4A
330
1F
100
AcDbEntity
  8
AM_0
100
AcDbCircle
 10
-62.35810683514933
 20
20.58481053850142
 30
0.0
 40
1.5
100
AcDbArc
 50
356.8881646905707
 51
79.90147632750131
  0
LINE
  5
35D4B
330
1F
100
AcDbEntity
  8
AM_0
100
AcDbLine
 10
-58.35852457516239
 20
16.14428587260636
 30
0.0
 11
-57.92578021013674
 21
15.70154140080604
 31
0.0
  0
LINE
  5
35D4C
330
1F
100
AcDbEntity
  8
AM_0
100
AcDbLine
 10
-57.92578021013674
 20
15.70154140080604
 30
0.0
 11
-58.48494796368846
 21
15.80112948299393
 31
0.0
  0
LINE
  5
35D4D
330
1F
100
AcDbEntity
  8
AM_0
100
AcDbLine
 10
-57.92578021013674
 20
15.70154140080604
 30
0.0
 11
-58.12357572081578
 21
13.54729568089124
 31
0.0
  0
LINE
  5
35D4E
330
1F
100
AcDbEntity
  8
AM_0
100
AcDbLine
 10
-58.12357572081578
 20
13.54729568089124
 30
0.0
 11
-59.05513365099091
 21
13.71320665684425
 31
0.0
  0
LINE
  5
35D4F
330
1F
100
AcDbEntity
  8
AM_0
100
AcDbLine
 10
-58.12357572081578
 20
13.54729568089124
 30
0.0
 11
-58.75411559652048
 21
11.83579443277677
 31
0.0
  0
LINE
  5
35D50
330
1F
100
AcDbEntity
  8
AM_0
100
AcDbLine
 10
-58.75411559652048
 20
11.83579443277677
 30
0.0
 11
-59.18685996154636
 21
12.27853890457686
 31
0.0
  0
LINE
  5
35D51
330
1F
100
AcDbEntity
  8
AM_0
100
AcDbLine
 10
-59.18685996154636
 20
12.27853890457686
 30
0.0
 11
-58.98906445086732
 21
14.43278462449143
 31
0.0
  0
LINE
  5
35D52
330
1F
100
AcDbEntity
  8
AM_0
100
AcDbLine
 10
-58.98906445086732
 20
14.43278462449143
 30
0.0
 11
-58.35852457516239
 21
16.14428587260613
 31
0.0
  0
ARC
  5
35D53
330
1F
100
AcDbEntity
  8
AM_0
100
AcDbCircle
 10
-65.38867339536819
 20
15.2068860072759
 30
0.0
 40
7.535477618864172
100
AcDbArc
 50
324.7102628776342
 51
15.09268977736122
  0
LINE
  5
35D54
330
1F
100
AcDbEntity
  8
AM_0
100
AcDbLine
 10
-64.10257175889137
 20
10.66095222128888
 30
0.0
 11
-60.89951566373316
 21
10.09048618201678
 31
0.0
  0
LINE
  5
35D55
330
1F
100
AcDbEntity
  8
AM_0
100
AcDbLine
 10
-62.61217021112202
 20
19.02926765669236
 30
0.0
 11
-59.40911411596358
 21
18.45880161742002
 31
0.0
  0
LINE
  5
35D56
330
1F
100
AcDbEntity
  8
AM_0
100
AcDbLine
 10
-58.11312559549242
 20
17.16898364911913
 30
0.0
 11
-58.60478383451823
 21
17.91369858236817
 31
0.0
  0
LINE
  5
35D57
330
1F
100
AcDbEntity
  8
AM_0
100
AcDbLine
 10
-59.23790697961658
 20
10.85355447346592
 30
0.0
 11
-59.95644626227067
 21
10.32437637954126
 31
0.0
  0
ARC
  5
35D58
330
1F
100
AcDbEntity
  8
AM_0
100
AcDbCircle
 10
-59.63739678730781
 20
17.25598878504388
 30
0.0
 40
1.224284153195212
100
AcDbArc
 50
32.49458445537051
 51
79.25360836584883
  0
ARC
  5
35D59
330
1F
100
AcDbEntity
  8
AM_0
100
AcDbCircle
 10
-60.69849048837887
 20
11.29815358931296
 30
0.0
 40
1.224284153197931
100
AcDbArc
 50
260.5493442892038
 51
307.3083681995701
  0
ELLIPSE
  5
35D5A
330
1F
100
AcDbEntity
  8
AM_0
100
AcDbEllipse
 10
-58.55632008584144
 20
13.99004015269156
 30
0.0
 11
0.4533953069224042
 21
2.545726653958744
 31
0.0
210
0.0
220
0.0
230
0.9999999999999999
 40
0.2207954641004687
 41
0.6787713960546579
 42
6.961956703234244
  0
ELLIPSE
  5
35D5B
330
1F
100
AcDbEntity
  8
AM_0
100
AcDbEllipse
 10
-63.35737098500658
 20
14.84510993899085
 30
0.0
 11
0.7452007738846384
 21
4.184157717701585
 31
0.0
210
0.0
220
0.0
230
1.0
 40
0.2207954641004687
 41
-0.0000000000012816
 42
1.019107301061449
  0
ELLIPSE
  5
35D5C
330
1F
100
AcDbEntity
  8
AM_0
100
AcDbEllipse
 10
-63.35737098500658
 20
14.84510993899085
 30
0.0
 11
0.7452007738846384
 21
4.184157717701585
 31
0.0
210
0.0
220
0.0
230
1.0
 40
0.2207954641004687
 41
3.07193699222462
 42
3.141592653588457
  0
ELLIPSE
  5
35D5D
330
1F
100
AcDbEntity
  8
AM_0
100
AcDbEllipse
 10
-58.83755913615028
 20
14.04012898109522
 30
0.0
 11
0.5773803705833559
 21
3.241878723544831
 31
0.0
210
0.0
220
0.0
230
1.0
 40
0.2207954641004686
 41
6.054823099320809
 42
9.653140168625598
  0
ELLIPSE
  5
35D5E
330
1F
100
AcDbEntity
  8
AM_0
100
AcDbEllipse
 10
-59.475343760324
 20
14.15371877086227
 30
0.0
 11
0.6938444789846457
 21
3.89580208900492
 31
0.0
210
0.0
220
0.0
230
0.9999999999999998
 40
0.2207954641004687
 41
6.054823099321936
 42
9.653140168626971
  0
ELLIPSE
  5
35D5F
330
1F
100
AcDbEntity
  8
AM_0
100
AcDbEllipse
 10
-60.15431488984837
 20
14.27464389971829
 30
0.0
 11
0.7452007738846385
 21
4.184157717701586
 31
0.0
210
0.0
220
0.0
230
1.0
 40
0.2207954641004687
 41
-0.0000000000012812
 42
3.141592653588509
  0
LINE
  5
35D60
330
1F
100
AcDbEntity
  8
AM_0
100
AcDbLine
 10
-73.34821942464782
 20
6.330148018723776
 30
0.0
 11
-73.20913967953175
 21
6.80773082570704
 31
0.0
  0
LINE
  5
35D61
330
1F
100
AcDbEntity
  8
AM_0
100
AcDbLine
 10
-70.15565117711321
 20
17.29303628019648
 30
0.0
 11
-69.79126703436828
 21
18.54428678807494
 31
0.0
  0
LINE
  5
35D62
330
1F
100
AcDbEntity
  8
AM_0
100
AcDbLine
 10
-77.2193761706601
 20
0.0845401192732425
 30
0.0
 11
-73.34821942464805
 21
6.330148018723776
 31
0.0
  0
LINE
  5
35D63
330
1F
100
AcDbEntity
  8
AM_0
100
AcDbLine
 10
-73.7190887893421
 20
13.37507025322202
 30
0.0
 11
-77.27604117962164
 21
1.160931483871082
 31
0.0
  0
LINE
  5
35D64
330
1F
100
AcDbEntity
  8
AM_0
100
AcDbLine
 10
-77.27604117962164
 20
1.160931483871082
 30
0.0
 11
-81.84664163562684
 21
1.974957920428096
 31
0.0
  0
LINE
  5
35D65
330
1F
100
AcDbEntity
  8
AM_0
100
AcDbLine
 10
-78.28968924534729
 20
14.18909668977904
 30
0.0
 11
-81.84664163562684
 21
1.974957920428096
 31
0.0
  0
LINE
  5
35D66
330
1F
100
AcDbEntity
  8
AM_0
100
AcDbLine
 10
-69.84793204332982
 20
19.62067815267278
 30
0.0
 11
-70.41195905866357
 21
19.72113167203725
 31
0.0
  0
LINE
  5
35D67
330
1F
100
AcDbEntity
  8
AM_0
100
AcDbLine
 10
-69.84793204332982
 20
19.62067815267278
 30
0.0
 11
-71.06283644535984
 21
17.66058791912383
 31
0.0
  0
LINE
  5
35D68
330
1F
100
AcDbEntity
  8
AM_0
100
AcDbLine
 10
-73.38328733607568
 20
13.91684222133654
 30
0.0
 11
-73.7190887893421
 21
13.37507025322202
 31
0.0
  0
LINE
  5
35D69
330
1F
100
AcDbEntity
  8
AM_0
100
AcDbLine
 10
-73.71908878934187
 20
13.37507025322202
 30
0.0
 11
-78.28968924534729
 21
14.18909668977904
 31
0.0
  0
LINE
  5
35D6A
330
1F
100
AcDbEntity
  8
AM_0
100
AcDbLine
 10
-77.95388779208088
 20
14.73086865789378
 30
0.0
 11
-78.28968924534729
 21
14.18909668977904
 31
0.0
  0
LINE
  5
35D6B
330
1F
100
AcDbEntity
  8
AM_0
100
AcDbLine
 10
-69.74591440217137
 20
19.70460954558803
 30
0.0
 11
-70.37665990662799
 21
19.81694566429042
 31
0.0
  0
LINE
  5
35D6C
330
1F
100
AcDbEntity
  8
AM_0
100
AcDbLine
 10
-77.32139381181855
 20
0.0006087263579957
 30
0.0
 11
-81.89199426782375
 21
0.8146351629150104
 31
0.0
  0
ELLIPSE
  5
35D6D
330
1F
100
AcDbEntity
  8
AM_0
100
AcDbEllipse
 10
-69.88618748902036
 20
18.91700338696182
 30
0.0
 11
0.1402730868488731
 21
0.7876061586261811
 31
0.0
210
0.0
220
0.0
230
1.0
 40
0.2207954641004686
 41
4.259156872528694
 42
6.789884287920292
  0
ELLIPSE
  5
35D6E
330
1F
100
AcDbEntity
  8
AM_0
100
AcDbEllipse
 10
-77.18112072496956
 20
0.7882148849839723
 30
0.0
 11
0.1402730868488731
 21
0.7876061586261811
 31
0.0
210
0.0
220
0.0
230
1.0
 40
0.2207954641004686
 41
1.117564218938901
 42
3.648291634330497
  0
ELLIPSE
  5
35D6F
330
1F
100
AcDbEntity
  8
AM_0
100
AcDbEllipse
 10
-81.75172118097476
 20
1.602241321540987
 30
0.0
 11
0.1402730868488731
 21
0.7876061586261811
 31
0.0
210
0.0
220
0.0
230
1.0
 40
0.2207954641004686
 41
1.117564218938642
 42
3.141592653588513
  0
LINE
  5
35D70
330
1F
100
AcDbEntity
  8
AM_0
100
AcDbLine
 10
-81.82119001511092
 20
2.062355667369047
 30
0.0
 11
-86.38272348010582
 21
2.874767267876905
 31
0.0
  0
LINE
  5
35D71
330
1F
100
AcDbEntity
  8
AM_0
100
AcDbLine
 10
-82.85882958574371
 20
14.97538721202636
 30
0.0
 11
-86.38272348010582
 21
2.874767267876905
 31
0.0
  0
LINE
  5
35D72
330
1F
100
AcDbEntity
  8
AM_0
100
AcDbLine
 10
-78.2972961207488
 20
14.16297561151828
 30
0.0
 11
-82.85882958574371
 21
14.97538721202636
 31
0.0
  0
LINE
  5
35D73
330
1F
100
AcDbEntity
  8
AM_0
100
AcDbLine
 10
-82.50769108548252
 20
15.5419035106213
 30
0.0
 11
-82.85882958574371
 21
14.97538721202636
 31
0.0
  0
LINE
  5
35D74
330
1F
100
AcDbEntity
  8
AM_0
100
AcDbLine
 10
-81.95647082418873
 20
0.9180491672550488
 30
0.0
 11
-86.42807611230273
 21
1.714444510363819
 31
0.0
  0
ELLIPSE
  5
35D75
330
1F
100
AcDbEntity
  8
AM_0
100
AcDbEllipse
 10
-86.28780302545397
 20
2.502050668989796
 30
0.0
 11
0.1402730868488731
 21
0.7876061586261811
 31
0.0
210
0.0
220
0.0
230
1.0
 40
0.2207954641004686
 41
1.117564218938643
 42
3.141592653588803
  0
LINE
  5
35D76
330
1F
100
AcDbEntity
  8
AM_0
100
AcDbLine
 10
-59.18344747726519
 20
37.31154179518035
 30
0.0
 11
-57.49631456968587
 21
43.64026101111358
 31
0.0
  0
LINE
  5
35D77
330
1F
100
AcDbEntity
  8
AM_0
100
AcDbLine
 10
-63.14509262226829
 20
38.36765151726422
 30
0.0
 11
-61.65583042571166
 21
43.95412442557495
 31
0.0
  0
LINE
  5
35D78
330
1F
100
AcDbEntity
  8
AM_0
100
AcDbLine
 10
-59.7367407734248
 20
36.7211116088879
 30
0.0
 11
-59.37186371450616
 21
37.02886070649993
 31
0.0
  0
LINE
  5
35D79
330
1F
100
AcDbEntity
  8
AM_0
100
AcDbLine
 10
-62.95913367692333
 20
37.58014878894755
 30
0.0
 11
-63.12239581788003
 21
38.02869114874898
 31
0.0
  0
ELLIPSE
  5
35D7A
330
1F
100
AcDbEntity
  8
AM_0
100
AcDbEllipse
 10
-61.27674557693899
 20
37.41768204182654
 30
0.0
 11
1.701888805318323
 21
-0.4536956863664168
 31
0.0
210
0.0
220
0.0
230
1.0
 40
0.4871850323926085
 41
1.699948948898529
 42
7.983134256078115
  0
ELLIPSE
  5
35D7B
330
1F
100
AcDbEntity
  8
AM_0
100
AcDbEllipse
 10
-61.16427004976686
 20
37.83959665622251
 30
0.0
 11
1.980822572501589
 21
-0.5280548610419397
 31
0.0
210
0.0
220
0.0
230
0.9999999999999999
 40
0.4871850323926086
 41
5.955254310843813
 42
9.752708957105147
  0
ELLIPSE
  5
35D7C
330
1F
100
AcDbEntity
  8
AM_0
100
AcDbEllipse
 10
-61.27674557693922
 20
37.41768204182654
 30
0.0
 11
1.589489332568003
 21
-0.4237318275189276
 31
0.0
210
0.0
220
0.0
230
1.0
 40
0.4871850323926084
 41
1.699948948898529
 42
7.983134256078115
  0
LINE
  5
35D7D
330
1F
100
AcDbEntity
  8
AM_0
100
AcDbLine
 10
29.71853941214863
 20
15.36606673127153
 30
0.0
 11
29.82738679851946
 21
15.1637889408521
 31
0.0
  0
LINE
  5
35D7E
330
1F
100
AcDbEntity
  8
AM_0
100
AcDbLine
 10
29.41058603074589
 20
15.12449099387368
 30
0.0
 11
29.51827314681941
 21
14.92436940508537
 31
0.0
  0
LINE
  5
35D7F
330
1F
100
AcDbEntity
  8
AM_0
100
AcDbLine
 10
22.98435621662293
 20
22.15260931206058
 30
0.0
 11
25.02176484277425
 21
23.28050724790319
 31
0.0
  0
LINE
  5
35D80
330
1F
100
AcDbEntity
  8
AM_0
100
AcDbLine
 10
28.23499507794099
 20
14.21395389666895
 30
0.0
 11
29.51827314681987
 21
14.92436940508583
 31
0.0
  0
LINE
  5
35D81
330
1F
100
AcDbEntity
  8
AM_0
100
AcDbLine
 10
26.59983324334553
 20
24.06962267874633
 30
0.0
 11
27.38203671512133
 21
24.44189687843254
 31
0.0
  0
LINE
  5
35D82
330
1F
100
AcDbEntity
  8
AM_0
100
AcDbLine
 10
31.09634154739047
 20
15.71348483592851
 30
0.0
 11
31.87854501916536
 21
16.0857590356145
 31
0.0
  0
LINE
  5
35D83
330
1F
100
AcDbEntity
  8
AM_0
100
AcDbLine
 10
31.09634154739047
 20
15.71348483592874
 30
0.0
 11
26.5998332433453
 21
24.06962267874633
 31
0.0
  0
SPLINE
  5
35D84
330
1F
100
AcDbEntity
  8
AM_0
100
AcDbSpline
210
0.0
220
0.0
230
1.0
 70
     8
 71
     3
 72
    27
 73
    23
 74
     0
 42
0.0000000001
 43
0.0000000001
 40
-1.096427934814307
 40
-1.096427934814307
 40
-1.096427934814307
 40
-1.096427934814307
 40
-0.8190226959201956
 40
-0.8190226959201956
 40
-0.5416174570260841
 40
-0.5416174570260841
 40
-0.2708087285130416
 40
-0.2708087285130416
 40
0.0
 40
0.0
 40
0.0
 40
0.4737006647033193
 40
0.4737006647033193
 40
0.9474013294066387
 40
0.9474013294066387
 40
1.253763050718961
 40
1.253763050718961
 40
1.560124772031283
 40
1.560124772031283
 40
1.766805018557418
 40
1.766805018557418
 40
1.973485265083554
 40
1.973485265083554
 40
1.973485265083554
 40
1.973485265083554
 10
26.5998332433453
 20
24.06962267874633
 30
0.0
 10
26.55606640231576
 20
24.15095728963047
 30
0.0
 10
26.49766354999247
 20
24.2332988349367
 30
0.0
 10
26.361008192496
 20
24.37748020487243
 30
0.0
 10
26.28276597619811
 20
24.4393283092088
 30
0.0
 10
26.13013043730416
 20
24.5317310715659
 30
0.0
 10
26.04340712492467
 20
24.57042872095508
 30
0.0
 10
25.86603700462729
 20
24.62033326700907
 30
0.0
 10
25.77540871042356
 20
24.63156635101677
 30
0.0
 10
25.6934265944044
 20
24.63087610993625
 30
0.0
 10
25.55002286046556
 20
24.62966873504615
 30
0.0
 10
25.40477622108688
 20
24.59210459282895
 30
0.0
 10
25.1587448876578
 20
24.4500343873392
 30
0.0
 10
25.05805338385471
 20
24.34563423447253
 30
0.0
 10
24.94860078166971
 20
24.15205385432842
 30
0.0
 10
24.91496792323119
 20
24.06158694406872
 30
0.0
 10
24.88045427033148
 20
23.86988876364148
 30
0.0
 10
24.87954474610683
 20
23.76863556018452
 30
0.0
 10
24.90059106793456
 20
23.60954948511653
 30
0.0
 10
24.91565345114009
 20
23.54295211485805
 30
0.0
 10
24.95918667118599
 20
23.41015266737986
 30
0.0
 10
24.98763977514909
 20
23.34392396001113
 30
0.0
 10
25.02176484277425
 20
23.28050724790319
 30
0.0
  0
LINE
  5
35D85
330
1F
100
AcDbEntity
  8
AM_0
100
AcDbLine
 10
25.02176484277425
 20
23.28050724790319
 30
0.0
 11
25.14009401091676
 21
23.06060887944341
 31
0.0
  0
LINE
  5
35D86
330
1F
100
AcDbEntity
  8
AM_0
100
AcDbLine
 10
25.0217648450207
 20
23.28050724372861
 30
0.0
 11
25.33087849447429
 21
23.51992678367014
 31
0.0
  0
LINE
  5
35D87
330
1F
100
AcDbEntity
  8
AM_0
100
AcDbLine
 10
25.33087849447429
 20
23.51992678366992
 30
0.0
 11
25.49570304159624
 21
23.21362319375089
 31
0.0
  0
LINE
  5
35D88
330
1F
100
AcDbEntity
  8
AM_0
100
AcDbLine
 10
29.51827314906609
 20
14.92436940091102
 30
0.0
 11
29.82738679851946
 21
15.16378894085256
 31
0.0
  0
SPLINE
  5
35D89
330
1F
100
AcDbEntity
  8
AM_0
100
AcDbSpline
210
0.0
220
0.0
230
1.0
 70
     8
 71
     3
 72
    27
 73
    23
 74
     0
 42
0.0000000001
 43
0.0000000001
 40
-0.4133604930525099
 40
-0.4133604930525099
 40
-0.4133604930525099
 40
-0.4133604930525099
 40
-0.2066802465262549
 40
-0.2066802465262549
 40
0.0
 40
0.0
 40
0.0
 40
0.306361725135699
 40
0.306361725135699
 40
0.6127234502713981
 40
0.6127234502713981
 40
1.086424118509059
 40
1.086424118509059
 40
1.560124786746719
 40
1.560124786746719
 40
1.830933515875548
 40
1.830933515875548
 40
2.101742245004376
 40
2.101742245004376
 40
2.379147484101779
 40
2.379147484101779
 40
2.656552723199183
 40
2.656552723199183
 40
2.656552723199183
 40
2.656552723199183
 10
29.51827314681964
 20
14.9243694050856
 30
0.0
 10
29.55239821444457
 20
14.86095269297766
 30
0.0
 10
29.59229644243692
 20
14.80015991667938
 30
0.0
 10
29.6802533765283
 20
14.6886031237425
 30
0.0
 10
29.72834002113382
 20
14.63784677180956
 30
0.0
 10
29.77810156509577
 20
14.59370382320594
 30
0.0
 10
29.85186300437113
 20
14.52827081683972
 30
0.0
 10
29.93876789040132
 20
14.46971355216738
 30
0.0
 10
30.12205971579328
 20
14.38492810883713
 30
0.0
 10
30.21847847218214
 20
14.35871612621304
 30
0.0
 10
30.44617499784999
 20
14.33255655707262
 30
0.0
 10
30.59273864292049
 20
14.35170969192905
 30
0.0
 10
30.8545084690868
 20
14.46453209354195
 30
0.0
 10
30.96958515602591
 20
14.55816291567589
 30
0.0
 10
31.10026652032889
 20
14.73605570186601
 30
0.0
 10
31.1426263501935
 20
14.81452287277443
 30
0.0
 10
31.20186427056524
 20
14.98415065630888
 30
0.0
 10
31.21871173755312
 20
15.07530758598796
 30
0.0
 10
31.22780478004484
 20
15.24965866841922
 30
0.0
 10
31.22021009724108
 20
15.34732654998675
 30
0.0
 10
31.17636791102768
 20
15.53857486035804
 30
0.0
 10
31.14010838845206
 20
15.6321502249848
 30
0.0
 10
31.09634154739047
 20
15.71348483592851
 30
0.0
  0
LINE
  5
35D8A
330
1F
100
AcDbEntity
  8
AM_0
100
AcDbLine
 10
14.38682748503061
 20
18.74840862059364
 30
0.0
 11
16.50646394039518
 21
20.39014261028842
 31
0.0
  0
LINE
  5
35D8B
330
1F
100
AcDbEntity
  8
AM_0
100
AcDbLine
 10
16.84030437070874
 20
21.71281573954866
 30
0.0
 11
17.4789429766065
 21
22.2074641042625
 31
0.0
  0
LINE
  5
35D8C
330
1F
100
AcDbEntity
  8
AM_0
100
AcDbLine
 10
13.95375513566705
 20
17.46565076875481
 30
0.0
 11
16.07339159103162
 21
19.10738475844983
 31
0.0
  0
LINE
  5
35D8D
330
1F
100
AcDbEntity
  8
AM_0
100
AcDbLine
 10
18.15394243428227
 20
22.38070425124533
 30
0.0
 11
16.50646394039518
 21
20.39014261028842
 31
0.0
  0
LINE
  5
35D8E
330
1F
100
AcDbEntity
  8
AM_0
100
AcDbLine
 10
27.3820367151211
 20
24.44189687843254
 30
0.0
 11
31.87854501916604
 21
16.08575903561496
 31
0.0
  0
LINE
  5
35D8F
330
1F
100
AcDbEntity
  8
AM_0
100
AcDbLine
 10
23.10465991031765
 20
21.92904156136683
 30
0.0
 11
22.98435621662316
 21
22.15260931206058
 31
0.0
  0
LINE
  5
35D90
330
1F
100
AcDbEntity
  8
AM_0
100
AcDbLine
 10
14.38682748503084
 20
18.74840862059341
 30
0.0
 11
16.84030437070874
 21
21.71281573954866
 31
0.0
  0
LINE
  5
35D91
330
1F
100
AcDbEntity
  8
AM_0
100
AcDbLine
 10
7.110276163606613
 20
13.90316110475646
 30
0.0
 11
13.95375513566683
 21
17.46565076875481
 31
0.0
  0
LINE
  5
35D92
330
1F
100
AcDbEntity
  8
AM_0
100
AcDbLine
 10
17.46235040655597
 20
50.44637523854931
 30
0.0
 11
13.50444883289333
 21
27.99999999999955
 31
0.0
  0
LINE
  5
35D93
330
1F
100
AcDbEntity
  8
AM_0
100
AcDbLine
 10
13.50444883289333
 20
27.99999999999955
 30
0.0
 11
6.681853701169985
 21
14.13079474564597
 31
0.0
  0
LINE
  5
35D94
330
1F
100
AcDbEntity
  8
AM_0
100
AcDbLine
 10
6.681853701169985
 20
14.13079474564597
 30
0.0
 11
7.110276163606386
 21
13.90316110475646
 31
0.0
  0
LINE
  5
35D95
330
1F
100
AcDbEntity
  8
AM_0
100
AcDbLine
 10
17.03290204625409
 20
5.999999999999773
 30
0.0
 11
32.60249061222589
 21
6.0
 31
0.0
  0
LINE
  5
35D96
330
1F
100
AcDbEntity
  8
AM_0
100
AcDbLine
 10
21.96814390689997
 20
75.99999999999955
 30
0.0
 11
18.54117874197459
 21
56.56471476369575
 31
0.0
  0
ELLIPSE
  5
35D97
330
1F
100
AcDbEntity
  8
AM_0
100
AcDbEllipse
 10
-35.21968627217825
 20
45.0
 30
0.0
 11
136.930433721712
 21
-5.718957469636889
 31
0.0
210
0.0
220
0.0
230
1.0
 40
0.2225064869590853
 41
5.260114066578246
 42
5.268164940586628
  0
LINE
  5
35D98
330
1F
100
AcDbEntity
  8
AM_0
100
AcDbLine
 10
32.60249061222589
 20
6.0
 30
0.0
 11
32.85640646055185
 21
6.0
 31
0.0
  0
LINE
  5
35D99
330
1F
100
AcDbEntity
  8
AM_0
100
AcDbLine
 10
32.61459425803446
 20
5.997094264261932
 30
0.0
 11
35.01764409249154
 21
16.00683592003452
 31
0.0
  0
ARC
  5
35D9A
330
1F
100
AcDbEntity
  8
AM_0
100
AcDbCircle
 10
38.39287017880042
 20
10.56965468282075
 30
0.0
 40
4.521335507168221
100
AcDbArc
 50
82.28294962581074
 51
121.9540977774966
  0
SPLINE
  5
35D9B
330
1F
100
AcDbEntity
  8
AM_0
100
AcDbSpline
210
0.0
220
0.0
230
1.0
 70
     8
 71
     3
 72
    22
 73
    18
 74
     0
 42
0.0000000001
 43
0.0000000001
 40
0.0
 40
0.0
 40
0.0
 40
0.0
 40
0.5697482090367504
 40
0.5697482090367504
 40
1.139496418073501
 40
1.139496418073501
 40
1.709244627110251
 40
1.709244627110251
 40
2.278992836147002
 40
2.278992836147002
 40
2.856003628520975
 40
2.856003628520975
 40
3.433014420894948
 40
3.433014420894948
 40
4.010025213268921
 40
4.010025213268921
 40
4.587036005642895
 40
4.587036005642895
 40
4.587036005642895
 40
4.587036005642895
 10
38.99999999999977
 20
74.66479394838279
 30
0.0
 10
38.81008393032107
 20
74.66479394838279
 30
0.0
 10
38.61405388090839
 20
74.6703754589139
 30
0.0
 10
38.22496185741306
 20
74.69349714329019
 30
0.0
 10
38.03189558414329
 20
74.71102703215161
 30
0.0
 10
37.66249186145956
 20
74.75637568389084
 30
0.0
 10
37.48583460273699
 20
74.78421675496816
 30
0.0
 10
37.15986790237002
 20
74.84678175398585
 30
0.0
 10
37.01056295248873
 20
74.88148765695769
 30
0.0
 10
36.74511524334162
 20
74.95354585417044
 30
0.0
 10
36.62009772261536
 20
74.99346760393064
 30
0.0
 10
36.39992764595786
 20
75.0771684261797
 30
0.0
 10
36.30475705938852
 20
75.12092773930044
 30
0.0
 10
36.15186055601816
 20
75.20840815291422
 30
0.0
 10
36.09402440985627
 20
75.25218171398274
 30
0.0
 10
36.018083446942
 20
75.3362724017743
 30
0.0
 10
35.99999999999977
 20
75.3765861487575
 30
0.0
 10
35.99999999999977
 20
75.4138126514913
 30
0.0
  0
SPLINE
  5
35D9C
330
1F
100
AcDbEntity
  8
AM_0
100
AcDbSpline
210
0.0
220
0.0
230
1.0
 70
    11
 71
     3
 72
    70
 73
    66
 74
     0
 42
0.0000000001
 43
0.0000000001
 40
0.0
 40
0.0
 40
0.0
 40
0.0
 40
0.3296760917363907
 40
0.3296760917363907
 40
0.6593521834727814
 40
0.6593521834727814
 40
0.989028275209172
 40
0.989028275209172
 40
1.318704366945563
 40
1.318704366945563
 40
1.648380345447695
 40
1.648380345447695
 40
1.978056323949828
 40
1.978056323949828
 40
2.307732302451961
 40
2.307732302451961
 40
2.637408280954094
 40
2.637408280954094
 40
2.967084259456227
 40
2.967084259456227
 40
3.296760237958361
 40
3.296760237958361
 40
3.626436216460494
 40
3.626436216460494
 40
3.956112194962627
 40
3.956112194962627
 40
4.285788286699018
 40
4.285788286699018
 40
4.615464378435408
 40
4.615464378435408
 40
4.945140470171799
 40
4.945140470171799
 40
5.274816561908189
 40
5.274816561908189
 40
5.604492653644579
 40
5.604492653644579
 40
5.93416874538097
 40
5.93416874538097
 40
6.263844837117361
 40
6.263844837117361
 40
6.593520928853751
 40
6.593520928853751
 40
6.923196907355884
 40
6.923196907355884
 40
7.252872885858016
 40
7.252872885858016
 40
7.582548864360149
 40
7.582548864360149
 40
7.912224842862281
 40
7.912224842862281
 40
8.241900821364414
 40
8.241900821364414
 40
8.571576799866545
 40
8.571576799866545
 40
8.901252778368676
 40
8.901252778368676
 40
9.230928756870808
 40
9.230928756870808
 40
9.560604848607198
 40
9.560604848607198
 40
9.89028094034359
 40
9.89028094034359
 40
10.21995703207998
 40
10.21995703207998
 40
10.54963312381637
 40
10.54963312381637
 40
10.54963312381637
 40
10.54963312381637
 10
28.00000000000068
 20
52.3755362519039
 30
0.0
 10
27.89010796942171
 20
52.3755362519039
 30
0.0
 10
27.77646978472399
 20
52.38577015289457
 30
0.0
 10
27.55043006812639
 20
52.42885070274224
 30
0.0
 10
27.43802664682221
 20
52.46168774633588
 30
0.0
 10
27.22245164382593
 20
52.54845338317409
 30
0.0
 10
27.11910793835295
 20
52.6024498113452
 30
0.0
 10
26.92799827593876
 20
52.72709250584035
 30
0.0
 10
26.84023754829036
 20
52.79774468246865
 30
0.0
 10
26.68488874423679
 20
52.94811995719647
 30
0.0
 10
26.61199037603183
 20
53.03298477349426
 30
0.0
 10
26.48349493322871
 20
53.21750470277721
 30
0.0
 10
26.4278897942429
 20
53.31715301914665
 30
0.0
 10
26.3385855591273
 20
53.52467050737664
 30
0.0
 10
26.30481535634863
 20
53.63270412715201
 30
0.0
 10
26.26051780023545
 20
53.84958450696695
 30
0.0
 10
26.25000000000068
 20
53.95843261101572
 30
0.0
 10
26.25000000000068
 20
54.16861308179432
 30
0.0
 10
26.26051780023545
 20
54.27711042374403
 30
0.0
 10
26.30481535634863
 20
54.49255576481755
 30
0.0
 10
26.3385855591273
 20
54.59950603326706
 30
0.0
 10
26.4278897942429
 20
54.80429942015917
 30
0.0
 10
26.48349493322871
 20
54.9023072979594
 30
0.0
 10
26.61199037603183
 20
55.08330554232975
 30
0.0
 10
26.68488874423679
 20
55.16629270493877
 30
0.0
 10
26.84023754829036
 20
55.3130390305098
 30
0.0
 10
26.92799827593876
 20
55.38181297184292
 30
0.0
 10
27.11910793835295
 20
55.50293186026966
 30
0.0
 10
27.22245164382593
 20
55.55528632521236
 30
0.0
 10
27.43802664682221
 20
55.63932478564539
 30
0.0
 10
27.55043006812639
 20
55.6710769524941
 30
0.0
 10
27.77646978472399
 20
55.71272034102753
 30
0.0
 10
27.89010796942171
 20
55.72260289777455
 30
0.0
 10
28.10989203057943
 20
55.72260289777455
 30
0.0
 10
28.22353021527715
 20
55.71272034102753
 30
0.0
 10
28.44956993187475
 20
55.6710769524941
 30
0.0
 10
28.56197335317893
 20
55.63932478564539
 30
0.0
 10
28.7775483561752
 20
55.55528632521236
 30
0.0
 10
28.88089206164818
 20
55.50293186026966
 30
0.0
 10
29.07200172406238
 20
55.38181297184292
 30
0.0
 10
29.15976245171078
 20
55.3130390305098
 30
0.0
 10
29.31511125576435
 20
55.16629270493877
 30
0.0
 10
29.38800962396931
 20
55.08330554232975
 30
0.0
 10
29.51650506677242
 20
54.9023072979594
 30
0.0
 10
29.57211020575824
 20
54.80429942015917
 30
0.0
 10
29.66141444087384
 20
54.59950603326706
 30
0.0
 10
29.69518464365251
 20
54.49255576481755
 30
0.0
 10
29.73948219976569
 20
54.27711042374403
 30
0.0
 10
29.75000000000068
 20
54.16861308179432
 30
0.0
 10
29.75000000000068
 20
53.95843261101572
 30
0.0
 10
29.73948219976569
 20
53.84958450696695
 30
0.0
 10
29.69518464365251
 20
53.63270412715201
 30
0.0
 10
29.66141444087384
 20
53.52467050737664
 30
0.0
 10
29.57211020575824
 20
53.31715301914665
 30
0.0
 10
29.51650506677242
 20
53.21750470277721
 30
0.0
 10
29.38800962396931
 20
53.03298477349426
 30
0.0
 10
29.31511125576435
 20
52.94811995719647
 30
0.0
 10
29.15976245171078
 20
52.79774468246865
 30
0.0
 10
29.07200172406238
 20
52.72709250584035
 30
0.0
 10
28.88089206164818
 20
52.6024498113452
 30
0.0
 10
28.7775483561752
 20
52.54845338317409
 30
0.0
 10
28.56197335317893
 20
52.46168774633588
 30
0.0
 10
28.44956993187475
 20
52.42885070274224
 30
0.0
 10
28.22353021527715
 20
52.38577015289457
 30
0.0
 10
28.10989203057943
 20
52.3755362519039
 30
0.0
 10
28.00000000000068
 20
52.3755362519039
 30
0.0
  0
SPLINE
  5
35D9D
330
1F
100
AcDbEntity
  8
AM_0
100
AcDbSpline
210
0.0
220
0.0
230
1.0
 70
     8
 71
     3
 72
    22
 73
    18
 74
     0
 42
0.0000000001
 43
0.0000000001
 40
5.915159925322895
 40
5.915159925322895
 40
5.915159925322895
 40
5.915159925322895
 40
6.229502438613462
 40
6.229502438613462
 40
7.082343347621052
 40
7.082343347621052
 40
7.537001708303663
 40
7.537001708303663
 40
7.991660068986274
 40
7.991660068986274
 40
8.307817252405256
 40
8.307817252405256
 40
8.623974435824238
 40
8.623974435824238
 40
8.950518275024688
 40
8.950518275024688
 40
9.175841246589155
 40
9.175841246589155
 40
9.175841246589155
 40
9.175841246589155
 10
26.82849096824998
 20
52.81232886408543
 30
0.0
 10
26.89002727362754
 20
52.88631341215114
 30
0.0
 10
26.95420933218202
 20
52.95623382003669
 30
0.0
 10
27.2012494853534
 20
53.19998430355258
 30
0.0
 10
27.39981732952379
 20
53.34605436453603
 30
0.0
 10
27.71135215404956
 20
53.50199500839744
 30
0.0
 10
27.83580411296634
 20
53.5507527536347
 30
0.0
 10
28.09890602797123
 20
53.61315342512671
 30
0.0
 10
28.23780693734625
 20
53.6264425414065
 30
0.0
 10
28.46452240113445
 20
53.61162131141282
 30
0.0
 10
28.56814374513056
 20
53.59380453553149
 30
0.0
 10
28.77251457255989
 20
53.52756971064855
 30
0.0
 10
28.8732581985546
 20
53.47885206198225
 30
0.0
 10
29.05208021437602
 20
53.36347961996489
 30
0.0
 10
29.14289972875372
 20
53.2875679603676
 30
0.0
 10
29.27754775461108
 20
53.14362864667532
 30
0.0
 10
29.3273464638205
 20
53.08055095281611
 30
0.0
 10
29.37093348569488
 20
53.01779155105828
 30
0.0
  0
ELLIPSE
  5
35D9E
330
1F
100
AcDbEntity
  8
AM_0
100
AcDbEllipse
 10
23.05373384983272
 20
42.6848953370536
 30
0.0
 11
1.05171080031917
 21
-2.230979460968533
 31
0.0
210
0.0
220
0.0
230
1.0
 40
0.2210391745008461
 41
2.448277287993371
 42
2.736215294521947
  0
LINE
  5
35D9F
330
1F
100
AcDbEntity
  8
AM_0
100
AcDbLine
 10
17.4623504065562
 20
50.44637523854908
 30
0.0
 11
21.17948343408193
 21
43.53859839086613
 31
0.0
  0
LINE
  5
35DA0
330
1F
100
AcDbEntity
  8
AM_0
100
AcDbLine
 10
23.46334370835325
 20
39.29436042329053
 30
0.0
 11
35.94418870453706
 21
16.10043879989871
 31
0.0
  0
LINE
  5
35DA1
330
1F
100
AcDbEntity
  8
AM_0
100
AcDbLine
 10
18.54117874197459
 20
56.56471476369597
 30
0.0
 11
17.4623504065562
 21
50.44637523854908
 31
0.0
  0
ELLIPSE
  5
35DA2
330
1F
100
AcDbEntity
  8
AM_0
100
AcDbEllipse
 10
16.75046737674757
 20
45.0
 30
0.0
 11
18.13478975988407
 21
-30.75440652811588
 31
0.0
210
0.0
220
0.0
230
1.0
 40
0.2147483622604713
 41
0.2442715193370366
 42
1.82713707567844
  0
LINE
  5
35DA3
330
1F
100
AcDbEntity
  8
AM_0
100
AcDbLine
 10
21.72985137254568
 20
45.37685348374021
 30
0.0
 11
22.28173538836313
 21
44.82673992653554
 31
0.0
  0
LINE
  5
35DA4
330
1F
100
AcDbEntity
  8
AM_0
100
AcDbLine
 10
22.55998725546715
 20
44.54938069882746
 30
0.0
 11
23.1118712712846
 21
43.9992671416228
 31
0.0
  0
ELLIPSE
  5
35DA5
330
1F
100
AcDbEntity
  8
AM_0
100
AcDbEllipse
 10
23.05373384983318
 20
42.68489533705201
 30
0.0
 11
-1.282574146730403
 21
2.720706659717139
 31
0.0
210
0.0
220
0.0
230
0.9999999999999999
 40
0.2210391745008485
 41
2.684419693729
 42
5.10978547432418
  0
ELLIPSE
  5
35DA6
330
1F
100
AcDbEntity
  8
AM_0
100
AcDbEllipse
 10
23.05373384983318
 20
42.68489533705201
 30
0.0
 11
-1.282574146730403
 21
2.720706659717139
 31
0.0
210
0.0
220
0.0
230
0.9999999999999999
 40
0.2210391745008485
 41
0.0747071081909674
 42
0.7615976562000992
  0
LINE
  5
35DA7
330
1F
100
AcDbEntity
  8
AM_0
100
AcDbLine
 10
35.00000000000023
 20
14.0
 30
0.0
 11
36.00000000000023
 21
14.0
 31
0.0
  0
LINE
  5
35DA8
330
1F
100
AcDbEntity
  8
AM_0
100
AcDbLine
 10
21.96814390689997
 20
76.0
 30
0.0
 11
36.0
 21
76.0
 31
0.0
  0
LINE
  5
35DA9
330
1F
100
AcDbEntity
  8
AM_0
100
AcDbLine
 10
35.00000000000023
 20
14.0
 30
0.0
 11
32.85640646055208
 21
5.999999999999545
 31
0.0
  0
ELLIPSE
  5
35DAA
330
1F
100
AcDbEntity
  8
AM_0
100
AcDbEllipse
 10
28.00551882679724
 20
19.56382045853798
 30
0.0
 11
-0.9185134230847012
 21
1.185889156545933
 31
0.0
210
0.0
220
0.0
230
1.0
 40
0.9602101798330259
 41
3.586132296133752
 42
3.641136785645024
  0
ELLIPSE
  5
35DAB
330
1F
100
AcDbEntity
  8
AM_0
100
AcDbEllipse
 10
28.00551882679724
 20
19.56382045853798
 30
0.0
 11
-0.9185134230847012
 21
1.185889156545933
 31
0.0
210
0.0
220
0.0
230
1.0
 40
0.9602101798330259
 41
5.439496344499199
 42
5.49450083401045
  0
ELLIPSE
  5
35DAC
330
1F
100
AcDbEntity
  8
AM_0
100
AcDbEllipse
 10
26.18365085507617
 20
23.96385197622067
 30
0.0
 11
0.6123422820564681
 21
-0.790592771030622
 31
0.0
210
0.0
220
0.0
230
1.0
 40
0.9602101798330265
 41
3.403364434688865
 42
4.540316565072108
  0
ELLIPSE
  5
35DAD
330
1F
100
AcDbEntity
  8
AM_0
100
AcDbEllipse
 10
30.68015915912133
 20
15.60771413340308
 30
0.0
 11
0.6123422820564826
 21
-0.7905927710306406
 31
0.0
210
0.0
220
0.0
230
1.0
 40
0.9602101798330265
 41
4.540316565072409
 42
6.009288664172886
  0
ELLIPSE
  5
35DAE
330
1F
100
AcDbEntity
  8
AM_0
100
AcDbEllipse
 10
18.02307537546972
 20
19.09164751443268
 30
0.0
 11
1.224684564112918
 21
-1.581185542061258
 31
0.0
210
0.0
220
0.0
230
1.0
 40
0.9602101798330299
 41
3.353492673717089
 42
4.064934770420382
  0
ELLIPSE
  5
35DAF
330
1F
100
AcDbEntity
  8
AM_0
100
AcDbEllipse
 10
29.67970476991309
 20
14.94111525242579
 30
0.0
 11
-1.578900675404807
 21
2.03851260435303
 31
0.0
210
0.0
220
0.0
230
1.0
 40
0.960210179833026
 41
1.409914868691321
 42
4.540316565071958
  0
ELLIPSE
  5
35DB0
330
1F
100
AcDbEntity
  8
AM_0
100
AcDbEllipse
 10
25.18319646586701
 20
23.29725309524292
 30
0.0
 11
-1.578900675408372
 21
2.038512604357634
 31
0.0
210
0.0
220
0.0
230
1.0
 40
0.960210179833026
 41
4.540316565072075
 42
7.681909218661868
  0
ELLIPSE
  5
35DB1
330
1F
100
AcDbEntity
  8
AM_0
100
AcDbEllipse
 10
18.35691580578123
 20
20.41432064369064
 30
0.0
 11
-1.224684564113057
 21
1.581185542061402
 31
0.0
210
0.0
220
0.0
230
1.0
 40
0.9602101798330263
 41
4.07997835276903
 42
6.495085327305218
  0
ELLIPSE
  5
35DB2
330
1F
100
AcDbEntity
  8
AM_0
100
AcDbEllipse
 10
15.90343892010515
 20
17.44991352473789
 30
0.0
 11
-1.224684564112935
 21
1.581185542061244
 31
0.0
210
0.0
220
0.0
230
1.0
 40
0.9602101798330262
 41
0.2119000201272718
 42
0.923342116830567
  0
LINE
  5
35DB3
330
1F
100
AcDbEntity
  8
AM_0
100
AcDbLine
 10
35.0
 20
14.0
 30
0.0
 11
35.0
 21
16.01107175698189
 31
0.0
  0
ELLIPSE
  5
35DB4
330
1F
100
AcDbEntity
  8
AM_0
100
AcDbEllipse
 10
14.88924641131689
 20
4.074852884884876
 30
0.0
 11
-1.837026846169402
 21
2.371778313091866
 31
0.0
210
0.0
220
0.0
230
1.0
 40
0.9602101798330263
 41
4.782231217201426
 42
5.827096524639179
  0
LINE
  5
35DB5
330
1F
100
AcDbEntity
  8
AM_0
100
AcDbLine
 10
36.0
 20
14.40588291844324
 30
0.0
 11
36.0
 21
14.0
 31
0.0
  0
LINE
  5
35DB6
330
1F
100
AcDbEntity
  8
AM_0
100
AcDbLine
 10
35.99999999999977
 20
76.00000000000023
 30
0.0
 11
36.0
 21
75.4138126514913
 31
0.0
  0
LINE
  5
35DB7
330
1F
100
AcDbEntity
  8
AM_0
100
AcDbLine
 10
21.74838549994092
 20
21.17936643762073
 30
0.0
 11
11.89960919253849
 21
16.05241800373233
 31
0.0
  0
LINE
  5
35DB8
330
1F
100
AcDbEntity
  8
AM_0
100
AcDbLine
 10
25.14009401091812
 20
23.06060887944432
 30
0.0
 11
23.64705987840785
 21
21.90420072420943
 31
0.0
  0
LINE
  5
35DB9
330
1F
100
AcDbEntity
  8
AM_0
100
AcDbLine
 10
10.94153591821373
 20
15.31035610198683
 30
0.0
 11
11.89960919253849
 21
16.05241800373233
 31
0.0
  0
LINE
  5
35DBA
330
1F
100
AcDbEntity
  8
AM_0
100
AcDbLine
 10
6.517880253727526
 20
9.047609111815746
 30
0.0
 11
7.273039991895075
 21
7.644249340457463
 31
0.0
  0
ELLIPSE
  5
35DBB
330
1F
100
AcDbEntity
  8
AM_0
100
AcDbEllipse
 10
20.63037583992809
 20
10.41066157267801
 30
0.0
 11
-14.71496633064042
 21
-2.16494355872772
 31
0.0
210
0.0
220
0.0
230
1.0
 40
0.1325293561224591
 41
0.4138505340116912
 42
0.8175357272339838
  0
ARC
  5
35DBC
330
1F
100
AcDbEntity
  8
AM_0
100
AcDbCircle
 10
10.55473262373721
 20
14.73856392563377
 30
0.0
 40
7.234674534709495
100
AcDbArc
 50
271.739376175278
 51
297.2264711373787
  0
ELLIPSE
  5
35DBD
330
1F
100
AcDbEntity
  8
AM_0
100
AcDbEllipse
 10
15.95839653821622
 20
19.09288795904422
 30
0.0
 11
-9.965002205953569
 21
-11.02179921406579
 31
0.0
210
0.0
220
0.0
230
1.0
 40
0.0478872320935505
 41
5.496580125365762
 42
5.900265318588041
  0
ARC
  5
35DBE
330
1F
100
AcDbEntity
  8
AM_0
100
AcDbCircle
 10
14.36291284522326
 20
6.758118014544124
 30
0.0
 40
7.597531635231381
100
AcDbArc
 50
116.0639055713703
 51
139.9524313744831
  0
ARC
  5
35DBF
330
1F
100
AcDbEntity
  8
AM_0
100
AcDbCircle
 10
14.54788997704509
 20
8.153134951082365
 30
0.0
 40
8.014462190353223
100
AcDbArc
 50
116.7424517116347
 51
127.6592532948797
  0
LINE
  5
35DC0
330
1F
100
AcDbEntity
  8
AM_0
100
AcDbLine
 10
23.64705987840785
 20
21.90420072420943
 30
0.0
 11
13.40451790168982
 21
16.57227085723685
 31
0.0
  0
LINE
  5
35DC1
330
1F
100
AcDbEntity
  8
AM_0
100
AcDbLine
 10
21.68421572941929
 20
19.10931628925482
 30
0.0
 11
24.02584167763257
 21
20.32828960261168
 31
0.0
  0
LINE
  5
35DC2
330
1F
100
AcDbEntity
  8
AM_0
100
AcDbLine
 10
24.02584167763257
 20
20.32828960261168
 30
0.0
 11
26.86574165913476
 21
15.05072885977938
 31
0.0
  0
LINE
  5
35DC3
330
1F
100
AcDbEntity
  8
AM_0
100
AcDbLine
 10
26.86574165913498
 20
15.05072885977938
 30
0.0
 11
24.5241157109183
 21
13.83175554642094
 31
0.0
  0
LINE
  5
35DC4
330
1F
100
AcDbEntity
  8
AM_0
100
AcDbLine
 10
17.82843645893991
 20
10.34620554677804
 30
0.0
 11
16.62319968241673
 21
9.718798992806569
 31
0.0
  0
LINE
  5
35DC5
330
1F
100
AcDbEntity
  8
AM_0
100
AcDbLine
 10
13.78329970091454
 20
14.99635973563909
 30
0.0
 11
16.62319968241673
 21
9.718798992806569
 31
0.0
  0
LINE
  5
35DC6
330
1F
100
AcDbEntity
  8
AM_0
100
AcDbLine
 10
13.78329970091454
 20
14.99635973563909
 30
0.0
 11
15.11087246589659
 21
15.68745037429835
 31
0.0
  0
LINE
  5
35DC7
330
1F
100
AcDbEntity
  8
AM_0
100
AcDbLine
 10
23.85062322475073
 20
12.25030390967731
 30
0.0
 11
22.77316596118726
 21
11.68941515988854
 31
0.0
  0
LINE
  5
35DC8
330
1F
100
AcDbEntity
  8
AM_0
100
AcDbLine
 10
16.00516041617016
 20
17.43991596830483
 30
0.0
 11
17.01862478875137
 21
17.96749212757868
 31
0.0
  0
LINE
  5
35DC9
330
1F
100
AcDbEntity
  8
AM_0
100
AcDbLine
 10
18.87489774503115
 20
18.93380666544817
 30
0.0
 11
19.9523550085928
 21
19.49469541523604
 31
0.0
  0
ARC
  5
35DCA
330
1F
100
AcDbEntity
  8
AM_0
100
AcDbCircle
 10
19.30337021721653
 20
14.65241897131133
 30
0.0
 40
4.318370919683226
100
AcDbArc
 50
139.7970244799637
 51
166.1322872886264
  0
ARC
  5
35DCB
330
1F
100
AcDbEntity
  8
AM_0
100
AcDbCircle
 10
20.30029481833253
 20
14.69641741667462
 30
0.0
 40
4.311415438407154
100
AcDbArc
 50
325.4338450999661
 51
348.4307748373272
  0
ARC
  5
35DCC
330
1F
100
AcDbEntity
  8
AM_0
100
AcDbCircle
 10
19.71084797757726
 20
14.32527724997314
 30
0.0
 40
5.175056503399846
100
AcDbArc
 50
67.58434739940563
 51
87.32517680880166
  0
ELLIPSE
  5
35DCD
330
1F
100
AcDbEntity
  8
AM_0
100
AcDbEllipse
 10
25.85006900629355
 20
21.7412186937363
 30
0.0
 11
1.445723212911595
 21
0.8960292297199485
 31
0.0
210
0.0
220
0.0
230
1.0
 40
0.8805189883293288
 41
6.229310059843072
 42
7.800106386637968
  0
LINE
  5
35DCE
330
1F
100
AcDbEntity
  8
AM_0
100
AcDbLine
 10
25.14009401091812
 20
23.06060887944432
 30
0.0
 11
21.99111089645044
 21
21.30998164152106
 31
0.0
  0
ELLIPSE
  5
35DCF
330
1F
100
AcDbEntity
  8
AM_0
100
AcDbEllipse
 10
28.68996898779574
 20
16.46365795090401
 30
0.0
 11
1.445723212911596
 21
0.8960292297199483
 31
0.0
210
0.0
220
0.0
230
1.0
 40
0.880518988329329
 41
4.830586148360732
 42
6.229310059842996
  0
LINE
  5
35DD0
330
1F
100
AcDbEntity
  8
AM_0
100
AcDbLine
 10
28.75613001578313
 20
19.92861818210668
 30
0.0
 11
30.17608000653422
 21
17.28983781069064
 31
0.0
  0
LINE
  5
35DD1
330
1F
100
AcDbEntity
  8
AM_0
100
AcDbLine
 10
30.17608000653445
 20
17.28983781069064
 30
0.0
 11
28.47609339618862
 21
15.97313758449513
 31
0.0
  0
LINE
  5
35DD2
330
1F
100
AcDbEntity
  8
AM_0
100
AcDbLine
 10
28.47609339618839
 20
15.97313758449513
 30
0.0
 11
25.6361934146862
 21
21.25069832732743
 31
0.0
  0
LINE
  5
35DD3
330
1F
100
AcDbEntity
  8
AM_0
100
AcDbLine
 10
25.63619341468643
 20
21.25069832732743
 30
0.0
 11
27.33618002503226
 21
22.56739855352271
 31
0.0
  0
LINE
  5
35DD4
330
1F
100
AcDbEntity
  8
AM_0
100
AcDbLine
 10
28.75613001578313
 20
19.92861818210668
 30
0.0
 11
27.33618002503204
 21
22.56739855352271
 31
0.0
  0
LINE
  5
35DD5
330
1F
100
AcDbEntity
  8
AM_0
100
AcDbLine
 10
28.11544827836997
 20
14.1213606391234
 30
0.0
 11
29.64391775064837
 21
15.30521472811074
 31
0.0
  0
LINE
  5
35DD6
330
1F
100
AcDbEntity
  8
AM_0
100
AcDbLine
 10
7.173452205599233
 20
7.619801798822437
 30
0.0
 11
6.418292467431684
 21
9.023161570180946
 31
0.0
  0
LINE
  5
35DD7
330
1F
100
AcDbEntity
  8
AM_0
100
AcDbLine
 10
9.65134053038787
 20
14.49784989480077
 30
0.0
 11
10.50935300781043
 21
15.16241114265131
 31
0.0
  0
ARC
  5
35DD8
330
1F
100
AcDbEntity
  8
AM_0
100
AcDbCircle
 10
11.74153857192709
 20
27.77581028990832
 30
0.0
 40
21.21394722843668
100
AcDbArc
 50
260.4073524654073
 51
269.8034121758381
  0
ARC
  5
35DD9
330
1F
100
AcDbEntity
  8
AM_0
100
AcDbCircle
 10
11.7861120879802
 20
13.99646956497529
 30
0.0
 40
7.435407902530391
100
AcDbArc
 50
269.0956045423246
 51
297.035204867045
  0
LINE
  5
35DDA
330
1F
100
AcDbEntity
  8
AM_0
100
AcDbLine
 10
15.16721285885546
 20
7.370765124641821
 30
0.0
 11
17.64829729432131
 21
8.642303164248915
 31
0.0
  0
LINE
  5
35DDB
330
1F
100
AcDbEntity
  8
AM_0
100
AcDbLine
 10
6.44660546491491
 20
10.5438072671725
 30
0.0
 11
8.259137252408891
 21
13.10555179746916
 31
0.0
  0
SPLINE
  5
35DDC
330
1F
100
AcDbEntity
  8
AM_0
100
AcDbSpline
210
0.0
220
0.0
230
1.0
 70
     8
 71
     3
 72
     8
 73
     4
 74
     0
 42
0.0000000001
 43
0.0000000001
 40
0.0
 40
0.0
 40
0.0
 40
0.0
 40
2.378379810455674
 40
2.378379810455674
 40
2.378379810455674
 40
2.378379810455674
 10
8.269754027316594
 20
13.09804002501323
 30
0.0
 10
8.649041441126201
 20
13.60636150668915
 30
0.0
 10
9.114174220363339
 20
14.08179544024824
 30
0.0
 10
9.651340530388779
 20
14.49784989480122
 30
0.0
  0
LINE
  5
35DDD
330
1F
100
AcDbEntity
  8
AM_0
100
AcDbLine
 10
27.88955777513797
 20
13.97673354590188
 30
0.0
 11
17.64701579841994
 21
8.644803678929293
 31
0.0
  0
LINE
  5
35DDE
330
1F
100
AcDbEntity
  8
AM_0
100
AcDbLine
 10
29.20232402418515
 20
19.09993265672438
 30
0.0
 11
29.22491296107182
 21
19.19175484643461
 31
0.0
  0
LINE
  5
35DDF
330
1F
100
AcDbEntity
  8
AM_0
100
AcDbLine
 10
28.2396609551522
 20
20.88900286104536
 30
0.0
 11
28.3293031972255
 21
20.85635293366772
 31
0.0
  0
ELLIPSE
  5
35DE0
330
1F
100
AcDbEntity
  8
AM_0
100
AcDbEllipse
 10
21.85878323199108
 20
21.26487341625079
 30
0.0
 11
0.4403004311316357
 21
0.236929378392161
 31
0.0
210
0.0
220
0.0
230
1.0
 40
0.0478193071132805
 41
4.433311293354664
 42
4.991816653992832
  0
ELLIPSE
  5
35DE1
330
1F
100
AcDbEntity
  8
AM_0
100
AcDbEllipse
 10
16.63277582837532
 20
7.256483432345249
 30
0.0
 11
6.123422820564519
 21
-7.905927710306342
 31
0.0
210
0.0
220
0.0
230
1.0
 40
0.9602101798330276
 41
2.969520238277206
 42
3.14159265358981
  0
ELLIPSE
  5
35DE2
330
1F
100
AcDbEntity
  8
AM_0
100
AcDbEllipse
 10
27.19693485528546
 20
15.30724979566912
 30
0.0
 11
0.9185134230846813
 21
-1.185889156545948
 31
0.0
210
0.0
220
0.0
230
0.9999999999999999
 40
0.960210179833029
 41
-0.0000000000000721
 42
1.398723911482237
  0
ELLIPSE
  5
35DE3
330
1F
100
AcDbEntity
  8
AM_0
100
AcDbEllipse
 10
8.494353498994542
 20
8.330589933999363
 30
0.0
 11
1.320901293394907
 21
0.7107881351764829
 31
0.0
210
0.0
220
0.0
230
1.0
 40
0.0478193071132805
 41
3.141592653589991
 42
3.507464637895451
  0
ELLIPSE
  5
35DE4
330
1F
100
AcDbEntity
  8
AM_0
100
AcDbEllipse
 10
8.494353498994542
 20
8.330589933999363
 30
0.0
 11
0.2879541387212067
 21
1.472101359959087
 31
0.0
210
0.0
220
0.0
230
1.0
 40
0.8935508124042143
 41
2.2210061412573
 42
3.141592653589722
  0
ELLIPSE
  5
35DE5
330
1F
100
AcDbEntity
  8
AM_0
100
AcDbEllipse
 10
11.69937380808938
 20
8.061675322655447
 30
0.0
 11
0.03062236952888204
 21
1.499687390920001
 31
0.0
210
0.0
220
0.0
230
1.0
 40
0.6590431861038039
 41
1.962915665951741
 42
3.141592653589876
  0
ELLIPSE
  5
35DE6
330
1F
100
AcDbEntity
  8
AM_0
100
AcDbEllipse
 10
19.71433617982325
 20
12.11299439444497
 30
0.0
 11
12.3284120716858
 21
6.634022594980509
 31
0.0
210
0.0
220
0.0
230
1.0
 40
0.0478193071132805
 41
4.192459416857782
 42
4.433311293355729
  0
ELLIPSE
  5
35DE7
330
1F
100
AcDbEntity
  8
AM_0
100
AcDbEllipse
 10
14.49141089509158
 20
8.713405173446517
 30
0.0
 11
-0.6743757735708599
 21
1.339857199861499
 31
0.0
210
0.0
220
0.0
230
1.0
 40
0.4962506508169949
 41
1.625904205353382
 42
3.141592653589599
  0
ELLIPSE
  5
35DE8
330
1F
100
AcDbEntity
  8
AM_0
100
AcDbEllipse
 10
24.35703487378351
 20
20.58481053850142
 30
0.0
 11
0.9185134230846811
 21
-1.185889156545948
 31
0.0
210
0.0
220
0.0
230
0.9999999999999998
 40
0.960210179833029
 41
1.398723911482304
 42
2.96952023827726
  0
ELLIPSE
  5
35DE9
330
1F
100
AcDbEntity
  8
AM_0
100
AcDbEllipse
 10
27.19693485528546
 20
15.30724979566912
 30
0.0
 11
-1.320901293394907
 21
-0.7107881351764829
 31
0.0
210
0.0
220
0.0
230
1.0
 40
0.0478193071132805
 41
1.291718639766137
 42
2.862514966561041
  0
ELLIPSE
  5
35DEA
330
1F
100
AcDbEntity
  8
AM_0
100
AcDbEllipse
 10
24.35703487378351
 20
20.58481053850142
 30
0.0
 11
1.320901293394907
 21
0.7107881351764829
 31
0.0
210
0.0
220
0.0
230
1.0
 40
0.0478193071132805
 41
4.43331129335593
 42
6.004107620150835
  0
ELLIPSE
  5
35DEB
330
1F
100
AcDbEntity
  8
AM_0
100
AcDbEllipse
 10
7.739193760826765
 20
9.733949705357418
 30
0.0
 11
-1.320901293394907
 21
-0.7107881351764829
 31
0.0
210
0.0
220
0.0
230
1.0
 40
0.0478193071132805
 41
0.0000000000002314
 42
0.3658719843055189
  0
ELLIPSE
  5
35DEC
330
1F
100
AcDbEntity
  8
AM_0
100
AcDbEllipse
 10
7.739193760826765
 20
9.733949705357418
 30
0.0
 11
-1.271871614495936
 21
0.7951997209750998
 31
0.0
210
0.0
220
0.0
230
1.0
 40
0.9166599167330349
 41
0.000000000000046
 42
1.106479999894867
  0
ELLIPSE
  5
35DED
330
1F
100
AcDbEntity
  8
AM_0
100
AcDbEllipse
 10
9.471968283525484
 20
12.20099995780947
 30
0.0
 11
-1.202214256208568
 21
0.897040067203734
 31
0.0
210
0.0
220
0.0
230
1.0
 40
0.6913594850298285
 41
0.0000000000001309
 42
1.294061120051233
  0
ELLIPSE
  5
35DEE
330
1F
100
AcDbEntity
  8
AM_0
100
AcDbEllipse
 10
16.16446120294563
 20
18.70994532298528
 30
0.0
 11
11.0075107782909
 21
5.923234459804026
 31
0.0
210
0.0
220
0.0
230
1.0
 40
0.0478193071132805
 41
4.192459416857759
 42
4.433311293355701
  0
ELLIPSE
  5
35DEF
330
1F
100
AcDbEntity
  8
AM_0
100
AcDbEllipse
 10
16.87443619832129
 20
17.39055513727726
 30
0.0
 11
-12.3284120716858
 21
-6.634022594980509
 31
0.0
210
0.0
220
0.0
230
1.0
 40
0.0478193071132805
 41
1.050866763267988
 42
1.291718639765935
  0
ELLIPSE
  5
35DF0
330
1F
100
AcDbEntity
  8
AM_0
100
AcDbEllipse
 10
11.65151091358939
 20
13.99096591627881
 30
0.0
 11
-0.6743757735708613
 21
1.339857199861501
 31
0.0
210
0.0
220
0.0
230
1.0
 40
0.4962506508169948
 41
0.0551078785584719
 42
1.625904205353382
  0
ELLIPSE
  5
35DF1
330
1F
100
AcDbEntity
  8
AM_0
100
AcDbEllipse
 10
14.11449289706525
 20
15.25288067152883
 30
0.0
 11
-0.6926229198525521
 21
1.330516249767333
 31
0.0
210
0.0
220
0.0
230
1.0
 40
0.2751540012651604
 41
0.0497597652954843
 42
1.620556092090417
  0
ELLIPSE
  5
35DF2
330
1F
100
AcDbEntity
  8
AM_0
100
AcDbEllipse
 10
24.35703487378351
 20
20.58481053850142
 30
0.0
 11
0.6926229198525518
 21
-1.330516249767332
 31
0.0
210
0.0
220
0.0
230
1.0
 40
0.2751540012651605
 41
3.191352418885277
 42
4.762148745680211
  0
ELLIPSE
  5
35DF3
330
1F
100
AcDbEntity
  8
AM_0
100
AcDbEllipse
 10
27.19693485528546
 20
15.30724979566912
 30
0.0
 11
0.6926229198525521
 21
-1.330516249767333
 31
0.0
210
0.0
220
0.0
230
1.0
 40
0.2751540012651604
 41
4.762148745680144
 42
6.283185307179483
  0
ELLIPSE
  5
35DF4
330
1F
100
AcDbEntity
  8
AM_0
100
AcDbEllipse
 10
16.95439287856743
 20
9.975319928696536
 30
0.0
 11
-0.6926229198525518
 21
1.330516249767332
 31
0.0
210
0.0
220
0.0
230
1.0
 40
0.2751540012651605
 41
1.620556092090417
 42
3.141592653589622
  0
ELLIPSE
  5
35DF5
330
1F
100
AcDbEntity
  8
AM_0
100
AcDbEllipse
 10
19.50150564016008
 20
14.62314734271627
 30
0.0
 11
2.755540269254044
 21
-3.557667469637846
 31
0.0
210
0.0
220
0.0
230
1.0
 40
0.960210179833029
 41
3.38451442541519
 42
3.873328568809244
  0
ELLIPSE
  5
35DF6
330
1F
100
AcDbEntity
  8
AM_0
100
AcDbEllipse
 10
19.39110790810969
 20
14.5376403640862
 30
0.0
 11
-2.755540269254044
 21
3.557667469637846
 31
0.0
210
0.0
220
0.0
230
1.0
 40
0.960210179833029
 41
0.6689962552567805
 42
0.9904689524788972
  0
ELLIPSE
  5
35DF7
330
1F
100
AcDbEntity
  8
AM_0
100
AcDbEllipse
 10
20.24388026871179
 20
14.98156555663695
 30
0.0
 11
-2.755540269254044
 21
3.557667469637846
 31
0.0
210
0.0
220
0.0
230
1.0
 40
0.960210179833029
 41
3.810588908843922
 42
5.27004422129896
  0
ELLIPSE
  5
35DF8
330
1F
100
AcDbEntity
  8
AM_0
100
AcDbEllipse
 10
27.82886220587875
 20
19.52445343777754
 30
0.0
 11
-0.8878963089818556
 21
1.14635951799442
 31
0.0
210
0.0
220
0.0
230
1.0
 40
0.9602101798330276
 41
5.234313640901065
 42
5.302686474028254
  0
ELLIPSE
  5
35DF9
330
1F
100
AcDbEntity
  8
AM_0
100
AcDbEllipse
 10
27.82886220587875
 20
19.52445343777754
 30
0.0
 11
-0.8878963089818556
 21
1.14635951799442
 31
0.0
210
0.0
220
0.0
230
1.0
 40
0.9602101798330276
 41
3.777946656116206
 42
3.846319489243027
  0
ARC
  5
35DFA
330
1F
100
AcDbEntity
  8
AM_0
100
AcDbCircle
 10
27.19693485528546
 20
15.30724979566909
 30
0.0
 40
1.5
100
AcDbArc
 50
297.4999999999936
 51
307.7590585824887
  0
ARC
  5
35DFB
330
1F
100
AcDbEntity
  8
AM_0
100
AcDbCircle
 10
8.494353498994542
 20
8.330589933999335
 30
0.0
 40
1.5
100
AcDbArc
 50
208.285069775938
 51
258.932260002707
  0
ARC
  5
35DFC
330
1F
100
AcDbEntity
  8
AM_0
100
AcDbCircle
 10
7.739193760826765
 20
9.733949705357389
 30
0.0
 40
1.5
100
AcDbArc
 50
147.9855485037263
 51
208.285069775938
  0
LINE
  5
35DFD
330
1F
100
AcDbEntity
  8
AM_0
100
AcDbLine
 10
18.01556083508126
 20
16.14428587260636
 30
0.0
 11
20.24043004035207
 21
15.70154140080604
 31
0.0
  0
LINE
  5
35DFE
330
1F
100
AcDbEntity
  8
AM_0
100
AcDbLine
 10
20.24043004035207
 20
15.70154140080604
 30
0.0
 11
21.04878370522761
 21
13.54729568089124
 31
0.0
  0
LINE
  5
35DFF
330
1F
100
AcDbEntity
  8
AM_0
100
AcDbLine
 10
21.04878370522738
 20
13.54729568089124
 30
0.0
 11
19.63226816483211
 21
11.83579443277677
 31
0.0
  0
LINE
  5
35E00
330
1F
100
AcDbEntity
  8
AM_0
100
AcDbLine
 10
19.63226816483211
 20
11.83579443277677
 30
0.0
 11
17.40739895956131
 21
12.27853890457686
 31
0.0
  0
LINE
  5
35E01
330
1F
100
AcDbEntity
  8
AM_0
100
AcDbLine
 10
18.18018308391265
 20
12.87708775498641
 30
0.0
 11
20.16688091191645
 21
12.4817389055338
 31
0.0
  0
LINE
  5
35E02
330
1F
100
AcDbEntity
  8
AM_0
100
AcDbLine
 10
17.40739895956131
 20
12.27853890457664
 30
0.0
 11
18.18018308391288
 21
12.87708775498641
 31
0.0
  0
LINE
  5
35E03
330
1F
100
AcDbEntity
  8
AM_0
100
AcDbLine
 10
17.40739895956131
 20
12.27853890457686
 30
0.0
 11
16.59904529468577
 21
14.43278462449143
 31
0.0
  0
LINE
  5
35E04
330
1F
100
AcDbEntity
  8
AM_0
100
AcDbLine
 10
17.37182941903734
 20
15.0313334749012
 30
0.0
 11
18.18018308391288
 21
12.87708775498641
 31
0.0
  0
LINE
  5
35E05
330
1F
100
AcDbEntity
  8
AM_0
100
AcDbLine
 10
16.59904529468577
 20
14.43278462449143
 30
0.0
 11
17.37182941903734
 21
15.0313334749012
 31
0.0
  0
LINE
  5
35E06
330
1F
100
AcDbEntity
  8
AM_0
100
AcDbLine
 10
16.59904529468599
 20
14.43278462449143
 30
0.0
 11
18.01556083508126
 21
16.14428587260613
 31
0.0
  0
LINE
  5
35E07
330
1F
100
AcDbEntity
  8
AM_0
100
AcDbLine
 10
18.25373221234827
 20
16.09689025025841
 30
0.0
 11
17.37182941903757
 21
15.0313334749012
 31
0.0
  0
LINE
  5
35E08
330
1F
100
AcDbEntity
  8
AM_0
100
AcDbLine
 10
17.32543712171923
 20
18.20512921587078
 30
0.0
 11
16.58891060708334
 21
17.63466317659868
 31
0.0
  0
LINE
  5
35E09
330
1F
100
AcDbEntity
  8
AM_0
100
AcDbLine
 10
22.5303465191987
 20
11.48509066211091
 30
0.0
 11
21.7938200045628
 21
10.91462462283835
 31
0.0
  0
ARC
  5
35E0A
330
1F
100
AcDbEntity
  8
AM_0
100
AcDbCircle
 10
19.29520655037231
 20
14.35507264507075
 30
0.0
 40
4.252029137617532
100
AcDbArc
 50
129.5292186439233
 51
305.988898521055
  0
ELLIPSE
  5
35E0B
330
1F
100
AcDbEntity
  8
AM_0
100
AcDbEllipse
 10
18.82391449995657
 20
13.99004015269156
 30
0.0
 11
-1.583386368127087
 21
2.044304065016884
 31
0.0
210
0.0
220
0.0
230
1.0
 40
0.9602101798330293
 41
0.0000000000000153
 42
6.2831853071796
  0
ELLIPSE
  5
35E0C
330
1F
100
AcDbEntity
  8
AM_0
100
AcDbEllipse
 10
19.92789182045908
 20
14.84510993899085
 30
0.0
 11
2.602454698739928
 21
-3.36001927688019
 31
0.0
210
0.0
220
0.0
230
1.0
 40
0.9602101798330293
 41
-0.0000000000000265
 42
3.14159265358981
  0
ELLIPSE
  5
35E0D
330
1F
100
AcDbEntity
  8
AM_0
100
AcDbEllipse
 10
18.88858399413653
 20
14.04012898109522
 30
0.0
 11
2.016377748176451
 21
-2.603337574569708
 31
0.0
210
0.0
220
0.0
230
1.0
 40
0.9602101798330291
 41
-0.0000000000000213
 42
6.283185307179565
  0
ELLIPSE
  5
35E0E
330
1F
100
AcDbEntity
  8
AM_0
100
AcDbEllipse
 10
19.03523933590236
 20
14.15371877086227
 30
0.0
 11
-2.42310379673284
 21
3.128460015402381
 31
0.0
210
0.0
220
0.0
230
1.0
 40
0.9602101798330295
 41
0.0000000000000056
 42
6.283185307179592
  0
ELLIPSE
  5
35E0F
330
1F
100
AcDbEntity
  8
AM_0
100
AcDbEllipse
 10
19.19136530582318
 20
14.27464389971829
 30
0.0
 11
2.602454698739929
 21
-3.36001927688019
 31
0.0
210
0.0
220
0.0
230
1.0
 40
0.9602101798330293
 41
0.0000000000000168
 42
3.141592653589828
  0
LINE
  5
35E10
330
1F
100
AcDbEntity
  8
AM_0
100
AcDbLine
 10
13.15661058467185
 20
6.330148018723776
 30
0.0
 11
13.35212459916465
 21
6.727595609376749
 31
0.0
  0
LINE
  5
35E11
330
1F
100
AcDbEntity
  8
AM_0
100
AcDbLine
 10
1.158909437757529
 20
0.0845401192732425
 30
0.0
 11
13.15661058467185
 21
6.330148018723776
 31
0.0
  0
LINE
  5
35E12
330
1F
100
AcDbEntity
  8
AM_0
100
AcDbLine
 10
13.15661058467185
 20
6.330148018723776
 30
0.0
 11
13.82430842000758
 21
6.847303792461389
 31
0.0
  0
LINE
  5
35E13
330
1F
100
AcDbEntity
  8
AM_0
100
AcDbLine
 10
6.087205533095585
 20
13.37507025322202
 30
0.0
 11
0.0787773515437493
 21
1.160931483871082
 31
0.0
  0
LINE
  5
35E14
330
1F
100
AcDbEntity
  8
AM_0
100
AcDbLine
 10
18.08490668000968
 20
19.62067815267278
 30
0.0
 11
19.13589308912788
 21
20.4347045892298
 31
0.0
  0
LINE
  5
35E15
330
1F
100
AcDbEntity
  8
AM_0
100
AcDbLine
 10
18.08490668000991
 20
19.62067815267278
 30
0.0
 11
13.97141877279114
 21
17.47933188533148
 31
0.0
  0
LINE
  5
35E16
330
1F
100
AcDbEntity
  8
AM_0
100
AcDbLine
 10
7.106011478434539
 20
13.90542705927146
 30
0.0
 11
6.087205533095585
 21
13.37507025322202
 31
0.0
  0
LINE
  5
35E17
330
1F
100
AcDbEntity
  8
AM_0
100
AcDbLine
 10
6.087205533095585
 20
13.37507025322202
 30
0.0
 11
6.907871075762614
 21
14.01070496886291
 31
0.0
  0
LINE
  5
35E18
330
1F
100
AcDbEntity
  8
AM_0
100
AcDbLine
 10
19.13589308912788
 20
20.43470458922957
 30
0.0
 11
15.02240518190934
 21
18.29335832188849
 31
0.0
  0
ELLIPSE
  5
35E19
330
1F
100
AcDbEntity
  8
AM_0
100
AcDbEllipse
 10
18.46356001087679
 20
18.91700338696182
 30
0.0
 11
0.4898738256451633
 21
-0.6324742168245064
 31
0.0
210
0.0
220
0.0
230
0.9999999999999998
 40
0.960210179833029
 41
2.05886737801348
 42
2.969520238277106
  0
ELLIPSE
  5
35E1A
330
1F
100
AcDbEntity
  8
AM_0
100
AcDbEllipse
 10
19.51454641999499
 20
19.73102982351884
 30
0.0
 11
0.4898738256451633
 21
-0.6324742168245064
 31
0.0
210
0.0
220
0.0
230
0.9999999999999998
 40
0.960210179833029
 41
1.721198937421027
 42
2.969520238277434
  0
ELLIPSE
  5
35E1B
330
1F
100
AcDbEntity
  8
AM_0
100
AcDbEllipse
 10
0.7802561068906471
 20
0.7882148849839723
 30
0.0
 11
0.4898738256451633
 21
-0.6324742168245064
 31
0.0
210
0.0
220
0.0
230
0.9999999999999998
 40
0.960210179833029
 41
3.580385476475303
 42
6.1111128918669
  0
LINE
  5
35E1C
330
1F
100
AcDbEntity
  8
AM_0
100
AcDbLine
 10
20.10320455863644
 20
21.16294811489343
 30
0.0
 11
15.90713286748951
 21
18.9786114507292
 31
0.0
  0
LINE
  5
35E1D
330
1F
100
AcDbEntity
  8
AM_0
100
AcDbLine
 10
19.20242930988115
 20
20.46526557635502
 30
0.0
 11
20.10320455863621
 21
21.16294811489343
 31
0.0
  0
ELLIPSE
  5
35E1E
330
1F
100
AcDbEntity
  8
AM_0
100
AcDbEllipse
 10
20.48185788950332
 20
20.45927334918224
 30
0.0
 11
0.4898738256451633
 21
-0.6324742168245064
 31
0.0
210
0.0
220
0.0
230
0.9999999999999998
 40
0.960210179833029
 41
2.936775012523067
 42
2.969520238277022
  0
LINE
  5
35E1F
330
1F
100
AcDbEntity
  8
AM_0
100
AcDbLine
 10
22.03165142990974
 20
36.81459665622219
 30
0.0
 11
24.39697828589419
 21
40.91146294729469
 31
0.0
  0
LINE
  5
35E20
330
1F
100
AcDbEntity
  8
AM_0
100
AcDbLine
 10
18.48094727439275
 20
38.86459665622283
 30
0.0
 11
22.05416095416604
 21
45.05358429589023
 31
0.0
  0
LINE
  5
35E21
330
1F
100
AcDbEntity
  8
AM_0
100
AcDbLine
 10
21.49804204522866
 20
36.49914154470798
 30
0.0
 11
21.98507593324575
 21
36.77051050631462
 31
0.0
  0
LINE
  5
35E22
330
1F
100
AcDbEntity
  8
AM_0
100
AcDbLine
 10
18.47455982640895
 20
38.24474981763387
 30
0.0
 11
18.46605529695034
 21
38.8022180179637
 31
0.0
  0
ELLIPSE
  5
35E23
330
1F
100
AcDbEntity
  8
AM_0
100
AcDbEllipse
 10
20.01270683595499
 20
37.41768204182654
 30
0.0
 11
-1.525352077758283
 21
0.8806624327026854
 31
0.0
210
0.0
220
0.0
230
0.9999999999999999
 40
0.2249510543438914
 41
0.1336896944174148
 42
3.007902959172257
  0
ELLIPSE
  5
35E24
330
1F
100
AcDbEntity
  8
AM_0
100
AcDbEllipse
 10
20.25629935215147
 20
37.83959665622251
 30
0.0
 11
-1.775352077758494
 21
1.025000000000212
 31
0.0
210
0.0
220
0.0
230
1.0
 40
0.2249510543438913
 41
0.0000000000001089
 42
3.141592653589755
  0
LINE
  5
35E25
330
1F
100
AcDbEntity
  8
AM_0
100
AcDbLine
 10
31.25803838237903
 20
-77.46104996775284
 30
0.0
 11
31.87854501916536
 21
-76.75136752189974
 31
0.0
  0
LINE
  5
35E26
330
1F
100
AcDbEntity
  8
AM_0
100
AcDbLine
 10
30.79971361061257
 20
-77.61601658608765
 30
0.0
 11
29.96813008648724
 21
-77.53200148374708
 31
0.0
  0
LINE
  5
35E27
330
1F
100
AcDbEntity
  8
AM_0
100
AcDbLine
 10
25.94258536626671
 20
-78.01490248074833
 30
0.0
 11
23.79228657644421
 21
-78.70871403383103
 31
0.0
  0
LINE
  5
35E28
330
1F
100
AcDbEntity
  8
AM_0
100
AcDbLine
 10
27.48086452066809
 20
-78.17031522863954
 30
0.0
 11
25.94258536626671
 21
-78.01490248074833
 31
0.0
  0
LINE
  5
35E29
330
1F
100
AcDbEntity
  8
AM_0
100
AcDbLine
 10
29.73892080404517
 20
-76.53520072423135
 30
0.0
 11
31.87854501916604
 21
-76.75136752189974
 31
0.0
  0
LINE
  5
35E2A
330
1F
100
AcDbEntity
  8
AM_0
100
AcDbLine
 10
16.63578776205577
 20
-80.73025120646253
 30
0.0
 11
13.66014488593351
 21
-82.49181341891244
 31
0.0
  0
LINE
  5
35E2B
330
1F
100
AcDbEntity
  8
AM_0
100
AcDbLine
 10
13.66014488593351
 20
-82.49181341891244
 30
0.0
 11
13.91676891204111
 21
-82.51774021182155
 31
0.0
  0
LINE
  5
35E2C
330
1F
100
AcDbEntity
  8
AM_0
100
AcDbLine
 10
16.03640536740568
 20
-91.73575793821851
 30
0.0
 11
15.77978134129808
 21
-91.70983114530964
 31
0.0
  0
LINE
  5
35E2D
330
1F
100
AcDbEntity
  8
AM_0
100
AcDbLine
 10
15.77978134129921
 20
-91.70983114530964
 30
0.0
 11
13.66014488593464
 21
-82.49181341891267
 31
0.0
  0
LINE
  5
35E2E
330
1F
100
AcDbEntity
  8
AM_0
100
AcDbLine
 10
17.03290204625409
 20
-81.96132707012475
 30
0.0
 11
32.60249061222589
 21
-78.38117909265293
 31
0.0
  0
ELLIPSE
  5
35E2F
330
1F
100
AcDbEntity
  8
AM_0
100
AcDbEllipse
 10
-35.21968627217825
 20
-87.03062362343803
 30
0.0
 11
136.9314690455751
 21
30.56452779780397
 31
0.0
210
0.0
220
0.0
230
1.0
 40
0.0378130951697528
 41
5.242381180930241
 42
5.250432054938623
  0
SPLINE
  5
35E30
330
1F
100
AcDbEntity
  8
AM_0
100
AcDbSpline
210
0.0
220
0.0
230
1.0
 70
    12
 71
     2
 72
     6
 73
     3
 74
     0
 42
0.0000000001
 43
0.0000000001
 40
16.00883580882204
 40
16.00883580882204
 40
16.00883580882204
 40
50.80887877256589
 40
50.80887877256589
 40
50.80887877256589
 10
32.60249061222589
 20
-78.38117909265316
 30
0.0
 41
1.083018856562722
 10
33.51327022426358
 20
-94.07987635173572
 30
0.0
 41
1.131745974689273
 10
30.84678751731985
 20
-112.3535381476389
 30
0.0000000000001137
 41
1.000020684865045
  0
LINE
  5
35E31
330
1F
100
AcDbEntity
  8
AM_0
100
AcDbLine
 10
32.60702941983141
 20
-78.38585113798467
 30
0.0
 11
35.00710545118909
 21
-76.0542206483338
 31
0.0
  0
LINE
  5
35E32
330
1F
100
AcDbEntity
  8
AM_0
100
AcDbLine
 10
30.84678751731917
 20
-112.3535381476388
 30
0.0
 11
26.9416369502178
 21
-112.3535381476388
 31
0.0
  0
LINE
  5
35E33
330
1F
100
AcDbEntity
  8
AM_0
100
AcDbLine
 10
26.9416369502178
 20
-112.3535381476388
 30
0.0
 11
18.21366320859397
 21
-85.30332358890564
 31
0.0
  0
ELLIPSE
  5
35E34
330
1F
100
AcDbEntity
  8
AM_0
100
AcDbEllipse
 10
-1.531124229990155
 20
-87.03062362343803
 30
0.0
 11
-19.3395008903832
 21
45.64873454193454
 31
0.0
210
0.0
220
0.0
230
0.9999999999999999
 40
0.4579646239776966
 41
3.791021481066317
 42
3.944862296168362
  0
LINE
  5
35E35
330
1F
100
AcDbEntity
  8
AM_0
100
AcDbLine
 10
13.91676891204111
 20
-82.51774021182155
 30
0.0
 11
16.03640536740568
 21
-91.73575793821829
 31
0.0
  0
ELLIPSE
  5
35E36
330
1F
100
AcDbEntity
  8
AM_0
100
AcDbEllipse
 10
17.37479646555948
 20
-93.60644699182558
 30
0.0
 11
3.931200553443423
 21
-17.09626964376347
 31
0.0
210
0.0
220
0.0
230
1.0
 40
0.1710139572598793
 41
2.038191765639127
 42
2.280106417768836
  0
LINE
  5
35E37
330
1F
100
AcDbEntity
  8
AM_0
100
AcDbLine
 10
25.73913997570844
 20
-118.030623623438
 30
0.0
 11
18.2136632085942
 21
-85.30332358890564
 31
0.0
  0
LINE
  5
35E38
330
1F
100
AcDbEntity
  8
AM_0
100
AcDbLine
 10
21.60404952107592
 20
-118.030623623438
 30
0.0
 11
25.73913997570844
 21
-118.030623623438
 31
0.0
  0
LINE
  5
35E39
330
1F
100
AcDbEntity
  8
AM_0
100
AcDbLine
 10
25.73913997570844
 20
-118.030623623438
 30
0.0
 11
26.51364153620852
 21
-118.030623623438
 31
0.0
  0
LINE
  5
35E3A
330
1F
100
AcDbEntity
  8
AM_0
100
AcDbLine
 10
26.51364153620852
 20
-118.030623623438
 30
0.0
 11
30.84678751731917
 21
-118.030623623438
 31
0.0
  0
LINE
  5
35E3B
330
1F
100
AcDbEntity
  8
AM_0
100
AcDbLine
 10
30.84678751731917
 20
-118.030623623438
 30
0.0
 11
35.0
 21
-118.0306236234381
 31
0.0
  0
LINE
  5
35E3C
330
1F
100
AcDbEntity
  8
AM_0
100
AcDbLine
 10
29.42152593590595
 20
-75.15489255233979
 30
0.0
 11
35.94418870453706
 21
-75.81387888881915
 31
0.0
  0
LINE
  5
35E3D
330
1F
100
AcDbEntity
  8
AM_0
100
AcDbLine
 10
18.54117874197459
 20
-58.26854142422417
 30
0.0
 11
17.88133838214458
 21
-67.85769573008338
 31
0.0
  0
ELLIPSE
  5
35E3E
330
1F
100
AcDbEntity
  8
AM_0
100
AcDbEllipse
 10
16.75046737674757
 20
-87.03062362343803
 30
0.0
 11
11.96276886322192
 21
30.42256590235459
 31
0.0
210
0.0
220
0.0
230
1.0
 40
0.4978327674638974
 41
5.275932975512515
 42
6.858798531853918
  0
LINE
  5
35E3F
330
1F
100
AcDbEntity
  8
AM_0
100
AcDbLine
 10
22.68574795458312
 20
-67.31348170951651
 30
0.0
 11
23.1118712712846
 21
-66.64302083469693
 31
0.0
  0
ELLIPSE
  5
35E40
330
1F
100
AcDbEntity
  8
AM_0
100
AcDbEllipse
 10
23.05373384983318
 20
-69.40154953577212
 30
0.0
 11
-0.286051809161102
 21
-2.771812773576693
 31
0.0
210
0.0
220
0.0
230
1.0
 40
0.500532780977254
 41
1.258768041024479
 42
3.303871550333818
  0
LINE
  5
35E41
330
1F
100
AcDbEntity
  8
AM_0
100
AcDbLine
 10
9.409771988208149
 20
-118.030623623438
 30
0.0
 11
16.63601157990956
 21
-118.030623623438
 31
0.0
  0
ELLIPSE
  5
35E42
330
1F
100
AcDbEntity
  8
AM_0
100
AcDbEllipse
 10
23.63040294429243
 20
-87.03062362343803
 30
0.0
 11
8.642675540174228
 21
-46.28378877217774
 31
0.0
210
0.0
220
0.0
230
1.0
 40
0.5182352662575096
 41
5.202627920178802
 42
5.345645795529372
  0
LINE
  5
35E43
330
1F
100
AcDbEntity
  8
AM_0
100
AcDbLine
 10
15.58893287593014
 20
-91.87167937572622
 30
0.0
 11
15.35174347810903
 21
-91.94821048166205
 31
0.0
  0
LINE
  5
35E44
330
1F
100
AcDbEntity
  8
AM_0
100
AcDbLine
 10
15.58893287593014
 20
-91.87167937572644
 30
0.0
 11
21.60404952107569
 21
-118.030623623438
 31
0.0
  0
LINE
  5
35E45
330
1F
100
AcDbEntity
  8
AM_0
100
AcDbLine
 10
16.63601157990934
 20
-118.030623623438
 30
0.0
 11
21.60404952107569
 21
-118.030623623438
 31
0.0
  0
ELLIPSE
  5
35E46
330
1F
100
AcDbEntity
  8
AM_0
100
AcDbEllipse
 10
84.17700010271756
 20
-87.03062362343809
 30
0.0
 11
86.52059803684175
 21
3.54202923186753
 31
0.0
210
0.0
220
0.0
230
1.0
 40
0.5358828057298276
 41
3.591185301298418
 42
3.795073782686035
  0
LINE
  5
35E47
330
1F
100
AcDbEntity
  8
AM_0
100
AcDbLine
 10
3.71412438544894
 20
-95.73577135467167
 30
0.0
 11
7.079371937325732
 21
-110.3707864811599
 31
0.0
  0
SPLINE
  5
35E48
330
1F
100
AcDbEntity
  8
AM_0
100
AcDbSpline
210
0.0
220
0.0
230
1.0
 70
     8
 71
     3
 72
    31
 73
    27
 74
     0
 42
0.0000000001
 43
0.0000000001
 40
8.783661417038895
 40
8.783661417038895
 40
8.783661417038895
 40
8.783661417038895
 40
9.030487689830862
 40
9.030487689830862
 40
9.176993459670776
 40
9.176993459670776
 40
9.323499229510688
 40
9.323499229510688
 40
9.323499229510688
 40
9.426503985558574
 40
9.426503985558574
 40
9.52950874160646
 40
9.52950874160646
 40
9.71045923537122
 40
9.71045923537122
 40
9.891409729135978
 40
9.891409729135978
 40
10.32744111231373
 40
10.32744111231373
 40
10.76347249549148
 40
10.76347249549148
 40
11.63553526184697
 40
11.63553526184697
 40
12.48540174910346
 40
12.48540174910346
 40
12.52098903374292
 40
12.52098903374292
 40
12.52098903374292
 40
12.52098903374292
 10
7.079371937325732
 20
-110.3707864811599
 30
0.0
 10
7.022117638702412
 20
-110.3122115362653
 30
0.0
 10
6.961029454782647
 20
-110.2584439666512
 30
0.0
 10
6.857603196075615
 20
-110.1885943478521
 30
0.0
 10
6.812841065408293
 20
-110.1629571038588
 30
0.0
 10
6.717650783184581
 20
-110.1256694811652
 30
0.0
 10
6.667105534914754
 20
-110.1142472818056
 30
0.0
 10
6.618270278301452
 20
-110.1142472818056
 30
0.0
 10
6.583935359618863
 20
-110.1142472818056
 30
0.0
 10
6.547305209694969
 20
-110.1201998409724
 30
0.0
 10
6.479937909544788
 20
-110.144974391199
 30
0.0
 10
6.449130808725386
 20
-110.1636513036667
 30
0.0
 10
6.379497363741848
 20
-110.219249339048
 30
0.0
 10
6.342730963701342
 20
-110.265646908636
 30
0.0
 10
6.283007566523338
 20
-110.3657986914175
 30
0.0
 10
6.259999012863545
 20
-110.4195280831696
 30
0.0
 10
6.200126486531417
 20
-110.5894572256709
 30
0.0
 10
6.177167845426084
 20
-110.716693923634
 30
0.0
 10
6.151210859293542
 20
-110.9778166133781
 30
0.0
 10
6.148998967840953
 20
-111.1117599640606
 30
0.0
 10
6.165969831037273
 20
-111.513914425941
 30
0.0
 10
6.209341726300863
 20
-111.7817484291286
 30
0.0
 10
6.326918632050365
 20
-112.2555187128296
 30
0.0
 10
6.411214439227933
 20
-112.5064403906708
 30
0.0
 10
6.529213368318096
 20
-112.7542894679189
 30
0.0
 10
6.534006126513759
 20
-112.7642279293459
 30
0.0
 10
6.538849315502148
 20
-112.7741414592847
 30
0.0
  0
LINE
  5
35E49
330
1F
100
AcDbEntity
  8
AM_0
100
AcDbLine
 10
35.00000000000023
 20
-118.0306236234383
 30
0.0
 11
39.00000000000023
 21
-118.0306236234383
 31
0.0
  0
LINE
  5
35E4A
330
1F
100
AcDbEntity
  8
AM_0
100
AcDbLine
 10
25.58081003000166
 20
-56.03062362343803
 30
0.0
 11
39.0
 21
-56.03062362343809
 31
0.0
  0
LINE
  5
35E4B
330
1F
100
AcDbEntity
  8
AM_0
100
AcDbLine
 10
6.252222015693178
 20
-111.9519659924615
 30
0.0
 11
2.589555578959789
 21
-96.02351559511203
 31
0.0
  0
ELLIPSE
  5
35E4C
330
1F
100
AcDbEntity
  8
AM_0
100
AcDbEllipse
 10
21.37676685986435
 20
-79.1872930756922
 30
0.0
 11
2.436417271801625
 21
0.5602418028554451
 31
0.0
210
0.0
220
0.0
230
1.0
 40
0.1710139572598801
 41
3.635404631763879
 42
6.107079637233338
  0
ELLIPSE
  5
35E4D
330
1F
100
AcDbEntity
  8
AM_0
100
AcDbEllipse
 10
29.67970476991309
 20
-77.46084137525077
 30
0.0
 11
2.512882738128989
 21
0.5778246492780316
 31
0.0
210
0.0
220
0.0
230
1.0
 40
0.1710139572598801
 41
3.608988092435503
 42
6.750580746025297
  0
ELLIPSE
  5
35E4E
330
1F
100
AcDbEntity
  8
AM_0
100
AcDbEllipse
 10
18.41452588170955
 20
-80.69456617657943
 30
0.0
 11
1.266936981336845
 21
0.2913257374848315
 31
0.0
210
0.0
220
0.0
230
1.0
 40
0.1710139572598801
 41
2.210264180953267
 42
8.493449488132853
  0
LINE
  5
35E4F
330
1F
100
AcDbEntity
  8
AM_0
100
AcDbLine
 10
35.0
 20
-118.0306236234383
 30
0.0
 11
35.0
 21
-76.04690661501405
 31
0.0
  0
LINE
  5
35E50
330
1F
100
AcDbEntity
  8
AM_0
100
AcDbLine
 10
30.84678751731917
 20
-118.030623623438
 30
0.0
 11
30.84678751731917
 21
-112.353538147639
 31
0.0
  0
ELLIPSE
  5
35E51
330
1F
100
AcDbEntity
  8
AM_0
100
AcDbEllipse
 10
17.00888286668146
 20
-92.0151372970663
 30
0.0
 11
2.923700726161942
 21
0.6722901634265697
 31
0.0
210
0.0
220
0.0
230
1.0
 40
0.17101395725987
 41
1.8702994273213
 42
2.038191765639473
  0
ELLIPSE
  5
35E52
330
1F
100
AcDbEntity
  8
AM_0
100
AcDbEllipse
 10
14.88924641131689
 20
-82.79711957066911
 30
0.0
 11
2.923700726161951
 21
0.6722901634265341
 31
0.0
210
0.0
220
0.0
230
0.9999999999999998
 40
0.1710139572598801
 41
0.7093100909752058
 42
1.870299427322544
  0
ELLIPSE
  5
35E53
330
1F
100
AcDbEntity
  8
AM_0
100
AcDbEllipse
 10
23.91018709509535
 20
-69.00609391273565
 30
0.0
 11
-0.8593729291971457
 21
1.861176554914915
 31
0.0
210
0.0
220
0.0
230
0.9999999999999998
 40
0.8438292287911008
 41
5.75044960809102
 42
6.283185307179521
  0
LINE
  5
35E54
330
1F
100
AcDbEntity
  8
AM_0
100
AcDbLine
 10
15.20138589046701
 20
-76.71740897800146
 30
0.0
 11
16.15945916479177
 21
-80.88394253782985
 31
0.0
  0
LINE
  5
35E55
330
1F
100
AcDbEntity
  8
AM_0
100
AcDbLine
 10
11.86579239394268
 20
-78.9869552995292
 30
0.0
 11
12.65190925864681
 21
-82.40567324784706
 31
0.0
  0
LINE
  5
35E56
330
1F
100
AcDbEntity
  8
AM_0
100
AcDbLine
 10
8.660772084844894
 20
-83.13341999823842
 30
0.0
 11
8.774366438777861
 21
-83.62742677261826
 31
0.0
  0
LINE
  5
35E57
330
1F
100
AcDbEntity
  8
AM_0
100
AcDbLine
 10
7.215194958091615
 20
-83.32193676503516
 30
0.0
 11
7.328789312024583
 21
-83.815943539415
 31
0.0
  0
LINE
  5
35E58
330
1F
100
AcDbEntity
  8
AM_0
100
AcDbLine
 10
16.15945916479154
 20
-80.88394253782985
 30
0.0
 11
26.0082354721942
 21
-77.70615402855583
 31
0.0
  0
LINE
  5
35E59
330
1F
100
AcDbEntity
  8
AM_0
100
AcDbLine
 10
6.573629573856806
 20
-83.73964955228689
 30
0.0
 11
7.328789312024355
 21
-83.815943539415
 31
0.0
  0
LINE
  5
35E5A
330
1F
100
AcDbEntity
  8
AM_0
100
AcDbLine
 10
8.774366438777633
 20
-83.62742677261826
 30
0.0
 11
12.34037668142673
 21
-82.75924834718535
 31
0.0
  0
ARC
  5
35E5B
330
1F
100
AcDbEntity
  8
AM_0
100
AcDbCircle
 10
14.83860851352551
 20
-84.26411049975923
 30
0.0
 40
2.869746095061188
100
AcDbArc
 50
108.5852542853938
 51
139.6393747731413
  0
LINE
  5
35E5C
330
1F
100
AcDbEntity
  8
AM_0
100
AcDbLine
 10
12.33957101908823
 20
-82.75853988832978
 30
0.0
 11
12.65075595634517
 21
-82.40465909177829
 31
0.0
  0
LINE
  5
35E5D
330
1F
100
AcDbEntity
  8
AM_0
100
AcDbLine
 10
27.90690985066112
 20
-72.24570840904789
 30
0.0
 11
29.23137495318156
 21
-78.00563141949101
 31
0.0
  0
LINE
  5
35E5E
330
1F
100
AcDbEntity
  8
AM_0
100
AcDbLine
 10
6.460035219923839
 20
-83.24564277790705
 30
0.0
 11
7.215194958091388
 21
-83.32193676503516
 31
0.0
  0
LINE
  5
35E5F
330
1F
100
AcDbEntity
  8
AM_0
100
AcDbLine
 10
6.517880253727526
 20
-82.29688014724729
 30
0.0
 11
7.273039991895075
 21
-82.3731741343754
 31
0.0
  0
LINE
  5
35E60
330
1F
100
AcDbEntity
  8
AM_0
100
AcDbLine
 10
6.460035219923839
 20
-83.24564277790705
 30
0.0
 11
6.573629573856806
 21
-83.73964955228666
 31
0.0
  0
ELLIPSE
  5
35E61
330
1F
100
AcDbEntity
  8
AM_0
100
AcDbEllipse
 10
20.63037583992809
 20
-87.57399465858543
 30
0.0
 11
-13.86508447592078
 21
-5.322726848859094
 31
0.0
210
0.0
220
0.0
230
1.0
 40
0.9274944206147169
 41
5.104090543942776
 42
5.507775737165068
  0
ELLIPSE
  5
35E62
330
1F
100
AcDbEntity
  8
AM_0
100
AcDbEllipse
 10
20.79679442577844
 20
-87.79820889368648
 30
0.0
 11
-12.88691192256464
 21
-4.017983936058135
 31
0.0
210
0.0
220
0.0
230
1.0
 40
0.911923592123527
 41
5.165021012805351
 42
5.568706206027731
  0
ARC
  5
35E63
330
1F
100
AcDbEntity
  8
AM_0
100
AcDbCircle
 10
26.91473645559313
 20
-95.52544658865304
 30
0.0
 40
24.03204660995445
100
AcDbArc
 50
122.8900135787045
 51
132.1922377565432
  0
LINE
  5
35E64
330
1F
100
AcDbEntity
  8
AM_0
100
AcDbLine
 10
11.85200708479988
 20
-78.96684131742609
 30
0.0
 11
15.17989023281257
 21
-76.68604491724705
 31
0.0
  0
ELLIPSE
  5
35E65
330
1F
100
AcDbEntity
  8
AM_0
100
AcDbEllipse
 10
15.95839653821622
 20
-87.10198335992573
 30
0.0
 11
-0.3806343268502189
 21
14.05160770016312
 31
0.0
210
0.0
220
0.0
230
1.0
 40
0.7096489127388126
 41
0.7989545091161003
 42
1.202639702338379
  0
ARC
  5
35E66
330
1F
100
AcDbEntity
  8
AM_0
100
AcDbCircle
 10
15.40890084574448
 20
-81.99480962204325
 30
0.0
 40
8.205697387010513
100
AcDbArc
 50
122.2951039370561
 51
146.7457627845742
  0
LINE
  5
35E67
330
1F
100
AcDbEntity
  8
AM_0
100
AcDbLine
 10
17.66436787394287
 20
-75.55054864335239
 30
0.0
 11
27.90690985066112
 21
-72.24570840904789
 31
0.0
  0
LINE
  5
35E68
330
1F
100
AcDbEntity
  8
AM_0
100
AcDbLine
 10
23.74841746351217
 20
-70.5362615355898
 30
0.0
 11
24.02584167763257
 21
-70.44674833594854
 31
0.0
  0
LINE
  5
35E69
330
1F
100
AcDbEntity
  8
AM_0
100
AcDbLine
 10
24.02584167763257
 20
-70.44674833594854
 30
0.0
 11
26.86574165913476
 21
-70.73366417862826
 31
0.0
  0
LINE
  5
35E6A
330
1F
100
AcDbEntity
  8
AM_0
100
AcDbLine
 10
26.86574165913498
 20
-70.73366417862826
 30
0.0
 11
24.5241157109183
 21
-71.48920900968187
 31
0.0
  0
LINE
  5
35E6B
330
1F
100
AcDbEntity
  8
AM_0
100
AcDbLine
 10
17.95077244740264
 20
-73.61015216427586
 30
0.0
 11
16.62319968241673
 21
-74.03850441293298
 31
0.0
  0
LINE
  5
35E6C
330
1F
100
AcDbEntity
  8
AM_0
100
AcDbLine
 10
13.78329970091454
 20
-73.75158857025326
 30
0.0
 11
16.62319968241673
 21
-74.03850441293298
 31
0.0
  0
LINE
  5
35E6D
330
1F
100
AcDbEntity
  8
AM_0
100
AcDbLine
 10
13.78329970091454
 20
-73.75158857025326
 30
0.0
 11
15.11087246589659
 21
-73.32323632159751
 31
0.0
  0
LINE
  5
35E6E
330
1F
100
AcDbEntity
  8
AM_0
100
AcDbLine
 10
23.85062322475073
 20
-72.44645192167218
 30
0.0
 11
22.7731659611859
 21
-72.79410235097657
 31
0.0
  0
LINE
  5
35E6F
330
1F
100
AcDbEntity
  8
AM_0
100
AcDbLine
 10
20.98088589589133
 20
-73.37239622415655
 30
0.0
 11
19.90342863232968
 21
-73.7200466534598
 31
0.0
  0
ARC
  5
35E70
330
1F
100
AcDbEntity
  8
AM_0
100
AcDbCircle
 10
18.58977674400671
 20
-79.65882485587736
 30
0.0
 40
6.082332432645075
100
AcDbArc
 50
77.52707099459634
 51
96.03057086617707
  0
SPLINE
  5
35E71
330
1F
100
AcDbEntity
  8
AM_0
100
AcDbSpline
210
0.0
220
0.0
230
1.0
 70
     8
 71
     3
 72
    12
 73
     8
 74
     0
 42
0.0000000001
 43
0.0000000001
 40
8.99452670302588
 40
8.99452670302588
 40
8.99452670302588
 40
8.99452670302588
 40
9.498828259779057
 40
9.498828259779057
 40
10.00312981653223
 40
10.00312981653223
 40
10.38868853346645
 40
10.38868853346645
 40
10.38868853346645
 40
10.38868853346645
 10
15.11087246589887
 20
-73.32323632159751
 30
0.0
 10
15.14713603363884
 20
-73.28640912753644
 30
0.0
 10
15.19522512134563
 20
-73.26331887237802
 30
0.0
 10
15.31185388125755
 20
-73.23632717660712
 30
0.0
 10
15.38042406618138
 20
-73.23252730631293
 30
0.0
 10
15.51757163307343
 20
-73.23864533954748
 30
0.0
 10
15.58234209587499
 20
-73.24551958507391
 30
0.0
 10
15.65198316892747
 20
-73.25599368856319
 30
0.0
  0
ARC
  5
35E72
330
1F
100
AcDbEntity
  8
AM_0
100
AcDbCircle
 10
36.13376346918699
 20
-80.37301842366242
 30
0.0
 40
14.61868635599497
100
AcDbArc
 50
142.576450460563
 51
147.1650034618605
  0
LINE
  5
35E73
330
1F
100
AcDbEntity
  8
AM_0
100
AcDbLine
 10
26.08500007261387
 20
-77.68943514514831
 30
0.0
 11
26.25096086870349
 21
-77.70620220806313
 31
0.0
  0
ENDSEC
  0
SECTION
  2
OBJECTS
  0
DICTIONARY
  5
C
330
0
100
AcDbDictionary
281
     1
  3
ACAD_COLOR
350
232CA
  3
ACAD_GROUP
350
D
  3
ACAD_LAYOUT
350
1A
  3
ACAD_MATERIAL
350
232C9
  3
ACAD_MLINESTYLE
350
17
  3
ACAD_PLOTSETTINGS
350
19
  3
ACAD_PLOTSTYLENAME
350
E
  3
ACAD_TABLESTYLE
350
232CB
  3
AcAmCatalogState
350
23332
  3
ACDBHEADERROUNDTRIPXREC
350
36041
  3
AcDbVariableDictionary
350
30
  3
ACDMSYSVARMGR
350
232E5
  3
ACGREF_MASTER
350
232DD
  3
ACGREFACAD_MASTER
350
23305
  3
AcmDictionary
350
4D
  3
ACME_BOM_MANAGER_NAME
350
36
  3
ACME_COMMAND_HISTORY
350
2F
  3
ACME_SCOPE_NAME
350
2E
  3
ACMESTATEMGR
350
3B
  3
AcmeSysVarManager
350
32
  3
AcmSystemVariableManager
350
6A
  3
AD_APPL
350
23310
  3
ADSYSVARMGR
350
2330F
  3
AmdtNamedDwgMgr
350
23300
  3
AMG
350
3F
  3
AMGSNAPSETTINGS
350
73
  3
AMI_MASTER
350
23308
  3
AUTOCAD_ASSEMBLIES_PROJECT
350
23318
  3
Designer_Assemblies_SysVars
350
23313
  3
DWGPROPS
350
36044
  3
FILENAME
350
217A
  3
GREFAM_MODULE
350
23309
  3
ZWKSIZE
350
217C
  0
DICTIONARY
  5
233EB
330
2
100
AcDbDictionary
280
     1
281
     1
  3
ACAD_LAYERSTATES
360
233EC
  0
DICTIONARY
  5
165
330
1F
100
AcDbDictionary
280
     1
281
     1
  0
DICTIONARY
  5
232CA
102
{ACAD_REACTORS
330
C
102
}
330
C
100
AcDbDictionary
281
     1
  0
DICTIONARY
  5
D
102
{ACAD_REACTORS
330
C
102
}
330
C
100
AcDbDictionary
281
     1
  0
DICTIONARY
  5
1A
102
{ACAD_REACTORS
330
C
102
}
330
C
100
AcDbDictionary
281
     1
  3
Model
350
22
  3
ﾚｲｱｳﾄ1
350
1E
  3
ﾚｲｱｳﾄ2
350
26
  0
DICTIONARY
  5
232C9
102
{ACAD_REACTORS
330
C
102
}
330
C
100
AcDbDictionary
281
     1
  0
DICTIONARY
  5
17
102
{ACAD_REACTORS
330
C
102
}
330
C
100
AcDbDictionary
281
     1
  3
Standard
350
18
  0
DICTIONARY
  5
19
102
{ACAD_REACTORS
330
C
102
}
330
C
100
AcDbDictionary
281
     1
  0
ACDBDICTIONARYWDFLT
  5
E
102
{ACAD_REACTORS
330
C
102
}
330
C
100
AcDbDictionary
281
     1
  3
Normal
350
F
100
AcDbDictionaryWithDefault
340
F
  0
DICTIONARY
  5
232CB
102
{ACAD_REACTORS
330
C
102
}
330
C
100
AcDbDictionary
281
     1
  3
Standard
350
232CC
  0
ACAD_PROXY_OBJECT
  5
23332
102
{ACAD_REACTORS
330
C
102
}
330
C
100
AcDbProxyObject
 90
      499
 91
      572
 95
       25
 70
     0
 93
      560
310
3FFFFFFFE00A028140296AE2E2C3B9A1818182E32AE482B415AC15141BA41A441C5C1AFAE20A1A0A226991818182E2A16A922AC656F596240082D0052001140160008AFF9EFF
  0
DICTIONARY
  5
36041
102
{ACAD_REACTORS
330
C
102
}
330
C
100
AcDbDictionary
281
     1
  3
COLORDICT
350
36042
  3
MATERIALDICT
350
36043
  0
DICTIONARY
  5
30
102
{ACAD_REACTORS
330
C
102
}
330
C
100
AcDbDictionary
281
     1
  3
CTABLESTYLE
350
233A5
  3
HIDETEXT
350
36040
  3
INDEXCTL
350
3603F
  0
ACAD_PROXY_OBJECT
  5
232E5
102
{ACAD_REACTORS
330
C
102
}
330
C
100
AcDbProxyObject
 90
      499
 91
      507
 95
       25
 70
     0
 93
      240
310
4C51A47A0000000000000000000000000000000000000000000000000000
330
232E6
330
232E7
330
232E8
330
232E9
330
232EA
330
232EB
330
232EC
330
232ED
330
232EE
330
232EF
330
232F0
330
232F1
330
232F2
330
232F3
330
232F4
330
232F5
330
232F6
330
232F7
330
232F8
330
232F9
330
232FA
330
232FB
330
232FC
330
232FD
330
232FE
330
232FF
 94
        0
  0
ACAD_PROXY_OBJECT
  5
232DD
102
{ACAD_REACTORS
330
C
102
}
330
C
100
AcDbProxyObject
 90
      499
 91
      536
 95
       25
 70
     0
 93
       34
310
0400004280
  0
ACAD_PROXY_OBJECT
  5
23305
102
{ACAD_REACTORS
330
C
102
}
330
C
100
AcDbProxyObject
 90
      499
 91
      542
 95
       25
 70
     0
 93
      114
310
04000041C080000000000000000000
  0
DICTIONARY
  5
4D
102
{ACAD_REACTORS
330
C
102
}
330
C
100
AcDbDictionary
281
     1
  3
AcmBOMDATA
350
4E
  3
AcmStdDictionary
350
17E
  3
AMDTSECTSYM_ARROWCOLOR
350
23326
  0
ACAD_PROXY_OBJECT
  5
36
102
{ACAD_REACTORS
330
C
102
}
330
C
100
AcDbProxyObject
 90
      499
 91
      510
 95
       25
 70
     0
 93
       50
310
00010040400000
330
0
330
0
330
37
 94
        0
  0
ACAD_PROXY_OBJECT
  5
2F
102
{ACAD_REACTORS
330
C
102
}
330
C
100
AcDbProxyObject
 90
      499
 91
      505
 95
       25
 70
     0
 93
     5560
310
47805045A4F4F4D8050C475249505F535452455443488050653454C454354805055153415645404052D4D5347202D205050413A2020206465736B746F702E6172782046696C6556657273696F6E3A20392E322E302E3401411693D3D3601415454D05591501014B5354D1C80B481414104E88080819195CDADD1BDC0B985C9
310
E08119A5B1955995C9CDA5BDB8E880E4B8C8B8C0B8D0050E414D4454524553455444424D4F4440805084E202D20554E444F014213880B4815539113C0504554E444F80504554E444F805054552415345805054552415345805054552415345805054552415345404052D4D5347202D205050413A2020206465736B746F702E
310
6172782046696C6556657273696F6E3A20392E322E302E34014151549054D16014151549054D16014151549054D16014151549054D1501014B5354D1C80B481414104E88080819195CDADD1BDC0B985C9E08119A5B1955995C9CDA5BDB8E880E4B8C8B8C0B8D00505455241534580505455241534580505455241534580505
310
4552415345404052D4D5347202D205050413A2020206465736B746F702E6172782046696C6556657273696F6E3A20392E322E302E34014151549054D16014151549054D16014151549054D16014151549054D16014194D1531150D5101014B5354D1C80B481414104E88080819195CDADD1BDC0B985C9E08119A5B1955995C
310
9CDA5BDB8E880E4B8C8B8C0B8D005054552415345805054552415345805054552415345408052D4D5347202D205050413A2020206465736B746F702E6172782046696C6556657273696F6E3A20392E322E302E34014B5354D1C80B481414104E88080819195CDADD1BDC0B985C9E08119A5B1955995C9CDA5BDB8E880E4B8C
310
8B8C0B8D005055153415645404052D4D5347202D205050413A2020206465736B746F702E6172782046696C6556657273696F6E3A20392E322E302E34
  0
ACAD_PROXY_OBJECT
  5
2E
102
{ACAD_REACTORS
330
C
102
}
330
C
100
AcDbProxyObject
 90
      499
 91
      504
 95
       25
 70
     0
 93
      586
310
09000046408000000000000000001344E200000000000000000000000000000000000000000000000000000000000000000000000000000000000000000000000000000000AAA406AA80
360
33
360
34
360
35
360
37
360
6B
360
6C
360
232DE
360
232DF
360
232E0
360
232E1
360
232E2
360
232E3
360
232E6
360
232E7
360
232E8
360
232E9
360
232EA
360
232EB
360
232EC
360
232ED
360
232EE
360
232EF
360
232F0
360
232F1
360
232F2
360
232F3
360
232F4
360
232F5
360
232F6
360
232F7
360
232F8
360
232F9
360
232FA
360
232FB
360
232FC
360
232FD
360
232FE
360
232FF
360
2330B
360
2330C
360
2330D
360
2330E
360
23314
360
23315
360
23316
360
23317
360
2331C
360
2331D
360
2331E
360
2331F
360
23320
360
23321
 94
        0
  0
ACAD_PROXY_OBJECT
  5
3B
102
{ACAD_REACTORS
330
C
102
}
330
C
100
AcDbProxyObject
 90
      499
 91
      515
 95
       25
 70
     0
 93
       50
310
09000042641280
  0
ACAD_PROXY_OBJECT
  5
32
102
{ACAD_REACTORS
330
C
102
}
330
C
100
AcDbProxyObject
 90
      499
 91
      507
 95
       25
 70
     0
 93
       48
310
903412000000
330
33
330
34
330
35
 94
        0
  0
ACAD_PROXY_OBJECT
  5
6A
102
{ACAD_REACTORS
330
C
102
}
330
C
100
AcDbProxyObject
 90
      499
 91
      507
 95
       25
 70
     0
 93
       40
310
90240E0000
330
6B
330
6C
 94
        0
  0
ACAD_PROXY_OBJECT
  5
23310
102
{ACAD_REACTORS
330
C
102
}
330
C
100
AcDbProxyObject
 90
      499
 91
      552
 95
       25
 70
     0
 93
       42
310
000900004040
330
2330B
 94
        0
  0
ACAD_PROXY_OBJECT
  5
2330F
102
{ACAD_REACTORS
330
C
102
}
330
C
100
AcDbProxyObject
 90
      499
 91
      507
 95
       25
 70
     0
 93
        8
310
AA
  0
ACAD_PROXY_OBJECT
  5
23300
102
{ACAD_REACTORS
330
C
102
}
330
C
100
AcDbProxyObject
 90
      499
 91
      541
 95
       25
 70
     0
 93
       42
310
000100005E80
330
232DE
 94
        0
  0
DICTIONARY
  5
3F
102
{ACAD_REACTORS
330
C
102
}
330
C
100
AcDbDictionary
281
     1
  3
AcMgSettings
350
40
  3
AMGLAYCFG
350
42
  0
DICTIONARY
  5
73
102
{ACAD_REACTORS
330
C
102
}
330
C
100
AcDbDictionary
281
     1
  3
DIMENSION
350
62F
  3
FEA
350
630
  3
HATCH (1)
350
631
  3
HATCH (2)
350
632
  3
SYMBOLS
350
633
  0
ACAD_PROXY_OBJECT
  5
23308
102
{ACAD_REACTORS
330
C
102
}
330
C
100
AcDbProxyObject
 90
      499
 91
      545
 95
       25
 70
     0
 93
       34
310
0500004280
  0
ACAD_PROXY_OBJECT
  5
23318
102
{ACAD_REACTORS
330
C
102
}
330
C
100
AcDbProxyObject
 90
      499
 91
      555
 95
       25
 70
     0
 93
       98
310
0900004E400000000000000000
330
2331F
330
0
330
23320
330
0
330
0
330
0
330
0
330
0
 94
        0
  0
ACAD_PROXY_OBJECT
  5
23313
102
{ACAD_REACTORS
330
C
102
}
330
C
100
AcDbProxyObject
 90
      499
 91
      507
 95
       25
 70
     0
 93
       56
310
90441600000000
330
23314
330
23315
330
23316
330
23317
 94
        0
  0
XRECORD
  5
36044
102
{ACAD_REACTORS
330
C
102
}
330
C
100
AcDbXrecord
280
     1
  1
DWGPROPS COOKIE
  2

  3

  4

  6

  7

  8
Administrator
  9

300
AmdtFileType=84
301
=
302
=
303
=
304
=
305
=
306
=
307
=
308
=
309
=
 40
0.0
 41
2451943.235431667
 42
2455457.09626772
  1

 90
        1
  0
DICTIONARY
  5
217A
102
{ACAD_REACTORS
330
C
102
}
330
C
100
AcDbDictionary
281
     1
  3
FILENAME
350
217B
  0
ACAD_PROXY_OBJECT
  5
23309
102
{ACAD_REACTORS
330
C
102
}
330
C
100
AcDbProxyObject
 90
      499
 91
      546
 95
       25
 70
     0
 93
        8
310
05
  0
DICTIONARY
  5
217C
102
{ACAD_REACTORS
330
C
102
}
330
C
100
AcDbDictionary
281
     1
  3
ZWKSIZE
350
217D
  0
DICTIONARY
  5
233EC
102
{ACAD_REACTORS
330
233EB
102
}
330
233EB
100
AcDbDictionary
281
     1
  0
LAYOUT
  5
22
102
{ACAD_REACTORS
330
1A
102
}
330
1A
100
AcDbPlotSettings
  1

  2
SII LP-2150 (D-SCAN C2)
  4
User120
  6
AM_VIEW1
 40
3.174999952316284
 41
3.174999952316284
 42
3.17498779296875
 43
3.17498779296875
 44
296.9259948730469
 45
419.9889831542969
 46
0.0
 47
0.0
 48
0.0
 49
0.0
140
420.0
141
297.0
142
1.0
143
1.022107788374329
 70
 11952
 72
     1
 73
     1
 74
     4
  7
sei_cad.ctb
 75
     0
147
0.9783703943695685
148
0.0
149
0.0
100
AcDbLayout
  1
Model
 70
     1
 71
     0
 10
0.0
 20
0.0
 11
12.0
 21
9.0
 12
0.0
 22
0.0
 32
0.0
 14
0.0
 24
0.0
 34
0.0
 15
0.0
 25
0.0
 35
0.0
146
0.0
 13
0.0
 23
0.0
 33
0.0
 16
1.0
 26
0.0
 36
0.0
 17
0.0
 27
1.0
 37
0.0
 76
     0
330
1F
1001
ACAD_PSEXT
1000
SII LP-2150 (D-SCAN C2)
1000
SII LP-2150 (D-SCAN C2)
1000
133.153.16.130#3000
1000

1070
     0
  0
LAYOUT
  5
1E
102
{ACAD_REACTORS
330
1A
102
}
330
1A
100
AcDbPlotSettings
  1

  2
Canon LASER SHOT LBP-2030
  4

  6

 40
0.0
 41
0.0
 42
0.0
 43
0.0
 44
0.0
 45
0.0
 46
0.0
 47
0.0
 48
0.0
 49
0.0
140
0.0
141
0.0
142
1.0
143
1.0
 70
   688
 72
     0
 73
     0
 74
     5
  7
sei_cad.ctb
 75
    16
147
1.0
148
0.0
149
0.0
100
AcDbLayout
  1
ﾚｲｱｳﾄ1
 70
     1
 71
     1
 10
0.0
 20
0.0
 11
420.0
 21
297.0
 12
0.0
 22
0.0
 32
0.0
 14
1.000000000000000E+20
 24
1.000000000000000E+20
 34
1.000000000000000E+20
 15
-1.000000000000000E+20
 25
-1.000000000000000E+20
 35
-1.000000000000000E+20
146
0.0
 13
0.0
 23
0.0
 33
0.0
 16
1.0
 26
0.0
 36
0.0
 17
0.0
 27
1.0
 37
0.0
 76
     0
330
1B
  0
LAYOUT
  5
26
102
{ACAD_REACTORS
330
1A
102
}
330
1A
100
AcDbPlotSettings
  1

  2
Canon LASER SHOT LBP-2030
  4

  6

 40
0.0
 41
0.0
 42
0.0
 43
0.0
 44
0.0
 45
0.0
 46
0.0
 47
0.0
 48
0.0
 49
0.0
140
0.0
141
0.0
142
1.0
143
1.0
 70
   688
 72
     0
 73
     0
 74
     5
  7
sei_cad.ctb
 75
    16
147
1.0
148
0.0
149
0.0
100
AcDbLayout
  1
ﾚｲｱｳﾄ2
 70
     1
 71
     2
 10
0.0
 20
0.0
 11
12.0
 21
9.0
 12
0.0
 22
0.0
 32
0.0
 14
0.0
 24
0.0
 34
0.0
 15
0.0
 25
0.0
 35
0.0
146
0.0
 13
0.0
 23
0.0
 33
0.0
 16
1.0
 26
0.0
 36
0.0
 17
0.0
 27
1.0
 37
0.0
 76
     0
330
23
  0
MLINESTYLE
  5
18
102
{ACAD_REACTORS
330
17
102
}
330
17
100
AcDbMlineStyle
  2
STANDARD
 70
     0
  3

 62
   256
 51
90.0
 52
90.0
 71
     2
 49
0.5
 62
   256
  6
BYLAYER
 49
-0.5
 62
   256
  6
BYLAYER
  0
ACDBPLACEHOLDER
  5
F
102
{ACAD_REACTORS
330
E
102
}
330
E
  0
TABLESTYLE
  5
232CC
102
{ACAD_REACTORS
330
232CB
102
}
330
232CB
100
AcDbTableStyle
  3
Standard
 70
     0
 71
     8
 40
1.5
 41
1.5
280
     0
281
     0
  7
STANDARD
140
4.5
170
     2
 62
     0
 63
     7
283
     0
274
    -2
284
     1
 64
     0
275
    -2
285
     1
 65
     0
276
    -2
286
     1
 66
     0
277
    -2
287
     1
 67
     0
278
    -2
288
     1
 68
     0
279
    -2
289
     1
 69
     0
  7
STANDARD
140
6.0
170
     5
 62
     0
 63
     7
283
     0
274
    -2
284
     1
 64
     0
275
    -2
285
     1
 65
     0
276
    -2
286
     1
 66
     0
277
    -2
287
     1
 67
     0
278
    -2
288
     1
 68
     0
279
    -2
289
     1
 69
     0
  7
STANDARD
140
4.5
170
     5
 62
     0
 63
     7
283
     0
274
    -2
284
     1
 64
     0
275
    -2
285
     1
 65
     0
276
    -2
286
     1
 66
     0
277
    -2
287
     1
 67
     0
278
    -2
288
     1
 68
     0
279
    -2
289
     1
 69
     0
  0
XRECORD
  5
36042
102
{ACAD_REACTORS
330
36041
102
}
330
36041
100
AcDbXrecord
280
     1
340
232CA
  0
XRECORD
  5
36043
102
{ACAD_REACTORS
330
36041
102
}
330
36041
100
AcDbXrecord
280
     1
340
232C9
  0
DICTIONARYVAR
  5
233A5
102
{ACAD_REACTORS
330
30
102
}
330
30
100
DictionaryVariables
280
     0
  1
STANDARD
  0
DICTIONARYVAR
  5
36040
102
{ACAD_REACTORS
330
30
102
}
330
30
100
DictionaryVariables
280
     0
  1
0
  0
DICTIONARYVAR
  5
3603F
102
{ACAD_REACTORS
330
30
102
}
330
30
100
DictionaryVariables
280
     0
  1
1
  0
ACAD_PROXY_OBJECT
  5
4E
102
{ACAD_REACTORS
330
4D
102
}
330
4D
100
AcDbProxyObject
 90
      499
 91
      520
 95
       25
 70
     0
 93
      118
310
405010040CA904C415CD5B075DD248
350
4F
 94
        0
  0
DICTIONARY
  5
17E
102
{ACAD_REACTORS
330
4D
102
}
330
4D
100
AcDbDictionary
281
     1
  3
ISO
350
24424
  3
JIS
350
17F
  0
XRECORD
  5
23326
102
{ACAD_REACTORS
330
4D
102
}
330
4D
100
AcDbXrecord
280
     1
 90
-1023410169
  0
ACAD_PROXY_OBJECT
  5
33
330
2E
100
AcDbProxyObject
 90
      499
 91
      508
 95
       25
 70
     0
 93
      156
310
00010143D050D351505391D5531054925390D490
330
2E
 94
        0
  0
ACAD_PROXY_OBJECT
  5
34
330
2E
100
AcDbProxyObject
 90
      499
 91
      508
 95
       25
 70
     0
 93
      148
310
000101439050D351531253915054925390D490
330
2E
 94
        0
  0
ACAD_PROXY_OBJECT
  5
35
330
2E
100
AcDbProxyObject
 90
      499
 91
      509
 95
       25
 70
     0
 93
      156
310
000101439050D35154D6535093D314D256915080
330
2E
 94
        0
  0
ACAD_PROXY_OBJECT
  5
37
330
2E
100
AcDbProxyObject
 90
      499
 91
      511
 95
       25
 70
     0
 93
       88
310
000101411093D34C402B00
330
2E
330
0
330
0
 94
        0
  0
ACAD_PROXY_OBJECT
  5
6B
330
2E
100
AcDbProxyObject
 90
      499
 91
      509
 95
       25
 70
     0
 93
      108
310
00010142505351D153D35054D4E0
330
2E
 94
        0
  0
ACAD_PROXY_OBJECT
  5
6C
330
2E
100
AcDbProxyObject
 90
      499
 91
      522
 95
       25
 70
     0
 93
      140
310
00010142105350D55494D511005034A49530
330
2E
 94
        0
  0
ACAD_PROXY_OBJECT
  5
232DE
330
2E
100
AcDbProxyObject
 90
      499
 91
      537
 95
       25
 70
     0
 93
      358
310
0001014124FEA55D00507392E322E302E32014124FEA55D00507392E322E302E3240501000041505391D311658
330
2E
330
232DF
330
232E5
 94
        0
  0
ACAD_PROXY_OBJECT
  5
232DF
330
2E
100
AcDbProxyObject
 90
      499
 91
      538
 95
       25
 70
     0
 93
       56
310
000190240E0000
330
2E
330
232E0
330
232E2
 94
        0
  0
ACAD_PROXY_OBJECT
  5
232E0
330
2E
100
AcDbProxyObject
 90
      499
 91
      539
 95
       25
 70
     0
 93
       48
310
0001AA000000
330
2E
330
1E
330
232E1
330
0
 94
        0
  0
ACAD_PROXY_OBJECT
  5
232E1
330
2E
100
AcDbProxyObject
 90
      499
 91
      540
 95
       25
 70
     0
 93
       28
310
0001AAA0
330
2E
 94
        0
  0
ACAD_PROXY_OBJECT
  5
232E2
330
2E
100
AcDbProxyObject
 90
      499
 91
      539
 95
       25
 70
     0
 93
       48
310
0001AA000000
330
2E
330
26
330
232E3
330
0
 94
        0
  0
ACAD_PROXY_OBJECT
  5
232E3
330
2E
100
AcDbProxyObject
 90
      499
 91
      540
 95
       25
 70
     0
 93
       28
310
0001AAA0
330
2E
 94
        0
  0
ACAD_PROXY_OBJECT
  5
232E6
330
2E
100
AcDbProxyObject
 90
      499
 91
      509
 95
       25
 70
     0
 93
      108
310
000101421053521310D05310D010
330
2E
 94
        0
  0
ACAD_PROXY_OBJECT
  5
232E7
330
2E
100
AcDbProxyObject
 90
      499
 91
      509
 95
       25
 70
     0
 93
      124
310
00010142905354915554D15112535010
330
2E
 94
        0
  0
ACAD_PROXY_OBJECT
  5
232E8
330
2E
100
AcDbProxyObject
 90
      499
 91
      509
 95
       25
 70
     0
 93
      132
310
00010143105354D150D51253D391125360
330
2E
 94
        0
  0
ACAD_PROXY_OBJECT
  5
232E9
330
2E
100
AcDbProxyObject
 90
      499
 91
      509
 95
       25
 70
     0
 93
      124
310
00010142905355941093D49111549010
330
2E
 94
        0
  0
ACAD_PROXY_OBJECT
  5
232EA
330
2E
100
AcDbProxyObject
 90
      499
 91
      509
 95
       25
 70
     0
 93
      116
310
0001014290535115D1D0D3D313D4A0
330
2E
 94
        0
  0
ACAD_PROXY_OBJECT
  5
232EB
330
2E
100
AcDbProxyObject
 90
      499
 91
      509
 95
       25
 70
     0
 93
      148
310
00010143505355925155D49151949154D21010
330
2E
 94
        0
  0
ACAD_PROXY_OBJECT
  5
232EC
330
2E
100
AcDbProxyObject
 90
      499
 91
      509
 95
       25
 70
     0
 93
      172
310
00010144105350539393D51154149154D15495915010
330
2E
 94
        0
  0
ACAD_PROXY_OBJECT
  5
232ED
330
2E
100
AcDbProxyObject
 90
      499
 91
      509
 95
       25
 70
     0
 93
      172
310
00010144105350555513D11253505494905391D15010
330
2E
 94
        0
  0
ACAD_PROXY_OBJECT
  5
232EE
330
2E
100
AcDbProxyObject
 90
      499
 91
      509
 95
       25
 70
     0
 93
      124
310
00010142D05351561514915191125360
330
2E
 94
        0
  0
ACAD_PROXY_OBJECT
  5
232EF
330
2E
100
AcDbProxyObject
 90
      499
 91
      509
 95
       25
 70
     0
 93
      132
310
00010142D05355105410539393D5115010
330
2E
 94
        0
  0
ACAD_PROXY_OBJECT
  5
232F0
330
2E
100
AcDbProxyObject
 90
      499
 91
      509
 95
       25
 70
     0
 93
      108
310
00010142105350555513D0D31010
330
2E
 94
        0
  0
ACAD_PROXY_OBJECT
  5
232F1
330
2E
100
AcDbProxyObject
 90
      499
 91
      509
 95
       25
 70
     0
 93
      108
310
00010142105350D3119150551050
330
2E
 94
        0
  0
ACAD_PROXY_OBJECT
  5
232F2
330
2E
100
AcDbProxyObject
 90
      499
 91
      509
 95
       25
 70
     0
 93
      108
310
00010142105350D315925155D3F0
330
2E
 94
        0
  0
ACAD_PROXY_OBJECT
  5
232F3
330
2E
100
AcDbProxyObject
 90
      499
 91
      509
 95
       25
 70
     0
 93
      148
310
0001014350535212511156915493D112535010
330
2E
 94
        0
  0
ACAD_PROXY_OBJECT
  5
232F4
330
2E
100
AcDbProxyObject
 90
      499
 91
      509
 95
       25
 70
     0
 93
      124
310
00010142905352105510D21254D3D010
330
2E
 94
        0
  0
ACAD_PROXY_OBJECT
  5
232F5
330
2E
100
AcDbProxyObject
 90
      499
 91
      509
 95
       25
 70
     0
 93
      148
310
00010143905354D25391D31152105513105660
330
2E
 94
        0
  0
ACAD_PROXY_OBJECT
  5
232F6
330
2E
100
AcDbProxyObject
 90
      499
 91
      509
 95
       25
 70
     0
 93
      124
310
00010142D0535115D1D193111254D420
330
2E
 94
        0
  0
ACAD_PROXY_OBJECT
  5
232F7
330
2E
100
AcDbProxyObject
 90
      499
 91
      509
 95
       25
 70
     0
 93
      100
310
00010142105350555513D213A0
330
2E
 94
        0
  0
ACAD_PROXY_OBJECT
  5
232F8
330
2E
100
AcDbProxyObject
 90
      499
 91
      509
 95
       25
 70
     0
 93
      116
310
000101425053521390D3D553951010
330
2E
 94
        0
  0
ACAD_PROXY_OBJECT
  5
232F9
330
2E
100
AcDbProxyObject
 90
      499
 91
      509
 95
       25
 70
     0
 93
      108
310
0001014210535213941493D29010
330
2E
 94
        0
  0
ACAD_PROXY_OBJECT
  5
232FA
330
2E
100
AcDbProxyObject
 90
      499
 91
      509
 95
       25
 70
     0
 93
      108
310
0001014210535213951654115070
330
2E
 94
        0
  0
ACAD_PROXY_OBJECT
  5
232FB
330
2E
100
AcDbProxyObject
 90
      499
 91
      509
 95
       25
 70
     0
 93
      108
310
000101421053521395925155D0F0
330
2E
 94
        0
  0
ACAD_PROXY_OBJECT
  5
232FC
330
2E
100
AcDbProxyObject
 90
      499
 91
      509
 95
       25
 70
     0
 93
      140
310
00010143505354D150D51253D390D3D41660
330
2E
 94
        0
  0
ACAD_PROXY_OBJECT
  5
232FD
330
2E
100
AcDbProxyObject
 90
      499
 91
      509
 95
       25
 70
     0
 93
      108
310
00010142105350D3141493D29030
330
2E
 94
        0
  0
ACAD_PROXY_OBJECT
  5
232FE
330
2E
100
AcDbProxyObject
 90
      499
 91
      508
 95
       25
 70
     0
 93
      212
310
00010143905350555513D2105510D21493D500000000000002E400
330
2E
 94
        0
  0
ACAD_PROXY_OBJECT
  5
232FF
330
2E
100
AcDbProxyObject
 90
      499
 91
      509
 95
       25
 70
     0
 93
      156
310
00010143905350555513D2105510D21111551010
330
2E
 94
        0
  0
ACAD_PROXY_OBJECT
  5
2330B
330
2E
100
AcDbProxyObject
 90
      499
 91
      548
 95
       25
 70
     0
 93
      698
310
0001000000009AA6A9AA4051E576564204D61792033312030343A35373A303020323030362028555443290141CE4B8C8B8C0B8C80518467269205365702031372031313A31383A333720323031300141CE4B8C8B8C0B8C80
330
2E
330
2330C
330
2330D
330
2330F
330
0
 94
        0
  0
ACAD_PROXY_OBJECT
  5
2330C
330
2E
100
AcDbProxyObject
 90
      499
 91
      549
 95
       25
 70
     0
 93
       70
310
0001AAA80820000000
330
2E
330
2330C
330
2330C
 94
        0
  0
ACAD_PROXY_OBJECT
  5
2330D
330
2E
100
AcDbProxyObject
 90
      499
 91
      550
 95
       25
 70
     0
 93
       48
310
000100000000
330
2E
330
0
330
2330E
330
0
330
0
 94
        0
  0
ACAD_PROXY_OBJECT
  5
2330E
330
2E
100
AcDbProxyObject
 90
      499
 91
      551
 95
       25
 70
     0
 93
       40
310
000100AAAA
330
2E
330
0
 94
        0
  0
ACAD_PROXY_OBJECT
  5
23314
330
2E
100
AcDbProxyObject
 90
      499
 91
      522
 95
       25
 70
     0
 93
      180
310
00010143105050D3D35411119390535140504434F4D500
330
2E
 94
        0
  0
ACAD_PROXY_OBJECT
  5
23315
330
2E
100
AcDbProxyObject
 90
      499
 91
      522
 95
       25
 70
     0
 93
      212
310
0001014390505193D311115491119390535140506466F6C6465720
330
2E
 94
        0
  0
ACAD_PROXY_OBJECT
  5
23316
330
2E
100
AcDbProxyObject
 90
      499
 91
      522
 95
       25
 70
     0
 93
      180
310
00010143105050539393D1119390535140504284156290
330
2E
 94
        0
  0
ACAD_PROXY_OBJECT
  5
23317
330
2E
100
AcDbProxyObject
 90
      499
 91
      522
 95
       25
 70
     0
 93
      436
310
00010143905050D3D35415925155D31254D50052295BD96CA0A90B396CA0A894591A496CA0A8DB691A496CA0A89BA96CA0A95E28F95310
330
2E
 94
        0
  0
ACAD_PROXY_OBJECT
  5
2331C
330
2E
100
AcDbProxyObject
 90
      499
 91
      556
 95
       25
 70
     0
 93
       32
310
00010000
330
2E
340
23319
330
2331E
330
23319
 94
        0
  0
ACAD_PROXY_OBJECT
  5
2331D
330
2E
100
AcDbProxyObject
 90
      499
 91
      557
 95
       25
 70
     0
 93
       18
310
000180
330
2E
 94
        0
  0
ACAD_PROXY_OBJECT
  5
2331E
330
2E
100
AcDbProxyObject
 90
      499
 91
      558
 95
       25
 70
     0
 93
      234
310
00010144920D8CD04B55D20B51159413948B51160C4D9050055401550000
330
2E
330
2331C
330
2331D
 94
        0
  0
ACAD_PROXY_OBJECT
  5
2331F
330
2E
100
AcDbProxyObject
 90
      499
 91
      559
 95
       25
 70
     0
 93
      178
310
000100AAAAAA9195104E6175E692E824806FEAC2A092C0
330
2E
330
2331E
 94
        0
  0
ACAD_PROXY_OBJECT
  5
23320
330
2E
100
AcDbProxyObject
 90
      499
 91
      560
 95
       25
 70
     0
 93
      108
310
000190140A000000000000AAAAA0
330
2E
330
23321
330
23321
330
23321
330
23321
330
23321
330
0
 94
        0
  0
ACAD_PROXY_OBJECT
  5
23321
330
2E
100
AcDbProxyObject
 90
      499
 91
      561
 95
       25
 70
     0
 93
       51
310
00010000AAAA80
330
2E
330
23320
330
2331E
 94
        0
  0
DICTIONARY
  5
40
102
{ACAD_REACTORS
330
3F
102
}
330
3F
100
AcDbDictionary
281
     1
  3
DWGSETTINGS
350
41
  3
FEM
350
69
  3
Shaft
350
56
  3
TRANSSETTINGS
350
4C
  0
ACAD_PROXY_OBJECT
  5
42
102
{ACAD_REACTORS
330
3F
102
}
330
3F
100
AcDbProxyObject
 90
      499
 91
      519
 95
       25
 70
     0
 93
    23232
310
41502491013041105357CC201C00030C011E441013141105357CC603800030C011E441013241105357CCA01400030C011E441013341105357CCE01800030C010D9013441105357CD200C00030C010D9013541105357CD600C00030C010D9013641105357CDA00800030C011E9013741105357CDE01000030C010D901384110
310
5357CE200400030C011E9013941105357CE63F400030C0241102324141505357CC4C201C00030C011E902344141505357CC4C600C00030C010D902495041505357CC4CA01C00030C011E40902304E41505357CC13A01C00030C011E902314E41505357CC53A03800030C011E902324E41505357CC93A01400030C011E90233
310
4E41505357CCD3A01800030C010D902344E41505357CD13A00C00030C010D902354E41505357CD53A00C00030C010D902364E41505357CD93A00800030C011E902374E41505357CDD3A01000030C010D902384E41505357CE13A00400030C011E902394E41505357CE53A3F400030C024110332414E41905357CC4C13A01C0
310
0030C011E90334414E41905357CC4C53A00C00030C010D90349504E41905357CC4C93A01C00030C011E409044B4C494E41505357D0D3200400030C011E42504494E464F42105357D410549151A01000030C010D42D055241484D3541905357D093D4A01C00030C011E425045649455742105357D5925155D4E00400030C011
310
E42D06424548494E4441905357D25395A3F400030C0243505545241494C41505357D514A00C00030C010D4250348494441905357D21251201C00030C011E4250356495341905357D59254E01C00030C011E4250650415244494D42505357D41054911253600C00030C010D4250652454644494D42505357D49151911253601
310
000030C010D425774110531514901348070000C300479034110915312501348000000C0003FFFFFFFD034110921395901398000000C0003FFFFFFFE415092139594D06424548494E448000000C0003FFFFFFFE411093125110234418000000C0003FFFFFFFD03411093D05410234418000000C0003FFFFFFFD03411093D48C
310
9055241484D358010000C30047A411093D48CD055241484D358020000C30047A411093D48D5055241484D358000000C0003FFFFFFFE411093D48DD055241484D3581E0000C30047903411094105410234418000000C0003FFFFFFFD03411094115610234418000000C0003FFFFFFFD034110951112501358000000C0003FFF
310
FFFFD034110D0530C901348000000C0003FFFFFFFE4110D0530CD01348020000C30047A4110D0530D501348070000C30047A4110D0530DD013481E0000C30047A4110D15393901378000000C0003FFFFFFFE4110D15395D01378000000C0003FFFFFFFE4110D312539044B4C494E8000000C0003FFFFFFFE4110D3D38C5013
310
08000000C0003FFFFFFFD034110D3D38C901318000000C0003FFFFFFFD034110D3D38CD01328000000C0003FFFFFFFD034110D3D38D101328000000C0003FFFFFFFD034111115494101348000000C0003FFFFFFFD034111115510501348000000C0003FFFFFFFE4111125051D01358000000C0003FFFFFFFE4111125312501
310
358000000C0003FFFFFFFE411112535410650415244494D8000000C0003FFFFFFFE411112535490652454644494D8000000C0003FFFFFFFE411156135410234418000000C0003FFFFFFFD034111915353901388000000C0003FFFFFFFE415191535413901388030000C3004364151915354D410234418000000C0003FFFFFF
310
FE4151915354D510234418030000C300436415191535593901328000000C0003FFFFFFFE415191535595101328030000C3004364111931055101308000000C0003FFFFFFFD03411194905490234418000000C0003FFFFFFFD034111D49312501358000000C0003FFFFFFFD034111D5931250234418000000C0003FFFFFFFD0
310
34112105510D01388000000C0003FFFFFFFD014112125113901338000000C0003FFFFFFFD034112125115D01338000000C0003FFFFFFFD034112131253901348000000C0003FFFFFFFD01411213D0D3901378000000C0003FFFFFFFE411213D0D5D01378000000C0003FFFFFFFE4112539193D04494E464F8000000C0003FF
310
FFFFFE4113105112501348000000C0003FFFFFFFD034113115051101358000000C0003FFFFFFFE419397D0921395902394E8000000C0003FFFFFFFE419397D0D3D38C502304E8000000C0003FFFFFFFD03419397D0D3D38C902314E8000000C0003FFFFFFFD03419397D0D3D38CD02324E8000000C0003FFFFFFFD03419397
310
D0D3D38D102324E8000000C0003FFFFFFFD03419397D0D15393902374E8000000C0003FFFFFFFE419397D0D15395D02374E8000000C0003FFFFFFFE419397D1125312502354E8000000C0003FFFFFFFE419397D2105510D02384E8000000C0003FFFFFFFD01419397D2125113902334E8000000C0003FFFFFFFD03419397D2
310
125115D02334E8000000C0003FFFFFFFD03419397D3115051102354E8000000C0003FFFFFFFE419397D391D25410349504E8000000C0003FFFFFFFE419397D412105390334414E8000000C0003FFFFFFFE419397D510D3D3902304E8000000C0003FFFFFFFD03419397D5121312502344E8000000C0003FFFFFFFD01419397
310
D5131153902304E8000000C0003FFFFFFFD03419397D516150CD02364E8000000C0003FFFFFFFD03419397D594131250332414E8000000C0003FFFFFFFE411391D25410249508000000C0003FFFFFFFE411410530C9055241484D358010000C30047A411410530CD055241484D358020000C30047A411410530D5055241484
310
D358000000C0003FFFFFFFE411410530DD055241484D3581E0000C30047903411412105390234418000000C0003FFFFFFFE411413D4D3901368070000C30047A419413D4D49151901368050000C30047903411413D4D6101368000000C0003FFFFFFFD03411414D150D0234418000000C0003FFFFFFFD03411490D1D390137
310
8000000C0003FFFFFFFE411490D1D5D01378000000C0003FFFFFFFE4114919112501348000000C0003FFFFFFFD034114945514901348070000C30047903411494D093D01348000000C0003FFFFFFFD034114D09492D01348000000C0003FFFFFFFD014114D0D153901378000000C0003FFFFFFFD034114D150D51013480000
310
00C0003FFFFFFFD014114D15313901378000000C0003FFFFFFFD034114D15315D01378000000C0003FFFFFFFD034114D4D654D01308000000C0003FFFFFFFD034114D51312501348070000C300479034114D6508C501358000000C0003FFFFFFFD034114D6508C901358000000C0003FFFFFFFD034114D6508CD0135802000
310
0C30047A4114D6508D501358070000C300479034114D65353901378000000C0003FFFFFFFD034114D65355D01378000000C0003FFFFFFFD03411510D3D3901308000000C0003FFFFFFFD034115121312501348000000C0003FFFFFFFD01411512550C9055241484D358010000C30047A411512550CD055241484D358020000
310
C30047A411512550D5055241484D358000000C0003FFFFFFFE411512550DD055241484D3581E0000C300479034115131153901308000000C0003FFFFFFFD03415514905253105545241494C8000000C0003FFFFFFFE41151492D3901378000000C0003FFFFFFFD0341151492D5D01378000000C0003FFFFFFFD03411514931
310
2501348000000C0003FFFFFFFD01411516150C501368030000C300436411516150C901368030000C300436411516150CD01368000000C0003FFFFFFFE411516150D501368070000C30047A411516150DD013681E0000C30047A4115925155D04564945578000000C0003FFFFFFFE41159151121034849448000000C0003FFF
310
FFFFD0241159151159035649538000000C0003FFFFFFFD02411594131250232418000000C0003FFFFFFFE4116925690501348000000C0003FFFFFFFD01411354D653501358020000C30047AAAA3F400030C01013F90A4051E4091E40D0D4110D4151E4190D41D1E4391E4791E7F6
340
16
340
16
340
16
340
43
340
16
340
16
340
16
340
44
340
16
340
16
340
44
340
45
340
16
340
16
340
16
340
16
340
43
340
16
340
16
340
16
340
44
340
16
340
16
340
44
340
45
340
16
340
46
340
16
340
16
340
16
340
16
340
16
340
43
340
16
340
16
340
16
340
47
340
15
340
15
340
15
340
15
340
15
340
15
340
15
340
15
340
15
340
15
340
15
340
15
340
15
340
15
340
15
340
15
340
48
340
15
340
15
340
15
340
15
340
15
340
15
340
15
340
15
340
15
340
15
340
15
340
15
340
15
340
15
340
15
340
16
340
15
340
15
340
15
340
15
340
15
340
15
340
15
340
15
340
47
340
15
340
15
340
48
340
15
340
15
340
15
340
15
340
15
340
15
340
15
340
15
340
15
340
48
340
15
340
15
340
15
340
47
340
15
340
15
340
15
340
15
340
15
340
15
340
15
340
15
340
15
340
15
340
15
340
15
340
15
340
15
340
15
340
15
340
15
340
15
340
15
340
48
340
15
340
15
340
48
340
15
340
15
340
16
340
15
340
48
340
15
340
15
340
47
340
15
340
15
340
16
340
15
340
48
340
15
340
15
340
15
340
15
340
15
340
15
340
15
340
15
340
15
340
48
340
15
340
15
340
15
340
15
340
15
340
15
340
15
340
15
340
15
340
15
340
15
340
4B
340
16
 94
        0
  0
ACAD_PROXY_OBJECT
  5
62F
102
{ACAD_REACTORS
330
73
102
}
330
73
100
AcDbProxyObject
 90
      499
 91
      523
 95
       25
 70
     0
 93
      253
310
43D1444494D454E53494F4E2C414D44545F2A5F44494D404A9012A404A9012A0
  0
ACAD_PROXY_OBJECT
  5
630
102
{ACAD_REACTORS
330
73
102
}
330
73
100
AcDbProxyObject
 90
      499
 91
      523
 95
       25
 70
     0
 93
      181
310
43D012A42D05357D191504B505357CA9012A404A9012A8
  0
ACAD_PROXY_OBJECT
  5
631
102
{ACAD_REACTORS
330
73
102
}
330
73
100
AcDbProxyObject
 90
      499
 91
      523
 95
       25
 70
     0
 93
      133
310
43D054841544348404A9012A404A9012A8
  0
ACAD_PROXY_OBJECT
  5
632
102
{ACAD_REACTORS
330
73
102
}
330
73
100
AcDbProxyObject
 90
      499
 91
      523
 95
       25
 70
     0
 93
      549
310
43D044C494E4549CE0B0E138B0A8B4E0B0A8B4E138B105357CE0B105357CE138B0A8B505357CE0B0A8B505357CE139012A404A910494E534552542C5354445041525432448
  0
ACAD_PROXY_OBJECT
  5
633
102
{ACAD_REACTORS
330
73
102
}
330
73
100
AcDbProxyObject
 90
      499
 91
      523
 95
       25
 70
     0
 93
      909
310
43D6641434D46434652414D452C41434D444154554D5441524745542C41434D444154554D49442C41434D57454C4453594D2C41434D5355524653594D2C41434D4645415449442C41434D504152545245462C41434D42414C4C4F4F4E2C414D44544544474553594D404A9012A404A9012A8
  0
XRECORD
  5
217B
102
{ACAD_REACTORS
330
217A
102
}
330
217A
100
AcDbXrecord
280
     1
  1
21000753__00___
  0

  0
XRECORD
  5
217D
102
{ACAD_REACTORS
330
217C
102
}
330
217C
100
AcDbXrecord
280
     1
  1
3
  0

  0
ACAD_PROXY_OBJECT
  5
4F
102
{ACAD_REACTORS
330
4E
102
}
330
4E
100
AcDbProxyObject
 90
      499
 91
      521
 95
       25
 70
     0
 93
      157
310
057356C1D77406406AA8FFFFFFFF05DD01009010
330
1F
330
0
330
2331E
 94
        0
  0
ACAD_PROXY_OBJECT
  5
24424
102
{ACAD_REACTORS
330
17E
102
}
330
17E
100
AcDbProxyObject
 90
      499
 91
      578
 95
       25
 70
     0
 93
     2497
310
5DC0000000000000C408030000C30040D254D3D01640600800030C0200800030C000000000000000C40C88A2085A0B6B23A22B233B2A9BA3220480A1C82C6DAA6EAE4CCA8CAF0E8A6E8C88120284A0B1B6A321A329BA3220480A1A82C6DAAECAD8C8D2DCCEA6E8C8812028420B1B6A4B229BA3220480A1682C6DA88C2E8EAD
310
AA6E8C88120284A0B1B6A127A6A9BA3220480A2082DAC8E888CAE8C2D2D8A6F2DAA6E8C88120288A0B6B23A29B2B1BA34B7B729BCB6A9BA3220480A2282DAC8E886CADCE8CAE498D2DCCAA6E8C88120288A0B6B23A2A343932B0B22634B732A9BA3220480A1682DAC8E89CDEE8CAA6E8C88120285A0B1A0B6B3A630BCA9BA3
310
220480A1682C682DACE88D2DAA6E8C88120288A0B1A0B6B3A437B632A1B430B93A29BA3220480A1A82C682DACEA8D2E8D8CAA6E8C8812032048080
340
233E2
360
24425
360
24426
360
24427
360
24428
360
24429
360
2442A
360
2442B
360
2442C
360
2442D
360
2442E
360
2442F
360
24430
360
24436
360
24437
360
24438
360
24439
340
0
340
0
 94
        0
  0
ACAD_PROXY_OBJECT
  5
17F
102
{ACAD_REACTORS
330
17E
102
}
330
17E
100
AcDbProxyObject
 90
      499
 91
      526
 95
       25
 70
     0
 93
     2379
310
5DC33333333333309408000000C00040D29254D01640600800030C0200800030C003333333333330940C8121E8720B1B6A9BAB9332A32BC3A29BA3220480A1282C6DA8C868CA6E8C88120286A0B1B6ABB2B63234B733A9BA3220480A1082C6DA92C8A6E8C88120285A0B1B6A230BA3AB6A9BA3220480A1282C6DA849E9AA6E
310
8C88120286A0B1A0B6B3AA34BA3632A9BA3220480A2082DAC8E888CAE8C2D2D8A6F2DAA6E8C88120288A0B6B23A29B2B1BA34B7B729BCB6A9BA3220480A2282DAC8E886CADCE8CAE498D2DCCAA6E8C88120288A0B6B23A2A343932B0B22634B732A9BA3220480A1682DAC8E89CDEE8CAA6E8C88120285A0B1A0B6B3A630BCA
310
9BA3220480A1682C682DACE88D2DAA6E8C88120288A0B1A0B6B3A437B632A1B430B93A29BA3220480C812020
340
180
360
181
360
182
360
183
360
184
360
185
360
186
360
23323
360
23324
360
23325
360
23327
360
23328
360
23329
360
2332F
360
23330
360
23331
340
0
340
0
 94
        0
  0
ACAD_PROXY_OBJECT
  5
41
102
{ACAD_REACTORS
330
40
102
}
330
40
100
AcDbProxyObject
 90
      499
 91
      518
 95
       25
 70
     0
 93
     2954
310
4050B44574753455454494E4753A0E8482A68AA6A88882A069492A684A1A0A723A0A92920ACA0A811B9AA0C868A9C829C8E82A12686AF87260F862666A8321A2A72224A0A50602A2140ECC009A020E868A9C889282A682A106260F86460F8666083A1A2A72224A9AA250000000000000042020C868A9C988A9C94000000000
310
000048808321A2A727A323250000000000000122020E868A9C9E8C8C62940000000000000488083A1A2A727A32319250000000000000122021CC6D0C2DACCCAE4C8D2DADADEC8CA9FC84A1A624A720A92920ACA0A819898182108698929C8AA8B2A082A0AB098929C8A84A22BA3AAA9A1A0A622A50A0E9882A6A89E849482A
310
02608426A0A5A2AB24A2ABA7E8120CA0A68682988A0C00800010652455649534941501304154D0D0531150540CC4E8C5085354414E44415244415034A4953425512535154D51053541280F8271945CCADCD050756455253494F4E4150531352E3030441ED115D1D4D15515125391D4D153911F40
  0
ACAD_PROXY_OBJECT
  5
69
102
{ACAD_REACTORS
330
40
102
}
330
40
100
AcDbProxyObject
 90
      499
 91
      518
 95
       25
 70
     0
 93
      411
310
4050346454D21092DCC6E486DECACC942842630BCA3B937BAB820A8320A6AFA322A0A20F688AE8EA68AA8A8929C8EA68A9C88FA0
  0
ACAD_PROXY_OBJECT
  5
56
102
{ACAD_REACTORS
330
40
102
}
330
40
100
AcDbProxyObject
 90
      499
 91
      518
 95
       25
 70
     0
 93
      583
310
40505536861667421292DCE8CAE4E4EAE0E89FA0484A634B3B43A2634B732A7F21A98D2CED0E898D2DCCAACD2CAEE9FC8229B4B232A7E80A20F688AE8EA68AA8A8929C8EA68A9C88FA
  0
ACAD_PROXY_OBJECT
  5
4C
102
{ACAD_REACTORS
330
40
102
}
330
40
100
AcDbProxyObject
 90
      499
 91
      518
 95
       25
 70
     0
 93
      852
310
4050D5452414E5353455454494E4753A2488A482AE929C8EA8A4829CA69882A8929E9C0C00800050D4F524947494E414C4C595F4F4E0600400028529A7AAA921A2A620A723A0A81A52827212AAA0A48AA68AA4AC8A0C0080001107B44574753455454494E4753454E447D0
  0
ACAD_PROXY_OBJECT
  5
24425
330
24424
100
AcDbProxyObject
 90
      499
 91
      579
 95
       25
 70
     0
 93
       13
310
5DD8
  0
ACAD_PROXY_OBJECT
  5
24426
330
24424
100
AcDbProxyObject
 90
      499
 91
      580
 95
       25
 70
     0
 93
       96
310
5DEA0E80A0280A0280A0280F
  0
ACAD_PROXY_OBJECT
  5
24427
330
24424
100
AcDbProxyObject
 90
      499
 91
      581
 95
       25
 70
     0
 93
      272
310
5DD0E4050140501405014050140501405014050140D01405012C0000000000000040
340
233E3
 94
        0
  0
ACAD_PROXY_OBJECT
  5
24428
330
24424
100
AcDbProxyObject
 90
      499
 91
      582
 95
       25
 70
     0
 93
      497
310
5DE8666666666667A67E199999999999E99FD22405014050140501405014050140501405014050140501405014050140501405014050140501405014050100
340
233DE
 94
        0
  0
ACAD_PROXY_OBJECT
  5
24429
330
24424
100
AcDbProxyObject
 90
      499
 91
      583
 95
       25
 70
     0
 93
       10
310
5DC0
  0
ACAD_PROXY_OBJECT
  5
2442A
330
24424
100
AcDbProxyObject
 90
      499
 91
      584
 95
       25
 70
     0
 93
      257
310
5DE290EA22A7D90F49F80000000000001081400000000000004204010000618000
340
1341A
340
233DF
 94
        0
  0
ACAD_PROXY_OBJECT
  5
2442B
330
24424
100
AcDbProxyObject
 90
      499
 91
      585
 95
       25
 70
     0
 93
    13013
310
5DD0E411255115350141236025B690140501406901000000000000091013347454E545241434F2C4A504E2C302C8D8096DA2C47454E54524154582C25732C2847454E4D53472067656E647767203232322940690120281A8AA2CA0282484A4BE52028120280A0320200000000000012202668E8A9CA8A482869E5894A09C58
310
605921292F94588E8A9CA8A482A8B0584AE658508E8A9C9AA68E40CECADCC8EECE406464665280D202405044E414D454050496BC914F4051C40640A80000000000004E404CD1D15395149050D3CB1294138B0C0B25AF2453CB11D15395149055160B095CCB0A11D1539354D1C819D95B991DD9C80C8C8D8A50192C3D494628
310
4953424C414E4B28504152543A4E414D45292C424C4F434B3A4E414D452C504152543A4E414D452940480A0A888AA686A480A09251B1DBE80A3A80C81D0000000000100A28099A3A2A72A2920A1A7962528271618164946C76F9623A2A72A2920AA2C1612B9961423A2A726A9A39033B2B7323BB39019189B94A0348090142
310
14D51053911054911014122D2E29A50147501904A000000000000125013347454E545241434F2C4A504E2C302C8B4B8A692C47454E54524154582C25732C2847454E4D53472067656E64776720323138294069012028426A0AA22A924A0A62028246EF4BDFA028EA0320B40000000000001CA02668E8A9CA8A482869E5894A
310
09C5860591BBD2F7E588E8A9CA8A482A8B0584AE658508E8A9C9AA68E40CECADCC8EECE406464625280D202405044E4F544540504928D8B4C4051D40641A80000000000003E404CD1D15395149050D3CB1294138B0C0B24A362D30B11D15395149055160B095CCB0A11D1539354D1C819D95B991DD9C80C8C8D4A501240480
310
A0CAC8A9C889EA480A1106F1072706BF02B680A3A80C83D00000000000007C809BA3A2A72A2920A1A79625282716181641BC41C9C1AFC0AD9623A2A72A2920AA2C1612B9961423A2A726A9A39033B2B7323BB39019191A14A0248090141911154D0D48C90141A43825AF880C90147501908A000000000020145013447454E5
310
45241434F2C4A504E2C302C90E096BE20322C47454E54524154582C25732C2847454E4D53472067656E6477672033362940490120284A9AA20A72220A922192028345A5C53490192028EA03213400000000000024A026A8E8A9CA8A482869E5894A09C586059169714D24064588E8A9CA8A482A8B0584AE658508E8A9C9AA6
310
8E40CECADCC8EECE4064646052809202405094D4154455249414C32405068DDE97BF20324051D40642A8713D0AD7A37045404D11D15395149050D3CB1294138B0C0B2377A5EFC80C8B11D15395149055160B095CCB0A11D1539354D1C819D95B991DD9C80D0C0A501240480A089A82A6A680A091D7F2F9480A3A80A0485A06
310
8100000000000007C809923A2A72A2920A1A796252827161816475FCBE51623A2A72A2920AA2C1612B9961423A2A726A9A39033B2B7323BB3901A1914A024809014154149250D150141226FE29A501475014090C409020000000000000F9013247454E545241434F2C4A504E2C302C89BF8A692C47454E54524154582C2573
310
2C2847454E4D53472067656E6477672034332940490120281A224A6A02824850CB202028EA028121A81A040000000000001F202648E8A9CA8A482869E5894A09C58605921432C80588E8A9CA8A482A8B0584AE658508E8A9C9AA68E40CECADCC8EECE406868528092024050E445020000000000000510201C00030C0001018
310
0000000000003E400000000000000F901073D3C4954454D3E4050180000000000003E400000000000000F901073D3C4954454D3E40501800000000000034400000000000000D101073D3C4954454D3E40501800000000000034400000000000000D101073D3C4954454D3E405029010000000000000F9000000000000003E4
310
041CF4F125511534F901418F4F1455164F9014060000000000000F9000000000000003E4041CF4F125511534F9014060000000000000D100000000000000344041CF4F125511534F901901000000000000000F9000000000000003E40A2200000000000008204018000618048220681A048120280C88214844882034852034
310
8452028521485214814000000000000F0BF0000000000003C2FD018020000C3008070000C3003373333333333B0FCCDCCCCCCCCCCEC3F000000000000031012034164050341105901A000000000000062040100006180401000061804008000618008098A02808
340
0
340
0
 94
        0
  0
ACAD_PROXY_OBJECT
  5
2442C
330
24424
100
AcDbProxyObject
 90
      499
 91
      586
 95
       25
 70
     0
 93
      898
310
5DC4000000000000144048CF4F11115510525317D3105091530F880A0F11115510525317D05094D4D0D053114F8A51141C9A9999999999B93F26A666666666724FC000000000000E03F400000000000000400000000000000510000000000000024408070000C300000000000000051000
340
16
340
233E2
 94
        0
  0
ACAD_PROXY_OBJECT
  5
2442D
330
24424
100
AcDbProxyObject
 90
      499
 91
      587
 95
       25
 70
     0
 93
      823
310
5DC0B00000000000002880959E9E29A2A1AA24A7A72FA620A122A62FA324A929AA1F169E29A2A1AA24A7A72FA620A122A62FA620A9AA1F000000000000048803FFFE01C00030C0088C0380006180000000000000048800000000000000A2000000000000002880
340
652
340
233E2
 94
        0
  0
ACAD_PROXY_OBJECT
  5
2442E
330
24424
100
AcDbProxyObject
 90
      499
 91
      588
 95
       25
 70
     0
 93
      152
310
5DE80000000000000840A3D0A5723F0BD1F200
  0
ACAD_PROXY_OBJECT
  5
2442F
330
24424
100
AcDbProxyObject
 90
      499
 91
      589
 95
       25
 70
     0
 93
       14
310
5DE0
340
0
 94
        0
  0
ACAD_PROXY_OBJECT
  5
24430
330
24424
100
AcDbProxyObject
 90
      499
 91
      590
 95
       25
 70
     0
 93
     8619
310
5DD084050BA4050AA405024050E836583938376838C815B836720314043A013D2525633C486F6C653A63746469613E2078203C486F6C653A637464657074683E20555C503C696628657175616C28486F6C653A7461707065642C223022292C22252563222C486F6C653A6E6F6D696E616C202220782022293E3C6966286571
310
75616C28486F6C653A7461707065642C223022292C486F6C653A6469612C486F6C653A706974636864657363293E3C696628657175616C28486F6C653A7461707065642C223122292C22207820222C2222293E3C696628657175616C28486F6C653A7461707065642C223122292C486F6C653A74617064657074682C222229
310
3E203C696628657175616C28486F6C653A7465726D696E6174696F6E2C223022292C22202F20222C2222293E3C696628657175616C28486F6C653A7465726D696E6174696F6E2C223022292C486F6C653A64657074682C2222293E406901405034050E836583938376838C815B836720314043B013D2525633C486F6C653A6
310
3746469613E2078203C486F6C653A6374616E676C653E2525645C503C696628657175616C28486F6C653A7461707065642C223022292C22252563222C486F6C653A6E6F6D696E616C202220782022293E3C696628657175616C28486F6C653A7461707065642C223022292C486F6C653A6469612C486F6C653A70697463686
310
4657363293E3C696628657175616C28486F6C653A7461707065642C223122292C22207820222C2222293E3C696628657175616C28486F6C653A7461707065642C223122292C486F6C653A74617064657074682C2222293E203C696628657175616C28486F6C653A7465726D696E6174696F6E2C223022292C22202F20222C2
310
222293E3C696628657175616C28486F6C653A7465726D696E6174696F6E2C223022292C486F6C653A64657074682C2222293E406901405014050E836583938376838C815B8367203140416013D3C696628657175616C28486F6C653A7461707065642C223022292C22252563222C486F6C653A6E6F6D696E616C2022207820
310
22293E3C696628657175616C28486F6C653A7461707065642C223022292C486F6C653A6469612C486F6C653A706974636864657363293E3C696628657175616C28486F6C653A7461707065642C223122292C22207820222C2222293E3C696628657175616C28486F6C653A7461707065642C223122292C486F6C653A746170
310
64657074682C2222293E203C696628657175616C28486F6C653A7465726D696E6174696F6E2C223022292C22202F20222C2222293E3C696628657175616C28486F6C653A7465726D696E6174696F6E2C223022292C486F6C653A64657074682C2222293E4069014051E4090E836583938376838C815B83672032405173D3C5
310
35444503A444553433E203C535444503A5354443E40690E836583938376838C815B836720314050C3D3C535444503A444553433E40690240515AAABBA120
360
24431
330
24431
360
24432
330
24432
360
24433
330
24433
360
24434
360
24435
330
24434
330
24435
 94
        0
  0
ACAD_PROXY_OBJECT
  5
24436
330
24424
100
AcDbProxyObject
 90
      499
 91
      569
 95
       25
 70
     0
 93
       26
310
5DD02A80
340
0
 94
        0
  0
ACAD_PROXY_OBJECT
  5
24437
330
24424
100
AcDbProxyObject
 90
      499
 91
      570
 95
       25
 70
     0
 93
      250
310
5DD020000000000000A1000000000000002440408F0F9023C3E409A0DCFFFF80
340
233E4
340
0
340
0
340
233E5
340
233E6
340
233E7
340
233E8
340
233E9
340
233EA
340
0
 94
        0
  0
ACAD_PROXY_OBJECT
  5
24438
330
24424
100
AcDbProxyObject
 90
      499
 91
      591
 95
       25
 70
     0
 93
    13889
310
5DD1D003FFFFFFFD030300030000000000000310200800030C01030300030000000000000310200800030C00050C8DC0955782CC838A83588367014ED1D15395149050D3CB1294138B0C0B23702555E0B320E2A0D620D9CB11D15395149055160B095CCB0A11D1539354D1C819D95B991A5B5E880CCC0A78000C0000000000
310
00000000000000000000010000000000000310200800030C010000000000000310200800030C020143CF4F111959985D5B1D151A5D1B194F8050A8C8A8365815B8375838B014E51D15395149050D3CB1294138B0C0B2322A0D96056E0DD60E2CB11D15395149055160B095CCB0A11D1539354D1C819D95B991A5B5E880CCC4
310
A78000C000000000000000000000000000000010000000000000310200800030C010000000000000310200800030C020143CF4F111959985D5B1D151A5D1B194F90D44111409034110541D0C4350F4050E44D03449074510F000141232D24D7C053247454E545241434F2C4A504E2C302C8CB4935F2C47454E54524154582C
310
25732C2847454E4D53472067656E64696D7A20312900010104002214000281464500A608E8A9CA8A482869E5894A09C5860591914588E8A9CA8A482A8B0584AE658508E8A9C9AA68E40CECADCC8D2DAF4406452029E9E9E27B934B3B4B71F1E24A31427A91424A9A12620A7259427B934B3B4B7149624A9A12620A7259424B
310
A32B6949496111116111711149F1E24BA32B69F00808200111A000140560052F47454E545241434F2C4A504E2C302C582C47454E54524154582C25732C2847454E4D53472067656E64696D7A20332900010100002054000280AC80A5E8E8A9CA8A482869E5894A09C586058B2588E8A9CA8A482A8B0584AE658508E8A9C9AA
310
68E40CECADCC8D2DAF4406852000202000040E800050152014BD1D15395149050D3CB1294138B0C0B148B11D15395149055160B095CCB0A11D1539354D1C819D95B991A5B5E880D8A400040400008250000A0507A6029823A2A72A2920A1A79625282716181641E99623A2A72A2920AA2C1612B9961423A2A726A9A39033B2
310
B73234B6BD101B948000808180105A000140A0F4C053047454E545241434F2C4A504E2C302C83D32C47454E54524154582C25732C2847454E4D53472067656E64696D7A203829000101010020F400028248704B5F00A668E8A9CA8A482869E5894A09C58605921C12D7C588E8A9CA8A482A8B0584AE658508E8A9C9AA68E40
310
CECADCC8D2DAF440646052000200080043280005048B4B8A69014CD1D15395149050D3CB1294138B0C0B22D2E29A4B11D15395149055160B095CCB0A11D1539354D1C819D95B991A5B5E880C8C4A4000400100086D0000A09196926BE029923A2A72A2920A1A796252827161816465A49AF9623A2A72A2920AA2C1612B9961
310
423A2A726A9A39033B2B73234B6BD10189480A02620202080043E80005048D8096DA014CD1D15395149050D3CB1294138B0C0B236025B68B11D15395149055160B095CCB0A11D1539354D1C819D95B991A5B5E880C4D0A4000404140280D0000A190687072706CD06C5069D06B0029DA3A2A72A2920A1A7962528271618164
310
1A1C1C9C1B341B141A741AC1623A2A72A2920AA2C1612B9961423A2A726A9A39033B2B73234B6BD10189A94800080828050EA000143A322A0D0E0E4E0D9A0D8A0D3A0D60053D47454E545241434F2C4A504E2C302C8C8A8343839383668362834E83582C47454E54524154582C25732C2847454E4D53472067656E64696D7A
310
2031372900010105002274000281464500A628E8A9CA8A482869E5894A09C5860591914588E8A9CA8A482A8B0584AE658508E8A9C9AA68E40CECADCC8D2DAF440626C52000202080044A8000504909497CA014CD1D15395149050D3CB1294138B0C0B242525F28B11D15395149055160B095CCB0A11D1539354D1C819D95B9
310
91A5B5E880C4E4A400040418008A521E000000000000001CA040C00000000000034408080000000000006881010000000000000D102040000000000001A204080000000000003440818000000000000728103000000000000125020600000000004028A040000000000000034408000000000000004881000000000000000D
310
102000000000000001A204000000000000003440818000000000000508143C0000000000000039408180000000000006881030000000000000D102060000000000001A2040C00000000000034408180000000000006881030000000000000E5020600000000000024A040C0000000000805140800000000000000688100000
310
00000000009102000000000000001A2040000000000000034408180000000000006881030000000000000A10284220000000878000002020000008380000020400000081800000208000000828000002028900000000
340
0
340
0
340
0
340
0
340
233E2
340
233E2
 94
        0
  0
ACAD_PROXY_OBJECT
  5
24439
330
24424
100
AcDbProxyObject
 90
      499
 91
      562
 95
       25
 70
     0
 93
     7018
310
5DD9740D254D3D0649534F5F4133429254D3D7D5125513115051349534F5F42525F5265766973696F6E6C69737446111413478342028323937783834316D6D2920421254D3D7D04D1E0D11141327835202835393478323130326D6D29421254D3D7D04C9E0D51141337837202834323078323038306D6D29421254D3D7D04C
310
DE0DD1141347839202832393778313839326D6D29421254D3D7D04D1E0E50E41312028353934783834316D6D29419254D3D7D04C51141327834202835393478313638326D6D29421254D3D7D04C9E0D11141347838202832393778313638326D6D29421254D3D7D04D1E0E10E41332028323937783432306D6D29419254D3D
310
7D04CD104130202838343078313138396D6D2920419254D3D7D04C11141347835202832393778313035316D6D29421254D3D7D04D1E0D51141347836202832393778313236316D6D29421254D3D7D04D1E0D91141347837202832393778313437316D6D29421254D3D7D04D1E0DD1141327833202835393478313236316D6D
310
29421254D3D7D04C9E0CD1141337834202834323078313138396D6D29421254D3D7D04CDE0D110413478332028323937783633306D6D29421254D3D7D04D1E0CD1141337835202834323078313438366D6D29421254D3D7D04CDE0D51141337836202834323078313738336D6D29421254D3D7D04CDE0D9104133783320283
310
43230783839316D6D29421254D3D7D04CDE0CD0E41322028343230783539346D6D29419254D3D7D04C9124130783220283131383978313638326D6D29421254D3D7D04C1E0C90E41342028323937783231306D6D29419254D3D7D04D1124130783320283131383978323532336D6D29421254D3D7D04C1E0CD114131783420
310
2838343178323337386D6D29421254D3D7D04C5E0D11141317833202838343178313738336D6D29421254D3D7D04C5E0CD02431254D3C82557247A25E4C81050A49534F5F5449544C4541431254D3C82557247A25E4C81090A49534F5F5449544C45424110E979A97F0838A835883675F42525F44D254D3D7D09497D4995D9
310
A5CDA5BDB9B1A5CDD10E979A97F0838A835883675F54525F44D254D3D7D51497D4995D9A5CDA5BDB9B1A5CDD10E979A97F0838A835883675F424C5F44D254D3D7D09317D4995D9A5CDA5BDB9B1A5CDD10E979A97F0838A835883675F544C5F44D254D3D7D51317D4995D9A5CDA5BDB9B1A5CDD00
  0
ACAD_PROXY_OBJECT
  5
181
330
17F
100
AcDbProxyObject
 90
      499
 91
      527
 95
       25
 70
     0
 93
       86
310
5DEA0C80A0280A0280A034
  0
ACAD_PROXY_OBJECT
  5
182
330
17F
100
AcDbProxyObject
 90
      499
 91
      528
 95
       25
 70
     0
 93
      282
310
5DD0E4050140501405014050140501405014050141101405014041000000000000001000
340
187
 94
        0
  0
ACAD_PROXY_OBJECT
  5
183
330
17F
100
AcDbProxyObject
 90
      499
 91
      529
 95
       25
 70
     0
 93
      323
310
5DCC199999999999E99F91740501405014050140501405014050140501405014050140501405014040
340
0
 94
        0
  0
ACAD_PROXY_OBJECT
  5
184
330
17F
100
AcDbProxyObject
 90
      499
 91
      530
 95
       25
 70
     0
 93
       10
310
5DC0
  0
ACAD_PROXY_OBJECT
  5
185
330
17F
100
AcDbProxyObject
 90
      499
 91
      531
 95
       25
 70
     0
 93
      257
310
5DE0C16A22A7D90F49F80000000000001081400000000000004204010000618000
340
188
340
189
 94
        0
  0
ACAD_PROXY_OBJECT
  5
186
330
17F
100
AcDbProxyObject
 90
      499
 91
      532
 95
       25
 70
     0
 93
     5277
310
5DD06411255115350141236025B6901405014069010000000000000910240690120281A8AA2CA0282484A4BE52028120280A032020000000000001220480D202405044E414D454050496BC914F4051C40640A80000000000004E4090193C3D3C4946284953424C414E4B28504152543A4E414D45292C424C4F434B3A4E414D
310
452C504152543A4E414D45293E3C41435F44455343524950544E3E40480A109A82A88AA492829880A091BBD2F7E80A3A80C81D0E27A15AF46E08A81203480901411393D5115014124A363B7D0147501904A0000000000000F902406428F4F1050D7D393D5114F901202832B22A72227A92028366EF6EE06F582028EA0320B4
310
0000000000001F20480C879E9E20A1AFAB27222FA620A122A61F20240506445020000000000000490201C00030C00010180000000000003E400000000000000F901073D3C4954454D3E4050180000000000003E400000000000000F901073D3C4954454D3E40501800000000000034400000000000000D101073D3C4954454
310
D3E40501800000000000034400000000000000D101073D3C4954454D3E405029010000000000000F9000000000000003E4041CF4F125511534F901418F4F1455164F9014060000000000000F9000000000000003E4041CF4F125511534F901800000000000034400000000000000D101073D3C4954454D3E40640400000000
310
0000003E400000000000000F90288800000000000020810000001800120881A068120480A032208521122080D21480D211480A1485214852050000000000003C2FC000000000000F0BF40600800030C0200400030C00CDCCCCCCCCCCEC3F3373333333333B0FC3333333333330940C80D069014090341504901A1999999999
310
9984A040100006180400800061804010000618008098A02808
340
0
340
0
 94
        0
  0
ACAD_PROXY_OBJECT
  5
23323
330
17F
100
AcDbProxyObject
 90
      499
 91
      562
 95
       25
 70
     0
 93
     3042
310
5DD9740D29254D064A49535F413342929254D7D512551311505134A49535F42525F5265766973696F6E6C6973744190F4134522028323937783231306D6D2941D29254D7D04D1490E41312028353934783834316D6D2941929254D7D04C50E41332028323937783432306D6D2941929254D7D04CD0F41344C2028323130783
310
239376D6D2941D29254D7D04D1310E41322028343230783539346D6D2941929254D7D04C90F4130202838343178313138396D6D2941929254D7D04C10243129254C82557247A25E4C81050A4A49535F5449544C454143129254C82557247A25E4C81090A4A49535F5449544C45424110E979A97F0838A835883675F42525F4
310
4D29254D7D09497D4995D9A5CDA5BDB9B1A5CDD10E979A97F0838A835883675F54525F44D29254D7D51497D4995D9A5CDA5BDB9B1A5CDD10E979A97F0838A835883675F424C5F44D29254D7D09317D4995D9A5CDA5BDB9B1A5CDD10E979A97F0838A835883675F544C5F44D29254D7D51317D4995D9A5CDA5BDB9B1A5CDD00
  0
ACAD_PROXY_OBJECT
  5
23324
330
17F
100
AcDbProxyObject
 90
      499
 91
      563
 95
       25
 70
     0
 93
      898
310
5DC4000000000000124048CF4F11115510525317D3105091530F880A0F11115510525317D05094D4D0D053114F8A50241C9A9999999999B93F26A666666666724FC000000000000E03F400000000000000400000000000000510000000000000024408070000C300000000000000049000
340
16
340
180
 94
        0
  0
ACAD_PROXY_OBJECT
  5
23325
330
17F
100
AcDbProxyObject
 90
      499
 91
      564
 95
       25
 70
     0
 93
      823
310
5DC0B00000000000002480959E9E29A2A1AA24A7A72FA620A122A62FA324A929AA1F169E29A2A1AA24A7A72FA620A122A62FA620A9AA1F000000000000048803FFFE01C00030C008140380006180000000000000048800000000000000A2000000000000002480
340
652
340
180
 94
        0
  0
ACAD_PROXY_OBJECT
  5
23327
330
17F
100
AcDbProxyObject
 90
      499
 91
      565
 95
       25
 70
     0
 93
      152
310
5DE8273108AC1C5A0640A3D0A5723F0BD1F200
  0
ACAD_PROXY_OBJECT
  5
23328
330
17F
100
AcDbProxyObject
 90
      499
 91
      566
 95
       25
 70
     0
 93
       14
310
5DE0
340
0
 94
        0
  0
ACAD_PROXY_OBJECT
  5
23329
330
17F
100
AcDbProxyObject
 90
      499
 91
      567
 95
       25
 70
     0
 93
     6059
310
5DD084050BA4050AA405024050E836583938376838C815B83672031405983D3C486F6C653A6469613E3C696628657175616C28486F6C653A7465726D696E6174696F6E2C223022292C2220905B82B320222C22208368838A838B22293E3C696628657175616C28486F6C653A7465726D696E6174696F6E2C223022292C486F
310
6C653A64657074682C2222293E2C203C486F6C653A63746469613E2082B482AE82E882CC905B82B3203C486F6C653A637464657074683E406901405034050E836583938376838C815B83672031405EF3D3C486F6C653A6374616E676C653E252564202525633C486F6C653A63746469613E208E4D8C8A2C203C69662865717
310
5616C28486F6C653A7461707065642C223022292C22252563222C486F6C653A6E6F6D696E616C202220782022293E3C696628657175616C28486F6C653A7461707065642C223022292C486F6C653A6469612C486F6C653A706974636864657363293E203C696628657175616C28486F6C653A7465726D696E6174696F6E2C2
310
23022292C22905B82B320222C222022293E3C696628657175616C28486F6C653A7465726D696E6174696F6E2C223022292C486F6C653A64657074682C2222293E406901405014050E836583938376838C815B83672031405C73D3C696628657175616C28486F6C653A7461707065642C223022292C22252563222C486F6C65
310
3A6E6F6D696E616C202220782022293E3C696628657175616C28486F6C653A7461707065642C223022292C486F6C653A6469612C486F6C653A706974636864657363293E203C696628657175616C28486F6C653A7465726D696E6174696F6E2C223022292C22905B82B320222C222022293E3C696628657175616C28486F6C
310
653A7465726D696E6174696F6E2C223022292C486F6C653A64657074682C2222293E4069014051E4090E836583938376838C815B83672032405173D3C535444503A444553433E203C535444503A5354443E40690E836583938376838C815B836720314050C3D3C535444503A444553433E40690240515AAABBA120
360
2332D
330
2332D
360
2332E
330
2332E
360
2332C
330
2332C
360
2332B
360
2332A
330
2332B
330
2332A
 94
        0
  0
ACAD_PROXY_OBJECT
  5
2332F
330
17F
100
AcDbProxyObject
 90
      499
 91
      569
 95
       25
 70
     0
 93
       26
310
5DD02A80
340
42
 94
        0
  0
ACAD_PROXY_OBJECT
  5
23330
330
17F
100
AcDbProxyObject
 90
      499
 91
      570
 95
       25
 70
     0
 93
      250
310
5DD020000000000000A1000000000000002440408F0F9023C3E409A0DCFFFF80
340
58
340
18A8
340
18A9
340
5F
340
60
340
61
340
62
340
63
340
68
340
0
 94
        0
  0
ACAD_PROXY_OBJECT
  5
23331
330
17F
100
AcDbProxyObject
 90
      499
 91
      571
 95
       25
 70
     0
 93
    13889
310
5DD1D003FFFFFFFD030300030CCCCCCCCCCCC250200800030C01030300030CCCCCCCCCCCC250200800030C00050C8DC0955782CC838A83588367014ED1D15395149050D3CB1294138B0C0B23702555E0B320E2A0D620D9CB11D15395149055160B095CCB0A11D1539354D1C819D95B991A5B5E880CCC0A78000C0000000000
310
00000000000000000000010CCCCCCCCCCCC250200800030C010CCCCCCCCCCCC250200800030C020143CF4F111959985D5B1D151A5D1B194F8050A8C8A8365815B8375838B014E51D15395149050D3CB1294138B0C0B2322A0D96056E0DD60E2CB11D15395149055160B095CCB0A11D1539354D1C819D95B991A5B5E880CCC4
310
A78000C000000000000000000000000000000010CCCCCCCCCCCC250200800030C010CCCCCCCCCCCC250200800030C020143CF4F111959985D5B1D151A5D1B194F90D44111409034110541D0C4350F4050E44D03449074510F000141232D24D7C053247454E545241434F2C4A504E2C302C8CB4935F2C47454E54524154582C
310
25732C2847454E4D53472067656E64696D7A20312900010104002214000281464500A608E8A9CA8A482869E5894A09C5860591914588E8A9CA8A482A8B0584AE658508E8A9C9AA68E40CECADCC8D2DAF4406452029E9E9E27B934B3B4B71F1E24A31427A91424A9A12620A7259427B934B3B4B7149624A9A12620A7259424B
310
A32B6949496111116111711149F1E24BA32B69F00808200111A000140560052F47454E545241434F2C4A504E2C302C582C47454E54524154582C25732C2847454E4D53472067656E64696D7A20332900010100002054000280AC80A5E8E8A9CA8A482869E5894A09C586058B2588E8A9CA8A482A8B0584AE658508E8A9C9AA
310
68E40CECADCC8D2DAF4406852000202000040E800050152014BD1D15395149050D3CB1294138B0C0B148B11D15395149055160B095CCB0A11D1539354D1C819D95B991A5B5E880D8A400040400008250000A0507A6029823A2A72A2920A1A79625282716181641E99623A2A72A2920AA2C1612B9961423A2A726A9A39033B2
310
B73234B6BD101B948000808180105A000140A0F4C053047454E545241434F2C4A504E2C302C83D32C47454E54524154582C25732C2847454E4D53472067656E64696D7A203829000101010020F400028248704B5F00A668E8A9CA8A482869E5894A09C58605921C12D7C588E8A9CA8A482A8B0584AE658508E8A9C9AA68E40
310
CECADCC8D2DAF440646052000200080043280005048B4B8A69014CD1D15395149050D3CB1294138B0C0B22D2E29A4B11D15395149055160B095CCB0A11D1539354D1C819D95B991A5B5E880C8C4A4000400100086D0000A09196926BE029923A2A72A2920A1A796252827161816465A49AF9623A2A72A2920AA2C1612B9961
310
423A2A726A9A39033B2B73234B6BD10189480A02620202080043E80005048D8096DA014CD1D15395149050D3CB1294138B0C0B236025B68B11D15395149055160B095CCB0A11D1539354D1C819D95B991A5B5E880C4D0A4000404140280D0000A190687072706CD06C5069D06B0029DA3A2A72A2920A1A7962528271618164
310
1A1C1C9C1B341B141A741AC1623A2A72A2920AA2C1612B9961423A2A726A9A39033B2B73234B6BD10189A94800080820050EA000143A322A0D0E0E4E0D9A0D8A0D3A0D60053D47454E545241434F2C4A504E2C302C8C8A8343839383668362834E83582C47454E54524154582C25732C2847454E4D53472067656E64696D7A
310
2031372900010105002274000281464500A628E8A9CA8A482869E5894A09C5860591914588E8A9CA8A482A8B0584AE658508E8A9C9AA68E40CECADCC8D2DAF440626C52000202080044A8000504909497CA014CD1D15395149050D3CB1294138B0C0B242525F28B11D15395149055160B095CCB0A11D1539354D1C819D95B9
310
91A5B5E880C4E4A400040418008A521E000000000000001CA040C00000000000034408080000000000006881010000000000000D102040000000000001A204080000000000003440818000000000000728103000000000000125020600000000004028A040000000000000034408000000000000004881000000000000000D
310
102000000000000001A204000000000000003440818000000000000508143C0000000000000039408180000000000006881030000000000000D102060000000000001A2040C00000000000034408180000000000006881030000000000000E5020600000000000024A040C0000000000805140800000000000000688100000
310
00000000009102000000000000001A2040000000000000034408180000000000006881030000000000000A10284220000000878000002020000008380000020400000081800000208000000828000002028900000000
340
0
340
0
340
0
340
0
340
180
340
180
 94
        0
  0
ACAD_PROXY_OBJECT
  5
24431
330
24430
100
AcDbProxyObject
 90
      499
 91
      568
 95
       25
 70
     0
 93
     2680
310
5DE0143A0D960E4E0DDA0E32056E0D9C80C4043A013D2525633C486F6C653A63746469613E2078203C486F6C653A637464657074683E20555C503C696628657175616C28486F6C653A7461707065642C223022292C22252563222C486F6C653A6E6F6D696E616C202220782022293E3C696628657175616C28486F6C653A74
310
61707065642C223022292C486F6C653A6469612C486F6C653A706974636864657363293E3C696628657175616C28486F6C653A7461707065642C223122292C22207820222C2222293E3C696628657175616C28486F6C653A7461707065642C223122292C486F6C653A74617064657074682C2222293E203C69662865717561
310
6C28486F6C653A7465726D696E6174696F6E2C223022292C22202F20222C2222293E3C696628657175616C28486F6C653A7465726D696E6174696F6E2C223022292C486F6C653A64657074682C2222293E
  0
ACAD_PROXY_OBJECT
  5
24432
330
24430
100
AcDbProxyObject
 90
      499
 91
      568
 95
       25
 70
     0
 93
     2688
310
5DE0143A0D960E4E0DDA0E32056E0D9C80C4043B013D2525633C486F6C653A63746469613E2078203C486F6C653A6374616E676C653E2525645C503C696628657175616C28486F6C653A7461707065642C223022292C22252563222C486F6C653A6E6F6D696E616C202220782022293E3C696628657175616C28486F6C653A
310
7461707065642C223022292C486F6C653A6469612C486F6C653A706974636864657363293E3C696628657175616C28486F6C653A7461707065642C223122292C22207820222C2222293E3C696628657175616C28486F6C653A7461707065642C223122292C486F6C653A74617064657074682C2222293E203C696628657175
310
616C28486F6C653A7465726D696E6174696F6E2C223022292C22202F20222C2222293E3C696628657175616C28486F6C653A7465726D696E6174696F6E2C223022292C486F6C653A64657074682C2222293E
  0
ACAD_PROXY_OBJECT
  5
24433
330
24430
100
AcDbProxyObject
 90
      499
 91
      568
 95
       25
 70
     0
 93
     2392
310
5DE0143A0D960E4E0DDA0E32056E0D9C80C40416013D3C696628657175616C28486F6C653A7461707065642C223022292C22252563222C486F6C653A6E6F6D696E616C202220782022293E3C696628657175616C28486F6C653A7461707065642C223022292C486F6C653A6469612C486F6C653A706974636864657363293E
310
3C696628657175616C28486F6C653A7461707065642C223122292C22207820222C2222293E3C696628657175616C28486F6C653A7461707065642C223122292C486F6C653A74617064657074682C2222293E203C696628657175616C28486F6C653A7465726D696E6174696F6E2C223022292C22202F20222C2222293E3C69
310
6628657175616C28486F6C653A7465726D696E6174696F6E2C223022292C486F6C653A64657074682C2222293E
  0
ACAD_PROXY_OBJECT
  5
24434
330
24430
100
AcDbProxyObject
 90
      499
 91
      568
 95
       25
 70
     0
 93
      344
310
5DE0143A0D960E4E0DDA0E32056E0D9C80C805173D3C535444503A444553433E203C535444503A5354443E
  0
ACAD_PROXY_OBJECT
  5
24435
330
24430
100
AcDbProxyObject
 90
      499
 91
      568
 95
       25
 70
     0
 93
      256
310
5DE0143A0D960E4E0DDA0E32056E0D9C80C4050C3D3C535444503A444553433E
  0
ACAD_PROXY_OBJECT
  5
2332D
330
23329
100
AcDbProxyObject
 90
      499
 91
      568
 95
       25
 70
     0
 93
     1376
310
5DE0143A0D960E4E0DDA0E32056E0D9C80C405983D3C486F6C653A6469613E3C696628657175616C28486F6C653A7465726D696E6174696F6E2C223022292C2220905B82B320222C22208368838A838B22293E3C696628657175616C28486F6C653A7465726D696E6174696F6E2C223022292C486F6C653A64657074682C22
310
22293E2C203C486F6C653A63746469613E2082B482AE82E882CC905B82B3203C486F6C653A637464657074683E
  0
ACAD_PROXY_OBJECT
  5
2332E
330
23329
100
AcDbProxyObject
 90
      499
 91
      568
 95
       25
 70
     0
 93
     2072
310
5DE0143A0D960E4E0DDA0E32056E0D9C80C405EF3D3C486F6C653A6374616E676C653E252564202525633C486F6C653A63746469613E208E4D8C8A2C203C696628657175616C28486F6C653A7461707065642C223022292C22252563222C486F6C653A6E6F6D696E616C202220782022293E3C696628657175616C28486F6C
310
653A7461707065642C223022292C486F6C653A6469612C486F6C653A706974636864657363293E203C696628657175616C28486F6C653A7465726D696E6174696F6E2C223022292C22905B82B320222C222022293E3C696628657175616C28486F6C653A7465726D696E6174696F6E2C223022292C486F6C653A6465707468
310
2C2222293E
  0
ACAD_PROXY_OBJECT
  5
2332C
330
23329
100
AcDbProxyObject
 90
      499
 91
      568
 95
       25
 70
     0
 93
     1752
310
5DE0143A0D960E4E0DDA0E32056E0D9C80C405C73D3C696628657175616C28486F6C653A7461707065642C223022292C22252563222C486F6C653A6E6F6D696E616C202220782022293E3C696628657175616C28486F6C653A7461707065642C223022292C486F6C653A6469612C486F6C653A706974636864657363293E20
310
3C696628657175616C28486F6C653A7465726D696E6174696F6E2C223022292C22905B82B320222C222022293E3C696628657175616C28486F6C653A7465726D696E6174696F6E2C223022292C486F6C653A64657074682C2222293E
  0
ACAD_PROXY_OBJECT
  5
2332B
330
23329
100
AcDbProxyObject
 90
      499
 91
      568
 95
       25
 70
     0
 93
      344
310
5DE0143A0D960E4E0DDA0E32056E0D9C80C805173D3C535444503A444553433E203C535444503A5354443E
  0
ACAD_PROXY_OBJECT
  5
2332A
330
23329
100
AcDbProxyObject
 90
      499
 91
      568
 95
       25
 70
     0
 93
      256
310
5DE0143A0D960E4E0DDA0E32056E0D9C80C4050C3D3C535444503A444553433E
  0
ENDSEC
  0
EOF
