  0
SECTION
  2
HEADER
  9
$ACADVER
  1
AC1015
  9
$ACADMAINTVER
 70
     6
  9
$DWGCODEPAGE
  3
ANSI_932
  9
$INSBASE
 10
0.0
 20
0.0
 30
0.0
  9
$EXTMIN
 10
-104.6530490960352
 20
-59.66152169690849
 30
-0.0000000000000005
  9
$EXTMAX
 10
121.3176042093372
 20
171.3273078067131
 30
0.0000000000000001
  9
$LIMMIN
 10
0.0
 20
0.0
  9
$LIMMAX
 10
420.0
 20
297.0
  9
$ORTHOMODE
 70
     0
  9
$REGENMODE
 70
     1
  9
$FILLMODE
 70
     1
  9
$QTEXTMODE
 70
     0
  9
$MIRRTEXT
 70
     1
  9
$LTSCALE
 40
1.0
  9
$ATTMODE
 70
     1
  9
$TEXTSIZE
 40
3.0
  9
$TRACEWID
 40
1.0
  9
$TEXTSTYLE
  7
STANDARD
  9
$CLAYER
  8
AM_0
  9
$CELTYPE
  6
ByLayer
  9
$CECOLOR
 62
   256
  9
$CELTSCALE
 40
1.0
  9
$DISPSILH
 70
     0
  9
$DIMSCALE
 40
1.0
  9
$DIMASZ
 40
2.5
  9
$DIMEXO
 40
0.0
  9
$DIMDLI
 40
10.0
  9
$DIMRND
 40
0.0
  9
$DIMDLE
 40
0.0
  9
$DIMEXE
 40
1.0
  9
$DIMTP
 40
0.1
  9
$DIMTM
 40
0.1000000001
  9
$DIMTXT
 40
3.8
  9
$DIMCEN
 40
0.0
  9
$DIMTSZ
 40
0.0
  9
$DIMTOL
 70
     0
  9
$DIMLIM
 70
     0
  9
$DIMTIH
 70
     0
  9
$DIMTOH
 70
     0
  9
$DIMSE1
 70
     0
  9
$DIMSE2
 70
     0
  9
$DIMTAD
 70
     3
  9
$DIMZIN
 70
     1
  9
$DIMBLK
  1
Open30
  9
$DIMASO
 70
     1
  9
$DIMSHO
 70
     1
  9
$DIMPOST
  1

  9
$DIMAPOST
  1
"
  9
$DIMALT
 70
     0
  9
$DIMALTD
 70
     2
  9
$DIMALTF
 40
0.0393701
  9
$DIMLFAC
 40
1.0
  9
$DIMTOFL
 70
     1
  9
$DIMTVP
 40
0.0
  9
$DIMTIX
 70
     0
  9
$DIMSOXD
 70
     0
  9
$DIMSAH
 70
     0
  9
$DIMBLK1
  1

  9
$DIMBLK2
  1

  9
$DIMSTYLE
  2
AM_JIS
  9
$DIMCLRD
 70
   256
  9
$DIMCLRE
 70
   256
  9
$DIMCLRT
 70
     2
  9
$DIMTFAC
 40
0.71
  9
$DIMGAP
 40
1.5
  9
$DIMJUST
 70
     0
  9
$DIMSD1
 70
     0
  9
$DIMSD2
 70
     0
  9
$DIMTOLJ
 70
     0
  9
$DIMTZIN
 70
     8
  9
$DIMALTZ
 70
     0
  9
$DIMALTTZ
 70
     0
  9
$DIMUPT
 70
     0
  9
$DIMDEC
 70
     3
  9
$DIMTDEC
 70
     3
  9
$DIMALTU
 70
     2
  9
$DIMALTTD
 70
     2
  9
$DIMTXSTY
  7
STANDARD
  9
$DIMAUNIT
 70
     1
  9
$DIMADEC
 70
     0
  9
$DIMALTRND
 40
0.0
  9
$DIMAZIN
 70
     2
  9
$DIMDSEP
 70
    46
  9
$DIMATFIT
 70
     3
  9
$DIMFRAC
 70
     0
  9
$DIMLDRBLK
  1
Open30
  9
$DIMLUNIT
 70
     2
  9
$DIMLWD
 70
    -1
  9
$DIMLWE
 70
    -1
  9
$DIMTMOVE
 70
     0
  9
$LUNITS
 70
     2
  9
$LUPREC
 70
     2
  9
$SKETCHINC
 40
1.0
  9
$FILLETRAD
 40
1.5
  9
$AUNITS
 70
     1
  9
$AUPREC
 70
     5
  9
$MENU
  1
.
  9
$ELEVATION
 40
0.0
  9
$PELEVATION
 40
0.0
  9
$THICKNESS
 40
0.0
  9
$LIMCHECK
 70
     0
  9
$CHAMFERA
 40
2.5
  9
$CHAMFERB
 40
2.5
  9
$CHAMFERC
 40
20.0
  9
$CHAMFERD
 40
0.0
  9
$SKPOLY
 70
     0
  9
$TDCREATE
 40
2451943.610431667
  9
$TDUCREATE
 40
2451943.235431667
  9
$TDUPDATE
 40
2455482.439920961
  9
$TDUUPDATE
 40
2455482.064920961
  9
$TDINDWG
 40
0.5679796759
  9
$TDUSRTIMER
 40
0.5679795023
  9
$USRTIMER
 70
     1
  9
$ANGBASE
 50
0.0
  9
$ANGDIR
 70
     0
  9
$PDMODE
 70
     0
  9
$PDSIZE
 40
0.0
  9
$PLINEWID
 40
0.0
  9
$SPLFRAME
 70
     0
  9
$SPLINETYPE
 70
     6
  9
$SPLINESEGS
 70
     8
  9
$HANDSEED
  5
13A17
  9
$SURFTAB1
 70
     6
  9
$SURFTAB2
 70
     6
  9
$SURFTYPE
 70
     6
  9
$SURFU
 70
     6
  9
$SURFV
 70
     6
  9
$UCSBASE
  2

  9
$UCSNAME
  2

  9
$UCSORG
 10
0.0
 20
0.0
 30
0.0
  9
$UCSXDIR
 10
1.0
 20
0.0
 30
0.0
  9
$UCSYDIR
 10
0.0
 20
1.0
 30
0.0
  9
$UCSORTHOREF
  2

  9
$UCSORTHOVIEW
 70
     0
  9
$UCSORGTOP
 10
0.0
 20
0.0
 30
0.0
  9
$UCSORGBOTTOM
 10
0.0
 20
0.0
 30
0.0
  9
$UCSORGLEFT
 10
0.0
 20
0.0
 30
0.0
  9
$UCSORGRIGHT
 10
0.0
 20
0.0
 30
0.0
  9
$UCSORGFRONT
 10
0.0
 20
0.0
 30
0.0
  9
$UCSORGBACK
 10
0.0
 20
0.0
 30
0.0
  9
$PUCSBASE
  2

  9
$PUCSNAME
  2

  9
$PUCSORG
 10
0.0
 20
0.0
 30
0.0
  9
$PUCSXDIR
 10
1.0
 20
0.0
 30
0.0
  9
$PUCSYDIR
 10
0.0
 20
1.0
 30
0.0
  9
$PUCSORTHOREF
  2

  9
$PUCSORTHOVIEW
 70
     0
  9
$PUCSORGTOP
 10
0.0
 20
0.0
 30
0.0
  9
$PUCSORGBOTTOM
 10
0.0
 20
0.0
 30
0.0
  9
$PUCSORGLEFT
 10
0.0
 20
0.0
 30
0.0
  9
$PUCSORGRIGHT
 10
0.0
 20
0.0
 30
0.0
  9
$PUCSORGFRONT
 10
0.0
 20
0.0
 30
0.0
  9
$PUCSORGBACK
 10
0.0
 20
0.0
 30
0.0
  9
$USERI1
 70
     0
  9
$USERI2
 70
     0
  9
$USERI3
 70
     0
  9
$USERI4
 70
     0
  9
$USERI5
 70
     0
  9
$USERR1
 40
0.0
  9
$USERR2
 40
0.0
  9
$USERR3
 40
0.0
  9
$USERR4
 40
0.0
  9
$USERR5
 40
0.0
  9
$WORLDVIEW
 70
     1
  9
$SHADEDGE
 70
     3
  9
$SHADEDIF
 70
    70
  9
$TILEMODE
 70
     1
  9
$MAXACTVP
 70
    48
  9
$PINSBASE
 10
0.0
 20
0.0
 30
0.0
  9
$PLIMCHECK
 70
     0
  9
$PEXTMIN
 10
1.000000000000000E+20
 20
1.000000000000000E+20
 30
1.000000000000000E+20
  9
$PEXTMAX
 10
-1.000000000000000E+20
 20
-1.000000000000000E+20
 30
-1.000000000000000E+20
  9
$PLIMMIN
 10
0.0
 20
0.0
  9
$PLIMMAX
 10
420.0
 20
297.0
  9
$UNITMODE
 70
     0
  9
$VISRETAIN
 70
     1
  9
$PLINEGEN
 70
     0
  9
$PSLTSCALE
 70
     1
  9
$TREEDEPTH
 70
  3020
  9
$CMLSTYLE
  2
Standard
  9
$CMLJUST
 70
     0
  9
$CMLSCALE
 40
20.0
  9
$PROXYGRAPHICS
 70
     1
  9
$MEASUREMENT
 70
     1
  9
$CELWEIGHT
370
    -1
  9
$ENDCAPS
280
     0
  9
$JOINSTYLE
280
     0
  9
$LWDISPLAY
290
     0
  9
$INSUNITS
 70
     4
  9
$HYPERLINKBASE
  1

  9
$STYLESHEET
  1
sei_cad.ctb
  9
$XEDIT
290
     1
  9
$CEPSNTYPE
380
     0
  9
$PSTYLEMODE
290
     1
  9
$FINGERPRINTGUID
  2
{C77AB3BE-9CA2-11D3-BAF3-006094EB760E}
  9
$VERSIONGUID
  2
{B0ED986C-4F7D-407D-9B64-0E87A06E69DD}
  9
$EXTNAMES
290
     1
  9
$PSVPSCALE
 40
0.0
  9
$OLESTARTUP
290
     0
  0
ENDSEC
  0
SECTION
  2
CLASSES
  0
CLASS
  1
ACDBDICTIONARYWDFLT
  2
AcDbDictionaryWithDefault
  3
ObjectDBX Classes
 90
        0
280
     0
281
     0
  0
CLASS
  1
ACDBPLACEHOLDER
  2
AcDbPlaceHolder
  3
ObjectDBX Classes
 90
        0
280
     0
281
     0
  0
CLASS
  1
LAYOUT
  2
AcDbLayout
  3
ObjectDBX Classes
 90
        0
280
     0
281
     0
  0
CLASS
  1
ACME_DOCUMENT
  2
AcMeDbDoc
  3
AcMeServices
 90
        0
280
     1
281
     0
  0
CLASS
  1
ACMESCOPE
  2
AcMeScope
  3
AcMeServices
 90
        0
280
     1
281
     0
  0
CLASS
  1
ACMECOMMANDHISTORY
  2
AcMeCommandHistory
  3
AcMeServices
 90
        0
280
     1
281
     0
  0
CLASS
  1
DICTIONARYVAR
  2
AcDbDictionaryVar
  3
ObjectDBX Classes
 90
        0
280
     0
281
     0
  0
CLASS
  1
ACIMSYSVARMAN
  2
AcImSysVarManager
  3
AcMeServices
 90
        0
280
     1
281
     0
  0
CLASS
  1
ACIMREALSYSVAR
  2
AcImRealSysVar
  3
AcMeServices
 90
        0
280
     1
281
     0
  0
CLASS
  1
ACIMINTSYSVAR
  2
AcImIntSysVar
  3
AcMeServices
 90
        0
280
     1
281
     0
  0
CLASS
  1
ACMEDRAWINGMAN
  2
AcMeDrawingMan
  3
AcMeServices
 90
        0
280
     1
281
     0
  0
CLASS
  1
ACMEVIEW
  2
AcMeView
  3
AcMeServices
 90
        0
280
     1
281
     0
  0
CLASS
  1
ACDBENTITYCACHE
  2
AcMeEntityCache
  3
AcMeServices
 90
        0
280
     1
281
     0
  0
CLASS
  1
GSMANAGER
  2
AcMeGSManager
  3
AcMeServices
 90
        0
280
     1
281
     0
  0
CLASS
  1
AMDTINTERNALREACTOR
  2
AmdtInternalReactor
  3
AcMeServices
 90
        0
280
     1
281
     0
  0
CLASS
  1
ACMESTATEMGR
  2
AcMeStateMgr
  3
AcMeServices
 90
        0
280
     1
281
     0
  0
CLASS
  1
ACME_DATABASE
  2
AcMeDbDatabase
  3
AcMeServices
 90
        0
280
     1
281
     0
  0
CLASS
  1
ACRFINSADJUSTERMGR
  2
AcRfInsAdjusterMgr
  3
AcMeServices
 90
        0
280
     1
281
     0
  0
CLASS
  1
AMGSETTINGSOBJ
  2
AmgSettingsObj
  3
"AcadM|Product Description: AutoCAD Mechanical 2000|Company: Autodesk"
 90
        0
280
     1
281
     0
  0
CLASS
  1
AMGOBJPROPCFG
  2
AmgObjPropCfg
  3
"AmgLay|Product Description: AutoCAD Mechanical 2000|Company: Autodesk"
 90
        1
280
     1
281
     0
  0
CLASS
  1
ACMDATADICTIONARY
  2
AcmDataDictionary
  3
"AcmSymBB|Product Description: AutoCAD Mechanical 2004 DX|Company: Autodesk"
 90
        0
280
     1
281
     0
  0
CLASS
  1
ACMDATAENTRYBLOCK
  2
AcmDataEntryBlock
  3
"AcmSymBB|Product Description: AutoCAD Mechanical 2004 DX|Company: Autodesk"
 90
        0
280
     1
281
     0
  0
CLASS
  1
ACIMSTRSYSVAR
  2
AcImStrSysVar
  3
AcMeServices
 90
        0
280
     1
281
     0
  0
CLASS
  1
ACAMGFILTERDAT
  2
AcAmgFilterDat
  3
"AcadM|Product Description: AutoCAD Mechanical 2000|Company: Autodesk"
 90
        0
280
     1
281
     0
  0
CLASS
  1
LAYER_INDEX
  2
AcDbLayerIndex
  3
ObjectDBX Classes
 90
        0
280
     0
281
     0
  0
CLASS
  1
IDBUFFER
  2
AcDbIdBuffer
  3
ObjectDBX Classes
 90
        0
280
     0
281
     0
  0
CLASS
  1
ACMSTANDARDJIS
  2
AcmStandardJIS
  3
"Amdt_StdImp|Product Description: AutoCAD Mechanical 2004 DX|Company: Autodesk"
 90
        0
280
     1
281
     0
  0
CLASS
  1
ACMSURFSTANDARDJIS
  2
AcmSurfTextStdJIS
  3
"Amdt_StdImp|Product Description: AutoCAD Mechanical 2004 DX|Company: Autodesk"
 90
        0
280
     1
281
     0
  0
CLASS
  1
ACMFCFSTANDARDJIS
  2
AcmFCFStdJIS
  3
"Amdt_StdImp|Product Description: AutoCAD Mechanical 2004 DX|Company: Autodesk"
 90
        0
280
     1
281
     0
  0
CLASS
  1
ACMWELDSTANDARDJIS
  2
AcmWeldingStdJIS
  3
"Amdt_StdImp|Product Description: AutoCAD Mechanical 2004 DX|Company: Autodesk"
 90
        0
280
     1
281
     0
  0
CLASS
  1
ACMIDSTANDARDJIS
  2
AcmIdStdJIS
  3
"Amdt_StdImp|Product Description: AutoCAD Mechanical 2004 DX|Company: Autodesk"
 90
        0
280
     1
281
     0
  0
CLASS
  1
ACMDATUMSTANDARDJIS
  2
AcmDatumStdJIS
  3
"Amdt_StdImp|Product Description: AutoCAD Mechanical 2004 DX|Company: Autodesk"
 90
        0
280
     1
281
     0
  0
CLASS
  1
ACMBOMSTANDARDJIS
  2
AcmBOMStdJIS
  3
"Amdt_StdImp|Product Description: AutoCAD Mechanical 2004 DX|Company: Autodesk"
 90
        0
280
     1
281
     0
  0
CLASS
  1
AMDTNOTE
  2
AmdtNote
  3
"AcmSymBB|Product Description: AutoCAD Mechanical 2004 DX|Company: Autodesk"
 90
     1023
280
     1
281
     1
  0
CLASS
  1
ACGREFMASTER
  2
AcGrefMaster
  3
AcAttribServices
 90
        0
280
     1
281
     0
  0
CLASS
  1
ACGREFACADMASTER
  2
AcGrefacadMaster
  3
AcGrefServices
 90
        0
280
     1
281
     0
  0
CLASS
  1
AMIMASTER
  2
AmiMaster
  3
AmiServices
 90
        0
280
     1
281
     0
  0
CLASS
  1
ACAMGTITLESTD
  2
AcAmgTitleStd
  3
"TITLEAPP"
 90
        0
280
     1
281
     0
  0
CLASS
  1
ACMDETAILSTANDARDJIS
  2
AmdtDetailSymStdJIS
  3
"Amdt_StdImp|Product Description: AutoCAD Mechanical 2004 DX|Company: Autodesk"
 90
        0
280
     1
281
     0
  0
CLASS
  1
ACMSECTIONSTANDARDJIS
  2
AmdtSectionSymStdJIS
  3
"Amdt_StdImp|Product Description: AutoCAD Mechanical 2004 DX|Company: Autodesk"
 90
        0
280
     1
281
     0
  0
CLASS
  1
ACMCENTERLINESTANDARDJIS
  2
AmdtCenterLineStdJIS
  3
"Amdt_StdImp|Product Description: AutoCAD Mechanical 2004 DX|Company: Autodesk"
 90
        0
280
     1
281
     0
  0
CLASS
  1
ACMNOTESTANDARDJIS
  2
AmdtNoteStdJIS
  3
"Amdt_StdImp|Product Description: AutoCAD Mechanical 2004 DX|Company: Autodesk"
 90
        0
280
     1
281
     0
  0
CLASS
  1
ACAMGLAYSTD
  2
AcAmgLayStd
  3
"AcAmgLayStd|Product Description: AutoCAD Mechanical 2000|Company: Autodesk"
 90
        0
280
     1
281
     0
  0
CLASS
  1
ACAMGDIMSTD
  2
AcAmgDimStd
  3
"AcAmgDimStd|Product Description: AutoCAD Mechanical 2000|Company: Autodesk"
 90
        0
280
     1
281
     0
  0
CLASS
  1
AMDTFORMULAUPDATEDISPATCHER
  2
AmdtFormulaUpdateDispatcher
  3
AcMeServices
 90
        0
280
     1
281
     0
  0
CLASS
  1
DUMMY
  2
AcDbLongTransaction
  3
DUMMY
 90
        0
280
     0
281
     0
  0
CLASS
  1
LWPOLYLINE
  2
AcDbPolyline
  3
AutoCAD 2000
 90
        0
280
     0
281
     1
  0
CLASS
  1
HATCH
  2
AcDbHatch
  3
AutoCAD 2000
 90
        0
280
     0
281
     1
  0
CLASS
  1
XRECORD
  2
AcDbXrecord
  3
AutoCAD 2000
 90
        0
280
     0
281
     0
  0
CLASS
  1
DUMMY
  2
AcDbLongTransaction
  3
DUMMY
 90
        0
280
     0
281
     0
  0
CLASS
  1
LWPOLYLINE
  2
AcDbPolyline
  3
AutoCAD 2000
 90
        0
280
     0
281
     1
  0
CLASS
  1
HATCH
  2
AcDbHatch
  3
AutoCAD 2000
 90
        0
280
     0
281
     1
  0
CLASS
  1
XRECORD
  2
AcDbXrecord
  3
AutoCAD 2000
 90
        0
280
     0
281
     0
  0
CLASS
  1
ACDBCIRCARCRES
  2
AcDbCircArcRes
  3
AcGrefServices
 90
        0
280
     1
281
     0
  0
CLASS
  1
ACDBLINERES
  2
AcDbLineRes
  3
AcGrefServices
 90
        0
280
     1
281
     0
  0
CLASS
  1
ACDBELLIPSERES
  2
AcDbEllipseRes
  3
AcGrefServices
 90
        0
280
     1
281
     0
  0
CLASS
  1
DUMMY
  2
AcDbLongTransaction
  3
DUMMY
 90
        0
280
     0
281
     0
  0
CLASS
  1
LWPOLYLINE
  2
AcDbPolyline
  3
AutoCAD 2000
 90
        0
280
     0
281
     1
  0
CLASS
  1
HATCH
  2
AcDbHatch
  3
AutoCAD 2000
 90
        0
280
     0
281
     1
  0
CLASS
  1
XRECORD
  2
AcDbXrecord
  3
AutoCAD 2000
 90
        0
280
     0
281
     0
  0
CLASS
  1
TABLESTYLE
  2
AcDbTableStyle
  3
ObjectDBX Classes
 90
     2047
280
     0
281
     0
  0
CLASS
  1
AM_DRAWING_MGR
  2
AcDmDwgMgr
  3
AcMechDwgViewMgmt
 90
        0
280
     1
281
     0
  0
CLASS
  1
AM_DWG_DOCUMENT
  2
AcDmDwgDocument
  3
AcMechDwgViewMgmt
 90
        0
280
     1
281
     0
  0
CLASS
  1
AM_DWG_SHEET
  2
AcDmSheet
  3
AcMechDwgViewMgmt
 90
        0
280
     1
281
     0
  0
CLASS
  1
AM_VIEWDIMPARMAP
  2
AcDmViewDimParMap
  3
AcMechDwgViewMgmt
 90
        0
280
     1
281
     0
  0
CLASS
  1
AM_DWGMGR_NAME
  2
AcDmDwgMgrName
  3
AcMechDwgViewMgmt
 90
        0
280
     1
281
     0
  0
CLASS
  1
AMDTMENUSTATEMGR
  2
AmdtMenuStateMgr
  3
McadcomServices
 90
        0
280
     1
281
     0
  0
CLASS
  1
AMDTMCOMMENUSTATE
  2
AmdtMcomMenuState
  3
McadcomServices
 90
        0
280
     1
281
     0
  0
CLASS
  1
MAPIAMMOUDLE
  2
MApiAmModule
  3
MApiAmServices
 90
        0
280
     1
281
     0
  0
CLASS
  1
AMDTADMENUSTATE
  2
AmdtAdMenuState
  3
DesignerServices
 90
        0
280
     1
281
     0
  0
CLASS
  1
ADAPPL
  2
AcAdAppl
  3
DesignerServices
 90
        0
280
     1
281
     0
  0
CLASS
  1
DEPMGR
  2
AcAdDepMgr
  3
DesignerServices
 90
        0
280
     1
281
     0
  0
CLASS
  1
PARAMMGR
  2
AcAdParamMgr
  3
DesignerServices
 90
        0
280
     1
281
     0
  0
CLASS
  1
PARAMSCOPE
  2
AcAdParamScope
  3
DesignerServices
 90
        0
280
     1
281
     0
  0
CLASS
  1
NAMEDAPPL
  2
AcAdNamedAppl
  3
DesignerServices
 90
        0
280
     1
281
     0
  0
CLASS
  1
AMDTDMMENUSTATE
  2
AmdtDmMenuState
  3
AcMechDwgViewMgmt
 90
        0
280
     1
281
     0
  0
CLASS
  1
AMDTAMMENUSTATE
  2
AmdtAmMenuState
  3
DesignerAssemblies
 90
        0
280
     1
281
     0
  0
CLASS
  1
ACAMPROJECT
  2
AcAmProject
  3
DesignerAssemblies
 90
        0
280
     1
281
     0
  0
CLASS
  1
ACAMGRCOMPDEF
  2
AcAmGrCompDef
  3
DesignerAssemblies
 90
        0
280
     1
281
     0
  0
CLASS
  1
ACCMCONTEXT
  2
AcCmContext
  3
DesignerAssemblies
 90
        0
280
     1
281
     0
  0
CLASS
  1
ACAMCOMPDEF
  2
AcAmCompDef
  3
DesignerAssemblies
 90
        0
280
     1
281
     0
  0
CLASS
  1
ACAMCOMPDEFMGR
  2
AcAmCompDefMgr
  3
DesignerAssemblies
 90
        0
280
     1
281
     0
  0
CLASS
  1
AMCONTEXTMGR
  2
AcAmContextMgr
  3
DesignerAssemblies
 90
        0
280
     1
281
     0
  0
CLASS
  1
ACAMCONTEXTMODELER
  2
AcAmContextModeler
  3
DesignerAssemblies
 90
        0
280
     1
281
     0
  0
CLASS
  1
CATALOGSTATE
  2
AcAmCatalogState
  3
DesignerAssemblies
 90
        0
280
     1
281
     0
  0
CLASS
  1
ACAMGRCOMPDEFSET
  2
AcAmGrCompDefSet
  3
DesignerAssemblies
 90
        0
280
     1
281
     0
  0
CLASS
  1
AMDTBROWSERDBTAB
  2
AmdtBrowserDbTab
  3
McadcomServices
 90
        0
280
     1
281
     0
  0
CLASS
  1
CBROWSERAPPOBJECT
  2
CBrowserAppObject
  3
McadcomServices
 90
        0
280
     1
281
     0
  0
CLASS
  1
DM_PLACEHOLDER
  2
AcDmSelsetPlaceholder
  3
AcMechDwgViewMgmt
 90
        0
280
     1
281
     0
  0
CLASS
  1
ACMSTANDARDISO
  2
AcmStandardISO
  3
"Amdt_StdImp|Product Description: AutoCAD Mechanical 2004 DX|Company: Autodesk"
 90
        0
280
     1
281
     0
  0
CLASS
  1
AMDTEDGESTANDARDISO13715
  2
AmdtEdgeStdISO13715
  3
"Amdt_StdImp|Product Description: AutoCAD Mechanical 2004 DX|Company: Autodesk"
 90
        0
280
     1
281
     0
  0
CLASS
  1
ACMSURFSTANDARDISO
  2
AcmSurfTextStdISO
  3
"Amdt_StdImp|Product Description: AutoCAD Mechanical 2004 DX|Company: Autodesk"
 90
        0
280
     1
281
     0
  0
CLASS
  1
ACMFCFSTANDARDISO
  2
AcmFCFStdISO
  3
"Amdt_StdImp|Product Description: AutoCAD Mechanical 2004 DX|Company: Autodesk"
 90
        0
280
     1
281
     0
  0
CLASS
  1
ACMWELDSTANDARDISO
  2
AcmWeldingStdISO
  3
"Amdt_StdImp|Product Description: AutoCAD Mechanical 2004 DX|Company: Autodesk"
 90
        0
280
     1
281
     0
  0
CLASS
  1
ACMIDSTANDARDISO
  2
AcmIdStdISO
  3
"Amdt_StdImp|Product Description: AutoCAD Mechanical 2004 DX|Company: Autodesk"
 90
        0
280
     1
281
     0
  0
CLASS
  1
ACMDATUMSTANDARDISO
  2
AcmDatumStdISO
  3
"Amdt_StdImp|Product Description: AutoCAD Mechanical 2004 DX|Company: Autodesk"
 90
        0
280
     1
281
     0
  0
CLASS
  1
ACMBOMSTANDARDISO
  2
AcmBOMStdISO
  3
"Amdt_StdImp|Product Description: AutoCAD Mechanical 2004 DX|Company: Autodesk"
 90
        0
280
     1
281
     0
  0
CLASS
  1
ACMDETAILSTANDARDISO
  2
AmdtDetailSymStdISO
  3
"Amdt_StdImp|Product Description: AutoCAD Mechanical 2004 DX|Company: Autodesk"
 90
        0
280
     1
281
     0
  0
CLASS
  1
ACMSECTIONSTANDARDISO
  2
AmdtSectionSymStdISO
  3
"Amdt_StdImp|Product Description: AutoCAD Mechanical 2004 DX|Company: Autodesk"
 90
        0
280
     1
281
     0
  0
CLASS
  1
ACMCENTERLINESTANDARDISO
  2
AmdtCenterLineStdISO
  3
"Amdt_StdImp|Product Description: AutoCAD Mechanical 2004 DX|Company: Autodesk"
 90
        0
280
     1
281
     0
  0
CLASS
  1
ACMTHREADLINESTANDARDISO
  2
AmdtThreadLineStdISO
  3
"Amdt_StdImp|Product Description: AutoCAD Mechanical 2004 DX|Company: Autodesk"
 90
        0
280
     1
281
     0
  0
CLASS
  1
ACMNOTESTANDARDISO
  2
AmdtNoteStdISO
  3
"Amdt_StdImp|Product Description: AutoCAD Mechanical 2004 DX|Company: Autodesk"
 90
        0
280
     1
281
     0
  0
CLASS
  1
AMDTNOTETEMPLATEDB
  2
AmdtNoteTemplateDB
  3
AMDT_STDIMP_MODULE_NAME
 90
        0
280
     1
281
     0
  0
CLASS
  1
ACAMGHOLECHARTSTDISO
  2
AcAmgHoleChartStdISO
  3
ACMSYMBB_MODULE_NAME
 90
        0
280
     1
281
     0
  0
CLASS
  1
ACMTHREADLINESTANDARDJIS
  2
AmdtThreadLineStdJIS
  3
"Amdt_StdImp|Product Description: AutoCAD Mechanical 2004 DX|Company: Autodesk"
 90
        0
280
     1
281
     0
  0
CLASS
  1
ACAMGHOLECHARTSTDJIS
  2
AcAmgHoleChartStdJIS
  3
ACMSYMBB_MODULE_NAME
 90
        0
280
     1
281
     0
  0
CLASS
  1
SORTENTSTABLE
  2
AcDbSortentsTable
  3
ObjectDBX Classes
 90
        0
280
     0
281
     0
  0
CLASS
  1
ACMSTANDARDANSI
  2
AcmStandardANSI
  3
"Amdt_StdImp|Product Description: AutoCAD Mechanical 2004 DX|Company: Autodesk"
 90
        0
280
     1
281
     0
  0
CLASS
  1
ACMSURFSTANDARDANSI
  2
AcmSurfTextStdANSI
  3
"Amdt_StdImp|Product Description: AutoCAD Mechanical 2004 DX|Company: Autodesk"
 90
        0
280
     1
281
     0
  0
CLASS
  1
ACMFCFSTANDARDANSI
  2
AcmFCFStdANSI
  3
"Amdt_StdImp|Product Description: AutoCAD Mechanical 2004 DX|Company: Autodesk"
 90
        0
280
     1
281
     0
  0
CLASS
  1
ACMWELDSTANDARDANSI
  2
AcmWeldingStdANSI
  3
"Amdt_StdImp|Product Description: AutoCAD Mechanical 2004 DX|Company: Autodesk"
 90
        0
280
     1
281
     0
  0
CLASS
  1
ACMIDSTANDARDANSI
  2
AcmIdStdANSI
  3
"Amdt_StdImp|Product Description: AutoCAD Mechanical 2004 DX|Company: Autodesk"
 90
        0
280
     1
281
     0
  0
CLASS
  1
ACMDATUMSTANDARDANSI
  2
AcmDatumStdANSI
  3
"Amdt_StdImp|Product Description: AutoCAD Mechanical 2004 DX|Company: Autodesk"
 90
        0
280
     1
281
     0
  0
CLASS
  1
ACMBOMSTANDARDANSI
  2
AcmBOMStdANSI
  3
"Amdt_StdImp|Product Description: AutoCAD Mechanical 2004 DX|Company: Autodesk"
 90
        0
280
     1
281
     0
  0
CLASS
  1
ACMDETAILSTANDARDANSI
  2
AmdtDetailSymStdANSI
  3
"Amdt_StdImp|Product Description: AutoCAD Mechanical 2004 DX|Company: Autodesk"
 90
        0
280
     1
281
     0
  0
CLASS
  1
ACMSECTIONSTANDARDANSI
  2
AmdtSectionSymStdANSI
  3
"Amdt_StdImp|Product Description: AutoCAD Mechanical 2004 DX|Company: Autodesk"
 90
        0
280
     1
281
     0
  0
CLASS
  1
ACMCENTERLINESTANDARDANSI
  2
AmdtCenterLineStdANSI
  3
"Amdt_StdImp|Product Description: AutoCAD Mechanical 2004 DX|Company: Autodesk"
 90
        0
280
     1
281
     0
  0
CLASS
  1
ACMTHREADLINESTANDARDANSI
  2
AmdtThreadLineStdANSI
  3
"Amdt_StdImp|Product Description: AutoCAD Mechanical 2004 DX|Company: Autodesk"
 90
        0
280
     1
281
     0
  0
CLASS
  1
ACMNOTESTANDARDANSI
  2
AmdtNoteStdANSI
  3
"Amdt_StdImp|Product Description: AutoCAD Mechanical 2004 DX|Company: Autodesk"
 90
        0
280
     1
281
     0
  0
CLASS
  1
ACAMGHOLECHARTSTDANSI
  2
AcAmgHoleChartStdANSI
  3
ACMSYMBB_MODULE_NAME
 90
        0
280
     1
281
     0
  0
ENDSEC
  0
SECTION
  2
TABLES
  0
TABLE
  2
VPORT
  5
8
330
0
100
AcDbSymbolTable
 70
     3
  0
VPORT
  5
13A10
330
8
100
AcDbSymbolTableRecord
100
AcDbViewportTableRecord
  2
*Active
 70
     0
 10
0.0
 20
0.0
 11
1.0
 21
1.0
 12
79.44093324869351
 22
62.00415997285393
 13
0.0
 23
0.0
 14
2.5
 24
2.5
 15
10.0
 25
10.0
 16
0.0
 26
0.0
 36
1.0
 17
0.0
 27
0.0
 37
0.0
 40
608.9203966521177
 41
1.51114922813036
 42
50.0
 43
0.0
 44
0.0
 50
0.0
 51
0.0
 71
    16
 72
  2000
 73
     1
 74
     3
 75
     0
 76
     0
 77
     0
 78
     0
281
     0
 65
     1
110
0.0
120
0.0
130
0.0
111
1.0
121
0.0
131
0.0
112
0.0
122
1.0
132
0.0
 79
     0
146
0.0
  0
ENDTAB
  0
TABLE
  2
LTYPE
  5
5
330
0
100
AcDbSymbolTable
 70
    18
  0
LTYPE
  5
14
330
5
100
AcDbSymbolTableRecord
100
AcDbLinetypeTableRecord
  2
ByBlock
 70
     0
  3

 72
    65
 73
     0
 40
0.0
  0
LTYPE
  5
15
330
5
100
AcDbSymbolTableRecord
100
AcDbLinetypeTableRecord
  2
ByLayer
 70
     0
  3

 72
    65
 73
     0
 40
0.0
  0
LTYPE
  5
16
330
5
100
AcDbSymbolTableRecord
100
AcDbLinetypeTableRecord
  2
Continuous
 70
     0
  3
Solid line
 72
    65
 73
     0
 40
0.0
  0
LTYPE
  5
43
330
5
100
AcDbSymbolTableRecord
100
AcDbLinetypeTableRecord
  2
AM_ISO02W050
 70
     0
  3
__ __ __ __ __ __ __ __ __ __ __ __ __ __ __
 72
    65
 73
     2
 40
7.5
 49
6.0
 74
     0
 49
-1.5
 74
     0
  0
LTYPE
  5
44
330
5
100
AcDbSymbolTableRecord
100
AcDbLinetypeTableRecord
  2
AM_ISO08W050
 70
     0
  3
____ . ____ . ____ . ____ . ____ . ____ . ____
 72
    65
 73
     4
 40
18.0
 49
12.0
 74
     0
 49
-1.5
 74
     0
 49
3.0
 74
     0
 49
-1.5
 74
     0
  0
LTYPE
  5
45
330
5
100
AcDbSymbolTableRecord
100
AcDbLinetypeTableRecord
  2
AM_ISO09W050
 70
     0
  3
_____ . . _____ . . _____ . . ____ .. ____
 72
    65
 73
     6
 40
22.5
 49
12.0
 74
     0
 49
-1.5
 74
     0
 49
3.0
 74
     0
 49
-1.5
 74
     0
 49
3.0
 74
     0
 49
-1.5
 74
     0
  0
LTYPE
  5
46
330
5
100
AcDbSymbolTableRecord
100
AcDbLinetypeTableRecord
  2
Amconstr
 70
     0
  3
_______________________
 72
    65
 73
     2
 40
9999.0
 49
9999.0
 74
     0
 49
0.0
 74
     0
  0
LTYPE
  5
47
330
5
100
AcDbSymbolTableRecord
100
AcDbLinetypeTableRecord
  2
AM_ISO02W050x2
 70
     0
  3
 _ _ _ _ _ _ _ _ _ _ _ _
 72
    65
 73
     2
 40
3.75
 49
3.0
 74
     0
 49
-0.75
 74
     0
  0
LTYPE
  5
48
330
5
100
AcDbSymbolTableRecord
100
AcDbLinetypeTableRecord
  2
AM_ISO08W050x2
 70
     0
  3
__ . __ . __ . __ . __ . __
 72
    65
 73
     4
 40
9.0
 49
6.0
 74
     0
 49
-0.75
 74
     0
 49
1.5
 74
     0
 49
-0.75
 74
     0
  0
LTYPE
  5
4B
330
5
100
AcDbSymbolTableRecord
100
AcDbLinetypeTableRecord
  2
Amzigzag
 70
     0
  3
/\/-/\/-/\/-/\/-/\/-/\/
 72
    65
 73
     2
 40
11.0001
 49
0.0001
 74
     4
 75
   135
340
4A
 46
0.04
 50
0.0
 44
0.0
 45
0.0
 49
-11.0
 74
     0
  0
LTYPE
  5
188
330
5
100
AcDbSymbolTableRecord
100
AcDbLinetypeTableRecord
  2
ACJISTGB
 70
     0
  3
__ . . __ . .
 72
    65
 73
     6
 40
9.0
 49
4.0
 74
     0
 49
-1.0
 74
     0
 49
1.0
 74
     0
 49
-1.0
 74
     0
 49
1.0
 74
     0
 49
-1.0
 74
     0
  0
LTYPE
  5
189
330
5
100
AcDbSymbolTableRecord
100
AcDbLinetypeTableRecord
  2
ACJISTGL
 70
     0
  3
_ _ _ _ _
 72
    65
 73
     2
 40
3.0
 49
2.0
 74
     0
 49
-1.0
 74
     0
  0
LTYPE
  5
652
330
5
100
AcDbSymbolTableRecord
100
AcDbLinetypeTableRecord
  2
CENTER
 70
     0
  3
____ _ ____ _ ____ _ ____ _ ____ _ ____ _ ____
 72
    65
 73
     4
 40
17.5
 49
13.0
 74
     0
 49
-1.5
 74
     0
 49
1.5
 74
     0
 49
-1.5
 74
     0
  0
LTYPE
  5
12AB
330
5
100
AcDbSymbolTableRecord
100
AcDbLinetypeTableRecord
  2
HIDDEN
 70
     0
  3
Hidden __ __ __ __ __ __ __ __ __ __ __ __ __ _
 72
    65
 73
     2
 40
0.375
 49
0.25
 74
     0
 49
-0.125
 74
     0
  0
LTYPE
  5
12AC
330
5
100
AcDbSymbolTableRecord
100
AcDbLinetypeTableRecord
  2
PHANTOM2
 70
     0
  3
Phantom (.5x) ___ _ _ ___ _ _ ___ _ _ ___ _ _
 72
    65
 73
     6
 40
1.25
 49
0.625
 74
     0
 49
-0.125
 74
     0
 49
0.125
 74
     0
 49
-0.125
 74
     0
 49
0.125
 74
     0
 49
-0.125
 74
     0
  0
LTYPE
  5
9A44
330
5
100
AcDbSymbolTableRecord
100
AcDbLinetypeTableRecord
  2
ACISOWELD
 70
     0
  3
_ _ _ _ _
 72
    65
 73
     2
 40
2.0
 49
2.0
 74
     0
 49
-1.0
 74
     0
  0
LTYPE
  5
9A45
330
5
100
AcDbSymbolTableRecord
100
AcDbLinetypeTableRecord
  2
ACISOTGB
 70
     0
  3
__ . . __ . .
 72
    65
 73
     6
 40
9.0
 49
4.0
 74
     0
 49
-1.0
 74
     0
 49
1.0
 74
     0
 49
-1.0
 74
     0
 49
1.0
 74
     0
 49
-1.0
 74
     0
  0
LTYPE
  5
9A46
330
5
100
AcDbSymbolTableRecord
100
AcDbLinetypeTableRecord
  2
ACISOTGL
 70
     0
  3
_ _ _ _ _
 72
    65
 73
     2
 40
3.0
 49
2.0
 74
     0
 49
-1.0
 74
     0
  0
LTYPE
  5
117F0
330
5
100
AcDbSymbolTableRecord
100
AcDbLinetypeTableRecord
  2
ACANSTGB
 70
     0
  3
__ . . __ . .
 72
    65
 73
     6
 40
0.35433070866
 49
0.15748031496
 74
     0
 49
-0.03937007874
 74
     0
 49
0.03937007874
 74
     0
 49
-0.03937007874
 74
     0
 49
0.03937007874
 74
     0
 49
-0.03937007874
 74
     0
  0
LTYPE
  5
117F1
330
5
100
AcDbSymbolTableRecord
100
AcDbLinetypeTableRecord
  2
ACANSTGL
 70
     0
  3
_ _ _ _ _
 72
    65
 73
     2
 40
0.11811023622
 49
0.07874015748
 74
     0
 49
-0.03937007874
 74
     0
  0
ENDTAB
  0
TABLE
  2
LAYER
  5
2
102
{ACAD_XDICTIONARY
360
9B25
102
}
330
0
100
AcDbSymbolTable
 70
     8
  0
LAYER
  5
10
330
2
100
AcDbSymbolTableRecord
100
AcDbLayerTableRecord
  2
0
 70
     0
 62
     7
  6
Continuous
370
    -3
390
F
  0
LAYER
  5
7D
330
2
100
AcDbSymbolTableRecord
100
AcDbLayerTableRecord
  2
AM_5
 70
     0
 62
     3
  6
Continuous
370
    13
390
F
  0
LAYER
  5
7F
330
2
100
AcDbSymbolTableRecord
100
AcDbLayerTableRecord
  2
Defpoints
 70
     0
 62
     7
  6
Continuous
290
     0
370
    -3
390
F
  0
LAYER
  5
12B1
330
2
100
AcDbSymbolTableRecord
100
AcDbLayerTableRecord
  2
AM_0
 70
     0
 62
     7
  6
Continuous
370
    30
390
F
  0
LAYER
  5
1896
330
2
100
AcDbSymbolTableRecord
100
AcDbLayerTableRecord
  2
AM_7
 70
     0
 62
     4
  6
AM_ISO08W050
370
    13
390
F
  0
LAYER
  5
2C94
330
2
100
AcDbSymbolTableRecord
100
AcDbLayerTableRecord
  2
AM_11
 70
     0
 62
     3
  6
AM_ISO09W050
370
    13
390
F
  0
ENDTAB
  0
TABLE
  2
STYLE
  5
3
330
0
100
AcDbSymbolTable
 70
     8
  0
STYLE
  5
11
330
3
100
AcDbSymbolTableRecord
100
AcDbTextStyleTableRecord
  2
STANDARD
 70
     0
 40
0.0
 41
1.0
 50
0.0
 71
     0
 42
3.0
  3
ISOCP.SHX
  4
EXTFONT.SHX
  0
STYLE
  5
4A
330
3
100
AcDbSymbolTableRecord
100
AcDbTextStyleTableRecord
  2

 70
     1
 40
0.0
 41
1.0
 50
0.0
 71
     0
 42
2.5
  3
ltypeshp.shx
  4

  0
STYLE
  5
180
330
3
100
AcDbSymbolTableRecord
100
AcDbTextStyleTableRecord
  2
ACJISTS
 70
     0
 40
1.0
 41
1.0
 50
0.0
 71
     0
 42
2.5
  3
isocp.shx
  4
bigfont.shx
  0
STYLE
  5
187
330
3
100
AcDbSymbolTableRecord
100
AcDbTextStyleTableRecord
  2
ACJISGDT
 70
     0
 40
0.0
 41
1.0
 50
0.0
 71
     0
 42
2.5
  3
amgdt.shx
  4

  0
STYLE
  5
9A36
330
3
100
AcDbSymbolTableRecord
100
AcDbTextStyleTableRecord
  2
ACISOTS
 70
     0
 40
1.0
 41
1.0
 50
0.0
 71
     0
 42
3.15
  3
isocp.shx
  4
extfont.shx
  0
STYLE
  5
9A43
330
3
100
AcDbSymbolTableRecord
100
AcDbTextStyleTableRecord
  2
ACISOGDT
 70
     0
 40
0.0
 41
1.0
 50
0.0
 71
     0
 42
3.15
  3
amgdt.shx
  4

  0
STYLE
  5
117F4
330
3
100
AcDbSymbolTableRecord
100
AcDbTextStyleTableRecord
  2
ACANSTS
 70
     0
 40
1.0
 41
1.0
 50
0.0
 71
     0
 42
0.7453317137339326
  3
romans.shx
  4
extfont.shx
  0
STYLE
  5
117F5
330
3
100
AcDbSymbolTableRecord
100
AcDbTextStyleTableRecord
  2
ACANSGDT
 70
     0
 40
0.0
 41
1.0
 50
0.0
 71
     0
 42
0.7453317137339326
  3
amgdtans.shx
  4

  0
ENDTAB
  0
TABLE
  2
VIEW
  5
6
330
0
100
AcDbSymbolTable
 70
     6
  0
VIEW
  5
A30
330
6
100
AcDbSymbolTableRecord
100
AcDbViewTableRecord
  2
AM_VIEW1
 70
     0
 40
148.5
 10
108.6929657794677
 20
222.75
 41
217.3859315589354
 11
0.0
 21
0.0
 31
1.0
 12
0.0
 22
0.0
 32
0.0
 42
50.0
 43
0.0
 44
0.0
 50
0.0
 71
    16
281
     0
 72
     0
  0
VIEW
  5
A31
330
6
100
AcDbSymbolTableRecord
100
AcDbViewTableRecord
  2
AM_VIEW2
 70
     0
 40
148.5
 10
311.3070342205323
 20
222.75
 41
217.3859315589354
 11
0.0
 21
0.0
 31
1.0
 12
0.0
 22
0.0
 32
0.0
 42
50.0
 43
0.0
 44
0.0
 50
0.0
 71
    16
281
     0
 72
     0
  0
VIEW
  5
A32
330
6
100
AcDbSymbolTableRecord
100
AcDbViewTableRecord
  2
AM_VIEW3
 70
     0
 40
148.5
 10
108.6929657794677
 20
74.25
 41
217.3859315589354
 11
0.0
 21
0.0
 31
1.0
 12
0.0
 22
0.0
 32
0.0
 42
50.0
 43
0.0
 44
0.0
 50
0.0
 71
    16
281
     0
 72
     0
  0
VIEW
  5
A33
330
6
100
AcDbSymbolTableRecord
100
AcDbViewTableRecord
  2
AM_VIEW4
 70
     0
 40
148.5
 10
311.3070342205323
 20
74.25
 41
217.3859315589354
 11
0.0
 21
0.0
 31
1.0
 12
0.0
 22
0.0
 32
0.0
 42
50.0
 43
0.0
 44
0.0
 50
0.0
 71
    16
281
     0
 72
     0
  0
VIEW
  5
A34
330
6
100
AcDbSymbolTableRecord
100
AcDbViewTableRecord
  2
AM_VIEW5
 70
     0
 40
148.5
 10
210.0
 20
148.5
 41
217.3859315589353
 11
0.0
 21
0.0
 31
1.0
 12
0.0
 22
0.0
 32
0.0
 42
50.0
 43
0.0
 44
0.0
 50
0.0
 71
    16
281
     0
 72
     0
  0
VIEW
  5
A35
330
6
100
AcDbSymbolTableRecord
100
AcDbViewTableRecord
  2
AM_VIEW6
 70
     0
 40
296.99703
 10
210.0
 20
148.5
 41
434.7675153992395
 11
0.0
 21
0.0
 31
1.0
 12
0.0
 22
0.0
 32
0.0
 42
50.0
 43
0.0
 44
0.0
 50
0.0
 71
    16
281
     0
 72
     0
  0
ENDTAB
  0
TABLE
  2
UCS
  5
7
330
0
100
AcDbSymbolTable
 70
     0
  0
ENDTAB
  0
TABLE
  2
APPID
  5
9
330
0
100
AcDbSymbolTable
 70
    47
  0
APPID
  5
12
330
9
100
AcDbSymbolTableRecord
100
AcDbRegAppTableRecord
  2
ACAD
 70
     0
  0
APPID
  5
2C
330
9
100
AcDbSymbolTableRecord
100
AcDbRegAppTableRecord
  2
MCAD_NO_VIS
 70
     0
  0
APPID
  5
2D
330
9
100
AcDbSymbolTableRecord
100
AcDbRegAppTableRecord
  2
ACAD_TEMP_GRAPHIC
 70
     0
  0
APPID
  5
B9
330
9
100
AcDbSymbolTableRecord
100
AcDbRegAppTableRecord
  2
GENIUS_GENDTOL_13
 70
     0
  0
APPID
  5
359
330
9
100
AcDbSymbolTableRecord
100
AcDbRegAppTableRecord
  2
GENIUS_GENREC_14
 70
     0
  0
APPID
  5
35A
330
9
100
AcDbSymbolTableRecord
100
AcDbRegAppTableRecord
  2
GENIUS_GENODEF_13
 70
     0
  0
APPID
  5
35B
330
9
100
AcDbSymbolTableRecord
100
AcDbRegAppTableRecord
  2
GENIUS_GENOBJ-N-REC_13
 70
     0
  0
APPID
  5
667
330
9
100
AcDbSymbolTableRecord
100
AcDbRegAppTableRecord
  2
GENIUS_GENCFG_13
 70
     0
1001
GENIUS_GENCFG0_13
1000
GEN
  0
APPID
  5
668
330
9
100
AcDbSymbolTableRecord
100
AcDbRegAppTableRecord
  2
GENIUS_GENCFG0_13
 70
     0
1001
GENIUS_GENCFG_13
1071
1094015123
1000
668
1000
GEN
1070
     0
  0
APPID
  5
669
330
9
100
AcDbSymbolTableRecord
100
AcDbRegAppTableRecord
  2
GENIUS_GENCFG1_13
 70
     0
  0
APPID
  5
66A
330
9
100
AcDbSymbolTableRecord
100
AcDbRegAppTableRecord
  2
GENIUS_GENCFG2_13
 70
     0
  0
APPID
  5
66B
330
9
100
AcDbSymbolTableRecord
100
AcDbRegAppTableRecord
  2
GENIUS_GENCFG3_13
 70
     0
  0
APPID
  5
66C
330
9
100
AcDbSymbolTableRecord
100
AcDbRegAppTableRecord
  2
GENIUS_GENCFG4_13
 70
     0
  0
APPID
  5
A76
330
9
100
AcDbSymbolTableRecord
100
AcDbRegAppTableRecord
  2
GENIUS_GENBLLY_14
 70
     0
  0
APPID
  5
A77
330
9
100
AcDbSymbolTableRecord
100
AcDbRegAppTableRecord
  2
GENIUS_GENOBJ-N-CEN_13
 70
     0
  0
APPID
  5
A83
330
9
100
AcDbSymbolTableRecord
100
AcDbRegAppTableRecord
  2
GENIUS_GENTRA_14
 70
     0
  0
APPID
  5
A8D
330
9
100
AcDbSymbolTableRecord
100
AcDbRegAppTableRecord
  2
GENIUS_GENOBJ-N-TIT_13
 70
     0
  0
APPID
  5
A8E
330
9
100
AcDbSymbolTableRecord
100
AcDbRegAppTableRecord
  2
GENIUS_GENTITLE_13
 70
     0
  0
APPID
  5
A8F
330
9
100
AcDbSymbolTableRecord
100
AcDbRegAppTableRecord
  2
GENIUS_GENOENT_13
 70
     0
  0
APPID
  5
A90
330
9
100
AcDbSymbolTableRecord
100
AcDbRegAppTableRecord
  2
GENIUS_GENOREF_13
 70
     0
  0
APPID
  5
A91
330
9
100
AcDbSymbolTableRecord
100
AcDbRegAppTableRecord
  2
GENIUS_GENOLIS_13
 70
     0
  0
APPID
  5
A92
330
9
100
AcDbSymbolTableRecord
100
AcDbRegAppTableRecord
  2
GENIUS_GENZVEED_13
 70
     0
  0
APPID
  5
A93
330
9
100
AcDbSymbolTableRecord
100
AcDbRegAppTableRecord
  2
GENIUS_GENSCREG_15
 70
     0
  0
APPID
  5
A94
330
9
100
AcDbSymbolTableRecord
100
AcDbRegAppTableRecord
  2
GENIUS_GENOBJ-N-SDF_13
 70
     0
  0
APPID
  5
12B5
330
9
100
AcDbSymbolTableRecord
100
AcDbRegAppTableRecord
  2
GENIUS_GENOBJ-N-RSBK_13
 70
     0
  0
APPID
  5
12B6
330
9
100
AcDbSymbolTableRecord
100
AcDbRegAppTableRecord
  2
GENIUS_GENOBJ-N-LIB_13
 70
     0
  0
APPID
  5
12B7
330
9
100
AcDbSymbolTableRecord
100
AcDbRegAppTableRecord
  2
GENIUS_GENSCALE_13
 70
     0
  0
APPID
  5
12B8
330
9
100
AcDbSymbolTableRecord
100
AcDbRegAppTableRecord
  2
GENIUS_GENOBJ-N-HTC_13
 70
     0
  0
APPID
  5
12B9
330
9
100
AcDbSymbolTableRecord
100
AcDbRegAppTableRecord
  2
GENIUS_GENHATCH_13
 70
     0
  0
APPID
  5
189B
330
9
100
AcDbSymbolTableRecord
100
AcDbRegAppTableRecord
  2
BASE_TYPE
 70
     0
  0
APPID
  5
189C
330
9
100
AcDbSymbolTableRecord
100
AcDbRegAppTableRecord
  2
GENIUS_GENOBJ-N-FIL_13
 70
     0
  0
APPID
  5
23D0
330
9
100
AcDbSymbolTableRecord
100
AcDbRegAppTableRecord
  2
ACATTRIBSERVICES
 70
     0
  0
APPID
  5
264C
330
9
100
AcDbSymbolTableRecord
100
AcDbRegAppTableRecord
  2
GENIUS_GENSCREG_13
 70
     0
  0
APPID
  5
26E5
330
9
100
AcDbSymbolTableRecord
100
AcDbRegAppTableRecord
  2
CONTENTBLOCKICON
 70
     0
  0
APPID
  5
2747
330
9
100
AcDbSymbolTableRecord
100
AcDbRegAppTableRecord
  2
GENIUS_GENFIL_13
 70
     0
  0
APPID
  5
2748
330
9
100
AcDbSymbolTableRecord
100
AcDbRegAppTableRecord
  2
GENIUS_GENOBJ-N-CHA_13
 70
     0
  0
APPID
  5
2749
330
9
100
AcDbSymbolTableRecord
100
AcDbRegAppTableRecord
  2
GENIUS_GENDIMSH_14
 70
     0
  0
APPID
  5
274A
330
9
100
AcDbSymbolTableRecord
100
AcDbRegAppTableRecord
  2
GENIUS_GENOBJ-N-DIM_13
 70
     0
  0
APPID
  5
274B
330
9
100
AcDbSymbolTableRecord
100
AcDbRegAppTableRecord
  2
GENIUS_GENDIM_13
 70
     0
  0
APPID
  5
2A08
330
9
100
AcDbSymbolTableRecord
100
AcDbRegAppTableRecord
  2
GENIUS_GENOBJ-N-CRS_13
 70
     0
  0
APPID
  5
9A0B
330
9
100
AcDbSymbolTableRecord
100
AcDbRegAppTableRecord
  2
AD_DRAW
 70
     0
  0
APPID
  5
9A29
330
9
100
AcDbSymbolTableRecord
100
AcDbRegAppTableRecord
  2
DESIGNERASSEMBLIES
 70
     0
  0
APPID
  5
9A2F
330
9
100
AcDbSymbolTableRecord
100
AcDbRegAppTableRecord
  2
ACADM_DIM_EDIT
 70
     0
  0
APPID
  5
9A30
330
9
100
AcDbSymbolTableRecord
100
AcDbRegAppTableRecord
  2
AMDT_DM_ADJ
 70
     0
  0
APPID
  5
9B24
330
9
100
AcDbSymbolTableRecord
100
AcDbRegAppTableRecord
  2
GENIUS_GENCEN_19
 70
     0
  0
APPID
  5
A33D
330
9
100
AcDbSymbolTableRecord
100
AcDbRegAppTableRecord
  2
ACAD_DSTYLE_DIMTEXT_FILL
 70
     0
  0
APPID
  5
A33E
330
9
100
AcDbSymbolTableRecord
100
AcDbRegAppTableRecord
  2
ACAD_PSEXT
 70
     0
  0
ENDTAB
  0
TABLE
  2
DIMSTYLE
  5
A
330
0
100
AcDbSymbolTable
 70
    16
100
AcDbDimStyleTable
  0
DIMSTYLE
105
58
330
A
100
AcDbSymbolTableRecord
100
AcDbDimStyleTableRecord
  2
AM_JIS
 70
     0
  4
"
 41
2.5
 42
0.0
 43
10.0
 44
1.0
 47
0.1
 48
0.1000000001
 73
     0
 74
     0
 77
     3
 78
     1
 79
     2
140
3.8
141
0.0
143
0.0393701
146
0.71
147
1.5
172
     1
176
   256
177
   256
178
     2
179
     2
271
     3
272
     3
275
     1
283
     0
284
     8
340
11
341
59
342
59
371
    -1
372
    -1
  0
DIMSTYLE
105
5F
330
A
100
AcDbSymbolTableRecord
100
AcDbDimStyleTableRecord
  2
AM_JIS$3
 70
     0
  4
"
 41
2.5
 42
0.0
 43
10.0
 44
1.0
 47
0.1
 48
0.1000000001
 73
     0
 77
     3
 78
     1
 79
     2
140
3.8
141
0.0
143
0.0393701
146
0.71
147
1.5
172
     1
176
   256
177
   256
178
     2
179
     2
271
     3
272
     3
275
     1
283
     0
284
     8
288
     1
289
     0
340
11
341
59
342
59
371
    -1
372
    -1
  0
DIMSTYLE
105
60
330
A
100
AcDbSymbolTableRecord
100
AcDbDimStyleTableRecord
  2
AM_JIS$4
 70
     0
  4
"
 41
2.5
 42
0.0
 43
10.0
 44
1.0
 47
0.1
 48
0.1000000001
 73
     0
 77
     3
 78
     1
 79
     2
140
3.8
141
0.0
143
0.0393701
146
0.71
147
1.5
172
     1
176
   256
177
   256
178
     2
179
     2
271
     3
272
     3
275
     1
283
     0
284
     8
288
     1
289
     0
340
11
341
59
342
59
371
    -1
372
    -1
  0
DIMSTYLE
105
61
330
A
100
AcDbSymbolTableRecord
100
AcDbDimStyleTableRecord
  2
AM_JIS$6
 70
     0
  4
"
 41
2.5
 42
0.0
 43
10.0
 44
1.0
 47
0.1
 48
0.1000000001
 73
     0
 74
     0
 78
     1
 79
     2
140
3.8
141
0.0
143
0.0393701
146
0.71
147
1.5
172
     1
176
   256
177
   256
178
     2
179
     2
271
     3
272
     3
275
     1
283
     0
284
     8
340
11
341
59
342
59
371
    -1
372
    -1
  0
DIMSTYLE
105
62
330
A
100
AcDbSymbolTableRecord
100
AcDbDimStyleTableRecord
  2
AM_JIS$7
 70
     0
  4
"
 41
2.5
 42
0.0
 43
10.0
 44
1.0
 47
0.1
 48
0.1000000001
 73
     0
 74
     0
 77
     3
 78
     1
 79
     2
140
5.0
141
0.0
143
0.0393701
146
0.71
147
1.5
172
     1
176
   256
177
   256
178
     2
179
     2
271
     3
272
     3
275
     1
283
     0
284
     8
340
11
341
59
342
59
371
    -1
372
    -1
  0
DIMSTYLE
105
63
330
A
100
AcDbSymbolTableRecord
100
AcDbDimStyleTableRecord
  2
AM_JIS$SF
 70
     0
  4
"
 41
2.5
 42
1.0
 43
10.0
 44
1.0
 47
0.1
 48
0.1
 73
     0
 74
     0
 75
     1
 76
     1
 77
     3
 78
     8
 79
     2
140
3.5
141
0.0
143
0.0393701
146
0.71
147
1.5
176
   256
177
   256
178
     2
271
     2
272
     3
274
     4
340
11
341
59
342
59
343
59
344
59
371
    -1
372
    -1
  0
DIMSTYLE
105
68
330
A
100
AcDbSymbolTableRecord
100
AcDbDimStyleTableRecord
  2
AM_JIS$SH
 70
     0
  4
"
 41
2.5
 42
1.0
 43
10.0
 44
1.0
 47
0.1
 48
0.1
 73
     0
 74
     0
 75
     1
 76
     1
 77
     3
 78
     8
 79
     2
140
3.5
141
0.0
143
0.0393701
144
2.0
146
0.71
147
1.5
173
     1
176
   256
177
   256
178
     2
271
     2
272
     3
274
     4
340
11
341
59
342
59
343
64
344
59
371
    -1
372
    -1
  0
DIMSTYLE
105
65F
330
A
100
AcDbSymbolTableRecord
100
AcDbDimStyleTableRecord
  2
STANDARD
 70
     0
340
11
  0
DIMSTYLE
105
1899
102
{ACAD_REACTORS
330
10FA2
330
10FA3
330
1114A
330
11154
102
}
330
A
100
AcDbSymbolTableRecord
100
AcDbDimStyleTableRecord
  2
AM_JIS$0
 70
     0
  4
"
 41
2.5
 42
0.0
 43
10.0
 44
1.0
 47
0.1
 48
0.1000000001
 73
     0
 74
     0
 77
     3
 78
     1
 79
     2
140
3.8
141
0.0
143
0.0393701
146
0.71
147
1.5
172
     1
176
     3
177
     3
178
     2
271
     3
272
     3
275
     1
283
     0
284
     8
289
     0
340
11
341
59
342
59
371
    13
372
    13
  0
DIMSTYLE
105
189A
330
A
100
AcDbSymbolTableRecord
100
AcDbDimStyleTableRecord
  2
AM_JIS$2
 70
     0
  4
"
 41
2.5
 42
0.0
 43
10.0
 44
1.0
 47
0.1
 48
0.1000000001
 73
     0
 74
     0
 77
     3
 78
     1
 79
     2
140
3.8
141
0.0
143
0.0393701
146
0.71
147
1.5
172
     1
176
     3
177
     3
178
     2
179
     3
271
     3
272
     3
275
     1
283
     0
284
     8
289
     0
340
11
341
59
342
59
371
    13
372
    13
  0
DIMSTYLE
105
117F6
330
A
100
AcDbSymbolTableRecord
100
AcDbDimStyleTableRecord
  2
AM_ANSI
 70
     0
  4
mm
 41
0.1
 42
0.05
 43
0.5
 44
0.1
 47
0.1
 48
0.1
 78
     7
 79
     2
140
0.12
141
0.0
146
0.71
147
0.06
176
   256
177
   256
178
     2
274
     4
284
     7
340
11
371
    -1
372
    -1
  0
DIMSTYLE
105
117F7
330
A
100
AcDbSymbolTableRecord
100
AcDbDimStyleTableRecord
  2
AM_ANSI$3
 70
     0
  4
mm
 41
0.1
 42
0.05
 43
0.5
 44
0.1
 47
0.1
 48
0.1
 78
     7
 79
     2
140
0.12
141
0.0
146
0.71
147
0.06
176
   256
177
   256
178
     2
274
     4
284
     7
288
     1
289
     0
340
11
371
    -1
372
    -1
  0
DIMSTYLE
105
117F8
330
A
100
AcDbSymbolTableRecord
100
AcDbDimStyleTableRecord
  2
AM_ANSI$4
 70
     0
  4
mm
 41
0.1
 42
0.05
 43
0.5
 44
0.1
 47
0.1
 48
0.1
 78
     7
 79
     2
140
0.12
141
0.0
146
0.71
147
0.06
176
   256
177
   256
178
     2
274
     4
284
     7
288
     1
289
     0
340
11
371
    -1
372
    -1
  0
DIMSTYLE
105
117F9
330
A
100
AcDbSymbolTableRecord
100
AcDbDimStyleTableRecord
  2
AM_ANSI$7
 70
     0
  4
mm
 41
0.1
 42
0.05
 43
0.5
 44
0.1
 47
0.1
 48
0.1
 78
     7
 79
     2
140
0.24
141
0.0
146
0.71
147
0.06
176
   256
177
   256
178
     2
274
     4
284
     7
340
11
371
    -1
372
    -1
  0
DIMSTYLE
105
117FA
330
A
100
AcDbSymbolTableRecord
100
AcDbDimStyleTableRecord
  2
AM_ANSI$SF
 70
     0
  4
mm
 41
0.1
 42
0.05
 43
0.5
 44
0.1
 47
0.1
 48
0.1
 75
     1
 76
     1
 78
     7
 79
     2
140
0.12
141
0.0
146
0.71
147
0.06
176
   256
177
   256
178
     2
274
     4
284
     7
340
11
371
    -1
372
    -1
  0
DIMSTYLE
105
117FB
330
A
100
AcDbSymbolTableRecord
100
AcDbDimStyleTableRecord
  2
AM_ANSI$SH
 70
     0
  4
mm
 41
0.1
 42
0.05
 43
0.5
 44
0.1
 47
0.1
 48
0.1
 75
     1
 76
     1
 78
     7
 79
     2
140
0.12
141
0.0
146
0.71
147
0.06
173
     1
176
   256
177
   256
178
     2
274
     4
284
     7
340
11
343
64
371
    -1
372
    -1
  0
ENDTAB
  0
TABLE
  2
BLOCK_RECORD
  5
1
330
0
100
AcDbSymbolTable
 70
     8
  0
BLOCK_RECORD
  5
1F
102
{ACAD_XDICTIONARY
360
165
102
}
330
1
100
AcDbSymbolTableRecord
100
AcDbBlockTableRecord
  2
*Model_Space
340
22
  0
BLOCK_RECORD
  5
1B
102
{ACAD_XDICTIONARY
360
264F
102
}
330
1
100
AcDbSymbolTableRecord
100
AcDbBlockTableRecord
  2
*Paper_Space
340
1E
  0
BLOCK_RECORD
  5
23
102
{ACAD_XDICTIONARY
360
2651
102
}
330
1
100
AcDbSymbolTableRecord
100
AcDbBlockTableRecord
  2
*Paper_Space0
340
26
  0
BLOCK_RECORD
  5
59
330
1
100
AcDbSymbolTableRecord
100
AcDbBlockTableRecord
  2
_Open30
340
0
102
{BLKREFS
331
139A8
331
139A9
331
139B1
331
139B2
331
139BA
331
139BB
331
139C3
331
139C4
102
}
  0
BLOCK_RECORD
  5
64
330
1
100
AcDbSymbolTableRecord
100
AcDbBlockTableRecord
  2
GENAXEH
340
0
  0
BLOCK_RECORD
  5
9A20
330
1
100
AcDbSymbolTableRecord
100
AcDbBlockTableRecord
  2
*U3
340
0
  0
BLOCK_RECORD
  5
1130B
330
1
100
AcDbSymbolTableRecord
100
AcDbBlockTableRecord
  2
*D4
340
0
  0
BLOCK_RECORD
  5
11317
330
1
100
AcDbSymbolTableRecord
100
AcDbBlockTableRecord
  2
*D5
340
0
  0
BLOCK_RECORD
  5
113C7
330
1
100
AcDbSymbolTableRecord
100
AcDbBlockTableRecord
  2
*D6
340
0
  0
BLOCK_RECORD
  5
113FF
330
1
100
AcDbSymbolTableRecord
100
AcDbBlockTableRecord
  2
*D7
340
0
  0
ENDTAB
  0
ENDSEC
  0
SECTION
  2
BLOCKS
  0
BLOCK
  5
20
330
1F
100
AcDbEntity
  8
0
100
AcDbBlockBegin
  2
*Model_Space
 70
     0
 71
     0
 10
0.0
 20
0.0
 30
0.0
  3
*Model_Space
  1

  0
ENDBLK
  5
21
330
1F
100
AcDbEntity
  8
0
100
AcDbBlockEnd
  0
BLOCK
  5
1C
330
1B
100
AcDbEntity
 67
     1
  8
0
100
AcDbBlockBegin
  2
*Paper_Space
 70
     0
 71
     0
 10
0.0
 20
0.0
 30
0.0
  3
*Paper_Space
  1

  0
ENDBLK
  5
1D
330
1B
100
AcDbEntity
 67
     1
  8
0
100
AcDbBlockEnd
  0
BLOCK
  5
24
330
23
100
AcDbEntity
  8
0
100
AcDbBlockBegin
  2
*Paper_Space0
 70
     0
 71
     0
 10
0.0
 20
0.0
 30
0.0
  3
*Paper_Space0
  1

  0
ENDBLK
  5
25
330
23
100
AcDbEntity
  8
0
100
AcDbBlockEnd
  0
BLOCK
  5
2F22
330
59
100
AcDbEntity
  8
0
100
AcDbBlockBegin
  2
_Open30
 70
     0
 71
     0
 10
0.0
 20
0.0
 30
0.0
  3
_Open30
  1

  0
LINE
  5
2F1F
330
59
100
AcDbEntity
  8
0
 62
     0
370
    -2
100
AcDbLine
 10
-1.0
 20
0.26794919
 30
0.0
 11
0.0
 21
0.0
 31
0.0
  0
LINE
  5
2F20
330
59
100
AcDbEntity
  8
0
 62
     0
370
    -2
100
AcDbLine
 10
0.0
 20
0.0
 30
0.0
 11
-1.0
 21
-0.26794919
 31
0.0
  0
LINE
  5
2F21
330
59
100
AcDbEntity
  8
0
 62
     0
370
    -2
100
AcDbLine
 10
0.0
 20
0.0
 30
0.0
 11
-1.0
 21
0.0
 31
0.0
  0
ENDBLK
  5
2F23
330
59
100
AcDbEntity
  8
0
100
AcDbBlockEnd
  0
BLOCK
  5
2F2E
330
64
100
AcDbEntity
  8
0
100
AcDbBlockBegin
  2
GENAXEH
 70
     0
 71
     0
 10
0.0
 20
0.0
 30
0.0
  3
GENAXEH
  1

  0
LINE
  5
2F2D
330
64
100
AcDbEntity
  8
0
100
AcDbLine
 10
-1.0
 20
0.0
 30
0.0
 11
1.0
 21
0.0
 31
0.0
  0
ENDBLK
  5
2F2F
330
64
100
AcDbEntity
  8
0
100
AcDbBlockEnd
  0
BLOCK
  5
9A21
330
9A20
100
AcDbEntity
  8
0
100
AcDbBlockBegin
  2
*U3
 70
     1
 71
     0
 10
0.0
 20
0.0
 30
0.0
  3
*U3
  1

  0
ENDBLK
  5
9A22
330
9A20
100
AcDbEntity
  8
0
100
AcDbBlockEnd
  0
BLOCK
  5
115B6
330
1130B
100
AcDbEntity
  8
0
100
AcDbBlockBegin
  2
*D4
 70
     1
 71
     0
 10
0.0
 20
0.0
 30
0.0
  3
*D4
  1

  0
LINE
  5
139A3
330
1130B
100
AcDbEntity
  8
AM_5
 62
     3
370
    13
100
AcDbLine
 10
0.4671831527710992
 20
95.93574479832763
 30
0.0
 11
-9.49057759741946
 21
95.93574479832763
 31
0.0
  0
LINE
  5
139A4
330
1130B
100
AcDbEntity
  8
AM_5
 62
     3
370
    13
100
AcDbLine
 10
0.0074655778330452
 20
91.93876398671468
 30
0.0
 11
-9.490577597419462
 21
91.93876398671468
 31
0.0
  0
LINE
  5
139A5
330
1130B
100
AcDbEntity
  8
AM_5
 62
     3
370
    13
100
AcDbLine
 10
-8.490577597419462
 20
89.43876398671468
 30
0.0
 11
-8.490577597419462
 21
86.93876398671468
 31
0.0
  0
LINE
  5
139A6
330
1130B
100
AcDbEntity
  8
AM_5
 62
     3
370
    13
100
AcDbLine
 10
-8.49057759741946
 20
98.43574479832763
 30
0.0
 11
-8.490577597419456
 21
109.638736924312
 31
0.0
  0
LINE
  5
139A7
330
1130B
100
AcDbEntity
  8
AM_5
 62
     3
370
    13
100
AcDbLine
 10
-8.490577597419462
 20
91.93876398671468
 30
0.0
 11
-8.49057759741946
 21
95.93574479832763
 31
0.0
  0
INSERT
  5
139A8
330
1130B
100
AcDbEntity
  8
AM_5
 62
     3
370
    13
100
AcDbBlockReference
  2
_Open30
 10
-8.490577597419462
 20
91.93876398671468
 30
0.0
 41
2.5
 42
2.5
 43
2.5
 50
90.0
  0
INSERT
  5
139A9
330
1130B
100
AcDbEntity
  8
AM_5
 62
     3
370
    13
100
AcDbBlockReference
  2
_Open30
 10
-8.49057759741946
 20
95.93574479832763
 30
0.0
 41
2.5
 42
2.5
 43
2.5
 50
270.0
  0
MTEXT
  5
139AA
330
1130B
100
AcDbEntity
  8
AM_5
 62
     2
100
AcDbMText
 10
-11.89057759741947
 20
105.2872408613198
 30
0.0
 40
3.8
 41
0.0
 71
     5
 72
     1
  1
4.0\P
 11
6.123031769111886E-17
 21
1.0
 31
0.0
 73
     1
 44
1.0
  0
POINT
  5
139AB
330
1130B
100
AcDbEntity
  8
Defpoints
 62
     0
100
AcDbPoint
 10
0.4671831527710992
 20
95.93574479832763
 30
0.0
  0
POINT
  5
139AC
330
1130B
100
AcDbEntity
  8
Defpoints
 62
     0
100
AcDbPoint
 10
0.0074655778330452
 20
91.93876398671468
 30
0.0
  0
POINT
  5
139AD
330
1130B
100
AcDbEntity
  8
Defpoints
 62
     0
100
AcDbPoint
 10
-8.490577597419462
 20
91.93876398671468
 30
0.0
  0
ENDBLK
  5
115B7
330
1130B
100
AcDbEntity
  8
0
100
AcDbBlockEnd
  0
BLOCK
  5
115B8
330
11317
100
AcDbEntity
  8
0
100
AcDbBlockBegin
  2
*D5
 70
     1
 71
     0
 10
0.0
 20
0.0
 30
0.0
  3
*D5
  1

  0
LINE
  5
139AE
330
11317
100
AcDbEntity
  8
AM_5
 62
     3
370
    13
100
AcDbLine
 10
0.0074655778330452
 20
91.93876398671468
 30
0.0
 11
0.0074655778330434
 21
62.14656622881287
 31
0.0
  0
LINE
  5
139AF
330
11317
100
AcDbEntity
  8
AM_5
 62
     3
370
    13
100
AcDbLine
 10
65.00746557783248
 20
105.4387639867146
 30
0.0
 11
65.00746557783248
 21
62.14656622881287
 31
0.0
  0
LINE
  5
139B0
330
11317
100
AcDbEntity
  8
AM_5
 62
     3
370
    13
100
AcDbLine
 10
2.507465577833044
 20
63.14656622881287
 30
0.0
 11
62.50746557783248
 21
63.14656622881287
 31
0.0
  0
INSERT
  5
139B1
330
11317
100
AcDbEntity
  8
AM_5
 62
     3
370
    13
100
AcDbBlockReference
  2
_Open30
 10
0.0074655778330435
 20
63.14656622881287
 30
0.0
 41
2.5
 42
2.5
 43
2.5
 50
180.0
  0
INSERT
  5
139B2
330
11317
100
AcDbEntity
  8
AM_5
 62
     3
370
    13
100
AcDbBlockReference
  2
_Open30
 10
65.00746557783248
 20
63.14656622881287
 30
0.0
 41
2.5
 42
2.5
 43
2.5
  0
MTEXT
  5
139B3
330
11317
100
AcDbEntity
  8
AM_5
 62
     2
100
AcDbMText
 10
32.50746557783276
 20
66.54656622881288
 30
0.0
 40
3.8
 41
0.0
 71
     5
 72
     1
  1
65
 73
     1
 44
1.0
  0
POINT
  5
139B4
330
11317
100
AcDbEntity
  8
Defpoints
 62
     0
100
AcDbPoint
 10
0.0074655778330452
 20
91.93876398671468
 30
0.0
  0
POINT
  5
139B5
330
11317
100
AcDbEntity
  8
Defpoints
 62
     0
100
AcDbPoint
 10
65.00746557783248
 20
105.4387639867146
 30
0.0
  0
POINT
  5
139B6
330
11317
100
AcDbEntity
  8
Defpoints
 62
     0
100
AcDbPoint
 10
65.00746557783248
 20
63.14656622881287
 30
0.0
  0
ENDBLK
  5
115B9
330
11317
100
AcDbEntity
  8
0
100
AcDbBlockEnd
  0
BLOCK
  5
115DA
330
113C7
100
AcDbEntity
  8
0
100
AcDbBlockBegin
  2
*D6
 70
     1
 71
     0
 10
0.0
 20
0.0
 30
0.0
  3
*D6
  1

  0
LINE
  5
139B7
330
113C7
100
AcDbEntity
  8
AM_5
 62
     3
370
    13
100
AcDbLine
 10
65.00746557783253
 20
168.4387639867146
 30
0.0
 11
121.3176042093372
 21
168.4387639867146
 31
0.0
  0
LINE
  5
139B8
330
113C7
100
AcDbEntity
  8
AM_5
 62
     3
370
    13
100
AcDbLine
 10
65.00746557783248
 20
105.4387639867146
 30
0.0
 11
121.3176042093372
 21
105.4387639867146
 31
0.0
  0
LINE
  5
139B9
330
113C7
100
AcDbEntity
  8
AM_5
 62
     3
370
    13
100
AcDbLine
 10
120.3176042093372
 20
165.9387639867146
 30
0.0
 11
120.3176042093372
 21
107.9387639867146
 31
0.0
  0
INSERT
  5
139BA
330
113C7
100
AcDbEntity
  8
AM_5
 62
     3
370
    13
100
AcDbBlockReference
  2
_Open30
 10
120.3176042093372
 20
168.4387639867146
 30
0.0
 41
2.5
 42
2.5
 43
2.5
 50
90.0
  0
INSERT
  5
139BB
330
113C7
100
AcDbEntity
  8
AM_5
 62
     3
370
    13
100
AcDbBlockReference
  2
_Open30
 10
120.3176042093372
 20
105.4387639867146
 30
0.0
 41
2.5
 42
2.5
 43
2.5
 50
270.0
  0
MTEXT
  5
139BC
330
113C7
100
AcDbEntity
  8
AM_5
 62
     2
100
AcDbMText
 10
116.9176042093372
 20
136.9387639867146
 30
0.0
 40
3.8
 41
0.0
 71
     5
 72
     1
  1
%%c63
 11
6.123031769111886E-17
 21
1.0
 31
0.0
 73
     1
 44
1.0
  0
POINT
  5
139BD
330
113C7
100
AcDbEntity
  8
Defpoints
 62
     0
100
AcDbPoint
 10
65.00746557783253
 20
168.4387639867146
 30
0.0
  0
POINT
  5
139BE
330
113C7
100
AcDbEntity
  8
Defpoints
 62
     0
100
AcDbPoint
 10
65.00746557783248
 20
105.4387639867146
 30
0.0
  0
POINT
  5
139BF
330
113C7
100
AcDbEntity
  8
Defpoints
 62
     0
100
AcDbPoint
 10
120.3176042093372
 20
105.4387639867146
 30
0.0
  0
ENDBLK
  5
115DB
330
113C7
100
AcDbEntity
  8
0
100
AcDbBlockEnd
  0
BLOCK
  5
115E4
330
113FF
100
AcDbEntity
  8
0
100
AcDbBlockBegin
  2
*D7
 70
     1
 71
     0
 10
0.0
 20
0.0
 30
0.0
  3
*D7
  1

  0
LINE
  5
139C0
330
113FF
100
AcDbEntity
  8
AM_5
 62
     3
370
    13
100
AcDbLine
 10
-9.031569006204393
 20
136.9387639867146
 30
0.0
 11
-23.51338056312953
 21
136.9387639867146
 31
0.0
  0
LINE
  5
139C1
330
113FF
100
AcDbEntity
  8
AM_5
 62
     3
370
    13
100
AcDbLine
 10
0.0074655778330452
 20
91.93876398671468
 30
0.0
 11
-23.51338056312954
 21
91.93876398671468
 31
0.0
  0
LINE
  5
139C2
330
113FF
100
AcDbEntity
  8
AM_5
 62
     3
370
    13
100
AcDbLine
 10
-22.51338056312954
 20
134.4387639867146
 30
0.0
 11
-22.51338056312954
 21
94.43876398671468
 31
0.0
  0
INSERT
  5
139C3
330
113FF
100
AcDbEntity
  8
AM_5
 62
     3
370
    13
100
AcDbBlockReference
  2
_Open30
 10
-22.51338056312953
 20
136.9387639867146
 30
0.0
 41
2.5
 42
2.5
 43
2.5
 50
90.0
  0
INSERT
  5
139C4
330
113FF
100
AcDbEntity
  8
AM_5
 62
     3
370
    13
100
AcDbBlockReference
  2
_Open30
 10
-22.51338056312954
 20
91.93876398671468
 30
0.0
 41
2.5
 42
2.5
 43
2.5
 50
270.0
  0
MTEXT
  5
139C5
330
113FF
100
AcDbEntity
  8
AM_5
 62
     2
100
AcDbMText
 10
-25.91338056312956
 20
114.4387639867146
 30
0.0
 40
3.8
 41
0.0
 71
     5
 72
     1
  1
45
 11
6.123031769111886E-17
 21
1.0
 31
0.0
 73
     1
 44
1.0
  0
POINT
  5
139C6
330
113FF
100
AcDbEntity
  8
Defpoints
 62
     0
100
AcDbPoint
 10
-9.031569006204393
 20
136.9387639867146
 30
0.0
  0
POINT
  5
139C7
330
113FF
100
AcDbEntity
  8
Defpoints
 62
     0
100
AcDbPoint
 10
0.0074655778330452
 20
91.93876398671468
 30
0.0
  0
POINT
  5
139C8
330
113FF
100
AcDbEntity
  8
Defpoints
 62
     0
100
AcDbPoint
 10
-22.51338056312954
 20
91.93876398671468
 30
0.0
  0
ENDBLK
  5
115E5
330
113FF
100
AcDbEntity
  8
0
100
AcDbBlockEnd
  0
ENDSEC
  0
SECTION
  2
ENTITIES
  0
LINE
  5
10F47
330
1F
100
AcDbEntity
  8
AM_5
100
AcDbLine
 10
-66.89189893127889
 20
91.9387719059885
 30
0.0
 11
-70.68532157139737
 21
91.9387719059885
 31
0.0
  0
DIMENSION
  5
10FA2
330
1F
100
AcDbEntity
  8
AM_5
100
AcDbDimension
  2
*D4
 10
-8.490577597419462
 20
91.93876398671468
 30
0.0
 11
-8.490577597419474
 21
105.2872408613198
 31
0.0
 70
   160
  1
4.0\P
 71
     5
 42
3.996980811612957
  3
AM_JIS$0
100
AcDbAlignedDimension
 13
0.4671831527710992
 23
95.93574479832763
 33
0.0
 14
0.0074655778330452
 24
91.93876398671468
 34
0.0
 50
90.0
100
AcDbRotatedDimension
1001
ACAD
1000
DSTYLE
1002
{
1070
   179
1070
     0
1070
   271
1070
     0
1070
   272
1070
     2
1002
}
  0
DIMENSION
  5
10FA3
330
1F
100
AcDbEntity
  8
AM_5
100
AcDbDimension
  2
*D5
 10
65.00746557783248
 20
63.14656622881287
 30
0.0
 11
32.50746557783276
 21
66.54656622881288
 31
0.0
 70
    32
  1
<>
 71
     5
 42
64.99999999999943
  3
AM_JIS$0
100
AcDbAlignedDimension
 13
0.0074655778330452
 23
91.93876398671468
 33
0.0
 14
65.00746557783248
 24
105.4387639867146
 34
0.0
100
AcDbRotatedDimension
1001
ACAD
1000
DSTYLE
1002
{
1070
   179
1070
     0
1070
   271
1070
     0
1070
   272
1070
     2
1002
}
  0
CIRCLE
  5
10FAA
330
1F
100
AcDbEntity
  8
AM_0
100
AcDbCircle
 10
74.00746557783248
 20
-0.091859636723683
 30
0.0
 40
4.500000000000006
  0
ARC
  5
10FB4
330
1F
100
AcDbEntity
  8
AM_0
100
AcDbCircle
 10
74.00746558035996
 20
-0.091859636723683
 30
0.0
 40
4.500000001664618
100
AcDbArc
 50
131.1923719391818
 51
228.8076280608183
  0
LINE
  5
10FBD
330
1F
100
AcDbEntity
  8
AM_0
100
AcDbLine
 10
91.00746557783248
 20
8.010808559452258
 30
0.0
 11
91.00746557783248
 21
-8.194527832900846
 31
0.0
  0
ARC
  5
10FBF
330
1F
100
AcDbEntity
  8
AM_0
100
AcDbCircle
 10
74.00746557783248
 20
-0.091859636723683
 30
0.0
 40
4.499999999999965
100
AcDbArc
 50
228.8076280850555
 51
131.1923719149445
  0
ARC
  5
10FC0
330
1F
100
AcDbEntity
  8
AM_0
100
AcDbCircle
 10
52.00746557783248
 20
-0.0918596367236688
 30
0.0
 40
8.000000000000057
100
AcDbArc
 50
270.0
 51
90.0
  0
LINE
  5
10FC1
330
1F
100
AcDbEntity
  8
AM_0
100
AcDbLine
 10
36.00746557783248
 20
4.908140363276331
 30
0.0
 11
36.00746557783248
 21
-5.091859636723669
 31
0.0
  0
LINE
  5
10FC7
330
1F
100
AcDbEntity
  8
AM_0
100
AcDbLine
 10
65.00746557783248
 20
31.4081403632763
 30
0.0
 11
65.00746557783248
 21
-31.5918596367237
 31
0.0
  0
LINE
  5
10FCA
330
1F
100
AcDbEntity
  8
AM_7
100
AcDbLine
 10
104.4778837083512
 20
-0.0918596367236972
 30
0.0
 11
-3.147201258311839
 21
-0.0918596367236688
 31
0.0
1001
GENIUS_GENODEF_13
1002
{
1000
HIER
1070
     0
1002
}
1002
{
1000
MANEDIT
1070
     0
1002
}
1002
{
1000
NOSEL
1070
     0
1002
}
1002
{
1000
BEHIND
1070
     0
1002
}
1002
{
1000
OTHER
1070
     0
1002
}
1002
{
1000
REACTOR
1002
}
1001
GENIUS_GENOBJ-N-CEN_13
1002
{
1000
OWNER
1000
GEN
1002
}
  0
LINE
  5
1105C
330
1F
100
AcDbEntity
  8
AM_0
100
AcDbLine
 10
95.86739071816544
 20
-22.86886337970735
 30
0.0
 11
65.00746557783248
 21
-24.41185963672432
 31
0.0
  0
LINE
  5
11062
330
1F
100
AcDbEntity
  8
AM_0
100
AcDbLine
 10
48.45657450997976
 20
-8.091859636723683
 30
0.0
 11
48.88246557783248
 21
-8.091859636723683
 31
0.0
  0
ARC
  5
11063
330
1F
100
AcDbEntity
  8
AM_0
100
AcDbCircle
 10
47.88246557783248
 20
-28.59185963672367
 30
0.0
 40
1.0
100
AcDbArc
 50
0.0
 51
90.0
  0
SPLINE
  5
11066
330
1F
100
AcDbEntity
  8
AM_0
100
AcDbSpline
210
0.0
220
0.0
230
1.0
 70
     8
 71
     3
 72
    16
 73
    12
 74
     0
 42
0.0000000001
 43
0.0000000001
 40
5.956346460088473
 40
5.956346460088473
 40
5.956346460088473
 40
5.956346460088473
 40
6.062495147234408
 40
6.062495147234408
 40
6.202228077623816
 40
6.202228077623816
 40
6.481227230306896
 40
6.481227230306896
 40
6.760226382989976
 40
6.760226382989976
 40
6.821665582602051
 40
6.821665582602051
 40
6.821665582602051
 40
6.821665582602051
 10
46.13246557783248
 20
-7.440328865073724
 30
0.0
 10
46.0970826821175
 20
-7.440328865073724
 30
0.0
 10
46.05559786857691
 20
-7.449374153946309
 30
0.0
 10
45.97980179602917
 20
-7.480558851614632
 30
0.0
 10
45.93375470208036
 20
-7.512240263081338
 30
0.0
 10
45.82935375837758
 20
-7.604880873314841
 30
0.0
 10
45.76943556201047
 20
-7.68562095719696
 30
0.0
 10
45.66440051825146
 20
-7.85801328058912
 30
0.0
 10
45.61957767631964
 20
-7.949844479690881
 30
0.0
 10
45.57422984132506
 20
-8.053869282536624
 30
0.0
 10
45.56621501904272
 20
-8.072793813515972
 30
0.0
 10
45.5583566456861
 20
-8.091859636723683
 30
0.0
  0
LINE
  5
11067
330
1F
100
AcDbEntity
  8
AM_0
100
AcDbLine
 10
47.88246557783248
 20
-7.440328865073724
 30
0.0
 11
46.13246557783248
 21
-7.440328865073724
 31
0.0
  0
SPLINE
  5
11068
330
1F
100
AcDbEntity
  8
AM_0
100
AcDbSpline
210
0.0
220
0.0
230
1.0
 70
     8
 71
     3
 72
    16
 73
    12
 74
     0
 42
0.0000000001
 43
0.0000000001
 40
5.091027337574894
 40
5.091027337574894
 40
5.091027337574894
 40
5.091027337574894
 40
5.15246653718697
 40
5.15246653718697
 40
5.43146568987005
 40
5.43146568987005
 40
5.71046484255313
 40
5.71046484255313
 40
5.850197772942538
 40
5.850197772942538
 40
5.956346460088473
 40
5.956346460088473
 40
5.956346460088473
 40
5.956346460088473
 10
48.45657450997976
 20
-8.091859636723683
 30
0.0
 10
48.44871613662315
 20
-8.072793813515972
 30
0.0
 10
48.4407013143408
 20
-8.053869282536624
 30
0.0
 10
48.39535347934623
 20
-7.949844479690881
 30
0.0
 10
48.3505306374135
 20
-7.85801328058912
 30
0.0
 10
48.24549559365539
 20
-7.68562095719696
 30
0.0
 10
48.18557739728828
 20
-7.604880873314841
 30
0.0
 10
48.08117645358459
 20
-7.512240263081338
 30
0.0
 10
48.0351293596367
 20
-7.480558851614632
 30
0.0
 10
47.95933328708804
 20
-7.449374153946309
 30
0.0
 10
47.91784847354836
 20
-7.440328865073724
 30
0.0
 10
47.88246557783248
 20
-7.440328865073724
 30
0.0
  0
LINE
  5
11069
330
1F
100
AcDbEntity
  8
AM_0
100
AcDbLine
 10
45.13246557783248
 20
-8.091859636723683
 30
0.0
 11
45.5583566456861
 21
-8.091859636723683
 31
0.0
  0
LINE
  5
1106A
330
1F
100
AcDbEntity
  8
AM_0
100
AcDbLine
 10
47.88246557783248
 20
-27.59185963672368
 30
0.0
 11
46.13246557783248
 21
-27.59185963672368
 31
0.0
  0
LINE
  5
1106B
330
1F
100
AcDbEntity
  8
AM_0
100
AcDbLine
 10
47.88246557783248
 20
-7.440328865073724
 30
0.0
 11
47.88246557783248
 21
-27.59185963672368
 31
0.0
  0
LINE
  5
1106C
330
1F
100
AcDbEntity
  8
AM_0
100
AcDbLine
 10
46.13246557783248
 20
-7.440328865073724
 30
0.0
 11
46.13246557783248
 21
-27.59185963672368
 31
0.0
  0
LINE
  5
1106D
330
1F
100
AcDbEntity
  8
AM_0
100
AcDbLine
 10
45.13246557783248
 20
-8.091859636723683
 30
0.0
 11
45.13246557783248
 21
-28.9894549009159
 31
0.0
  0
ARC
  5
1106E
330
1F
100
AcDbEntity
  8
AM_0
100
AcDbCircle
 10
46.13246557783248
 20
-28.59185963672367
 30
0.0
 40
1.0
100
AcDbArc
 50
90.0
 51
180.0
  0
ARC
  5
11071
330
1F
100
AcDbEntity
  8
AM_0
100
AcDbCircle
 10
57.968664311319
 20
-63.17829956411238
 30
0.0
 40
31.98582038169304
100
AcDbArc
 50
80.93630643191762
 51
89.930495784383
  0
LINE
  5
11072
330
1F
100
AcDbEntity
  8
AM_0
100
AcDbLine
 10
65.00746557783248
 20
-31.5918596367237
 30
0.0
 11
63.00746557783248
 21
-31.5918596367237
 31
0.0
  0
LINE
  5
11076
330
1F
100
AcDbEntity
  8
AM_0
100
AcDbLine
 10
48.88246557783248
 20
-8.091859636723683
 30
0.0
 11
50.3849646525922
 21
-8.091859636723683
 31
0.0
  0
LINE
  5
11077
330
1F
100
AcDbEntity
  8
AM_0
100
AcDbLine
 10
52.00746557783248
 20
-8.091859636723683
 30
0.0
 11
50.3849646525922
 21
-8.091859636723683
 31
0.0
  0
LINE
  5
11078
330
1F
100
AcDbEntity
  8
AM_0
100
AcDbLine
 10
48.88246557783248
 20
-28.9894549009159
 30
0.0
 11
50.3849646525922
 21
-31.5918596367237
 31
0.0
  0
LINE
  5
11079
330
1F
100
AcDbEntity
  8
AM_0
100
AcDbLine
 10
53.00746557783248
 20
-31.5918596367237
 30
0.0
 11
50.3849646525922
 21
-31.5918596367237
 31
0.0
  0
LINE
  5
1107A
330
1F
100
AcDbEntity
  8
AM_0
100
AcDbLine
 10
50.3849646525922
 20
-8.091859636724593
 30
0.0
 11
50.3849646525922
 21
-31.5918596367237
 31
0.0
  0
LINE
  5
1107B
330
1F
100
AcDbEntity
  8
AM_0
100
AcDbLine
 10
48.88246557783248
 20
-8.091859636723683
 30
0.0
 11
48.88246557783248
 21
-28.9894549009159
 31
0.0
  0
ARC
  5
11082
330
1F
100
AcDbEntity
  8
AM_0
100
AcDbCircle
 10
58.04626684434686
 20
-63.17829956410965
 30
0.0
 40
31.98582038169042
100
AcDbArc
 50
90.06950421560396
 51
99.06369356809559
  0
ARC
  5
11085
330
1F
100
AcDbEntity
  8
AM_0
100
AcDbCircle
 10
39.00746854089982
 20
-5.091856673656324
 30
0.0
 40
3.000002963068777
100
AcDbArc
 50
180.000056590357
 51
269.99994340963
  0
LINE
  5
11086
330
1F
100
AcDbEntity
  8
AM_0
100
AcDbLine
 10
43.62996650307366
 20
-8.091859636723683
 30
0.0
 11
39.00746557783248
 21
-8.091859636723669
 31
0.0
  0
LINE
  5
11087
330
1F
100
AcDbEntity
  8
AM_0
100
AcDbLine
 10
43.62996650307366
 20
-31.5918596367237
 30
0.0
 11
39.00746557783248
 21
-31.5918596367237
 31
0.0
  0
LINE
  5
11088
330
1F
100
AcDbEntity
  8
AM_0
100
AcDbLine
 10
39.00746557783248
 20
-8.091859636723669
 30
0.0
 11
39.00746557783248
 21
-31.5918596367237
 31
0.0
  0
LINE
  5
11089
330
1F
100
AcDbEntity
  8
AM_0
100
AcDbLine
 10
43.62996650307366
 20
-8.091859636723683
 30
0.0
 11
43.62996650307366
 21
-31.5918596367237
 31
0.0
  0
LINE
  5
1108C
330
1F
100
AcDbEntity
  8
AM_0
100
AcDbLine
 10
43.62996650307366
 20
-8.091859636723683
 30
0.0
 11
45.13246557783248
 21
-8.091859636723683
 31
0.0
  0
LINE
  5
1108D
330
1F
100
AcDbEntity
  8
AM_0
100
AcDbLine
 10
45.13246557783248
 20
-28.9894549009159
 30
0.0
 11
43.62996650307366
 21
-31.5918596367237
 31
0.0
  0
LINE
  5
1109A
330
1F
100
AcDbEntity
  8
AM_0
100
AcDbLine
 10
97.00702052557142
 20
-7.516303224060707
 30
0.0
 11
97.00746557783248
 21
-7.516560175103209
 31
0.0
  0
SPLINE
  5
1109B
330
1F
100
AcDbEntity
  8
AM_0
100
AcDbSpline
210
0.0
220
0.0
230
1.0
 70
     8
 71
     3
 72
    16
 73
    12
 74
     0
 42
0.0000000001
 43
0.0000000001
 40
-1.936088707179519
 40
-1.936088707179519
 40
-1.936088707179519
 40
-1.936088707179519
 40
-1.618608641566384
 40
-1.618608641566384
 40
-0.9853554418149393
 40
-0.9853554418149393
 40
-0.4905148334691103
 40
-0.4905148334691103
 40
-0.2011422780024802
 40
-0.2011422780024802
 40
-0.0002750058701333
 40
-0.0002750058701333
 40
-0.0002750058701333
 40
-0.0002750058701333
 10
97.00702052557142
 20
-7.516303224060707
 30
0.0
 10
97.00384915602797
 20
-7.627558793049488
 30
0.0
 10
96.98394824198647
 20
-7.744619355468771
 30
0.0
 10
96.8857294827211
 20
-8.10263774729809
 30
0.0
 10
96.77171154406449
 20
-8.3447334606917
 30
0.0
 10
96.53107109600649
 20
-8.725973963961209
 30
0.0
 10
96.41321093167232
 20
-8.874243902383554
 30
0.0
 10
96.22253868357973
 20
-9.052126499248502
 30
0.0
 10
96.1430846914817
 20
-9.113211447625858
 30
0.0
 10
95.99710017153655
 20
-9.186093402828178
 30
0.0
 10
95.93384723286715
 20
-9.207333169727448
 30
0.0
 10
95.86739071816544
 20
-9.215458197062603
 30
0.0
  0
LINE
  5
1109C
330
1F
100
AcDbEntity
  8
AM_0
100
AcDbLine
 10
97.00746557783248
 20
-7.516560175103209
 30
0.0
 11
97.00746557783248
 21
-7.459060175103318
 31
0.0
  0
LINE
  5
1109D
330
1F
100
AcDbEntity
  8
AM_0
100
AcDbLine
 10
97.00746557783248
 20
-7.516560175103209
 30
0.0
 11
97.00746557783248
 21
-21.67036057305448
 31
0.0
  0
ARC
  5
1109E
330
1F
100
AcDbEntity
  8
AM_0
100
AcDbCircle
 10
95.80746557783266
 20
-21.67036057305447
 30
0.0
 40
1.2
100
AcDbArc
 50
272.8624052261126
 51
0.0
  0
LINE
  5
110A0
330
1F
100
AcDbEntity
  8
AM_0
100
AcDbLine
 10
95.00746557783248
 20
-6.304359636724243
 30
0.0
 11
92.50746557783248
 21
-6.304359636724243
 31
0.0
  0
ARC
  5
110A6
330
1F
100
AcDbEntity
  8
AM_0
100
AcDbCircle
 10
92.50746557783248
 20
-4.804359636724229
 30
0.0
 40
1.5
100
AcDbArc
 50
180.0
 51
270.0
1001
GENIUS_GENODEF_13
1002
{
1000
HIER
1070
     0
1002
}
1002
{
1000
MANEDIT
1070
     0
1002
}
1002
{
1000
NOSEL
1070
     0
1002
}
1002
{
1000
BEHIND
1070
     0
1002
}
1002
{
1000
OTHER
1070
     0
1002
}
1002
{
1000
REACTOR
1002
}
1001
GENIUS_GENOBJ-N-FIL_13
1002
{
1000
OWNER
1000
GEN
1002
}
  0
ARC
  5
110A7
330
1F
100
AcDbEntity
  8
AM_0
100
AcDbCircle
 10
92.50746557783248
 20
-8.194527832900832
 30
0.0
 40
1.5
100
AcDbArc
 50
180.0
 51
280.7630026735891
1001
GENIUS_GENOBJ-N-FIL_13
1002
{
1000
OWNER
1000
GEN
1002
}
1001
GENIUS_GENODEF_13
1002
{
1000
HIER
1070
     0
1002
}
1002
{
1000
MANEDIT
1070
     0
1002
}
1002
{
1000
NOSEL
1070
     0
1002
}
1002
{
1000
BEHIND
1070
     0
1002
}
1002
{
1000
OTHER
1070
     0
1002
}
1002
{
1000
REACTOR
1002
}
  0
LINE
  5
110AA
330
1F
100
AcDbEntity
  8
AM_0
100
AcDbLine
 10
95.00746557783248
 20
-6.304359636724243
 30
0.0
 11
97.00746557783248
 21
-7.459060175103318
 31
0.0
  0
ARC
  5
110AB
330
1F
100
AcDbEntity
  8
AM_0
100
AcDbCircle
 10
99.72484876734131
 20
-46.16255810780875
 30
0.0
 40
37.14792288157967
100
AcDbArc
 50
95.96036562618968
 51
100.7630026735891
  0
LINE
  5
110D2
330
1F
100
AcDbEntity
  8
AM_0
100
AcDbLine
 10
95.86739071816544
 20
22.68514410625905
 30
0.0
 11
65.00746557783248
 21
24.22814036327601
 31
0.0
  0
LINE
  5
110D8
330
1F
100
AcDbEntity
  8
AM_0
100
AcDbLine
 10
65.00746557783248
 20
31.4081403632763
 30
0.0
 11
50.3849646525922
 21
31.40814036327632
 31
0.0
  0
LINE
  5
110D9
330
1F
100
AcDbEntity
  8
AM_0
100
AcDbLine
 10
43.62996650307366
 20
31.40814036327632
 30
0.0
 11
39.00746557783248
 21
31.40814036327632
 31
0.0
  0
LINE
  5
110DC
330
1F
100
AcDbEntity
  8
AM_0
100
AcDbLine
 10
48.45657450997976
 20
7.908140363276331
 30
0.0
 11
48.88246557783248
 21
7.908140363276331
 31
0.0
  0
ARC
  5
110DD
330
1F
100
AcDbEntity
  8
AM_0
100
AcDbCircle
 10
47.88246557783248
 20
28.40814036327633
 30
0.0
 40
1.0
100
AcDbArc
 50
270.0
 51
0.0
  0
LINE
  5
110E1
330
1F
100
AcDbEntity
  8
AM_0
100
AcDbLine
 10
45.13246557783248
 20
7.908140363276331
 30
0.0
 11
45.5583566456861
 21
7.908140363276331
 31
0.0
  0
SPLINE
  5
110E2
330
1F
100
AcDbEntity
  8
AM_0
100
AcDbSpline
210
0.0
220
0.0
230
1.0
 70
     8
 71
     3
 72
    16
 73
    12
 74
     0
 42
0.0000000001
 43
0.0000000001
 40
5.956346460088472
 40
5.956346460088472
 40
5.956346460088472
 40
5.956346460088472
 40
6.062495147234407
 40
6.062495147234407
 40
6.202228077623815
 40
6.202228077623815
 40
6.481227230306895
 40
6.481227230306895
 40
6.760226382989975
 40
6.760226382989975
 40
6.821665582602113
 40
6.821665582602113
 40
6.821665582602113
 40
6.821665582602113
 10
47.88246557783248
 20
7.256609591625463
 30
0.0
 10
47.91784847354836
 20
7.256609591625463
 30
0.0
 10
47.95933328708804
 20
7.265654880498047
 30
0.0
 10
48.0351293596367
 20
7.29683957816637
 30
0.0
 10
48.08117645358459
 20
7.328520989633077
 30
0.0
 10
48.18557739728828
 20
7.421161599866579
 30
0.0
 10
48.24549559365539
 20
7.501901683748699
 30
0.0
 10
48.3505306374135
 20
7.674294007140858
 30
0.0
 10
48.39535347934623
 20
7.76612520624262
 30
0.0
 10
48.4407013143408
 20
7.870150009089272
 30
0.0
 10
48.44871613662315
 20
7.889074540067711
 30
0.0
 10
48.45657450997976
 20
7.908140363276331
 30
0.0
  0
LINE
  5
110E3
330
1F
100
AcDbEntity
  8
AM_0
100
AcDbLine
 10
46.13246557783248
 20
7.256609591625463
 30
0.0
 11
47.88246557783248
 21
7.256609591625463
 31
0.0
  0
SPLINE
  5
110E4
330
1F
100
AcDbEntity
  8
AM_0
100
AcDbSpline
210
0.0
220
0.0
230
1.0
 70
     8
 71
     3
 72
    16
 73
    12
 74
     0
 42
0.0000000001
 43
0.0000000001
 40
5.091027337574832
 40
5.091027337574832
 40
5.091027337574832
 40
5.091027337574832
 40
5.152466537186969
 40
5.152466537186969
 40
5.431465689870049
 40
5.431465689870049
 40
5.71046484255313
 40
5.71046484255313
 40
5.850197772942537
 40
5.850197772942537
 40
5.956346460088472
 40
5.956346460088472
 40
5.956346460088472
 40
5.956346460088472
 10
45.5583566456861
 20
7.908140363276331
 30
0.0
 10
45.56621501904272
 20
7.889074540067711
 30
0.0
 10
45.57422984132506
 20
7.870150009089272
 30
0.0
 10
45.61957767631964
 20
7.76612520624262
 30
0.0
 10
45.66440051825146
 20
7.674294007140858
 30
0.0
 10
45.76943556201047
 20
7.501901683748699
 30
0.0
 10
45.82935375837758
 20
7.421161599866579
 30
0.0
 10
45.93375470208036
 20
7.328520989633077
 30
0.0
 10
45.97980179602917
 20
7.29683957816637
 30
0.0
 10
46.05559786857691
 20
7.265654880498047
 30
0.0
 10
46.0970826821175
 20
7.256609591625463
 30
0.0
 10
46.13246557783248
 20
7.256609591625463
 30
0.0
  0
SPLINE
  5
110E5
330
1F
100
AcDbEntity
  8
AM_0
100
AcDbSpline
210
0.0
220
0.0
230
1.0
 70
     8
 71
     3
 72
     8
 73
     4
 74
     0
 42
0.0000000001
 43
0.0000000001
 40
1.776340743961663
 40
1.776340743961663
 40
1.776340743961663
 40
1.776340743961663
 40
1.82900694760964
 40
1.82900694760964
 40
1.82900694760964
 40
1.82900694760964
 10
45.13246557783248
 20
20.21208086752272
 30
0.0
 10
45.13246557783248
 20
20.19452546630696
 30
0.0
 10
45.13270064717278
 20
20.17666697124336
 30
0.0
 10
45.13319156629211
 20
20.1585692783256
 30
0.0
  0
SPLINE
  5
110E6
330
1F
100
AcDbEntity
  8
AM_0
100
AcDbSpline
210
0.0
220
0.0
230
1.0
 70
    24
 71
     3
 72
     8
 73
     4
 74
     0
 42
0.0000000001
 43
0.0000000001
 40
-1.94204761059973
 40
-1.94204761059973
 40
-1.94204761059973
 40
-1.94204761059973
 40
-1.894302822527507
 40
-1.894302822527507
 40
-1.894302822527507
 40
-1.894302822527507
 10
45.13319156629211
 20
20.1585692783256
 30
0.0
 10
45.13270654168252
 20
20.15869357591605
 30
0.0
 10
45.13246557783248
 20
20.15875536412754
 30
0.0
 10
45.13246557783248
 20
20.15875536412754
 30
0.0
  0
LINE
  5
110E7
330
1F
100
AcDbEntity
  8
AM_0
100
AcDbLine
 10
45.13246557783248
 20
20.766496292089
 30
0.0
 11
45.13246557783248
 21
20.21208086752272
 31
0.0
  0
LINE
  5
110E8
330
1F
100
AcDbEntity
  8
AM_0
100
AcDbLine
 10
47.88246557783248
 20
27.40814036327632
 30
0.0
 11
46.13246557783248
 21
27.40814036327632
 31
0.0
  0
LINE
  5
110E9
330
1F
100
AcDbEntity
  8
AM_0
100
AcDbLine
 10
45.13246557783248
 20
28.80573562746761
 30
0.0
 11
45.13246557783248
 21
20.766496292089
 31
0.0
  0
LINE
  5
110EA
330
1F
100
AcDbEntity
  8
AM_0
100
AcDbLine
 10
45.13246557783248
 20
20.15875536412754
 30
0.0
 11
45.13246557783248
 21
7.908140363276331
 31
0.0
  0
ARC
  5
110EB
330
1F
100
AcDbEntity
  8
AM_0
100
AcDbCircle
 10
46.13246557783248
 20
28.40814036327633
 30
0.0
 40
1.0
100
AcDbArc
 50
180.0
 51
270.0
  0
LINE
  5
110EE
330
1F
100
AcDbEntity
  8
AM_0
100
AcDbLine
 10
48.85891890765913
 20
19.90814036327633
 30
0.0
 11
48.88246557783248
 21
19.90814036327633
 31
0.0
  0
SPLINE
  5
110EF
330
1F
100
AcDbEntity
  8
AM_0
100
AcDbSpline
210
0.0
220
0.0
230
1.0
 70
     8
 71
     3
 72
     8
 73
     4
 74
     0
 42
0.0000000001
 43
0.0000000001
 40
-2.06357559427948
 40
-2.06357559427948
 40
-2.06357559427948
 40
-2.06357559427948
 40
-1.776340743961663
 40
-1.776340743961663
 40
-1.776340743961663
 40
-1.776340743961663
 10
48.85891890765913
 20
19.90814036327633
 30
0.0
 10
48.87507929262927
 20
20.01158551923349
 30
0.0
 10
48.88246557783248
 20
20.11633591741706
 30
0.0
 10
48.88246557783248
 20
20.21208086752272
 30
0.0
  0
LINE
  5
110F0
330
1F
100
AcDbEntity
  8
AM_0
100
AcDbLine
 10
50.3849646525922
 20
7.908140363276331
 30
0.0
 11
52.00746557783248
 21
7.908140363276331
 31
0.0
  0
LINE
  5
110F1
330
1F
100
AcDbEntity
  8
AM_0
100
AcDbLine
 10
48.88246557783248
 20
7.908140363276331
 30
0.0
 11
50.3849646525922
 21
7.908140363276331
 31
0.0
  0
LINE
  5
110F2
330
1F
100
AcDbEntity
  8
AM_0
100
AcDbLine
 10
48.88246557783248
 20
19.90814036327633
 30
0.0
 11
50.3849646525922
 21
19.90814036327633
 31
0.0
  0
SPLINE
  5
110F3
330
1F
100
AcDbEntity
  8
AM_0
100
AcDbSpline
210
0.0
220
0.0
230
1.0
 70
    12
 71
     2
 72
     6
 73
     3
 74
     0
 42
0.0000000001
 43
0.0000000001
 40
0.0
 40
0.0
 40
0.0
 40
3.788582771409939
 40
3.788582771409939
 40
3.788582771409939
 10
48.88246557783248
 20
20.766496292089
 30
0.0
 41
1.0
 10
49.57590461759948
 20
22.4304856548916
 30
0.0
 41
1.001661993538315
 10
50.3849646525922
 20
24.24432741055175
 30
0.0
 41
1.0
  0
LINE
  5
110F4
330
1F
100
AcDbEntity
  8
AM_0
100
AcDbLine
 10
48.88246557783248
 20
20.21208086752272
 30
0.0
 11
48.88246557783248
 21
20.766496292089
 31
0.0
  0
LINE
  5
110F5
330
1F
100
AcDbEntity
  8
AM_0
100
AcDbLine
 10
52.8957516741765
 20
19.90814036327633
 30
0.0
 11
50.3849646525922
 21
19.90814036327633
 31
0.0
  0
LINE
  5
110F6
330
1F
100
AcDbEntity
  8
AM_0
100
AcDbLine
 10
50.3849646525922
 20
19.90814036327633
 30
0.0
 11
50.3849646525922
 21
7.908140363276331
 31
0.0
  0
LINE
  5
110F7
330
1F
100
AcDbEntity
  8
AM_0
100
AcDbLine
 10
48.88246557783248
 20
19.90814036327633
 30
0.0
 11
48.88246557783248
 21
7.908140363276331
 31
0.0
  0
LINE
  5
110F8
330
1F
100
AcDbEntity
  8
AM_0
100
AcDbLine
 10
48.88246557783248
 20
28.80573562746761
 30
0.0
 11
48.88246557783248
 21
20.766496292089
 31
0.0
  0
ARC
  5
110FD
330
1F
100
AcDbEntity
  8
AM_0
100
AcDbCircle
 10
52.89555357150755
 20
27.90846526842692
 30
0.0
 40
8.000324907604083
100
AcDbArc
 50
270.0014187482344
 51
332.7419619425976
  0
LINE
  5
110FE
330
1F
100
AcDbEntity
  8
AM_0
100
AcDbLine
 10
50.3849646525922
 20
24.24432741055175
 30
0.0
 11
60.00746557783248
 21
24.24432741055172
 31
0.0
  0
ARC
  5
11100
330
1F
100
AcDbEntity
  8
AM_0
100
AcDbCircle
 10
39.00746854089982
 20
4.908137400208986
 30
0.0
 40
3.000002963068682
100
AcDbArc
 50
90.00005659035688
 51
179.99994340963
  0
LINE
  5
11101
330
1F
100
AcDbEntity
  8
AM_0
100
AcDbLine
 10
39.00746557783248
 20
7.908140363276331
 30
0.0
 11
43.62996650307366
 21
7.908140363276331
 31
0.0
  0
ARC
  5
11102
330
1F
100
AcDbEntity
  8
AM_0
100
AcDbCircle
 10
47.12008885039256
 20
27.90907219605565
 30
0.0
 40
8.001235164662798
100
AcDbArc
 50
207.2595688438603
 51
244.1384544096972
  0
LINE
  5
11103
330
1F
100
AcDbEntity
  8
AM_0
100
AcDbLine
 10
40.00746557783248
 20
24.24432741055175
 30
0.0
 11
43.62996650307366
 21
24.24432741055175
 31
0.0
  0
LINE
  5
11104
330
1F
100
AcDbEntity
  8
AM_0
100
AcDbLine
 10
43.62996650307366
 20
20.70915482423884
 30
0.0
 11
43.62996650307366
 21
7.908140363276331
 31
0.0
  0
LINE
  5
11106
330
1F
100
AcDbEntity
  8
AM_0
100
AcDbLine
 10
43.62996650307366
 20
7.908140363276331
 30
0.0
 11
45.13246557783248
 21
7.908140363276331
 31
0.0
  0
SPLINE
  5
11107
330
1F
100
AcDbEntity
  8
AM_0
100
AcDbSpline
210
0.0
220
0.0
230
1.0
 70
    12
 71
     2
 72
     6
 73
     3
 74
     0
 42
0.0000000001
 43
0.0000000001
 40
0.0
 40
0.0
 40
0.0
 40
3.788582771409915
 40
3.788582771409915
 40
3.788582771409915
 10
43.62996650307366
 20
24.24432741055175
 30
0.0
 41
1.0
 10
44.43902653806606
 20
22.43048565489154
 30
0.0
 41
1.001661993538562
 10
45.13246557783248
 20
20.766496292089
 30
0.0
 41
1.0
  0
ARC
  5
11108
330
1F
100
AcDbEntity
  8
AM_0
100
AcDbCircle
 10
47.11858931937411
 20
27.90652931876143
 30
0.0
 40
7.99829286590654
100
AcDbArc
 50
244.1401747691822
 51
255.6219705914311
  0
LINE
  5
1110E
330
1F
100
AcDbEntity
  8
AM_0
100
AcDbLine
 10
45.13246557783248
 20
28.80573562746761
 30
0.0
 11
43.62996650307366
 21
31.40814036327632
 31
0.0
  0
LINE
  5
1110F
330
1F
100
AcDbEntity
  8
AM_0
100
AcDbLine
 10
48.88246557783248
 20
28.80573562746761
 30
0.0
 11
50.3849646525922
 21
31.40814036327632
 31
0.0
  0
LINE
  5
11110
330
1F
100
AcDbEntity
  8
AM_0
100
AcDbLine
 10
39.00746557783248
 20
31.40814036327632
 30
0.0
 11
39.00746557783248
 21
7.908140363276331
 31
0.0
  0
LINE
  5
11111
330
1F
100
AcDbEntity
  8
AM_0
100
AcDbLine
 10
43.62996650307366
 20
31.40814036327632
 30
0.0
 11
43.62996650307366
 21
24.24432741055175
 31
0.0
  0
LINE
  5
11112
330
1F
100
AcDbEntity
  8
AM_0
100
AcDbLine
 10
50.3849646525922
 20
31.40814036327632
 30
0.0
 11
50.3849646525922
 21
24.24432741055175
 31
0.0
  0
LINE
  5
11118
330
1F
100
AcDbEntity
  8
AM_0
100
AcDbLine
 10
97.00702052557142
 20
7.332583950612403
 30
0.0
 11
97.00746557783248
 21
7.332840901654905
 31
0.0
  0
SPLINE
  5
11119
330
1F
100
AcDbEntity
  8
AM_0
100
AcDbSpline
210
0.0
220
0.0
230
1.0
 70
     8
 71
     3
 72
    16
 73
    12
 74
     0
 42
0.0000000001
 43
0.0000000001
 40
-4.40429224599759
 40
-4.40429224599759
 40
-4.40429224599759
 40
-4.40429224599759
 40
-4.141910802677585
 40
-4.141910802677585
 40
-3.871634509130126
 40
-3.871634509130126
 40
-3.14310442813097
 40
-3.14310442813097
 40
-2.420961954899249
 40
-2.420961954899249
 40
-1.953365045766561
 40
-1.953365045766561
 40
-1.953365045766561
 40
-1.953365045766561
 10
95.86739071816544
 20
9.031738923614299
 30
0.0
 10
95.93575048003447
 20
9.023381203738623
 30
0.0
 10
96.00070886919536
 20
9.001146027909286
 30
0.0
 10
96.12511286876168
 20
8.937823425302682
 30
0.0
 10
96.18432981374269
 20
8.89619609086823
 30
0.0
 10
96.38490444382194
 20
8.728445124682381
 30
0.0
 10
96.52851648341573
 20
8.5509145045162
 30
0.0
 10
96.77699308985746
 20
8.147421951734046
 30
0.0
 10
96.8764912196192
 20
7.931946269251981
 30
0.0
 10
96.97880074778993
 20
7.589769556114348
 30
0.0
 10
97.00345549511974
 20
7.457649631517612
 30
0.0
 10
97.00702052557142
 20
7.332583950612403
 30
0.0
  0
LINE
  5
1111A
330
1F
100
AcDbEntity
  8
AM_0
100
AcDbLine
 10
97.00746557783248
 20
7.275340901655014
 30
0.0
 11
97.00746557783248
 21
7.332840901654905
 31
0.0
  0
LINE
  5
1111B
330
1F
100
AcDbEntity
  8
AM_0
100
AcDbLine
 10
97.00746557783248
 20
21.48664129960618
 30
0.0
 11
97.00746557783248
 21
7.332840901654905
 31
0.0
  0
ARC
  5
1111C
330
1F
100
AcDbEntity
  8
AM_0
100
AcDbCircle
 10
95.80746557783266
 20
21.48664129960619
 30
0.0
 40
1.2
100
AcDbArc
 50
0.0
 51
87.13759477388736
  0
LINE
  5
1111E
330
1F
100
AcDbEntity
  8
AM_0
100
AcDbLine
 10
92.50746557783248
 20
6.120640363275939
 30
0.0
 11
95.00746557783248
 21
6.120640363275939
 31
0.0
  0
ARC
  5
11124
330
1F
100
AcDbEntity
  8
AM_0
100
AcDbCircle
 10
92.50746557783248
 20
4.620640363275953
 30
0.0
 40
1.5
100
AcDbArc
 50
90.0
 51
180.0
1001
GENIUS_GENOBJ-N-FIL_13
1002
{
1000
OWNER
1000
GEN
1002
}
1001
GENIUS_GENODEF_13
1002
{
1000
HIER
1070
     0
1002
}
1002
{
1000
MANEDIT
1070
     0
1002
}
1002
{
1000
NOSEL
1070
     0
1002
}
1002
{
1000
BEHIND
1070
     0
1002
}
1002
{
1000
OTHER
1070
     0
1002
}
1002
{
1000
REACTOR
1002
}
  0
ARC
  5
11125
330
1F
100
AcDbEntity
  8
AM_0
100
AcDbCircle
 10
92.50746557783248
 20
8.010808559452272
 30
0.0
 40
1.5
100
AcDbArc
 50
79.23699732641416
 51
179.9999999999996
1001
GENIUS_GENOBJ-N-FIL_13
1002
{
1000
OWNER
1000
GEN
1002
}
1001
GENIUS_GENODEF_13
1002
{
1000
HIER
1070
     0
1002
}
1002
{
1000
MANEDIT
1070
     0
1002
}
1002
{
1000
NOSEL
1070
     0
1002
}
1002
{
1000
BEHIND
1070
     0
1002
}
1002
{
1000
OTHER
1070
     0
1002
}
1002
{
1000
REACTOR
1002
}
  0
LINE
  5
11128
330
1F
100
AcDbEntity
  8
AM_0
100
AcDbLine
 10
95.00746557783248
 20
6.120640363275939
 30
0.0
 11
97.00746557783248
 21
7.275340901655014
 31
0.0
  0
ARC
  5
11129
330
1F
100
AcDbEntity
  8
AM_0
100
AcDbCircle
 10
99.72484876734495
 20
45.97883883438775
 30
0.0
 40
37.14792288160733
100
AcDbArc
 50
259.2369973264142
 51
264.0396343738103
  0
TEXT
  5
1113D
330
1F
100
AcDbEntity
  8
AM_0
100
AcDbText
 10
-77.52989963928724
 20
-59.62674987277704
 30
0.0
 40
5.0
  1
H63A-WH-GWCR-DX425
100
AcDbText
  0
DIMENSION
  5
1114A
330
1F
100
AcDbEntity
  8
AM_5
100
AcDbDimension
  2
*D6
 10
120.3176042093372
 20
105.4387639867146
 30
0.0
 11
116.9176042093372
 21
136.9387639867146
 31
0.0
 70
    32
  1
%%c<>
 71
     5
 42
63.00000000000003
  3
AM_JIS$0
100
AcDbAlignedDimension
 13
65.00746557783253
 23
168.4387639867146
 33
0.0
 14
65.00746557783248
 24
105.4387639867146
 34
0.0
 50
90.0
100
AcDbRotatedDimension
1001
ACAD
1000
DSTYLE
1002
{
1070
   179
1070
     0
1070
   271
1070
     0
1070
   272
1070
     2
1002
}
  0
LINE
  5
11152
330
1F
100
AcDbEntity
  8
AM_7
100
AcDbLine
 10
101.1788591013454
 20
136.9387639867146
 30
0.0
 11
-9.031569006204393
 21
136.9387639867146
 31
0.0
1001
GENIUS_GENODEF_13
1002
{
1000
HIER
1070
     0
1002
}
1002
{
1000
MANEDIT
1070
     0
1002
}
1002
{
1000
NOSEL
1070
     0
1002
}
1002
{
1000
BEHIND
1070
     0
1002
}
1002
{
1000
OTHER
1070
     0
1002
}
1002
{
1000
REACTOR
1002
}
1001
GENIUS_GENOBJ-N-CEN_13
1002
{
1000
OWNER
1000
GEN
1002
}
  0
DIMENSION
  5
11154
330
1F
100
AcDbEntity
  8
AM_5
100
AcDbDimension
  2
*D7
 10
-22.51338056312954
 20
91.93876398671468
 30
0.0
 11
-25.91338056312956
 21
114.4387639867146
 31
0.0
 70
    32
 71
     5
 42
44.99999999999993
  3
AM_JIS$0
100
AcDbAlignedDimension
 13
-9.031569006204393
 23
136.9387639867146
 33
0.0
 14
0.0074655778330452
 24
91.93876398671468
 34
0.0
 50
90.0
100
AcDbRotatedDimension
1001
ACAD
1000
DSTYLE
1002
{
1070
   179
1070
     0
1070
   271
1070
     0
1070
   272
1070
     2
1002
}
  0
LINE
  5
11157
330
1F
100
AcDbEntity
  8
AM_5
100
AcDbLine
 10
0.0074655778330452
 20
91.93876398671468
 30
0.0
 11
0.4115167427821689
 21
91.93876398671468
 31
0.0
  0
LINE
  5
11158
330
1F
100
AcDbEntity
  8
AM_5
100
AcDbLine
 10
0.0074655778330452
 20
91.93876398671468
 30
0.0
 11
0.0066287295475149
 21
92.3349767185836
 31
0.0
  0
LINE
  5
111BD
330
1F
100
AcDbEntity
  8
AM_0
100
AcDbLine
 10
97.00746557783253
 20
157.2277171154032
 30
0.0
 11
97.00746557783248
 21
116.6778280612777
 31
0.0
  0
LINE
  5
111C3
330
1F
100
AcDbEntity
  8
AM_0
100
AcDbLine
 10
39.00746557783253
 20
167.1256816829619
 30
0.0
 11
39.00746557783248
 21
106.4715685135507
 31
0.0
  0
LINE
  5
111C4
330
1F
100
AcDbEntity
  8
AM_0
100
AcDbLine
 10
47.88246557783253
 20
163.4387639867146
 30
0.0
 11
47.88246557783248
 21
110.4387639867146
 31
0.0
  0
LINE
  5
111C5
330
1F
100
AcDbEntity
  8
AM_0
100
AcDbLine
 10
43.62996650307372
 20
167.1256816829619
 30
0.0
 11
43.62996650307366
 21
116.9387639867146
 31
0.0
  0
LINE
  5
111C6
330
1F
100
AcDbEntity
  8
AM_0
100
AcDbLine
 10
46.13246557783253
 20
163.4387639867146
 30
0.0
 11
46.13246557783248
 21
110.4387639867146
 31
0.0
  0
LINE
  5
111C7
330
1F
100
AcDbEntity
  8
AM_0
100
AcDbLine
 10
45.13246557783253
 20
164.399117444983
 30
0.0
 11
45.13246557783248
 21
116.9387639867146
 31
0.0
  0
LINE
  5
111C8
330
1F
100
AcDbEntity
  8
AM_0
100
AcDbLine
 10
48.88246557783253
 20
164.399117444983
 30
0.0
 11
48.88246557783248
 21
116.9387639867146
 31
0.0
  0
LINE
  5
111C9
330
1F
100
AcDbEntity
  8
AM_0
100
AcDbLine
 10
50.38496465259226
 20
167.1256816829619
 30
0.0
 11
50.3849646525922
 21
116.9387639867146
 31
0.0
  0
LINE
  5
111CA
330
1F
100
AcDbEntity
  8
AM_0
100
AcDbLine
 10
65.00746557783253
 20
168.4387639867146
 30
0.0
 11
65.00746557783248
 21
105.4387639867146
 31
0.0
  0
LINE
  5
111CC
330
1F
100
AcDbEntity
  8
AM_0
100
AcDbLine
 10
69.50746557783248
 20
112.8437639867143
 30
0.0
 11
65.00746557783248
 21
112.6187639867149
 31
0.0
  0
ARC
  5
111D9
330
1F
100
AcDbEntity
  8
AM_0
100
AcDbCircle
 10
47.8235257235782
 20
109.589864400432
 30
0.0
 40
1.058952913757433
100
AcDbArc
 50
359.7154470648854
 51
53.28704925043766
  0
ARC
  5
111DD
330
1F
100
AcDbEntity
  8
AM_0
100
AcDbCircle
 10
46.19140543208675
 20
109.5898644004329
 30
0.0
 40
1.058952913756587
100
AcDbArc
 50
126.71295074953
 51
180.2845529351275
  0
LINE
  5
111DE
330
1F
100
AcDbEntity
  8
AM_0
100
AcDbLine
 10
47.88246557783248
 20
110.4387639867146
 30
0.0
 11
48.45657450997976
 21
110.4387639867146
 31
0.0
  0
LINE
  5
111DF
330
1F
100
AcDbEntity
  8
AM_0
100
AcDbLine
 10
46.13246557783248
 20
110.4387639867146
 30
0.0
 11
47.88246557783248
 21
110.4387639867146
 31
0.0
  0
LINE
  5
111E0
330
1F
100
AcDbEntity
  8
AM_0
100
AcDbLine
 10
45.5583566456861
 20
110.4387639867146
 30
0.0
 11
46.13246557783248
 21
110.4387639867146
 31
0.0
  0
LINE
  5
111E1
330
1F
100
AcDbEntity
  8
AM_0
100
AcDbLine
 10
45.13246557783248
 20
116.9387639867146
 30
0.0
 11
45.13319156629211
 21
116.9387639867146
 31
0.0
  0
SPLINE
  5
111E2
330
1F
100
AcDbEntity
  8
AM_0
100
AcDbSpline
210
0.0
220
0.0
230
1.0
 70
     8
 71
     3
 72
     8
 73
     4
 74
     0
 42
0.0000000001
 43
0.0000000001
 40
-1.94204761059973
 40
-1.94204761059973
 40
-1.94204761059973
 40
-1.94204761059973
 40
-1.894302822527507
 40
-1.894302822527507
 40
-1.894302822527507
 40
-1.894302822527507
 10
45.13319156629211
 20
116.9387639867146
 30
0.0
 10
45.13270654168252
 20
116.9207855600508
 30
0.0
 10
45.13246557783248
 20
116.9027849119193
 30
0.0
 10
45.13246557783248
 20
116.8847720627291
 30
0.0
  0
LINE
  5
111E3
330
1F
100
AcDbEntity
  8
AM_0
100
AcDbLine
 10
45.13246557783248
 20
116.8847720627291
 30
0.0
 11
45.13246557783248
 21
116.3236335204693
 31
0.0
  0
LINE
  5
111E4
330
1F
100
AcDbEntity
  8
AM_0
100
AcDbLine
 10
45.13246557783248
 20
116.3236335204693
 30
0.0
 11
45.13246557783248
 21
109.1705985440167
 31
0.0
  0
LINE
  5
111E6
330
1F
100
AcDbEntity
  8
AM_0
100
AcDbLine
 10
65.00746557783248
 20
105.4387639867146
 30
0.0
 11
60.00746557783248
 21
105.4387639867146
 31
0.0
  0
SPLINE
  5
111E8
330
1F
100
AcDbEntity
  8
AM_0
100
AcDbSpline
210
0.0
220
0.0
230
1.0
 70
     8
 71
     3
 72
     8
 73
     4
 74
     0
 42
0.0000000001
 43
0.0000000001
 40
1.776340743961663
 40
1.776340743961663
 40
1.776340743961663
 40
1.776340743961663
 40
2.063575594279487
 40
2.063575594279487
 40
2.063575594279487
 40
2.063575594279487
 10
48.88246557783248
 20
116.6348234824682
 30
0.0
 10
48.88246557783248
 20
116.7305684325739
 30
0.0
 10
48.87507929262927
 20
116.8353188307574
 30
0.0
 10
48.85891890765913
 20
116.9387639867146
 30
0.0
  0
LINE
  5
111E9
330
1F
100
AcDbEntity
  8
AM_0
100
AcDbLine
 10
48.85891890765913
 20
116.9387639867146
 30
0.0
 11
48.88246557783248
 21
116.9387639867146
 31
0.0
  0
LINE
  5
111EA
330
1F
100
AcDbEntity
  8
AM_0
100
AcDbLine
 10
50.3849646525922
 20
106.4715685135507
 30
0.0
 11
52.00746557783248
 21
106.4715685135507
 31
0.0
  0
SPLINE
  5
111EB
330
1F
100
AcDbEntity
  8
AM_0
100
AcDbSpline
210
0.0
220
0.0
230
1.0
 70
    12
 71
     2
 72
     6
 73
     3
 74
     0
 42
0.0000000001
 43
0.0000000001
 40
0.0
 40
0.0
 40
0.0
 40
3.089056677703773
 40
3.089056677703773
 40
3.089056677703773
 10
48.88246557783248
 20
109.1705985440167
 30
0.0
 41
1.0
 10
49.59889700761884
 20
107.8792312787409
 30
0.0
 41
1.000999993556015
 10
50.3849646525922
 20
106.4715685135507
 30
0.0
 41
1.0
  0
SPLINE
  5
111EC
330
1F
100
AcDbEntity
  8
AM_0
100
AcDbSpline
210
0.0
220
0.0
230
1.0
 70
    12
 71
     2
 72
     6
 73
     3
 74
     0
 42
0.0000000001
 43
0.0000000001
 40
0.0
 40
0.0
 40
0.0
 40
3.788582771409939
 40
3.788582771409939
 40
3.788582771409939
 10
50.3849646525922
 20
112.6025769394392
 30
0.0
 41
1.0
 10
49.57590461759948
 20
114.4164186950984
 30
0.0
 41
1.001661993538315
 10
48.88246557783248
 20
116.0804080579019
 30
0.0
 41
1.0
  0
LINE
  5
111ED
330
1F
100
AcDbEntity
  8
AM_0
100
AcDbLine
 10
48.88246557783248
 20
116.9387639867146
 30
0.0
 11
50.3849646525922
 21
116.9387639867146
 31
0.0
  0
LINE
  5
111EE
330
1F
100
AcDbEntity
  8
AM_0
100
AcDbLine
 10
48.88246557783248
 20
116.0804080579019
 30
0.0
 11
48.88246557783248
 21
116.6348234824682
 31
0.0
  0
LINE
  5
111EF
330
1F
100
AcDbEntity
  8
AM_0
100
AcDbLine
 10
52.8957516741765
 20
112.6025769394392
 30
0.0
 11
50.3849646525922
 21
112.6025769394392
 31
0.0
  0
LINE
  5
111F0
330
1F
100
AcDbEntity
  8
AM_0
100
AcDbLine
 10
50.3849646525922
 20
112.6025769394392
 30
0.0
 11
50.3849646525922
 21
106.4715685135507
 31
0.0
  0
LINE
  5
111F1
330
1F
100
AcDbEntity
  8
AM_0
100
AcDbLine
 10
48.88246557783248
 20
116.0804080579019
 30
0.0
 11
48.88246557783248
 21
109.1705985440167
 31
0.0
  0
ARC
  5
111F3
330
1F
100
AcDbEntity
  8
AM_0
100
AcDbCircle
 10
51.84323520292753
 20
73.69945654550615
 30
0.0
 40
32.77252346802263
100
AcDbArc
 50
75.5746650841989
 51
89.71287695489545
  0
ARC
  5
111F4
330
1F
100
AcDbEntity
  8
AM_0
100
AcDbCircle
 10
53.36974812347296
 20
119.8251826291872
 30
0.0
 40
7.238142412492669
100
AcDbArc
 50
266.2452459749703
 51
336.4981347158584
  0
LINE
  5
111F5
330
1F
100
AcDbEntity
  8
AM_0
100
AcDbLine
 10
50.3849646525922
 20
116.9387639867146
 30
0.0
 11
60.00746557783248
 21
116.9387639867146
 31
0.0
  0
LINE
  5
111F8
330
1F
100
AcDbEntity
  8
AM_0
100
AcDbLine
 10
39.00746557783248
 20
106.4715685135507
 30
0.0
 11
43.62996650307366
 21
106.4715685135507
 31
0.0
  0
ARC
  5
111F9
330
1F
100
AcDbEntity
  8
AM_0
100
AcDbCircle
 10
46.17214212560782
 20
119.4256692272011
 30
0.0
 40
6.647400590745968
100
AcDbArc
 50
201.9697455278646
 51
247.5156208110634
  0
LINE
  5
111FA
330
1F
100
AcDbEntity
  8
AM_0
100
AcDbLine
 10
40.00746557783248
 20
116.9387639867146
 30
0.0
 11
43.62996650307366
 21
116.9387639867146
 31
0.0
  0
LINE
  5
111FB
330
1F
100
AcDbEntity
  8
AM_0
100
AcDbLine
 10
43.62996650307366
 20
113.2835785637508
 30
0.0
 11
43.62996650307366
 21
106.4715685135507
 31
0.0
  0
SPLINE
  5
111FE
330
1F
100
AcDbEntity
  8
AM_0
100
AcDbSpline
210
0.0
220
0.0
230
1.0
 70
    12
 71
     2
 72
     6
 73
     3
 74
     0
 42
0.0000000001
 43
0.0000000001
 40
0.0004629399900766
 40
0.0004629399900766
 40
0.0004629399900766
 40
3.089518613366919
 40
3.089518613366919
 40
3.089518613366919
 10
43.62996650307375
 20
106.4715685135507
 30
0.0
 41
1.00000029977658
 10
44.41603414802614
 20
107.8792312787033
 30
0.0
 41
1.001000308211577
 10
45.13246557783259
 20
109.1705985440161
 30
0.0
 41
1.00000032891449
  0
LINE
  5
111FF
330
1F
100
AcDbEntity
  8
AM_0
100
AcDbLine
 10
43.62996650307366
 20
116.9387639867146
 30
0.0
 11
45.13246557783248
 21
116.9387639867146
 31
0.0
  0
ARC
  5
11200
330
1F
100
AcDbEntity
  8
AM_0
100
AcDbCircle
 10
-8.372674429965684
 20
140.87638194591
 30
0.0
 40
58.86966504488657
100
AcDbArc
 50
332.0494046668675
 51
335.350282339776
  0
SPLINE
  5
11207
330
1F
100
AcDbEntity
  8
AM_0
100
AcDbSpline
210
0.0
220
0.0
230
1.0
 70
     8
 71
     3
 72
     8
 73
     4
 74
     0
 42
0.0000000001
 43
0.0000000001
 40
2.048349944607707
 40
2.048349944607707
 40
2.048349944607707
 40
2.048349944607707
 40
2.082808961106547
 40
2.082808961106547
 40
2.082808961106547
 40
2.082808961106547
 10
97.00702052557142
 20
116.6429333193164
 30
0.0
 10
97.00731997065384
 20
116.6547006652891
 30
0.0
 10
97.00746557783248
 20
116.6663417224463
 30
0.0
 10
97.00746557783248
 20
116.6778280612798
 30
0.0
  0
SPLINE
  5
11208
330
1F
100
AcDbEntity
  8
AM_0
100
AcDbSpline
210
0.0
220
0.0
230
1.0
 70
     8
 71
     3
 72
    16
 73
    12
 74
     0
 42
0.0000000001
 43
0.0000000001
 40
-4.40429224599759
 40
-4.40429224599759
 40
-4.40429224599759
 40
-4.40429224599759
 40
-4.141910802677585
 40
-4.141910802677585
 40
-3.871634509130126
 40
-3.871634509130126
 40
-3.14310442813097
 40
-3.14310442813097
 40
-2.420961954899249
 40
-2.420961954899249
 40
-1.953365045766561
 40
-1.953365045766561
 40
-1.953365045766561
 40
-1.953365045766561
 10
95.86739071816544
 20
116.0687639867147
 30
0.0
 10
95.93575048003447
 20
116.0688406065447
 30
0.0
 10
96.00070886919536
 20
116.0690378762556
 30
0.0
 10
96.12511286876168
 20
116.0709777407883
 30
0.0
 10
96.18432981374269
 20
116.0728395460492
 30
0.0
 10
96.38490444382194
 20
116.0849477271868
 30
0.0
 10
96.52851648341573
 20
116.1059613867801
 30
0.0
 10
96.77699308985746
 20
116.2085799427942
 30
0.0
 10
96.8764912196192
 20
116.2876274714527
 30
0.0
 10
96.97880074778993
 20
116.4664438930386
 30
0.0
 10
97.00345549511974
 20
116.5492200503632
 30
0.0
 10
97.00702052557142
 20
116.6428123035767
 30
0.0
  0
ARC
  5
11209
330
1F
100
AcDbEntity
  8
AM_11
  6
ACJISTGB
100
AcDbCircle
 10
95.80746557783266
 20
115.3602630503838
 30
0.0
 40
1.2
100
AcDbArc
 50
272.8624052261126
 51
0.0
  0
LINE
  5
1120A
330
1F
100
AcDbEntity
  8
AM_11
  6
ACJISTGB
100
AcDbLine
 10
97.00746557783248
 20
116.6778280612777
 30
0.0
 11
97.00746557783248
 21
115.3602630503838
 31
0.0
  0
LINE
  5
1120B
330
1F
100
AcDbEntity
  8
AM_0
100
AcDbLine
 10
91.00746557783248
 20
116.0687639867147
 30
0.0
 11
91.00746557783248
 21
113.918763986715
 31
0.0
  0
LINE
  5
1120D
330
1F
100
AcDbEntity
  8
AM_0
100
AcDbLine
 10
91.00746557783248
 20
116.0687639867147
 30
0.0
 11
95.86739071816544
 21
116.0687639867147
 31
0.0
  0
LINE
  5
1120E
330
1F
100
AcDbEntity
  8
AM_11
  6
ACJISTGB
100
AcDbLine
 10
95.86739071816533
 20
114.1617602437317
 30
0.0
 11
91.00746557783248
 21
113.918763986715
 31
0.0
  0
ARC
  5
11210
330
1F
100
AcDbEntity
  8
AM_0
100
AcDbCircle
 10
75.18259741455756
 20
89.56612725221753
 30
0.0
 40
23.95945519638139
100
AcDbArc
 50
82.02328712258932
 51
103.701523329625
  0
LINE
  5
11218
330
1F
100
AcDbEntity
  8
AM_0
100
AcDbLine
 10
91.00746557783248
 20
113.918763986715
 30
0.0
 11
78.50746557783248
 21
113.2937639867151
 31
0.0
  0
LINE
  5
1121A
330
1F
100
AcDbEntity
  8
AM_0
100
AcDbLine
 10
69.50746557783253
 20
161.0337639867148
 30
0.0
 11
65.00746557783253
 21
161.2587639867152
 31
0.0
  0
LINE
  5
1121E
330
1F
100
AcDbEntity
  8
AM_0
100
AcDbLine
 10
47.88246557783253
 20
163.4387639867146
 30
0.0
 11
48.74061736151901
 21
163.4387639867146
 31
0.0
  0
LINE
  5
1121F
330
1F
100
AcDbEntity
  8
AM_0
100
AcDbLine
 10
45.27431379414605
 20
163.4387639867146
 30
0.0
 11
46.13246557783253
 21
163.4387639867146
 31
0.0
  0
LINE
  5
11220
330
1F
100
AcDbEntity
  8
AM_0
100
AcDbLine
 10
47.88246557783253
 20
163.4387639867146
 30
0.0
 11
46.13246557783253
 21
163.4387639867146
 31
0.0
  0
ARC
  5
11221
330
1F
100
AcDbEntity
  8
AM_0
100
AcDbCircle
 10
46.23452939240082
 20
163.9796255713636
 30
0.0
 40
1.102064085650231
100
AcDbArc
 50
179.9598130706537
 51
209.3912990857495
  0
LINE
  5
11222
330
1F
100
AcDbEntity
  8
AM_0
100
AcDbLine
 10
65.00746557783253
 20
168.4387639867146
 30
0.0
 11
60.00746557783253
 21
168.4387639867146
 31
0.0
  0
ARC
  5
11224
330
1F
100
AcDbEntity
  8
AM_0
100
AcDbCircle
 10
47.78040176326425
 20
163.9796255713636
 30
0.0
 40
1.102064085651275
100
AcDbArc
 50
330.6087009142633
 51
0.0401869293332346
  0
SPLINE
  5
11225
330
1F
100
AcDbEntity
  8
AM_0
100
AcDbSpline
210
0.0
220
0.0
230
1.0
 70
    12
 71
     2
 72
     6
 73
     3
 74
     0
 42
0.0000000001
 43
0.0000000001
 40
0.0
 40
0.0
 40
0.0
 40
3.113143699890207
 40
3.113143699890207
 40
3.113143699890207
 10
50.38496465259226
 20
167.1256816829619
 30
0.0
 41
1.0
 10
49.59818298886199
 20
165.7036586186214
 30
0.0
 41
1.001020531934115
 10
48.88246557783253
 20
164.399117444983
 30
0.0
 41
1.0
  0
LINE
  5
11226
330
1F
100
AcDbEntity
  8
AM_0
100
AcDbLine
 10
51.00746557783253
 20
167.1256816829619
 30
0.0
 11
50.38496465259226
 21
167.1256816829619
 31
0.0
  0
ARC
  5
11228
330
1F
100
AcDbEntity
  8
AM_0
100
AcDbCircle
 10
50.77017209277159
 20
200.2521154254983
 30
0.0
 40
33.12728362991341
100
AcDbArc
 50
270.4104179389327
 51
286.1911316600852
  0
LINE
  5
1122A
330
1F
100
AcDbEntity
  8
AM_0
100
AcDbLine
 10
43.62996650307372
 20
167.1256816829619
 30
0.0
 11
39.00746557783253
 21
167.1256816829619
 31
0.0
  0
SPLINE
  5
1122D
330
1F
100
AcDbEntity
  8
AM_0
100
AcDbSpline
210
0.0
220
0.0
230
1.0
 70
    12
 71
     2
 72
     6
 73
     3
 74
     0
 42
0.0000000001
 43
0.0000000001
 40
0.0
 40
0.0
 40
0.0
 40
3.113143699890185
 40
3.113143699890185
 40
3.113143699890185
 10
45.13246557783253
 20
164.399117444983
 30
0.0
 41
1.0
 10
44.41674816681515
 20
165.7036586186006
 30
0.0
 41
1.001020531935521
 10
43.62996650307372
 20
167.1256816829619
 30
0.0
 41
1.0
  0
SPLINE
  5
11244
330
1F
100
AcDbEntity
  8
AM_0
100
AcDbSpline
210
0.0
220
0.0
230
1.0
 70
     8
 71
     3
 72
     8
 73
     4
 74
     0
 42
0.0000000001
 43
0.0000000001
 40
5.80931992843316
 40
5.80931992843316
 40
5.80931992843316
 40
5.80931992843316
 40
5.823322112792894
 40
5.823322112792894
 40
5.823322112792894
 40
5.823322112792894
 10
97.00746557783253
 20
157.220678563167
 30
0.0
 10
97.00746557783253
 20
157.2253459579533
 30
0.0
 10
97.00744151649718
 20
157.230038898595
 30
0.0
 10
97.00739278654231
 20
157.2347554796816
 30
0.0
  0
SPLINE
  5
11245
330
1F
100
AcDbEntity
  8
AM_0
100
AcDbSpline
210
0.0
220
0.0
230
1.0
 70
     8
 71
     3
 72
    16
 73
    12
 74
     0
 42
0.0000000001
 43
0.0000000001
 40
-1.965007727733835
 40
-1.965007727733835
 40
-1.965007727733835
 40
-1.965007727733835
 40
-1.602152014354634
 40
-1.602152014354634
 40
-0.9617068588456064
 40
-0.9617068588456064
 40
-0.4733245765258282
 40
-0.4733245765258282
 40
-0.1927584624124154
 40
-0.1927584624124154
 40
-0.0001921708555565
 40
-0.0001921708555565
 40
-0.0001921708555565
 40
-0.0001921708555565
 10
97.00739278654231
 20
157.2349245772275
 30
0.0
 10
97.00601537458982
 20
157.3244991343718
 30
0.0
 10
96.98520677388291
 20
157.407722166904
 30
0.0
 10
96.87626648389954
 20
157.610436747349
 30
0.0
 10
96.75731479511609
 20
157.6937307229446
 30
0.0
 10
96.51274475237818
 20
157.7785774023232
 30
0.0
 10
96.39578696673738
 20
157.7950886295475
 30
0.0
 10
96.20916291169209
 20
157.806784827756
 30
0.0
 10
96.13219583591302
 20
157.8084231296498
 30
0.0
 10
95.99161126486246
 20
157.8090768954326
 30
0.0
 10
95.93105703895884
 20
157.8088522972994
 30
0.0
 10
95.8673907181655
 20
157.8087639867144
 30
0.0
  0
LINE
  5
11246
330
1F
100
AcDbEntity
  8
AM_11
  6
ACJISTGB
100
AcDbLine
 10
97.00746557783253
 20
158.5172649230444
 30
0.0
 11
97.00746557783253
 21
157.2277171154032
 31
0.0
  0
ARC
  5
11247
330
1F
100
AcDbEntity
  8
AM_11
  6
ACJISTGB
100
AcDbCircle
 10
95.80746557783272
 20
158.5172649230444
 30
0.0
 40
1.2
100
AcDbArc
 50
0.0
 51
87.13759477388736
  0
LINE
  5
11248
330
1F
100
AcDbEntity
  8
AM_0
100
AcDbLine
 10
87.00746557783253
 20
160.1587639867148
 30
0.0
 11
87.00746557783253
 21
157.8087639867144
 31
0.0
  0
LINE
  5
1124A
330
1F
100
AcDbEntity
  8
AM_0
100
AcDbLine
 10
87.00746557783253
 20
157.8087639867144
 30
0.0
 11
95.8673907181655
 21
157.8087639867144
 31
0.0
  0
LINE
  5
1124B
330
1F
100
AcDbEntity
  8
AM_11
  6
ACJISTGB
100
AcDbLine
 10
95.8673907181655
 20
159.715767729698
 30
0.0
 11
87.00746557783253
 21
160.1587639867149
 31
0.0
  0
ARC
  5
1124D
330
1F
100
AcDbEntity
  8
AM_0
100
AcDbCircle
 10
75.18259741455762
 20
184.3114007212117
 30
0.0
 40
23.9594551963814
100
AcDbArc
 50
256.298476670375
 51
277.9767128774107
  0
LINE
  5
11254
330
1F
100
AcDbEntity
  8
AM_0
100
AcDbLine
 10
87.00746557783253
 20
160.1587639867149
 30
0.0
 11
78.50746557783253
 21
160.583763986715
 31
0.0
  0
LINE
  5
11C98
330
1F
100
AcDbEntity
  8
AM_0
100
AcDbLine
 10
33.87349098161701
 20
138.4387639867147
 30
0.0
 11
34.73951638540143
 21
136.9387639867147
 31
0.0
  0
LINE
  5
11C99
330
1F
100
AcDbEntity
  8
AM_0
100
AcDbLine
 10
32.14144017404811
 20
138.4387639867147
 30
0.0
 11
33.87349098161701
 21
138.4387639867147
 31
0.0
  0
LINE
  5
11C9A
330
1F
100
AcDbEntity
  8
AM_0
100
AcDbLine
 10
31.27541477026369
 20
136.9387639867147
 30
0.0
 11
32.14144017404811
 21
138.4387639867147
 31
0.0
  0
LINE
  5
11C9B
330
1F
100
AcDbEntity
  8
AM_0
100
AcDbLine
 10
32.14144017404811
 20
135.4387639867147
 30
0.0
 11
31.27541477026369
 21
136.9387639867147
 31
0.0
  0
LINE
  5
11C9C
330
1F
100
AcDbEntity
  8
AM_0
100
AcDbLine
 10
33.87349098161707
 20
135.4387639867147
 30
0.0
 11
32.14144017404817
 21
135.4387639867147
 31
0.0
  0
LINE
  5
11C9D
330
1F
100
AcDbEntity
  8
AM_0
100
AcDbLine
 10
34.73951638540143
 20
136.9387639867147
 30
0.0
 11
33.87349098161701
 21
135.4387639867147
 31
0.0
  0
LINE
  5
11C9F
330
1F
100
AcDbEntity
  8
AM_0
100
AcDbLine
 10
25.17281240061675
 20
121.8888379149111
 30
0.0
 11
21.54477030736291
 21
124.4292203375496
 31
0.0
  0
ARC
  5
11CA0
330
1F
100
AcDbEntity
  8
AM_0
100
AcDbCircle
 10
25.10450213250368
 20
126.0261506569182
 30
0.0
 40
3.901522409500941
100
AcDbArc
 50
171.706409704497
 51
204.1614681861892
  0
ARC
  5
11CA1
330
1F
100
AcDbEntity
  8
AM_0
100
AcDbCircle
 10
25.45593604860108
 20
125.7800739796841
 30
0.0
 40
3.901522409500941
100
AcDbArc
 50
265.8385318138094
 51
278.3328178051212
  0
SPLINE
  5
11CD0
330
1F
100
AcDbEntity
  8
AM_0
100
AcDbSpline
210
0.0
220
0.0
230
1.0
 70
    12
 71
     2
 72
     6
 73
     3
 74
     0
 42
0.0000000001
 43
0.0000000001
 40
19.54163103118207
 40
19.54163103118207
 40
19.54163103118207
 40
22.92590803710187
 40
22.92590803710187
 40
22.92590803710187
 10
31.56689822152487
 20
93.21195449086621
 30
0.0
 41
1.071151829183419
 10
31.61122013686435
 20
93.26380344604857
 30
0.0
 41
1.073202421420719
 10
31.62473496621635
 20
93.31424147584487
 30
0.0
 41
1.073829259765548
  0
LINE
  5
11CD1
330
1F
100
AcDbEntity
  8
AM_0
100
AcDbLine
 10
20.48302876688808
 20
95.88521098551802
 30
0.0
 11
19.2262192060881
 21
95.92340778922288
 31
0.0
  0
LINE
  5
11CD2
330
1F
100
AcDbEntity
  8
AM_0
100
AcDbLine
 10
19.22728472865782
 20
95.90593636498709
 30
0.0
 11
20.21602013242955
 21
95.87588683854186
 31
0.0
  0
LINE
  5
11CD3
330
1F
100
AcDbEntity
  8
AM_0
100
AcDbLine
 10
20.02361867571392
 20
92.80885428666805
 30
0.0
 11
19.37899790068229
 21
92.82844552306209
 31
0.0
  0
LINE
  5
11CD4
330
1F
100
AcDbEntity
  8
AM_0
100
AcDbLine
 10
12.12128083333232
 20
111.4269990785402
 30
0.0
 11
12.26934806033097
 21
111.4863137677789
 31
0.0
  0
ARC
  5
11CD5
330
1F
100
AcDbEntity
  8
AM_0
100
AcDbCircle
 10
38.40033575663279
 20
102.5084186695367
 30
0.0
 40
4.521335507167064
100
AcDbArc
 50
82.28294962581403
 51
121.9540977775046
  0
SPLINE
  5
11CD6
330
1F
100
AcDbEntity
  8
AM_0
100
AcDbSpline
210
0.0
220
0.0
230
1.0
 70
     8
 71
     3
 72
    22
 73
    18
 74
     0
 42
0.0000000001
 43
0.0000000001
 40
9.135131403655873
 40
9.135131403655873
 40
9.135131403655873
 40
9.135131403655873
 40
9.700515220472017
 40
9.700515220472017
 40
10.26589903728816
 40
10.26589903728816
 40
10.83128285410431
 40
10.83128285410431
 40
11.39666667092045
 40
11.39666667092045
 40
11.97803453432145
 40
11.97803453432145
 40
12.55940239772246
 40
12.55940239772246
 40
13.14077026112346
 40
13.14077026112346
 40
13.72213812452447
 40
13.72213812452447
 40
13.72213812452447
 40
13.72213812452447
 10
39.00746557783253
 20
166.6035579350973
 30
0.0
 10
38.81900430556055
 20
166.6035579350973
 30
0.0
 10
38.62442259634173
 20
166.6090541184407
 30
0.0
 10
38.23803577932415
 20
166.6318425647057
 30
0.0
 10
38.04622654589781
 20
166.6491249156392
 30
0.0
 10
37.67899562941017
 20
166.6938609157704
 30
0.0
 10
37.50325988918127
 20
166.7213363070356
 30
0.0
 10
37.17870024532209
 20
166.7831138575294
 30
0.0
 10
37.02988050280777
 20
166.8173983639676
 30
0.0
 10
36.76288985528277
 20
166.8891695422627
 30
0.0
 10
36.63618867846549
 20
166.9292880521971
 30
0.0
 10
36.41302713442218
 20
167.0134759107027
 30
0.0
 10
36.31654816578998
 20
167.0575249713814
 30
0.0
 10
36.16152217319649
 20
167.1456202857912
 30
0.0
 10
36.10286205584242
 20
167.1897198982088
 30
0.0
 10
36.02582272268234
 20
167.2744460329182
 30
0.0
 10
36.00746557783253
 20
167.3150690341154
 30
0.0
 10
36.00746557783253
 20
167.3525766382057
 30
0.0
  0
LINE
  5
11CD7
330
1F
100
AcDbEntity
  8
AM_0
100
AcDbLine
 10
5.503248235500166
 20
96.86225931909063
 30
0.0
 11
5.503248235500166
 21
96.45580303121436
 31
0.0
  0
LINE
  5
11CD8
330
1F
100
AcDbEntity
  8
AM_0
100
AcDbLine
 10
31.56756199507947
 20
93.21177817945197
 30
0.0
 11
33.82390241946007
 21
101.7064018015529
 31
0.0
  0
LINE
  5
11CD9
330
1F
100
AcDbEntity
  8
AM_0
100
AcDbLine
 10
31.56689822152492
 20
93.21195449086621
 30
0.0
 11
20.02361867571392
 21
92.80885428666805
 31
0.0
  0
LINE
  5
11CDA
330
1F
100
AcDbEntity
  8
AM_0
100
AcDbLine
 10
20.21602013242955
 20
95.8758868385418
 30
0.0
 11
20.02361867571392
 21
92.80885428666805
 31
0.0
  0
LINE
  5
11CDB
330
1F
100
AcDbEntity
  8
AM_0
100
AcDbLine
 10
20.48302876688808
 20
95.88521098551807
 30
0.0
 11
20.21602013242955
 21
95.87588683854186
 31
0.0
  0
LINE
  5
11CDC
330
1F
100
AcDbEntity
  8
AM_0
100
AcDbLine
 10
20.42649235646229
 20
97.3833904871078
 30
0.0
 11
20.48302876688808
 21
95.88521098551807
 31
0.0
  0
LINE
  5
11CDD
330
1F
100
AcDbEntity
  8
AM_0
100
AcDbLine
 10
5.503248235500166
 20
96.86225931909063
 30
0.0
 11
7.797556363881711
 21
96.94237832438488
 31
0.0
  0
LINE
  5
11CDE
330
1F
100
AcDbEntity
  8
AM_0
100
AcDbLine
 10
17.36629451180306
 20
97.27652602357533
 30
0.0
 11
20.42649235646229
 21
97.3833904871078
 31
0.0
  0
LINE
  5
11CDF
330
1F
100
AcDbEntity
  8
AM_0
100
AcDbLine
 10
5.503248235500109
 20
117.9391534464337
 30
0.0
 11
5.503248235500109
 21
96.86225931909057
 31
0.0
  0
LINE
  5
11CE0
330
1F
100
AcDbEntity
  8
AM_0
100
AcDbLine
 10
21.96428335388009
 20
108.9835922250329
 30
0.0
 11
21.78289531217888
 21
108.7026555346597
 31
0.0
  0
ARC
  5
11CE1
330
1F
100
AcDbEntity
  8
AM_0
100
AcDbCircle
 10
-13.06271282041018
 20
115.2774128856923
 30
0.0
 40
48.81019003277361
100
AcDbArc
 50
343.8572492121833
 51
349.9515229838858
  0
ELLIPSE
  5
11CE3
330
1F
100
AcDbEntity
  8
AM_0
100
AcDbEllipse
 10
2.883570143217014
 20
136.9387639867147
 30
0.0
 11
31.86708550742241
 21
-30.43044444482103
 31
7.501683734693506E-31
210
-1.231284853214129E-32
220
1.175775717322975E-32
230
1.0
 40
0.1856169059279988
 41
0.05359131512251
 42
1.479110535082419
  0
LINE
  5
11CE4
330
1F
100
AcDbEntity
  8
AM_0
100
AcDbLine
 10
34.99881533334587
 20
106.7609401880654
 30
0.0
 11
35.00752817538762
 21
106.868847245186
 31
0.0
  0
LINE
  5
11CE6
330
1F
100
AcDbEntity
  8
AM_0
100
AcDbLine
 10
11.42591782613641
 20
140.0428572751294
 30
0.0
 11
18.90060350164026
 21
167.9387639867146
 31
0.0
  0
LINE
  5
11CE7
330
1F
100
AcDbEntity
  8
AM_0
100
AcDbLine
 10
11.42591782613641
 20
140.0428572751294
 30
0.0
 11
9.408008042443839
 21
132.511915437299
 31
0.0
  0
LINE
  5
11CE8
330
1F
100
AcDbEntity
  8
AM_0
100
AcDbLine
 10
9.408008042443839
 20
132.511915437299
 30
0.0
 11
8.09162640887331
 21
127.5991122986637
 31
0.0
  0
LINE
  5
11CE9
330
1F
100
AcDbEntity
  8
AM_0
100
AcDbLine
 10
8.09162640887331
 20
127.5991122986637
 30
0.0
 11
5.503248235500166
 21
117.9391534464338
 31
0.0
  0
CIRCLE
  5
11CEA
330
1F
100
AcDbEntity
  8
AM_0
100
AcDbCircle
 10
33.00746557783265
 20
136.9387639867147
 30
0.0
 40
3.500000000000002
  0
ELLIPSE
  5
11CEB
330
1F
100
AcDbEntity
  8
AM_0
100
AcDbEllipse
 10
23.23363667634681
 20
122.9802897228202
 30
0.0
 11
3.854681692399097
 21
-4.070046368260306
 31
1.003343894486661E-31
210
-1.230775840475911E-32
220
1.299540439240207E-32
230
1.0
 40
0.2631762000213583
 41
5.372936036424624
 42
11.65612134360421
  0
LINE
  5
11CF4
330
1F
100
AcDbEntity
  8
AM_0
100
AcDbLine
 10
35.00746557783248
 20
105.9387639867146
 30
0.0
 11
31.62473496621641
 21
93.31424147584481
 31
0.0
  0
LINE
  5
11CF5
330
1F
100
AcDbEntity
  8
AM_0
100
AcDbLine
 10
36.00746557783253
 20
167.9387639867146
 30
0.0
 11
18.90060350164021
 21
167.9387639867146
 31
0.0
  0
LINE
  5
11CF6
330
1F
100
AcDbEntity
  8
AM_0
100
AcDbLine
 10
36.00746557783248
 20
105.9387639867146
 30
0.0
 11
35.00746557783253
 21
105.9387639867146
 31
0.0
  0
ELLIPSE
  5
11D07
330
1F
100
AcDbEntity
  8
AM_0
100
AcDbEllipse
 10
17.34475796485162
 20
105.1009928602136
 30
0.0
 11
-2.26837738522858
 21
5.662549252605541
 31
-1.395926165396554E-31
210
-8.509775181495270E-33
220
2.124294723074111E-32
230
1.0
 40
0.9955885157579666
 41
0.017768012156427
 42
0.1832416205905783
  0
ELLIPSE
  5
11D08
330
1F
100
AcDbEntity
  8
AM_0
100
AcDbEllipse
 10
20.63944700994364
 20
110.213385736938
 30
0.0
 11
-0.7437302902388759
 21
1.85657352544444
 31
-4.576807099660832E-32
210
-8.509775181495246E-33
220
2.124294723074114E-32
230
1.0
 40
0.9955885157579665
 41
0.0542161421712368
 42
0.3175604292914387
  0
ELLIPSE
  5
11D09
330
1F
100
AcDbEntity
  8
AM_0
100
AcDbEllipse
 10
20.43912076165134
 20
110.1331364514974
 30
0.0
 11
-0.7437302902388592
 21
1.856573525444447
 31
-4.576807099660849E-32
210
-8.509775181495077E-33
220
2.124294723074129E-32
230
1.0
 40
0.9955885157579664
 41
5.730965520825246
 42
6.606958624204292
  0
ELLIPSE
  5
11D0A
330
1F
100
AcDbEntity
  8
AM_0
100
AcDbEllipse
 10
17.14443171655933
 20
105.0207435747729
 30
0.0
 11
-2.268377385228493
 21
5.662549252605573
 31
-1.395926165396561E-31
210
-8.509775181494999E-33
220
2.124294723074138E-32
230
1.0
 40
0.9955885157579661
 41
5.698227917743086
 42
6.479621820491832
  0
ELLIPSE
  5
11D0B
330
1F
100
AcDbEntity
  8
AM_0
100
AcDbEllipse
 10
13.47307241989358
 20
109.8898766830861
 30
0.0
 11
-0.7437302902388762
 21
1.856573525444441
 31
-4.576807099660833E-32
210
-8.509775181495249E-33
220
2.124294723074114E-32
230
1.0
 40
0.9955885157579664
 41
0.2661629024764864
 42
1.860469160964049
  0
ELLIPSE
  5
11D0C
330
1F
100
AcDbEntity
  8
AM_0
100
AcDbEllipse
 10
17.14443171655933
 20
105.020743574773
 30
0.0
 11
-3.012107675467492
 21
7.519122778049966
 31
-1.853606875362633E-31
210
-8.509775181495350E-33
220
2.124294723074104E-32
230
1.0
 40
0.9955885157579665
 41
0.0098898333220965
 42
0.2661629024764798
  0
LINE
  5
11D0D
330
1F
100
AcDbEntity
  8
AM_0
100
AcDbLine
 10
35.00746557783248
 20
106.8688522995599
 30
0.0
 11
35.00746557783248
 21
105.9387639867147
 31
0.0
  0
LINE
  5
11D0E
330
1F
100
AcDbEntity
  8
AM_0
100
AcDbLine
 10
36.00746557783248
 20
106.3446469051579
 30
0.0
 11
36.00746557783248
 21
105.9387639867147
 31
0.0
  0
LINE
  5
11D0F
330
1F
100
AcDbEntity
  8
AM_0
100
AcDbLine
 10
36.00746557783253
 20
167.9387639867146
 30
0.0
 11
36.00746557783253
 21
167.3525766382057
 31
0.0
  0
ELLIPSE
  5
11D10
330
1F
100
AcDbEntity
  8
AM_0
100
AcDbEllipse
 10
16.99636448956068
 20
104.9614288855342
 30
0.0
 11
-2.26837738522858
 21
5.662549252605539
 31
-1.395926165396553E-31
210
-8.509775181495275E-33
220
2.124294723074111E-32
230
1.0
 40
0.9955885157579663
 41
3.275449997951062
 42
4.993620382615971
  0
ELLIPSE
  5
11D11
330
1F
100
AcDbEntity
  8
AM_0
100
AcDbEllipse
 10
20.29105353465269
 20
110.0738217622587
 30
0.0
 11
-0.7437302902388762
 21
1.85657352544444
 31
-4.576807099660832E-32
210
-8.509775181495248E-33
220
2.124294723074113E-32
230
1.0
 40
0.9955885157579666
 41
3.755973096883331
 42
5.327617733259861
  0
ELLIPSE
  5
11D12
330
1F
100
AcDbEntity
  8
AM_0
100
AcDbEllipse
 10
16.99636448956073
 20
104.9614288855343
 30
0.0
 11
-3.012107675467493
 21
7.519122778049966
 31
-1.853606875362633E-31
210
-8.509775181495361E-33
220
2.124294723074103E-32
230
1.0
 40
0.9955885157579665
 41
5.327617733259894
 42
6.549348209656066
  0
ELLIPSE
  5
11D13
330
1F
100
AcDbEntity
  8
AM_0
100
AcDbEllipse
 10
13.32500519289488
 20
109.8305619938474
 30
0.0
 11
-0.7437302902388762
 21
1.85657352544444
 31
-4.576807099660832E-32
210
-8.509775181495248E-33
220
2.124294723074113E-32
230
1.0
 40
0.9955885157579666
 41
0.2661629024764868
 42
1.899258343718444
  0
CIRCLE
  5
11D14
330
1F
100
AcDbEntity
  8
AM_0
100
AcDbCircle
 10
33.00746557783265
 20
136.9387639867147
 30
0.0
 40
3.0
  0
LINE
  5
11D15
330
1F
100
AcDbEntity
  8
AM_0
100
AcDbLine
 10
14.71678562180784
 20
94.87720557582524
 30
0.0
 11
19.02366385626277
 21
98.77739290975642
 31
0.0
  0
LINE
  5
11D16
330
1F
100
AcDbEntity
  8
AM_0
100
AcDbLine
 10
12.00611281984948
 20
92.47967449536718
 30
0.0
 11
12.24998825255312
 21
92.57736927764272
 31
0.0
  0
LINE
  5
11D17
330
1F
100
AcDbEntity
  8
AM_0
100
AcDbLine
 10
20.47762017631209
 20
100.2919774394259
 30
0.0
 11
16.61959706727794
 21
96.79826063464303
 31
0.0
  0
LINE
  5
11D18
330
1F
100
AcDbEntity
  8
AM_0
100
AcDbLine
 10
9.181040763810131
 20
101.6360440672991
 30
0.0
 11
10.77501046206925
 21
106.6022240268194
 31
0.0
  0
LINE
  5
11D19
330
1F
100
AcDbEntity
  8
AM_0
100
AcDbLine
 10
9.181040763810131
 20
101.6360440672991
 30
0.0
 11
16.61959706727788
 21
96.79826063464303
 31
0.0
  0
ELLIPSE
  5
11D1A
330
1F
100
AcDbEntity
  8
AM_0
100
AcDbEllipse
 10
17.31638401785978
 20
97.0773885840017
 30
0.0
 11
6.152359889132091
 21
5.54146370126125
 31
-1.366076272383228E-31
210
1.225885688703927E-32
220
1.104161844928543E-32
230
1.0
 40
0.0313848879702452
 41
1.655988554997419
 42
2.583283772999053
  0
LINE
  5
11D1B
330
1F
100
AcDbEntity
  8
AM_0
100
AcDbLine
 10
12.00611281984948
 20
92.47967449536718
 30
0.0
 11
7.43850870659287
 21
95.4502884968695
 31
0.0
  0
ELLIPSE
  5
11D1C
330
1F
100
AcDbEntity
  8
AM_0
100
AcDbEllipse
 10
9.877827714392026
 20
101.9151720166578
 30
0.0
 11
2.562768664321187
 21
7.874680259969252
 31
-1.941258561939180E-31
210
7.254468772100253E-33
220
2.229097882752236E-32
230
1.0
 40
0.069696980002752
 41
1.628919477114839
 42
2.556214695116473
  0
LINE
  5
11D1D
330
1F
100
AcDbEntity
  8
AM_0
100
AcDbLine
 10
12.24998825255307
 20
92.57736927764266
 30
0.0
 11
13.76356020893002
 21
93.95571330702568
 31
0.0
  0
LINE
  5
11D1E
330
1F
100
AcDbEntity
  8
AM_0
100
AcDbLine
 10
13.76356020893002
 20
93.95571330702562
 30
0.0
 11
13.76172712847944
 21
93.95690548005932
 31
0.0
  0
ELLIPSE
  5
11D1F
330
1F
100
AcDbEntity
  8
AM_0
100
AcDbEllipse
 10
14.8387233381597
 20
94.92605296696301
 30
0.0
 11
1.076662980598116
 21
0.9697561477207185
 31
-2.390633476670648E-32
210
1.225885688703926E-32
220
1.104161844928543E-32
230
1.0
 40
0.0313848879702452
 41
1.655988554997211
 42
3.173204014227685
  0
LINE
  5
11D20
330
1F
100
AcDbEntity
  8
AM_0
100
AcDbLine
 10
19.02239237148638
 20
98.77881614356851
 30
0.0
 11
20.91236192022558
 21
100.4672720308576
 31
0.0
  0
LINE
  5
11D21
330
1F
100
AcDbEntity
  8
AM_0
100
AcDbLine
 10
20.47762017631209
 20
100.2919774394259
 30
0.0
 11
20.91311202042579
 21
100.4664324077751
 31
0.0
  0
LINE
  5
11D22
330
1F
100
AcDbEntity
  8
AM_0
100
AcDbLine
 10
21.30360300311855
 20
108.5538048181113
 30
0.0
 11
21.82047547797845
 21
108.7608602944905
 31
0.0
  0
LINE
  5
11D23
330
1F
100
AcDbEntity
  8
AM_0
100
AcDbLine
 10
21.53346936845264
 20
108.9000383537448
 30
0.0
 11
22.03431599538453
 21
109.1006739882123
 31
0.0
  0
ARC
  5
11D24
330
1F
100
AcDbEntity
  8
AM_0
100
AcDbCircle
 10
19.95945802654057
 20
109.9596657411608
 30
0.0
 40
1.897451423523069
100
AcDbArc
 50
326.0514861590989
 51
147.8713073175831
  0
LINE
  5
11D25
330
1F
100
AcDbEntity
  8
AM_0
100
AcDbLine
 10
21.30360036827295
 20
108.5538065674025
 30
0.0
 11
21.53346697112244
 21
108.900039945348
 31
0.0
  0
LINE
  5
11D26
330
1F
100
AcDbEntity
  8
AM_0
100
AcDbLine
 10
18.12272147203208
 20
110.622541762476
 30
0.0
 11
18.35258807488162
 21
110.9687751404215
 31
0.0
  0
LINE
  5
11D27
330
1F
100
AcDbEntity
  8
AM_0
100
AcDbLine
 10
14.23387356902538
 20
110.3183144004816
 30
0.0
 11
14.93066051960727
 21
110.5974423498403
 31
0.0
  0
LINE
  5
11D28
330
1F
100
AcDbEntity
  8
AM_0
100
AcDbLine
 10
19.25919142615334
 20
111.7072463764729
 30
0.0
 11
19.74999665968892
 21
111.9038594994037
 31
0.0
  0
ELLIPSE
  5
11D29
330
1F
100
AcDbEntity
  8
AM_0
100
AcDbEllipse
 10
16.90055628385562
 20
104.9230487924975
 30
0.0
 11
-2.231190870716509
 21
5.569720576333372
 31
-1.373042129898262E-31
210
-8.509775181494863E-33
220
2.124294723074150E-32
230
0.9999999999999999
 40
0.9955885157579659
 41
3.476667961634795
 42
3.495022018665894
  0
ELLIPSE
  5
11D2A
330
1F
100
AcDbEntity
  8
AM_0
100
AcDbEllipse
 10
16.46506443974192
 20
104.7485938241482
 30
0.0
 11
-2.231190870716508
 21
5.569720576333372
 31
-1.373042129898262E-31
210
-8.509775181494865E-33
220
2.124294723074151E-32
230
1.0
 40
0.9955885157579661
 41
3.495022018665891
 42
7.160213447853966
  0
ELLIPSE
  5
11D2B
330
1F
100
AcDbEntity
  8
AM_0
100
AcDbEllipse
 10
17.16185139032382
 20
105.027721773507
 30
0.0
 11
-2.231190870716509
 21
5.569720576333372
 31
-1.373042129898262E-31
210
-8.509775181494863E-33
220
2.124294723074150E-32
230
0.9999999999999999
 40
0.9955885157579659
 41
5.706926789531092
 42
6.283185307179588
  0
ELLIPSE
  5
11D2C
330
1F
100
AcDbEntity
  8
AM_0
100
AcDbEllipse
 10
17.16185139032382
 20
105.027721773507
 30
0.0
 11
-2.231190870716509
 21
5.569720576333372
 31
-1.373042129898262E-31
210
-8.509775181494863E-33
220
2.124294723074150E-32
230
0.9999999999999999
 40
0.9955885157579659
 41
3.307251005383795
 42
3.721803495048671
  0
ELLIPSE
  5
11D2D
330
1F
100
AcDbEntity
  8
AM_0
100
AcDbEllipse
 10
20.45654043541583
 20
110.1401146502314
 30
0.0
 11
-0.7065437757269064
 21
1.763744849172247
 31
-4.347966744677862E-32
210
-8.509775181494927E-33
220
2.124294723074144E-32
230
1.0
 40
0.995588515757966
 41
5.565628609853605
 42
6.28318530717959
  0
ELLIPSE
  5
11D2E
330
1F
100
AcDbEntity
  8
AM_0
100
AcDbEllipse
 10
16.63926117738743
 20
104.8183758114879
 30
0.0
 11
-2.231190870716496
 21
5.569720576333361
 31
-1.373042129898260E-31
210
-8.509775181494833E-33
220
2.124294723074152E-32
230
0.9999999999999999
 40
0.9955885157579663
 41
5.005404501261692
 42
5.649830965258167
  0
ELLIPSE
  5
11D2F
330
1F
100
AcDbEntity
  8
AM_0
100
AcDbEllipse
 10
16.46073284468059
 20
104.7514109459082
 30
0.0
 11
-1.487460580477682
 21
3.713147050888908
 31
-9.153614199321733E-32
210
-8.509775181494914E-33
220
2.124294723074146E-32
230
1.0
 40
0.9955885157579664
 41
1.191302640588709
 42
7.474487947768294
  0
LINE
  5
11D30
330
1F
100
AcDbEntity
  8
AM_0
100
AcDbLine
 10
14.16724892861384
 20
104.8696505416931
 30
0.0
 11
15.41458637587937
 21
106.8051531014176
 31
0.0
  0
LINE
  5
11D31
330
1F
100
AcDbEntity
  8
AM_0
100
AcDbLine
 10
15.72704200234153
 20
106.7886918788631
 30
0.0
 11
14.60274077272754
 21
105.0441055100422
 31
0.0
  0
LINE
  5
11D32
330
1F
100
AcDbEntity
  8
AM_0
100
AcDbLine
 10
15.41458637587948
 20
106.8051531014176
 30
0.0
 11
17.71240188700745
 21
106.6840963838729
 31
0.0
  0
LINE
  5
11D33
330
1F
100
AcDbEntity
  8
AM_0
100
AcDbLine
 10
17.71240188700739
 20
106.6840963838729
 30
0.0
 11
18.76287995086977
 21
104.6275371066035
 31
0.0
  0
LINE
  5
11D34
330
1F
100
AcDbEntity
  8
AM_0
100
AcDbLine
 10
18.76287995086977
 20
104.6275371066035
 30
0.0
 11
17.5155425036042
 21
102.6920345468789
 31
0.0
  0
LINE
  5
11D35
330
1F
100
AcDbEntity
  8
AM_0
100
AcDbLine
 10
17.51554250360425
 20
102.6920345468789
 30
0.0
 11
15.21772699247629
 21
102.8130912644237
 31
0.0
  0
LINE
  5
11D36
330
1F
100
AcDbEntity
  8
AM_0
100
AcDbLine
 10
15.65321883658999
 20
102.9875462327728
 30
0.0
 11
17.63857872125584
 21
102.8829507377825
 31
0.0
  0
LINE
  5
11D37
330
1F
100
AcDbEntity
  8
AM_0
100
AcDbLine
 10
15.21772699247629
 20
102.8130912644237
 30
0.0
 11
15.65321883658999
 21
102.9875462327728
 31
0.0
  0
LINE
  5
11D38
330
1F
100
AcDbEntity
  8
AM_0
100
AcDbLine
 10
15.21772699247629
 20
102.8130912644237
 30
0.0
 11
14.1672489286139
 21
104.8696505416931
 31
0.0
  0
LINE
  5
11D39
330
1F
100
AcDbEntity
  8
AM_0
100
AcDbLine
 10
14.16724892861384
 20
104.8696505416931
 30
0.0
 11
14.60274077272754
 21
105.0441055100422
 31
0.0
  0
LINE
  5
11D3A
330
1F
100
AcDbEntity
  8
AM_0
100
AcDbLine
 10
14.60274077272754
 20
105.0441055100422
 30
0.0
 11
15.65321883658993
 21
102.9875462327728
 31
0.0
  0
ELLIPSE
  5
11D3B
330
1F
100
AcDbEntity
  8
AM_0
100
AcDbEllipse
 10
16.46073284468059
 20
104.7514109459082
 30
0.0
 11
-1.487460580477682
 21
3.713147050888908
 31
-9.153614199321733E-32
210
-8.509775181494910E-33
220
2.124294723074146E-32
230
1.0
 40
0.9955885157579663
 41
4.332895294178502
 42
10.61608060135809
  0
LINE
  5
11D3C
330
1F
100
AcDbEntity
  8
AM_0
100
AcDbLine
 10
7.475992484228755
 20
96.93114906626663
 30
0.0
 11
7.32517658168706
 21
96.92269751373736
 31
0.0
  0
ELLIPSE
  5
11D3D
330
1F
100
AcDbEntity
  8
AM_0
100
AcDbEllipse
 10
16.3981633640733
 20
96.07941425777106
 30
0.0
 11
-0.7964161693691282
 21
-0.02705717388548789
 31
6.670108338758892E-34
210
8.365498801743627E-34
220
2.842066301804438E-35
230
0.9999999999999998
 40
0.501705360424648
 41
3.554995036410065
 42
3.83027941349233
  0
LINE
  5
11D3E
330
1F
100
AcDbEntity
  8
AM_0
100
AcDbLine
 10
19.20771006520897
 20
96.22690305224033
 30
0.0
 11
17.21668435772648
 21
96.1223658067572
 31
0.0
  0
LINE
  5
11D3F
330
1F
100
AcDbEntity
  8
AM_0
100
AcDbLine
 10
19.4026309324654
 20
93.03077632427362
 30
0.0
 11
18.06688664793683
 21
92.96064411671362
 31
0.0
  0
LINE
  5
11D40
330
1F
100
AcDbEntity
  8
AM_0
100
AcDbLine
 10
16.21395278265834
 20
96.23299788748447
 30
0.0
 11
17.12203553346802
 21
96.26470883590496
 31
0.0
  0
ELLIPSE
  5
11D41
330
1F
100
AcDbEntity
  8
AM_0
100
AcDbEllipse
 10
16.42351871925348
 20
96.08074552083757
 30
0.0
 11
-0.8002114854579585
 21
0.0148146636183005
 31
-3.652096547649115E-34
210
-4.562350449461209E-34
220
8.446478018106504E-36
230
1.0
 40
0.4959749659733175
 41
3.283889874739233
 42
3.660500135766891
  0
LINE
  5
11D42
330
1F
100
AcDbEntity
  8
AM_0
100
AcDbLine
 10
18.06688664793683
 20
92.96064411671368
 30
0.0
 11
17.21668435772637
 21
96.1223658067572
 31
0.0
  0
ELLIPSE
  5
11D43
330
1F
100
AcDbEntity
  8
AM_0
100
AcDbEllipse
 10
17.27372100946377
 20
92.91902383079399
 30
0.0
 11
-0.8002114854579585
 21
0.0148146636183005
 31
-3.652096547649115E-34
210
-4.562350449461209E-34
220
8.446478018106504E-36
230
1.0
 40
0.4959749659733175
 41
1.678186962904459
 42
3.283889874739265
  0
LINE
  5
11D44
330
1F
100
AcDbEntity
  8
AM_0
100
AcDbLine
 10
5.721492321935102
 20
92.11668468965068
 30
0.0
 11
17.35218577352771
 21
92.52283745470292
 31
0.0
  0
LINE
  5
11D45
330
1F
100
AcDbEntity
  8
AM_0
100
AcDbLine
 10
7.32517658168706
 20
96.92269751373736
 30
0.0
 11
5.807677623592497
 21
96.86970528241777
 31
0.0
  0
LINE
  5
11D46
330
1F
100
AcDbEntity
  8
AM_0
100
AcDbLine
 10
7.430808936744597
 20
96.2600934560093
 30
0.0
 11
7.32517658168706
 21
96.92269751373736
 31
0.0
  0
LINE
  5
11D47
330
1F
100
AcDbEntity
  8
AM_0
100
AcDbLine
 10
5.813989491085067
 20
95.86982316665682
 30
0.0
 11
7.546034523785352
 21
95.93030751199306
 31
0.0
  0
ELLIPSE
  5
11D48
330
1F
100
AcDbEntity
  8
AM_0
100
AcDbEllipse
 10
5.308650950654737
 20
96.89104641000129
 30
0.0
 11
0.5009715801952517
 21
0.000907102146909627
 31
-2.236179439809841E-35
210
4.463670588782628E-35
220
8.082305133165430E-38
230
1.0
 40
0.4992681797585883
 41
6.194131498751668
 42
6.206978640977611
  0
ELLIPSE
  5
11D49
330
1F
100
AcDbEntity
  8
AM_0
100
AcDbEllipse
 10
5.311377410180057
 20
96.9298619107896
 30
0.0
 11
0.265873615780099
 21
0.4249465845562124
 31
-1.047574210511222E-32
210
1.108465553561521E-32
220
1.771663764763220E-32
230
1.0
 40
0.9967563386701391
 41
4.919030599301641
 42
5.149596086026154
  0
LINE
  5
11D4A
330
1F
100
AcDbEntity
  8
AM_0
100
AcDbLine
 10
5.175943743586913
 20
96.16625553568569
 30
0.0
 11
5.193121359593931
 21
96.41080630251751
 31
0.0
  0
LINE
  5
11D4B
330
1F
100
AcDbEntity
  8
AM_0
100
AcDbLine
 10
5.188390839746035
 20
96.26274595466747
 30
0.0
 11
5.185694109815358
 21
96.22435370208557
 31
0.0
  0
ELLIPSE
  5
11D4C
330
1F
100
AcDbEntity
  8
AM_0
100
AcDbEllipse
 10
0.8939581719296257
 20
95.73451508649576
 30
0.0
 11
-0.6272766325794972
 21
0.1686473804327554
 31
-4.157478912229240E-33
210
-6.181034968036137E-33
220
1.661811235396921E-33
230
1.0
 40
0.1726166244862961
 41
5.849798536187359
 42
6.057043008615837
  0
LINE
  5
11D4D
330
1F
100
AcDbEntity
  8
AM_0
100
AcDbLine
 10
2.831693108808167
 20
92.04316094823132
 30
0.0
 11
0.4295127615218917
 21
91.93915344643374
 31
0.0
  0
ELLIPSE
  5
11D4E
330
1F
100
AcDbEntity
  8
AM_0
100
AcDbEllipse
 10
0.4144363854083508
 20
92.33866798019101
 30
0.0
 11
0.4018069321274864
 21
0.07117448092861077
 31
-1.754586420436863E-33
210
4.233892480925331E-33
220
7.499748648980420E-34
230
1.0
 40
0.979373960238903
 41
2.971890957274903
 42
4.57759386910972
  0
LINE
  5
11D4F
330
1F
100
AcDbEntity
  8
AM_0
100
AcDbLine
 10
0.0066287295471739
 20
92.33497671858343
 30
0.0
 11
-0.0001322585467847
 21
95.53602236717795
 31
0.0
  0
ELLIPSE
  5
11D50
330
1F
100
AcDbEntity
  8
AM_0
100
AcDbEllipse
 10
0.4076753973143923
 20
95.53971362878552
 30
0.0
 11
0.4018069321274864
 21
0.07117448092861077
 31
-1.754586420436863E-33
210
4.233892480925331E-33
220
7.499748648980420E-34
230
1.0
 40
0.979373960238903
 41
1.573459078813118
 42
2.97189095727493
  0
LINE
  5
11D51
330
1F
100
AcDbEntity
  8
AM_0
100
AcDbLine
 10
0.3368993002220577
 20
95.93304196031214
 30
0.0
 11
2.688764573906155
 21
95.83067769310297
 31
0.0
  0
ARC
  5
11D52
330
1F
100
AcDbEntity
  8
AM_0
100
AcDbCircle
 10
4.674788742027204
 20
96.27998783185568
 30
0.0
 40
0.5138914254102002
100
AcDbArc
 50
269.3324422684776
 51
358.0772743337107
  0
ELLIPSE
  5
11D53
330
1F
100
AcDbEntity
  8
AM_0
100
AcDbEllipse
 10
4.274931788917911
 20
67.51866189156378
 30
0.0
 11
1.374639999319034
 21
43.12754930758062
 31
-1.063176174585683E-30
210
7.849530084226512E-34
220
2.462688383260471E-32
230
0.9999999999999999
 40
0.0000846632597754
 41
0.8366937249044357
 42
0.8413082448538765
  0
ELLIPSE
  5
11D54
330
1F
100
AcDbEntity
  8
AM_0
100
AcDbEllipse
 10
3.179072063644071
 20
96.55825893458898
 30
0.0
 11
3.006442355435827
 21
-0.1143639600225313
 31
2.819289282126033E-33
210
-9.363943472213486E-34
220
3.562009612368647E-35
230
1.0
 40
0.0317250496889337
 41
5.447684258192471
 42
5.492463216185901
  0
ARC
  5
11D55
330
1F
100
AcDbEntity
  8
AM_0
100
AcDbCircle
 10
5.28798331342739
 20
96.93268384673955
 30
0.0
 40
0.5226712135129298
100
AcDbArc
 50
270.3329534093097
 51
340.437669642863
  0
LINE
  5
11D56
330
1F
100
AcDbEntity
  8
AM_0
100
AcDbLine
 10
5.780484791964966
 20
96.75767672953178
 30
0.0
 11
5.813989491085067
 21
95.86982316665682
 31
0.0
  0
ELLIPSE
  5
11D57
330
1F
100
AcDbEntity
  8
AM_0
100
AcDbEllipse
 10
2.474356756708858
 20
115.2327736297399
 30
0.0
 11
-1.556503051708364
 21
34.14375525383863
 31
-8.417085524121195E-31
210
-1.121469723869572E-33
220
2.460077912109813E-32
230
0.9999999999999999
 40
0.0874248168070672
 41
3.964701613595471
 42
4.10542744834816
  0
LINE
  5
11D58
330
1F
100
AcDbEntity
  8
AM_0
100
AcDbLine
 10
2.831693108808167
 20
92.04316094823132
 30
0.0
 11
2.688764573906099
 21
95.83067769310297
 31
0.0
  0
ELLIPSE
  5
11D59
330
1F
100
AcDbEntity
  8
AM_0
100
AcDbEllipse
 10
3.203715820424236
 20
95.90521479945129
 30
0.0
 11
3.006442355435828
 21
-0.1143639600225015
 31
2.819289282125297E-33
210
-9.363943472211045E-34
220
3.562009612366790E-35
230
1.0
 40
0.0317250496889342
 41
4.541464560440015
 42
5.222608144623659
  0
LINE
  5
11D5A
330
1F
100
AcDbEntity
  8
AM_0
100
AcDbLine
 10
5.793815236466685
 20
96.79935767039096
 30
0.0
 11
5.79613734958167
 21
96.8724872323301
 31
0.0
  0
ELLIPSE
  5
11D5B
330
1F
100
AcDbEntity
  8
AM_0
100
AcDbEllipse
 10
8.287817280693218
 20
96.36962407253809
 30
0.0
 11
-0.8588187429375402
 21
-0.09618365929990874
 31
2.371110266962362E-33
210
2.726696398427125E-33
220
3.053771701622917E-34
230
1.0
 40
0.5783979903342107
 41
0.0269426873600596
 42
0.5227442974426511
  0
LINE
  5
11D5C
330
1F
100
AcDbEntity
  8
AM_0
100
AcDbLine
 10
7.631267735552569
 20
96.28614034660386
 30
0.0
 11
7.430808936744597
 21
96.2600934560093
 31
0.0
  0
ELLIPSE
  5
11D5D
330
1F
100
AcDbEntity
  8
AM_0
100
AcDbEllipse
 10
13.88594113443025
 20
95.94751199707132
 30
0.0
 11
5.156546021636862
 21
0.6712902719062326
 31
-1.654858286131283E-32
210
3.155756048275555E-33
220
4.108231220719669E-34
230
1.0
 40
0.0001806193578747
 41
0.1747661251458867
 42
0.9213033654977751
  0
LINE
  5
11D5E
330
1F
100
AcDbEntity
  8
AM_0
100
AcDbLine
 10
17.00443431273448
 20
96.35423846481295
 30
0.0
 11
16.23640773746979
 21
96.25333246059579
 31
0.0
  0
ELLIPSE
  5
11D5F
330
1F
100
AcDbEntity
  8
AM_0
100
AcDbEllipse
 10
19.13732463642612
 20
93.016870879731
 30
0.0
 11
0.02704292603747882
 21
-0.3991106873997768
 31
9.838838067049006E-33
210
-1.662728856816535E-33
220
2.453924017259782E-32
230
1.0
 40
0.6640898750445115
 41
6.273091703520443
 42
7.843827476836221
  0
LINE
  5
11D60
330
1F
100
AcDbEntity
  8
AM_0
100
AcDbLine
 10
19.4026309324654
 20
93.03077632427362
 30
0.0
 11
19.20771006520891
 21
96.22690305224027
 31
0.0
  0
ELLIPSE
  5
11D61
330
1F
100
AcDbEntity
  8
AM_0
100
AcDbEllipse
 10
18.94240376916969
 20
96.21299760769772
 30
0.0
 11
0.02704292603747882
 21
-0.3991106873997768
 31
9.838838067049006E-33
210
-1.662728856816535E-33
220
2.453924017259782E-32
230
1.0
 40
0.6640898750445115
 41
1.560642169656616
 42
2.959074048118433
  0
ARC
  5
11D62
330
1F
100
AcDbEntity
  8
AM_0
100
AcDbCircle
 10
12.96002341687233
 20
96.91430584618864
 30
0.0
 40
3.831901141001274
100
AcDbArc
 50
351.0812346511336
 51
357.5923226001621
  0
LINE
  5
11D63
330
1F
100
AcDbEntity
  8
AM_0
100
AcDbLine
 10
17.12809258649907
 20
97.06081708512498
 30
0.0
 11
17.15034420704359
 21
96.47116306347901
 31
0.0
  0
ELLIPSE
  5
11D64
330
1F
100
AcDbEntity
  8
AM_0
100
AcDbEllipse
 10
19.0031109386091
 20
116.0290626798008
 30
0.0
 11
1.42508348522435
 21
34.39117545638575
 31
-8.478079313168472E-31
210
1.019761638459920E-33
220
2.460964694040028E-32
230
1.0
 40
0.0368223147841597
 41
2.17723308206436
 42
2.180706939552021
  0
LINE
  5
11D65
330
1F
100
AcDbEntity
  8
AM_0
100
AcDbLine
 10
0.2557748292396127
 20
95.90976465935476
 30
0.0
 11
0.2891802068095331
 21
95.92314661854736
 31
0.0
  0
LINE
  5
11D66
330
1F
100
AcDbEntity
  8
AM_0
100
AcDbLine
 10
19.1616909674421
 20
92.61759925574602
 30
0.0
 11
17.37997958445135
 21
92.52405189494412
 31
0.0
  0
ELLIPSE
  5
11D67
330
1F
100
AcDbEntity
  8
AM_0
100
AcDbEllipse
 10
3.352253972455856
 20
91.96904671057017
 30
0.0
 11
2.997866186414782
 21
0.1131296970334998
 31
-2.788862350288313E-33
210
9.289595709438436E-34
220
3.505590586180570E-35
230
1.0
 40
0.031705697437339
 41
0.6582888697276061
 42
1.744128207145105
  0
ARC
  5
11D68
330
1F
100
AcDbEntity
  8
AM_0
100
AcDbCircle
 10
-48.82023336603749
 20
126.0513991964585
 30
0.0
 40
4.172847632956263
100
AcDbArc
 50
211.8606029041826
 51
328.1393970958173
  0
ELLIPSE
  5
11D69
330
1F
100
AcDbEntity
  8
AM_0
100
AcDbEllipse
 10
-48.82023336603754
 20
124.5515876015215
 30
0.0
 11
-5.000000000000089
 21
1.268305741716367E-15
 31
2.093152598614405E-47
210
4.186305197228735E-48
220
-1.061902983644436E-63
230
1.0
 40
0.5735764363510443
 41
0.2601692033975873
 42
4.281503140905885
  0
ELLIPSE
  5
11D6A
330
1F
100
AcDbEntity
  8
AM_0
100
AcDbEllipse
 10
-48.82023336603754
 20
124.5515876015215
 30
0.0
 11
-3.750000000000169
 21
9.512293062873011E-16
 31
1.569864448960846E-47
210
4.186305197228735E-48
220
-1.061902983644436E-63
230
1.0
 40
0.5735764363510443
 41
5.951966399019138
 42
6.616064910828692
  0
ELLIPSE
  5
11D6B
330
1F
100
AcDbEntity
  8
AM_0
100
AcDbEllipse
 10
-48.82023336603754
 20
124.5515876015215
 30
0.0
 11
-3.750000000000169
 21
9.512293062873011E-16
 31
1.569864448960846E-47
210
4.186305197228735E-48
220
-1.061902983644436E-63
230
1.0
 40
0.5735764363510443
 41
2.808713049940692
 42
5.090894307783995
  0
ELLIPSE
  5
11D6C
330
1F
100
AcDbEntity
  8
AM_0
100
AcDbEllipse
 10
-48.82023336603754
 20
123.1590291262302
 30
0.0
 11
-2.214510797200601
 21
5.617353518364724E-16
 31
9.270618059640027E-48
210
4.186305197228735E-48
220
-1.061902983644436E-63
230
1.0
 40
0.5735764363510443
 41
-0.0000000000000006
 42
6.283185307179585
  0
ELLIPSE
  5
11D6D
330
1F
100
AcDbEntity
  8
AM_0
100
AcDbEllipse
 10
-48.82023336603749
 20
123.1590291262302
 30
0.0
 11
-1.7
 21
4.312239521835571E-16
 31
7.116718835288850E-48
210
4.186305197228735E-48
220
-1.061902983644436E-63
230
1.0
 40
0.5735764363510443
 41
-0.0000000000000006
 42
6.283185307179585
  0
LINE
  5
11D6E
330
1F
100
AcDbEntity
  8
AM_0
100
AcDbLine
 10
-70.22556562122122
 20
93.93876398671448
 30
0.0
 11
-70.15840275278265
 21
93.93876398671448
 31
0.0
  0
LINE
  5
11D6F
330
1F
100
AcDbEntity
  8
AM_0
100
AcDbLine
 10
-70.15840275278259
 20
93.93876398671448
 30
0.0
 11
-70.19626680368106
 21
92.28478817831142
 31
0.0
  0
LINE
  5
11D70
330
1F
100
AcDbEntity
  8
AM_0
100
AcDbLine
 10
-70.19626680368106
 20
92.28478817831147
 30
0.0
 11
-70.28475091925202
 21
92.24995559166597
 31
0.0
  0
LINE
  5
11D71
330
1F
100
AcDbEntity
  8
AM_0
100
AcDbLine
 10
-76.84188967965815
 20
95.72105830324055
 30
0.0
 11
-76.43688397515678
 21
95.69749316453225
 31
0.0
  0
ARC
  5
11D72
330
1F
100
AcDbEntity
  8
AM_0
100
AcDbCircle
 10
-66.82023336603749
 20
136.9387639867149
 30
0.0
 40
31.49999999999967
100
AcDbArc
 50
73.39845040098038
 51
106.6015495990196
  0
LINE
  5
11D73
330
1F
100
AcDbEntity
  8
AM_0
100
AcDbLine
 10
-75.82023336603749
 20
166.6035579350972
 30
0.0
 11
-75.82023336603749
 21
167.1256816829617
 31
0.0
  0
LINE
  5
11D74
330
1F
100
AcDbEntity
  8
AM_0
100
AcDbLine
 10
-57.82023336603749
 20
167.1256816829617
 30
0.0
 11
-57.82023336603749
 21
166.6035579350972
 31
0.0
  0
LINE
  5
11D75
330
1F
100
AcDbEntity
  8
AM_0
100
AcDbLine
 10
-70.28475091925202
 20
92.24995559166597
 30
0.0
 11
-90.48029844554424
 21
92.89104758241597
 31
0.0
  0
LINE
  5
11D76
330
1F
100
AcDbEntity
  8
AM_0
100
AcDbLine
 10
-70.22556562122122
 20
93.93876398671448
 30
0.0
 11
-92.33493501038367
 21
93.93876398671448
 31
0.0
  0
LINE
  5
11D77
330
1F
100
AcDbEntity
  8
AM_0
100
AcDbLine
 10
-70.28475091925202
 20
92.24995559166597
 30
0.0
 11
-70.22556562122122
 21
93.93876398671448
 31
0.0
  0
LINE
  5
11D78
330
1F
100
AcDbEntity
  8
AM_0
100
AcDbLine
 10
-65.81899793972195
 20
96.86225931909051
 30
0.0
 11
-76.87478553940042
 21
97.21321672058507
 31
0.0
  0
LINE
  5
11D79
330
1F
100
AcDbEntity
  8
AM_0
100
AcDbLine
 10
-76.87478553940042
 20
97.21321672058495
 30
0.0
 11
-76.84165343560557
 21
95.71034225707881
 31
0.0
  0
LINE
  5
11D7A
330
1F
100
AcDbEntity
  8
AM_0
100
AcDbLine
 10
-76.84165343560562
 20
95.71034225707881
 30
0.0
 11
-76.43688397515678
 21
95.69749316453225
 31
0.0
  0
LINE
  5
11D7B
330
1F
100
AcDbEntity
  8
AM_0
100
AcDbLine
 10
-76.43688397515678
 20
95.69749316453225
 30
0.0
 11
-76.13197161709104
 21
93.93876398671448
 31
0.0
  0
LINE
  5
11D7C
330
1F
100
AcDbEntity
  8
AM_0
100
AcDbLine
 10
-97.82023336603754
 20
97.70867349484847
 30
0.0
 11
-97.82023336603754
 21
117.9391534464337
 31
0.0
  0
LINE
  5
11D7D
330
1F
100
AcDbEntity
  8
AM_0
100
AcDbLine
 10
-65.81899793972195
 20
96.86225931909051
 30
0.0
 11
-65.34570627543144
 21
97.04857493968079
 31
0.0
  0
LINE
  5
11D7E
330
1F
100
AcDbEntity
  8
AM_0
100
AcDbLine
 10
-65.08034560701901
 20
117.9391534464336
 30
0.0
 11
-65.81899793972195
 21
96.86225931909046
 31
0.0
  0
LINE
  5
11D7F
330
1F
100
AcDbEntity
  8
AM_0
100
AcDbLine
 10
-64.51536412013132
 20
127.5991122986635
 30
0.0
 11
-63.70390828143309
 21
111.9624284875782
 31
0.0
  0
ARC
  5
11D80
330
1F
100
AcDbEntity
  8
AM_0
100
AcDbCircle
 10
-66.82023336603749
 20
136.9387639867146
 30
0.0
 40
31.00000000000001
100
AcDbArc
 50
286.7341262355023
 51
5.746774065415758
  0
LINE
  5
11D81
330
1F
100
AcDbEntity
  8
AM_0
100
AcDbLine
 10
-59.7967870044983
 20
110.7992449115401
 30
0.0
 11
-60.92355233944534
 21
132.5119154372989
 31
0.0
  0
LINE
  5
11D82
330
1F
100
AcDbEntity
  8
AM_0
100
AcDbLine
 10
-97.82023336603754
 20
117.9391534464337
 30
0.0
 11
-97.82023336603754
 21
136.9387639867146
 31
0.0
  0
ARC
  5
11D83
330
1F
100
AcDbEntity
  8
AM_0
100
AcDbCircle
 10
-66.82023336603749
 20
136.9387639867145
 30
0.0
 40
31.00000000000001
100
AcDbArc
 50
5.746774065415758
 51
180.0
  0
LINE
  5
11D84
330
1F
100
AcDbEntity
  8
AM_0
100
AcDbLine
 10
-35.97603448104746
 20
140.0428572751293
 30
0.0
 11
-60.92355233944539
 21
132.5119154372989
 31
0.0
  0
ELLIPSE
  5
11D85
330
1F
100
AcDbEntity
  8
AM_0
100
AcDbEllipse
 10
-59.52143252974287
 20
127.1165504600498
 30
0.0
 11
-0.5346605390391077
 21
5.566387928979528
 31
5.069333052234378E-17
210
8.667495503504184E-19
220
-9.023789642657918E-18
230
1.0
 40
0.8939169333562234
 41
0.1769317058885218
 42
1.398662182284552
  0
LINE
  5
11D86
330
1F
100
AcDbEntity
  8
AM_0
100
AcDbLine
 10
-64.51536412013132
 20
127.5991122986635
 30
0.0
 11
-65.08034560701901
 21
117.9391534464337
 31
0.0
  0
LINE
  5
11D87
330
1F
100
AcDbEntity
  8
AM_0
100
AcDbLine
 10
-65.08034560701901
 20
117.9391534464337
 30
0.0
 11
-97.82023336603754
 21
117.9391534464337
 31
0.0
  0
ELLIPSE
  5
11D88
330
1F
100
AcDbEntity
  8
AM_0
100
AcDbEllipse
 10
-48.82023336603754
 20
122.9802897228201
 30
0.0
 11
5.284388220210655
 21
2.295097706237999
 31
1.654265365221244E-17
210
-2.633682579321940E-18
220
-1.143852153716254E-18
230
0.9999999999999999
 40
0.6644048897354584
 41
3.46744592196002
 42
9.750631229139604
  0
ARC
  5
11D89
330
1F
100
AcDbEntity
  8
AM_0
100
AcDbCircle
 10
-66.82023336603749
 20
136.9387639867146
 30
0.0
 40
31.5
100
AcDbArc
 50
106.6015495990196
 51
190.2221793905788
  0
ARC
  5
11D8A
330
1F
100
AcDbEntity
  8
AM_0
100
AcDbCircle
 10
-66.82023336603749
 20
136.9387639867146
 30
0.0
 40
31.5
100
AcDbArc
 50
286.4612993272118
 51
73.39845040098038
  0
ARC
  5
11D8B
330
1F
100
AcDbEntity
  8
AM_0
100
AcDbCircle
 10
-66.82023336603749
 20
136.9387639867145
 30
0.0
 40
50.0
100
AcDbArc
 50
239.3165828910244
 51
241.7576985759273
  0
ARC
  5
11D8C
330
1F
100
AcDbEntity
  8
AM_0
100
AcDbCircle
 10
-66.82023336603749
 20
136.9387639867145
 30
0.0
 40
50.0
100
AcDbArc
 50
231.6838655263342
 51
239.3165828910244
  0
ELLIPSE
  5
11D8D
330
1F
100
AcDbEntity
  8
AM_0
100
AcDbEllipse
 10
-64.52969042745605
 20
104.9614288855341
 30
0.0
 11
0.2136469805890512
 21
6.096257455823628
 31
-2.380823727747911E-19
210
1.366986833507418E-21
220
3.900595109187049E-20
230
1.0
 40
0.0870983688227356
 41
0.9780644470407229
 42
3.322912427991299
  0
ELLIPSE
  5
11D8E
330
1F
100
AcDbEntity
  8
AM_0
100
AcDbEllipse
 10
-64.52969042745605
 20
104.9614288855342
 30
0.0
 11
0.2836951709461172
 21
8.095030392159245
 31
2.511332033955397E-20
210
-1.085890520767320E-22
220
-3.098507718285631E-21
230
1.0
 40
0.0870983688227356
 41
5.762264540186694
 42
6.931894300695202
  0
ELLIPSE
  5
11D8F
330
1F
100
AcDbEntity
  8
AM_0
100
AcDbEllipse
 10
-64.68023506640054
 20
109.8305619938472
 30
0.0
 11
0.07004819035706596
 21
1.998772936335616
 31
2.631956931142391E-19
210
-4.609095503106533E-21
220
-1.315171070892088E-19
230
1.0
 40
0.0870983688227356
 41
0.6487089935156165
 42
2.384183047073074
  0
ELLIPSE
  5
11D90
330
1F
100
AcDbEntity
  8
AM_0
100
AcDbEllipse
 10
-48.82023336603754
 20
124.5515876015216
 30
0.0
 11
-5.000000000000001
 21
1.268305741716345E-15
 31
2.093152598614377E-47
210
4.186305197228753E-48
220
-1.061902983644440E-63
230
1.0
 40
0.5735764363510427
 41
0.2601692033975749
 42
4.281503140905841
  0
ELLIPSE
  5
11D91
330
1F
100
AcDbEntity
  8
AM_0
100
AcDbEllipse
 10
-48.82023336603754
 20
124.5515876015216
 30
0.0
 11
-5.5
 21
1.395136315887979E-15
 31
2.302467858475827E-47
210
4.186305197228777E-48
220
-1.061902983644446E-63
230
1.0
 40
0.5735764363510407
 41
0.3881290911235391
 42
3.093979704530451
  0
LINE
  5
11D92
330
1F
100
AcDbEntity
  8
AM_0
100
AcDbLine
 10
-62.78632639171769
 20
95.45028849686939
 30
0.0
 11
-65.57397423583973
 21
95.54798327914493
 31
0.0
  0
LINE
  5
11D93
330
1F
100
AcDbEntity
  8
AM_0
100
AcDbLine
 10
-63.51956922529621
 20
104.3831288816776
 30
0.0
 11
-63.86953176416569
 21
98.83916717601566
 31
0.0
  0
LINE
  5
11D94
330
1F
100
AcDbEntity
  8
AM_0
100
AcDbLine
 10
-62.49083966330079
 20
92.47967449536706
 30
0.0
 11
-65.27848750742288
 21
92.5773692776426
 31
0.0
  0
LINE
  5
11D95
330
1F
100
AcDbEntity
  8
AM_0
100
AcDbLine
 10
-58.2617496144062
 20
100.2919774394258
 30
0.0
 11
-58.72170547302574
 21
96.79826063464292
 31
0.0
  0
LINE
  5
11D96
330
1F
100
AcDbEntity
  8
AM_0
100
AcDbLine
 10
-59.20291938994058
 20
101.636044067299
 30
0.0
 11
-58.88942931923145
 21
106.6022240268193
 31
0.0
  0
LINE
  5
11D97
330
1F
100
AcDbEntity
  8
AM_0
100
AcDbLine
 10
-59.20291938994058
 20
101.636044067299
 30
0.0
 11
-58.72170547302574
 21
96.79826063464292
 31
0.0
  0
ELLIPSE
  5
11D98
330
1F
100
AcDbEntity
  8
AM_0
100
AcDbEllipse
 10
-66.68641359908941
 20
97.07738858400158
 30
0.0
 11
7.992342042877999
 21
0.4351500817652524
 31
-5.823647415006444E-17
210
7.264998240519546E-18
220
3.955492096592140E-19
230
1.0
 40
0.6916277369623872
 41
5.226969204870721
 42
6.154264422872354
  0
LINE
  5
11D99
330
1F
100
AcDbEntity
  8
AM_0
100
AcDbLine
 10
-62.49083966330073
 20
92.47967449536706
 30
0.0
 11
-62.78632639171758
 21
95.45028849686939
 31
0.0
  0
ELLIPSE
  5
11D9A
330
1F
100
AcDbEntity
  8
AM_0
100
AcDbEllipse
 10
-67.16762751600419
 20
101.9151720166577
 30
0.0
 11
-6.820478121734898
 21
-4.268632715666468
 31
-4.137715511210786E-17
210
-4.359149522400941E-18
220
-2.728197045967412E-18
230
1.0
 40
0.9705717584168698
 41
1.606119550468801
 42
2.533414768470435
  0
LINE
  5
11D9B
330
1F
100
AcDbEntity
  8
AM_0
100
AcDbLine
 10
-65.57397423583973
 20
95.54798327914493
 30
0.0
 11
-65.27848750742288
 21
92.5773692776426
 31
0.0
  0
LINE
  5
11D9C
330
1F
100
AcDbEntity
  8
AM_0
100
AcDbLine
 10
-65.27554264621165
 20
97.50981775576342
 30
0.0
 11
-65.57397423583973
 21
95.54798327914487
 31
0.0
  0
ELLIPSE
  5
11D9D
330
1F
100
AcDbEntity
  8
AM_0
100
AcDbEllipse
 10
-65.26335568622687
 20
98.88801456715343
 30
0.0
 11
1.193583671303677
 21
0.747010725241521
 31
8.974873524159712E-19
210
-5.402955952102004E-19
220
-3.381468883383240E-19
230
1.0
 40
0.9705717584168693
 41
4.157791962829836
 42
5.675007422060323
  0
ARC
  5
11D9E
330
1F
100
AcDbEntity
  8
AM_0
100
AcDbCircle
 10
-72.36846422282463
 20
104.3193554484536
 30
0.0
 40
8.849124800118316
100
AcDbArc
 50
0.4129199532609906
 51
16.12245289540072
  0
LINE
  5
11D9F
330
1F
100
AcDbEntity
  8
AM_0
100
AcDbLine
 10
-58.88942931923145
 20
106.6022240268193
 30
0.0
 11
-63.8673718980213
 21
106.7766789951684
 31
0.0
  0
LINE
  5
11DA0
330
1F
100
AcDbEntity
  8
AM_0
100
AcDbLine
 10
-60.18705212569194
 20
110.9687735488182
 30
0.0
 11
-64.76755949448335
 21
111.1293001630565
 31
0.0
  0
LINE
  5
11DA1
330
1F
100
AcDbEntity
  8
AM_0
100
AcDbLine
 10
-60.37717548172003
 20
111.8477365524942
 30
0.0
 11
-60.18693878056206
 21
110.9687980811424
 31
0.0
  0
LINE
  5
11DA2
330
1F
100
AcDbEntity
  8
AM_0
100
AcDbLine
 10
-60.18704186483126
 20
110.9687757018216
 30
0.0
 11
-60.15409780081666
 21
110.8117697029969
 31
0.0
  0
LINE
  5
11DA3
330
1F
100
AcDbEntity
  8
AM_0
100
AcDbLine
 10
-58.24645591026138
 20
110.744912633155
 30
0.0
 11
-64.78343087697169
 21
110.9740048219191
 31
0.0
  0
LINE
  5
11DA4
330
1F
100
AcDbEntity
  8
AM_0
100
AcDbLine
 10
-63.86352024951509
 20
98.93439910319181
 30
0.0
 11
-64.83558442284829
 21
98.9684656722428
 31
0.0
  0
LINE
  5
11DA5
330
1F
100
AcDbEntity
  8
AM_0
100
AcDbLine
 10
-60.38471232499103
 20
111.8461052844957
 30
0.0
 11
-64.63451972321934
 21
111.9950423209145
 31
0.0
  0
LINE
  5
11DA6
330
1F
100
AcDbEntity
  8
AM_0
100
AcDbLine
 10
-60.15002842577678
 20
110.8116244679519
 30
0.0
 11
-60.31426663085085
 21
111.5742067581386
 31
0.0
  0
ELLIPSE
  5
11DA7
330
1F
100
AcDbEntity
  8
AM_0
100
AcDbEllipse
 10
-63.43454306012245
 20
104.9230487924973
 30
0.0
 11
0.2101445710711982
 21
5.996318809006848
 31
7.895870793427172E-19
210
-4.609095503106543E-21
220
-1.315171070892088E-19
230
1.0
 40
0.087098368822738
 41
1.259574231713489
 42
2.737585445700239
  0
ELLIPSE
  5
11DA8
330
1F
100
AcDbEntity
  8
AM_0
100
AcDbEllipse
 10
-58.4566004813326
 20
104.7485938241481
 30
0.0
 11
0.2101445710711982
 21
5.996318809006848
 31
7.895870793427172E-19
210
-4.609095503106542E-21
220
-1.315171070892088E-19
230
1.0
 40
0.087098368822738
 41
3.877568109704998
 42
7.542759538893074
  0
ELLIPSE
  5
11DA9
330
1F
100
AcDbEntity
  8
AM_0
100
AcDbEllipse
 10
-58.45688070020049
 20
104.751410945908
 30
0.0
 11
0.1400963807141322
 21
3.997545872671232
 31
5.263913862284781E-19
210
-4.609095503106540E-21
220
-1.315171070892088E-19
230
1.0
 40
0.087098368822738
 41
1.57384873162782
 42
7.857034038807406
  0
LINE
  5
11DAA
330
1F
100
AcDbEntity
  8
AM_0
100
AcDbLine
 10
-58.65338076817642
 20
104.869650541693
 30
0.0
 11
-58.47642747693288
 21
106.8051531014175
 31
0.0
  0
LINE
  5
11DAB
330
1F
100
AcDbEntity
  8
AM_0
100
AcDbLine
 10
-58.47642747693288
 20
106.8051531014175
 30
0.0
 11
-58.27964719008901
 21
106.6840963838728
 31
0.0
  0
LINE
  5
11DAC
330
1F
100
AcDbEntity
  8
AM_0
100
AcDbLine
 10
-58.27964719008901
 20
106.6840963838728
 30
0.0
 11
-58.48683125874743
 21
106.6913572731997
 31
0.0
  0
LINE
  5
11DAD
330
1F
100
AcDbEntity
  8
AM_0
100
AcDbLine
 10
-58.27964719008901
 20
106.6840963838728
 30
0.0
 11
-58.25982019448873
 21
104.6275371066034
 31
0.0
  0
LINE
  5
11DAE
330
1F
100
AcDbEntity
  8
AM_0
100
AcDbLine
 10
-58.25982019448873
 20
104.6275371066034
 30
0.0
 11
-58.65117881515812
 21
104.6412525030149
 31
0.0
  0
LINE
  5
11DAF
330
1F
100
AcDbEntity
  8
AM_0
100
AcDbLine
 10
-58.25982019448873
 20
104.6275371066034
 30
0.0
 11
-58.43677348573226
 21
102.6920345468788
 31
0.0
  0
LINE
  5
11DB0
330
1F
100
AcDbEntity
  8
AM_0
100
AcDbLine
 10
-58.43677348573226
 20
102.6920345468788
 30
0.0
 11
-58.63355377257614
 21
102.8130912644236
 31
0.0
  0
LINE
  5
11DB1
330
1F
100
AcDbEntity
  8
AM_0
100
AcDbLine
 10
-58.63355377257614
 20
102.8130912644236
 30
0.0
 11
-58.65338076817642
 21
104.869650541693
 31
0.0
  0
ELLIPSE
  5
11DB2
330
1F
100
AcDbEntity
  8
AM_0
100
AcDbEllipse
 10
-58.45688070020049
 20
104.751410945908
 30
0.0
 11
0.1400963807141322
 21
3.997545872671232
 31
5.263913862284781E-19
210
-4.609095503106543E-21
220
-1.315171070892088E-19
230
1.0
 40
0.087098368822738
 41
4.715441385217613
 42
10.9986266923972
  0
LINE
  5
11DB3
330
1F
100
AcDbEntity
  8
AM_0
100
AcDbLine
 10
-65.64399949895687
 20
96.93114906626651
 30
0.0
 11
-65.55704660982633
 21
96.92269751373725
 31
0.0
  0
ELLIPSE
  5
11DB4
330
1F
100
AcDbEntity
  8
AM_0
100
AcDbEllipse
 10
-69.59726635798063
 20
95.63773111165436
 30
0.0
 11
-0.653902251988852
 21
0.04828626531159491
 31
4.877302919684693E-18
210
7.418313757260012E-18
220
-5.477923728787188E-19
230
1.0
 40
0.6092801667940894
 41
3.5786940296066
 42
3.85397840669004
  0
LINE
  5
11DB5
330
1F
100
AcDbEntity
  8
AM_0
100
AcDbLine
 10
-66.72862761113311
 20
95.53602236717784
 30
0.0
 11
-68.91734056316585
 21
95.61272711873509
 31
0.0
  0
LINE
  5
11DB6
330
1F
100
AcDbEntity
  8
AM_0
100
AcDbLine
 10
-66.81014363586894
 20
92.33497671858332
 30
0.0
 11
-68.27851283128638
 21
92.3864365933121
 31
0.0
  0
ELLIPSE
  5
11DB7
330
1F
100
AcDbEntity
  8
AM_0
100
AcDbEllipse
 10
-65.12228071769914
 20
92.91902383079388
 30
0.0
 11
-0.04838272580197695
 21
-0.3970784852888122
 31
1.155658089232147E-19
210
3.494351329859698E-20
220
2.867824642221667E-19
230
1.0
 40
0.1675888868207578
 41
0.090497924409712
 42
0.5292685510816835
  0
LINE
  5
11DB8
330
1F
100
AcDbEntity
  8
AM_0
100
AcDbLine
 10
-66.19618839474981
 20
92.11668468965051
 30
0.0
 11
-65.16445140179809
 21
92.52283745470275
 31
0.0
  0
LINE
  5
11DB9
330
1F
100
AcDbEntity
  8
AM_0
100
AcDbLine
 10
-69.88671105509889
 20
95.81467334625937
 30
0.0
 11
-68.99238848775252
 21
95.76263744870231
 31
0.0
  0
ELLIPSE
  5
11DBA
330
1F
100
AcDbEntity
  8
AM_0
100
AcDbEllipse
 10
-69.56939349120773
 20
95.63675429040471
 30
0.0
 11
-0.6534940246608786
 21
0.1129297226393122
 31
1.023481342731327E-17
210
1.520753617764457E-17
220
-2.628000835141402E-18
230
1.0
 40
0.5931829519861424
 41
3.365527703601249
 42
3.742137964627749
  0
LINE
  5
11DBB
330
1F
100
AcDbEntity
  8
AM_0
100
AcDbLine
 10
-68.27851283128638
 20
92.3864365933121
 30
0.0
 11
-68.91734056316585
 21
95.61272711873509
 31
0.0
  0
ELLIPSE
  5
11DBC
330
1F
100
AcDbEntity
  8
AM_0
100
AcDbEllipse
 10
-68.93056575932832
 20
92.41046376498166
 30
0.0
 11
-0.6534940246608786
 21
0.1129297226393122
 31
1.023481342731327E-17
210
1.520753617764457E-17
220
-2.628000835141402E-18
230
1.0
 40
0.5931829519861424
 41
1.75982479176648
 42
3.365527703601286
  0
LINE
  5
11DBD
330
1F
100
AcDbEntity
  8
AM_0
100
AcDbLine
 10
-76.31107874704213
 20
92.44125669400056
 30
0.0
 11
-68.87356587137089
 21
92.0085071781002
 31
0.0
  0
LINE
  5
11DBE
330
1F
100
AcDbEntity
  8
AM_0
100
AcDbLine
 10
-65.55704660982633
 20
96.92269751373725
 30
0.0
 11
-65.69166109505443
 21
96.86970528241766
 31
0.0
  0
LINE
  5
11DBF
330
1F
100
AcDbEntity
  8
AM_0
100
AcDbLine
 10
-65.57102679134016
 20
96.26009345600919
 30
0.0
 11
-65.55704660982633
 21
96.92269751373725
 31
0.0
  0
LINE
  5
11DC0
330
1F
100
AcDbEntity
  8
AM_0
100
AcDbLine
 10
-65.72615037116123
 20
95.8698231666567
 30
0.0
 11
-65.55431963051331
 21
95.93746591952099
 31
0.0
  0
ELLIPSE
  5
11DC1
330
1F
100
AcDbEntity
  8
AM_0
100
AcDbEllipse
 10
-76.28822349225823
 20
96.59518941535792
 30
0.0
 11
-0.7036334215326752
 21
0.07584316590293744
 31
3.676005538868177E-18
210
5.164318874888495E-18
220
-5.566510646277632E-19
230
1.0
 40
0.6995258285551458
 41
1.034920680370669
 42
1.806134855279701
  0
LINE
  5
11DC2
330
1F
100
AcDbEntity
  8
AM_0
100
AcDbLine
 10
-66.5910060717361
 20
96.88676611840275
 30
0.0
 11
-76.86041034479217
 21
96.56115692327977
 31
0.0
  0
ELLIPSE
  5
11DC3
330
1F
100
AcDbEntity
  8
AM_0
100
AcDbEllipse
 10
-66.95717532006103
 20
96.89104641000118
 30
0.0
 11
7.900111799949729
 21
-0.2494105367722976
 31
2.625404728272832E-18
210
-3.319941119006033E-19
220
1.048122251319262E-20
230
0.9999999999999999
 40
0.0023843062228113
 41
1.409989066028629
 42
1.422836208254526
  0
ELLIPSE
  5
11DC4
330
1F
100
AcDbEntity
  8
AM_0
100
AcDbEllipse
 10
-65.73297134908398
 20
96.92986191078948
 30
0.0
 11
0.01781471096603718
 21
0.5008074741374837
 31
-1.334260854022348E-17
210
9.465176737037074E-19
220
2.660852181647745E-17
230
1.0
 40
0.087250151689601
 41
4.364517704928033
 42
4.595083191652546
  0
LINE
  5
11DC5
330
1F
100
AcDbEntity
  8
AM_0
100
AcDbLine
 10
-76.03954044232199
 20
96.10688269619503
 30
0.0
 11
-76.17574757966406
 21
96.09886268022113
 31
0.0
  0
LINE
  5
11DC6
330
1F
100
AcDbEntity
  8
AM_0
100
AcDbLine
 10
-76.00758426897926
 20
95.96027725485781
 30
0.0
 11
-76.03954044232199
 21
96.10688269619503
 31
0.0
  0
LINE
  5
11DC7
330
1F
100
AcDbEntity
  8
AM_0
100
AcDbLine
 10
-76.03954044232199
 20
96.10688269619503
 30
0.0
 11
-66.45407901126305
 21
96.4108063025174
 31
0.0
  0
ELLIPSE
  5
11DC8
330
1F
100
AcDbEntity
  8
AM_0
100
AcDbEllipse
 10
-75.31030445817208
 20
95.99827603518149
 30
0.0
 11
-0.7036334215326875
 21
0.07584316590293276
 31
3.676005538867956E-18
210
5.164318874888104E-18
220
-5.566510646276768E-19
230
1.0
 40
0.6995258285551343
 41
0.2292588137502185
 42
1.806134855279684
  0
LINE
  5
11DC9
330
1F
100
AcDbEntity
  8
AM_0
100
AcDbLine
 10
-66.46800920533212
 20
96.26274595466735
 30
0.0
 11
-76.00758426897926
 21
95.96027725485781
 31
0.0
  0
ELLIPSE
  5
11DCA
330
1F
100
AcDbEntity
  8
AM_0
100
AcDbEllipse
 10
-72.35892499038323
 20
95.73451508649565
 30
0.0
 11
5.710250343905749
 21
0.1998391248422959
 31
2.569519968849420E-17
210
-4.494333208702911E-18
220
-1.572862065733070E-19
230
0.9999999999999999
 40
0.0026585918175698
 41
0.2131939425237659
 42
0.9597311828756412
  0
LINE
  5
11DCB
330
1F
100
AcDbEntity
  8
AM_0
100
AcDbLine
 10
-69.08316008815507
 20
95.86160481198481
 30
0.0
 11
-69.88671105509889
 21
95.81467334625937
 31
0.0
  0
LINE
  5
11DCC
330
1F
100
AcDbEntity
  8
AM_0
100
AcDbLine
 10
-69.88671105509889
 20
95.81467334625937
 30
0.0
 11
-75.19782854557792
 21
95.5019493000447
 31
0.0
  0
ELLIPSE
  5
11DCD
330
1F
100
AcDbEntity
  8
AM_0
100
AcDbEllipse
 10
-66.88192651752507
 20
92.33866798019089
 30
0.0
 11
-0.009837781049266251
 21
-0.3999000892759461
 31
5.817372818132061E-19
210
3.576500555790465E-20
220
1.453826715997865E-18
230
0.9999999999999999
 40
0.1796224893945545
 41
6.281310768687336
 42
7.849169925204608
  0
LINE
  5
11DCE
330
1F
100
AcDbEntity
  8
AM_0
100
AcDbLine
 10
-66.81014363586894
 20
92.33497671858332
 30
0.0
 11
-66.72862761113311
 21
95.53602236717784
 31
0.0
  0
ELLIPSE
  5
11DCF
330
1F
100
AcDbEntity
  8
AM_0
100
AcDbEllipse
 10
-66.80041049278918
 20
95.53971362878541
 30
0.0
 11
-0.009837781049266251
 21
-0.3999000892759461
 31
5.817372818132061E-19
210
3.576500555790465E-20
220
1.453826715997865E-18
230
0.9999999999999999
 40
0.1796224893945545
 41
1.565984618025
 42
2.964416496486812
  0
ARC
  5
11DD0
330
1F
100
AcDbEntity
  8
AM_0
100
AcDbCircle
 10
-67.09493220292217
 20
96.3254330978537
 30
0.0
 40
0.6300493019027158
100
AcDbArc
 50
304.2573778140048
 51
354.2898734666031
  0
ELLIPSE
  5
11DD1
330
1F
100
AcDbEntity
  8
AM_0
100
AcDbEllipse
 10
-65.13797706566743
 20
67.51866189156367
 30
0.0
 11
1.368424645340949
 21
43.12744432054815
 31
-5.813147121790190E-18
210
4.272555733102286E-21
220
1.346544072508262E-19
230
1.0
 40
0.0695262831601351
 41
0.8388975426017632
 42
0.8435120625508283
  0
ELLIPSE
  5
11DD2
330
1F
100
AcDbEntity
  8
AM_0
100
AcDbEllipse
 10
-64.21613758324418
 20
96.55825893458886
 30
0.0
 11
3.004551953721411
 21
0.09606621285945929
 31
1.235213837475110E-17
210
-4.106942987486282E-18
220
-1.313135753065774E-19
230
0.9999999999999999
 40
0.0378717884867976
 41
3.870868448532391
 42
3.915647406525816
  0
ARC
  5
11DD3
330
1F
100
AcDbEntity
  8
AM_0
100
AcDbCircle
 10
-66.43189245343126
 20
97.35152943757333
 30
0.0
 40
0.9440915527156737
100
AcDbArc
 50
274.2397482625085
 51
321.0221244325782
  0
LINE
  5
11DD4
330
1F
100
AcDbEntity
  8
AM_0
100
AcDbLine
 10
-65.69796614850634
 20
96.75767672953167
 30
0.0
 11
-65.72615037116123
 21
95.8698231666567
 31
0.0
  0
ELLIPSE
  5
11DD5
330
1F
100
AcDbEntity
  8
AM_0
100
AcDbEllipse
 10
-63.62332959986975
 20
115.2327736297398
 30
0.0
 11
4.074967207571429
 21
34.14401348907826
 31
-5.064029097477819E-17
210
1.745214873122974E-19
220
1.462309685794113E-18
230
1.0
 40
0.0072906741426554
 41
3.969557122261034
 42
4.110282957013737
  0
ELLIPSE
  5
11DD6
330
1F
100
AcDbEntity
  8
AM_0
100
AcDbEllipse
 10
-76.22608739290979
 20
96.59715954768102
 30
0.0
 11
-0.7097408724056461
 21
-0.02921956150117697
 31
-3.330793767033155E-18
210
-4.685030887273705E-18
220
-1.928796177140083E-19
230
1.0
 40
0.7038541965970599
 41
0.4512332804688853
 42
0.8240062279069697
  0
LINE
  5
11DD7
330
1F
100
AcDbEntity
  8
AM_0
100
AcDbLine
 10
-76.85288922428924
 20
96.21999838983065
 30
0.0
 11
-76.69311179734382
 21
96.21070178687772
 31
0.0
  0
ELLIPSE
  5
11DD8
330
1F
100
AcDbEntity
  8
AM_0
100
AcDbEllipse
 10
-65.46114841816223
 20
96.36268540380443
 30
0.0
 11
-0.06641351254953061
 21
-0.4974466175289342
 31
-1.865090686682105E-18
210
-4.918022300529365E-19
220
-3.683668374723673E-18
230
0.9999999999999999
 40
0.1429862911496864
 41
5.756350137065557
 42
6.308696088167313
  0
ELLIPSE
  5
11DD9
330
1F
100
AcDbEntity
  8
AM_0
100
AcDbEllipse
 10
-65.49221344663857
 20
96.36962407253797
 30
0.0
 11
-0.02784036966893482
 21
-0.5059487873520017
 31
-3.865823007668715E-18
210
-4.191706306322574E-19
220
-7.617674434065041E-18
230
1.0
 40
0.1471794857101667
 41
4.938693477835381
 42
5.744355344454414
  0
LINE
  5
11DDA
330
1F
100
AcDbEntity
  8
AM_0
100
AcDbLine
 10
-65.52330768695151
 20
95.88105586889354
 30
0.0
 11
-65.54409375895654
 21
95.88569863521273
 31
0.0
  0
LINE
  5
11DDB
330
1F
100
AcDbEntity
  8
AM_0
100
AcDbLine
 10
-65.51956378758064
 20
95.90566757595808
 30
0.0
 11
-65.55084851222398
 21
95.91265531591414
 31
0.0
  0
ELLIPSE
  5
11DDC
330
1F
100
AcDbEntity
  8
AM_0
100
AcDbEllipse
 10
-63.6241652203197
 20
95.9475119970712
 30
0.0
 11
-2.449471438104125
 21
0.661623319786954
 31
8.507114577241154E-17
210
3.236882338587255E-17
220
-8.743097818170277E-18
230
1.0
 40
0.0463434136234265
 41
5.551832116527961
 42
5.639465675712304
  0
LINE
  5
11DDD
330
1F
100
AcDbEntity
  8
AM_0
100
AcDbLine
 10
-66.89189893127832
 20
91.93877190598828
 30
0.0
 11
-68.84884609392827
 21
92.00735428714624
 31
0.0
  0
ELLIPSE
  5
11DDE
330
1F
100
AcDbEntity
  8
AM_0
100
AcDbEllipse
 10
-64.3618185654924
 20
91.96904671057006
 30
0.0
 11
-2.998489597758039
 21
0.09518472638422244
 31
1.223879735095592E-17
210
4.077545171767772E-18
220
-1.294385085691873E-19
230
1.0
 40
0.0376909402838388
 41
5.371874319204128
 42
5.679433936108669
  0
ARC
  5
11DDF
330
1F
100
AcDbEntity
  8
AM_0
100
AcDbCircle
 10
25.35131877595768
 20
17.90814036327636
 30
0.0
 40
4.148339090818433
100
AcDbArc
 50
137.6281190163871
 51
222.3718809836129
  0
ELLIPSE
  5
11DE0
330
1F
100
AcDbEntity
  8
AM_0
100
AcDbEllipse
 10
24.33387129578654
 20
17.90814036327636
 30
0.0
 11
4.338360072503000E-17
 21
-5.000000000000089
 31
0.0
210
0.0
220
0.0
230
1.0
 40
0.819152044288993
 41
2.653374542306485
 42
6.224081046521745
  0
ELLIPSE
  5
11DE1
330
1F
100
AcDbEntity
  8
AM_0
100
AcDbEllipse
 10
24.33387129578654
 20
17.90814036327636
 30
0.0
 11
3.253770054377340E-17
 21
-3.750000000000169
 31
0.0
210
0.0
220
0.0
230
1.0
 40
0.8191520442889931
 41
1.906515163545166
 42
3.87106177652419
  0
ELLIPSE
  5
11DE2
330
1F
100
AcDbEntity
  8
AM_0
100
AcDbEllipse
 10
24.33387129578654
 20
17.90814036327636
 30
0.0
 11
3.253770054377340E-17
 21
-3.750000000000169
 31
0.0
210
0.0
220
0.0
230
1.0
 40
0.8191520442889931
 41
5.553716184245193
 42
6.812213000873311
  0
ELLIPSE
  5
11DE3
330
1F
100
AcDbEntity
  8
AM_0
100
AcDbEllipse
 10
23.35879135398977
 20
17.90814036327636
 30
0.0
 11
1.921469044540341E-17
 21
-2.214510797200601
 31
0.0
210
0.0
220
0.0
230
1.0
 40
0.8191520442889931
 41
0.0000000000000002
 42
6.283185307179586
  0
ELLIPSE
  5
11DE4
330
1F
100
AcDbEntity
  8
AM_0
100
AcDbEllipse
 10
23.35879135398989
 20
17.90814036327636
 30
0.0
 11
1.475042424650994E-17
 21
-1.7
 31
0.0
210
0.0
220
0.0
230
1.0
 40
0.8191520442889931
 41
0.0000000000000002
 42
6.283185307179586
  0
LINE
  5
11DE5
330
1F
100
AcDbEntity
  8
AM_0
100
AcDbLine
 10
0.5074655778324768
 20
-3.49719189190732
 30
0.0
 11
1.275178927768479
 21
-3.430029023468748
 31
0.0
  0
LINE
  5
11DE6
330
1F
100
AcDbEntity
  8
AM_0
100
AcDbLine
 10
1.275178927768479
 20
-3.43002902346872
 30
0.0
 11
1.504940351512005
 21
-3.467893074367211
 31
0.0
  0
LINE
  5
11DE7
330
1F
100
AcDbEntity
  8
AM_0
100
AcDbLine
 10
12.81178131388811
 20
-15.74947909318793
 30
0.0
 11
12.98365200158241
 21
-15.8940570735022
 31
0.0
  0
LINE
  5
11DE8
330
1F
100
AcDbEntity
  8
AM_0
100
AcDbLine
 10
8.793800584869246
 20
-13.87079741869012
 30
0.0
 11
1.504940351512005
 21
-3.46789307436724
 31
0.0
  0
LINE
  5
11DE9
330
1F
100
AcDbEntity
  8
AM_0
100
AcDbLine
 10
9.001706211556609
 20
-16.2472880130501
 30
0.0
 11
8.793800584869246
 21
-13.87079741869012
 31
0.0
  0
LINE
  5
11DEA
330
1F
100
AcDbEntity
  8
AM_0
100
AcDbLine
 10
12.77574637489522
 20
-13.51756647914415
 30
0.0
 11
12.98365200158241
 21
-15.89405707350223
 31
0.0
  0
LINE
  5
11DEB
330
1F
100
AcDbEntity
  8
AM_0
100
AcDbLine
 10
1.504940351512005
 20
-3.467893074367211
 30
0.0
 11
0.5074655778324768
 21
-3.556377189938118
 31
0.0
  0
LINE
  5
11DEC
330
1F
100
AcDbEntity
  8
AM_0
100
AcDbLine
 10
12.69097405602366
 20
-14.36857701458804
 30
0.0
 11
12.81178131388811
 21
-15.74947909318796
 31
0.0
  0
LINE
  5
11E22
330
1F
100
AcDbEntity
  8
AM_0
100
AcDbLine
 10
0.5074655778324768
 20
-3.556377189938146
 30
0.0
 11
0.5074655778324768
 21
-23.75192471623031
 31
0.0
  0
LINE
  5
11E23
330
1F
100
AcDbEntity
  8
AM_0
100
AcDbLine
 10
0.5074655778324768
 20
-3.556377189938146
 30
0.0
 11
0.5074655778324768
 21
-3.49719189190732
 31
0.0
  0
SPLINE
  5
11E24
330
1F
100
AcDbEntity
  8
AM_0
100
AcDbSpline
210
0.0
220
0.0
230
1.0
 70
    12
 71
     2
 72
     6
 73
     3
 74
     0
 42
0.0000000001
 43
0.0000000001
 40
19.54163103118207
 40
19.54163103118207
 40
19.54163103118207
 40
48.83181789621723
 40
48.83181789621723
 40
48.83181789621723
 10
31.56689822152487
 20
3.061608969043149
 30
0.0
 41
1.071151829183419
 10
31.9449651590312
 20
-10.42133958857791
 30
0.0
 41
1.08889926230117
 10
29.91643092164117
 20
-25.82064407504318
 30
0.0
 41
1.0
  0
LINE
  5
11E25
330
1F
100
AcDbEntity
  8
AM_0
100
AcDbLine
 10
12.7475104664494
 20
-14.41613556074402
 30
0.0
 11
12.70704723131416
 21
-13.95361562201823
 31
0.0
  0
LINE
  5
11E26
330
1F
100
AcDbEntity
  8
AM_0
100
AcDbLine
 10
20.42649235646229
 20
2.233188774477853
 30
0.0
 11
20.40093966380925
 21
2.178348258014822
 31
0.0
  0
LINE
  5
11E27
330
1F
100
AcDbEntity
  8
AM_0
100
AcDbLine
 10
12.73507045421292
 20
-14.27393848534588
 30
0.0
 11
12.69097405602366
 21
-14.36857701458804
 31
0.0
  0
LINE
  5
11E28
330
1F
100
AcDbEntity
  8
AM_0
100
AcDbLine
 10
12.69097405602372
 20
-14.36857701458801
 30
0.0
 11
12.74751046644951
 21
-14.41613556074402
 31
0.0
  0
LINE
  5
11E29
330
1F
100
AcDbEntity
  8
AM_0
100
AcDbLine
 10
20.02361867571392
 20
2.037626299655088
 30
0.0
 11
12.77574637489522
 21
-13.51756647914412
 31
0.0
  0
LINE
  5
11E2A
330
1F
100
AcDbEntity
  8
AM_0
100
AcDbLine
 10
12.70704723131416
 20
-13.95361562201801
 30
0.0
 11
12.77574637489516
 21
-13.51756647914392
 31
0.0
  0
LINE
  5
11E2D
330
1F
100
AcDbEntity
  8
AM_0
100
AcDbLine
 10
29.91643092164117
 20
-31.09185963672364
 30
0.0
 11
35.00746557783248
 21
-31.09185963672367
 31
0.0
  0
ELLIPSE
  5
11E2E
330
1F
100
AcDbEntity
  8
AM_0
100
AcDbEllipse
 10
1187.647285747727
 20
-0.0918596367240951
 30
0.0
 11
1325.63612836408
 21
1.588669912619862
 31
8.072576979052260E-17
210
-6.089578589786668E-20
220
-7.297877659736770E-23
230
0.9999999999999999
 40
0.0376986971286092
 41
3.602735054965047
 42
3.650326627142714
  0
LINE
  5
11E2F
330
1F
100
AcDbEntity
  8
AM_0
100
AcDbLine
 10
5.503248235500166
 20
-31.09185963672367
 30
0.0
 11
29.91643092164117
 21
-31.0918596367237
 31
0.0
  0
LINE
  5
11E30
330
1F
100
AcDbEntity
  8
AM_0
100
AcDbLine
 10
0.5074655778324768
 20
-25.6065612810698
 30
0.0
 11
5.503248235500109
 21
-25.6065612810698
 31
0.0
  0
LINE
  5
11E31
330
1F
100
AcDbEntity
  8
AM_0
100
AcDbLine
 10
5.503248235500166
 20
0.9093757895919197
 30
0.0
 11
5.503248235500166
 21
0.6016176897461918
 31
0.0
  0
LINE
  5
11E32
330
1F
100
AcDbEntity
  8
AM_0
100
AcDbLine
 10
31.56691777500168
 20
3.061519855859174
 30
0.0
 11
33.82301472482533
 21
3.556559277522538
 31
0.0
  0
LINE
  5
11E33
330
1F
100
AcDbEntity
  8
AM_0
100
AcDbLine
 10
31.56689822152492
 20
3.061608969043178
 30
0.0
 11
20.02361867571392
 21
2.037626299655088
 31
0.0
  0
LINE
  5
11E34
330
1F
100
AcDbEntity
  8
AM_0
100
AcDbLine
 10
20.21602013242955
 20
2.161944393358098
 30
0.0
 11
20.02361867571392
 21
2.037626299655088
 31
0.0
  0
LINE
  5
11E35
330
1F
100
AcDbEntity
  8
AM_0
100
AcDbLine
 10
20.48302876688808
 20
2.185630228321841
 30
0.0
 11
20.21602013242955
 21
2.161944393358098
 31
0.0
  0
LINE
  5
11E36
330
1F
100
AcDbEntity
  8
AM_0
100
AcDbLine
 10
20.42649235646229
 20
2.233188774477853
 30
0.0
 11
20.48302876688808
 21
2.185630228321841
 31
0.0
  0
LINE
  5
11E37
330
1F
100
AcDbEntity
  8
AM_0
100
AcDbLine
 10
5.503248235500166
 20
0.9093757895919197
 30
0.0
 11
5.726375941714764
 21
0.929169029746717
 31
0.0
  0
LINE
  5
11E38
330
1F
100
AcDbEntity
  8
AM_0
100
AcDbLine
 10
8.928432994831155
 20
1.213217502779898
 30
0.0
 11
9.835783639454292
 21
1.29370687596581
 31
0.0
  0
LINE
  5
11E39
330
1F
100
AcDbEntity
  8
AM_0
100
AcDbLine
 10
17.31909493608634
 20
1.95753737985136
 30
0.0
 11
20.4264923564624
 21
2.233188774477853
 31
0.0
  0
LINE
  5
11E3A
330
1F
100
AcDbEntity
  8
AM_0
100
AcDbLine
 10
5.503248235500109
 20
1.648028122294861
 30
0.0
 11
5.503248235500109
 21
0.9093757895918913
 31
0.0
  0
SPLINE
  5
11E3B
330
1F
100
AcDbEntity
  8
AM_0
100
AcDbSpline
210
0.0
220
0.0
230
1.0
 70
     8
 71
     3
 72
    20
 73
    16
 74
     0
 42
0.0000000001
 43
0.0000000001
 40
3.862418213098501
 40
3.862418213098501
 40
3.862418213098501
 40
3.862418213098501
 40
4.852207741739957
 40
4.852207741739957
 40
5.845450414282362
 40
5.845450414282362
 40
6.838693086824767
 40
6.838693086824767
 40
7.706792590471479
 40
7.706792590471479
 40
8.574892094118191
 40
8.574892094118191
 40
9.442991597764904
 40
9.442991597764904
 40
10.21519443541782
 40
10.21519443541782
 40
10.21519443541782
 40
10.21519443541782
 10
33.82298760566096
 20
3.556682870637204
 30
0.0
 10
33.91221652784475
 20
3.576295373179946
 30
0.0
 10
34.00181167353662
 20
3.623880310577405
 30
0.0
 10
34.17602609604535
 20
3.776200615696055
 30
0.0
 10
34.26070775860819
 20
3.881222109810537
 30
0.0
 10
34.41929403109975
 20
4.141888009412796
 30
0.0
 10
34.49318338512467
 20
4.297568553072026
 30
0.0
 10
34.6173322890163
 20
4.622537255390839
 30
0.0
 10
34.67363611613803
 20
4.798751589865432
 30
0.0
 10
34.77647315850584
 20
5.19626536159403
 30
0.0
 10
34.82299417720401
 20
5.417573230142025
 30
0.0
 10
34.90140805134001
 20
5.894705597805839
 30
0.0
 10
34.93333705957468
 20
6.150852783241689
 30
0.0
 10
34.97746197981394
 20
6.652935826916561
 30
0.0
 10
34.99143658267803
 20
6.896887189709631
 30
0.0
 10
34.99875231021395
 20
7.14115173595296
 30
0.0
  0
LINE
  5
11E3C
330
1F
100
AcDbEntity
  8
AM_0
100
AcDbLine
 10
22.95014871420312
 20
2.9889110072357
 30
0.0
 11
33.82298760566101
 21
3.556682870637175
 31
0.0
  0
ELLIPSE
  5
11E3D
330
1F
100
AcDbEntity
  8
AM_0
100
AcDbEllipse
 10
2.883570143216957
 20
-0.0918596367236404
 30
0.0
 11
27.65790788585765
 21
24.53993505857898
 31
-5.201103401059033E-16
210
1.052186777141521E-17
220
9.335700764898169E-18
230
1.0
 40
0.6848599974001064
 41
5.615321792008033
 42
7.040841011967942
  0
LINE
  5
11E3E
330
1F
100
AcDbEntity
  8
AM_0
100
AcDbLine
 10
34.99881057157973
 20
7.14115006379761
 30
0.0
 11
35.00752398345958
 21
7.444743434923382
 31
0.0
  0
LINE
  5
11E3F
330
1F
100
AcDbEntity
  8
AM_0
100
AcDbLine
 10
34.99875231021395
 20
7.141151735952931
 30
0.0
 11
22.64333690342818
 21
6.495960788249178
 31
0.0
  0
LINE
  5
11E40
330
1F
100
AcDbEntity
  8
AM_0
100
AcDbLine
 10
11.42591782613636
 20
30.75233924826635
 30
0.0
 11
9.553102283401017
 21
7.598628623810541
 31
0.0
  0
LINE
  5
11E41
330
1F
100
AcDbEntity
  8
AM_0
100
AcDbLine
 10
7.599176076156937
 20
2.105519396176348
 30
0.0
 11
5.503248235500166
 21
1.648028122294889
 31
0.0
  0
ARC
  5
11E42
330
1F
100
AcDbEntity
  8
AM_0
100
AcDbCircle
 10
33.00746557783253
 20
61.7099260257999
 30
0.0
 40
31.00000000000066
100
AcDbArc
 50
263.5172989488686
 51
276.4827010511314
  0
ELLIPSE
  5
11E43
330
1F
100
AcDbEntity
  8
AM_0
100
AcDbEllipse
 10
23.23363667634681
 20
17.90814036327636
 30
0.0
 11
1.629989023965989
 21
5.387782647186635
 31
1.117999602717984E-16
210
-5.751375354913578E-18
220
-1.901065582592955E-17
230
1.0
 40
0.6781332686971642
 41
3.950727243807645
 42
10.23391255098723
  0
LINE
  5
11E51
330
1F
100
AcDbEntity
  8
AM_0
100
AcDbLine
 10
29.50746557783259
 20
30.90814036327632
 30
0.0
 11
14.50871557398739
 21
30.90814036327633
 31
0.0
  0
LINE
  5
11E52
330
1F
100
AcDbEntity
  8
AM_0
100
AcDbLine
 10
39.00746557783248
 20
30.90814036327632
 30
0.0
 11
36.50746557783253
 21
30.90814036327632
 31
0.0
  0
LINE
  5
11E53
330
1F
100
AcDbEntity
  8
AM_0
100
AcDbLine
 10
39.00746557783248
 20
-31.09185963672367
 30
0.0
 11
35.00746557783248
 21
-31.09185963672367
 31
0.0
  0
ELLIPSE
  5
11E54
330
1F
100
AcDbEntity
  8
AM_0
100
AcDbEllipse
 10
10.99267910656954
 20
-16.07067254327616
 30
0.0
 11
1.287462530062787
 21
1.530503261572678
 31
1.157398818981702E-32
210
-3.725269029444399E-33
220
-4.428506668479340E-33
230
1.0
 40
0.9987863343931633
 41
2.358029854880555
 42
5.49962250847035
  0
ELLIPSE
  5
11E55
330
1F
100
AcDbEntity
  8
AM_0
100
AcDbEllipse
 10
10.82080841887523
 20
-15.92609456296189
 30
0.0
 11
1.287462530062903
 21
1.530503261572581
 31
1.157398818981941E-32
210
-3.725269029445504E-33
220
-4.428506668479975E-33
230
1.0
 40
0.9987863343931638
 41
3.19783895690397
 42
5.499622508470426
  0
LINE
  5
11E72
330
1F
100
AcDbEntity
  8
AM_0
100
AcDbLine
 10
35.00746557783248
 20
7.444745111219064
 30
0.0
 11
35.00746557783248
 21
-31.0918596367237
 31
0.0
  0
LINE
  5
11E74
330
1F
100
AcDbEntity
  8
AM_0
100
AcDbLine
 10
0.5074655778324768
 20
-25.60656128106977
 30
0.0
 11
0.5074655778324768
 21
-23.75192471623028
 31
0.0
  0
LINE
  5
11E75
330
1F
100
AcDbEntity
  8
AM_0
100
AcDbLine
 10
29.91643092164117
 20
-25.82064407504315
 30
0.0
 11
29.91643092164117
 21
-31.0918596367237
 31
0.0
  0
LINE
  5
11E76
330
1F
100
AcDbEntity
  8
AM_0
100
AcDbLine
 10
5.503248235500166
 20
-31.09185963672364
 30
0.0
 11
5.503248235500166
 21
-25.60656128106977
 31
0.0
  0
ELLIPSE
  5
11E77
330
1F
100
AcDbEntity
  8
AM_0
100
AcDbEllipse
 10
16.99636448956068
 20
2.198683301857827
 30
0.0
 11
-6.076789958200751
 21
-0.5316237428017243
 31
1.310553709323599E-32
210
2.140274017871646E-33
220
1.872403837928767E-34
230
1.0
 40
0.0348909936698344
 41
1.598874469344605
 42
3.322912427991227
  0
ELLIPSE
  5
11E78
330
1F
100
AcDbEntity
  8
AM_0
100
AcDbEllipse
 10
16.99636448956068
 20
2.198683301857827
 30
0.0
 11
-6.076789958200751
 21
-0.5316237428017243
 31
1.310553709323599E-32
210
2.140274017871646E-33
220
1.872403837928767E-34
230
1.0
 40
0.0348909936698344
 41
0.9244309197414842
 42
1.364600360343909
  0
ELLIPSE
  5
11E79
330
1F
100
AcDbEntity
  8
AM_0
100
AcDbEllipse
 10
24.33387129578659
 20
17.90814036327636
 30
0.0
 11
4.338360072503491E-17
 21
-5.000000000000001
 31
0.0
210
0.0
220
0.0
230
1.0
 40
0.8191520442889942
 41
2.653374542306482
 42
6.224081046521756
  0
ELLIPSE
  5
11E7A
330
1F
100
AcDbEntity
  8
AM_0
100
AcDbEllipse
 10
24.33387129578659
 20
17.90814036327636
 30
0.0
 11
4.772196079754599E-17
 21
-5.5
 31
0.0
210
0.0
220
0.0
230
1.0
 40
0.8191520442889956
 41
3.169904648595682
 42
6.050534878034319
  0
LINE
  5
11E81
330
1F
100
AcDbEntity
  8
AM_0
100
AcDbLine
 10
7.43850870659287
 20
3.942047337596179
 30
0.0
 11
7.682384139296516
 21
1.154399493474116
 31
0.0
  0
LINE
  5
11E82
330
1F
100
AcDbEntity
  8
AM_0
100
AcDbLine
 10
14.71678562180784
 20
3.252937957007688
 30
0.0
 11
19.02366385626277
 21
3.766406596337404
 31
0.0
  0
LINE
  5
11E83
330
1F
100
AcDbEntity
  8
AM_0
100
AcDbLine
 10
12.00611281984948
 20
4.237534066013055
 30
0.0
 11
12.24998825255312
 21
1.449886221890992
 31
0.0
  0
LINE
  5
11E84
330
1F
100
AcDbEntity
  8
AM_0
100
AcDbLine
 10
20.47762017631209
 20
8.466624114907646
 30
0.0
 11
16.61959706727794
 21
8.006668256288137
 31
0.0
  0
LINE
  5
11E85
330
1F
100
AcDbEntity
  8
AM_0
100
AcDbLine
 10
9.181040763810131
 20
7.525454339373297
 30
0.0
 11
10.77501046206925
 21
7.838944410082391
 31
0.0
  0
LINE
  5
11E86
330
1F
100
AcDbEntity
  8
AM_0
100
AcDbLine
 10
9.181040763810131
 20
7.525454339373297
 30
0.0
 11
16.61959706727788
 21
8.006668256288108
 31
0.0
  0
ELLIPSE
  5
11E87
330
1F
100
AcDbEntity
  8
AM_0
100
AcDbEllipse
 10
17.31638401785978
 20
0.0419601302244956
 30
0.0
 11
-0.3338341180500581
 21
7.993887544883699
 31
-1.536565583862827E-17
210
-8.013255761615734E-20
220
1.918829201787645E-18
230
1.0
 40
0.7688070925803
 41
0.0591871277370934
 42
0.9864823457387271
  0
LINE
  5
11E88
330
1F
100
AcDbEntity
  8
AM_0
100
AcDbLine
 10
12.00611281984948
 20
4.23753406601314
 30
0.0
 11
7.43850870659287
 21
3.942047337596264
 31
0.0
  0
ELLIPSE
  5
11E89
330
1F
100
AcDbEntity
  8
AM_0
100
AcDbEllipse
 10
9.877827714392026
 20
-0.4392537866903155
 30
0.0
 11
0.5995919746081356
 21
-7.977889488262712
 31
3.384579175901920E-17
210
-3.170576477511852E-19
220
4.218620298946811E-18
230
1.0
 40
0.3198053955182007
 41
3.179869312199235
 42
4.10716453020087
  0
LINE
  5
11E8A
330
1F
100
AcDbEntity
  8
AM_0
100
AcDbLine
 10
7.68238413929646
 20
1.154399493474116
 30
0.0
 11
12.24998825255307
 21
1.449886221890992
 31
0.0
  0
LINE
  5
11E8B
330
1F
100
AcDbEntity
  8
AM_0
100
AcDbLine
 10
12.24998825255307
 20
1.449886221890992
 30
0.0
 11
13.76356020893002
 21
1.80635755792467
 31
0.0
  0
ELLIPSE
  5
11E8C
330
1F
100
AcDbEntity
  8
AM_0
100
AcDbEllipse
 10
14.8387233381597
 20
1.859114034946472
 30
0.0
 11
0.05842097065876038
 21
-1.398930320354651
 31
-2.255029610171020E-19
210
6.720043789712896E-21
220
-1.609160701291888E-19
230
1.0
 40
0.7688070925802999
 41
3.200779781326887
 42
4.717995240557373
  0
ARC
  5
11E8D
330
1F
100
AcDbEntity
  8
AM_0
100
AcDbCircle
 10
19.16946549170257
 20
-1.807768645280177
 30
0.0
 40
5.576081755243487
100
AcDbArc
 50
71.77791705205858
 51
91.49832282527346
  0
LINE
  5
11E8E
330
1F
100
AcDbEntity
  8
AM_0
100
AcDbLine
 10
20.47762017631209
 20
8.466624114907646
 30
0.0
 11
20.91311202042579
 21
3.488681536117824
 31
0.0
  0
LINE
  5
11E8F
330
1F
100
AcDbEntity
  8
AM_0
100
AcDbLine
 10
22.44223489043122
 20
8.794681847458421
 30
0.0
 11
22.97687982036621
 21
2.683357841669206
 31
0.0
  0
ELLIPSE
  5
11E90
330
1F
100
AcDbEntity
  8
AM_0
100
AcDbEllipse
 10
16.90055628385562
 20
3.293830669191451
 30
0.0
 11
5.977170450689261
 21
0.5229085994771203
 31
-1.289069222285543E-32
210
2.140274017871705E-33
220
1.872403837928870E-34
230
1.0
 40
0.0348909936698345
 41
4.216011507097253
 42
5.445312031666868
  0
ELLIPSE
  5
11E91
330
1F
100
AcDbEntity
  8
AM_0
100
AcDbEllipse
 10
16.46506443974192
 20
8.271773247981272
 30
0.0
 11
-5.977170450689261
 21
-0.5229085994771203
 31
1.289069222285543E-32
210
2.140274017871705E-33
220
1.872403837928870E-34
230
1.0
 40
0.0348909936698345
 41
2.303719378077072
 42
5.968910807265137
  0
ELLIPSE
  5
11E92
330
1F
100
AcDbEntity
  8
AM_0
100
AcDbEllipse
 10
16.46073284468059
 20
8.271493029113415
 30
0.0
 11
-3.984780300459508
 21
-0.3486057329847468
 31
8.593794815236954E-33
210
2.140274017871704E-33
220
1.872403837928876E-34
230
1.0
 40
0.0348909936698345
 41
-0.0000000000001046
 42
6.283185307179477
  0
LINE
  5
11E93
330
1F
100
AcDbEntity
  8
AM_0
100
AcDbLine
 10
14.16724892861384
 20
8.074992961137454
 30
0.0
 11
15.41458637587937
 21
8.251946252380989
 31
0.0
  0
LINE
  5
11E94
330
1F
100
AcDbEntity
  8
AM_0
100
AcDbLine
 10
15.41458637587942
 20
8.251946252380989
 30
0.0
 11
15.42676634205964
 21
8.112721665109646
 31
0.0
  0
LINE
  5
11E95
330
1F
100
AcDbEntity
  8
AM_0
100
AcDbLine
 10
15.41458637587948
 20
8.251946252380989
 30
0.0
 11
17.71240188700745
 21
8.448726539224836
 31
0.0
  0
LINE
  5
11E96
330
1F
100
AcDbEntity
  8
AM_0
100
AcDbLine
 10
17.71240188700739
 20
8.448726539224836
 30
0.0
 11
17.72356620116557
 21
8.321111486125304
 31
0.0
  0
LINE
  5
11E97
330
1F
100
AcDbEntity
  8
AM_0
100
AcDbLine
 10
17.71240188700739
 20
8.448726539224836
 30
0.0
 11
18.76287995086977
 21
8.468553534825119
 31
0.0
  0
LINE
  5
11E98
330
1F
100
AcDbEntity
  8
AM_0
100
AcDbLine
 10
18.76287995086977
 20
8.468553534825119
 30
0.0
 11
17.5155425036042
 21
8.291600243581584
 31
0.0
  0
LINE
  5
11E99
330
1F
100
AcDbEntity
  8
AM_0
100
AcDbLine
 10
17.51554250360425
 20
8.291600243581584
 30
0.0
 11
15.21772699247629
 21
8.094819956737737
 31
0.0
  0
LINE
  5
11E9A
330
1F
100
AcDbEntity
  8
AM_0
100
AcDbLine
 10
15.21772699247629
 20
8.094819956737737
 30
0.0
 11
14.1672489286139
 21
8.074992961137454
 31
0.0
  0
ELLIPSE
  5
11E9B
330
1F
100
AcDbEntity
  8
AM_0
100
AcDbEllipse
 10
16.46073284468059
 20
8.271493029113415
 30
0.0
 11
3.984780300459508
 21
0.3486057329847468
 31
-8.593794815236954E-33
210
2.140274017871704E-33
220
1.872403837928876E-34
230
1.0
 40
0.0348909936698345
 41
-0.0000000000001048
 42
6.283185307179477
  0
ELLIPSE
  5
11E9C
330
1F
100
AcDbEntity
  8
AM_0
100
AcDbEllipse
 10
0.6523563873365674
 20
-2.868892628666728
 30
0.0
 11
0.4587671073660817
 21
-0.6545572711737335
 31
-3.492607786024587E-18
210
2.507845160638856E-18
220
-3.578129858303310E-18
230
1.0
 40
0.0063409130839231
 41
3.529288924700554
 42
3.804573301783981
  0
LINE
  5
11E9D
330
1F
100
AcDbEntity
  8
AM_0
100
AcDbLine
 10
12.17157949444163
 20
-14.79535021373643
 30
0.0
 11
10.54449193866753
 21
-15.93684355124138
 31
0.0
  0
LINE
  5
11E9E
330
1F
100
AcDbEntity
  8
AM_0
100
AcDbLine
 10
0.6026404447597997
 20
-2.145192142057013
 30
0.0
 11
0.4295127615218917
 21
-0.1662350671861219
 31
0.0
  0
ELLIPSE
  5
11E9F
330
1F
100
AcDbEntity
  8
AM_0
100
AcDbEllipse
 10
16.3981633640733
 20
1.93551769250864
 30
0.0
 11
-0.7965309010552507
 21
-0.07041504135814776
 31
-1.650194946578315E-18
210
-2.055662588933213E-18
220
-1.817249852157197E-19
230
1.0
 40
0.017461327864478
 41
3.570494536846661
 42
3.84577891392894
  0
LINE
  5
11EA0
330
1F
100
AcDbEntity
  8
AM_0
100
AcDbLine
 10
17.35218577352771
 20
1.563922327515783
 30
0.0
 11
19.15240101253971
 21
0.7264585901498464
 31
0.0
  0
LINE
  5
11EA1
330
1F
100
AcDbEntity
  8
AM_0
100
AcDbLine
 10
16.03373430334796
 20
1.908797744729256
 30
0.0
 11
17.12203553346797
 21
2.005338904829742
 31
0.0
  0
ELLIPSE
  5
11EA2
330
1F
100
AcDbEntity
  8
AM_0
100
AcDbEllipse
 10
16.42351871925348
 20
1.923722330459029
 30
0.0
 11
-0.8002350696110582
 21
-0.06641630969094788
 31
5.479654299733497E-19
210
6.800710232295029E-19
220
5.644317451946161E-20
230
0.9999999999999999
 40
0.0606828213018849
 41
3.269671543465342
 42
3.646281804493002
  0
LINE
  5
11EA3
330
1F
100
AcDbEntity
  8
AM_0
100
AcDbLine
 10
18.06688664793683
 20
1.6781678994261
 30
0.0
 11
17.21668435772637
 21
1.99579721827034
 31
0.0
  0
ELLIPSE
  5
11EA4
330
1F
100
AcDbEntity
  8
AM_0
100
AcDbEllipse
 10
17.27372100946377
 20
1.60609301161476
 30
0.0
 11
-0.8002350696110582
 21
-0.06641630969094788
 31
5.479654299733497E-19
210
6.800710232295029E-19
220
5.644317451946161E-20
230
0.9999999999999999
 40
0.0606828213018849
 41
1.663968631630569
 42
3.269671543465374
  0
LINE
  5
11EA5
330
1F
100
AcDbEntity
  8
AM_0
100
AcDbLine
 10
5.721492321935102
 20
0.5321853345640335
 30
0.0
 11
17.35218577352771
 21
1.563922327515783
 31
0.0
  0
LINE
  5
11EA6
330
1F
100
AcDbEntity
  8
AM_0
100
AcDbLine
 10
0.8526814482746659
 20
-3.158337325784984
 30
0.0
 11
0.2260687273299027
 21
-2.264014758438648
 31
0.0
  0
ELLIPSE
  5
11EA7
330
1F
100
AcDbEntity
  8
AM_0
100
AcDbEllipse
 10
0.6499179489738935
 20
-2.841019761893861
 30
0.0
 11
0.457449784072442
 21
-0.6565201356657693
 31
-3.373100027031979E-18
210
2.409924259154446E-18
220
-3.458661161623273E-18
230
1.0
 40
0.049999582875855
 41
3.228552478065625
 42
3.605162739092128
  0
LINE
  5
11EA8
330
1F
100
AcDbEntity
  8
AM_0
100
AcDbLine
 10
0.1350879872887845
 20
-1.550139101972505
 30
0.0
 11
0.1913457717095071
 21
-2.188966833851978
 31
0.0
  0
ELLIPSE
  5
11EA9
330
1F
100
AcDbEntity
  8
AM_0
100
AcDbEllipse
 10
0.5936601645531141
 20
-2.202192030014444
 30
0.0
 11
0.457449784072442
 21
-0.6565201356657693
 31
-3.373100027031979E-18
210
2.409924259154446E-18
220
-3.458661161623273E-18
230
1.0
 40
0.049999582875855
 41
1.622849566230851
 42
3.228552478065656
  0
LINE
  5
11EAA
330
1F
100
AcDbEntity
  8
AM_0
100
AcDbLine
 10
7.299261075558661
 20
-11.7028323796353
 30
0.0
 11
0.6026404447597997
 21
-2.145192142057013
 31
0.0
  0
LINE
  5
11EAB
330
1F
100
AcDbEntity
  8
AM_0
100
AcDbLine
 10
12.71052068045231
 20
-13.99331930555034
 30
0.0
 11
12.35314764552948
 21
-14.76030390757502
 31
0.0
  0
ELLIPSE
  5
11EAC
330
1F
100
AcDbEntity
  8
AM_0
100
AcDbEllipse
 10
12.64590688943639
 20
-14.11690106451958
 30
0.0
 11
0.3401744240530734
 21
0.7269812989655564
 31
1.355552633210316E-18
210
-7.157865569657607E-19
220
-1.529695956459870E-18
230
1.0
 40
0.019785133580509
 41
3.258551837758003
 42
3.635162098786204
  0
LINE
  5
11EAD
330
1F
100
AcDbEntity
  8
AM_0
100
AcDbLine
 10
11.87762347534749
 20
-15.46527417334666
 30
0.0
 11
12.30973495441225
 21
-14.83970106491297
 31
0.0
  0
ELLIPSE
  5
11EAE
330
1F
100
AcDbEntity
  8
AM_0
100
AcDbEllipse
 10
12.21379541037163
 20
-14.74247417295321
 30
0.0
 11
0.3401744240530734
 21
0.7269812989655564
 31
1.355552633210316E-18
210
-7.157865569657607E-19
220
-1.529695956459870E-18
230
1.0
 40
0.019785133580509
 41
1.652848925923226
 42
3.258551837758013
  0
LINE
  5
11EAF
330
1F
100
AcDbEntity
  8
AM_0
100
AcDbLine
 10
17.10565231523543
 20
-4.205972983206394
 30
0.0
 11
12.17157949444163
 21
-14.79535021373643
 31
0.0
  0
LINE
  5
11EB0
330
1F
100
AcDbEntity
  8
AM_0
100
AcDbLine
 10
7.32517658168706
 20
1.171327119487543
 30
0.0
 11
5.807677623592497
 21
1.036712634259445
 31
0.0
  0
LINE
  5
11EB1
330
1F
100
AcDbEntity
  8
AM_0
100
AcDbLine
 10
7.430808936744597
 20
1.157346937973713
 30
0.0
 11
7.32517658168706
 21
1.171327119487543
 31
0.0
  0
LINE
  5
11EB2
330
1F
100
AcDbEntity
  8
AM_0
100
AcDbLine
 10
5.813989491085067
 20
1.002223358152619
 30
0.0
 11
7.681206497173548
 21
1.167860675228198
 31
0.0
  0
ELLIPSE
  5
11EB3
330
1F
100
AcDbEntity
  8
AM_0
100
AcDbEllipse
 10
5.311377410180057
 20
0.9954023802298906
 30
0.0
 11
-0.5000964588840792
 21
-0.04385547472599564
 31
-1.333133792598224E-17
210
-2.645409471818875E-17
220
-2.319866221211414E-18
230
1.0
 40
0.0348277719460299
 41
2.784641806187644
 42
3.015207292912157
  0
LINE
  5
11EB4
330
1F
100
AcDbEntity
  8
AM_0
100
AcDbLine
 10
0.2882194378080385
 20
-2.354786358841167
 30
0.0
 11
0.8526814482746659
 21
-3.158337325784984
 31
0.0
  0
LINE
  5
11EB5
330
1F
100
AcDbEntity
  8
AM_0
100
AcDbLine
 10
0.8526814482746659
 20
-3.158337325784984
 30
0.0
 11
1.060383031739093
 21
-3.448820293032284
 31
0.0
  0
LINE
  5
11EB6
330
1F
100
AcDbEntity
  8
AM_0
100
AcDbLine
 10
2.831693108808167
 20
-0.5870059862165959
 30
0.0
 11
0.4295127615218917
 21
-0.1662350671861219
 31
0.0
  0
ELLIPSE
  5
11EB7
330
1F
100
AcDbEntity
  8
AM_0
100
AcDbEllipse
 10
0.4144363854083508
 20
-0.1535527882112007
 30
0.0
 11
0.4078049258082563
 21
-0.07184537455213771
 31
-4.377429654395974E-19
210
1.041099091922079E-18
220
-1.834165049791507E-19
230
1.0
 40
0.0238658562487385
 41
3.147868308783538
 42
4.753571220618351
  0
LINE
  5
11EB8
330
1F
100
AcDbEntity
  8
AM_0
100
AcDbLine
 10
0.0066287295471739
 20
-0.0817699065550954
 30
0.0
 11
-0.0001322585467847
 21
-0.000253881819205
 31
0.0
  0
ELLIPSE
  5
11EB9
330
1F
100
AcDbEntity
  8
AM_0
100
AcDbEllipse
 10
0.4076753973143923
 20
-0.0720367634752819
 30
0.0
 11
0.4078049258082563
 21
-0.07184537455213771
 31
-4.377429654395974E-19
210
1.041099091922079E-18
220
-1.834165049791507E-19
230
1.0
 40
0.0238658562487385
 41
1.749436430321754
 42
3.147868308783565
  0
LINE
  5
11EBA
330
1F
100
AcDbEntity
  8
AM_0
100
AcDbLine
 10
0.3368993002220577
 20
-0.0496927210406994
 30
0.0
 11
2.688764573906155
 21
-0.4667742050872477
 31
0.0
  0
ARC
  5
11EBB
330
1F
100
AcDbEntity
  8
AM_0
100
AcDbCircle
 10
3.777388034256262
 20
1.565248277893247
 30
0.0
 40
1.921887230906684
100
AcDbArc
 50
297.634006272555
 51
317.2376053674728
  0
ELLIPSE
  5
11EBC
330
1F
100
AcDbEntity
  8
AM_0
100
AcDbEllipse
 10
4.274931788917911
 20
1.590396663646445
 30
0.0
 11
0.6617569750065162
 21
3.287048887932668
 31
-8.508833108364015E-17
210
5.008426258269832E-18
220
2.487762514686984E-17
230
0.9999999999999999
 40
0.3665525026067909
 41
4.370678252379082
 42
4.375292772328147
  0
ELLIPSE
  5
11EBD
330
1F
100
AcDbEntity
  8
AM_0
100
AcDbEllipse
 10
3.179072063644071
 20
2.512236146069668
 30
0.0
 11
2.305353206462606
 21
-1.936853396943197
 31
8.890342942461227E-18
210
-2.260672560102116E-18
220
1.899314740637374E-18
230
1.0
 40
0.9963503829955107
 41
6.143426913272794
 42
6.188205871266225
  0
ARC
  5
11EBE
330
1F
100
AcDbEntity
  8
AM_0
100
AcDbCircle
 10
3.489920599560264
 20
2.206123194737572
 30
0.0
 40
2.574682800728227
100
AcDbArc
 50
314.3903091590568
 51
332.8291838757106
  0
LINE
  5
11EBF
330
1F
100
AcDbEntity
  8
AM_0
100
AcDbLine
 10
5.780484791964966
 20
1.030407580807506
 30
0.0
 11
5.813989491085067
 21
1.002223358152648
 31
0.0
  0
ELLIPSE
  5
11EC0
330
1F
100
AcDbEntity
  8
AM_0
100
AcDbEllipse
 10
2.474356756708858
 20
3.105044129444153
 30
0.0
 11
-2.388105524827843
 21
3.8005892431883
 31
1.889283416634759E-16
210
2.239385635934413E-17
220
-3.563906565601314E-17
230
1.0
 40
0.6243113711381098
 41
3.656730082610288
 42
3.797455917362977
  0
LINE
  5
11EC1
330
1F
100
AcDbEntity
  8
AM_0
100
AcDbLine
 10
2.831693108808167
 20
-0.5870059862165959
 30
0.0
 11
2.688764573906099
 21
-0.4667742050872477
 31
0.0
  0
ELLIPSE
  5
11EC2
330
1F
100
AcDbEntity
  8
AM_0
100
AcDbEllipse
 10
3.203715820424236
 20
2.491505766559143
 30
0.0
 11
2.305353206462468
 21
-1.936853396943359
 31
8.890342942478888E-18
210
-2.260672560106476E-18
220
1.899314740641306E-18
230
1.0
 40
0.996350382995512
 41
5.237207215520458
 42
5.918350799704102
  0
LINE
  5
11EC3
330
1F
100
AcDbEntity
  8
AM_0
100
AcDbLine
 10
9.710213644072724
 20
-13.64523879349163
 30
0.0
 11
10.54449193866765
 21
-15.93684355124135
 31
0.0
  0
ELLIPSE
  5
11EC4
330
1F
100
AcDbEntity
  8
AM_0
100
AcDbEllipse
 10
10.52941556255405
 20
-15.92416127226643
 30
0.0
 11
-0.1420367692884825
 21
0.3889628298964169
 31
9.305418957916815E-19
210
7.708277934929788E-19
220
-2.110885522261398E-18
230
1.0
 40
0.0237146126674228
 41
3.065416535999656
 42
4.671119447834466
  0
LINE
  5
11EC5
330
1F
100
AcDbEntity
  8
AM_0
100
AcDbLine
 10
10.67033844856053
 20
-16.31225245036451
 30
0.0
 11
10.51018727718616
 21
-16.10218486720522
 31
0.0
  0
ELLIPSE
  5
11EC6
330
1F
100
AcDbEntity
  8
AM_0
100
AcDbEllipse
 10
10.36926439117968
 20
-15.7140936891072
 30
0.0
 11
-0.1420367692884825
 21
0.3889628298964169
 31
9.305418957916815E-19
210
7.708277934929788E-19
220
-2.110885522261398E-18
230
1.0
 40
0.0237146126674228
 41
1.666984657537868
 42
3.065416535999675
  0
LINE
  5
11EC7
330
1F
100
AcDbEntity
  8
AM_0
100
AcDbLine
 10
10.37372414884192
 20
-15.75480248467808
 30
0.0
 11
9.567285109170655
 21
-13.52500701236228
 31
0.0
  0
ELLIPSE
  5
11EC8
330
1F
100
AcDbEntity
  8
AM_0
100
AcDbEllipse
 10
6.015246370170075
 20
-13.93567780012465
 30
0.0
 11
-4.103149380938426
 21
0.6924621139696342
 31
4.153121205416788E-16
210
9.841492029345299E-17
220
-1.660885271912067E-17
230
0.9999999999999999
 40
0.5943542800577507
 41
4.495724028601497
 42
4.503642511311107
  0
LINE
  5
11EC9
330
1F
100
AcDbEntity
  8
AM_0
100
AcDbLine
 10
9.710213644072724
 20
-13.64523879349163
 30
0.0
 11
9.567285109170655
 21
-13.52500701236228
 31
0.0
  0
ELLIPSE
  5
11ECA
330
1F
100
AcDbEntity
  8
AM_0
100
AcDbEllipse
 10
6.744605433885567
 20
-14.54921616300966
 30
0.0
 11
2.714661472514365
 21
1.283754344609343
 31
-3.590573636196524E-19
210
1.080930069117390E-19
220
5.111682198676006E-20
230
1.0
 40
0.9944215198762875
 41
6.189008466608946
 42
6.680452761600821
  0
ELLIPSE
  5
11ECB
330
1F
100
AcDbEntity
  8
AM_0
100
AcDbEllipse
 10
8.287817280693218
 20
1.2361602826753
 30
0.0
 11
-0.8606172949423809
 21
-0.07756107737764327
 31
-1.314862150412316E-19
210
-1.515503785879522E-19
220
-1.365811576103434E-20
230
1.0
 40
0.020274186991574
 41
0.0898030019831796
 42
0.7865840569936146
  0
ELLIPSE
  5
11ECC
330
1F
100
AcDbEntity
  8
AM_0
100
AcDbEllipse
 10
9.436775927923122
 20
1.307329360875897
 30
0.0
 11
-0.8586845015781317
 21
-0.07604786275014935
 31
-5.660501578573532E-19
210
-6.540760040706858E-19
220
-5.792707577034070E-20
230
1.0
 40
0.0707104950244186
 41
0.33499896806388
 42
1.737816669122288
  0
LINE
  5
11ECD
330
1F
100
AcDbEntity
  8
AM_0
100
AcDbLine
 10
17.00443431273448
 20
1.998188263104495
 30
0.0
 11
16.0337343033479
 21
1.908797744729256
 31
0.0
  0
LINE
  5
11ECE
330
1F
100
AcDbEntity
  8
AM_0
100
AcDbLine
 10
16.03373430334796
 20
1.908797744729256
 30
0.0
 11
12.83032367980695
 21
1.586564854333446
 31
0.0
  0
LINE
  5
11ECF
330
1F
100
AcDbEntity
  8
AM_0
100
AcDbLine
 10
10.06878639812993
 20
1.308780253860689
 30
0.0
 11
9.584830397631095
 21
1.260098845452049
 31
0.0
  0
LINE
  5
11ED0
330
1F
100
AcDbEntity
  8
AM_0
100
AcDbLine
 10
17.5844989598483
 20
-1.144375248569432
 30
0.0
 11
19.15240101253966
 21
0.726458590149818
 31
0.0
  0
ELLIPSE
  5
11ED1
330
1F
100
AcDbEntity
  8
AM_0
100
AcDbEllipse
 10
19.13732463642612
 20
0.7391408691247676
 30
0.0
 11
-0.2659931718100728
 21
-0.3173879575728266
 31
1.446836107105904E-21
210
2.244178515814316E-21
220
2.677795188185166E-21
230
1.0
 40
0.0475746667809158
 41
1.57070891796953
 42
3.154355044192939
  0
ELLIPSE
  5
11ED2
330
1F
100
AcDbEntity
  8
AM_0
100
AcDbEllipse
 10
19.0031109386091
 20
-2.330519460729121
 30
0.0
 11
-1.504247943554756
 21
-2.641953030212047
 31
3.646629616120124E-17
210
5.934898181254597E-18
220
1.042362883136944E-17
230
1.0
 40
0.443319089278411
 41
5.718761103466022
 42
5.726679586175764
  0
LINE
  5
11ED3
330
1F
100
AcDbEntity
  8
AM_0
100
AcDbLine
 10
0.0066288295828372
 20
-0.0817710804992799
 30
0.0
 11
0.1350871804719986
 21
-1.550129910028673
 31
0.0
  0
LINE
  5
11ED4
330
1F
100
AcDbEntity
  8
AM_0
100
AcDbLine
 10
10.67150804371272
 20
-16.31309486936051
 30
0.0
 11
11.87431778649642
 21
-15.46925625551258
 31
0.0
  0
LINE
  5
11ED5
330
1F
100
AcDbEntity
  8
AM_0
100
AcDbLine
 10
19.40310344413285
 20
1.056664476946864
 30
0.0
 11
18.06903619080794
 21
1.677275237069168
 31
0.0
  0
ELLIPSE
  5
11ED6
330
1F
100
AcDbEntity
  8
AM_0
100
AcDbEllipse
 10
9.981829733122254
 20
-5.074810893526134
 30
0.0
 11
-2.639298186628861
 21
-3.13753168622368
 31
-2.372667578912901E-32
210
-3.725269029445513E-33
220
-4.428506668479981E-33
230
1.0
 40
0.9987863343931634
 41
0.0096221682937707
 42
3.131970485295912
  0
ELLIPSE
  5
11ED7
330
1F
100
AcDbEntity
  8
AM_0
100
AcDbEllipse
 10
10.04213523757642
 20
-5.125540009425876
 30
0.0
 11
-2.63929818662886
 21
-3.137531686223681
 31
-7.426307752985006E-32
210
-1.165986947400426E-32
220
-1.386096126510353E-32
230
1.0
 40
0.9987863343931632
 41
0.000000000000002
 42
6.283185307179588
  0
ELLIPSE
  5
11ED8
330
1F
100
AcDbEntity
  8
AM_0
100
AcDbEllipse
 10
3.352253972455856
 20
2.366555163821474
 30
0.0
 11
1.931193795094288
 21
2.295754892358791
 31
-1.961687264750641E-32
210
4.209331415113244E-33
220
5.003947928143579E-33
230
1.0
 40
0.9987863343931633
 41
3.667026793876345
 42
4.752866131293843
  0
ELLIPSE
  5
11ED9
330
1F
100
AcDbEntity
  8
AM_0
100
AcDbEllipse
 10
6.893143585917187
 20
-14.67416676574733
 30
0.0
 11
1.931193795094288
 21
2.295754892358792
 31
1.736098228472854E-32
210
-3.725269029445511E-33
220
-4.428506668479977E-33
230
1.0
 40
0.9987863343931632
 41
5.761421896269543
 42
6.847261233687046
  0
ELLIPSE
  5
11EDA
330
1F
100
AcDbEntity
  8
AM_0
100
AcDbEllipse
 10
19.8810081543561
 20
-3.0690084263518
 30
0.0
 11
1.931193795094288
 21
2.295754892358791
 31
-1.961687264750641E-32
210
4.209331415113244E-33
220
5.003947928143579E-33
230
1.0
 40
0.9987863343931633
 41
1.572631691483154
 42
2.658471028900648
  0
LINE
  5
11EDB
330
1F
100
AcDbEntity
  8
AM_0
100
AcDbLine
 10
9.294626459702613
 20
-3.544850780792856
 30
0.0
 11
9.260409608425675
 21
-3.516067494261009
 31
0.0
  0
LINE
  5
11EDC
330
1F
100
AcDbEntity
  8
AM_0
100
AcDbLine
 10
11.03778879482843
 20
-3.686060852828646
 30
0.0
 11
10.99255966648781
 21
-3.648014015903826
 31
0.0
  0
LINE
  5
11EDD
330
1F
100
AcDbEntity
  8
AM_0
100
AcDbLine
 10
11.78529757270241
 20
-5.266750081461694
 30
0.0
 11
11.74006844436178
 21
-5.228703244536874
 31
0.0
  0
LINE
  5
11EDE
330
1F
100
AcDbEntity
  8
AM_0
100
AcDbLine
 10
11.27237823770628
 20
-6.367564058956972
 30
0.0
 11
11.22714910936566
 21
-6.32951722203218
 31
0.0
  0
LINE
  5
11EDF
330
1F
100
AcDbEntity
  8
AM_0
100
AcDbLine
 10
9.580580475569946
 20
-6.813482996067208
 30
0.0
 11
9.535351347229323
 21
-6.775436159142387
 31
0.0
  0
LINE
  5
11EE0
330
1F
100
AcDbEntity
  8
AM_0
100
AcDbLine
 10
8.350337475440142
 20
-5.571458946536282
 30
0.0
 11
8.30510834709952
 21
-5.533412109611462
 31
0.0
  0
LINE
  5
11EE1
330
1F
100
AcDbEntity
  8
AM_0
100
AcDbLine
 10
12.27107246340478
 20
-2.426867655314013
 30
0.0
 11
12.26315736594518
 21
-2.42020945885217
 31
0.0
  0
LINE
  5
11EE2
330
1F
100
AcDbEntity
  8
AM_0
100
AcDbLine
 10
7.76495360818484
 20
-7.783629070817895
 30
0.0
 11
7.757038510725238
 21
-7.776970874356053
 31
0.0
  0
LINE
  5
11EE3
330
1F
100
AcDbEntity
  8
AM_0
100
AcDbLine
 10
9.338813457922868
 20
-3.584934947185744
 30
0.0
 11
9.293584329582245
 21
-3.546888110260923
 31
0.0
  0
LINE
  5
11EE4
330
1F
100
AcDbEntity
  8
AM_0
100
AcDbLine
 10
11.29717570715616
 20
-4.495968990680794
 30
0.0
 11
11.25194657881553
 21
-4.457922153756002
 31
0.0
  0
LINE
  5
11EE5
330
1F
100
AcDbEntity
  8
AM_0
100
AcDbLine
 10
10.74545701723002
 20
-6.666145071666065
 30
0.0
 11
10.7002278888894
 21
-6.628098234741245
 31
0.0
  0
LINE
  5
11EE6
330
1F
100
AcDbEntity
  8
AM_0
100
AcDbLine
 10
8.787094767996678
 20
-5.755111028171015
 30
0.0
 11
8.741865639656055
 21
-5.717064191246223
 31
0.0
  0
ELLIPSE
  5
11EE7
330
1F
100
AcDbEntity
  8
AM_0
100
AcDbEllipse
 10
10.01009793833521
 20
-5.098590166604126
 30
0.0
 11
-2.25305942760998
 21
-2.678380707751942
 31
2.288635142209128E-32
210
4.209331415113291E-33
220
5.003947928143713E-33
230
1.0
 40
0.9987863343931636
 41
3.141592653589792
 42
6.283185307179591
  0
ELLIPSE
  5
11EE8
330
1F
100
AcDbEntity
  8
AM_0
100
AcDbEllipse
 10
10.01801303579481
 20
-5.105248363065968
 30
0.0
 11
2.25305942760998
 21
2.678380707751942
 31
-2.288635142209128E-32
210
4.209331415113289E-33
220
5.003947928143712E-33
230
0.9999999999999999
 40
0.9987863343931634
 41
0.000000000000002
 42
6.283185307179588
  0
ELLIPSE
  5
11EE9
330
1F
100
AcDbEntity
  8
AM_0
100
AcDbEllipse
 10
10.04213523757647
 20
-5.125540009425848
 30
0.0
 11
-1.268150592111957
 21
-1.507545712649015
 31
-3.568250310580727E-32
210
-1.165986947400405E-32
220
-1.386096126510353E-32
230
1.0
 40
0.9987863343931636
 41
4.452424957273938
 42
5.49962250847058
  0
ELLIPSE
  5
11EEA
330
1F
100
AcDbEntity
  8
AM_0
100
AcDbEllipse
 10
10.04213523757647
 20
-5.125540009425848
 30
0.0
 11
-1.268150592111957
 21
-1.507545712649015
 31
-3.568250310580727E-32
210
-1.165986947400405E-32
220
-1.386096126510353E-32
230
1.0
 40
0.9987863343931636
 41
5.49962250847058
 42
6.54682005966716
  0
ELLIPSE
  5
11EEB
330
1F
100
AcDbEntity
  8
AM_0
100
AcDbEllipse
 10
10.04213523757647
 20
-5.125540009425848
 30
0.0
 11
-1.268150592111957
 21
-1.507545712649015
 31
-3.568250310580727E-32
210
-1.165986947400405E-32
220
-1.386096126510353E-32
230
1.0
 40
0.9987863343931636
 41
0.263634752487574
 42
1.310832303684146
  0
ELLIPSE
  5
11EEC
330
1F
100
AcDbEntity
  8
AM_0
100
AcDbEllipse
 10
10.04213523757647
 20
-5.125540009425848
 30
0.0
 11
-1.268150592111957
 21
-1.507545712649015
 31
-3.568250310580727E-32
210
-1.165986947400405E-32
220
-1.386096126510353E-32
230
1.0
 40
0.9987863343931636
 41
1.310832303684141
 42
2.358029854880592
  0
ELLIPSE
  5
11EED
330
1F
100
AcDbEntity
  8
AM_0
100
AcDbEllipse
 10
10.04213523757647
 20
-5.125540009425848
 30
0.0
 11
-1.268150592111957
 21
-1.507545712649015
 31
-3.568250310580727E-32
210
-1.165986947400405E-32
220
-1.386096126510353E-32
230
1.0
 40
0.9987863343931636
 41
2.358029854880592
 42
3.405227406077302
  0
ELLIPSE
  5
11EEE
330
1F
100
AcDbEntity
  8
AM_0
100
AcDbEllipse
 10
10.04213523757647
 20
-5.125540009425848
 30
0.0
 11
-1.268150592111957
 21
-1.507545712649015
 31
-3.568250310580727E-32
210
-1.165986947400405E-32
220
-1.386096126510353E-32
230
1.0
 40
0.9987863343931636
 41
3.405227406077302
 42
4.452424957273938
  0
ELLIPSE
  5
11EEF
330
1F
100
AcDbEntity
  8
AM_0
100
AcDbEllipse
 10
8.379672870240881
 20
-5.273013926687369
 30
0.0
 11
0.1931193795094269
 21
0.2295754892358808
 31
-1.961687264750682E-33
210
4.209331415113292E-33
220
5.003947928143712E-33
230
1.0
 40
0.9987863343931634
 41
2.358029854880788
 42
3.743544120193806
  0
ELLIPSE
  5
11EF0
330
1F
100
AcDbEntity
  8
AM_0
100
AcDbEllipse
 10
8.379672870240881
 20
-5.273013926687369
 30
0.0
 11
0.1931193795094269
 21
0.2295754892358808
 31
-1.961687264750682E-33
210
4.209331415113292E-33
220
5.003947928143712E-33
230
1.0
 40
0.9987863343931634
 41
0.9725155895676821
 42
2.358029854880788
  0
ELLIPSE
  5
11EF1
330
1F
100
AcDbEntity
  8
AM_0
100
AcDbEllipse
 10
8.334443741900259
 20
-5.234967089762577
 30
0.0
 11
-0.1931193795094269
 21
-0.2295754892358808
 31
1.961687264750682E-33
210
4.209331415113292E-33
220
5.003947928143712E-33
230
1.0
 40
0.9987863343931634
 41
0.0987862962245038
 42
0.6019514666039182
  0
ELLIPSE
  5
11EF2
330
1F
100
AcDbEntity
  8
AM_0
100
AcDbEllipse
 10
8.083772988343185
 20
-4.214505965930826
 30
0.0
 11
-0.5149850120251382
 21
-0.6122013046290156
 31
-4.629595275927505E-33
210
-3.725269029445387E-33
220
-4.428506668479912E-33
230
1.0
 40
0.9987863343931632
 41
0.9725155895676803
 42
2.696346568997265
  0
ELLIPSE
  5
11EF3
330
1F
100
AcDbEntity
  8
AM_0
100
AcDbEllipse
 10
9.084936955860599
 20
-3.759394707631415
 30
0.0
 11
0.1931193795094269
 21
0.2295754892358808
 31
-1.961687264750682E-33
210
4.209331415113292E-33
220
5.003947928143712E-33
230
1.0
 40
0.9987863343931634
 41
1.310832303684189
 42
2.696346568997226
  0
ELLIPSE
  5
11EF4
330
1F
100
AcDbEntity
  8
AM_0
100
AcDbEllipse
 10
9.084936955860599
 20
-3.759394707631415
 30
0.0
 11
0.1931193795094269
 21
0.2295754892358808
 31
-1.961687264750682E-33
210
4.209331415113292E-33
220
5.003947928143712E-33
230
1.0
 40
0.9987863343931634
 41
6.208503345550731
 42
7.594017610863775
  0
ELLIPSE
  5
11EF5
330
1F
100
AcDbEntity
  8
AM_0
100
AcDbEllipse
 10
9.85379846994806
 20
-2.972733642556719
 30
0.0
 11
-0.5149850120251382
 21
-0.6122013046290156
 31
-4.629595275927505E-33
210
-3.725269029445387E-33
220
-4.428506668479912E-33
230
1.0
 40
0.9987863343931632
 41
6.208503345550644
 42
7.93233432498027
  0
ELLIPSE
  5
11EF6
330
1F
100
AcDbEntity
  8
AM_0
100
AcDbEllipse
 10
9.808569341607438
 20
-2.934686805631927
 30
0.0
 11
0.5149850120251382
 21
0.6122013046290156
 31
4.629595275927505E-33
210
-3.725269029445387E-33
220
-4.428506668479912E-33
230
1.0
 40
0.9987863343931632
 41
3.076859824916772
 42
3.141592653589807
  0
ELLIPSE
  5
11EF7
330
1F
100
AcDbEntity
  8
AM_0
100
AcDbEllipse
 10
10.74739932319619
 20
-3.611920790369979
 30
0.0
 11
0.1931193795094269
 21
0.2295754892358808
 31
-1.961687264750682E-33
210
4.209331415113292E-33
220
5.003947928143712E-33
230
1.0
 40
0.9987863343931634
 41
0.2636347524875347
 42
1.64914901780058
  0
ELLIPSE
  5
11EF8
330
1F
100
AcDbEntity
  8
AM_0
100
AcDbEllipse
 10
10.74739932319619
 20
-3.611920790369979
 30
0.0
 11
0.1931193795094269
 21
0.2295754892358808
 31
-1.961687264750682E-33
210
4.209331415113292E-33
220
5.003947928143712E-33
230
1.0
 40
0.9987863343931634
 41
5.161305794354075
 42
6.546820059667123
  0
ELLIPSE
  5
11EF9
330
1F
100
AcDbEntity
  8
AM_0
100
AcDbEllipse
 10
10.70217019485563
 20
-3.573873953445187
 30
0.0
 11
-0.1931193795094269
 21
-0.2295754892358808
 31
1.961687264750682E-33
210
4.209331415113292E-33
220
5.003947928143712E-33
230
1.0
 40
0.9987863343931634
 41
2.019713140764311
 42
3.042806357365187
  0
ELLIPSE
  5
11EFA
330
1F
100
AcDbEntity
  8
AM_0
100
AcDbEllipse
 10
11.81216071918129
 20
-3.883767686051797
 30
0.0
 11
-0.5149850120251382
 21
-0.6122013046290156
 31
-4.629595275927505E-33
210
-3.725269029445387E-33
220
-4.428506668479912E-33
230
1.0
 40
0.9987863343931632
 41
5.161305794354031
 42
6.885136773783732
  0
ELLIPSE
  5
11EFB
330
1F
100
AcDbEntity
  8
AM_0
100
AcDbEllipse
 10
11.76693159084073
 20
-3.845720849126977
 30
0.0
 11
0.5149850120251382
 21
0.6122013046290156
 31
4.629595275927505E-33
210
-3.725269029445387E-33
220
-4.428506668479912E-33
230
1.0
 40
0.9987863343931632
 41
2.019713140764235
 42
3.141592653589759
  0
ELLIPSE
  5
11EFC
330
1F
100
AcDbEntity
  8
AM_0
100
AcDbEllipse
 10
11.70459760491212
 20
-4.97806609216444
 30
0.0
 11
0.1931193795094269
 21
0.2295754892358808
 31
-1.961687264750682E-33
210
4.209331415113292E-33
220
5.003947928143712E-33
230
1.0
 40
0.9987863343931634
 41
5.499622508469646
 42
6.885136773783505
  0
ELLIPSE
  5
11EFD
330
1F
100
AcDbEntity
  8
AM_0
100
AcDbEllipse
 10
11.70459760491212
 20
-4.97806609216444
 30
0.0
 11
0.1931193795094269
 21
0.2295754892358808
 31
-1.961687264750682E-33
210
4.209331415113292E-33
220
5.003947928143712E-33
230
1.0
 40
0.9987863343931634
 41
4.114108243157377
 42
5.499622508469645
  0
ELLIPSE
  5
11EFE
330
1F
100
AcDbEntity
  8
AM_0
100
AcDbEllipse
 10
11.65936847657156
 20
-4.940019255239619
 30
0.0
 11
-0.1931193795094269
 21
-0.2295754892358808
 31
1.961687264750682E-33
210
4.209331415113292E-33
220
5.003947928143712E-33
230
1.0
 40
0.9987863343931634
 41
0.9725155895675797
 42
3.042806357365187
  0
ELLIPSE
  5
11EFF
330
1F
100
AcDbEntity
  8
AM_0
100
AcDbEllipse
 10
12.00049748680976
 20
-6.036574052920983
 30
0.0
 11
-0.5149850120251382
 21
-0.6122013046290156
 31
-4.629595275927505E-33
210
-3.725269029445387E-33
220
-4.428506668479912E-33
230
1.0
 40
0.9987863343931632
 41
4.114108243157437
 42
5.837939222587142
  0
ELLIPSE
  5
11F00
330
1F
100
AcDbEntity
  8
AM_0
100
AcDbEllipse
 10
11.9552683584692
 20
-5.998527215996163
 30
0.0
 11
0.5149850120251382
 21
0.6122013046290156
 31
4.629595275927505E-33
210
-3.725269029445387E-33
220
-4.428506668479912E-33
230
1.0
 40
0.9987863343931632
 41
0.9725155895676443
 42
2.696346568997349
  0
ELLIPSE
  5
11F01
330
1F
100
AcDbEntity
  8
AM_0
100
AcDbEllipse
 10
10.99933351929246
 20
-6.491685311220479
 30
0.0
 11
0.1931193795094269
 21
0.2295754892358808
 31
-1.961687264750682E-33
210
4.209331415113292E-33
220
5.003947928143712E-33
230
1.0
 40
0.9987863343931634
 41
4.452424957273978
 42
5.837939222587101
  0
ELLIPSE
  5
11F02
330
1F
100
AcDbEntity
  8
AM_0
100
AcDbEllipse
 10
10.99933351929246
 20
-6.491685311220479
 30
0.0
 11
0.1931193795094269
 21
0.2295754892358808
 31
-1.961687264750682E-33
210
4.209331415113292E-33
220
5.003947928143712E-33
230
1.0
 40
0.9987863343931634
 41
3.066910691960752
 42
4.452424957273978
  0
ELLIPSE
  5
11F03
330
1F
100
AcDbEntity
  8
AM_0
100
AcDbEllipse
 10
10.95410439095184
 20
-6.453638474295659
 30
0.0
 11
-0.1931193795094269
 21
-0.2295754892358808
 31
1.961687264750682E-33
210
4.209331415113292E-33
220
5.003947928143712E-33
230
1.0
 40
0.9987863343931634
 41
0.0963212397392877
 42
2.696346568997292
  0
ELLIPSE
  5
11F04
330
1F
100
AcDbEntity
  8
AM_0
100
AcDbEllipse
 10
10.23047200520489
 20
-7.27834637629509
 30
0.0
 11
-0.5149850120251382
 21
-0.6122013046290156
 31
-4.629595275927505E-33
210
-3.725269029445387E-33
220
-4.428506668479912E-33
230
1.0
 40
0.9987863343931632
 41
3.066910691960747
 42
4.790741671390361
  0
ELLIPSE
  5
11F05
330
1F
100
AcDbEntity
  8
AM_0
100
AcDbEllipse
 10
10.18524287686432
 20
-7.24029953937027
 30
0.0
 11
0.5149850120251382
 21
0.6122013046290156
 31
4.629595275927505E-33
210
-3.725269029445387E-33
220
-4.428506668479912E-33
230
1.0
 40
0.9987863343931632
 41
0.0000000000000532
 42
1.649149017800569
  0
ELLIPSE
  5
11F06
330
1F
100
AcDbEntity
  8
AM_0
100
AcDbEllipse
 10
9.336871151956814
 20
-6.639159228481773
 30
0.0
 11
0.1931193795094269
 21
0.2295754892358808
 31
-1.961687264750682E-33
210
4.209331415113292E-33
220
5.003947928143712E-33
230
1.0
 40
0.9987863343931634
 41
3.405227406077343
 42
4.790741671390443
  0
ELLIPSE
  5
11F07
330
1F
100
AcDbEntity
  8
AM_0
100
AcDbEllipse
 10
9.336871151956814
 20
-6.639159228481773
 30
0.0
 11
0.1931193795094269
 21
0.2295754892358808
 31
-1.961687264750682E-33
210
4.209331415113292E-33
220
5.003947928143712E-33
230
1.0
 40
0.9987863343931634
 41
2.019713140764308
 42
3.405227406077343
  0
ELLIPSE
  5
11F08
330
1F
100
AcDbEntity
  8
AM_0
100
AcDbEllipse
 10
9.291642023616191
 20
-6.601112391556981
 30
0.0
 11
-0.1931193795094269
 21
-0.2295754892358808
 31
1.961687264750682E-33
210
4.209331415113292E-33
220
5.003947928143712E-33
230
1.0
 40
0.9987863343931634
 41
0.0987862962242552
 42
1.649149017800568
  0
ELLIPSE
  5
11F09
330
1F
100
AcDbEntity
  8
AM_0
100
AcDbEllipse
 10
8.272109755971599
 20
-6.367312332800012
 30
0.0
 11
-0.5149850120251382
 21
-0.6122013046290156
 31
-4.629595275927505E-33
210
-3.725269029445387E-33
220
-4.428506668479912E-33
230
1.0
 40
0.9987863343931632
 41
2.01971314076432
 42
3.74354412019383
  0
ELLIPSE
  5
11F0A
330
1F
100
AcDbEntity
  8
AM_0
100
AcDbEllipse
 10
8.226880627630976
 20
-6.32926549587522
 30
0.0
 11
0.5149850120251382
 21
0.6122013046290156
 31
4.629595275927505E-33
210
-3.725269029445387E-33
220
-4.428506668479912E-33
230
1.0
 40
0.9987863343931632
 41
0.0000000000000167
 42
0.6019514666040736
  0
LINE
  5
12DD8
330
1F
100
AcDbEntity
  8
AM_7
100
AcDbLine
 10
-66.82023336603749
 20
170.7327639867145
 30
0.0
 11
-66.82023336603754
 21
86.49328932238613
 31
0.0
1001
GENIUS_GENODEF_13
1002
{
1000
HIER
1070
     0
1002
}
1002
{
1000
MANEDIT
1070
     0
1002
}
1002
{
1000
NOSEL
1070
     0
1002
}
1002
{
1000
BEHIND
1070
     0
1002
}
1002
{
1000
OTHER
1070
     0
1002
}
1002
{
1000
REACTOR
1002
}
1001
GENIUS_GENOBJ-N-CEN_13
1002
{
1000
OWNER
1000
GEN
1002
}
1001
GENIUS_GENCEN_19
1002
{
1040
2.794
1002
}
  0
LINE
  5
12DD9
330
1F
100
AcDbEntity
  8
AM_7
100
AcDbLine
 10
-32.5262333660375
 20
136.9387639867146
 30
0.0
 11
-101.1142333660376
 21
136.9387639867146
 31
0.0
1001
GENIUS_GENODEF_13
1002
{
1000
HIER
1070
     0
1002
}
1002
{
1000
MANEDIT
1070
     0
1002
}
1002
{
1000
NOSEL
1070
     0
1002
}
1002
{
1000
BEHIND
1070
     0
1002
}
1002
{
1000
OTHER
1070
     0
1002
}
1002
{
1000
REACTOR
1002
}
1001
GENIUS_GENOBJ-N-CEN_13
1002
{
1000
OWNER
1000
GEN
1002
}
1001
GENIUS_GENCEN_19
1002
{
1040
2.794
1002
}
  0
LINE
  5
12DDA
330
1F
100
AcDbEntity
  8
AM_7
100
AcDbLine
 10
-48.82023336603726
 20
136.9387639867146
 30
0.0
 11
-48.82023336603731
 21
116.5345777634414
 31
0.0
1001
GENIUS_GENODEF_13
1002
{
1000
HIER
1070
     0
1002
}
1002
{
1000
MANEDIT
1070
     0
1002
}
1002
{
1000
NOSEL
1070
     0
1002
}
1002
{
1000
BEHIND
1070
     0
1002
}
1002
{
1000
OTHER
1070
     0
1002
}
1002
{
1000
REACTOR
1002
}
1001
GENIUS_GENOBJ-N-CEN_13
1002
{
1000
OWNER
1000
GEN
1002
}
1001
GENIUS_GENCEN_19
1002
{
1040
2.794
1002
}
  0
ENDSEC
  0
SECTION
  2
OBJECTS
  0
DICTIONARY
  5
C
330
0
100
AcDbDictionary
281
     1
  3
ACAD_COLOR
350
99D5
  3
ACAD_GROUP
350
D
  3
ACAD_LAYOUT
350
1A
  3
ACAD_MATERIAL
350
99D4
  3
ACAD_MLINESTYLE
350
17
  3
ACAD_PLOTSETTINGS
350
19
  3
ACAD_PLOTSTYLENAME
350
E
  3
ACAD_TABLESTYLE
350
99D6
  3
AcAmCatalogState
350
9A2C
  3
ACDBHEADERROUNDTRIPXREC
350
13A13
  3
AcDbVariableDictionary
350
30
  3
ACDMSYSVARMGR
350
99EF
  3
ACGREF_MASTER
350
23CD
  3
ACGREFACAD_MASTER
350
23D1
  3
AcmDictionary
350
4D
  3
ACME_BOM_MANAGER_NAME
350
99A7
  3
ACME_COMMAND_HISTORY
350
99A2
  3
ACME_SCOPE_NAME
350
99A1
  3
ACMESTATEMGR
350
99AC
  3
AcmeSysVarManager
350
99A3
  3
AcmSystemVariableManager
350
9A2A
  3
AD_APPL
350
9A17
  3
ADSYSVARMGR
350
9A16
  3
AmdtNamedDwgMgr
350
9A0A
  3
AMG
350
3F
  3
AMGSNAPSETTINGS
350
73
  3
AMI_MASTER
350
23D2
  3
AUTOCAD_ASSEMBLIES_PROJECT
350
9A1F
  3
Designer_Assemblies_SysVars
350
9A1A
  3
DWGPROPS
350
13A16
  3
FILENAME
350
1C9F
  3
GREFAM_MODULE
350
9A10
  3
ZWKSIZE
350
1CA1
  0
DICTIONARY
  5
9B25
330
2
100
AcDbDictionary
280
     1
281
     1
  3
ACAD_LAYERFILTERS
360
9F3B
  3
ACAD_LAYERSTATES
360
9B26
  3
ACLYDICTIONARY
360
9F3A
  3
AMLAYER_GROUPCOLORS
360
9F39
  0
DICTIONARY
  5
165
330
1F
100
AcDbDictionary
280
     1
281
     1
  3
ACAD_LAYOUTSELFREF
360
98ED
  3
ACAD_SORTENTS
360
C040
  0
DICTIONARY
  5
264F
330
1B
100
AcDbDictionary
280
     1
281
     1
  3
ACAD_LAYOUTSELFREF
360
98EC
  0
DICTIONARY
  5
2651
330
23
100
AcDbDictionary
280
     1
281
     1
  3
ACAD_LAYOUTSELFREF
360
98EE
  0
DICTIONARY
  5
99D5
102
{ACAD_REACTORS
330
C
102
}
330
C
100
AcDbDictionary
281
     1
  0
DICTIONARY
  5
D
102
{ACAD_REACTORS
330
C
102
}
330
C
100
AcDbDictionary
281
     1
  0
DICTIONARY
  5
1A
102
{ACAD_REACTORS
330
C
102
}
330
C
100
AcDbDictionary
281
     1
  3
Model
350
22
  3
ﾚｲｱｳﾄ1
350
1E
  3
ﾚｲｱｳﾄ2
350
26
  0
DICTIONARY
  5
99D4
102
{ACAD_REACTORS
330
C
102
}
330
C
100
AcDbDictionary
281
     1
  0
DICTIONARY
  5
17
102
{ACAD_REACTORS
330
C
102
}
330
C
100
AcDbDictionary
281
     1
  3
Standard
350
18
  0
DICTIONARY
  5
19
102
{ACAD_REACTORS
330
C
102
}
330
C
100
AcDbDictionary
281
     1
  0
ACDBDICTIONARYWDFLT
  5
E
102
{ACAD_REACTORS
330
C
102
}
330
C
100
AcDbDictionary
281
     1
  3
Normal
350
F
100
AcDbDictionaryWithDefault
340
F
  0
DICTIONARY
  5
99D6
102
{ACAD_REACTORS
330
C
102
}
330
C
100
AcDbDictionary
281
     1
  3
Standard
350
99D7
  0
ACAD_PROXY_OBJECT
  5
9A2C
102
{ACAD_REACTORS
330
C
102
}
330
C
100
AcDbProxyObject
 90
      499
 91
      584
 95
       25
 70
     0
 93
      424
310
3FFFFFFFE00A0281402902C1D2E482B415AC15141BA41A441C5C1AFAE20A1A0A226991818182E24A1AA26C00A3FFFFFFFCFFFF1F40
  0
DICTIONARY
  5
13A13
102
{ACAD_REACTORS
330
C
102
}
330
C
100
AcDbDictionary
281
     1
  3
COLORDICT
350
13A14
  3
MATERIALDICT
350
13A15
  0
DICTIONARY
  5
30
102
{ACAD_REACTORS
330
C
102
}
330
C
100
AcDbDictionary
281
     1
  3
CTABLESTYLE
350
9A53
  3
HIDETEXT
350
13A12
  3
INDEXCTL
350
13A11
  0
ACAD_PROXY_OBJECT
  5
99EF
102
{ACAD_REACTORS
330
C
102
}
330
C
100
AcDbProxyObject
 90
      499
 91
      507
 95
       25
 70
     0
 93
      240
310
4C51A47A0000000000000000000000000000000000000000000000000000
330
99F0
330
99F1
330
99F2
330
99F3
330
99F4
330
99F5
330
99F6
330
99F7
330
99F8
330
99F9
330
99FA
330
99FB
330
99FC
330
99FD
330
99FE
330
99FF
330
9A00
330
9A01
330
9A02
330
9A03
330
9A04
330
9A05
330
9A06
330
9A07
330
9A08
330
9A09
 94
        0
  0
ACAD_PROXY_OBJECT
  5
23CD
102
{ACAD_REACTORS
330
C
102
}
330
C
100
AcDbProxyObject
 90
      499
 91
      534
 95
       25
 70
     0
 93
       34
310
0400004280
  0
ACAD_PROXY_OBJECT
  5
23D1
102
{ACAD_REACTORS
330
C
102
}
330
C
100
AcDbProxyObject
 90
      499
 91
      535
 95
       25
 70
     0
 93
      114
310
04000041C080000000000000000000
  0
DICTIONARY
  5
4D
102
{ACAD_REACTORS
330
C
102
}
330
C
100
AcDbDictionary
281
     1
  3
AcmBOMDATA
350
99B0
  3
AcmStdDictionary
350
17E
  3
AMDTSECTSYM_ARROWCOLOR
350
9A47
  0
ACAD_PROXY_OBJECT
  5
99A7
102
{ACAD_REACTORS
330
C
102
}
330
C
100
AcDbProxyObject
 90
      499
 91
      510
 95
       25
 70
     0
 93
       50
310
00010040400000
330
0
330
0
330
99A8
 94
        0
  0
ACAD_PROXY_OBJECT
  5
99A2
102
{ACAD_REACTORS
330
C
102
}
330
C
100
AcDbProxyObject
 90
      499
 91
      505
 95
       25
 70
     0
 93
     3960
310
47805054552415345805054552415345805054552415345805054552415345805054552415345805054552415345805054552415345805054552415345805054552415345805054552415345805054552415345805054552415345805054552415345805054552415345805054552415345805054552415345805054552415
310
345805054552415345805054552415345805054552415345805054552415345805054552415345805055153415645404052D4D5347202D205050413A2020206465736B746F702E6172782046696C6556657273696F6E3A20392E322E302E3401415454D05591502014B5354D1C80B481414104E88080819195CDADD1BDC0B9
310
85C9E08119A5B1955995C9CDA5BDB8E880E4B8C8B8C0B8D0052D4D5347202D205050413A2020206465736B746F702E6172782046696C6556657273696F6E3A20392E322E302E3401415454D05591501014B5354D1C80B481414104E88080819195CDADD1BDC0B985C9E08119A5B1955995C9CDA5BDB8E880E4B8C8B8C0B8D0
310
050E414D4454524553455444424D4F4440805084E202D20554E444F014213880B4815539113C0504554E444F80504554E444F805055055524745805055153415645404052D4D5347202D205050413A2020206465736B746F702E6172782046696C6556657273696F6E3A20392E322E302E34
  0
ACAD_PROXY_OBJECT
  5
99A1
102
{ACAD_REACTORS
330
C
102
}
330
C
100
AcDbProxyObject
 90
      499
 91
      504
 95
       25
 70
     0
 93
      578
310
09000046408000000000000000001334DE000000000000000000000000000000000000000000000000000000000000000000000000000000000000000000000000000000AAA406AA80
360
99A4
360
99A5
360
99A6
360
99A8
360
99E8
360
99E9
360
99EA
360
99EB
360
99EC
360
99ED
360
99F0
360
99F1
360
99F2
360
99F3
360
99F4
360
99F5
360
99F6
360
99F7
360
99F8
360
99F9
360
99FA
360
99FB
360
99FC
360
99FD
360
99FE
360
99FF
360
9A00
360
9A01
360
9A02
360
9A03
360
9A04
360
9A05
360
9A06
360
9A07
360
9A08
360
9A09
360
9A12
360
9A13
360
9A14
360
9A15
360
9A1B
360
9A1C
360
9A1D
360
9A1E
360
9A23
360
9A24
360
9A25
360
9A26
360
9A27
360
9A28
360
9A2B
 94
        0
  0
ACAD_PROXY_OBJECT
  5
99AC
102
{ACAD_REACTORS
330
C
102
}
330
C
100
AcDbProxyObject
 90
      499
 91
      515
 95
       25
 70
     0
 93
       50
310
09000042641280
  0
ACAD_PROXY_OBJECT
  5
99A3
102
{ACAD_REACTORS
330
C
102
}
330
C
100
AcDbProxyObject
 90
      499
 91
      507
 95
       25
 70
     0
 93
       48
310
903412000000
330
99A4
330
99A5
330
99A6
 94
        0
  0
ACAD_PROXY_OBJECT
  5
9A2A
102
{ACAD_REACTORS
330
C
102
}
330
C
100
AcDbProxyObject
 90
      499
 91
      507
 95
       25
 70
     0
 93
       32
310
90140A00
330
9A2B
 94
        0
  0
ACAD_PROXY_OBJECT
  5
9A17
102
{ACAD_REACTORS
330
C
102
}
330
C
100
AcDbProxyObject
 90
      499
 91
      574
 95
       25
 70
     0
 93
       42
310
000900004040
330
9A12
 94
        0
  0
ACAD_PROXY_OBJECT
  5
9A16
102
{ACAD_REACTORS
330
C
102
}
330
C
100
AcDbProxyObject
 90
      499
 91
      507
 95
       25
 70
     0
 93
        8
310
AA
  0
ACAD_PROXY_OBJECT
  5
9A0A
102
{ACAD_REACTORS
330
C
102
}
330
C
100
AcDbProxyObject
 90
      499
 91
      565
 95
       25
 70
     0
 93
       42
310
000100005E80
330
99E8
 94
        0
  0
DICTIONARY
  5
3F
102
{ACAD_REACTORS
330
C
102
}
330
C
100
AcDbDictionary
281
     1
  3
AcMgSettings
350
40
  3
AMGLAYCFG
350
99B4
  0
DICTIONARY
  5
73
102
{ACAD_REACTORS
330
C
102
}
330
C
100
AcDbDictionary
281
     1
  0
ACAD_PROXY_OBJECT
  5
23D2
102
{ACAD_REACTORS
330
C
102
}
330
C
100
AcDbProxyObject
 90
      499
 91
      536
 95
       25
 70
     0
 93
       34
310
0500004280
  0
ACAD_PROXY_OBJECT
  5
9A1F
102
{ACAD_REACTORS
330
C
102
}
330
C
100
AcDbProxyObject
 90
      499
 91
      577
 95
       25
 70
     0
 93
       98
310
0900004E400000000000000000
330
9A26
330
0
330
9A27
330
0
330
0
330
0
330
0
330
0
 94
        0
  0
ACAD_PROXY_OBJECT
  5
9A1A
102
{ACAD_REACTORS
330
C
102
}
330
C
100
AcDbProxyObject
 90
      499
 91
      507
 95
       25
 70
     0
 93
       56
310
90441600000000
330
9A1B
330
9A1C
330
9A1D
330
9A1E
 94
        0
  0
XRECORD
  5
13A16
102
{ACAD_REACTORS
330
C
102
}
330
C
100
AcDbXrecord
280
     1
  1
DWGPROPS COOKIE
  2

  3

  4

  6

  7

  8

  9

300
AmdtFileType=84
301
=
302
=
303
=
304
=
305
=
306
=
307
=
308
=
309
=
 40
0.0
 41
2451943.235431667
 42
2455482.064920961
  1

 90
        1
  0
DICTIONARY
  5
1C9F
102
{ACAD_REACTORS
330
C
102
}
330
C
100
AcDbDictionary
281
     1
  3
FILENAME
350
1CA0
  0
ACAD_PROXY_OBJECT
  5
9A10
102
{ACAD_REACTORS
330
C
102
}
330
C
100
AcDbProxyObject
 90
      499
 91
      568
 95
       25
 70
     0
 93
        8
310
05
  0
DICTIONARY
  5
1CA1
102
{ACAD_REACTORS
330
C
102
}
330
C
100
AcDbDictionary
281
     1
  3
ZWKSIZE
350
1CA2
  0
DICTIONARY
  5
9F3B
102
{ACAD_REACTORS
330
9B25
102
}
330
9B25
100
AcDbDictionary
281
     1
  0
DICTIONARY
  5
9B26
102
{ACAD_REACTORS
330
9B25
102
}
330
9B25
100
AcDbDictionary
281
     1
  0
DICTIONARY
  5
9F3A
102
{ACAD_REACTORS
330
9B25
102
}
330
9B25
100
AcDbDictionary
281
     1
1001
ACAD
1000
<All
  0
DICTIONARY
  5
9F39
102
{ACAD_REACTORS
330
9B25
102
}
330
9B25
100
AcDbDictionary
280
     1
281
     1
  0
XRECORD
  5
98ED
102
{ACAD_REACTORS
330
165
102
}
330
165
100
AcDbXrecord
280
     1
340
1F
  0
SORTENTSTABLE
  5
C040
102
{ACAD_REACTORS
330
165
102
}
330
165
100
AcDbSortentsTable
330
1F
331
10F47
  5
10F47
331
10FA2
  5
10FA2
331
10FA3
  5
10FA3
331
10FAA
  5
10FAA
331
10FB4
  5
10FB4
331
10FBD
  5
10FBD
331
10FBF
  5
10FBF
331
10FC0
  5
10FC0
331
10FC1
  5
10FC1
331
10FC7
  5
10FC7
331
10FCA
  5
10FCA
331
1105C
  5
1105C
331
11062
  5
11062
331
11063
  5
11063
331
11066
  5
11066
331
11067
  5
11067
331
11068
  5
11068
331
11069
  5
11069
331
1106A
  5
1106A
331
1106B
  5
1106B
331
1106C
  5
1106C
331
1106D
  5
1106D
331
1106E
  5
1106E
331
11071
  5
11071
331
11072
  5
11072
331
11076
  5
11076
331
11077
  5
11077
331
11078
  5
11078
331
11079
  5
11079
331
1107A
  5
1107A
331
1107B
  5
1107B
331
11082
  5
11082
331
11085
  5
11085
331
11086
  5
11086
331
11087
  5
11087
331
11088
  5
11088
331
11089
  5
11089
331
1108C
  5
1108C
331
1108D
  5
1108D
331
1109A
  5
1109A
331
1109B
  5
1109B
331
1109C
  5
1109C
331
1109D
  5
1109D
331
1109E
  5
1109E
331
110A0
  5
110A0
331
110A6
  5
110A6
331
110A7
  5
110A7
331
110AA
  5
110AA
331
110AB
  5
110AB
331
110D2
  5
110D2
331
110D8
  5
110D8
331
110D9
  5
110D9
331
110DC
  5
110DC
331
110DD
  5
110DD
331
110E1
  5
110E1
331
110E2
  5
110E2
331
110E3
  5
110E3
331
110E4
  5
110E4
331
110E5
  5
110E5
331
110E6
  5
110E6
331
110E7
  5
110E7
331
110E8
  5
110E8
331
110E9
  5
110E9
331
110EA
  5
110EA
331
110EB
  5
110EB
331
110EE
  5
110EE
331
110EF
  5
110EF
331
110F0
  5
110F0
331
110F1
  5
110F1
331
110F2
  5
110F2
331
110F3
  5
110F3
331
110F4
  5
110F4
331
110F5
  5
110F5
331
110F6
  5
110F6
331
110F7
  5
110F7
331
110F8
  5
110F8
331
110FD
  5
110FD
331
110FE
  5
110FE
331
11100
  5
11100
331
11101
  5
11101
331
11102
  5
11102
331
11103
  5
11103
331
11104
  5
11104
331
11106
  5
11106
331
11107
  5
11107
331
11108
  5
11108
331
1110E
  5
1110E
331
1110F
  5
1110F
331
11110
  5
11110
331
11111
  5
11111
331
11112
  5
11112
331
11118
  5
11118
331
11119
  5
11119
331
1111A
  5
1111A
331
1111B
  5
1111B
331
1111C
  5
1111C
331
1111E
  5
1111E
331
11124
  5
11124
331
11125
  5
11125
331
11128
  5
11128
331
11129
  5
11129
331
1113D
  5
1113D
331
1114A
  5
1114A
331
11152
  5
11152
331
11154
  5
11154
331
11157
  5
11157
331
11158
  5
11158
331
111BD
  5
111BD
331
111C3
  5
111C3
331
111C4
  5
111C4
331
111C5
  5
111C5
331
111C6
  5
111C6
331
111C7
  5
111C7
331
111C8
  5
111C8
331
111C9
  5
111C9
331
111CA
  5
111CA
331
111CC
  5
111CC
331
111D9
  5
111D9
331
111DD
  5
111DD
331
111DE
  5
111DE
331
111DF
  5
111DF
331
111E0
  5
111E0
331
111E1
  5
111E1
331
111E2
  5
111E2
331
111E3
  5
111E3
331
111E4
  5
111E4
331
111E6
  5
111E6
331
111E8
  5
111E8
331
111E9
  5
111E9
331
111EA
  5
111EA
331
111EB
  5
111EB
331
111EC
  5
111EC
331
111ED
  5
111ED
331
111EE
  5
111EE
331
111EF
  5
111EF
331
111F0
  5
111F0
331
111F1
  5
111F1
331
111F3
  5
111F3
331
111F4
  5
111F4
331
111F5
  5
111F5
331
111F8
  5
111F8
331
111F9
  5
111F9
331
111FA
  5
111FA
331
111FB
  5
111FB
331
111FE
  5
111FE
331
111FF
  5
111FF
331
11200
  5
11200
331
11207
  5
11207
331
11208
  5
11208
331
11209
  5
11209
331
1120A
  5
1120A
331
1120B
  5
1120B
331
1120D
  5
1120D
331
1120E
  5
1120E
331
11210
  5
11210
331
11218
  5
11218
331
1121A
  5
1121A
331
1121E
  5
1121E
331
1121F
  5
1121F
331
11220
  5
11220
331
11221
  5
11221
331
11222
  5
11222
331
11224
  5
11224
331
11225
  5
11225
331
11226
  5
11226
331
11228
  5
11228
331
1122A
  5
1122A
331
1122D
  5
1122D
331
11244
  5
11244
331
11245
  5
11245
331
11246
  5
11246
331
11247
  5
11247
331
11248
  5
11248
331
1124A
  5
1124A
331
1124B
  5
1124B
331
1124D
  5
1124D
331
11254
  5
11254
331
11C98
  5
11C98
331
11C99
  5
11C99
331
11C9A
  5
11C9A
331
11C9B
  5
11C9B
331
11C9C
  5
11C9C
331
11C9D
  5
11C9D
331
11C9F
  5
11C9F
331
11CA0
  5
11CA0
331
11CA1
  5
11CA1
331
11CD0
  5
11CD0
331
11CD1
  5
11CD1
331
11CD2
  5
11CD2
331
11CD3
  5
11CD3
331
11CD4
  5
11CD4
331
11CD5
  5
11CD5
331
11CD6
  5
11CD6
331
11CD7
  5
11CD7
331
11CD8
  5
11CD8
331
11CD9
  5
11CD9
331
11CDA
  5
11CDA
331
11CDB
  5
11CDB
331
11CDC
  5
11CDC
331
11CDD
  5
11CDD
331
11CDE
  5
11CDE
331
11CDF
  5
11CDF
331
11CE0
  5
11CE0
331
11CE1
  5
11CE1
331
11CE3
  5
11CE3
331
11CE4
  5
11CE4
331
11CE6
  5
11CE7
331
11CE7
  5
11CE8
331
11CE8
  5
11CE9
331
11CE9
  5
11CEA
331
11CEA
  5
11CEB
331
11CEB
  5
11CEC
331
11CF4
  5
11CF5
331
11CF5
  5
11CF6
331
11CF6
  5
11CF7
331
11D07
  5
11D08
331
11D08
  5
11D09
331
11D09
  5
11D0A
331
11D0A
  5
11D0B
331
11D0B
  5
11D0C
331
11D0C
  5
11D0D
331
11D0D
  5
11D0E
331
11D0E
  5
11D0F
331
11D0F
  5
11D10
331
11D10
  5
11D11
331
11D11
  5
11D12
331
11D12
  5
11D13
331
11D13
  5
11D14
331
11D14
  5
11D15
331
11D15
  5
11D16
331
11D16
  5
11D17
331
11D17
  5
11D18
331
11D18
  5
11D19
331
11D19
  5
11D1A
331
11D1A
  5
11D1B
331
11D1B
  5
11D1C
331
11D1C
  5
11D1D
331
11D1D
  5
11D1E
331
11D1E
  5
11D1F
331
11D1F
  5
11D20
331
11D20
  5
11D21
331
11D21
  5
11D22
331
11D22
  5
11D23
331
11D23
  5
11D24
331
11D24
  5
11D25
331
11D25
  5
11D26
331
11D26
  5
11D27
331
11D27
  5
11D28
331
11D28
  5
11D29
331
11D29
  5
11D2A
331
11D2A
  5
11D2B
331
11D2B
  5
11D2C
331
11D2C
  5
11D2D
331
11D2D
  5
11D2E
331
11D2E
  5
11D2F
331
11D2F
  5
11D30
331
11D30
  5
11D31
331
11D31
  5
11D32
331
11D32
  5
11D33
331
11D33
  5
11D34
331
11D34
  5
11D35
331
11D35
  5
11D36
331
11D36
  5
11D37
331
11D37
  5
11D38
331
11D38
  5
11D39
331
11D39
  5
11D3A
331
11D3A
  5
11D3B
331
11D3B
  5
11D3C
331
11D3C
  5
11D3D
331
11D3D
  5
11D3E
331
11D3E
  5
11D3F
331
11D3F
  5
11D40
331
11D40
  5
11D41
331
11D41
  5
11D42
331
11D42
  5
11D43
331
11D43
  5
11D44
331
11D44
  5
11D45
331
11D45
  5
11D46
331
11D46
  5
11D47
331
11D47
  5
11D48
331
11D48
  5
11D49
331
11D49
  5
11D4A
331
11D4A
  5
11D4B
331
11D4B
  5
11D4C
331
11D4C
  5
11D4D
331
11D4D
  5
11D4E
331
11D4E
  5
11D4F
331
11D4F
  5
11D50
331
11D50
  5
11D51
331
11D51
  5
11D52
331
11D52
  5
11D53
331
11D53
  5
11D54
331
11D54
  5
11D55
331
11D55
  5
11D56
331
11D56
  5
11D57
331
11D57
  5
11D58
331
11D58
  5
11D59
331
11D59
  5
11D5A
331
11D5A
  5
11D5B
331
11D5B
  5
11D5C
331
11D5C
  5
11D5D
331
11D5D
  5
11D5E
331
11D5E
  5
11D5F
331
11D5F
  5
11D60
331
11D60
  5
11D61
331
11D61
  5
11D62
331
11D62
  5
11D63
331
11D63
  5
11D64
331
11D64
  5
11D65
331
11D65
  5
11D66
331
11D66
  5
11D67
331
11D67
  5
11D68
331
11D68
  5
11D69
331
11D69
  5
11D6A
331
11D6A
  5
11D6B
331
11D6B
  5
11D6C
331
11D6C
  5
11D6D
331
11D6D
  5
11D6E
331
11D6E
  5
11D6F
331
11D6F
  5
11D70
331
11D70
  5
11D71
331
11D71
  5
11D72
331
11D72
  5
11D73
331
11D73
  5
11D74
331
11D74
  5
11D75
331
11D75
  5
11D76
331
11D76
  5
11D77
331
11D77
  5
11D78
331
11D78
  5
11D79
331
11D79
  5
11D7A
331
11D7A
  5
11D7B
331
11D7B
  5
11D7C
331
11D7C
  5
11D7D
331
11D7D
  5
11D7E
331
11D7E
  5
11D7F
331
11D7F
  5
11D80
331
11D80
  5
11D81
331
11D81
  5
11D82
331
11D82
  5
11D83
331
11D83
  5
11D84
331
11D84
  5
11D85
331
11D85
  5
11D86
331
11D86
  5
11D87
331
11D87
  5
11D88
331
11D88
  5
11D89
331
11D89
  5
11D8A
331
11D8A
  5
11D8B
331
11D8B
  5
11D8C
331
11D8C
  5
11D8D
331
11D8D
  5
11D8E
331
11D8E
  5
11D8F
331
11D8F
  5
11D90
331
11D90
  5
11D91
331
11D91
  5
11D92
331
11D92
  5
11D93
331
11D93
  5
11D94
331
11D94
  5
11D95
331
11D95
  5
11D96
331
11D96
  5
11D97
331
11D97
  5
11D98
331
11D98
  5
11D99
331
11D99
  5
11D9A
331
11D9A
  5
11D9B
331
11D9B
  5
11D9C
331
11D9C
  5
11D9D
331
11D9D
  5
11D9E
331
11D9E
  5
11D9F
331
11D9F
  5
11DA0
331
11DA0
  5
11DA1
331
11DA1
  5
11DA2
331
11DA2
  5
11DA3
331
11DA3
  5
11DA4
331
11DA4
  5
11DA5
331
11DA5
  5
11DA6
331
11DA6
  5
11DA7
331
11DA7
  5
11DA8
331
11DA8
  5
11DA9
331
11DA9
  5
11DAA
331
11DAA
  5
11DAB
331
11DAB
  5
11DAC
331
11DAC
  5
11DAD
331
11DAD
  5
11DAE
331
11DAE
  5
11DAF
331
11DAF
  5
11DB0
331
11DB0
  5
11DB1
331
11DB1
  5
11DB2
331
11DB2
  5
11DB3
331
11DB3
  5
11DB4
331
11DB4
  5
11DB5
331
11DB5
  5
11DB6
331
11DB6
  5
11DB7
331
11DB7
  5
11DB8
331
11DB8
  5
11DB9
331
11DB9
  5
11DBA
331
11DBA
  5
11DBB
331
11DBB
  5
11DBC
331
11DBC
  5
11DBD
331
11DBD
  5
11DBE
331
11DBE
  5
11DBF
331
11DBF
  5
11DC0
331
11DC0
  5
11DC1
331
11DC1
  5
11DC2
331
11DC2
  5
11DC3
331
11DC3
  5
11DC4
331
11DC4
  5
11DC5
331
11DC5
  5
11DC6
331
11DC6
  5
11DC7
331
11DC7
  5
11DC8
331
11DC8
  5
11DC9
331
11DC9
  5
11DCA
331
11DCA
  5
11DCB
331
11DCB
  5
11DCC
331
11DCC
  5
11DCD
331
11DCD
  5
11DCE
331
11DCE
  5
11DCF
331
11DCF
  5
11DD0
331
11DD0
  5
11DD1
331
11DD1
  5
11DD2
331
11DD2
  5
11DD3
331
11DD3
  5
11DD4
331
11DD4
  5
11DD5
331
11DD5
  5
11DD6
331
11DD6
  5
11DD7
331
11DD7
  5
11DD8
331
11DD8
  5
11DD9
331
11DD9
  5
11DDA
331
11DDA
  5
11DDB
331
11DDB
  5
11DDC
331
11DDC
  5
11DDD
331
11DDD
  5
11DDE
331
11DDE
  5
11DDF
331
11DDF
  5
11DE0
331
11DE0
  5
11DE1
331
11DE1
  5
11DE2
331
11DE2
  5
11DE3
331
11DE3
  5
11DE4
331
11DE4
  5
11DE5
331
11DE5
  5
11DE6
331
11DE6
  5
11DE7
331
11DE7
  5
11DE8
331
11DE8
  5
11DE9
331
11DE9
  5
11DEA
331
11DEA
  5
11DEB
331
11DEB
  5
11DEC
331
11DEC
  5
11DED
331
11E22
  5
11E23
331
11E23
  5
11E24
331
11E24
  5
11E25
331
11E25
  5
11E26
331
11E26
  5
11E27
331
11E27
  5
11E28
331
11E28
  5
11E29
331
11E29
  5
11E2A
331
11E2A
  5
11E2B
331
11E2D
  5
11E2E
331
11E2E
  5
11E2F
331
11E2F
  5
11E30
331
11E30
  5
11E31
331
11E31
  5
11E32
331
11E32
  5
11E33
331
11E33
  5
11E34
331
11E34
  5
11E35
331
11E35
  5
11E36
331
11E36
  5
11E37
331
11E37
  5
11E38
331
11E38
  5
11E39
331
11E39
  5
11E3A
331
11E3A
  5
11E3B
331
11E3B
  5
11E3C
331
11E3C
  5
11E3D
331
11E3D
  5
11E3E
331
11E3E
  5
11E3F
331
11E3F
  5
11E40
331
11E40
  5
11E41
331
11E41
  5
11E42
331
11E42
  5
11E43
331
11E43
  5
11E44
331
11E51
  5
11E52
331
11E52
  5
11E53
331
11E53
  5
11E54
331
11E54
  5
11E55
331
11E55
  5
11E56
331
11E72
  5
11E73
331
11E74
  5
11E75
331
11E75
  5
11E76
331
11E76
  5
11E77
331
11E77
  5
11E78
331
11E78
  5
11E79
331
11E79
  5
11E7A
331
11E7A
  5
11E7B
331
11E81
  5
11E82
331
11E82
  5
11E83
331
11E83
  5
11E84
331
11E84
  5
11E85
331
11E85
  5
11E86
331
11E86
  5
11E87
331
11E87
  5
11E88
331
11E88
  5
11E89
331
11E89
  5
11E8A
331
11E8A
  5
11E8B
331
11E8B
  5
11E8C
331
11E8C
  5
11E8D
331
11E8D
  5
11E8E
331
11E8E
  5
11E8F
331
11E8F
  5
11E90
331
11E90
  5
11E91
331
11E91
  5
11E92
331
11E92
  5
11E93
331
11E93
  5
11E94
331
11E94
  5
11E95
331
11E95
  5
11E96
331
11E96
  5
11E97
331
11E97
  5
11E98
331
11E98
  5
11E99
331
11E99
  5
11E9A
331
11E9A
  5
11E9B
331
11E9B
  5
11E9C
331
11E9C
  5
11E9D
331
11E9D
  5
11E9E
331
11E9E
  5
11E9F
331
11E9F
  5
11EA0
331
11EA0
  5
11EA1
331
11EA1
  5
11EA2
331
11EA2
  5
11EA3
331
11EA3
  5
11EA4
331
11EA4
  5
11EA5
331
11EA5
  5
11EA6
331
11EA6
  5
11EA7
331
11EA7
  5
11EA8
331
11EA8
  5
11EA9
331
11EA9
  5
11EAA
331
11EAA
  5
11EAB
331
11EAB
  5
11EAC
331
11EAC
  5
11EAD
331
11EAD
  5
11EAE
331
11EAE
  5
11EAF
331
11EAF
  5
11EB0
331
11EB0
  5
11EB1
331
11EB1
  5
11EB2
331
11EB2
  5
11EB3
331
11EB3
  5
11EB4
331
11EB4
  5
11EB5
331
11EB5
  5
11EB6
331
11EB6
  5
11EB7
331
11EB7
  5
11EB8
331
11EB8
  5
11EB9
331
11EB9
  5
11EBA
331
11EBA
  5
11EBB
331
11EBB
  5
11EBC
331
11EBC
  5
11EBD
331
11EBD
  5
11EBE
331
11EBE
  5
11EBF
331
11EBF
  5
11EC0
331
11EC0
  5
11EC1
331
11EC1
  5
11EC2
331
11EC2
  5
11EC3
331
11EC3
  5
11EC4
331
11EC4
  5
11EC5
331
11EC5
  5
11EC6
331
11EC6
  5
11EC7
331
11EC7
  5
11EC8
331
11EC8
  5
11EC9
331
11EC9
  5
11ECA
331
11ECA
  5
11ECB
331
11ECB
  5
11ECC
331
11ECC
  5
11ECD
331
11ECD
  5
11ECE
331
11ECE
  5
11ECF
331
11ECF
  5
11ED0
331
11ED0
  5
11ED1
331
11ED1
  5
11ED2
331
11ED2
  5
11ED3
331
11ED3
  5
11ED4
331
11ED4
  5
11ED5
331
11ED5
  5
11ED6
331
11ED6
  5
11ED7
331
11ED7
  5
11ED8
331
11ED8
  5
11ED9
331
11ED9
  5
11EDA
331
11EDA
  5
11EDB
331
11EDB
  5
11EDC
331
11EDC
  5
11EDD
331
11EDD
  5
11EDE
331
11EDE
  5
11EDF
331
11EDF
  5
11EE0
331
11EE0
  5
11EE1
331
11EE1
  5
11EE2
331
11EE2
  5
11EE3
331
11EE3
  5
11EE4
331
11EE4
  5
11EE5
331
11EE5
  5
11EE6
331
11EE6
  5
11EE7
331
11EE7
  5
11EE8
331
11EE8
  5
11EE9
331
11EE9
  5
11EEA
331
11EEA
  5
11EEB
331
11EEB
  5
11EEC
331
11EEC
  5
11EED
331
11EED
  5
11EEE
331
11EEE
  5
11EEF
331
11EEF
  5
11EF0
331
11EF0
  5
11EF1
331
11EF1
  5
11EF2
331
11EF2
  5
11EF3
331
11EF3
  5
11EF4
331
11EF4
  5
11EF5
331
11EF5
  5
11EF6
331
11EF6
  5
11EF7
331
11EF7
  5
11EF8
331
11EF8
  5
11EF9
331
11EF9
  5
11EFA
331
11EFA
  5
11EFB
331
11EFB
  5
11EFC
331
11EFC
  5
11EFD
331
11EFD
  5
11EFE
331
11EFE
  5
11EFF
331
11EFF
  5
11F00
331
11F00
  5
11F01
331
11F01
  5
11F02
331
11F02
  5
11F03
331
11F03
  5
11F04
331
11F04
  5
11F05
331
11F05
  5
11F06
331
11F06
  5
11F07
331
11F07
  5
11F08
331
11F08
  5
11F09
331
11F09
  5
11F0A
331
11F0A
  5
11F0B
331
12DD8
  5
12DD9
331
12DD9
  5
12DDA
331
12DDA
  5
12DDB
  0
XRECORD
  5
98EC
102
{ACAD_REACTORS
330
264F
102
}
330
264F
100
AcDbXrecord
280
     1
340
1B
  0
XRECORD
  5
98EE
102
{ACAD_REACTORS
330
2651
102
}
330
2651
100
AcDbXrecord
280
     1
340
23
  0
LAYOUT
  5
22
102
{ACAD_REACTORS
330
1A
102
}
330
1A
100
AcDbPlotSettings
  1

  2
SII LP-2150 (D-SCAN C2)
  4
User120
  6
AM_VIEW1
 40
3.174999952316284
 41
3.174999952316284
 42
3.17498779296875
 43
3.17498779296875
 44
296.9259948730469
 45
419.9889831542969
 46
0.0
 47
0.0
 48
0.0
 49
0.0
140
420.0
141
297.0
142
1.0
143
1.022107788374329
 70
 11952
 72
     1
 73
     1
 74
     4
  7
sei_cad.ctb
 75
     0
147
0.9783703943695685
148
0.0
149
0.0
100
AcDbLayout
  1
Model
 70
     1
 71
     0
 10
0.0
 20
0.0
 11
12.0
 21
9.0
 12
0.0
 22
0.0
 32
0.0
 14
0.0
 24
0.0
 34
0.0
 15
0.0
 25
0.0
 35
0.0
146
0.0
 13
0.0
 23
0.0
 33
0.0
 16
1.0
 26
0.0
 36
0.0
 17
0.0
 27
1.0
 37
0.0
 76
     0
330
1F
1001
ACAD_PSEXT
1000
SII LP-2150 (D-SCAN C2)
1000
SII LP-2150 (D-SCAN C2)
1000
133.153.16.130#3000
1000

1070
     0
  0
LAYOUT
  5
1E
102
{ACAD_REACTORS
330
1A
102
}
330
1A
100
AcDbPlotSettings
  1

  2
Canon LASER SHOT LBP-2030
  4

  6

 40
0.0
 41
0.0
 42
0.0
 43
0.0
 44
0.0
 45
0.0
 46
0.0
 47
0.0
 48
0.0
 49
0.0
140
0.0
141
0.0
142
1.0
143
1.0
 70
   688
 72
     0
 73
     0
 74
     5
  7
sei_cad.ctb
 75
    16
147
1.0
148
0.0
149
0.0
100
AcDbLayout
  1
ﾚｲｱｳﾄ1
 70
     1
 71
     1
 10
0.0
 20
0.0
 11
420.0
 21
297.0
 12
0.0
 22
0.0
 32
0.0
 14
1.000000000000000E+20
 24
1.000000000000000E+20
 34
1.000000000000000E+20
 15
-1.000000000000000E+20
 25
-1.000000000000000E+20
 35
-1.000000000000000E+20
146
0.0
 13
0.0
 23
0.0
 33
0.0
 16
1.0
 26
0.0
 36
0.0
 17
0.0
 27
1.0
 37
0.0
 76
     0
330
1B
  0
LAYOUT
  5
26
102
{ACAD_REACTORS
330
1A
102
}
330
1A
100
AcDbPlotSettings
  1

  2
Canon LASER SHOT LBP-2030
  4

  6

 40
0.0
 41
0.0
 42
0.0
 43
0.0
 44
0.0
 45
0.0
 46
0.0
 47
0.0
 48
0.0
 49
0.0
140
0.0
141
0.0
142
1.0
143
1.0
 70
   688
 72
     0
 73
     0
 74
     5
  7
sei_cad.ctb
 75
    16
147
1.0
148
0.0
149
0.0
100
AcDbLayout
  1
ﾚｲｱｳﾄ2
 70
     1
 71
     2
 10
0.0
 20
0.0
 11
12.0
 21
9.0
 12
0.0
 22
0.0
 32
0.0
 14
0.0
 24
0.0
 34
0.0
 15
0.0
 25
0.0
 35
0.0
146
0.0
 13
0.0
 23
0.0
 33
0.0
 16
1.0
 26
0.0
 36
0.0
 17
0.0
 27
1.0
 37
0.0
 76
     0
330
23
  0
MLINESTYLE
  5
18
102
{ACAD_REACTORS
330
17
102
}
330
17
100
AcDbMlineStyle
  2
STANDARD
 70
     0
  3

 62
   256
 51
90.0
 52
90.0
 71
     2
 49
0.5
 62
   256
  6
BYLAYER
 49
-0.5
 62
   256
  6
BYLAYER
  0
ACDBPLACEHOLDER
  5
F
102
{ACAD_REACTORS
330
E
102
}
330
E
  0
TABLESTYLE
  5
99D7
102
{ACAD_REACTORS
330
99D6
102
}
330
99D6
100
AcDbTableStyle
  3
Standard
 70
     0
 71
     8
 40
1.5
 41
1.5
280
     0
281
     0
  7
STANDARD
140
4.5
170
     2
 62
     0
 63
     7
283
     0
274
    -2
284
     1
 64
     0
275
    -2
285
     1
 65
     0
276
    -2
286
     1
 66
     0
277
    -2
287
     1
 67
     0
278
    -2
288
     1
 68
     0
279
    -2
289
     1
 69
     0
  7
STANDARD
140
6.0
170
     5
 62
     0
 63
     7
283
     0
274
    -2
284
     1
 64
     0
275
    -2
285
     1
 65
     0
276
    -2
286
     1
 66
     0
277
    -2
287
     1
 67
     0
278
    -2
288
     1
 68
     0
279
    -2
289
     1
 69
     0
  7
STANDARD
140
4.5
170
     5
 62
     0
 63
     7
283
     0
274
    -2
284
     1
 64
     0
275
    -2
285
     1
 65
     0
276
    -2
286
     1
 66
     0
277
    -2
287
     1
 67
     0
278
    -2
288
     1
 68
     0
279
    -2
289
     1
 69
     0
  0
XRECORD
  5
13A14
102
{ACAD_REACTORS
330
13A13
102
}
330
13A13
100
AcDbXrecord
280
     1
340
99D5
  0
XRECORD
  5
13A15
102
{ACAD_REACTORS
330
13A13
102
}
330
13A13
100
AcDbXrecord
280
     1
340
99D4
  0
DICTIONARYVAR
  5
9A53
102
{ACAD_REACTORS
330
30
102
}
330
30
100
DictionaryVariables
280
     0
  1
STANDARD
  0
DICTIONARYVAR
  5
13A12
102
{ACAD_REACTORS
330
30
102
}
330
30
100
DictionaryVariables
280
     0
  1
0
  0
DICTIONARYVAR
  5
13A11
102
{ACAD_REACTORS
330
30
102
}
330
30
100
DictionaryVariables
280
     0
  1
1
  0
ACAD_PROXY_OBJECT
  5
99B0
102
{ACAD_REACTORS
330
4D
102
}
330
4D
100
AcDbProxyObject
 90
      499
 91
      520
 95
       25
 70
     0
 93
      118
310
405010040CA904C415CD5B075DD1D8
350
99B1
 94
        0
  0
DICTIONARY
  5
17E
102
{ACAD_REACTORS
330
4D
102
}
330
4D
100
AcDbDictionary
281
     1
  3
ANSI
350
11BAB
  3
ISO
350
9A35
  3
JIS
350
9CBB
  0
XRECORD
  5
9A47
102
{ACAD_REACTORS
330
4D
102
}
330
4D
100
AcDbXrecord
280
     1
 90
-1023410169
  0
ACAD_PROXY_OBJECT
  5
99A4
330
99A1
100
AcDbProxyObject
 90
      499
 91
      508
 95
       25
 70
     0
 93
      156
310
00010143D050D351505391D5531054925390D490
330
99A1
 94
        0
  0
ACAD_PROXY_OBJECT
  5
99A5
330
99A1
100
AcDbProxyObject
 90
      499
 91
      508
 95
       25
 70
     0
 93
      148
310
000101439050D351531253915054925390D490
330
99A1
 94
        0
  0
ACAD_PROXY_OBJECT
  5
99A6
330
99A1
100
AcDbProxyObject
 90
      499
 91
      509
 95
       25
 70
     0
 93
      156
310
000101439050D35154D6535093D314D256915080
330
99A1
 94
        0
  0
ACAD_PROXY_OBJECT
  5
99A8
330
99A1
100
AcDbProxyObject
 90
      499
 91
      511
 95
       25
 70
     0
 93
       88
310
000101411093D34C402B00
330
99A1
330
0
330
0
 94
        0
  0
ACAD_PROXY_OBJECT
  5
99E8
330
99A1
100
AcDbProxyObject
 90
      499
 91
      561
 95
       25
 70
     0
 93
      358
310
0001014124FEA55D00507392E322E302E32014124FEA55D00507392E322E302E3240501000041505391D311658
330
99A1
330
99E9
330
99EF
 94
        0
  0
ACAD_PROXY_OBJECT
  5
99E9
330
99A1
100
AcDbProxyObject
 90
      499
 91
      562
 95
       25
 70
     0
 93
       56
310
000190240E0000
330
99A1
330
99EA
330
99EC
 94
        0
  0
ACAD_PROXY_OBJECT
  5
99EA
330
99A1
100
AcDbProxyObject
 90
      499
 91
      563
 95
       25
 70
     0
 93
       48
310
0001AA000000
330
99A1
330
1E
330
99EB
330
0
 94
        0
  0
ACAD_PROXY_OBJECT
  5
99EB
330
99A1
100
AcDbProxyObject
 90
      499
 91
      564
 95
       25
 70
     0
 93
       28
310
0001AAA0
330
99A1
 94
        0
  0
ACAD_PROXY_OBJECT
  5
99EC
330
99A1
100
AcDbProxyObject
 90
      499
 91
      563
 95
       25
 70
     0
 93
       48
310
0001AA000000
330
99A1
330
26
330
99ED
330
0
 94
        0
  0
ACAD_PROXY_OBJECT
  5
99ED
330
99A1
100
AcDbProxyObject
 90
      499
 91
      564
 95
       25
 70
     0
 93
       28
310
0001AAA0
330
99A1
 94
        0
  0
ACAD_PROXY_OBJECT
  5
99F0
330
99A1
100
AcDbProxyObject
 90
      499
 91
      509
 95
       25
 70
     0
 93
      108
310
000101421053521310D05310D010
330
99A1
 94
        0
  0
ACAD_PROXY_OBJECT
  5
99F1
330
99A1
100
AcDbProxyObject
 90
      499
 91
      509
 95
       25
 70
     0
 93
      124
310
00010142905354915554D15112535010
330
99A1
 94
        0
  0
ACAD_PROXY_OBJECT
  5
99F2
330
99A1
100
AcDbProxyObject
 90
      499
 91
      509
 95
       25
 70
     0
 93
      132
310
00010143105354D150D51253D391125360
330
99A1
 94
        0
  0
ACAD_PROXY_OBJECT
  5
99F3
330
99A1
100
AcDbProxyObject
 90
      499
 91
      509
 95
       25
 70
     0
 93
      124
310
00010142905355941093D49111549010
330
99A1
 94
        0
  0
ACAD_PROXY_OBJECT
  5
99F4
330
99A1
100
AcDbProxyObject
 90
      499
 91
      509
 95
       25
 70
     0
 93
      116
310
0001014290535115D1D0D3D313D4A0
330
99A1
 94
        0
  0
ACAD_PROXY_OBJECT
  5
99F5
330
99A1
100
AcDbProxyObject
 90
      499
 91
      509
 95
       25
 70
     0
 93
      148
310
00010143505355925155D49151949154D21010
330
99A1
 94
        0
  0
ACAD_PROXY_OBJECT
  5
99F6
330
99A1
100
AcDbProxyObject
 90
      499
 91
      509
 95
       25
 70
     0
 93
      172
310
00010144105350539393D51154149154D15495915010
330
99A1
 94
        0
  0
ACAD_PROXY_OBJECT
  5
99F7
330
99A1
100
AcDbProxyObject
 90
      499
 91
      509
 95
       25
 70
     0
 93
      172
310
00010144105350555513D11253505494905391D15010
330
99A1
 94
        0
  0
ACAD_PROXY_OBJECT
  5
99F8
330
99A1
100
AcDbProxyObject
 90
      499
 91
      509
 95
       25
 70
     0
 93
      124
310
00010142D05351561514915191125360
330
99A1
 94
        0
  0
ACAD_PROXY_OBJECT
  5
99F9
330
99A1
100
AcDbProxyObject
 90
      499
 91
      509
 95
       25
 70
     0
 93
      132
310
00010142D05355105410539393D5115010
330
99A1
 94
        0
  0
ACAD_PROXY_OBJECT
  5
99FA
330
99A1
100
AcDbProxyObject
 90
      499
 91
      509
 95
       25
 70
     0
 93
      108
310
00010142105350555513D0D31010
330
99A1
 94
        0
  0
ACAD_PROXY_OBJECT
  5
99FB
330
99A1
100
AcDbProxyObject
 90
      499
 91
      509
 95
       25
 70
     0
 93
      108
310
00010142105350D3119150551050
330
99A1
 94
        0
  0
ACAD_PROXY_OBJECT
  5
99FC
330
99A1
100
AcDbProxyObject
 90
      499
 91
      509
 95
       25
 70
     0
 93
      108
310
00010142105350D315925155D3F0
330
99A1
 94
        0
  0
ACAD_PROXY_OBJECT
  5
99FD
330
99A1
100
AcDbProxyObject
 90
      499
 91
      509
 95
       25
 70
     0
 93
      148
310
0001014350535212511156915493D112535010
330
99A1
 94
        0
  0
ACAD_PROXY_OBJECT
  5
99FE
330
99A1
100
AcDbProxyObject
 90
      499
 91
      509
 95
       25
 70
     0
 93
      124
310
00010142905352105510D21254D3D010
330
99A1
 94
        0
  0
ACAD_PROXY_OBJECT
  5
99FF
330
99A1
100
AcDbProxyObject
 90
      499
 91
      509
 95
       25
 70
     0
 93
      148
310
00010143905354D25391D31152105513105660
330
99A1
 94
        0
  0
ACAD_PROXY_OBJECT
  5
9A00
330
99A1
100
AcDbProxyObject
 90
      499
 91
      509
 95
       25
 70
     0
 93
      124
310
00010142D0535115D1D193111254D420
330
99A1
 94
        0
  0
ACAD_PROXY_OBJECT
  5
9A01
330
99A1
100
AcDbProxyObject
 90
      499
 91
      509
 95
       25
 70
     0
 93
      100
310
00010142105350555513D213A0
330
99A1
 94
        0
  0
ACAD_PROXY_OBJECT
  5
9A02
330
99A1
100
AcDbProxyObject
 90
      499
 91
      509
 95
       25
 70
     0
 93
      116
310
000101425053521390D3D553951010
330
99A1
 94
        0
  0
ACAD_PROXY_OBJECT
  5
9A03
330
99A1
100
AcDbProxyObject
 90
      499
 91
      509
 95
       25
 70
     0
 93
      108
310
0001014210535213941493D29010
330
99A1
 94
        0
  0
ACAD_PROXY_OBJECT
  5
9A04
330
99A1
100
AcDbProxyObject
 90
      499
 91
      509
 95
       25
 70
     0
 93
      108
310
0001014210535213951654115070
330
99A1
 94
        0
  0
ACAD_PROXY_OBJECT
  5
9A05
330
99A1
100
AcDbProxyObject
 90
      499
 91
      509
 95
       25
 70
     0
 93
      108
310
000101421053521395925155D0F0
330
99A1
 94
        0
  0
ACAD_PROXY_OBJECT
  5
9A06
330
99A1
100
AcDbProxyObject
 90
      499
 91
      509
 95
       25
 70
     0
 93
      140
310
00010143505354D150D51253D390D3D41660
330
99A1
 94
        0
  0
ACAD_PROXY_OBJECT
  5
9A07
330
99A1
100
AcDbProxyObject
 90
      499
 91
      509
 95
       25
 70
     0
 93
      108
310
00010142105350D3141493D29030
330
99A1
 94
        0
  0
ACAD_PROXY_OBJECT
  5
9A08
330
99A1
100
AcDbProxyObject
 90
      499
 91
      508
 95
       25
 70
     0
 93
      212
310
00010143905350555513D2105510D21493D500000000000002E400
330
99A1
 94
        0
  0
ACAD_PROXY_OBJECT
  5
9A09
330
99A1
100
AcDbProxyObject
 90
      499
 91
      509
 95
       25
 70
     0
 93
      156
310
00010143905350555513D2105510D21111551010
330
99A1
 94
        0
  0
ACAD_PROXY_OBJECT
  5
9A12
330
99A1
100
AcDbProxyObject
 90
      499
 91
      570
 95
       25
 70
     0
 93
      698
310
0001000000009AA6A9AA4051E467269204A756E2032332030373A34373A333020323030362028555443290141CE4B8C8B8C0B8C80518547565204F63742031322031303A33333A323920323031300141CE4B8C8B8C0B8C80
330
99A1
330
9A13
330
9A14
330
9A16
330
0
 94
        0
  0
ACAD_PROXY_OBJECT
  5
9A13
330
99A1
100
AcDbProxyObject
 90
      499
 91
      571
 95
       25
 70
     0
 93
       70
310
0001AAA80820000000
330
99A1
330
9A13
330
9A13
 94
        0
  0
ACAD_PROXY_OBJECT
  5
9A14
330
99A1
100
AcDbProxyObject
 90
      499
 91
      572
 95
       25
 70
     0
 93
       48
310
000100000000
330
99A1
330
0
330
9A15
330
0
330
0
 94
        0
  0
ACAD_PROXY_OBJECT
  5
9A15
330
99A1
100
AcDbProxyObject
 90
      499
 91
      573
 95
       25
 70
     0
 93
       40
310
000100AAAA
330
99A1
330
0
 94
        0
  0
ACAD_PROXY_OBJECT
  5
9A1B
330
99A1
100
AcDbProxyObject
 90
      499
 91
      522
 95
       25
 70
     0
 93
      180
310
00010143105050D3D35411119390535140504434F4D500
330
99A1
 94
        0
  0
ACAD_PROXY_OBJECT
  5
9A1C
330
99A1
100
AcDbProxyObject
 90
      499
 91
      522
 95
       25
 70
     0
 93
      212
310
0001014390505193D311115491119390535140506466F6C6465720
330
99A1
 94
        0
  0
ACAD_PROXY_OBJECT
  5
9A1D
330
99A1
100
AcDbProxyObject
 90
      499
 91
      522
 95
       25
 70
     0
 93
      180
310
00010143105050539393D1119390535140504284156290
330
99A1
 94
        0
  0
ACAD_PROXY_OBJECT
  5
9A1E
330
99A1
100
AcDbProxyObject
 90
      499
 91
      522
 95
       25
 70
     0
 93
      436
310
00010143905050D3D35415925155D31254D50052295BD96CA0A90B396CA0A894591A496CA0A8DB691A496CA0A89BA96CA0A95E28F95310
330
99A1
 94
        0
  0
ACAD_PROXY_OBJECT
  5
9A23
330
99A1
100
AcDbProxyObject
 90
      499
 91
      578
 95
       25
 70
     0
 93
       32
310
00010000
330
99A1
340
9A20
330
9A25
330
9A20
 94
        0
  0
ACAD_PROXY_OBJECT
  5
9A24
330
99A1
100
AcDbProxyObject
 90
      499
 91
      579
 95
       25
 70
     0
 93
       18
310
000180
330
99A1
 94
        0
  0
ACAD_PROXY_OBJECT
  5
9A25
330
99A1
100
AcDbProxyObject
 90
      499
 91
      580
 95
       25
 70
     0
 93
      234
310
00010144920D8CD04B55D20B51D5D0D48B51160D0C8D5050055401550000
330
99A1
330
9A23
330
9A24
 94
        0
  0
ACAD_PROXY_OBJECT
  5
9A26
330
99A1
100
AcDbProxyObject
 90
      499
 91
      581
 95
       25
 70
     0
 93
      178
310
000100AAAAAAB54A018816C84011E71A8B242D3714CA40
330
99A1
330
9A25
 94
        0
  0
ACAD_PROXY_OBJECT
  5
9A27
330
99A1
100
AcDbProxyObject
 90
      499
 91
      582
 95
       25
 70
     0
 93
      108
310
000190140A000000000000AAAAA0
330
99A1
330
9A28
330
9A28
330
9A28
330
9A28
330
9A28
330
0
 94
        0
  0
ACAD_PROXY_OBJECT
  5
9A28
330
99A1
100
AcDbProxyObject
 90
      499
 91
      583
 95
       25
 70
     0
 93
       51
310
00010000AAAA80
330
99A1
330
9A27
330
9A25
 94
        0
  0
ACAD_PROXY_OBJECT
  5
9A2B
330
99A1
100
AcDbProxyObject
 90
      499
 91
      522
 95
       25
 70
     0
 93
      140
310
00010142105350D55494D511005034A49530
330
99A1
 94
        0
  0
DICTIONARY
  5
40
102
{ACAD_REACTORS
330
3F
102
}
330
3F
100
AcDbDictionary
281
     1
  3
DWGSETTINGS
350
999E
  3
Shaft
350
9F38
  3
TRANSSETTINGS
350
999F
  0
ACAD_PROXY_OBJECT
  5
99B4
102
{ACAD_REACTORS
330
3F
102
}
330
3F
100
AcDbProxyObject
 90
      499
 91
      519
 95
       25
 70
     0
 93
    17944
310
41502491013041105357CC201C00030C0132441013141105357CC603800030C0132441013241105357CCA01400030C0132441013341105357CCE01800030C01199013441105357CD200C00030C01199013541105357CD600C00030C01199013641105357CDA00800030C01239013741105357CDE01000030C0119901384110
310
5357CE200400030C01199013941105357CE63F400030C0241102324141505357CC4C201C00030C0132902344141505357CC4C600C00030C0119902495041505357CC4CA01C00030C013240902304E41505357CC13A01C00030C0132902314E41505357CC53A03800030C0132902324E41505357CC93A01400030C013290233
310
4E41505357CCD3A01800030C0119902344E41505357CD13A00C00030C0119902354E41505357CD53A00C00030C0119902364E41505357CD93A00800030C0123902374E41505357CDD3A01000030C0119902384E41505357CE13A00400030C0119902394E41505357CE53A3F400030C024110332414E41905357CC4C13A01C0
310
0030C013290334414E41905357CC4C53A00C00030C011990349504E41905357CC4C93A01C00030C0132409044B4C494E41505357D0D3200400030C011942504494E464F42105357D410549151A01000030C011942D055241484D3541905357D093D4A01C00030C0132425045649455742105357D5925155D4E00400030C011
310
942D06424548494E4441905357D25395A3F400030C0243505545241494C41505357D514A00C00030C01194250348494441905357D21251201C00030C01194250356495341905357D59254E01C00030C01324250650415244494D42505357D41054911253600C00030C01194250652454644494D42505357D49151911253601
310
000030C0119425534110921395901398000000C0003FFFFFFFE415092139594D06424548494E448000000C0003FFFFFFFE411093D48C9055241484D358010000C300466411093D48CD055241484D358020000C30048E411093D48D5055241484D358000000C0003FFFFFFFE4110D0530C901348000000C0003FFFFFFFE4110
310
D0530CD01348020000C30048E4110D0530D501348070000C3004CA4110D0530DD013481E0000C30051A4110D15393901378000000C0003FFFFFFFE4110D15395D01378000000C0003FFFFFFFE4110D312539044B4C494E8000000C0003FFFFFFFE4110D3D38C501308000000C0003FFFFFFFD034110D3D38C901318000000C
310
0003FFFFFFFD034110D3D38CD01328000000C0003FFFFFFFD034110D3D38D101328000000C0003FFFFFFFD034111115510501348000000C0003FFFFFFFE4111125051D01358000000C0003FFFFFFFE4111125312501358000000C0003FFFFFFFE411112535410650415244494D8000000C0003FFFFFFFE4111125354906524
310
54644494D8000000C0003FFFFFFFE4111915353901388000000C0003FFFFFFFE415191535413901388030000C3003FFFFFFFE4151915354D410234418000000C0003FFFFFFFE4151915354D510234418030000C300466415191535593901328000000C0003FFFFFFFE415191535595101328030000C3004664112105510D01
310
388000000C0003FFFFFFFD014112125113901338000000C0003FFFFFFFD034112125115D01338000000C0003FFFFFFFD034112131253901348000000C0003FFFFFFFD01411213D0D3901378000000C0003FFFFFFFE411213D0D5D01378000000C0003FFFFFFFE4112539193D04494E464F8000000C0003FFFFFFFE41131150
310
51101358000000C0003FFFFFFFE419397D0921395902394E8000000C0003FFFFFFFE419397D0D3D38C502304E8000000C0003FFFFFFFD03419397D0D3D38C902314E8000000C0003FFFFFFFD03419397D0D3D38CD02324E8000000C0003FFFFFFFD03419397D0D3D38D102324E8000000C0003FFFFFFFD03419397D0D15393
310
902374E8000000C0003FFFFFFFE419397D0D15395D02374E8000000C0003FFFFFFFE419397D1125312502354E8000000C0003FFFFFFFE419397D2105510D02384E8000000C0003FFFFFFFD01419397D2125113902334E8000000C0003FFFFFFFD03419397D2125115D02334E8000000C0003FFFFFFFD03419397D311505110
310
2354E8000000C0003FFFFFFFE419397D391D25410349504E8000000C0003FFFFFFFE419397D412105390334414E8000000C0003FFFFFFFE419397D510D3D3902304E8000000C0003FFFFFFFD03419397D5121312502344E8000000C0003FFFFFFFD01419397D5131153902304E8000000C0003FFFFFFFD03419397D5941312
310
50332414E8000000C0003FFFFFFFE411391D25410249508000000C0003FFFFFFFE411410530C9055241484D358010000C300466411410530CD055241484D358020000C30048E411410530D5055241484D358000000C0003FFFFFFFE411412105390234418000000C0003FFFFFFFE411413D4D3901358000000C0003FFFFFFF
310
E411490D1D3901378000000C0003FFFFFFFE411490D1D5D01378000000C0003FFFFFFFE4114D09492D01348000000C0003FFFFFFFD014114D150D5101348000000C0003FFFFFFFD014114D6508CD01358020000C30048E411354D653501358020000C30048E411510D3D3901308000000C0003FFFFFFFD0341151213125013
310
48000000C0003FFFFFFFD01411512550C9055241484D358010000C300466411512550CD055241484D358020000C30048E411512550D5055241484D358000000C0003FFFFFFFE4115131153901308000000C0003FFFFFFFD03415514905253105545241494C8000000C0003FFFFFFFE4115149312501348000000C0003FFFFF
310
FFD01411516150C501368030000C300466411516150C901368030000C300466411516150CD01368000000C0003FFFFFFFE411516150D501368070000C3004CA411516150DD013681E0000C30051A4115925155D04564945578000000C0003FFFFFFFE41159151121034849448000000C0003FFFFFFFD024115915115903564
310
9538000000C0003FFFFFFFD02411594131250232418000000C0003FFFFFFFE4116925690501348000000C0003FFFFFFFD01AAA00000030401013F90A4393241D3241919415324111940D194092340519479467F6
340
16
340
16
340
16
340
43
340
16
340
16
340
16
340
44
340
16
340
16
340
44
340
45
340
16
340
16
340
16
340
16
340
43
340
16
340
16
340
16
340
44
340
16
340
16
340
44
340
45
340
16
340
46
340
16
340
16
340
16
340
16
340
16
340
43
340
16
340
16
340
16
340
15
340
15
340
15
340
15
340
15
340
15
340
15
340
15
340
15
340
48
340
15
340
15
340
15
340
15
340
15
340
15
340
15
340
15
340
15
340
15
340
15
340
15
340
15
340
16
340
15
340
15
340
15
340
15
340
47
340
15
340
15
340
48
340
15
340
15
340
15
340
15
340
15
340
15
340
15
340
15
340
48
340
15
340
15
340
15
340
47
340
15
340
15
340
15
340
15
340
15
340
15
340
15
340
15
340
15
340
15
340
15
340
15
340
15
340
15
340
48
340
15
340
15
340
15
340
15
340
15
340
15
340
15
340
15
340
15
340
15
340
15
340
15
340
15
340
15
340
15
340
15
340
15
340
15
340
15
340
15
340
15
340
15
340
4B
 94
        0
  0
XRECORD
  5
1CA0
102
{ACAD_REACTORS
330
1C9F
102
}
330
1C9F
100
AcDbXrecord
280
     1
  1
21000845__00___
  0

  0
XRECORD
  5
1CA2
102
{ACAD_REACTORS
330
1CA1
102
}
330
1CA1
100
AcDbXrecord
280
     1
  1
3
  0

  0
ACAD_PROXY_OBJECT
  5
99B1
102
{ACAD_REACTORS
330
99B0
102
}
330
99B0
100
AcDbProxyObject
 90
      499
 91
      521
 95
       25
 70
     0
 93
      157
310
057356C1D77406406AA8FFFFFFFF05DD01009010
330
1F
330
0
330
9A25
 94
        0
  0
ACAD_PROXY_OBJECT
  5
11BAB
102
{ACAD_REACTORS
330
17E
102
}
330
17E
100
AcDbProxyObject
 90
      499
 91
      607
 95
       25
 70
     0
 93
     2395
310
5DCB81E85EB51B8BE3F8030000C30041105394D2501640600800030C0200800030C00B81E85EB51B8BE3F48821E8720B1B6A9BAB9332A32BC3A29BA3220480A1282C6DA8C868CA6E8C88120286A0B1B6ABB2B63234B733A9BA3220480A1082C6DA92C8A6E8C88120285A0B1B6A230BA3AB6A9BA3220480A1282C6DA849E9AA
310
6E8C8812028820B6B23A2232BA30B4B629BCB6A9BA3220480A2282DAC8E8A6CAC6E8D2DEDCA6F2DAA6E8C88120288A0B6B23A21B2B73A32B92634B732A9BA3220480A2282DAC8E8A8D0E4CAC2C898D2DCCAA6E8C88120285A0B6B23A2737BA32A9BA3220480A1682C682DACE98C2F2A6E8C88120285A0B1A0B6B3A234B6A9B
310
A3220480A2282C682DACE90DED8CA86D0C2E4E8A6E8C88120286A0B1A0B6B3AA34BA3632A9BA3220480A02812020
340
117F4
360
11BAC
360
11BAD
360
11BAE
360
11BAF
360
11BB0
360
11BB1
360
11BB2
360
11BB3
360
11BB4
360
11BB5
360
11BB6
360
11BBC
360
11BBD
360
11BBE
360
11BBF
340
0
340
0
 94
        0
  0
ACAD_PROXY_OBJECT
  5
9A35
102
{ACAD_REACTORS
330
17E
102
}
330
17E
100
AcDbProxyObject
 90
      499
 91
      589
 95
       25
 70
     0
 93
     2497
310
5DC0000000000000C408030000C30040D254D3D01640600800030C0200800030C000000000000000C40C88A2085A0B6B23A22B233B2A9BA3220480A1C82C6DAA6EAE4CCA8CAF0E8A6E8C88120284A0B1B6A321A329BA3220480A1A82C6DAAECAD8C8D2DCCEA6E8C8812028420B1B6A4B229BA3220480A1682C6DA88C2E8EAD
310
AA6E8C88120284A0B1B6A127A6A9BA3220480A2082DAC8E888CAE8C2D2D8A6F2DAA6E8C88120288A0B6B23A29B2B1BA34B7B729BCB6A9BA3220480A2282DAC8E886CADCE8CAE498D2DCCAA6E8C88120288A0B6B23A2A343932B0B22634B732A9BA3220480A1682DAC8E89CDEE8CAA6E8C88120285A0B1A0B6B3A630BCA9BA3
310
220480A1682C682DACE88D2DAA6E8C88120288A0B1A0B6B3A437B632A1B430B93A29BA3220480A1A82C682DACEA8D2E8D8CAA6E8C8812032048080
340
9A36
360
9A37
360
9A38
360
9A39
360
9A3A
360
9A3B
360
9A3C
360
9A3D
360
9A3E
360
9A3F
360
9A40
360
9A41
360
9A42
360
9A4D
360
9A4E
360
9A4F
360
9A50
340
0
340
0
 94
        0
  0
ACAD_PROXY_OBJECT
  5
9CBB
102
{ACAD_REACTORS
330
17E
102
}
330
17E
100
AcDbProxyObject
 90
      499
 91
      526
 95
       25
 70
     0
 93
     2379
310
5DC33333333333309408000000C00040D29254D01640600800030C0200800030C003333333333330940C8121E8720B1B6A9BAB9332A32BC3A29BA3220480A1282C6DA8C868CA6E8C88120286A0B1B6ABB2B63234B733A9BA3220480A1082C6DA92C8A6E8C88120285A0B1B6A230BA3AB6A9BA3220480A1282C6DA849E9AA6E
310
8C88120286A0B1A0B6B3AA34BA3632A9BA3220480A2082DAC8E888CAE8C2D2D8A6F2DAA6E8C88120288A0B6B23A29B2B1BA34B7B729BCB6A9BA3220480A2282DAC8E886CADCE8CAE498D2DCCAA6E8C88120288A0B6B23A2A343932B0B22634B732A9BA3220480A1682DAC8E89CDEE8CAA6E8C88120285A0B1A0B6B3A630BCA
310
9BA3220480A1682C682DACE88D2DAA6E8C88120288A0B1A0B6B3A437B632A1B430B93A29BA3220480C812020
340
180
360
9CBC
360
9CBD
360
9CBE
360
9CBF
360
9CC0
360
9CC1
360
9CC2
360
9CC3
360
9CC4
360
9CC5
360
9CC6
360
9CC7
360
9CCD
360
9CCE
360
9CCF
340
0
340
0
 94
        0
  0
ACAD_PROXY_OBJECT
  5
999E
102
{ACAD_REACTORS
330
40
102
}
330
40
100
AcDbProxyObject
 90
      499
 91
      518
 95
       25
 70
     0
 93
     2876
310
4050B44574753455454494E4753A0E8482A68AA6A88882A069492A684A1A0A723A0A92920ACA0A8419983E1A1ABE1B1820C868A9C829C8E82A12686AF87260F862666A8321A2A72224A0A50000000000000122020E868A9C889282A682A106260F86460F8666083A1A2A72224A9AA250000000000000042020C868A9C988A9
310
C94000000000000048808321A2A727A323250000000000000122020E868A9C9E8C8C62940000000000000488083A1A2A727A3231925000000000000012202128698929C82A4A482B282A08645C60608421A624A722AA2CA820A82AC2624A722A1288AE8EAAA68682988A94283A620A9AA27A12520A80982109A82968AAC928
310
AAE9FA04832829A1A0A622830020000419491559254D2505404C1055343414C4541503313A314214D510539110549110540D29254D0954494D455354414D504A0F432A741792B734141D5915494D253D3905414C4D4B8C0C1107B44574753455454494E4753454E447D0
  0
ACAD_PROXY_OBJECT
  5
9F38
102
{ACAD_REACTORS
330
40
102
}
330
40
100
AcDbProxyObject
 90
      499
 91
      518
 95
       25
 70
     0
 93
      199
310
405055368616674220F688AE8EA68AA8A8929C8EA68A9C88FA
  0
ACAD_PROXY_OBJECT
  5
999F
102
{ACAD_REACTORS
330
40
102
}
330
40
100
AcDbProxyObject
 90
      499
 91
      518
 95
       25
 70
     0
 93
      852
310
4050D5452414E5353455454494E4753A2488A482AE929C8EA8A4829CA69882A8929E9C0C00800050D4F524947494E414C4C595F4F4E0600400008529A7AAA921A2A620A723A0A81A52827212AAA0A48AA68AA4AC8A0C0080001107B44574753455454494E4753454E447D0
  0
ACAD_PROXY_OBJECT
  5
11BAC
330
11BAB
100
AcDbProxyObject
 90
      499
 91
      608
 95
       25
 70
     0
 93
       96
310
5DC20E80A0280A0280A02808
  0
ACAD_PROXY_OBJECT
  5
11BAD
330
11BAB
100
AcDbProxyObject
 90
      499
 91
      609
 95
       25
 70
     0
 93
      332
310
5DD0E4050140501405014050140501405014050142501405014050140501405012000000000000000400
340
117F5
 94
        0
  0
ACAD_PROXY_OBJECT
  5
11BAE
330
11BAB
100
AcDbProxyObject
 90
      499
 91
      610
 95
       25
 70
     0
 93
      403
310
5DCC199999999999E99F91F4050140501405014050140501405014050140501405014050140501405014050140501405014040
340
0
 94
        0
  0
ACAD_PROXY_OBJECT
  5
11BAF
330
11BAB
100
AcDbProxyObject
 90
      499
 91
      611
 95
       25
 70
     0
 93
       10
310
5DC0
  0
ACAD_PROXY_OBJECT
  5
11BB0
330
11BAB
100
AcDbProxyObject
 90
      499
 91
      612
 95
       25
 70
     0
 93
      257
310
5DE290EA22A7D90F49F9353333333333727F44D4CCCCCCCCCDC9FC010000618000
340
117F0
340
117F1
 94
        0
  0
ACAD_PROXY_OBJECT
  5
11BB1
330
11BAB
100
AcDbProxyObject
 90
      499
 91
      613
 95
       25
 70
     0
 93
    13023
310
5DD0E411255115350141236025B6901405014069011309A4F2590CB64FD3347454E545241434F2C4A504E2C302C8D8096DA2C47454E54524154582C25732C2847454E4D53472067656E647767203232322940690120281A8AA2CA0282484A4BE52028120280A03202261349E4B2196C9FA668E8A9CA8A482869E5894A09C58
310
605921292F94588E8A9CA8A482A8B0584AE658508E8A9C9AA68E40CECADCC8EECE406464665280D202405044E414D454050496BC914F4051C40640A8B95C2E97CBE502404CD1D15395149050D3CB1294138B0C0B25AF2453CB11D15395149055160B095CCB0A11D1539354D1C819D95B991DD9C80C8C8D8A50192C3D494628
310
4953424C414E4B28504152543A4E414D45292C424C4F434B3A4E414D452C504152543A4E414D452940480A0A888AA686A480A09251B1DBE80A3A80C81D10782C06030180C8099A3A2A72A2920A1A7962528271618164946C76F9623A2A72A2920AA2C1612B9961423A2A726A9A39033B2B7323BB39019189B94A0248090142
310
14D51053911054911014122D2E29A50147501904A383BFDFEFF5FBFCFD3347454E545241434F2C4A504E2C302C8B4B8A692C47454E54524154582C25732C2847454E4D53472067656E64776720323138294049012028426A0AA22A924A0A62028246EF4BDFA028EA0320B41396D838E9017D9FA668E8A9CA8A482869E5894A
310
09C5860591BBD2F7E588E8A9CA8A482A8B0584AE658508E8A9C9AA68E40CECADCC8EECE406464625280D202405044E4F544540504928D8B4C4051D40641A8B95C2E97CBE5F23F4CD1D15395149050D3CB1294138B0C0B24A362D30B11D15395149055160B095CCB0A11D1539354D1C819D95B991DD9C80C8C8D4A501A40480
310
A0CAC8A9C889EA480A1106F1072706BF02B680A3A80C83D172B85D2F97CBE47E9BA3A2A72A2920A1A79625282716181641BC41C9C1AFC0AD9623A2A72A2920AA2C1612B9961423A2A726A9A39033B2B7323BB39019191A14A0348090141911154D0D48C90141A43825AF880C90147501908A20F0580C0603019013447454E5
310
45241434F2C4A504E2C302C90E096BE20322C47454E54524154582C25732C2847454E4D53472067656E6477672033362940490120284A9AA20A72220A922192028345A5C53490192028EA0321347077FBFDFEBF7F9FA6A8E8A9CA8A482869E5894A09C586059169714D24064588E8A9CA8A482A8B0584AE658508E8A9C9AA6
310
8E40CECADCC8EECE4064646052809202405094D4154455249414C32405068DDE97BF20324051D40642A8272DB071D202FB3F4D11D15395149050D3CB1294138B0C0B2377A5EFC80C8B11D15395149055160B095CCB0A11D1539354D1C819D95B991DD9C80D0C0A501240480A089A82A6A680A091D7F2F9480A3A80A0485A06
310
81172B85D2F97CBE47E9923A2A72A2920A1A796252827161816475FCBE51623A2A72A2920AA2C1612B9961423A2A726A9A39033B2B7323BB3901A1914A024809014154149250D150141226FE29A501475014090C409022E570BA5F2F97C8FD3247454E545241434F2C4A504E2C302C89BF8A692C47454E54524154582C2573
310
2C2847454E4D53472067656E6477672034332940490120281A224A6A02824850CB202028EA028121A81A045CAE174BE5F2F91FA648E8A9CA8A482869E5894A09C58605921432C80588E8A9CA8A482A8B0584AE658508E8A9C9AA68E40CECADCC8EECE406868528092024050E441022E07A17AD46E338FE07800030C0001018
310
ACD56AB55AADF63F2B355AAD56AB7D8FD073D3C4954454D3E405018ACD56AB55AADF63F2B355AAD56AB7D8FD073D3C4954454D3E40501890C7E3F1783CEE3F2431F8FC5E0F3B8FD073D3C4954454D3E40501890C7E3F1783CEE3F2431F8FC5E0F3B8FD073D3C4954454D3E405029012B355AAD56AB7D8FCACD56AB55AADF63
310
F41CF4F125511534F901418F4F1455164F9014062B355AAD56AB7D8FCACD56AB55AADF63F41CF4F125511534F9014061309A4F2590CBA4FC4C2693C96432E93F41CF4F125511534F901901002B355AAD56AB7D8FCACD56AB55AADF63FA2000000000000008204018000618048220681A048120280C88214844882034852034
310
8452028521485214814000000000000F0BF0000000000003C2FD018020000C3008070000C3000EF7D3E365DBA88FC3BDF4F8D976EA23F2E07A17AD46E2F8FF20341A405024150741A4069703D0BD6A3717C7F0040001860100400018601002000186002026280A02
340
0
340
0
 94
        0
  0
ACAD_PROXY_OBJECT
  5
11BB2
330
11BAB
100
AcDbProxyObject
 90
      499
 91
      614
 95
       25
 70
     0
 93
      994
310
5DC0B81E85EB51B8CE3F4BCF511155105253080F11115510525317D3105091530F971414D0D05311480F11115510525317D05094D4D0D053114F92341C9A9999999999B93F26A666666666724FC000000000000E03F4000000000000004000000000000005100000000000000244081E0000C3002E07A17AD46E338FC0
340
12AC
340
117F4
 94
        0
  0
ACAD_PROXY_OBJECT
  5
11BB3
330
11BAB
100
AcDbProxyObject
 90
      499
 91
      615
 95
       25
 70
     0
 93
      823
310
5DC031703D0BD6A3719C7E999EA9A2A1AA24A7A7101E29A2A1AA24A7A72FA620A122A62FA324A929AA1F169E29A2A1AA24A7A72FA620A122A62FA620A9AA1F1353333333333B27E3FFFE01C00030C008840F000061801353333333333B27F1703D0BD6A3719C7E
340
12AC
340
117F4
 94
        0
  0
ACAD_PROXY_OBJECT
  5
11BB4
330
11BAB
100
AcDbProxyObject
 90
      499
 91
      616
 95
       25
 70
     0
 93
      280
310
5DC2B8716D9CEF7C33F0A5723F0BD4A2F0FC295C8FC2F528BC3FA199999999999F99FC
  0
ACAD_PROXY_OBJECT
  5
11BB5
330
11BAB
100
AcDbProxyObject
 90
      499
 91
      617
 95
       25
 70
     0
 93
       14
310
5DE4
340
0
 94
        0
  0
ACAD_PROXY_OBJECT
  5
11BB6
330
11BAB
100
AcDbProxyObject
 90
      499
 91
      618
 95
       25
 70
     0
 93
     7123
310
5DD084050BA4050AA405024050E836583938376838C815B8367203140405013D3C696628657175616C28486F6C653A7461707065642C223022292C22252563222C486F6C653A6E6F6D696E616C2022202220696628657175616C28486F6C653A756E6974732C223122292C2278222C222D222920222022293E3C6966286571
310
75616C28486F6C653A7461707065642C223022292C486F6C653A6469612C486F6C653A706974636864657363293E207B5C46414D4744543B787D203C696628657175616C28486F6C653A7465726D696E6174696F6E2C223022292C486F6C653A64657074682C228AD192CA22293E5C507B5C46414D4744543B767D2525633C
310
486F6C653A63746469613E207B5C46414D4744543B787D203C486F6C653A637464657074683E406901405034050E836583938376838C815B83672031405FE3D3C696628657175616C28486F6C653A7461707065642C223022292C22252563222C486F6C653A6E6F6D696E616C2022202220696628657175616C28486F6C653
310
A756E6974732C223122292C2278222C222D222920222022293E3C696628657175616C28486F6C653A7461707065642C223022292C486F6C653A6469612C486F6C653A706974636864657363293E207B5C46414D4744543B787D203C696628657175616C28486F6C653A7465726D696E6174696F6E2C223022292C486F6C653
310
A64657074682C228AD192CA22293E5C507B5C46414D4744543B777D2525633C486F6C653A63746469613E2058203C486F6C653A6374616E676C653E252564406901405014050E836583938376838C815B83672031405CF3D3C696628657175616C28486F6C653A7461707065642C223022292C22252563222C486F6C653A6E
310
6F6D696E616C2022202220696628657175616C28486F6C653A756E6974732C223122292C2278222C222D222920222022293E3C696628657175616C28486F6C653A7461707065642C223022292C486F6C653A6469612C486F6C653A706974636864657363293E5C507B5C46414D4744543B787D203C696628657175616C2848
310
6F6C653A7465726D696E6174696F6E2C223022292C486F6C653A64657074682C228AD192CA22293E4069014051E4090E836583938376838C815B83672032405173D3C535444503A444553433E203C535444503A5354443E40690E836583938376838C815B836720314050C3D3C535444503A444553433E40690240515AAABB
310
A060
360
11BB7
330
11BB7
360
11BB8
330
11BB8
360
11BB9
330
11BB9
360
11BBA
360
11BBB
330
11BBA
330
11BBB
 94
        0
  0
ACAD_PROXY_OBJECT
  5
11BBC
330
11BAB
100
AcDbProxyObject
 90
      499
 91
      542
 95
       25
 70
     0
 93
       26
310
5DD02A80
340
0
 94
        0
  0
ACAD_PROXY_OBJECT
  5
11BBD
330
11BAB
100
AcDbProxyObject
 90
      499
 91
      543
 95
       25
 70
     0
 93
      258
310
5DD02000000000000380FC000000000000E03F408F0F9023C3E40DB18CCCFFFF80
340
117F6
340
0
340
0
340
117F7
340
117F8
340
0
340
117F9
340
117FA
340
117FB
340
0
 94
        0
  0
ACAD_PROXY_OBJECT
  5
11BBE
330
11BAB
100
AcDbProxyObject
 90
      499
 91
      619
 95
       25
 70
     0
 93
    13993
310
5DD1D023FFFFFFFD010300002E07A17AD46E2F8FE00800030C01010300002E07A17AD46E2F8FE00800030C00050C8DC0955782CC838A83588367014ED1D15395149050D3CB1294138B0C0B23702555E0B320E2A0D620D9CB11D15395149055160B095CCB0A11D1539354D1C819D95B991A5B5E880CCC0A78000C0000000000
310
00000000000000000000007B14AE47E17AA43F2E07A17AD46E2F8FE00800030C007B14AE47E17AA43F2E07A17AD46E2F8FE00800030C020143CF4F111959985D5B1D151A5D1B194F8050A8C8A8365815B8375838B014E51D15395149050D3CB1294138B0C0B2322A0D96056E0DD60E2CB11D15395149055160B095CCB0A11D
310
1539354D1C819D95B991A5B5E880CCC4A78000C000000000000000000000000000000007B14AE47E17AA43F2E07A17AD46E2F8FE00800030C007B14AE47E17AA43F2E07A17AD46E2F8FE00800030C020143CF4F111959985D5B1D151A5D1B194F90D4410F4450240D0441507431014391244D05449074510C4350F00014123
310
2D24D7C053247454E545241434F2C4A504E2C302C8CB4935F2C47454E54524154582C25732C2847454E4D53472067656E64696D7A20312900010104002214000282465A49AF80A648E8A9CA8A482869E5894A09C586059196926BE588E8A9CA8A482A8B0584AE658508E8A9C9AA68E40CECADCC8D2DAF44062520002020800
310
43E80005028C8A014C11D15395149050D3CB1294138B0C0B23228B11D15395149055160B095CCB0A11D1539354D1C819D95B991A5B5E880C8A4054E3D3C4946284953424C414E4B28486F6C654974656D292C4F726967696E2C20486F6C654974656D293E3C4946284953424C414E4B28486F6C654974656D292C22222C204
310
86F6C65496E646578293E010104002234000280AC00A5E8E8A9CA8A482869E5894A09C586058B0588E8A9CA8A482A8B0584AE658508E8A9C9AA68E40CECADCC8D2DAF4406652000202000040A800050159014BD1D15395149050D3CB1294138B0C0B164B11D15395149055160B095CCB0A11D1539354D1C819D95B991A5B5E
310
880D0A4000404000081D0000A02A40297A3A2A72A2920A1A796252827161816291623A2A72A2920AA2C1612B9961423A2A726A9A39033B2B73234B6BD101B148000808000104A000140A0F4C053047454E545241434F2C4A504E2C302C83D32C47454E54524154582C25732C2847454E4D53472067656E64696D7A20372900
310
0101030020B400028141E980A608E8A9CA8A482869E5894A09C58605907A6588E8A9CA8A482A8B0584AE658508E8A9C9AA68E40CECADCC8D2DAF4407052000202020041E800050490E096BE014CD1D15395149050D3CB1294138B0C0B243825AF8B11D15395149055160B095CCB0A11D1539354D1C819D95B991A5B5E880C8
310
C0A400040010008650000A091B012DB40299A3A2A72A2920A1A79625282716181646C04B6D1623A2A72A2920AA2C1612B9961423A2A726A9A39033B2B73234B6BD10189A148000808280501A00014320D0E0E4E0D9A0D8A0D3A0D60053B47454E545241434F2C4A504E2C302C8343839383668362834E83582C47454E54524
310
154582C25732C2847454E4D53472067656E64696D7A203135290001010500A1D4000281464500A628E8A9CA8A482869E5894A09C5860591914588E8A9CA8A482A8B0584AE658508E8A9C9AA68E40CECADCC8D2DAF440626C52000202080044A800050E8C8A8343839383668362834E8358014F51D15395149050D3CB129413
310
8B0C0B2322A0D0E0E4E0D9A0D8A0D3A0D60B11D15395149055160B095CCB0A11D1539354D1C819D95B991A5B5E880C4DCA4000404140089D0000A0921292F940299A3A2A72A2920A1A796252827161816484A4BE51623A2A72A2920AA2C1612B9961423A2A726A9A39033B2B73234B6BD10189C948000808300114A0001412
310
2D2E29A4053347454E545241434F2C4A504E2C302C8B4B8A692C47454E54524154582C25732C2847454E4D53472067656E64696D7A20323129000100040021B4878030026A6666666667A4FE064D4CCCCCCCCCF49FC049A9999999999E93F809353333333333D27F0226A6666666667A4FE044D4CCCCCCCCCF49FC0D818000
310
00000000000810026A666666666764FE004D4CCCCCCCCCF49FC009A9999999999E93F801353333333333D27F032E07A17AD46E378FE0633B333333333032050F006004D4CCCCCCCCCF49FC0C9A9999999999E93F819353333333333D27F0326A6666666667A4FE064D4CCCCCCCCCF49FC0C9A9999999999E93F81B03000000
310
00000000102004D4CCCCCCCCCEC9FC009A9999999999E93F819353333333333D27F0026A6666666667A4FE065C0F42F5A8DC6F1FC0C6766666666660640A088800000021E000000890000002260000008220E000200890000002060002008100008000
340
0
340
0
340
0
340
0
340
117F4
340
117F4
 94
        0
  0
ACAD_PROXY_OBJECT
  5
11BBF
330
11BAB
100
AcDbProxyObject
 90
      499
 91
      537
 95
       25
 70
     0
 93
     5214
310
5DD9741105394D2506414E53495F4342905394D257D512551554D15414E53495F54525F5265766973696F6E6C697374614191143202831372E307832322E30696E63682941905394D257D0D1146202832382E307834302E30696E63682941905394D257D191142202831312E307831372E30696E63682941905394D257D091
310
144202832322E307833342E30696E63682941905394D257D111145202833342E307834342E30696E63682941905394D257D1510412028382E357831312E30696E63682941905394D257D050543905B9CDA482557247A25E4C81110D0C414E53495F5449544C45444343505B9CDA482557247A25E4C81050B414E53495F5449
310
544C454143905B9CDA482557247A25E4C81050D0C414E53495F5449544C45414343505B9CDA482557247A25E4C81110B414E53495F5449544C4544425554C82557247A25E4D0A414E53495F544954555342110979A97F0838A8358836720415F42525F45505394D257D09497D4995D9A5CDA5BDB9B1A5CDD18510979A97F08
310
38A8358836720415F54525F45505394D257D51497D4995D9A5CDA5BDB9B1A5CDD18510979A97F0838A8358836720445F42525F45505394D257D09497D4995D9A5CDA5BDB9B1A5CDD19110979A97F0838A8358836720445F54525F45505394D257D51497D4995D9A5CDA5BDB9B1A5CDD19110979A97F0838A8358836720415F
310
424C5F45505394D257D09317D4995D9A5CDA5BDB9B1A5CDD18510979A97F0838A8358836720415F544C5F45505394D257D51317D4995D9A5CDA5BDB9B1A5CDD18510979A97F0838A8358836720445F424C5F45505394D257D09317D4995D9A5CDA5BDB9B1A5CDD19110979A97F0838A8358836720445F544C5F45505394D25
310
7D51317D4995D9A5CDA5BDB9B1A5CDD190
  0
ACAD_PROXY_OBJECT
  5
9A37
330
9A35
100
AcDbProxyObject
 90
      499
 91
      590
 95
       25
 70
     0
 93
       13
310
5DD8
  0
ACAD_PROXY_OBJECT
  5
9A38
330
9A35
100
AcDbProxyObject
 90
      499
 91
      591
 95
       25
 70
     0
 93
       96
310
5DEA0E80A0280A0280A0280F
  0
ACAD_PROXY_OBJECT
  5
9A39
330
9A35
100
AcDbProxyObject
 90
      499
 91
      592
 95
       25
 70
     0
 93
      272
310
5DD0E4050140501405014050140501405014050140D01405012C0000000000000040
340
9A43
 94
        0
  0
ACAD_PROXY_OBJECT
  5
9A3A
330
9A35
100
AcDbProxyObject
 90
      499
 91
      593
 95
       25
 70
     0
 93
      497
310
5DE8666666666667A67E199999999999E99FD22405014050140501405014050140501405014050140501405014050140501405014050140501405014050100
340
9A44
 94
        0
  0
ACAD_PROXY_OBJECT
  5
9A3B
330
9A35
100
AcDbProxyObject
 90
      499
 91
      594
 95
       25
 70
     0
 93
       10
310
5DC0
  0
ACAD_PROXY_OBJECT
  5
9A3C
330
9A35
100
AcDbProxyObject
 90
      499
 91
      595
 95
       25
 70
     0
 93
      257
310
5DE290EA22A7D90F49F80000000000001081400000000000004204010000618000
340
9A45
340
9A46
 94
        0
  0
ACAD_PROXY_OBJECT
  5
9A3D
330
9A35
100
AcDbProxyObject
 90
      499
 91
      596
 95
       25
 70
     0
 93
    13013
310
5DD0E411255115350141236025B690140501406901000000000000091013347454E545241434F2C4A504E2C302C8D8096DA2C47454E54524154582C25732C2847454E4D53472067656E647767203232322940690120281A8AA2CA0282484A4BE52028120280A0320200000000000012202668E8A9CA8A482869E5894A09C58
310
605921292F94588E8A9CA8A482A8B0584AE658508E8A9C9AA68E40CECADCC8EECE406464665280D202405044E414D454050496BC914F4051C40640A80000000000004E404CD1D15395149050D3CB1294138B0C0B25AF2453CB11D15395149055160B095CCB0A11D1539354D1C819D95B991DD9C80C8C8D8A50192C3D494628
310
4953424C414E4B28504152543A4E414D45292C424C4F434B3A4E414D452C504152543A4E414D452940480A0A888AA686A480A09251B1DBE80A3A80C81D0000000000100A28099A3A2A72A2920A1A7962528271618164946C76F9623A2A72A2920AA2C1612B9961423A2A726A9A39033B2B7323BB39019189B94A0348090142
310
14D51053911054911014122D2E29A50147501904A000000000000125013347454E545241434F2C4A504E2C302C8B4B8A692C47454E54524154582C25732C2847454E4D53472067656E64776720323138294069012028426A0AA22A924A0A62028246EF4BDFA028EA0320B40000000000001CA02668E8A9CA8A482869E5894A
310
09C5860591BBD2F7E588E8A9CA8A482A8B0584AE658508E8A9C9AA68E40CECADCC8EECE406464625280D202405044E4F544540504928D8B4C4051D40641A80000000000003E404CD1D15395149050D3CB1294138B0C0B24A362D30B11D15395149055160B095CCB0A11D1539354D1C819D95B991DD9C80C8C8D4A501240480
310
A0CAC8A9C889EA480A1106F1072706BF02B680A3A80C83D00000000000007C809BA3A2A72A2920A1A79625282716181641BC41C9C1AFC0AD9623A2A72A2920AA2C1612B9961423A2A726A9A39033B2B7323BB39019191A14A0248090141911154D0D48C90141A43825AF880C90147501908A000000000020145013447454E5
310
45241434F2C4A504E2C302C90E096BE20322C47454E54524154582C25732C2847454E4D53472067656E6477672033362940490120284A9AA20A72220A922192028345A5C53490192028EA03213400000000000024A026A8E8A9CA8A482869E5894A09C586059169714D24064588E8A9CA8A482A8B0584AE658508E8A9C9AA6
310
8E40CECADCC8EECE4064646052809202405094D4154455249414C32405068DDE97BF20324051D40642A8713D0AD7A37045404D11D15395149050D3CB1294138B0C0B2377A5EFC80C8B11D15395149055160B095CCB0A11D1539354D1C819D95B991DD9C80D0C0A501240480A089A82A6A680A091D7F2F9480A3A80A0485A06
310
8100000000000007C809923A2A72A2920A1A796252827161816475FCBE51623A2A72A2920AA2C1612B9961423A2A726A9A39033B2B7323BB3901A1914A024809014154149250D150141226FE29A501475014090C409020000000000000F9013247454E545241434F2C4A504E2C302C89BF8A692C47454E54524154582C2573
310
2C2847454E4D53472067656E6477672034332940490120281A224A6A02824850CB202028EA028121A81A040000000000001F202648E8A9CA8A482869E5894A09C58605921432C80588E8A9CA8A482A8B0584AE658508E8A9C9AA68E40CECADCC8EECE406868528092024050E445020000000000000510201C00030C0001018
310
0000000000003E400000000000000F901073D3C4954454D3E4050180000000000003E400000000000000F901073D3C4954454D3E40501800000000000034400000000000000D101073D3C4954454D3E40501800000000000034400000000000000D101073D3C4954454D3E405029010000000000000F9000000000000003E4
310
041CF4F125511534F901418F4F1455164F9014060000000000000F9000000000000003E4041CF4F125511534F9014060000000000000D100000000000000344041CF4F125511534F901901000000000000000F9000000000000003E40A2200000000000008204038000618048220681A048120280C88214844882034852034
310
8452028521485214814000000000000F0BF0000000000003C2FD018020000C3008070000C3003373333333333B0FCCDCCCCCCCCCCEC3F000000000000031012034164050341105901A000000000000062040100006180401000061804008000618008098A02808
340
0
340
0
 94
        0
  0
ACAD_PROXY_OBJECT
  5
9A3E
330
9A35
100
AcDbProxyObject
 90
      499
 91
      597
 95
       25
 70
     0
 93
      898
310
5DC4000000000000144048CF4F11115510525317D3105091530F880A0F11115510525317D05094D4D0D053114F8A51141C9A9999999999B93F26A666666666724FC000000000000E03F400000000000000400000000000000510000000000000024408070000C300000000000000051000
340
16
340
9A36
 94
        0
  0
ACAD_PROXY_OBJECT
  5
9A3F
330
9A35
100
AcDbProxyObject
 90
      499
 91
      598
 95
       25
 70
     0
 93
      823
310
5DC0B00000000000002880959E9E29A2A1AA24A7A72FA620A122A62FA324A929AA1F169E29A2A1AA24A7A72FA620A122A62FA620A9AA1F000000000000048803FFFE01C00030C0088C0380006180000000000000048800000000000000A2000000000000002880
340
652
340
9A36
 94
        0
  0
ACAD_PROXY_OBJECT
  5
9A40
330
9A35
100
AcDbProxyObject
 90
      499
 91
      599
 95
       25
 70
     0
 93
      152
310
5DE80000000000000840A3D0A5723F0BD1F200
  0
ACAD_PROXY_OBJECT
  5
9A41
330
9A35
100
AcDbProxyObject
 90
      499
 91
      600
 95
       25
 70
     0
 93
       14
310
5DE0
340
0
 94
        0
  0
ACAD_PROXY_OBJECT
  5
9A42
330
9A35
100
AcDbProxyObject
 90
      499
 91
      601
 95
       25
 70
     0
 93
     8619
310
5DD084050BA4050AA405024050E836583938376838C815B836720314043A013D2525633C486F6C653A63746469613E2078203C486F6C653A637464657074683E20555C503C696628657175616C28486F6C653A7461707065642C223022292C22252563222C486F6C653A6E6F6D696E616C202220782022293E3C6966286571
310
75616C28486F6C653A7461707065642C223022292C486F6C653A6469612C486F6C653A706974636864657363293E3C696628657175616C28486F6C653A7461707065642C223122292C22207820222C2222293E3C696628657175616C28486F6C653A7461707065642C223122292C486F6C653A74617064657074682C222229
310
3E203C696628657175616C28486F6C653A7465726D696E6174696F6E2C223022292C22202F20222C2222293E3C696628657175616C28486F6C653A7465726D696E6174696F6E2C223022292C486F6C653A64657074682C2222293E406901405034050E836583938376838C815B836720314043B013D2525633C486F6C653A6
310
3746469613E2078203C486F6C653A6374616E676C653E2525645C503C696628657175616C28486F6C653A7461707065642C223022292C22252563222C486F6C653A6E6F6D696E616C202220782022293E3C696628657175616C28486F6C653A7461707065642C223022292C486F6C653A6469612C486F6C653A70697463686
310
4657363293E3C696628657175616C28486F6C653A7461707065642C223122292C22207820222C2222293E3C696628657175616C28486F6C653A7461707065642C223122292C486F6C653A74617064657074682C2222293E203C696628657175616C28486F6C653A7465726D696E6174696F6E2C223022292C22202F20222C2
310
222293E3C696628657175616C28486F6C653A7465726D696E6174696F6E2C223022292C486F6C653A64657074682C2222293E406901405014050E836583938376838C815B8367203140416013D3C696628657175616C28486F6C653A7461707065642C223022292C22252563222C486F6C653A6E6F6D696E616C2022207820
310
22293E3C696628657175616C28486F6C653A7461707065642C223022292C486F6C653A6469612C486F6C653A706974636864657363293E3C696628657175616C28486F6C653A7461707065642C223122292C22207820222C2222293E3C696628657175616C28486F6C653A7461707065642C223122292C486F6C653A746170
310
64657074682C2222293E203C696628657175616C28486F6C653A7465726D696E6174696F6E2C223022292C22202F20222C2222293E3C696628657175616C28486F6C653A7465726D696E6174696F6E2C223022292C486F6C653A64657074682C2222293E4069014051E4090E836583938376838C815B83672032405173D3C5
310
35444503A444553433E203C535444503A5354443E40690E836583938376838C815B836720314050C3D3C535444503A444553433E40690240515AAABBA120
360
9A4B
330
9A4B
360
9A4C
330
9A4C
360
9A4A
330
9A4A
360
9A49
360
9A48
330
9A49
330
9A48
 94
        0
  0
ACAD_PROXY_OBJECT
  5
9A4D
330
9A35
100
AcDbProxyObject
 90
      499
 91
      542
 95
       25
 70
     0
 93
    23182
310
5DD02491013041105357CC201C00030C0132441013141105357CC603800030C0132441013241105357CCA01400030C0132441013341105357CCE01800030C01199013441105357CD200C00030C01199013541105357CD600C00030C01199013641105357CDA00800030C01239013741105357CDE01000030C0119901384110
310
5357CE200400030C01199013941105357CE63F400030C0241102324141505357CC4C201C00030C0132902344141505357CC4C600C00030C0119902495041505357CC4CA01C00030C013240902304E41505357CC13A01C00030C0132902314E41505357CC53A03800030C0132902324E41505357CC93A01400030C013290233
310
4E41505357CCD3A01800030C0119902344E41505357CD13A00C00030C0119902354E41505357CD53A00C00030C0119902364E41505357CD93A00800030C0123902374E41505357CDD3A01000030C0119902384E41505357CE13A00400030C0119902394E41505357CE53A3F400030C024110332414E41905357CC4C13A01C0
310
0030C013290334414E41905357CC4C53A00C00030C011990349504E41905357CC4C93A01C00030C0132409044B4C494E41505357D0D3200400030C011942504494E464F42105357D410549151A01000030C011942D055241484D3541905357D093D4A01C00030C0132425045649455742105357D5925155D4E00400030C011
310
942D06424548494E4441905357D25395A3F400030C0243505545241494C41505357D514A00C00030C01194250348494441905357D21251201C00030C01194250356495341905357D59254E01C00030C01324250650415244494D42505357D41054911253600C00030C01194250652454644494D42505357D49151911253601
310
000030C0119425774110531514901348070000C3004C9034110915312501348000000C0003FFFFFFFD034110921395901398000000C0003FFFFFFFE415092139594D06424548494E448000000C0003FFFFFFFE411093125110234418000000C0003FFFFFFFD03411093D05410234418000000C0003FFFFFFFD03411093D48C
310
9055241484D358010000C300466411093D48CD055241484D358020000C30048E411093D48D5055241484D358000000C0003FFFFFFFE411093D48DD055241484D3581E0000C30051903411094105410234418000000C0003FFFFFFFD03411094115610234418000000C0003FFFFFFFD034110951112501358000000C0003FFF
310
FFFFD034110D0530C901348000000C0003FFFFFFFE4110D0530CD01348020000C30048E4110D0530D501348070000C3004CA4110D0530DD013481E0000C30051A4110D15393901378000000C0003FFFFFFFE4110D15395D01378000000C0003FFFFFFFE4110D312539044B4C494E8000000C0003FFFFFFFE4110D3D38C5013
310
08000000C0003FFFFFFFD034110D3D38C901318000000C0003FFFFFFFD034110D3D38CD01328000000C0003FFFFFFFD034110D3D38D101328000000C0003FFFFFFFD034111115494101348000000C0003FFFFFFFD034111115510501348000000C0003FFFFFFFE4111125051D01358000000C0003FFFFFFFE4111125312501
310
358000000C0003FFFFFFFE411112535410650415244494D8000000C0003FFFFFFFE411112535490652454644494D8000000C0003FFFFFFFE411156135410234418000000C0003FFFFFFFD034111915353901388000000C0003FFFFFFFE415191535413901388030000C3003FFFFFFFE4151915354D410234418000000C0003
310
FFFFFFFE4151915354D510234418030000C300466415191535593901328000000C0003FFFFFFFE415191535595101328030000C3004664111931055101308000000C0003FFFFFFFD03411194905490234418000000C0003FFFFFFFD034111D49312501358000000C0003FFFFFFFD034111D5931250234418000000C0003FFF
310
FFFFD034112105510D01388000000C0003FFFFFFFD014112125113901338000000C0003FFFFFFFD034112125115D01338000000C0003FFFFFFFD034112131253901348000000C0003FFFFFFFD01411213D0D3901378000000C0003FFFFFFFE411213D0D5D01378000000C0003FFFFFFFE4112539193D04494E464F8000000C
310
0003FFFFFFFE4113105112501348000000C0003FFFFFFFD034113115051101358000000C0003FFFFFFFE419397D0921395902394E8000000C0003FFFFFFFE419397D0D3D38C502304E8000000C0003FFFFFFFD03419397D0D3D38C902314E8000000C0003FFFFFFFD03419397D0D3D38CD02324E8000000C0003FFFFFFFD03
310
419397D0D3D38D102324E8000000C0003FFFFFFFD03419397D0D15393902374E8000000C0003FFFFFFFE419397D0D15395D02374E8000000C0003FFFFFFFE419397D1125312502354E8000000C0003FFFFFFFE419397D2105510D02384E8000000C0003FFFFFFFD01419397D2125113902334E8000000C0003FFFFFFFD0341
310
9397D2125115D02334E8000000C0003FFFFFFFD03419397D3115051102354E8000000C0003FFFFFFFE419397D391D25410349504E8000000C0003FFFFFFFE419397D412105390334414E8000000C0003FFFFFFFE419397D510D3D3902304E8000000C0003FFFFFFFD03419397D5121312502344E8000000C0003FFFFFFFD01
310
419397D5131153902304E8000000C0003FFFFFFFD03419397D516150CD02364E8000000C0003FFFFFFFD03419397D594131250332414E8000000C0003FFFFFFFE411391D25410249508000000C0003FFFFFFFE411410530C9055241484D358010000C300466411410530CD055241484D358020000C30048E411410530D5055
310
241484D358000000C0003FFFFFFFE411410530DD055241484D3581E0000C30051903411412105390234418000000C0003FFFFFFFE411413D4D3901368070000C3004CA419413D4D49151901368050000C3004C903411413D4D6101368000000C0003FFFFFFFD03411414D150D0234418000000C0003FFFFFFFD03411490D1D
310
3901378000000C0003FFFFFFFE411490D1D5D01378000000C0003FFFFFFFE4114919112501348000000C0003FFFFFFFD034114945514901348070000C3004C903411494D093D01348000000C0003FFFFFFFD034114D09492D01348000000C0003FFFFFFFD014114D0D153901378000000C0003FFFFFFFD034114D150D51013
310
48000000C0003FFFFFFFD014114D15313901378000000C0003FFFFFFFD034114D15315D01378000000C0003FFFFFFFD034114D4D654D01308000000C0003FFFFFFFD034114D51312501348070000C3004C9034114D6508C501358000000C0003FFFFFFFD034114D6508C901358000000C0003FFFFFFFD034114D6508CD0135
310
8020000C30048E4114D6508D501358070000C3004C9034114D65353901378000000C0003FFFFFFFD034114D65355D01378000000C0003FFFFFFFD03411510D3D3901308000000C0003FFFFFFFD034115121312501348000000C0003FFFFFFFD01411512550C9055241484D358010000C300466411512550CD055241484D358
310
020000C30048E411512550D5055241484D358000000C0003FFFFFFFE411512550DD055241484D3581E0000C300519034115131153901308000000C0003FFFFFFFD03415514905253105545241494C8000000C0003FFFFFFFE41151492D3901378000000C0003FFFFFFFD0341151492D5D01378000000C0003FFFFFFFD03411
310
5149312501348000000C0003FFFFFFFD01411516150C501368030000C300466411516150C901368030000C300466411516150CD01368000000C0003FFFFFFFE411516150D501368070000C3004CA411516150DD013681E0000C30051A4115925155D04564945578000000C0003FFFFFFFE41159151121034849448000000C0
310
003FFFFFFFD0241159151159035649538000000C0003FFFFFFFD02411594131250232418000000C0003FFFFFFFE4116925690501348000000C0003FFFFFFFD01411354D653501358020000C30048E4290E4C9074C906465054C904465034650248D014651E519FD8
340
99B4
340
16
340
16
340
16
340
43
340
16
340
16
340
16
340
44
340
16
340
16
340
44
340
45
340
16
340
16
340
16
340
16
340
43
340
16
340
16
340
16
340
44
340
16
340
16
340
44
340
45
340
16
340
46
340
16
340
16
340
16
340
16
340
16
340
43
340
16
340
16
340
16
340
47
340
15
340
15
340
15
340
15
340
15
340
15
340
15
340
15
340
15
340
15
340
15
340
15
340
15
340
15
340
15
340
15
340
48
340
15
340
15
340
15
340
15
340
15
340
15
340
15
340
15
340
15
340
15
340
15
340
15
340
15
340
15
340
15
340
16
340
15
340
15
340
15
340
15
340
15
340
15
340
15
340
15
340
47
340
15
340
15
340
48
340
15
340
15
340
15
340
15
340
15
340
15
340
15
340
15
340
15
340
48
340
15
340
15
340
15
340
47
340
15
340
15
340
15
340
15
340
15
340
15
340
15
340
15
340
15
340
15
340
15
340
15
340
15
340
15
340
15
340
15
340
15
340
15
340
15
340
48
340
15
340
15
340
48
340
15
340
15
340
16
340
15
340
48
340
15
340
15
340
47
340
15
340
15
340
16
340
15
340
48
340
15
340
15
340
15
340
15
340
15
340
15
340
15
340
15
340
15
340
48
340
15
340
15
340
15
340
15
340
15
340
15
340
15
340
15
340
15
340
15
340
15
340
4B
340
16
 94
        0
  0
ACAD_PROXY_OBJECT
  5
9A4E
330
9A35
100
AcDbProxyObject
 90
      499
 91
      543
 95
       25
 70
     0
 93
      250
310
5DD020000000000000A1000000000000002440408F0F9023C3E409A0DCFFFF80
340
0
340
0
340
0
340
0
340
0
340
0
340
0
340
0
340
0
340
0
 94
        0
  0
ACAD_PROXY_OBJECT
  5
9A4F
330
9A35
100
AcDbProxyObject
 90
      499
 91
      603
 95
       25
 70
     0
 93
    13889
310
5DD1D003FFFFFFFD030300030000000000000310200800030C01030300030000000000000310200800030C00050C8DC0955782CC838A83588367014ED1D15395149050D3CB1294138B0C0B23702555E0B320E2A0D620D9CB11D15395149055160B095CCB0A11D1539354D1C819D95B991A5B5E880CCC0A78000C0000000000
310
00000000000000000000010000000000000310200800030C010000000000000310200800030C020143CF4F111959985D5B1D151A5D1B194F8050A8C8A8365815B8375838B014E51D15395149050D3CB1294138B0C0B2322A0D96056E0DD60E2CB11D15395149055160B095CCB0A11D1539354D1C819D95B991A5B5E880CCC4
310
A78000C000000000000000000000000000000010000000000000310200800030C010000000000000310200800030C020143CF4F111959985D5B1D151A5D1B194F90D44111409034110541D0C4350F4050E44D03449074510F000141232D24D7C053247454E545241434F2C4A504E2C302C8CB4935F2C47454E54524154582C
310
25732C2847454E4D53472067656E64696D7A20312900010104002214000281464500A608E8A9CA8A482869E5894A09C5860591914588E8A9CA8A482A8B0584AE658508E8A9C9AA68E40CECADCC8D2DAF4406452029E9E9E27B934B3B4B71F1E24A31427A91424A9A12620A7259427B934B3B4B7149624A9A12620A7259424B
310
A32B6949496111116111711149F1E24BA32B69F00808200111A000140560052F47454E545241434F2C4A504E2C302C582C47454E54524154582C25732C2847454E4D53472067656E64696D7A20332900010100002054000280AC80A5E8E8A9CA8A482869E5894A09C586058B2588E8A9CA8A482A8B0584AE658508E8A9C9AA
310
68E40CECADCC8D2DAF4406852000202000040E800050152014BD1D15395149050D3CB1294138B0C0B148B11D15395149055160B095CCB0A11D1539354D1C819D95B991A5B5E880D8A400040400008250000A0507A6029823A2A72A2920A1A79625282716181641E99623A2A72A2920AA2C1612B9961423A2A726A9A39033B2
310
B73234B6BD101B948000808180105A000140A0F4C053047454E545241434F2C4A504E2C302C83D32C47454E54524154582C25732C2847454E4D53472067656E64696D7A203829000101010020F400028248704B5F00A668E8A9CA8A482869E5894A09C58605921C12D7C588E8A9CA8A482A8B0584AE658508E8A9C9AA68E40
310
CECADCC8D2DAF440646052000200080043280005048B4B8A69014CD1D15395149050D3CB1294138B0C0B22D2E29A4B11D15395149055160B095CCB0A11D1539354D1C819D95B991A5B5E880C8C4A4000400100086D0000A09196926BE029923A2A72A2920A1A796252827161816465A49AF9623A2A72A2920AA2C1612B9961
310
423A2A726A9A39033B2B73234B6BD10189480A02620202080043E80005048D8096DA014CD1D15395149050D3CB1294138B0C0B236025B68B11D15395149055160B095CCB0A11D1539354D1C819D95B991A5B5E880C4D0A4000404140280D0000A190687072706CD06C5069D06B0029DA3A2A72A2920A1A7962528271618164
310
1A1C1C9C1B341B141A741AC1623A2A72A2920AA2C1612B9961423A2A726A9A39033B2B73234B6BD10189A94800080828050EA000143A322A0D0E0E4E0D9A0D8A0D3A0D60053D47454E545241434F2C4A504E2C302C8C8A8343839383668362834E83582C47454E54524154582C25732C2847454E4D53472067656E64696D7A
310
2031372900010105002274000281464500A628E8A9CA8A482869E5894A09C5860591914588E8A9CA8A482A8B0584AE658508E8A9C9AA68E40CECADCC8D2DAF440626C52000202080044A8000504909497CA014CD1D15395149050D3CB1294138B0C0B242525F28B11D15395149055160B095CCB0A11D1539354D1C819D95B9
310
91A5B5E880C4E4A400040418008A521E000000000000001CA040C00000000000034408080000000000006881010000000000000D102040000000000001A204080000000000003440818000000000000728103000000000000125020600000000004028A040000000000000034408000000000000004881000000000000000D
310
102000000000000001A204000000000000003440818000000000000508143C0000000000000039408180000000000006881030000000000000D102060000000000001A2040C00000000000034408180000000000006881030000000000000E5020600000000000024A040C0000000000805140800000000000000688100000
310
00000000009102000000000000001A2040000000000000034408180000000000006881030000000000000A10284220000000878000002020000008380000020400000081800000208000000828000002028900000000
340
0
340
0
340
0
340
0
340
9A36
340
9A36
 94
        0
  0
ACAD_PROXY_OBJECT
  5
9A50
330
9A35
100
AcDbProxyObject
 90
      499
 91
      537
 95
       25
 70
     0
 93
     7018
310
5DD9740D254D3D0649534F5F4133429254D3D7D5125513115051349534F5F42525F5265766973696F6E6C69737446111413478342028323937783834316D6D2920421254D3D7D04D1E0D11141327835202835393478323130326D6D29421254D3D7D04C9E0D51141347839202832393778313839326D6D29421254D3D7D04D
310
1E0E51141337837202834323078323038306D6D29421254D3D7D04CDE0DD1141347838202832393778313638326D6D29421254D3D7D04D1E0E11141327834202835393478313638326D6D29421254D3D7D04C9E0D10E41312028353934783834316D6D29419254D3D7D04C51141347837202832393778313437316D6D29421
310
254D3D7D04D1E0DD1141347836202832393778313236316D6D29421254D3D7D04D1E0D91141347835202832393778313035316D6D29421254D3D7D04D1E0D5104130202838343078313138396D6D2920419254D3D7D04C10E41332028323937783432306D6D29419254D3D7D04CD1141327833202835393478313236316D6D
310
29421254D3D7D04C9E0CD10413478332028323937783633306D6D29421254D3D7D04D1E0CD1141337834202834323078313138396D6D29421254D3D7D04CDE0D11141337836202834323078313738336D6D29421254D3D7D04CDE0D91141337835202834323078313438366D6D29421254D3D7D04CDE0D50E4132202834323
310
0783539346D6D29419254D3D7D04C910413378332028343230783839316D6D29421254D3D7D04CDE0CD0E41342028323937783231306D6D29419254D3D7D04D1124130783220283131383978313638326D6D29421254D3D7D04C1E0C9124130783320283131383978323532336D6D29421254D3D7D04C1E0CD114131783420
310
2838343178323337386D6D29421254D3D7D04C5E0D11141317833202838343178313738336D6D29421254D3D7D04C5E0CD02431254D3C82557247A25E4C81050A49534F5F5449544C4541431254D3C82557247A25E4C81090A49534F5F5449544C45424110E979A97F0838A835883675F42525F44D254D3D7D09497D4995D9
310
A5CDA5BDB9B1A5CDD10E979A97F0838A835883675F54525F44D254D3D7D51497D4995D9A5CDA5BDB9B1A5CDD10E979A97F0838A835883675F424C5F44D254D3D7D09317D4995D9A5CDA5BDB9B1A5CDD10E979A97F0838A835883675F544C5F44D254D3D7D51317D4995D9A5CDA5BDB9B1A5CDD00
  0
ACAD_PROXY_OBJECT
  5
9CBC
330
9CBB
100
AcDbProxyObject
 90
      499
 91
      527
 95
       25
 70
     0
 93
       86
310
5DEA0C80A0280A0280A034
  0
ACAD_PROXY_OBJECT
  5
9CBD
330
9CBB
100
AcDbProxyObject
 90
      499
 91
      528
 95
       25
 70
     0
 93
      282
310
5DD0E4050140501405014050140501405014050141101405014041000000000000001000
340
187
 94
        0
  0
ACAD_PROXY_OBJECT
  5
9CBE
330
9CBB
100
AcDbProxyObject
 90
      499
 91
      529
 95
       25
 70
     0
 93
      323
310
5DCC199999999999E99F91740501405014050140501405014050140501405014050140501405014040
340
0
 94
        0
  0
ACAD_PROXY_OBJECT
  5
9CBF
330
9CBB
100
AcDbProxyObject
 90
      499
 91
      530
 95
       25
 70
     0
 93
       10
310
5DC0
  0
ACAD_PROXY_OBJECT
  5
9CC0
330
9CBB
100
AcDbProxyObject
 90
      499
 91
      531
 95
       25
 70
     0
 93
      257
310
5DE0C16A22A7D90F49F80000000000001081400000000000004204010000618000
340
188
340
189
 94
        0
  0
ACAD_PROXY_OBJECT
  5
9CC1
330
9CBB
100
AcDbProxyObject
 90
      499
 91
      532
 95
       25
 70
     0
 93
     5277
310
5DD06411255115350141236025B6901405014069010000000000000910240690120281A8AA2CA0282484A4BE52028120280A032020000000000001220480D202405044E414D454050496BC914F4051C40640A80000000000004E4090193C3D3C4946284953424C414E4B28504152543A4E414D45292C424C4F434B3A4E414D
310
452C504152543A4E414D45293E3C41435F44455343524950544E3E40480A109A82A88AA492829880A091BBD2F7E80A3A80C81D0E27A15AF46E08A81203480901411393D5115014124A363B7D0147501904A0000000000000F902406428F4F1050D7D393D5114F901202832B22A72227A92028366EF6EE06F582028EA0320B4
310
0000000000001F20480C879E9E20A1AFAB27222FA620A122A61F20240506445020000000000000490201C00030C00010180000000000003E400000000000000F901073D3C4954454D3E4050180000000000003E400000000000000F901073D3C4954454D3E40501800000000000034400000000000000D101073D3C4954454
310
D3E40501800000000000034400000000000000D101073D3C4954454D3E405029010000000000000F9000000000000003E4041CF4F125511534F901418F4F1455164F9014060000000000000F9000000000000003E4041CF4F125511534F901800000000000034400000000000000D101073D3C4954454D3E40640400000000
310
0000003E400000000000000F90288800000000000020810000001800120881A068120480A032208521122080D21480D211480A1485214852050000000000003C2FC000000000000F0BF40600800030C0200400030C00CDCCCCCCCCCCEC3F3373333333333B0FC3333333333330940C80D069014090341504901A1999999999
310
9984A040100006180400800061804010000618008098A02808
340
0
340
0
 94
        0
  0
ACAD_PROXY_OBJECT
  5
9CC2
330
9CBB
100
AcDbProxyObject
 90
      499
 91
      537
 95
       25
 70
     0
 93
     3042
310
5DD9740D29254D064A49535F413342929254D7D512551311505134A49535F42525F5265766973696F6E6C6973744190F4134522028323937783231306D6D2941D29254D7D04D1490E41312028353934783834316D6D2941929254D7D04C50F41344C2028323130783239376D6D2941D29254D7D04D1310E413320283239377
310
83432306D6D2941929254D7D04CD0E41322028343230783539346D6D2941929254D7D04C90F4130202838343178313138396D6D2941929254D7D04C10243129254C82557247A25E4C81050A4A49535F5449544C454143129254C82557247A25E4C81090A4A49535F5449544C45424110E979A97F0838A835883675F42525F4
310
4D29254D7D09497D4995D9A5CDA5BDB9B1A5CDD10E979A97F0838A835883675F54525F44D29254D7D51497D4995D9A5CDA5BDB9B1A5CDD10E979A97F0838A835883675F424C5F44D29254D7D09317D4995D9A5CDA5BDB9B1A5CDD10E979A97F0838A835883675F544C5F44D29254D7D51317D4995D9A5CDA5BDB9B1A5CDD00
  0
ACAD_PROXY_OBJECT
  5
9CC3
330
9CBB
100
AcDbProxyObject
 90
      499
 91
      538
 95
       25
 70
     0
 93
      898
310
5DC4000000000000124048CF4F11115510525317D3105091530F880A0F11115510525317D05094D4D0D053114F8A50241C9A9999999999B93F26A666666666724FC000000000000E03F400000000000000400000000000000510000000000000024408070000C300000000000000049000
340
16
340
180
 94
        0
  0
ACAD_PROXY_OBJECT
  5
9CC4
330
9CBB
100
AcDbProxyObject
 90
      499
 91
      539
 95
       25
 70
     0
 93
      823
310
5DC0B00000000000002480959E9E29A2A1AA24A7A72FA620A122A62FA324A929AA1F169E29A2A1AA24A7A72FA620A122A62FA620A9AA1F000000000000048803FFFE01C00030C008140380006180000000000000048800000000000000A2000000000000002480
340
652
340
180
 94
        0
  0
ACAD_PROXY_OBJECT
  5
9CC5
330
9CBB
100
AcDbProxyObject
 90
      499
 91
      540
 95
       25
 70
     0
 93
      152
310
5DE8273108AC1C5A0640A3D0A5723F0BD1F200
  0
ACAD_PROXY_OBJECT
  5
9CC6
330
9CBB
100
AcDbProxyObject
 90
      499
 91
      604
 95
       25
 70
     0
 93
       14
310
5DE0
340
0
 94
        0
  0
ACAD_PROXY_OBJECT
  5
9CC7
330
9CBB
100
AcDbProxyObject
 90
      499
 91
      541
 95
       25
 70
     0
 93
     6059
310
5DD084050BA4050AA405024050E836583938376838C815B83672031405983D3C486F6C653A6469613E3C696628657175616C28486F6C653A7465726D696E6174696F6E2C223022292C2220905B82B320222C22208368838A838B22293E3C696628657175616C28486F6C653A7465726D696E6174696F6E2C223022292C486F
310
6C653A64657074682C2222293E2C203C486F6C653A63746469613E2082B482AE82E882CC905B82B3203C486F6C653A637464657074683E406901405034050E836583938376838C815B83672031405EF3D3C486F6C653A6374616E676C653E252564202525633C486F6C653A63746469613E208E4D8C8A2C203C69662865717
310
5616C28486F6C653A7461707065642C223022292C22252563222C486F6C653A6E6F6D696E616C202220782022293E3C696628657175616C28486F6C653A7461707065642C223022292C486F6C653A6469612C486F6C653A706974636864657363293E203C696628657175616C28486F6C653A7465726D696E6174696F6E2C2
310
23022292C22905B82B320222C222022293E3C696628657175616C28486F6C653A7465726D696E6174696F6E2C223022292C486F6C653A64657074682C2222293E406901405014050E836583938376838C815B83672031405C73D3C696628657175616C28486F6C653A7461707065642C223022292C22252563222C486F6C65
310
3A6E6F6D696E616C202220782022293E3C696628657175616C28486F6C653A7461707065642C223022292C486F6C653A6469612C486F6C653A706974636864657363293E203C696628657175616C28486F6C653A7465726D696E6174696F6E2C223022292C22905B82B320222C222022293E3C696628657175616C28486F6C
310
653A7465726D696E6174696F6E2C223022292C486F6C653A64657074682C2222293E4069014051E4090E836583938376838C815B83672032405173D3C535444503A444553433E203C535444503A5354443E40690E836583938376838C815B836720314050C3D3C535444503A444553433E40690240515AAABBA120
360
9CC8
330
9CC8
360
9CC9
330
9CC9
360
9CCA
330
9CCA
360
9CCB
360
9CCC
330
9CCB
330
9CCC
 94
        0
  0
ACAD_PROXY_OBJECT
  5
9CCD
330
9CBB
100
AcDbProxyObject
 90
      499
 91
      542
 95
       25
 70
     0
 93
       26
310
5DD02A80
340
0
 94
        0
  0
ACAD_PROXY_OBJECT
  5
9CCE
330
9CBB
100
AcDbProxyObject
 90
      499
 91
      543
 95
       25
 70
     0
 93
      250
310
5DD020000000000000A1000000000000002440408F0F9023C3E409A0DCFFFF80
340
58
340
1899
340
189A
340
5F
340
60
340
61
340
62
340
63
340
68
340
0
 94
        0
  0
ACAD_PROXY_OBJECT
  5
9CCF
330
9CBB
100
AcDbProxyObject
 90
      499
 91
      605
 95
       25
 70
     0
 93
    13889
310
5DD1D003FFFFFFFD030300030CCCCCCCCCCCC250200800030C01030300030CCCCCCCCCCCC250200800030C00050C8DC0955782CC838A83588367014ED1D15395149050D3CB1294138B0C0B23702555E0B320E2A0D620D9CB11D15395149055160B095CCB0A11D1539354D1C819D95B991A5B5E880CCC0A78000C0000000000
310
00000000000000000000010CCCCCCCCCCCC250200800030C010CCCCCCCCCCCC250200800030C020143CF4F111959985D5B1D151A5D1B194F8050A8C8A8365815B8375838B014E51D15395149050D3CB1294138B0C0B2322A0D96056E0DD60E2CB11D15395149055160B095CCB0A11D1539354D1C819D95B991A5B5E880CCC4
310
A78000C000000000000000000000000000000010CCCCCCCCCCCC250200800030C010CCCCCCCCCCCC250200800030C020143CF4F111959985D5B1D151A5D1B194F90D44111409034110541D0C4350F4050E44D03449074510F000141232D24D7C053247454E545241434F2C4A504E2C302C8CB4935F2C47454E54524154582C
310
25732C2847454E4D53472067656E64696D7A20312900010104002214000281464500A608E8A9CA8A482869E5894A09C5860591914588E8A9CA8A482A8B0584AE658508E8A9C9AA68E40CECADCC8D2DAF4406452029E9E9E27B934B3B4B71F1E24A31427A91424A9A12620A7259427B934B3B4B7149624A9A12620A7259424B
310
A32B6949496111116111711149F1E24BA32B69F00808200111A000140560052F47454E545241434F2C4A504E2C302C582C47454E54524154582C25732C2847454E4D53472067656E64696D7A20332900010100002054000280AC80A5E8E8A9CA8A482869E5894A09C586058B2588E8A9CA8A482A8B0584AE658508E8A9C9AA
310
68E40CECADCC8D2DAF4406852000202000040E800050152014BD1D15395149050D3CB1294138B0C0B148B11D15395149055160B095CCB0A11D1539354D1C819D95B991A5B5E880D8A400040400008250000A0507A6029823A2A72A2920A1A79625282716181641E99623A2A72A2920AA2C1612B9961423A2A726A9A39033B2
310
B73234B6BD101B948000808180105A000140A0F4C053047454E545241434F2C4A504E2C302C83D32C47454E54524154582C25732C2847454E4D53472067656E64696D7A203829000101010020F400028248704B5F00A668E8A9CA8A482869E5894A09C58605921C12D7C588E8A9CA8A482A8B0584AE658508E8A9C9AA68E40
310
CECADCC8D2DAF440646052000200080043280005048B4B8A69014CD1D15395149050D3CB1294138B0C0B22D2E29A4B11D15395149055160B095CCB0A11D1539354D1C819D95B991A5B5E880C8C4A4000400100086D0000A09196926BE029923A2A72A2920A1A796252827161816465A49AF9623A2A72A2920AA2C1612B9961
310
423A2A726A9A39033B2B73234B6BD10189480A02620202080043E80005048D8096DA014CD1D15395149050D3CB1294138B0C0B236025B68B11D15395149055160B095CCB0A11D1539354D1C819D95B991A5B5E880C4D0A4000404140280D0000A190687072706CD06C5069D06B0029DA3A2A72A2920A1A7962528271618164
310
1A1C1C9C1B341B141A741AC1623A2A72A2920AA2C1612B9961423A2A726A9A39033B2B73234B6BD10189A94800080820050EA000143A322A0D0E0E4E0D9A0D8A0D3A0D60053D47454E545241434F2C4A504E2C302C8C8A8343839383668362834E83582C47454E54524154582C25732C2847454E4D53472067656E64696D7A
310
2031372900010105002274000281464500A628E8A9CA8A482869E5894A09C5860591914588E8A9CA8A482A8B0584AE658508E8A9C9AA68E40CECADCC8D2DAF440626C52000202080044A8000504909497CA014CD1D15395149050D3CB1294138B0C0B242525F28B11D15395149055160B095CCB0A11D1539354D1C819D95B9
310
91A5B5E880C4E4A400040418008A521E000000000000001CA040C00000000000034408080000000000006881010000000000000D102040000000000001A204080000000000003440818000000000000728103000000000000125020600000000004028A040000000000000034408000000000000004881000000000000000D
310
102000000000000001A204000000000000003440818000000000000508143C0000000000000039408180000000000006881030000000000000D102060000000000001A2040C00000000000034408180000000000006881030000000000000E5020600000000000024A040C0000000000805140800000000000000688100000
310
00000000009102000000000000001A2040000000000000034408180000000000006881030000000000000A10284220000000878000002020000008380000020400000081800000208000000828000002028900000000
340
0
340
0
340
0
340
0
340
180
340
180
 94
        0
  0
ACAD_PROXY_OBJECT
  5
11BB7
330
11BB6
100
AcDbProxyObject
 90
      499
 91
      602
 95
       25
 70
     0
 93
     2256
310
5DE0143A0D960E4E0DDA0E32056E0D9C80C40405013D3C696628657175616C28486F6C653A7461707065642C223022292C22252563222C486F6C653A6E6F6D696E616C2022202220696628657175616C28486F6C653A756E6974732C223122292C2278222C222D222920222022293E3C696628657175616C28486F6C653A74
310
61707065642C223022292C486F6C653A6469612C486F6C653A706974636864657363293E207B5C46414D4744543B787D203C696628657175616C28486F6C653A7465726D696E6174696F6E2C223022292C486F6C653A64657074682C228AD192CA22293E5C507B5C46414D4744543B767D2525633C486F6C653A6374646961
310
3E207B5C46414D4744543B787D203C486F6C653A637464657074683E
  0
ACAD_PROXY_OBJECT
  5
11BB8
330
11BB6
100
AcDbProxyObject
 90
      499
 91
      602
 95
       25
 70
     0
 93
     2192
310
5DE0143A0D960E4E0DDA0E32056E0D9C80C405FE3D3C696628657175616C28486F6C653A7461707065642C223022292C22252563222C486F6C653A6E6F6D696E616C2022202220696628657175616C28486F6C653A756E6974732C223122292C2278222C222D222920222022293E3C696628657175616C28486F6C653A7461
310
707065642C223022292C486F6C653A6469612C486F6C653A706974636864657363293E207B5C46414D4744543B787D203C696628657175616C28486F6C653A7465726D696E6174696F6E2C223022292C486F6C653A64657074682C228AD192CA22293E5C507B5C46414D4744543B777D2525633C486F6C653A63746469613E
310
2058203C486F6C653A6374616E676C653E252564
  0
ACAD_PROXY_OBJECT
  5
11BB9
330
11BB6
100
AcDbProxyObject
 90
      499
 91
      602
 95
       25
 70
     0
 93
     1816
310
5DE0143A0D960E4E0DDA0E32056E0D9C80C405CF3D3C696628657175616C28486F6C653A7461707065642C223022292C22252563222C486F6C653A6E6F6D696E616C2022202220696628657175616C28486F6C653A756E6974732C223122292C2278222C222D222920222022293E3C696628657175616C28486F6C653A7461
310
707065642C223022292C486F6C653A6469612C486F6C653A706974636864657363293E5C507B5C46414D4744543B787D203C696628657175616C28486F6C653A7465726D696E6174696F6E2C223022292C486F6C653A64657074682C228AD192CA22293E
  0
ACAD_PROXY_OBJECT
  5
11BBA
330
11BB6
100
AcDbProxyObject
 90
      499
 91
      602
 95
       25
 70
     0
 93
      344
310
5DE0143A0D960E4E0DDA0E32056E0D9C80C805173D3C535444503A444553433E203C535444503A5354443E
  0
ACAD_PROXY_OBJECT
  5
11BBB
330
11BB6
100
AcDbProxyObject
 90
      499
 91
      602
 95
       25
 70
     0
 93
      256
310
5DE0143A0D960E4E0DDA0E32056E0D9C80C4050C3D3C535444503A444553433E
  0
ACAD_PROXY_OBJECT
  5
9A4B
330
9A42
100
AcDbProxyObject
 90
      499
 91
      602
 95
       25
 70
     0
 93
     2680
310
5DE0143A0D960E4E0DDA0E32056E0D9C80C4043A013D2525633C486F6C653A63746469613E2078203C486F6C653A637464657074683E20555C503C696628657175616C28486F6C653A7461707065642C223022292C22252563222C486F6C653A6E6F6D696E616C202220782022293E3C696628657175616C28486F6C653A74
310
61707065642C223022292C486F6C653A6469612C486F6C653A706974636864657363293E3C696628657175616C28486F6C653A7461707065642C223122292C22207820222C2222293E3C696628657175616C28486F6C653A7461707065642C223122292C486F6C653A74617064657074682C2222293E203C69662865717561
310
6C28486F6C653A7465726D696E6174696F6E2C223022292C22202F20222C2222293E3C696628657175616C28486F6C653A7465726D696E6174696F6E2C223022292C486F6C653A64657074682C2222293E
  0
ACAD_PROXY_OBJECT
  5
9A4C
330
9A42
100
AcDbProxyObject
 90
      499
 91
      602
 95
       25
 70
     0
 93
     2688
310
5DE0143A0D960E4E0DDA0E32056E0D9C80C4043B013D2525633C486F6C653A63746469613E2078203C486F6C653A6374616E676C653E2525645C503C696628657175616C28486F6C653A7461707065642C223022292C22252563222C486F6C653A6E6F6D696E616C202220782022293E3C696628657175616C28486F6C653A
310
7461707065642C223022292C486F6C653A6469612C486F6C653A706974636864657363293E3C696628657175616C28486F6C653A7461707065642C223122292C22207820222C2222293E3C696628657175616C28486F6C653A7461707065642C223122292C486F6C653A74617064657074682C2222293E203C696628657175
310
616C28486F6C653A7465726D696E6174696F6E2C223022292C22202F20222C2222293E3C696628657175616C28486F6C653A7465726D696E6174696F6E2C223022292C486F6C653A64657074682C2222293E
  0
ACAD_PROXY_OBJECT
  5
9A4A
330
9A42
100
AcDbProxyObject
 90
      499
 91
      602
 95
       25
 70
     0
 93
     2392
310
5DE0143A0D960E4E0DDA0E32056E0D9C80C40416013D3C696628657175616C28486F6C653A7461707065642C223022292C22252563222C486F6C653A6E6F6D696E616C202220782022293E3C696628657175616C28486F6C653A7461707065642C223022292C486F6C653A6469612C486F6C653A706974636864657363293E
310
3C696628657175616C28486F6C653A7461707065642C223122292C22207820222C2222293E3C696628657175616C28486F6C653A7461707065642C223122292C486F6C653A74617064657074682C2222293E203C696628657175616C28486F6C653A7465726D696E6174696F6E2C223022292C22202F20222C2222293E3C69
310
6628657175616C28486F6C653A7465726D696E6174696F6E2C223022292C486F6C653A64657074682C2222293E
  0
ACAD_PROXY_OBJECT
  5
9A49
330
9A42
100
AcDbProxyObject
 90
      499
 91
      602
 95
       25
 70
     0
 93
      344
310
5DE0143A0D960E4E0DDA0E32056E0D9C80C805173D3C535444503A444553433E203C535444503A5354443E
  0
ACAD_PROXY_OBJECT
  5
9A48
330
9A42
100
AcDbProxyObject
 90
      499
 91
      602
 95
       25
 70
     0
 93
      256
310
5DE0143A0D960E4E0DDA0E32056E0D9C80C4050C3D3C535444503A444553433E
  0
ACAD_PROXY_OBJECT
  5
9CC8
330
9CC7
100
AcDbProxyObject
 90
      499
 91
      602
 95
       25
 70
     0
 93
     1376
310
5DE0143A0D960E4E0DDA0E32056E0D9C80C405983D3C486F6C653A6469613E3C696628657175616C28486F6C653A7465726D696E6174696F6E2C223022292C2220905B82B320222C22208368838A838B22293E3C696628657175616C28486F6C653A7465726D696E6174696F6E2C223022292C486F6C653A64657074682C22
310
22293E2C203C486F6C653A63746469613E2082B482AE82E882CC905B82B3203C486F6C653A637464657074683E
  0
ACAD_PROXY_OBJECT
  5
9CC9
330
9CC7
100
AcDbProxyObject
 90
      499
 91
      602
 95
       25
 70
     0
 93
     2072
310
5DE0143A0D960E4E0DDA0E32056E0D9C80C405EF3D3C486F6C653A6374616E676C653E252564202525633C486F6C653A63746469613E208E4D8C8A2C203C696628657175616C28486F6C653A7461707065642C223022292C22252563222C486F6C653A6E6F6D696E616C202220782022293E3C696628657175616C28486F6C
310
653A7461707065642C223022292C486F6C653A6469612C486F6C653A706974636864657363293E203C696628657175616C28486F6C653A7465726D696E6174696F6E2C223022292C22905B82B320222C222022293E3C696628657175616C28486F6C653A7465726D696E6174696F6E2C223022292C486F6C653A6465707468
310
2C2222293E
  0
ACAD_PROXY_OBJECT
  5
9CCA
330
9CC7
100
AcDbProxyObject
 90
      499
 91
      602
 95
       25
 70
     0
 93
     1752
310
5DE0143A0D960E4E0DDA0E32056E0D9C80C405C73D3C696628657175616C28486F6C653A7461707065642C223022292C22252563222C486F6C653A6E6F6D696E616C202220782022293E3C696628657175616C28486F6C653A7461707065642C223022292C486F6C653A6469612C486F6C653A706974636864657363293E20
310
3C696628657175616C28486F6C653A7465726D696E6174696F6E2C223022292C22905B82B320222C222022293E3C696628657175616C28486F6C653A7465726D696E6174696F6E2C223022292C486F6C653A64657074682C2222293E
  0
ACAD_PROXY_OBJECT
  5
9CCB
330
9CC7
100
AcDbProxyObject
 90
      499
 91
      602
 95
       25
 70
     0
 93
      344
310
5DE0143A0D960E4E0DDA0E32056E0D9C80C805173D3C535444503A444553433E203C535444503A5354443E
  0
ACAD_PROXY_OBJECT
  5
9CCC
330
9CC7
100
AcDbProxyObject
 90
      499
 91
      602
 95
       25
 70
     0
 93
      256
310
5DE0143A0D960E4E0DDA0E32056E0D9C80C4050C3D3C535444503A444553433E
  0
ENDSEC
  0
EOF
