  0
SECTION
  2
HEADER
  9
$ACADVER
  1
AC1015
  9
$ACADMAINTVER
 70
     6
  9
$DWGCODEPAGE
  3
ANSI_932
  9
$INSBASE
 10
0.0
 20
0.0
 30
0.0
  9
$EXTMIN
 10
-125.8238111405277
 20
-188.2739865447294
 30
0.0
  9
$EXTMAX
 10
158.9899171987324
 20
37.11063230044331
 30
0.0
  9
$LIMMIN
 10
0.0
 20
0.0
  9
$LIMMAX
 10
420.0
 20
297.0
  9
$ORTHOMODE
 70
     0
  9
$REGENMODE
 70
     1
  9
$FILLMODE
 70
     1
  9
$QTEXTMODE
 70
     0
  9
$MIRRTEXT
 70
     1
  9
$LTSCALE
 40
1.0
  9
$ATTMODE
 70
     1
  9
$TEXTSIZE
 40
3.0
  9
$TRACEWID
 40
1.0
  9
$TEXTSTYLE
  7
STANDARD
  9
$CLAYER
  8
AM_0
  9
$CELTYPE
  6
ByLayer
  9
$CECOLOR
 62
   256
  9
$CELTSCALE
 40
1.0
  9
$DISPSILH
 70
     0
  9
$DIMSCALE
 40
1.0
  9
$DIMASZ
 40
2.5
  9
$DIMEXO
 40
0.0
  9
$DIMDLI
 40
10.0
  9
$DIMRND
 40
0.0
  9
$DIMDLE
 40
0.0
  9
$DIMEXE
 40
1.0
  9
$DIMTP
 40
0.1
  9
$DIMTM
 40
0.1000000001
  9
$DIMTXT
 40
3.8
  9
$DIMCEN
 40
0.0
  9
$DIMTSZ
 40
0.0
  9
$DIMTOL
 70
     0
  9
$DIMLIM
 70
     0
  9
$DIMTIH
 70
     0
  9
$DIMTOH
 70
     0
  9
$DIMSE1
 70
     0
  9
$DIMSE2
 70
     0
  9
$DIMTAD
 70
     3
  9
$DIMZIN
 70
     1
  9
$DIMBLK
  1
Open30
  9
$DIMASO
 70
     1
  9
$DIMSHO
 70
     1
  9
$DIMPOST
  1

  9
$DIMAPOST
  1
"
  9
$DIMALT
 70
     0
  9
$DIMALTD
 70
     2
  9
$DIMALTF
 40
0.0393701
  9
$DIMLFAC
 40
1.0
  9
$DIMTOFL
 70
     1
  9
$DIMTVP
 40
0.0
  9
$DIMTIX
 70
     0
  9
$DIMSOXD
 70
     0
  9
$DIMSAH
 70
     0
  9
$DIMBLK1
  1

  9
$DIMBLK2
  1

  9
$DIMSTYLE
  2
AM_JIS
  9
$DIMCLRD
 70
   256
  9
$DIMCLRE
 70
   256
  9
$DIMCLRT
 70
     2
  9
$DIMTFAC
 40
0.71
  9
$DIMGAP
 40
1.5
  9
$DIMJUST
 70
     0
  9
$DIMSD1
 70
     0
  9
$DIMSD2
 70
     0
  9
$DIMTOLJ
 70
     0
  9
$DIMTZIN
 70
     8
  9
$DIMALTZ
 70
     0
  9
$DIMALTTZ
 70
     0
  9
$DIMUPT
 70
     0
  9
$DIMDEC
 70
     3
  9
$DIMTDEC
 70
     3
  9
$DIMALTU
 70
     2
  9
$DIMALTTD
 70
     2
  9
$DIMTXSTY
  7
STANDARD
  9
$DIMAUNIT
 70
     1
  9
$DIMADEC
 70
     2
  9
$DIMALTRND
 40
0.0
  9
$DIMAZIN
 70
     2
  9
$DIMDSEP
 70
    46
  9
$DIMATFIT
 70
     3
  9
$DIMFRAC
 70
     0
  9
$DIMLDRBLK
  1
Open30
  9
$DIMLUNIT
 70
     2
  9
$DIMLWD
 70
    -1
  9
$DIMLWE
 70
    -1
  9
$DIMTMOVE
 70
     0
  9
$LUNITS
 70
     2
  9
$LUPREC
 70
     2
  9
$SKETCHINC
 40
1.0
  9
$FILLETRAD
 40
1.5
  9
$AUNITS
 70
     1
  9
$AUPREC
 70
     5
  9
$MENU
  1
.
  9
$ELEVATION
 40
0.0
  9
$PELEVATION
 40
0.0
  9
$THICKNESS
 40
0.0
  9
$LIMCHECK
 70
     0
  9
$CHAMFERA
 40
2.5
  9
$CHAMFERB
 40
2.5
  9
$CHAMFERC
 40
20.0
  9
$CHAMFERD
 40
0.0
  9
$SKPOLY
 70
     0
  9
$TDCREATE
 40
2451943.610431667
  9
$TDUCREATE
 40
2451943.235431667
  9
$TDUPDATE
 40
2455482.454011493
  9
$TDUUPDATE
 40
2455482.079011493
  9
$TDINDWG
 40
0.5900205208
  9
$TDUSRTIMER
 40
0.5900203472
  9
$USRTIMER
 70
     1
  9
$ANGBASE
 50
0.0
  9
$ANGDIR
 70
     0
  9
$PDMODE
 70
     0
  9
$PDSIZE
 40
0.0
  9
$PLINEWID
 40
0.0
  9
$SPLFRAME
 70
     0
  9
$SPLINETYPE
 70
     6
  9
$SPLINESEGS
 70
     8
  9
$HANDSEED
  5
11E3D
  9
$SURFTAB1
 70
     6
  9
$SURFTAB2
 70
     6
  9
$SURFTYPE
 70
     6
  9
$SURFU
 70
     6
  9
$SURFV
 70
     6
  9
$UCSBASE
  2

  9
$UCSNAME
  2

  9
$UCSORG
 10
0.0
 20
0.0
 30
0.0
  9
$UCSXDIR
 10
1.0
 20
0.0
 30
0.0
  9
$UCSYDIR
 10
0.0
 20
1.0
 30
0.0
  9
$UCSORTHOREF
  2

  9
$UCSORTHOVIEW
 70
     0
  9
$UCSORGTOP
 10
0.0
 20
0.0
 30
0.0
  9
$UCSORGBOTTOM
 10
0.0
 20
0.0
 30
0.0
  9
$UCSORGLEFT
 10
0.0
 20
0.0
 30
0.0
  9
$UCSORGRIGHT
 10
0.0
 20
0.0
 30
0.0
  9
$UCSORGFRONT
 10
0.0
 20
0.0
 30
0.0
  9
$UCSORGBACK
 10
0.0
 20
0.0
 30
0.0
  9
$PUCSBASE
  2

  9
$PUCSNAME
  2

  9
$PUCSORG
 10
0.0
 20
0.0
 30
0.0
  9
$PUCSXDIR
 10
1.0
 20
0.0
 30
0.0
  9
$PUCSYDIR
 10
0.0
 20
1.0
 30
0.0
  9
$PUCSORTHOREF
  2

  9
$PUCSORTHOVIEW
 70
     0
  9
$PUCSORGTOP
 10
0.0
 20
0.0
 30
0.0
  9
$PUCSORGBOTTOM
 10
0.0
 20
0.0
 30
0.0
  9
$PUCSORGLEFT
 10
0.0
 20
0.0
 30
0.0
  9
$PUCSORGRIGHT
 10
0.0
 20
0.0
 30
0.0
  9
$PUCSORGFRONT
 10
0.0
 20
0.0
 30
0.0
  9
$PUCSORGBACK
 10
0.0
 20
0.0
 30
0.0
  9
$USERI1
 70
     0
  9
$USERI2
 70
     0
  9
$USERI3
 70
     0
  9
$USERI4
 70
     0
  9
$USERI5
 70
     0
  9
$USERR1
 40
0.0
  9
$USERR2
 40
0.0
  9
$USERR3
 40
0.0
  9
$USERR4
 40
0.0
  9
$USERR5
 40
0.0
  9
$WORLDVIEW
 70
     1
  9
$SHADEDGE
 70
     3
  9
$SHADEDIF
 70
    70
  9
$TILEMODE
 70
     1
  9
$MAXACTVP
 70
    48
  9
$PINSBASE
 10
0.0
 20
0.0
 30
0.0
  9
$PLIMCHECK
 70
     0
  9
$PEXTMIN
 10
1.000000000000000E+20
 20
1.000000000000000E+20
 30
1.000000000000000E+20
  9
$PEXTMAX
 10
-1.000000000000000E+20
 20
-1.000000000000000E+20
 30
-1.000000000000000E+20
  9
$PLIMMIN
 10
0.0
 20
0.0
  9
$PLIMMAX
 10
420.0
 20
297.0
  9
$UNITMODE
 70
     0
  9
$VISRETAIN
 70
     1
  9
$PLINEGEN
 70
     0
  9
$PSLTSCALE
 70
     1
  9
$TREEDEPTH
 70
  3020
  9
$CMLSTYLE
  2
Standard
  9
$CMLJUST
 70
     0
  9
$CMLSCALE
 40
20.0
  9
$PROXYGRAPHICS
 70
     1
  9
$MEASUREMENT
 70
     1
  9
$CELWEIGHT
370
    -1
  9
$ENDCAPS
280
     0
  9
$JOINSTYLE
280
     0
  9
$LWDISPLAY
290
     0
  9
$INSUNITS
 70
     4
  9
$HYPERLINKBASE
  1

  9
$STYLESHEET
  1
sei_cad.ctb
  9
$XEDIT
290
     1
  9
$CEPSNTYPE
380
     0
  9
$PSTYLEMODE
290
     1
  9
$FINGERPRINTGUID
  2
{C77AB3BE-9CA2-11D3-BAF3-006094EB760E}
  9
$VERSIONGUID
  2
{5D5113C5-41E9-4C55-BFC1-91F132BA6FA4}
  9
$EXTNAMES
290
     1
  9
$PSVPSCALE
 40
0.0
  9
$OLESTARTUP
290
     0
  0
ENDSEC
  0
SECTION
  2
CLASSES
  0
CLASS
  1
ACDBDICTIONARYWDFLT
  2
AcDbDictionaryWithDefault
  3
ObjectDBX Classes
 90
        0
280
     0
281
     0
  0
CLASS
  1
ACDBPLACEHOLDER
  2
AcDbPlaceHolder
  3
ObjectDBX Classes
 90
        0
280
     0
281
     0
  0
CLASS
  1
LAYOUT
  2
AcDbLayout
  3
ObjectDBX Classes
 90
        0
280
     0
281
     0
  0
CLASS
  1
ACME_DOCUMENT
  2
AcMeDbDoc
  3
AcMeServices
 90
        0
280
     1
281
     0
  0
CLASS
  1
ACMESCOPE
  2
AcMeScope
  3
AcMeServices
 90
        0
280
     1
281
     0
  0
CLASS
  1
ACMECOMMANDHISTORY
  2
AcMeCommandHistory
  3
AcMeServices
 90
        0
280
     1
281
     0
  0
CLASS
  1
DICTIONARYVAR
  2
AcDbDictionaryVar
  3
ObjectDBX Classes
 90
        0
280
     0
281
     0
  0
CLASS
  1
ACIMSYSVARMAN
  2
AcImSysVarManager
  3
AcMeServices
 90
        0
280
     1
281
     0
  0
CLASS
  1
ACIMREALSYSVAR
  2
AcImRealSysVar
  3
AcMeServices
 90
        0
280
     1
281
     0
  0
CLASS
  1
ACIMINTSYSVAR
  2
AcImIntSysVar
  3
AcMeServices
 90
        0
280
     1
281
     0
  0
CLASS
  1
ACMEDRAWINGMAN
  2
AcMeDrawingMan
  3
AcMeServices
 90
        0
280
     1
281
     0
  0
CLASS
  1
ACMEVIEW
  2
AcMeView
  3
AcMeServices
 90
        0
280
     1
281
     0
  0
CLASS
  1
ACDBENTITYCACHE
  2
AcMeEntityCache
  3
AcMeServices
 90
        0
280
     1
281
     0
  0
CLASS
  1
GSMANAGER
  2
AcMeGSManager
  3
AcMeServices
 90
        0
280
     1
281
     0
  0
CLASS
  1
AMDTINTERNALREACTOR
  2
AmdtInternalReactor
  3
AcMeServices
 90
        0
280
     1
281
     0
  0
CLASS
  1
ACMESTATEMGR
  2
AcMeStateMgr
  3
AcMeServices
 90
        0
280
     1
281
     0
  0
CLASS
  1
ACME_DATABASE
  2
AcMeDbDatabase
  3
AcMeServices
 90
        0
280
     1
281
     0
  0
CLASS
  1
ACRFINSADJUSTERMGR
  2
AcRfInsAdjusterMgr
  3
AcMeServices
 90
        0
280
     1
281
     0
  0
CLASS
  1
AMGSETTINGSOBJ
  2
AmgSettingsObj
  3
"AcadM|Product Description: AutoCAD Mechanical 2000|Company: Autodesk"
 90
        0
280
     1
281
     0
  0
CLASS
  1
AMGOBJPROPCFG
  2
AmgObjPropCfg
  3
"AmgLay|Product Description: AutoCAD Mechanical 2000|Company: Autodesk"
 90
        1
280
     1
281
     0
  0
CLASS
  1
ACMDATADICTIONARY
  2
AcmDataDictionary
  3
"AcmSymBB|Product Description: AutoCAD Mechanical 2004 DX|Company: Autodesk"
 90
        0
280
     1
281
     0
  0
CLASS
  1
ACMDATAENTRYBLOCK
  2
AcmDataEntryBlock
  3
"AcmSymBB|Product Description: AutoCAD Mechanical 2004 DX|Company: Autodesk"
 90
        0
280
     1
281
     0
  0
CLASS
  1
ACIMSTRSYSVAR
  2
AcImStrSysVar
  3
AcMeServices
 90
        0
280
     1
281
     0
  0
CLASS
  1
ACAMGFILTERDAT
  2
AcAmgFilterDat
  3
"AcadM|Product Description: AutoCAD Mechanical 2000|Company: Autodesk"
 90
        0
280
     1
281
     0
  0
CLASS
  1
LAYER_INDEX
  2
AcDbLayerIndex
  3
ObjectDBX Classes
 90
        0
280
     0
281
     0
  0
CLASS
  1
IDBUFFER
  2
AcDbIdBuffer
  3
ObjectDBX Classes
 90
        0
280
     0
281
     0
  0
CLASS
  1
ACMSTANDARDJIS
  2
AcmStandardJIS
  3
"Amdt_StdImp|Product Description: AutoCAD Mechanical 2004 DX|Company: Autodesk"
 90
        0
280
     1
281
     0
  0
CLASS
  1
ACMSURFSTANDARDJIS
  2
AcmSurfTextStdJIS
  3
"Amdt_StdImp|Product Description: AutoCAD Mechanical 2004 DX|Company: Autodesk"
 90
        0
280
     1
281
     0
  0
CLASS
  1
ACMFCFSTANDARDJIS
  2
AcmFCFStdJIS
  3
"Amdt_StdImp|Product Description: AutoCAD Mechanical 2004 DX|Company: Autodesk"
 90
        0
280
     1
281
     0
  0
CLASS
  1
ACMWELDSTANDARDJIS
  2
AcmWeldingStdJIS
  3
"Amdt_StdImp|Product Description: AutoCAD Mechanical 2004 DX|Company: Autodesk"
 90
        0
280
     1
281
     0
  0
CLASS
  1
ACMIDSTANDARDJIS
  2
AcmIdStdJIS
  3
"Amdt_StdImp|Product Description: AutoCAD Mechanical 2004 DX|Company: Autodesk"
 90
        0
280
     1
281
     0
  0
CLASS
  1
ACMDATUMSTANDARDJIS
  2
AcmDatumStdJIS
  3
"Amdt_StdImp|Product Description: AutoCAD Mechanical 2004 DX|Company: Autodesk"
 90
        0
280
     1
281
     0
  0
CLASS
  1
ACMBOMSTANDARDJIS
  2
AcmBOMStdJIS
  3
"Amdt_StdImp|Product Description: AutoCAD Mechanical 2004 DX|Company: Autodesk"
 90
        0
280
     1
281
     0
  0
CLASS
  1
AMDTNOTE
  2
AmdtNote
  3
"AcmSymBB|Product Description: AutoCAD Mechanical 2004 DX|Company: Autodesk"
 90
     1023
280
     1
281
     1
  0
CLASS
  1
ACGREFMASTER
  2
AcGrefMaster
  3
AcAttribServices
 90
        0
280
     1
281
     0
  0
CLASS
  1
ACGREFACADMASTER
  2
AcGrefacadMaster
  3
AcGrefServices
 90
        0
280
     1
281
     0
  0
CLASS
  1
AMIMASTER
  2
AmiMaster
  3
AmiServices
 90
        0
280
     1
281
     0
  0
CLASS
  1
ACAMGTITLESTD
  2
AcAmgTitleStd
  3
"TITLEAPP"
 90
        0
280
     1
281
     0
  0
CLASS
  1
ACMDETAILSTANDARDJIS
  2
AmdtDetailSymStdJIS
  3
"Amdt_StdImp|Product Description: AutoCAD Mechanical 2004 DX|Company: Autodesk"
 90
        0
280
     1
281
     0
  0
CLASS
  1
ACMSECTIONSTANDARDJIS
  2
AmdtSectionSymStdJIS
  3
"Amdt_StdImp|Product Description: AutoCAD Mechanical 2004 DX|Company: Autodesk"
 90
        0
280
     1
281
     0
  0
CLASS
  1
ACMCENTERLINESTANDARDJIS
  2
AmdtCenterLineStdJIS
  3
"Amdt_StdImp|Product Description: AutoCAD Mechanical 2004 DX|Company: Autodesk"
 90
        0
280
     1
281
     0
  0
CLASS
  1
ACMNOTESTANDARDJIS
  2
AmdtNoteStdJIS
  3
"Amdt_StdImp|Product Description: AutoCAD Mechanical 2004 DX|Company: Autodesk"
 90
        0
280
     1
281
     0
  0
CLASS
  1
ACAMGLAYSTD
  2
AcAmgLayStd
  3
"AcAmgLayStd|Product Description: AutoCAD Mechanical 2000|Company: Autodesk"
 90
        0
280
     1
281
     0
  0
CLASS
  1
ACAMGDIMSTD
  2
AcAmgDimStd
  3
"AcAmgDimStd|Product Description: AutoCAD Mechanical 2000|Company: Autodesk"
 90
        0
280
     1
281
     0
  0
CLASS
  1
AMDTFORMULAUPDATEDISPATCHER
  2
AmdtFormulaUpdateDispatcher
  3
AcMeServices
 90
        0
280
     1
281
     0
  0
CLASS
  1
DUMMY
  2
AcDbLongTransaction
  3
DUMMY
 90
        0
280
     0
281
     0
  0
CLASS
  1
LWPOLYLINE
  2
AcDbPolyline
  3
AutoCAD 2000
 90
        0
280
     0
281
     1
  0
CLASS
  1
HATCH
  2
AcDbHatch
  3
AutoCAD 2000
 90
        0
280
     0
281
     1
  0
CLASS
  1
XRECORD
  2
AcDbXrecord
  3
AutoCAD 2000
 90
        0
280
     0
281
     0
  0
CLASS
  1
DUMMY
  2
AcDbLongTransaction
  3
DUMMY
 90
        0
280
     0
281
     0
  0
CLASS
  1
LWPOLYLINE
  2
AcDbPolyline
  3
AutoCAD 2000
 90
        0
280
     0
281
     1
  0
CLASS
  1
HATCH
  2
AcDbHatch
  3
AutoCAD 2000
 90
        0
280
     0
281
     1
  0
CLASS
  1
XRECORD
  2
AcDbXrecord
  3
AutoCAD 2000
 90
        0
280
     0
281
     0
  0
CLASS
  1
ACDBCIRCARCRES
  2
AcDbCircArcRes
  3
AcGrefServices
 90
        0
280
     1
281
     0
  0
CLASS
  1
ACDBLINERES
  2
AcDbLineRes
  3
AcGrefServices
 90
        0
280
     1
281
     0
  0
CLASS
  1
ACDBELLIPSERES
  2
AcDbEllipseRes
  3
AcGrefServices
 90
        0
280
     1
281
     0
  0
CLASS
  1
DUMMY
  2
AcDbLongTransaction
  3
DUMMY
 90
        0
280
     0
281
     0
  0
CLASS
  1
LWPOLYLINE
  2
AcDbPolyline
  3
AutoCAD 2000
 90
        0
280
     0
281
     1
  0
CLASS
  1
HATCH
  2
AcDbHatch
  3
AutoCAD 2000
 90
        0
280
     0
281
     1
  0
CLASS
  1
XRECORD
  2
AcDbXrecord
  3
AutoCAD 2000
 90
        0
280
     0
281
     0
  0
CLASS
  1
TABLESTYLE
  2
AcDbTableStyle
  3
ObjectDBX Classes
 90
     2047
280
     0
281
     0
  0
CLASS
  1
AM_DRAWING_MGR
  2
AcDmDwgMgr
  3
AcMechDwgViewMgmt
 90
        0
280
     1
281
     0
  0
CLASS
  1
AM_DWG_DOCUMENT
  2
AcDmDwgDocument
  3
AcMechDwgViewMgmt
 90
        0
280
     1
281
     0
  0
CLASS
  1
AM_DWG_SHEET
  2
AcDmSheet
  3
AcMechDwgViewMgmt
 90
        0
280
     1
281
     0
  0
CLASS
  1
AM_VIEWDIMPARMAP
  2
AcDmViewDimParMap
  3
AcMechDwgViewMgmt
 90
        0
280
     1
281
     0
  0
CLASS
  1
AM_DWGMGR_NAME
  2
AcDmDwgMgrName
  3
AcMechDwgViewMgmt
 90
        0
280
     1
281
     0
  0
CLASS
  1
AMDTMENUSTATEMGR
  2
AmdtMenuStateMgr
  3
McadcomServices
 90
        0
280
     1
281
     0
  0
CLASS
  1
AMDTMCOMMENUSTATE
  2
AmdtMcomMenuState
  3
McadcomServices
 90
        0
280
     1
281
     0
  0
CLASS
  1
MAPIAMMOUDLE
  2
MApiAmModule
  3
MApiAmServices
 90
        0
280
     1
281
     0
  0
CLASS
  1
AMDTADMENUSTATE
  2
AmdtAdMenuState
  3
DesignerServices
 90
        0
280
     1
281
     0
  0
CLASS
  1
ADAPPL
  2
AcAdAppl
  3
DesignerServices
 90
        0
280
     1
281
     0
  0
CLASS
  1
DEPMGR
  2
AcAdDepMgr
  3
DesignerServices
 90
        0
280
     1
281
     0
  0
CLASS
  1
PARAMMGR
  2
AcAdParamMgr
  3
DesignerServices
 90
        0
280
     1
281
     0
  0
CLASS
  1
PARAMSCOPE
  2
AcAdParamScope
  3
DesignerServices
 90
        0
280
     1
281
     0
  0
CLASS
  1
NAMEDAPPL
  2
AcAdNamedAppl
  3
DesignerServices
 90
        0
280
     1
281
     0
  0
CLASS
  1
AMDTDMMENUSTATE
  2
AmdtDmMenuState
  3
AcMechDwgViewMgmt
 90
        0
280
     1
281
     0
  0
CLASS
  1
AMDTAMMENUSTATE
  2
AmdtAmMenuState
  3
DesignerAssemblies
 90
        0
280
     1
281
     0
  0
CLASS
  1
ACAMPROJECT
  2
AcAmProject
  3
DesignerAssemblies
 90
        0
280
     1
281
     0
  0
CLASS
  1
ACAMGRCOMPDEF
  2
AcAmGrCompDef
  3
DesignerAssemblies
 90
        0
280
     1
281
     0
  0
CLASS
  1
ACCMCONTEXT
  2
AcCmContext
  3
DesignerAssemblies
 90
        0
280
     1
281
     0
  0
CLASS
  1
ACAMCOMPDEF
  2
AcAmCompDef
  3
DesignerAssemblies
 90
        0
280
     1
281
     0
  0
CLASS
  1
ACAMCOMPDEFMGR
  2
AcAmCompDefMgr
  3
DesignerAssemblies
 90
        0
280
     1
281
     0
  0
CLASS
  1
AMCONTEXTMGR
  2
AcAmContextMgr
  3
DesignerAssemblies
 90
        0
280
     1
281
     0
  0
CLASS
  1
ACAMCONTEXTMODELER
  2
AcAmContextModeler
  3
DesignerAssemblies
 90
        0
280
     1
281
     0
  0
CLASS
  1
CATALOGSTATE
  2
AcAmCatalogState
  3
DesignerAssemblies
 90
        0
280
     1
281
     0
  0
CLASS
  1
ACAMGRCOMPDEFSET
  2
AcAmGrCompDefSet
  3
DesignerAssemblies
 90
        0
280
     1
281
     0
  0
CLASS
  1
AMDTBROWSERDBTAB
  2
AmdtBrowserDbTab
  3
McadcomServices
 90
        0
280
     1
281
     0
  0
CLASS
  1
CBROWSERAPPOBJECT
  2
CBrowserAppObject
  3
McadcomServices
 90
        0
280
     1
281
     0
  0
CLASS
  1
DM_PLACEHOLDER
  2
AcDmSelsetPlaceholder
  3
AcMechDwgViewMgmt
 90
        0
280
     1
281
     0
  0
CLASS
  1
ACMSTANDARDISO
  2
AcmStandardISO
  3
"Amdt_StdImp|Product Description: AutoCAD Mechanical 2004 DX|Company: Autodesk"
 90
        0
280
     1
281
     0
  0
CLASS
  1
AMDTEDGESTANDARDISO13715
  2
AmdtEdgeStdISO13715
  3
"Amdt_StdImp|Product Description: AutoCAD Mechanical 2004 DX|Company: Autodesk"
 90
        0
280
     1
281
     0
  0
CLASS
  1
ACMSURFSTANDARDISO
  2
AcmSurfTextStdISO
  3
"Amdt_StdImp|Product Description: AutoCAD Mechanical 2004 DX|Company: Autodesk"
 90
        0
280
     1
281
     0
  0
CLASS
  1
ACMFCFSTANDARDISO
  2
AcmFCFStdISO
  3
"Amdt_StdImp|Product Description: AutoCAD Mechanical 2004 DX|Company: Autodesk"
 90
        0
280
     1
281
     0
  0
CLASS
  1
ACMWELDSTANDARDISO
  2
AcmWeldingStdISO
  3
"Amdt_StdImp|Product Description: AutoCAD Mechanical 2004 DX|Company: Autodesk"
 90
        0
280
     1
281
     0
  0
CLASS
  1
ACMIDSTANDARDISO
  2
AcmIdStdISO
  3
"Amdt_StdImp|Product Description: AutoCAD Mechanical 2004 DX|Company: Autodesk"
 90
        0
280
     1
281
     0
  0
CLASS
  1
ACMDATUMSTANDARDISO
  2
AcmDatumStdISO
  3
"Amdt_StdImp|Product Description: AutoCAD Mechanical 2004 DX|Company: Autodesk"
 90
        0
280
     1
281
     0
  0
CLASS
  1
ACMBOMSTANDARDISO
  2
AcmBOMStdISO
  3
"Amdt_StdImp|Product Description: AutoCAD Mechanical 2004 DX|Company: Autodesk"
 90
        0
280
     1
281
     0
  0
CLASS
  1
ACMDETAILSTANDARDISO
  2
AmdtDetailSymStdISO
  3
"Amdt_StdImp|Product Description: AutoCAD Mechanical 2004 DX|Company: Autodesk"
 90
        0
280
     1
281
     0
  0
CLASS
  1
ACMSECTIONSTANDARDISO
  2
AmdtSectionSymStdISO
  3
"Amdt_StdImp|Product Description: AutoCAD Mechanical 2004 DX|Company: Autodesk"
 90
        0
280
     1
281
     0
  0
CLASS
  1
ACMCENTERLINESTANDARDISO
  2
AmdtCenterLineStdISO
  3
"Amdt_StdImp|Product Description: AutoCAD Mechanical 2004 DX|Company: Autodesk"
 90
        0
280
     1
281
     0
  0
CLASS
  1
ACMTHREADLINESTANDARDISO
  2
AmdtThreadLineStdISO
  3
"Amdt_StdImp|Product Description: AutoCAD Mechanical 2004 DX|Company: Autodesk"
 90
        0
280
     1
281
     0
  0
CLASS
  1
ACMNOTESTANDARDISO
  2
AmdtNoteStdISO
  3
"Amdt_StdImp|Product Description: AutoCAD Mechanical 2004 DX|Company: Autodesk"
 90
        0
280
     1
281
     0
  0
CLASS
  1
AMDTNOTETEMPLATEDB
  2
AmdtNoteTemplateDB
  3
AMDT_STDIMP_MODULE_NAME
 90
        0
280
     1
281
     0
  0
CLASS
  1
ACAMGHOLECHARTSTDISO
  2
AcAmgHoleChartStdISO
  3
ACMSYMBB_MODULE_NAME
 90
        0
280
     1
281
     0
  0
CLASS
  1
ACMTHREADLINESTANDARDJIS
  2
AmdtThreadLineStdJIS
  3
"Amdt_StdImp|Product Description: AutoCAD Mechanical 2004 DX|Company: Autodesk"
 90
        0
280
     1
281
     0
  0
CLASS
  1
ACAMGHOLECHARTSTDJIS
  2
AcAmgHoleChartStdJIS
  3
ACMSYMBB_MODULE_NAME
 90
        0
280
     1
281
     0
  0
CLASS
  1
SORTENTSTABLE
  2
AcDbSortentsTable
  3
ObjectDBX Classes
 90
        0
280
     0
281
     0
  0
ENDSEC
  0
SECTION
  2
TABLES
  0
TABLE
  2
VPORT
  5
8
330
0
100
AcDbSymbolTable
 70
     3
  0
VPORT
  5
11E36
330
8
100
AcDbSymbolTableRecord
100
AcDbViewportTableRecord
  2
*Active
 70
     0
 10
0.0
 20
0.0
 11
1.0
 21
1.0
 12
197.7626225684542
 22
-138.545029178137
 13
0.0
 23
0.0
 14
2.5
 24
2.5
 15
10.0
 25
10.0
 16
0.0
 26
0.0
 36
1.0
 17
0.0
 27
0.0
 37
0.0
 40
501.709409748998
 41
1.51114922813036
 42
50.0
 43
0.0
 44
0.0
 50
0.0
 51
0.0
 71
    16
 72
  2000
 73
     1
 74
     3
 75
     0
 76
     0
 77
     0
 78
     0
281
     0
 65
     1
110
0.0
120
0.0
130
0.0
111
1.0
121
0.0
131
0.0
112
0.0
122
1.0
132
0.0
 79
     0
146
0.0
  0
ENDTAB
  0
TABLE
  2
LTYPE
  5
5
330
0
100
AcDbSymbolTable
 70
    16
  0
LTYPE
  5
14
330
5
100
AcDbSymbolTableRecord
100
AcDbLinetypeTableRecord
  2
ByBlock
 70
     0
  3

 72
    65
 73
     0
 40
0.0
  0
LTYPE
  5
15
330
5
100
AcDbSymbolTableRecord
100
AcDbLinetypeTableRecord
  2
ByLayer
 70
     0
  3

 72
    65
 73
     0
 40
0.0
  0
LTYPE
  5
16
330
5
100
AcDbSymbolTableRecord
100
AcDbLinetypeTableRecord
  2
Continuous
 70
     0
  3
Solid line
 72
    65
 73
     0
 40
0.0
  0
LTYPE
  5
43
330
5
100
AcDbSymbolTableRecord
100
AcDbLinetypeTableRecord
  2
AM_ISO02W050
 70
     0
  3
__ __ __ __ __ __ __ __ __ __ __ __ __ __ __
 72
    65
 73
     2
 40
7.5
 49
6.0
 74
     0
 49
-1.5
 74
     0
  0
LTYPE
  5
44
330
5
100
AcDbSymbolTableRecord
100
AcDbLinetypeTableRecord
  2
AM_ISO08W050
 70
     0
  3
____ . ____ . ____ . ____ . ____ . ____ . ____
 72
    65
 73
     4
 40
18.0
 49
12.0
 74
     0
 49
-1.5
 74
     0
 49
3.0
 74
     0
 49
-1.5
 74
     0
  0
LTYPE
  5
45
330
5
100
AcDbSymbolTableRecord
100
AcDbLinetypeTableRecord
  2
AM_ISO09W050
 70
     0
  3
_____ . . _____ . . _____ . . ____ .. ____
 72
    65
 73
     6
 40
22.5
 49
12.0
 74
     0
 49
-1.5
 74
     0
 49
3.0
 74
     0
 49
-1.5
 74
     0
 49
3.0
 74
     0
 49
-1.5
 74
     0
  0
LTYPE
  5
46
330
5
100
AcDbSymbolTableRecord
100
AcDbLinetypeTableRecord
  2
Amconstr
 70
     0
  3
_______________________
 72
    65
 73
     2
 40
9999.0
 49
9999.0
 74
     0
 49
0.0
 74
     0
  0
LTYPE
  5
47
330
5
100
AcDbSymbolTableRecord
100
AcDbLinetypeTableRecord
  2
AM_ISO02W050x2
 70
     0
  3
 _ _ _ _ _ _ _ _ _ _ _ _
 72
    65
 73
     2
 40
3.75
 49
3.0
 74
     0
 49
-0.75
 74
     0
  0
LTYPE
  5
48
330
5
100
AcDbSymbolTableRecord
100
AcDbLinetypeTableRecord
  2
AM_ISO08W050x2
 70
     0
  3
__ . __ . __ . __ . __ . __
 72
    65
 73
     4
 40
9.0
 49
6.0
 74
     0
 49
-0.75
 74
     0
 49
1.5
 74
     0
 49
-0.75
 74
     0
  0
LTYPE
  5
4B
330
5
100
AcDbSymbolTableRecord
100
AcDbLinetypeTableRecord
  2
Amzigzag
 70
     0
  3
/\/-/\/-/\/-/\/-/\/-/\/
 72
    65
 73
     2
 40
11.0001
 49
0.0001
 74
     4
 75
   135
340
4A
 46
0.04
 50
0.0
 44
0.0
 45
0.0
 49
-11.0
 74
     0
  0
LTYPE
  5
188
330
5
100
AcDbSymbolTableRecord
100
AcDbLinetypeTableRecord
  2
ACJISTGB
 70
     0
  3
__ . . __ . .
 72
    65
 73
     6
 40
9.0
 49
4.0
 74
     0
 49
-1.0
 74
     0
 49
1.0
 74
     0
 49
-1.0
 74
     0
 49
1.0
 74
     0
 49
-1.0
 74
     0
  0
LTYPE
  5
189
330
5
100
AcDbSymbolTableRecord
100
AcDbLinetypeTableRecord
  2
ACJISTGL
 70
     0
  3
_ _ _ _ _
 72
    65
 73
     2
 40
3.0
 49
2.0
 74
     0
 49
-1.0
 74
     0
  0
LTYPE
  5
652
330
5
100
AcDbSymbolTableRecord
100
AcDbLinetypeTableRecord
  2
CENTER
 70
     0
  3
____ _ ____ _ ____ _ ____ _ ____ _ ____ _ ____
 72
    65
 73
     4
 40
17.5
 49
13.0
 74
     0
 49
-1.5
 74
     0
 49
1.5
 74
     0
 49
-1.5
 74
     0
  0
LTYPE
  5
12AB
330
5
100
AcDbSymbolTableRecord
100
AcDbLinetypeTableRecord
  2
HIDDEN
 70
     0
  3
Hidden __ __ __ __ __ __ __ __ __ __ __ __ __ _
 72
    65
 73
     2
 40
0.375
 49
0.25
 74
     0
 49
-0.125
 74
     0
  0
LTYPE
  5
12AC
330
5
100
AcDbSymbolTableRecord
100
AcDbLinetypeTableRecord
  2
PHANTOM2
 70
     0
  3
Phantom (.5x) ___ _ _ ___ _ _ ___ _ _ ___ _ _
 72
    65
 73
     6
 40
1.25
 49
0.625
 74
     0
 49
-0.125
 74
     0
 49
0.125
 74
     0
 49
-0.125
 74
     0
 49
0.125
 74
     0
 49
-0.125
 74
     0
  0
LTYPE
  5
9A44
330
5
100
AcDbSymbolTableRecord
100
AcDbLinetypeTableRecord
  2
ACISOWELD
 70
     0
  3
_ _ _ _ _
 72
    65
 73
     2
 40
2.0
 49
2.0
 74
     0
 49
-1.0
 74
     0
  0
LTYPE
  5
9A45
330
5
100
AcDbSymbolTableRecord
100
AcDbLinetypeTableRecord
  2
ACISOTGB
 70
     0
  3
__ . . __ . .
 72
    65
 73
     6
 40
9.0
 49
4.0
 74
     0
 49
-1.0
 74
     0
 49
1.0
 74
     0
 49
-1.0
 74
     0
 49
1.0
 74
     0
 49
-1.0
 74
     0
  0
LTYPE
  5
9A46
330
5
100
AcDbSymbolTableRecord
100
AcDbLinetypeTableRecord
  2
ACISOTGL
 70
     0
  3
_ _ _ _ _
 72
    65
 73
     2
 40
3.0
 49
2.0
 74
     0
 49
-1.0
 74
     0
  0
ENDTAB
  0
TABLE
  2
LAYER
  5
2
102
{ACAD_XDICTIONARY
360
9B25
102
}
330
0
100
AcDbSymbolTable
 70
     8
  0
LAYER
  5
10
330
2
100
AcDbSymbolTableRecord
100
AcDbLayerTableRecord
  2
0
 70
     0
 62
     7
  6
Continuous
370
    -3
390
F
  0
LAYER
  5
7D
330
2
100
AcDbSymbolTableRecord
100
AcDbLayerTableRecord
  2
AM_5
 70
     0
 62
     3
  6
Continuous
370
    13
390
F
  0
LAYER
  5
7F
330
2
100
AcDbSymbolTableRecord
100
AcDbLayerTableRecord
  2
Defpoints
 70
     0
 62
     7
  6
Continuous
290
     0
370
    -3
390
F
  0
LAYER
  5
12B1
330
2
100
AcDbSymbolTableRecord
100
AcDbLayerTableRecord
  2
AM_0
 70
     0
 62
     7
  6
Continuous
370
    30
390
F
  0
LAYER
  5
1896
330
2
100
AcDbSymbolTableRecord
100
AcDbLayerTableRecord
  2
AM_7
 70
     0
 62
     4
  6
AM_ISO08W050
370
    13
390
F
  0
LAYER
  5
2C94
330
2
100
AcDbSymbolTableRecord
100
AcDbLayerTableRecord
  2
AM_11
 70
     0
 62
     3
  6
AM_ISO09W050
370
    13
390
F
  0
ENDTAB
  0
TABLE
  2
STYLE
  5
3
330
0
100
AcDbSymbolTable
 70
     6
  0
STYLE
  5
11
330
3
100
AcDbSymbolTableRecord
100
AcDbTextStyleTableRecord
  2
STANDARD
 70
     0
 40
0.0
 41
1.0
 50
0.0
 71
     0
 42
3.0
  3
ISOCP.SHX
  4
EXTFONT.SHX
  0
STYLE
  5
4A
330
3
100
AcDbSymbolTableRecord
100
AcDbTextStyleTableRecord
  2

 70
     1
 40
0.0
 41
1.0
 50
0.0
 71
     0
 42
2.5
  3
ltypeshp.shx
  4

  0
STYLE
  5
180
330
3
100
AcDbSymbolTableRecord
100
AcDbTextStyleTableRecord
  2
ACJISTS
 70
     0
 40
1.0
 41
1.0
 50
0.0
 71
     0
 42
2.5
  3
isocp.shx
  4
bigfont.shx
  0
STYLE
  5
187
330
3
100
AcDbSymbolTableRecord
100
AcDbTextStyleTableRecord
  2
ACJISGDT
 70
     0
 40
0.0
 41
1.0
 50
0.0
 71
     0
 42
2.5
  3
amgdt.shx
  4

  0
STYLE
  5
9A36
330
3
100
AcDbSymbolTableRecord
100
AcDbTextStyleTableRecord
  2
ACISOTS
 70
     0
 40
1.0
 41
1.0
 50
0.0
 71
     0
 42
3.15
  3
isocp.shx
  4
extfont.shx
  0
STYLE
  5
9A43
330
3
100
AcDbSymbolTableRecord
100
AcDbTextStyleTableRecord
  2
ACISOGDT
 70
     0
 40
0.0
 41
1.0
 50
0.0
 71
     0
 42
3.15
  3
amgdt.shx
  4

  0
ENDTAB
  0
TABLE
  2
VIEW
  5
6
330
0
100
AcDbSymbolTable
 70
     6
  0
VIEW
  5
A30
330
6
100
AcDbSymbolTableRecord
100
AcDbViewTableRecord
  2
AM_VIEW1
 70
     0
 40
148.5
 10
108.6929657794677
 20
222.75
 41
217.3859315589354
 11
0.0
 21
0.0
 31
1.0
 12
0.0
 22
0.0
 32
0.0
 42
50.0
 43
0.0
 44
0.0
 50
0.0
 71
    16
281
     0
 72
     0
  0
VIEW
  5
A31
330
6
100
AcDbSymbolTableRecord
100
AcDbViewTableRecord
  2
AM_VIEW2
 70
     0
 40
148.5
 10
311.3070342205323
 20
222.75
 41
217.3859315589354
 11
0.0
 21
0.0
 31
1.0
 12
0.0
 22
0.0
 32
0.0
 42
50.0
 43
0.0
 44
0.0
 50
0.0
 71
    16
281
     0
 72
     0
  0
VIEW
  5
A32
330
6
100
AcDbSymbolTableRecord
100
AcDbViewTableRecord
  2
AM_VIEW3
 70
     0
 40
148.5
 10
108.6929657794677
 20
74.25
 41
217.3859315589354
 11
0.0
 21
0.0
 31
1.0
 12
0.0
 22
0.0
 32
0.0
 42
50.0
 43
0.0
 44
0.0
 50
0.0
 71
    16
281
     0
 72
     0
  0
VIEW
  5
A33
330
6
100
AcDbSymbolTableRecord
100
AcDbViewTableRecord
  2
AM_VIEW4
 70
     0
 40
148.5
 10
311.3070342205323
 20
74.25
 41
217.3859315589354
 11
0.0
 21
0.0
 31
1.0
 12
0.0
 22
0.0
 32
0.0
 42
50.0
 43
0.0
 44
0.0
 50
0.0
 71
    16
281
     0
 72
     0
  0
VIEW
  5
A34
330
6
100
AcDbSymbolTableRecord
100
AcDbViewTableRecord
  2
AM_VIEW5
 70
     0
 40
148.5
 10
210.0
 20
148.5
 41
217.3859315589353
 11
0.0
 21
0.0
 31
1.0
 12
0.0
 22
0.0
 32
0.0
 42
50.0
 43
0.0
 44
0.0
 50
0.0
 71
    16
281
     0
 72
     0
  0
VIEW
  5
A35
330
6
100
AcDbSymbolTableRecord
100
AcDbViewTableRecord
  2
AM_VIEW6
 70
     0
 40
296.99703
 10
210.0
 20
148.5
 41
434.7675153992395
 11
0.0
 21
0.0
 31
1.0
 12
0.0
 22
0.0
 32
0.0
 42
50.0
 43
0.0
 44
0.0
 50
0.0
 71
    16
281
     0
 72
     0
  0
ENDTAB
  0
TABLE
  2
UCS
  5
7
330
0
100
AcDbSymbolTable
 70
     0
  0
ENDTAB
  0
TABLE
  2
APPID
  5
9
330
0
100
AcDbSymbolTable
 70
    47
  0
APPID
  5
12
330
9
100
AcDbSymbolTableRecord
100
AcDbRegAppTableRecord
  2
ACAD
 70
     0
  0
APPID
  5
2C
330
9
100
AcDbSymbolTableRecord
100
AcDbRegAppTableRecord
  2
MCAD_NO_VIS
 70
     0
  0
APPID
  5
2D
330
9
100
AcDbSymbolTableRecord
100
AcDbRegAppTableRecord
  2
ACAD_TEMP_GRAPHIC
 70
     0
  0
APPID
  5
B9
330
9
100
AcDbSymbolTableRecord
100
AcDbRegAppTableRecord
  2
GENIUS_GENDTOL_13
 70
     0
  0
APPID
  5
359
330
9
100
AcDbSymbolTableRecord
100
AcDbRegAppTableRecord
  2
GENIUS_GENREC_14
 70
     0
  0
APPID
  5
35A
330
9
100
AcDbSymbolTableRecord
100
AcDbRegAppTableRecord
  2
GENIUS_GENODEF_13
 70
     0
  0
APPID
  5
35B
330
9
100
AcDbSymbolTableRecord
100
AcDbRegAppTableRecord
  2
GENIUS_GENOBJ-N-REC_13
 70
     0
  0
APPID
  5
667
330
9
100
AcDbSymbolTableRecord
100
AcDbRegAppTableRecord
  2
GENIUS_GENCFG_13
 70
     0
1001
GENIUS_GENCFG0_13
1000
GEN
  0
APPID
  5
668
330
9
100
AcDbSymbolTableRecord
100
AcDbRegAppTableRecord
  2
GENIUS_GENCFG0_13
 70
     0
1001
GENIUS_GENCFG_13
1071
1094015123
1000
668
1000
GEN
1070
     0
  0
APPID
  5
669
330
9
100
AcDbSymbolTableRecord
100
AcDbRegAppTableRecord
  2
GENIUS_GENCFG1_13
 70
     0
  0
APPID
  5
66A
330
9
100
AcDbSymbolTableRecord
100
AcDbRegAppTableRecord
  2
GENIUS_GENCFG2_13
 70
     0
  0
APPID
  5
66B
330
9
100
AcDbSymbolTableRecord
100
AcDbRegAppTableRecord
  2
GENIUS_GENCFG3_13
 70
     0
  0
APPID
  5
66C
330
9
100
AcDbSymbolTableRecord
100
AcDbRegAppTableRecord
  2
GENIUS_GENCFG4_13
 70
     0
  0
APPID
  5
A76
330
9
100
AcDbSymbolTableRecord
100
AcDbRegAppTableRecord
  2
GENIUS_GENBLLY_14
 70
     0
  0
APPID
  5
A77
330
9
100
AcDbSymbolTableRecord
100
AcDbRegAppTableRecord
  2
GENIUS_GENOBJ-N-CEN_13
 70
     0
  0
APPID
  5
A83
330
9
100
AcDbSymbolTableRecord
100
AcDbRegAppTableRecord
  2
GENIUS_GENTRA_14
 70
     0
  0
APPID
  5
A8D
330
9
100
AcDbSymbolTableRecord
100
AcDbRegAppTableRecord
  2
GENIUS_GENOBJ-N-TIT_13
 70
     0
  0
APPID
  5
A8E
330
9
100
AcDbSymbolTableRecord
100
AcDbRegAppTableRecord
  2
GENIUS_GENTITLE_13
 70
     0
  0
APPID
  5
A8F
330
9
100
AcDbSymbolTableRecord
100
AcDbRegAppTableRecord
  2
GENIUS_GENOENT_13
 70
     0
  0
APPID
  5
A90
330
9
100
AcDbSymbolTableRecord
100
AcDbRegAppTableRecord
  2
GENIUS_GENOREF_13
 70
     0
  0
APPID
  5
A91
330
9
100
AcDbSymbolTableRecord
100
AcDbRegAppTableRecord
  2
GENIUS_GENOLIS_13
 70
     0
  0
APPID
  5
A92
330
9
100
AcDbSymbolTableRecord
100
AcDbRegAppTableRecord
  2
GENIUS_GENZVEED_13
 70
     0
  0
APPID
  5
A93
330
9
100
AcDbSymbolTableRecord
100
AcDbRegAppTableRecord
  2
GENIUS_GENSCREG_15
 70
     0
  0
APPID
  5
A94
330
9
100
AcDbSymbolTableRecord
100
AcDbRegAppTableRecord
  2
GENIUS_GENOBJ-N-SDF_13
 70
     0
  0
APPID
  5
12B5
330
9
100
AcDbSymbolTableRecord
100
AcDbRegAppTableRecord
  2
GENIUS_GENOBJ-N-RSBK_13
 70
     0
  0
APPID
  5
12B6
330
9
100
AcDbSymbolTableRecord
100
AcDbRegAppTableRecord
  2
GENIUS_GENOBJ-N-LIB_13
 70
     0
  0
APPID
  5
12B7
330
9
100
AcDbSymbolTableRecord
100
AcDbRegAppTableRecord
  2
GENIUS_GENSCALE_13
 70
     0
  0
APPID
  5
12B8
330
9
100
AcDbSymbolTableRecord
100
AcDbRegAppTableRecord
  2
GENIUS_GENOBJ-N-HTC_13
 70
     0
  0
APPID
  5
12B9
330
9
100
AcDbSymbolTableRecord
100
AcDbRegAppTableRecord
  2
GENIUS_GENHATCH_13
 70
     0
  0
APPID
  5
189B
330
9
100
AcDbSymbolTableRecord
100
AcDbRegAppTableRecord
  2
BASE_TYPE
 70
     0
  0
APPID
  5
189C
330
9
100
AcDbSymbolTableRecord
100
AcDbRegAppTableRecord
  2
GENIUS_GENOBJ-N-FIL_13
 70
     0
  0
APPID
  5
23D0
330
9
100
AcDbSymbolTableRecord
100
AcDbRegAppTableRecord
  2
ACATTRIBSERVICES
 70
     0
  0
APPID
  5
264C
330
9
100
AcDbSymbolTableRecord
100
AcDbRegAppTableRecord
  2
GENIUS_GENSCREG_13
 70
     0
  0
APPID
  5
26E5
330
9
100
AcDbSymbolTableRecord
100
AcDbRegAppTableRecord
  2
CONTENTBLOCKICON
 70
     0
  0
APPID
  5
2747
330
9
100
AcDbSymbolTableRecord
100
AcDbRegAppTableRecord
  2
GENIUS_GENFIL_13
 70
     0
  0
APPID
  5
2748
330
9
100
AcDbSymbolTableRecord
100
AcDbRegAppTableRecord
  2
GENIUS_GENOBJ-N-CHA_13
 70
     0
  0
APPID
  5
2749
330
9
100
AcDbSymbolTableRecord
100
AcDbRegAppTableRecord
  2
GENIUS_GENDIMSH_14
 70
     0
  0
APPID
  5
274A
330
9
100
AcDbSymbolTableRecord
100
AcDbRegAppTableRecord
  2
GENIUS_GENOBJ-N-DIM_13
 70
     0
  0
APPID
  5
274B
330
9
100
AcDbSymbolTableRecord
100
AcDbRegAppTableRecord
  2
GENIUS_GENDIM_13
 70
     0
  0
APPID
  5
2A08
330
9
100
AcDbSymbolTableRecord
100
AcDbRegAppTableRecord
  2
GENIUS_GENOBJ-N-CRS_13
 70
     0
  0
APPID
  5
9A0B
330
9
100
AcDbSymbolTableRecord
100
AcDbRegAppTableRecord
  2
AD_DRAW
 70
     0
  0
APPID
  5
9A29
330
9
100
AcDbSymbolTableRecord
100
AcDbRegAppTableRecord
  2
DESIGNERASSEMBLIES
 70
     0
  0
APPID
  5
9A2F
330
9
100
AcDbSymbolTableRecord
100
AcDbRegAppTableRecord
  2
ACADM_DIM_EDIT
 70
     0
  0
APPID
  5
9A30
330
9
100
AcDbSymbolTableRecord
100
AcDbRegAppTableRecord
  2
AMDT_DM_ADJ
 70
     0
  0
APPID
  5
9B24
330
9
100
AcDbSymbolTableRecord
100
AcDbRegAppTableRecord
  2
GENIUS_GENCEN_19
 70
     0
  0
APPID
  5
A33D
330
9
100
AcDbSymbolTableRecord
100
AcDbRegAppTableRecord
  2
ACAD_DSTYLE_DIMTEXT_FILL
 70
     0
  0
APPID
  5
A33E
330
9
100
AcDbSymbolTableRecord
100
AcDbRegAppTableRecord
  2
ACAD_PSEXT
 70
     0
  0
ENDTAB
  0
TABLE
  2
DIMSTYLE
  5
A
330
0
100
AcDbSymbolTable
 70
    10
100
AcDbDimStyleTable
  0
DIMSTYLE
105
58
330
A
100
AcDbSymbolTableRecord
100
AcDbDimStyleTableRecord
  2
AM_JIS
 70
     0
  4
"
 41
2.5
 42
0.0
 43
10.0
 44
1.0
 47
0.1
 48
0.1000000001
 73
     0
 74
     0
 77
     3
 78
     1
 79
     2
140
3.8
141
0.0
143
0.0393701
146
0.71
147
1.5
172
     1
176
   256
177
   256
178
     2
179
     2
271
     3
272
     3
275
     1
283
     0
284
     8
340
11
341
59
342
59
371
    -1
372
    -1
  0
DIMSTYLE
105
5F
330
A
100
AcDbSymbolTableRecord
100
AcDbDimStyleTableRecord
  2
AM_JIS$3
 70
     0
  4
"
 41
2.5
 42
0.0
 43
10.0
 44
1.0
 47
0.1
 48
0.1000000001
 73
     0
 77
     3
 78
     1
 79
     2
140
3.8
141
0.0
143
0.0393701
146
0.71
147
1.5
172
     1
176
   256
177
   256
178
     2
179
     2
271
     3
272
     3
275
     1
283
     0
284
     8
288
     1
289
     0
340
11
341
59
342
59
371
    -1
372
    -1
  0
DIMSTYLE
105
60
330
A
100
AcDbSymbolTableRecord
100
AcDbDimStyleTableRecord
  2
AM_JIS$4
 70
     0
  4
"
 41
2.5
 42
0.0
 43
10.0
 44
1.0
 47
0.1
 48
0.1000000001
 73
     0
 77
     3
 78
     1
 79
     2
140
3.8
141
0.0
143
0.0393701
146
0.71
147
1.5
172
     1
176
   256
177
   256
178
     2
179
     2
271
     3
272
     3
275
     1
283
     0
284
     8
288
     1
289
     0
340
11
341
59
342
59
371
    -1
372
    -1
  0
DIMSTYLE
105
61
330
A
100
AcDbSymbolTableRecord
100
AcDbDimStyleTableRecord
  2
AM_JIS$6
 70
     0
  4
"
 41
2.5
 42
0.0
 43
10.0
 44
1.0
 47
0.1
 48
0.1000000001
 73
     0
 74
     0
 78
     1
 79
     2
140
3.8
141
0.0
143
0.0393701
146
0.71
147
1.5
172
     1
176
   256
177
   256
178
     2
179
     2
271
     3
272
     3
275
     1
283
     0
284
     8
340
11
341
59
342
59
371
    -1
372
    -1
  0
DIMSTYLE
105
62
330
A
100
AcDbSymbolTableRecord
100
AcDbDimStyleTableRecord
  2
AM_JIS$7
 70
     0
  4
"
 41
2.5
 42
0.0
 43
10.0
 44
1.0
 47
0.1
 48
0.1000000001
 73
     0
 74
     0
 77
     3
 78
     1
 79
     2
140
5.0
141
0.0
143
0.0393701
146
0.71
147
1.5
172
     1
176
   256
177
   256
178
     2
179
     2
271
     3
272
     3
275
     1
283
     0
284
     8
340
11
341
59
342
59
371
    -1
372
    -1
  0
DIMSTYLE
105
63
330
A
100
AcDbSymbolTableRecord
100
AcDbDimStyleTableRecord
  2
AM_JIS$SF
 70
     0
  4
"
 41
2.5
 42
1.0
 43
10.0
 44
1.0
 47
0.1
 48
0.1
 73
     0
 74
     0
 75
     1
 76
     1
 77
     3
 78
     8
 79
     2
140
3.5
141
0.0
143
0.0393701
146
0.71
147
1.5
176
   256
177
   256
178
     2
271
     2
272
     3
274
     4
340
11
341
59
342
59
343
59
344
59
371
    -1
372
    -1
  0
DIMSTYLE
105
68
330
A
100
AcDbSymbolTableRecord
100
AcDbDimStyleTableRecord
  2
AM_JIS$SH
 70
     0
  4
"
 41
2.5
 42
1.0
 43
10.0
 44
1.0
 47
0.1
 48
0.1
 73
     0
 74
     0
 75
     1
 76
     1
 77
     3
 78
     8
 79
     2
140
3.5
141
0.0
143
0.0393701
144
2.0
146
0.71
147
1.5
173
     1
176
   256
177
   256
178
     2
271
     2
272
     3
274
     4
340
11
341
59
342
59
343
64
344
59
371
    -1
372
    -1
  0
DIMSTYLE
105
65F
330
A
100
AcDbSymbolTableRecord
100
AcDbDimStyleTableRecord
  2
STANDARD
 70
     0
340
11
  0
DIMSTYLE
105
1899
102
{ACAD_REACTORS
330
10DFF
330
10E1A
102
}
330
A
100
AcDbSymbolTableRecord
100
AcDbDimStyleTableRecord
  2
AM_JIS$0
 70
     0
  4
"
 41
2.5
 42
0.0
 43
10.0
 44
1.0
 47
0.1
 48
0.1000000001
 73
     0
 74
     0
 77
     3
 78
     1
 79
     2
140
3.8
141
0.0
143
0.0393701
146
0.71
147
1.5
172
     1
176
     3
177
     3
178
     2
271
     3
272
     3
275
     1
283
     0
284
     8
289
     0
340
11
341
59
342
59
371
    13
372
    13
  0
DIMSTYLE
105
189A
102
{ACAD_REACTORS
330
10EA4
330
11BFB
102
}
330
A
100
AcDbSymbolTableRecord
100
AcDbDimStyleTableRecord
  2
AM_JIS$2
 70
     0
  4
"
 41
2.5
 42
0.0
 43
10.0
 44
1.0
 47
0.1
 48
0.1000000001
 73
     0
 74
     0
 77
     3
 78
     1
 79
     2
140
3.8
141
0.0
143
0.0393701
146
0.71
147
1.5
172
     1
176
     3
177
     3
178
     2
179
     3
271
     3
272
     3
275
     1
283
     0
284
     8
289
     0
340
11
341
59
342
59
371
    13
372
    13
  0
ENDTAB
  0
TABLE
  2
BLOCK_RECORD
  5
1
330
0
100
AcDbSymbolTable
 70
     8
  0
BLOCK_RECORD
  5
1F
102
{ACAD_XDICTIONARY
360
165
102
}
330
1
100
AcDbSymbolTableRecord
100
AcDbBlockTableRecord
  2
*Model_Space
340
22
  0
BLOCK_RECORD
  5
1B
102
{ACAD_XDICTIONARY
360
264F
102
}
330
1
100
AcDbSymbolTableRecord
100
AcDbBlockTableRecord
  2
*Paper_Space
340
1E
  0
BLOCK_RECORD
  5
23
102
{ACAD_XDICTIONARY
360
2651
102
}
330
1
100
AcDbSymbolTableRecord
100
AcDbBlockTableRecord
  2
*Paper_Space0
340
26
  0
BLOCK_RECORD
  5
59
330
1
100
AcDbSymbolTableRecord
100
AcDbBlockTableRecord
  2
_Open30
340
0
102
{BLKREFS
331
11DCF
331
11DD0
331
11DD8
331
11DD9
331
11DE1
331
11DE2
331
11DF0
331
11DF1
102
}
  0
BLOCK_RECORD
  5
64
330
1
100
AcDbSymbolTableRecord
100
AcDbBlockTableRecord
  2
GENAXEH
340
0
  0
BLOCK_RECORD
  5
9A20
330
1
100
AcDbSymbolTableRecord
100
AcDbBlockTableRecord
  2
*U3
340
0
  0
BLOCK_RECORD
  5
10EFB
330
1
100
AcDbSymbolTableRecord
100
AcDbBlockTableRecord
  2
*D4
340
0
  0
BLOCK_RECORD
  5
10F0F
330
1
100
AcDbSymbolTableRecord
100
AcDbBlockTableRecord
  2
*D5
340
0
  0
BLOCK_RECORD
  5
10FD4
330
1
100
AcDbSymbolTableRecord
100
AcDbBlockTableRecord
  2
*D6
340
0
  0
BLOCK_RECORD
  5
11BFC
330
1
100
AcDbSymbolTableRecord
100
AcDbBlockTableRecord
  2
*D7
340
0
  0
ENDTAB
  0
ENDSEC
  0
SECTION
  2
BLOCKS
  0
BLOCK
  5
20
330
1F
100
AcDbEntity
  8
0
100
AcDbBlockBegin
  2
*Model_Space
 70
     0
 71
     0
 10
0.0
 20
0.0
 30
0.0
  3
*Model_Space
  1

  0
ENDBLK
  5
21
330
1F
100
AcDbEntity
  8
0
100
AcDbBlockEnd
  0
BLOCK
  5
1C
330
1B
100
AcDbEntity
 67
     1
  8
0
100
AcDbBlockBegin
  2
*Paper_Space
 70
     0
 71
     0
 10
0.0
 20
0.0
 30
0.0
  3
*Paper_Space
  1

  0
ENDBLK
  5
1D
330
1B
100
AcDbEntity
 67
     1
  8
0
100
AcDbBlockEnd
  0
BLOCK
  5
24
330
23
100
AcDbEntity
  8
0
100
AcDbBlockBegin
  2
*Paper_Space0
 70
     0
 71
     0
 10
0.0
 20
0.0
 30
0.0
  3
*Paper_Space0
  1

  0
ENDBLK
  5
25
330
23
100
AcDbEntity
  8
0
100
AcDbBlockEnd
  0
BLOCK
  5
2F22
330
59
100
AcDbEntity
  8
0
100
AcDbBlockBegin
  2
_Open30
 70
     0
 71
     0
 10
0.0
 20
0.0
 30
0.0
  3
_Open30
  1

  0
LINE
  5
2F1F
330
59
100
AcDbEntity
  8
0
 62
     0
370
    -2
100
AcDbLine
 10
-1.0
 20
0.26794919
 30
0.0
 11
0.0
 21
0.0
 31
0.0
  0
LINE
  5
2F20
330
59
100
AcDbEntity
  8
0
 62
     0
370
    -2
100
AcDbLine
 10
0.0
 20
0.0
 30
0.0
 11
-1.0
 21
-0.26794919
 31
0.0
  0
LINE
  5
2F21
330
59
100
AcDbEntity
  8
0
 62
     0
370
    -2
100
AcDbLine
 10
0.0
 20
0.0
 30
0.0
 11
-1.0
 21
0.0
 31
0.0
  0
ENDBLK
  5
2F23
330
59
100
AcDbEntity
  8
0
100
AcDbBlockEnd
  0
BLOCK
  5
2F2E
330
64
100
AcDbEntity
  8
0
100
AcDbBlockBegin
  2
GENAXEH
 70
     0
 71
     0
 10
0.0
 20
0.0
 30
0.0
  3
GENAXEH
  1

  0
LINE
  5
2F2D
330
64
100
AcDbEntity
  8
0
100
AcDbLine
 10
-1.0
 20
0.0
 30
0.0
 11
1.0
 21
0.0
 31
0.0
  0
ENDBLK
  5
2F2F
330
64
100
AcDbEntity
  8
0
100
AcDbBlockEnd
  0
BLOCK
  5
9A21
330
9A20
100
AcDbEntity
  8
0
100
AcDbBlockBegin
  2
*U3
 70
     1
 71
     0
 10
0.0
 20
0.0
 30
0.0
  3
*U3
  1

  0
ENDBLK
  5
9A22
330
9A20
100
AcDbEntity
  8
0
100
AcDbBlockEnd
  0
BLOCK
  5
11107
330
10EFB
100
AcDbEntity
  8
0
100
AcDbBlockBegin
  2
*D4
 70
     1
 71
     0
 10
0.0
 20
0.0
 30
0.0
  3
*D4
  1

  0
LINE
  5
11DCC
330
10EFB
100
AcDbEntity
  8
AM_5
 62
     3
370
    13
100
AcDbLine
 10
-0.0000000000000568
 20
0.0
 30
0.0
 11
-0.0000000000000608
 21
-65.23628260462192
 31
0.0
  0
LINE
  5
11DCD
330
10EFB
100
AcDbEntity
  8
AM_5
 62
     3
370
    13
100
AcDbLine
 10
99.99999999999983
 20
-31.5
 30
0.0
 11
99.99999999999983
 21
-65.23628260462192
 31
0.0
  0
LINE
  5
11DCE
330
10EFB
100
AcDbEntity
  8
AM_5
 62
     3
370
    13
100
AcDbLine
 10
2.499999999999939
 20
-64.23628260462192
 30
0.0
 11
97.49999999999983
 21
-64.23628260462192
 31
0.0
  0
INSERT
  5
11DCF
330
10EFB
100
AcDbEntity
  8
AM_5
 62
     3
370
    13
100
AcDbBlockReference
  2
_Open30
 10
-0.0000000000000608
 20
-64.23628260462192
 30
0.0
 41
2.5
 42
2.5
 43
2.5
 50
180.0
  0
INSERT
  5
11DD0
330
10EFB
100
AcDbEntity
  8
AM_5
 62
     3
370
    13
100
AcDbBlockReference
  2
_Open30
 10
99.99999999999983
 20
-64.23628260462192
 30
0.0
 41
2.5
 42
2.5
 43
2.5
  0
MTEXT
  5
11DD1
330
10EFB
100
AcDbEntity
  8
AM_5
 62
     2
100
AcDbMText
 10
49.99999999999989
 20
-60.83628260462192
 30
0.0
 40
3.8
 41
0.0
 71
     5
 72
     1
  1
100
 73
     1
 44
1.0
  0
POINT
  5
11DD2
330
10EFB
100
AcDbEntity
  8
Defpoints
 62
     0
100
AcDbPoint
 10
-0.0000000000000568
 20
0.0
 30
0.0
  0
POINT
  5
11DD3
330
10EFB
100
AcDbEntity
  8
Defpoints
 62
     0
100
AcDbPoint
 10
99.99999999999983
 20
-31.5
 30
0.0
  0
POINT
  5
11DD4
330
10EFB
100
AcDbEntity
  8
Defpoints
 62
     0
100
AcDbPoint
 10
99.99999999999983
 20
-64.23628260462192
 30
0.0
  0
ENDBLK
  5
11108
330
10EFB
100
AcDbEntity
  8
0
100
AcDbBlockEnd
  0
BLOCK
  5
1110B
330
10F0F
100
AcDbEntity
  8
0
100
AcDbBlockBegin
  2
*D5
 70
     1
 71
     0
 10
0.0
 20
0.0
 30
0.0
  3
*D5
  1

  0
LINE
  5
11DD5
330
10F0F
100
AcDbEntity
  8
AM_5
 62
     3
370
    13
100
AcDbLine
 10
99.99999999999983
 20
31.49999999999997
 30
0.0
 11
158.9899171987324
 21
31.49999999999995
 31
0.0
  0
LINE
  5
11DD6
330
10F0F
100
AcDbEntity
  8
AM_5
 62
     3
370
    13
100
AcDbLine
 10
99.99999999999983
 20
-31.5
 30
0.0
 11
158.9899171987324
 21
-31.50000000000002
 31
0.0
  0
LINE
  5
11DD7
330
10F0F
100
AcDbEntity
  8
AM_5
 62
     3
370
    13
100
AcDbLine
 10
157.9899171987324
 20
28.99999999999995
 30
0.0
 11
157.9899171987324
 21
-29.00000000000002
 31
0.0
  0
INSERT
  5
11DD8
330
10F0F
100
AcDbEntity
  8
AM_5
 62
     3
370
    13
100
AcDbBlockReference
  2
_Open30
 10
157.9899171987324
 20
31.49999999999995
 30
0.0
 41
2.5
 42
2.5
 43
2.5
 50
90.0
  0
INSERT
  5
11DD9
330
10F0F
100
AcDbEntity
  8
AM_5
 62
     3
370
    13
100
AcDbBlockReference
  2
_Open30
 10
157.9899171987324
 20
-31.50000000000002
 30
0.0
 41
2.5
 42
2.5
 43
2.5
 50
270.0
  0
MTEXT
  5
11DDA
330
10F0F
100
AcDbEntity
  8
AM_5
 62
     2
100
AcDbMText
 10
154.5899171987324
 20
-0.0000000000000057
 30
0.0
 40
3.8
 41
0.0
 71
     5
 72
     1
  1
%%c63
 11
6.123031769111886E-17
 21
1.0
 31
0.0
 73
     1
 44
1.0
  0
POINT
  5
11DDB
330
10F0F
100
AcDbEntity
  8
Defpoints
 62
     0
100
AcDbPoint
 10
99.99999999999983
 20
31.49999999999997
 30
0.0
  0
POINT
  5
11DDC
330
10F0F
100
AcDbEntity
  8
Defpoints
 62
     0
100
AcDbPoint
 10
99.99999999999983
 20
-31.5
 30
0.0
  0
POINT
  5
11DDD
330
10F0F
100
AcDbEntity
  8
Defpoints
 62
     0
100
AcDbPoint
 10
157.9899171987324
 20
-31.50000000000002
 30
0.0
  0
ENDBLK
  5
1110C
330
10F0F
100
AcDbEntity
  8
0
100
AcDbBlockEnd
  0
BLOCK
  5
11131
330
10FD4
100
AcDbEntity
  8
0
100
AcDbBlockBegin
  2
*D6
 70
     1
 71
     0
 10
0.0
 20
0.0
 30
0.0
  3
*D6
  1

  0
LINE
  5
11DDE
330
10FD4
100
AcDbEntity
  8
AM_5
 62
     3
370
    13
100
AcDbLine
 10
-0.0000000000000577
 20
-12.02765046049183
 30
0.0
 11
-0.0000000000000604
 21
-43.53839848314122
 31
0.0
  0
LINE
  5
11DDF
330
10FD4
100
AcDbEntity
  8
AM_5
 62
     3
370
    13
100
AcDbLine
 10
13.97733148656408
 20
-4.99361995847744
 30
0.0
 11
40.96387328141093
 21
-13.50244390241444
 31
0.0
  0
ARC
  5
11DE0
330
10FD4
100
AcDbEntity
  8
AM_5
 62
     3
370
    13
100
AcDbCircle
 10
-0.0000000000000571
 20
-0.5865842690090144
 30
0.0
 40
41.9518142141322
100
AcDbArc
 50
273.4148857389782
 51
339.0851142610417
  0
INSERT
  5
11DE1
330
10FD4
100
AcDbEntity
  8
AM_5
 62
     3
370
    13
100
AcDbBlockReference
  2
_Open30
 10
-0.0000000000000639
 20
-42.53839848314121
 30
0.0
 41
2.5
 42
2.5
 43
2.5
 50
181.7074428694891
  0
INSERT
  5
11DE2
330
10FD4
100
AcDbEntity
  8
AM_5
 62
     3
370
    13
100
AcDbBlockReference
  2
_Open30
 10
40.0101563306626
 20
-13.2017381029105
 30
0.0
 41
2.5
 42
2.5
 43
2.5
 50
70.79255713053081
  0
MTEXT
  5
11DE3
330
10FD4
100
AcDbEntity
  8
AM_5
 62
     2
100
AcDbMText
 10
22.79583854762153
 20
-31.67618520373252
 30
0.0
 40
3.8
 41
0.0
 71
     5
 72
     1
  1
72°30'
 11
0.8064446042673803
 21
0.5913096483637218
 31
0.0
 73
     1
 44
1.0
  0
POINT
  5
11DE4
330
10FD4
100
AcDbEntity
  8
Defpoints
 62
     0
100
AcDbPoint
 10
17.17475031969658
 20
-38.86167626515117
 30
0.0
  0
POINT
  5
11DE5
330
10FD4
100
AcDbEntity
  8
Defpoints
 62
     0
100
AcDbPoint
 10
-0.0000000000000573
 20
-7.951367231498466
 30
0.0
  0
POINT
  5
11DE6
330
10FD4
100
AcDbEntity
  8
Defpoints
 62
     0
100
AcDbPoint
 10
0.5594353603963215
 20
-0.7629735605978568
 30
0.0
  0
POINT
  5
11DE7
330
10FD4
100
AcDbEntity
  8
Defpoints
 62
     0
100
AcDbPoint
 10
13.97733148656408
 20
-4.99361995847744
 30
0.0
  0
POINT
  5
11DE8
330
10FD4
100
AcDbEntity
  8
Defpoints
 62
     0
100
AcDbPoint
 10
-0.0000000000000577
 20
-12.02765046049183
 30
0.0
  0
ENDBLK
  5
11132
330
10FD4
100
AcDbEntity
  8
0
100
AcDbBlockEnd
  0
BLOCK
  5
11C3F
330
11BFC
100
AcDbEntity
  8
0
100
AcDbBlockBegin
  2
*D7
 70
     1
 71
     0
 10
0.0
 20
0.0
 30
0.0
  3
*D7
  1

  0
LINE
  5
11DE9
330
11BFC
100
AcDbEntity
  8
AM_5
 62
     3
370
    13
100
AcDbLine
 10
-1.860407618739004
 20
-0.0000000000001
 30
0.0
 11
-24.15048353144519
 21
7.028033939288261
 31
0.0
  0
LINE
  5
11DEA
330
11BFC
100
AcDbEntity
  8
AM_5
 62
     3
370
    13
100
AcDbLine
 10
-1.860407618739004
 20
-0.0000000000001
 30
0.0
 11
-24.15048353144285
 21
-7.028033939295852
 31
0.0
  0
ARC
  5
11DEB
330
11BFC
100
AcDbEntity
  8
AM_5
 62
     3
370
    13
100
AcDbCircle
 10
-1.860407618739004
 20
-0.0000000000001
 30
0.0
 40
22.37179379606952
100
AcDbArc
 50
149.6678366966793
 51
162.5000000000199
  0
LINE
  5
11DEC
330
11BFC
100
AcDbEntity
  8
AM_5
 62
     3
370
    13
100
AcDbLine
 10
-21.1697756727981
 20
11.29802916471427
 30
0.0
 11
-14.9530752917107
 21
21.9229402877208
 31
0.0
  0
ARC
  5
11DED
330
11BFC
100
AcDbEntity
  8
AM_5
 62
     3
370
    13
100
AcDbCircle
 10
-1.860407618739004
 20
-0.0000000000001
 30
0.0
 40
22.37179379606952
100
AcDbArc
 50
149.6879667083728
 51
156.0939833541964
  0
ARC
  5
11DEE
330
11BFC
100
AcDbEntity
  8
AM_5
 62
     3
370
    13
100
AcDbCircle
 10
-1.860407618739004
 20
-0.0000000000001
 30
0.0
 40
22.37179379606952
100
AcDbArc
 50
203.9060166458227
 51
210.3120332916462
  0
ARC
  5
11DEF
330
11BFC
100
AcDbEntity
  8
AM_5
 62
     3
370
    13
100
AcDbCircle
 10
-1.860407618739004
 20
-0.0000000000001
 30
0.0
 40
22.37179379606952
100
AcDbArc
 50
162.5000000000199
 51
197.4999999999992
  0
INSERT
  5
11DF0
330
11BFC
100
AcDbEntity
  8
AM_5
 62
     3
370
    13
100
AcDbBlockReference
  2
_Open30
 10
-23.19676658069686
 20
6.727328139784319
 30
0.0
 41
2.5
 42
2.5
 43
2.5
 50
249.2969916771081
  0
INSERT
  5
11DF1
330
11BFC
100
AcDbEntity
  8
AM_5
 62
     3
370
    13
100
AcDbBlockReference
  2
_Open30
 10
-23.19676658069462
 20
-6.727328139791594
 30
0.0
 41
2.5
 42
2.5
 43
2.5
 50
110.7030083229109
  0
MTEXT
  5
11DF2
330
11BFC
100
AcDbEntity
  8
AM_5
 62
     2
100
AcDbMText
 10
-20.99600694596023
 20
18.3275262612056
 30
0.0
 40
3.8
 41
0.0
 71
     5
 72
     1
  1
35°
 11
0.5050122161729618
 21
0.8631121952075951
 31
0.0
 73
     1
 44
1.0
  0
POINT
  5
11DF3
330
11BFC
100
AcDbEntity
  8
Defpoints
 62
     0
100
AcDbPoint
 10
-24.11635463546298
 20
-2.273759011555492
 30
0.0
  0
POINT
  5
11DF4
330
11BFC
100
AcDbEntity
  8
Defpoints
 62
     0
100
AcDbPoint
 10
13.97733148656226
 20
4.993619958482441
 30
0.0
  0
POINT
  5
11DF5
330
11BFC
100
AcDbEntity
  8
Defpoints
 62
     0
100
AcDbPoint
 10
0.5594353603963214
 20
-0.7629735605978567
 30
0.0
  0
POINT
  5
11DF6
330
11BFC
100
AcDbEntity
  8
Defpoints
 62
     0
100
AcDbPoint
 10
13.97733148656408
 20
-4.993619958477439
 30
0.0
  0
POINT
  5
11DF7
330
11BFC
100
AcDbEntity
  8
Defpoints
 62
     0
100
AcDbPoint
 10
0.5594353603963214
 20
0.7629735605985388
 30
0.0
  0
ENDBLK
  5
11C40
330
11BFC
100
AcDbEntity
  8
0
100
AcDbBlockEnd
  0
ENDSEC
  0
SECTION
  2
ENTITIES
  0
LINE
  5
10C19
330
1F
100
AcDbEntity
  8
AM_0
100
AcDbLine
 10
80.26684821631335
 20
26.5
 30
0.0
 11
81.12499999999983
 21
26.5
 31
0.0
  0
LINE
  5
10C1A
330
1F
100
AcDbEntity
  8
AM_0
100
AcDbLine
 10
82.87499999999983
 20
26.5
 30
0.0
 11
81.12499999999983
 21
26.5
 31
0.0
  0
LINE
  5
10C1B
330
1F
100
AcDbEntity
  8
AM_0
100
AcDbLine
 10
82.87499999999983
 20
26.5
 30
0.0
 11
83.73315178368631
 21
26.5
 31
0.0
  0
LINE
  5
10C1C
330
1F
100
AcDbEntity
  8
AM_0
100
AcDbLine
 10
78.62250092524101
 20
30.18691769624726
 30
0.0
 11
73.99999999999983
 21
30.18691769624732
 31
0.0
  0
SPLINE
  5
10C1D
330
1F
100
AcDbEntity
  8
AM_0
100
AcDbSpline
210
0.0
220
0.0
230
1.0
 70
    12
 71
     2
 72
     6
 73
     3
 74
     0
 42
0.0000000001
 43
0.0000000001
 40
0.0
 40
0.0
 40
0.0
 40
3.113143699890185
 40
3.113143699890185
 40
3.113143699890185
 10
80.12499999999983
 20
27.4603534582684
 30
0.0
 41
1.0
 10
79.40928258898269
 20
28.76489463188588
 30
0.0
 41
1.001020531935521
 10
78.62250092524101
 20
30.18691769624726
 30
0.0
 41
1.0
  0
ARC
  5
10C1E
330
1F
100
AcDbEntity
  8
AM_0
100
AcDbCircle
 10
81.22706381456811
 20
27.04086158464907
 30
0.0
 40
1.102064085650231
100
AcDbArc
 50
179.9598130706537
 51
209.3912990857484
  0
ARC
  5
10C1F
330
1F
100
AcDbEntity
  8
AM_0
100
AcDbCircle
 10
81.18393985425405
 20
-27.34889958628173
 30
0.0
 40
1.058952913756587
100
AcDbArc
 50
126.7129507495297
 51
180.2845529351275
  0
SPLINE
  5
10C20
330
1F
100
AcDbEntity
  8
AM_0
100
AcDbSpline
210
0.0
220
0.0
230
1.0
 70
    12
 71
     2
 72
     6
 73
     3
 74
     0
 42
0.0000000001
 43
0.0000000001
 40
0.0004629399900766
 40
0.0004629399900766
 40
0.0004629399900766
 40
3.089518613366919
 40
3.089518613366919
 40
3.089518613366919
 10
78.62250092524126
 20
-30.46719547316394
 30
0.0
 41
1.00000029977658
 10
79.40856857019372
 20
-29.05953270801118
 30
0.0
 41
1.001000308211577
 10
80.12499999999977
 20
-27.76816544269852
 30
0.0
 41
1.00000032891449
  0
LINE
  5
10C21
330
1F
100
AcDbEntity
  8
AM_0
100
AcDbLine
 10
73.99999999999983
 20
-30.46719547316388
 30
0.0
 11
78.62250092524101
 21
-30.46719547316388
 31
0.0
  0
LINE
  5
10C22
330
1F
100
AcDbEntity
  8
AM_0
100
AcDbLine
 10
82.87499999999983
 20
-26.5
 30
0.0
 11
83.44910893214711
 21
-26.5
 31
0.0
  0
LINE
  5
10C23
330
1F
100
AcDbEntity
  8
AM_0
100
AcDbLine
 10
81.12499999999983
 20
-26.5
 30
0.0
 11
82.87499999999983
 21
-26.5
 31
0.0
  0
LINE
  5
10C24
330
1F
100
AcDbEntity
  8
AM_0
100
AcDbLine
 10
80.55089106785346
 20
-26.5
 30
0.0
 11
81.12499999999983
 21
-26.5
 31
0.0
  0
ARC
  5
10C25
330
1F
100
AcDbEntity
  8
AM_0
100
AcDbCircle
 10
110.1751318367249
 20
47.37263673449704
 30
0.0
 40
23.9594551963814
100
AcDbArc
 50
256.298476670375
 51
277.9767128774107
  0
ARC
  5
10C26
330
1F
100
AcDbEntity
  8
AM_0
100
AcDbCircle
 10
110.1751318367249
 20
-47.37263673449706
 30
0.0
 40
23.95945519638139
100
AcDbArc
 50
82.02328712258939
 51
103.701523329625
  0
SPLINE
  5
10C27
330
1F
100
AcDbEntity
  8
AM_0
100
AcDbSpline
210
0.0
220
0.0
230
1.0
 70
     8
 71
     3
 72
     8
 73
     4
 74
     0
 42
0.0000000001
 43
0.0000000001
 40
2.048349944607707
 40
2.048349944607707
 40
2.048349944607707
 40
2.048349944607707
 40
2.082808961106547
 40
2.082808961106547
 40
2.082808961106547
 40
2.082808961106547
 10
131.9995549477388
 20
-20.29583066739818
 30
0.0
 10
131.9998543928212
 20
-20.28406332142552
 30
0.0
 10
131.9999999999998
 20
-20.27242226426827
 30
0.0
 10
131.9999999999998
 20
-20.26093592543478
 30
0.0
  0
SPLINE
  5
10C28
330
1F
100
AcDbEntity
  8
AM_0
100
AcDbSpline
210
0.0
220
0.0
230
1.0
 70
     8
 71
     3
 72
     8
 73
     4
 74
     0
 42
0.0000000001
 43
0.0000000001
 40
5.80931992843316
 40
5.80931992843316
 40
5.80931992843316
 40
5.80931992843316
 40
5.823322112792894
 40
5.823322112792894
 40
5.823322112792894
 40
5.823322112792894
 10
131.9999999999998
 20
20.28191457645241
 30
0.0
 10
131.9999999999998
 20
20.28658197123875
 30
0.0
 10
131.9999759386645
 20
20.29127491188044
 30
0.0
 10
131.9999272087096
 20
20.29599149296698
 30
0.0
  0
SPLINE
  5
10C29
330
1F
100
AcDbEntity
  8
AM_0
100
AcDbSpline
210
0.0
220
0.0
230
1.0
 70
     8
 71
     3
 72
    16
 73
    12
 74
     0
 42
0.0000000001
 43
0.0000000001
 40
-1.965007727733835
 40
-1.965007727733835
 40
-1.965007727733835
 40
-1.965007727733835
 40
-1.602152014354634
 40
-1.602152014354634
 40
-0.9617068588456064
 40
-0.9617068588456064
 40
-0.4733245765258282
 40
-0.4733245765258282
 40
-0.1927584624124154
 40
-0.1927584624124154
 40
-0.0001921708555565
 40
-0.0001921708555565
 40
-0.0001921708555565
 40
-0.0001921708555565
 10
131.9999272087096
 20
20.29616059051293
 30
0.0
 10
131.9985497967571
 20
20.38573514765719
 30
0.0
 10
131.9777411960502
 20
20.46895818018945
 30
0.0
 10
131.8688009060668
 20
20.67167276063444
 30
0.0
 10
131.7498492172834
 20
20.75496673622999
 30
0.0
 10
131.5052791745455
 20
20.83981341560863
 30
0.0
 10
131.3883213889047
 20
20.85632464283296
 30
0.0
 10
131.2016973338594
 20
20.86802084104144
 30
0.0
 10
131.1247302580803
 20
20.86965914293521
 30
0.0
 10
130.9841456870298
 20
20.87031290871798
 30
0.0
 10
130.9235914611261
 20
20.87008831058481
 30
0.0
 10
130.8599251403328
 20
20.86999999999986
 30
0.0
  0
SPLINE
  5
10C2A
330
1F
100
AcDbEntity
  8
AM_0
100
AcDbSpline
210
0.0
220
0.0
230
1.0
 70
     8
 71
     3
 72
    16
 73
    12
 74
     0
 42
0.0000000001
 43
0.0000000001
 40
-4.40429224599759
 40
-4.40429224599759
 40
-4.40429224599759
 40
-4.40429224599759
 40
-4.141910802677585
 40
-4.141910802677585
 40
-3.871634509130126
 40
-3.871634509130126
 40
-3.14310442813097
 40
-3.14310442813097
 40
-2.420961954899249
 40
-2.420961954899249
 40
-1.953365045766561
 40
-1.953365045766561
 40
-1.953365045766561
 40
-1.953365045766561
 10
130.8599251403328
 20
-20.86999999999992
 30
0.0
 10
130.9282849022018
 20
-20.86992338016992
 30
0.0
 10
130.9932432913627
 20
-20.86972611045897
 30
0.0
 10
131.117647290929
 20
-20.86778624592628
 30
0.0
 10
131.1768642359101
 20
-20.8659244406654
 30
0.0
 10
131.3774388659893
 20
-20.8538162595278
 30
0.0
 10
131.5210509055831
 20
-20.83280259993447
 30
0.0
 10
131.7695275120248
 20
-20.73018404392045
 30
0.0
 10
131.8690256417866
 20
-20.65113651526193
 30
0.0
 10
131.9713351699573
 20
-20.47232009367602
 30
0.0
 10
131.9959899172871
 20
-20.38954393635143
 30
0.0
 10
131.9995549477388
 20
-20.29595168313793
 30
0.0
  0
ARC
  5
10C2B
330
1F
100
AcDbEntity
  8
AM_0
100
AcDbCircle
 10
82.77293618543155
 20
27.04086158464907
 30
0.0
 40
1.102064085651275
100
AcDbArc
 50
330.6087009142633
 51
0.0401869293332346
  0
SPLINE
  5
10C2C
330
1F
100
AcDbEntity
  8
AM_0
100
AcDbSpline
210
0.0
220
0.0
230
1.0
 70
    12
 71
     2
 72
     6
 73
     3
 74
     0
 42
0.0000000001
 43
0.0000000001
 40
0.0
 40
0.0
 40
0.0
 40
3.113143699890207
 40
3.113143699890207
 40
3.113143699890207
 10
85.37749907475956
 20
30.18691769624726
 30
0.0
 41
1.0
 10
84.59071741102872
 20
28.76489463190686
 30
0.0
 41
1.001020531934115
 10
83.87499999999983
 20
27.4603534582684
 30
0.0
 41
1.0
  0
LINE
  5
10C2D
330
1F
100
AcDbEntity
  8
AM_0
100
AcDbLine
 10
85.99999999999983
 20
30.18691769624726
 30
0.0
 11
85.37749907475956
 21
30.18691769624726
 31
0.0
  0
ARC
  5
10C2E
330
1F
100
AcDbEntity
  8
AM_0
100
AcDbCircle
 10
85.76270651493888
 20
63.31335143878366
 30
0.0
 40
33.12728362991341
100
AcDbArc
 50
270.4104179389327
 51
286.191131660085
  0
ARC
  5
10C2F
330
1F
100
AcDbEntity
  8
AM_0
100
AcDbCircle
 10
82.8160601457455
 20
-27.34889958628264
 30
0.0
 40
1.058952913757433
100
AcDbArc
 50
359.7154470648854
 51
53.28704925043766
  0
SPLINE
  5
10C30
330
1F
100
AcDbEntity
  8
AM_0
100
AcDbSpline
210
0.0
220
0.0
230
1.0
 70
     8
 71
     3
 72
     8
 73
     4
 74
     0
 42
0.0000000001
 43
0.0000000001
 40
1.776340743961663
 40
1.776340743961663
 40
1.776340743961663
 40
1.776340743961663
 40
2.063575594279487
 40
2.063575594279487
 40
2.063575594279487
 40
2.063575594279487
 10
83.87499999999983
 20
-20.30394050424638
 30
0.0
 10
83.87499999999983
 20
-20.20819555414073
 30
0.0
 10
83.86761371479662
 20
-20.10344515595716
 30
0.0
 10
83.85145332982648
 20
-20.0
 30
0.0
  0
LINE
  5
10C31
330
1F
100
AcDbEntity
  8
AM_0
100
AcDbLine
 10
83.85145332982648
 20
-20.0
 30
0.0
 11
83.87499999999983
 21
-20.0
 31
0.0
  0
ARC
  5
10C32
330
1F
100
AcDbEntity
  8
AM_0
100
AcDbCircle
 10
81.16467654777512
 20
-17.51309475951348
 30
0.0
 40
6.647400590745968
100
AcDbArc
 50
201.9697455278646
 51
247.5156208110634
  0
LINE
  5
10C33
330
1F
100
AcDbEntity
  8
AM_0
100
AcDbLine
 10
74.99999999999983
 20
-20.0
 30
0.0
 11
78.62250092524101
 21
-20.0
 31
0.0
  0
LINE
  5
10C34
330
1F
100
AcDbEntity
  8
AM_0
100
AcDbLine
 10
78.62250092524101
 20
-20.0
 30
0.0
 11
80.12499999999983
 21
-20.0
 31
0.0
  0
LINE
  5
10C35
330
1F
100
AcDbEntity
  8
AM_0
100
AcDbLine
 10
80.12499999999983
 20
-20.0
 30
0.0
 11
80.12572598845947
 21
-20.0
 31
0.0
  0
SPLINE
  5
10C36
330
1F
100
AcDbEntity
  8
AM_0
100
AcDbSpline
210
0.0
220
0.0
230
1.0
 70
     8
 71
     3
 72
     8
 73
     4
 74
     0
 42
0.0000000001
 43
0.0000000001
 40
-1.94204761059973
 40
-1.94204761059973
 40
-1.94204761059973
 40
-1.94204761059973
 40
-1.894302822527507
 40
-1.894302822527507
 40
-1.894302822527507
 40
-1.894302822527507
 10
80.12572598845947
 20
-20.0
 30
0.0
 10
80.12524096384988
 20
-20.01797842666383
 30
0.0
 10
80.12499999999983
 20
-20.03597907479525
 30
0.0
 10
80.12499999999983
 20
-20.05399192398545
 30
0.0
  0
LINE
  5
10C37
330
1F
100
AcDbEntity
  8
AM_0
100
AcDbLine
 10
85.37749907475956
 20
-30.46719547316388
 30
0.0
 11
86.99999999999983
 21
-30.46719547316388
 31
0.0
  0
SPLINE
  5
10C38
330
1F
100
AcDbEntity
  8
AM_0
100
AcDbSpline
210
0.0
220
0.0
230
1.0
 70
    12
 71
     2
 72
     6
 73
     3
 74
     0
 42
0.0000000001
 43
0.0000000001
 40
0.0
 40
0.0
 40
0.0
 40
3.089056677703773
 40
3.089056677703773
 40
3.089056677703773
 10
83.87499999999983
 20
-27.76816544269786
 30
0.0
 41
1.0
 10
84.59143142978547
 20
-29.05953270797363
 30
0.0
 41
1.000999993556015
 10
85.37749907475956
 20
-30.46719547316388
 30
0.0
 41
1.0
  0
ARC
  5
10C39
330
1F
100
AcDbEntity
  8
AM_0
100
AcDbCircle
 10
86.83576962509483
 20
-63.23930744120844
 30
0.0
 40
32.77252346802263
100
AcDbArc
 50
75.5746650841989
 51
89.71287695489545
  0
SPLINE
  5
10C3A
330
1F
100
AcDbEntity
  8
AM_0
100
AcDbSpline
210
0.0
220
0.0
230
1.0
 70
    12
 71
     2
 72
     6
 73
     3
 74
     0
 42
0.0000000001
 43
0.0000000001
 40
0.0
 40
0.0
 40
0.0
 40
3.788582771409939
 40
3.788582771409939
 40
3.788582771409939
 10
85.37749907475956
 20
-24.33618704727542
 30
0.0
 41
1.0
 10
84.56843903976619
 20
-22.52234529161615
 30
0.0
 41
1.001661993538315
 10
83.87499999999983
 20
-20.85835592881267
 30
0.0
 41
1.0
  0
LINE
  5
10C3B
330
1F
100
AcDbEntity
  8
AM_0
100
AcDbLine
 10
83.87499999999983
 20
-20.0
 30
0.0
 11
85.37749907475956
 21
-20.0
 31
0.0
  0
LINE
  5
10C3C
330
1F
100
AcDbEntity
  8
AM_0
100
AcDbLine
 10
83.87499999999983
 20
-20.85835592881267
 30
0.0
 11
83.87499999999983
 21
-20.30394050424638
 31
0.0
  0
LINE
  5
10C3D
330
1F
100
AcDbEntity
  8
AM_0
100
AcDbLine
 10
80.12499999999983
 20
-20.05399192398545
 30
0.0
 11
80.12499999999983
 21
-20.61513046624532
 31
0.0
  0
ARC
  5
10C3E
330
1F
100
AcDbEntity
  8
AM_0
100
AcDbCircle
 10
26.61985999220161
 20
3.93761795919545
 30
0.0
 40
58.86966504488657
100
AcDbArc
 50
332.0494046668668
 51
335.350282339776
  0
ARC
  5
10C3F
330
1F
100
AcDbEntity
  8
AM_0
100
AcDbCircle
 10
88.36228254564026
 20
-17.11358135752744
 30
0.0
 40
7.238142412492669
100
AcDbArc
 50
266.2452459749703
 51
336.4981347158576
  0
LINE
  5
10C40
330
1F
100
AcDbEntity
  8
AM_0
100
AcDbLine
 10
85.37749907475956
 20
-20.0
 30
0.0
 11
94.99999999999983
 21
-20.0
 31
0.0
  0
LINE
  5
10C41
330
1F
100
AcDbEntity
  8
AM_0
100
AcDbLine
 10
87.88828609634385
 20
-24.33618704727542
 30
0.0
 11
85.37749907475956
 21
-24.33618704727542
 31
0.0
  0
LINE
  5
10C42
330
1F
100
AcDbEntity
  8
AM_0
100
AcDbLine
 10
125.9999999999998
 20
-20.86999999999992
 30
0.0
 11
130.8599251403328
 21
-20.86999999999992
 31
0.0
  0
LINE
  5
10C43
330
1F
100
AcDbEntity
  8
AM_0
100
AcDbLine
 10
121.9999999999998
 20
20.86999999999986
 30
0.0
 11
130.8599251403328
 21
20.86999999999986
 31
0.0
  0
LINE
  5
10C44
330
1F
100
AcDbEntity
  8
AM_11
  6
ACJISTGB
100
AcDbLine
 10
130.8599251403326
 20
-22.77700374298291
 30
0.0
 11
125.9999999999998
 21
-23.01999999999956
 31
0.0
  0
LINE
  5
10C45
330
1F
100
AcDbEntity
  8
AM_0
100
AcDbLine
 10
104.4999999999998
 20
-24.09500000000026
 30
0.0
 11
99.99999999999983
 21
-24.31999999999971
 31
0.0
  0
LINE
  5
10C46
330
1F
100
AcDbEntity
  8
AM_11
  6
ACJISTGB
100
AcDbLine
 10
130.8599251403327
 20
22.7770037429834
 30
0.0
 11
121.9999999999998
 21
23.22000000000026
 31
0.0
  0
LINE
  5
10C47
330
1F
100
AcDbEntity
  8
AM_0
100
AcDbLine
 10
104.4999999999998
 20
24.09500000000026
 30
0.0
 11
99.99999999999983
 21
24.32000000000062
 31
0.0
  0
LINE
  5
10C48
330
1F
100
AcDbEntity
  8
AM_0
100
AcDbLine
 10
99.99999999999983
 20
-31.5
 30
0.0
 11
94.99999999999983
 21
-31.5
 31
0.0
  0
LINE
  5
10C49
330
1F
100
AcDbEntity
  8
AM_0
100
AcDbLine
 10
99.99999999999983
 20
31.49999999999997
 30
0.0
 11
94.99999999999983
 21
31.49999999999997
 31
0.0
  0
LINE
  5
10C4A
330
1F
100
AcDbEntity
  8
AM_0
100
AcDbLine
 10
73.99999999999983
 20
30.18691769624732
 30
0.0
 11
73.99999999999983
 21
-30.46719547316388
 31
0.0
  0
LINE
  5
10C4B
330
1F
100
AcDbEntity
  8
AM_11
  6
ACJISTGB
100
AcDbLine
 10
131.9999999999997
 20
21.57850093632985
 30
0.0
 11
131.9999999999997
 21
20.28895312868855
 31
0.0
  0
LINE
  5
10C4C
330
1F
100
AcDbEntity
  8
AM_0
100
AcDbLine
 10
125.9999999999998
 20
-20.86999999999992
 30
0.0
 11
125.9999999999998
 21
-23.01999999999956
 31
0.0
  0
LINE
  5
10C4D
330
1F
100
AcDbEntity
  8
AM_0
100
AcDbLine
 10
121.9999999999998
 20
23.22000000000023
 30
0.0
 11
121.9999999999998
 21
20.86999999999986
 31
0.0
  0
LINE
  5
10C4E
330
1F
100
AcDbEntity
  8
AM_0
100
AcDbLine
 10
82.87499999999983
 20
26.5
 30
0.0
 11
82.87499999999983
 21
-26.5
 31
0.0
  0
LINE
  5
10C4F
330
1F
100
AcDbEntity
  8
AM_0
100
AcDbLine
 10
78.62250092524101
 20
-23.65518542296377
 30
0.0
 11
78.62250092524101
 21
-30.46719547316388
 31
0.0
  0
LINE
  5
10C50
330
1F
100
AcDbEntity
  8
AM_0
100
AcDbLine
 10
78.62250092524101
 20
30.18691769624726
 30
0.0
 11
78.62250092524101
 21
-20.0
 31
0.0
  0
LINE
  5
10C51
330
1F
100
AcDbEntity
  8
AM_0
100
AcDbLine
 10
81.12499999999983
 20
26.5
 30
0.0
 11
81.12499999999983
 21
-26.5
 31
0.0
  0
LINE
  5
10C52
330
1F
100
AcDbEntity
  8
AM_0
100
AcDbLine
 10
80.12499999999983
 20
27.4603534582684
 30
0.0
 11
80.12499999999983
 21
-20.0
 31
0.0
  0
LINE
  5
10C53
330
1F
100
AcDbEntity
  8
AM_0
100
AcDbLine
 10
85.37749907475956
 20
-24.33618704727542
 30
0.0
 11
85.37749907475956
 21
-30.46719547316388
 31
0.0
  0
LINE
  5
10C54
330
1F
100
AcDbEntity
  8
AM_0
100
AcDbLine
 10
83.87499999999983
 20
-20.85835592881267
 30
0.0
 11
83.87499999999983
 21
-27.76816544269786
 31
0.0
  0
LINE
  5
10C55
330
1F
100
AcDbEntity
  8
AM_0
100
AcDbLine
 10
83.87499999999983
 20
27.4603534582684
 30
0.0
 11
83.87499999999983
 21
-20.0
 31
0.0
  0
LINE
  5
10C56
330
1F
100
AcDbEntity
  8
AM_0
100
AcDbLine
 10
85.37749907475956
 20
30.18691769624726
 30
0.0
 11
85.37749907475956
 21
-20.0
 31
0.0
  0
LINE
  5
10C57
330
1F
100
AcDbEntity
  8
AM_0
100
AcDbLine
 10
80.12499999999983
 20
-20.61513046624532
 30
0.0
 11
80.12499999999983
 21
-27.76816544269786
 31
0.0
  0
LINE
  5
10C58
330
1F
100
AcDbEntity
  8
AM_0
100
AcDbLine
 10
99.99999999999983
 20
31.49999999999997
 30
0.0
 11
99.99999999999983
 21
-31.5
 31
0.0
  0
ARC
  5
10C59
330
1F
100
AcDbEntity
  8
AM_0
100
AcDbCircle
 10
74.00000296306712
 20
-142.0306206603709
 30
0.0
 40
3.000002963068777
100
AcDbArc
 50
180.000056590357
 51
269.99994340963
  0
ARC
  5
10C5A
330
1F
100
AcDbEntity
  8
AM_0
100
AcDbCircle
 10
74.00000296306712
 20
-132.0306265865056
 30
0.0
 40
3.000002963068682
100
AcDbArc
 50
90.00005659035696
 51
179.99994340963
  0
LINE
  5
10C5B
330
1F
100
AcDbEntity
  8
AM_0
100
AcDbLine
 10
80.12499999999983
 20
-129.0306236234383
 30
0.0
 11
80.55089106785346
 21
-129.0306236234383
 31
0.0
  0
LINE
  5
10C5C
330
1F
100
AcDbEntity
  8
AM_0
100
AcDbLine
 10
78.62250092524101
 20
-129.0306236234383
 30
0.0
 11
80.12499999999983
 21
-129.0306236234383
 31
0.0
  0
LINE
  5
10C5D
330
1F
100
AcDbEntity
  8
AM_0
100
AcDbLine
 10
73.99999999999983
 20
-129.0306236234383
 30
0.0
 11
78.62250092524101
 21
-129.0306236234383
 31
0.0
  0
SPLINE
  5
10C5E
330
1F
100
AcDbEntity
  8
AM_0
100
AcDbSpline
210
0.0
220
0.0
230
1.0
 70
     8
 71
     3
 72
    16
 73
    12
 74
     0
 42
0.0000000001
 43
0.0000000001
 40
5.956346460088473
 40
5.956346460088473
 40
5.956346460088473
 40
5.956346460088473
 40
6.062495147234408
 40
6.062495147234408
 40
6.202228077623816
 40
6.202228077623816
 40
6.481227230306896
 40
6.481227230306896
 40
6.760226382989976
 40
6.760226382989976
 40
6.821665582602051
 40
6.821665582602051
 40
6.821665582602051
 40
6.821665582602051
 10
81.12499999999983
 20
-144.3790928517883
 30
0.0
 10
81.08961710428486
 20
-144.3790928517883
 30
0.0
 10
81.04813229074426
 20
-144.3881381406609
 30
0.0
 10
80.97233621819652
 20
-144.4193228383292
 30
0.0
 10
80.92628912424772
 20
-144.4510042497959
 30
0.0
 10
80.82188818054493
 20
-144.5436448600294
 30
0.0
 10
80.76196998417782
 20
-144.6243849439115
 30
0.0
 10
80.65693494041881
 20
-144.7967772673037
 30
0.0
 10
80.61211209848699
 20
-144.8886084664055
 30
0.0
 10
80.56676426349242
 20
-144.9926332692512
 30
0.0
 10
80.55874944121007
 20
-145.0115578002306
 30
0.0
 10
80.55089106785346
 20
-145.0306236234383
 30
0.0
  0
LINE
  5
10C5F
330
1F
100
AcDbEntity
  8
AM_0
100
AcDbLine
 10
82.87499999999983
 20
-144.3790928517883
 30
0.0
 11
81.12499999999983
 21
-144.3790928517883
 31
0.0
  0
SPLINE
  5
10C60
330
1F
100
AcDbEntity
  8
AM_0
100
AcDbSpline
210
0.0
220
0.0
230
1.0
 70
     8
 71
     3
 72
    16
 73
    12
 74
     0
 42
0.0000000001
 43
0.0000000001
 40
5.091027337574894
 40
5.091027337574894
 40
5.091027337574894
 40
5.091027337574894
 40
5.15246653718697
 40
5.15246653718697
 40
5.43146568987005
 40
5.43146568987005
 40
5.71046484255313
 40
5.71046484255313
 40
5.850197772942538
 40
5.850197772942538
 40
5.956346460088473
 40
5.956346460088473
 40
5.956346460088473
 40
5.956346460088473
 10
83.44910893214711
 20
-145.0306236234383
 30
0.0
 10
83.4412505587905
 20
-145.0115578002306
 30
0.0
 10
83.43323573650815
 20
-144.9926332692512
 30
0.0
 10
83.38788790151358
 20
-144.8886084664055
 30
0.0
 10
83.34306505958085
 20
-144.7967772673037
 30
0.0
 10
83.23803001582274
 20
-144.6243849439115
 30
0.0
 10
83.17811181945564
 20
-144.5436448600294
 30
0.0
 10
83.07371087575194
 20
-144.4510042497959
 30
0.0
 10
83.02766378180405
 20
-144.4193228383292
 30
0.0
 10
82.9518677092554
 20
-144.3881381406609
 30
0.0
 10
82.91038289571571
 20
-144.3790928517883
 30
0.0
 10
82.87499999999983
 20
-144.3790928517883
 30
0.0
  0
SPLINE
  5
10C61
330
1F
100
AcDbEntity
  8
AM_0
100
AcDbSpline
210
0.0
220
0.0
230
1.0
 70
     8
 71
     3
 72
    16
 73
    12
 74
     0
 42
0.0000000001
 43
0.0000000001
 40
5.956346460088472
 40
5.956346460088472
 40
5.956346460088472
 40
5.956346460088472
 40
6.062495147234407
 40
6.062495147234407
 40
6.202228077623815
 40
6.202228077623815
 40
6.481227230306895
 40
6.481227230306895
 40
6.760226382989975
 40
6.760226382989975
 40
6.821665582602113
 40
6.821665582602113
 40
6.821665582602113
 40
6.821665582602113
 10
82.87499999999983
 20
-129.6821543950891
 30
0.0
 10
82.91038289571571
 20
-129.6821543950891
 30
0.0
 10
82.9518677092554
 20
-129.6731091062165
 30
0.0
 10
83.02766378180405
 20
-129.6419244085482
 30
0.0
 10
83.07371087575194
 20
-129.6102429970815
 30
0.0
 10
83.17811181945564
 20
-129.517602386848
 30
0.0
 10
83.23803001582274
 20
-129.4368623029659
 30
0.0
 10
83.34306505958085
 20
-129.2644699795737
 30
0.0
 10
83.38788790151358
 20
-129.172638780472
 30
0.0
 10
83.43323573650815
 20
-129.0686139776253
 30
0.0
 10
83.4412505587905
 20
-129.0496894466469
 30
0.0
 10
83.44910893214711
 20
-129.0306236234383
 30
0.0
  0
LINE
  5
10C62
330
1F
100
AcDbEntity
  8
AM_0
100
AcDbLine
 10
81.12499999999983
 20
-129.6821543950891
 30
0.0
 11
82.87499999999983
 21
-129.6821543950891
 31
0.0
  0
SPLINE
  5
10C63
330
1F
100
AcDbEntity
  8
AM_0
100
AcDbSpline
210
0.0
220
0.0
230
1.0
 70
     8
 71
     3
 72
    16
 73
    12
 74
     0
 42
0.0000000001
 43
0.0000000001
 40
5.091027337574832
 40
5.091027337574832
 40
5.091027337574832
 40
5.091027337574832
 40
5.152466537186969
 40
5.152466537186969
 40
5.431465689870049
 40
5.431465689870049
 40
5.71046484255313
 40
5.71046484255313
 40
5.850197772942537
 40
5.850197772942537
 40
5.956346460088472
 40
5.956346460088472
 40
5.956346460088472
 40
5.956346460088472
 10
80.55089106785346
 20
-129.0306236234383
 30
0.0
 10
80.55874944121007
 20
-129.0496894466469
 30
0.0
 10
80.56676426349242
 20
-129.0686139776253
 30
0.0
 10
80.61211209848699
 20
-129.172638780472
 30
0.0
 10
80.65693494041881
 20
-129.2644699795737
 30
0.0
 10
80.76196998417782
 20
-129.4368623029659
 30
0.0
 10
80.82188818054493
 20
-129.517602386848
 30
0.0
 10
80.92628912424772
 20
-129.6102429970815
 30
0.0
 10
80.97233621819652
 20
-129.6419244085482
 30
0.0
 10
81.04813229074426
 20
-129.6731091062165
 30
0.0
 10
81.08961710428486
 20
-129.6821543950891
 30
0.0
 10
81.12499999999983
 20
-129.6821543950891
 30
0.0
  0
LINE
  5
10C64
330
1F
100
AcDbEntity
  8
AM_0
100
AcDbLine
 10
78.62250092524101
 20
-145.0306236234383
 30
0.0
 11
73.99999999999983
 21
-145.0306236234383
 31
0.0
  0
LINE
  5
10C65
330
1F
100
AcDbEntity
  8
AM_0
100
AcDbLine
 10
78.62250092524101
 20
-145.0306236234383
 30
0.0
 11
80.12499999999983
 21
-145.0306236234383
 31
0.0
  0
LINE
  5
10C66
330
1F
100
AcDbEntity
  8
AM_0
100
AcDbLine
 10
80.12499999999983
 20
-145.0306236234383
 30
0.0
 11
80.55089106785346
 21
-145.0306236234383
 31
0.0
  0
ARC
  5
10C67
330
1F
100
AcDbEntity
  8
AM_0
100
AcDbCircle
 10
92.9611987334863
 20
-200.117063550827
 30
0.0
 40
31.98582038169304
100
AcDbArc
 50
80.93630643191762
 51
89.930495784383
  0
ARC
  5
10C68
330
1F
100
AcDbEntity
  8
AM_0
100
AcDbCircle
 10
93.03880126651416
 20
-200.1170635508242
 30
0.0
 40
31.98582038169042
100
AcDbArc
 50
90.06950421560396
 51
99.06369356809559
  0
ARC
  5
10C69
330
1F
100
AcDbEntity
  8
AM_0
100
AcDbCircle
 10
108.9999999999998
 20
-137.0306236234383
 30
0.0
 40
4.499999999999965
100
AcDbArc
 50
228.8076280850552
 51
131.1923719149448
  0
ARC
  5
10C6A
330
1F
100
AcDbEntity
  8
AM_0
100
AcDbCircle
 10
109.0000000025273
 20
-137.0306236234383
 30
0.0
 40
4.500000001664618
100
AcDbArc
 50
131.1923719391818
 51
228.8076280608183
  0
CIRCLE
  5
10C6B
330
1F
100
AcDbEntity
  8
AM_0
100
AcDbCircle
 10
108.9999999999998
 20
-137.0306236234383
 30
0.0
 40
4.500000000000006
  0
LINE
  5
10C6C
330
1F
100
AcDbEntity
  8
AM_0
100
AcDbLine
 10
129.9999999999998
 20
-130.8181236234386
 30
0.0
 11
131.9999999999998
 21
-129.6634230850596
 31
0.0
  0
LINE
  5
10C6D
330
1F
100
AcDbEntity
  8
AM_0
100
AcDbLine
 10
129.9999999999998
 20
-143.2431236234388
 30
0.0
 11
127.4999999999998
 21
-143.2431236234388
 31
0.0
  0
LINE
  5
10C6E
330
1F
100
AcDbEntity
  8
AM_0
100
AcDbLine
 10
127.4999999999998
 20
-130.8181236234386
 30
0.0
 11
129.9999999999998
 21
-130.8181236234386
 31
0.0
  0
LINE
  5
10C6F
330
1F
100
AcDbEntity
  8
AM_0
100
AcDbLine
 10
131.9995549477388
 20
-129.6061800361022
 30
0.0
 11
131.9999999999998
 21
-129.6059230850597
 31
0.0
  0
LINE
  5
10C70
330
1F
100
AcDbEntity
  8
AM_0
100
AcDbLine
 10
129.9999999999998
 20
-143.2431236234388
 30
0.0
 11
131.9999999999998
 21
-144.3978241618179
 31
0.0
  0
LINE
  5
10C71
330
1F
100
AcDbEntity
  8
AM_0
100
AcDbLine
 10
131.9995549477388
 20
-144.4550672107753
 30
0.0
 11
131.9999999999998
 21
-144.4553241618178
 31
0.0
  0
SPLINE
  5
10C72
330
1F
100
AcDbEntity
  8
AM_0
100
AcDbSpline
210
0.0
220
0.0
230
1.0
 70
     8
 71
     3
 72
    16
 73
    12
 74
     0
 42
0.0000000001
 43
0.0000000001
 40
-1.936088707179519
 40
-1.936088707179519
 40
-1.936088707179519
 40
-1.936088707179519
 40
-1.618608641566384
 40
-1.618608641566384
 40
-0.9853554418149393
 40
-0.9853554418149393
 40
-0.4905148334691103
 40
-0.4905148334691103
 40
-0.2011422780024802
 40
-0.2011422780024802
 40
-0.0002750058701333
 40
-0.0002750058701333
 40
-0.0002750058701333
 40
-0.0002750058701333
 10
131.9995549477388
 20
-144.4550672107753
 30
0.0
 10
131.9963835781953
 20
-144.5663227797641
 30
0.0
 10
131.9764826641538
 20
-144.6833833421833
 30
0.0
 10
131.8782639048885
 20
-145.0414017340127
 30
0.0
 10
131.7642459662318
 20
-145.2834974474063
 30
0.0
 10
131.5236055181738
 20
-145.6647379506758
 30
0.0
 10
131.4057453538397
 20
-145.8130078890981
 30
0.0
 10
131.2150731057471
 20
-145.9908904859631
 30
0.0
 10
131.1356191136491
 20
-146.0519754343404
 30
0.0
 10
130.9896345937039
 20
-146.1248573895427
 30
0.0
 10
130.9263816550345
 20
-146.146097156442
 30
0.0
 10
130.8599251403328
 20
-146.1542221837772
 30
0.0
  0
SPLINE
  5
10C73
330
1F
100
AcDbEntity
  8
AM_0
100
AcDbSpline
210
0.0
220
0.0
230
1.0
 70
     8
 71
     3
 72
    16
 73
    12
 74
     0
 42
0.0000000001
 43
0.0000000001
 40
-4.40429224599759
 40
-4.40429224599759
 40
-4.40429224599759
 40
-4.40429224599759
 40
-4.141910802677585
 40
-4.141910802677585
 40
-3.871634509130126
 40
-3.871634509130126
 40
-3.14310442813097
 40
-3.14310442813097
 40
-2.420961954899249
 40
-2.420961954899249
 40
-1.953365045766561
 40
-1.953365045766561
 40
-1.953365045766561
 40
-1.953365045766561
 10
130.8599251403328
 20
-127.9070250631003
 30
0.0
 10
130.9282849022018
 20
-127.9153827829759
 30
0.0
 10
130.9932432913627
 20
-127.9376179588053
 30
0.0
 10
131.117647290929
 20
-128.0009405614119
 30
0.0
 10
131.1768642359101
 20
-128.0425678958463
 30
0.0
 10
131.3774388659893
 20
-128.2103188620322
 30
0.0
 10
131.5210509055831
 20
-128.3878494821984
 30
0.0
 10
131.7695275120248
 20
-128.7913420349805
 30
0.0
 10
131.8690256417866
 20
-129.0068177174626
 30
0.0
 10
131.9713351699573
 20
-129.3489944306002
 30
0.0
 10
131.9959899172871
 20
-129.481114355197
 30
0.0
 10
131.9995549477388
 20
-129.6061800361022
 30
0.0
  0
ARC
  5
10C74
330
1F
100
AcDbEntity
  8
AM_0
100
AcDbCircle
 10
134.7173831895123
 20
-90.95992515232683
 30
0.0
 40
37.14792288160733
100
AcDbArc
 50
259.2369973264142
 51
264.0396343738103
  0
ARC
  5
10C75
330
1F
100
AcDbEntity
  8
AM_0
100
AcDbCircle
 10
134.7173831895086
 20
-183.1013220945233
 30
0.0
 40
37.14792288157967
100
AcDbArc
 50
95.96036562618976
 51
100.7630026735891
  0
LINE
  5
10C76
330
1F
100
AcDbEntity
  8
AM_0
100
AcDbLine
 10
83.87499999999983
 20
-145.0306236234383
 30
0.0
 11
85.37749907475956
 21
-145.0306236234383
 31
0.0
  0
LINE
  5
10C77
330
1F
100
AcDbEntity
  8
AM_0
100
AcDbLine
 10
83.44910893214711
 20
-145.0306236234383
 30
0.0
 11
83.87499999999983
 21
-145.0306236234383
 31
0.0
  0
LINE
  5
10C78
330
1F
100
AcDbEntity
  8
AM_0
100
AcDbLine
 10
83.44910893214711
 20
-129.0306236234383
 30
0.0
 11
83.87499999999983
 21
-129.0306236234383
 31
0.0
  0
LINE
  5
10C79
330
1F
100
AcDbEntity
  8
AM_0
100
AcDbLine
 10
83.85145332982648
 20
-117.0306236234383
 30
0.0
 11
83.87499999999983
 21
-117.0306236234383
 31
0.0
  0
SPLINE
  5
10C7A
330
1F
100
AcDbEntity
  8
AM_0
100
AcDbSpline
210
0.0
220
0.0
230
1.0
 70
     8
 71
     3
 72
     8
 73
     4
 74
     0
 42
0.0000000001
 43
0.0000000001
 40
-2.06357559427948
 40
-2.06357559427948
 40
-2.06357559427948
 40
-2.06357559427948
 40
-1.776340743961663
 40
-1.776340743961663
 40
-1.776340743961663
 40
-1.776340743961663
 10
83.85145332982648
 20
-117.0306236234383
 30
0.0
 10
83.86761371479662
 20
-116.9271784674811
 30
0.0
 10
83.87499999999983
 20
-116.8224280692975
 30
0.0
 10
83.87499999999983
 20
-116.7266831191919
 30
0.0
  0
ARC
  5
10C7B
330
1F
100
AcDbEntity
  8
AM_0
100
AcDbCircle
 10
82.11262327255986
 20
-109.0296917906589
 30
0.0
 40
8.001235164662798
100
AcDbArc
 50
207.2595688438603
 51
244.1384544096972
  0
LINE
  5
10C7C
330
1F
100
AcDbEntity
  8
AM_0
100
AcDbLine
 10
74.99999999999983
 20
-112.6944365761628
 30
0.0
 11
78.62250092524101
 21
-112.6944365761628
 31
0.0
  0
SPLINE
  5
10C7D
330
1F
100
AcDbEntity
  8
AM_0
100
AcDbSpline
210
0.0
220
0.0
230
1.0
 70
    12
 71
     2
 72
     6
 73
     3
 74
     0
 42
0.0000000001
 43
0.0000000001
 40
0.0
 40
0.0
 40
0.0
 40
3.788582771409915
 40
3.788582771409915
 40
3.788582771409915
 10
78.62250092524101
 20
-112.6944365761628
 30
0.0
 41
1.0
 10
79.43156096023348
 20
-114.508278331823
 30
0.0
 41
1.001661993538562
 10
80.12499999999983
 20
-116.1722676946256
 30
0.0
 41
1.0
  0
SPLINE
  5
10C7E
330
1F
100
AcDbEntity
  8
AM_0
100
AcDbSpline
210
0.0
220
0.0
230
1.0
 70
     8
 71
     3
 72
     8
 73
     4
 74
     0
 42
0.0000000001
 43
0.0000000001
 40
1.776340743961663
 40
1.776340743961663
 40
1.776340743961663
 40
1.776340743961663
 40
1.82900694760964
 40
1.82900694760964
 40
1.82900694760964
 40
1.82900694760964
 10
80.12499999999983
 20
-116.7266831191919
 30
0.0
 10
80.12499999999983
 20
-116.7442385204076
 30
0.0
 10
80.12523506934014
 20
-116.7620970154712
 30
0.0
 10
80.12572598845947
 20
-116.780194708389
 30
0.0
  0
SPLINE
  5
10C7F
330
1F
100
AcDbEntity
  8
AM_0
100
AcDbSpline
210
0.0
220
0.0
230
1.0
 70
    24
 71
     3
 72
     8
 73
     4
 74
     0
 42
0.0000000001
 43
0.0000000001
 40
-1.94204761059973
 40
-1.94204761059973
 40
-1.94204761059973
 40
-1.94204761059973
 40
-1.894302822527507
 40
-1.894302822527507
 40
-1.894302822527507
 40
-1.894302822527507
 10
80.12572598845947
 20
-116.780194708389
 30
0.0
 10
80.12524096384988
 20
-116.7800704107985
 30
0.0
 10
80.12499999999983
 20
-116.7800086225871
 30
0.0
 10
80.12499999999983
 20
-116.7800086225871
 30
0.0
  0
LINE
  5
10C80
330
1F
100
AcDbEntity
  8
AM_0
100
AcDbLine
 10
80.12499999999983
 20
-116.1722676946256
 30
0.0
 11
80.12499999999983
 21
-116.7266831191919
 31
0.0
  0
LINE
  5
10C81
330
1F
100
AcDbEntity
  8
AM_0
100
AcDbLine
 10
86.99999999999983
 20
-145.0306236234383
 30
0.0
 11
85.37749907475956
 21
-145.0306236234383
 31
0.0
  0
LINE
  5
10C82
330
1F
100
AcDbEntity
  8
AM_0
100
AcDbLine
 10
85.37749907475956
 20
-129.0306236234383
 30
0.0
 11
86.99999999999983
 21
-129.0306236234383
 31
0.0
  0
LINE
  5
10C83
330
1F
100
AcDbEntity
  8
AM_0
100
AcDbLine
 10
83.87499999999983
 20
-129.0306236234383
 30
0.0
 11
85.37749907475956
 21
-129.0306236234383
 31
0.0
  0
ARC
  5
10C84
330
1F
100
AcDbEntity
  8
AM_0
100
AcDbCircle
 10
86.99999999999977
 20
-137.0306236234383
 30
0.0
 40
8.000000000000057
100
AcDbArc
 50
270.0
 51
90.0
  0
LINE
  5
10C85
330
1F
100
AcDbEntity
  8
AM_0
100
AcDbLine
 10
83.87499999999983
 20
-117.0306236234383
 30
0.0
 11
85.37749907475956
 21
-117.0306236234383
 31
0.0
  0
SPLINE
  5
10C86
330
1F
100
AcDbEntity
  8
AM_0
100
AcDbSpline
210
0.0
220
0.0
230
1.0
 70
    12
 71
     2
 72
     6
 73
     3
 74
     0
 42
0.0000000001
 43
0.0000000001
 40
0.0
 40
0.0
 40
0.0
 40
3.788582771409939
 40
3.788582771409939
 40
3.788582771409939
 10
83.87499999999983
 20
-116.1722676946256
 30
0.0
 41
1.0
 10
84.56843903976619
 20
-114.508278331823
 30
0.0
 41
1.001661993538315
 10
85.37749907475956
 20
-112.6944365761628
 30
0.0
 41
1.0
  0
LINE
  5
10C87
330
1F
100
AcDbEntity
  8
AM_0
100
AcDbLine
 10
83.87499999999983
 20
-116.7266831191919
 30
0.0
 11
83.87499999999983
 21
-116.1722676946256
 31
0.0
  0
ARC
  5
10C88
330
1F
100
AcDbEntity
  8
AM_0
100
AcDbCircle
 10
82.11112374154141
 20
-109.0322346679532
 30
0.0
 40
7.99829286590654
100
AcDbArc
 50
244.1401747691824
 51
255.6219705914313
  0
ARC
  5
10C89
330
1F
100
AcDbEntity
  8
AM_0
100
AcDbCircle
 10
87.88808799367484
 20
-109.0302987182877
 30
0.0
 40
8.000324907604083
100
AcDbArc
 50
270.0014187482344
 51
332.7419619425979
  0
LINE
  5
10C8A
330
1F
100
AcDbEntity
  8
AM_0
100
AcDbLine
 10
85.37749907475956
 20
-112.6944365761628
 30
0.0
 11
94.99999999999983
 21
-112.6944365761628
 31
0.0
  0
LINE
  5
10C8B
330
1F
100
AcDbEntity
  8
AM_0
100
AcDbLine
 10
87.88828609634385
 20
-117.0306236234383
 30
0.0
 11
85.37749907475956
 21
-117.0306236234383
 31
0.0
  0
LINE
  5
10C8C
330
1F
100
AcDbEntity
  8
AM_0
100
AcDbLine
 10
130.8599251403328
 20
-159.8076273664219
 30
0.0
 11
99.99999999999983
 21
-161.3506236234389
 31
0.0
  0
LINE
  5
10C8D
330
1F
100
AcDbEntity
  8
AM_0
100
AcDbLine
 10
130.8599251403328
 20
-114.2536198804555
 30
0.0
 11
99.99999999999983
 21
-112.7106236234386
 31
0.0
  0
LINE
  5
10C8E
330
1F
100
AcDbEntity
  8
AM_0
100
AcDbLine
 10
83.87499999999983
 20
-165.9282188876305
 30
0.0
 11
85.37749907475956
 21
-168.5306236234383
 31
0.0
  0
LINE
  5
10C8F
330
1F
100
AcDbEntity
  8
AM_0
100
AcDbLine
 10
78.62250092524101
 20
-168.5306236234383
 30
0.0
 11
73.99999999999983
 21
-168.5306236234383
 31
0.0
  0
LINE
  5
10C90
330
1F
100
AcDbEntity
  8
AM_0
100
AcDbLine
 10
78.62250092524101
 20
-105.5306236234383
 30
0.0
 11
73.99999999999983
 21
-105.5306236234383
 31
0.0
  0
LINE
  5
10C91
330
1F
100
AcDbEntity
  8
AM_0
100
AcDbLine
 10
82.87499999999983
 20
-164.5306236234383
 30
0.0
 11
81.12499999999983
 21
-164.5306236234383
 31
0.0
  0
LINE
  5
10C92
330
1F
100
AcDbEntity
  8
AM_0
100
AcDbLine
 10
82.87499999999983
 20
-109.5306236234383
 30
0.0
 11
81.12499999999983
 21
-109.5306236234383
 31
0.0
  0
LINE
  5
10C93
330
1F
100
AcDbEntity
  8
AM_0
100
AcDbLine
 10
80.12499999999983
 20
-165.9282188876305
 30
0.0
 11
78.62250092524101
 21
-168.5306236234383
 31
0.0
  0
LINE
  5
10C94
330
1F
100
AcDbEntity
  8
AM_0
100
AcDbLine
 10
80.12499999999983
 20
-108.133028359247
 30
0.0
 11
78.62250092524101
 21
-105.5306236234383
 31
0.0
  0
LINE
  5
10C95
330
1F
100
AcDbEntity
  8
AM_0
100
AcDbLine
 10
83.87499999999983
 20
-108.133028359247
 30
0.0
 11
85.37749907475956
 21
-105.5306236234383
 31
0.0
  0
LINE
  5
10C96
330
1F
100
AcDbEntity
  8
AM_0
100
AcDbLine
 10
99.99999999999983
 20
-168.5306236234383
 30
0.0
 11
97.99999999999983
 21
-168.5306236234383
 31
0.0
  0
LINE
  5
10C97
330
1F
100
AcDbEntity
  8
AM_0
100
AcDbLine
 10
87.99999999999983
 20
-168.5306236234383
 30
0.0
 11
85.37749907475956
 21
-168.5306236234383
 31
0.0
  0
LINE
  5
10C98
330
1F
100
AcDbEntity
  8
AM_0
100
AcDbLine
 10
99.99999999999983
 20
-105.5306236234383
 30
0.0
 11
85.37749907475956
 21
-105.5306236234383
 31
0.0
  0
LINE
  5
10C99
330
1F
100
AcDbEntity
  8
AM_0
100
AcDbLine
 10
70.99999999999983
 20
-132.0306236234383
 30
0.0
 11
70.99999999999983
 21
-142.0306236234383
 31
0.0
  0
LINE
  5
10C9A
330
1F
100
AcDbEntity
  8
AM_0
100
AcDbLine
 10
73.99999999999983
 20
-105.5306236234383
 30
0.0
 11
73.99999999999983
 21
-129.0306236234383
 31
0.0
  0
LINE
  5
10C9B
330
1F
100
AcDbEntity
  8
AM_0
100
AcDbLine
 10
73.99999999999983
 20
-145.0306236234383
 30
0.0
 11
73.99999999999983
 21
-168.5306236234383
 31
0.0
  0
LINE
  5
10C9C
330
1F
100
AcDbEntity
  8
AM_0
100
AcDbLine
 10
131.9999999999998
 20
-129.6634230850596
 30
0.0
 11
131.9999999999998
 21
-129.6059230850597
 31
0.0
  0
LINE
  5
10C9D
330
1F
100
AcDbEntity
  8
AM_0
100
AcDbLine
 10
131.9999999999998
 20
-144.4553241618178
 30
0.0
 11
131.9999999999998
 21
-144.3978241618179
 31
0.0
  0
LINE
  5
10C9E
330
1F
100
AcDbEntity
  8
AM_0
100
AcDbLine
 10
131.9999999999998
 20
-144.4553241618178
 30
0.0
 11
131.9999999999998
 21
-158.609124559769
 31
0.0
  0
LINE
  5
10C9F
330
1F
100
AcDbEntity
  8
AM_0
100
AcDbLine
 10
131.9999999999998
 20
-115.4521226871084
 30
0.0
 11
131.9999999999998
 21
-129.6059230850597
 31
0.0
  0
LINE
  5
10CA0
330
1F
100
AcDbEntity
  8
AM_0
100
AcDbLine
 10
125.9999999999998
 20
-128.9279554272623
 30
0.0
 11
125.9999999999998
 21
-145.1332918196154
 31
0.0
  0
LINE
  5
10CA1
330
1F
100
AcDbEntity
  8
AM_0
100
AcDbLine
 10
85.37749907475956
 20
-145.0306236234392
 30
0.0
 11
85.37749907475956
 21
-168.5306236234383
 31
0.0
  0
LINE
  5
10CA2
330
1F
100
AcDbEntity
  8
AM_0
100
AcDbLine
 10
83.87499999999983
 20
-145.0306236234383
 30
0.0
 11
83.87499999999983
 21
-165.9282188876305
 31
0.0
  0
LINE
  5
10CA3
330
1F
100
AcDbEntity
  8
AM_0
100
AcDbLine
 10
82.87499999999983
 20
-144.3790928517883
 30
0.0
 11
82.87499999999983
 21
-164.5306236234383
 31
0.0
  0
LINE
  5
10CA4
330
1F
100
AcDbEntity
  8
AM_0
100
AcDbLine
 10
78.62250092524101
 20
-145.0306236234383
 30
0.0
 11
78.62250092524101
 21
-168.5306236234383
 31
0.0
  0
LINE
  5
10CA5
330
1F
100
AcDbEntity
  8
AM_0
100
AcDbLine
 10
78.62250092524101
 20
-116.2296091624758
 30
0.0
 11
78.62250092524101
 21
-129.0306236234383
 31
0.0
  0
LINE
  5
10CA6
330
1F
100
AcDbEntity
  8
AM_0
100
AcDbLine
 10
78.62250092524101
 20
-105.5306236234383
 30
0.0
 11
78.62250092524101
 21
-112.6944365761628
 31
0.0
  0
LINE
  5
10CA7
330
1F
100
AcDbEntity
  8
AM_0
100
AcDbLine
 10
81.12499999999983
 20
-144.3790928517883
 30
0.0
 11
81.12499999999983
 21
-164.5306236234383
 31
0.0
  0
LINE
  5
10CA8
330
1F
100
AcDbEntity
  8
AM_0
100
AcDbLine
 10
80.12499999999983
 20
-145.0306236234383
 30
0.0
 11
80.12499999999983
 21
-165.9282188876305
 31
0.0
  0
LINE
  5
10CA9
330
1F
100
AcDbEntity
  8
AM_0
100
AcDbLine
 10
80.12499999999983
 20
-108.133028359247
 30
0.0
 11
80.12499999999983
 21
-116.1722676946256
 31
0.0
  0
LINE
  5
10CAA
330
1F
100
AcDbEntity
  8
AM_0
100
AcDbLine
 10
85.37749907475956
 20
-117.0306236234383
 30
0.0
 11
85.37749907475956
 21
-129.0306236234383
 31
0.0
  0
LINE
  5
10CAB
330
1F
100
AcDbEntity
  8
AM_0
100
AcDbLine
 10
83.87499999999983
 20
-117.0306236234383
 30
0.0
 11
83.87499999999983
 21
-129.0306236234383
 31
0.0
  0
LINE
  5
10CAC
330
1F
100
AcDbEntity
  8
AM_0
100
AcDbLine
 10
83.87499999999983
 20
-108.133028359247
 30
0.0
 11
83.87499999999983
 21
-116.1722676946256
 31
0.0
  0
LINE
  5
10CAD
330
1F
100
AcDbEntity
  8
AM_0
100
AcDbLine
 10
85.37749907475956
 20
-105.5306236234383
 30
0.0
 11
85.37749907475956
 21
-112.6944365761628
 31
0.0
  0
LINE
  5
10CAE
330
1F
100
AcDbEntity
  8
AM_0
100
AcDbLine
 10
80.12499999999983
 20
-116.7800086225871
 30
0.0
 11
80.12499999999983
 21
-129.0306236234383
 31
0.0
  0
LINE
  5
10CAF
330
1F
100
AcDbEntity
  8
AM_0
100
AcDbLine
 10
99.99999999999983
 20
-105.5306236234383
 30
0.0
 11
99.99999999999983
 21
-168.5306236234383
 31
0.0
  0
ARC
  5
10CB0
330
1F
100
AcDbEntity
  8
AM_0
100
AcDbCircle
 10
130.8
 20
-158.609124559769
 30
0.0
 40
1.2
100
AcDbArc
 50
272.8624052261126
 51
0.0
  0
ARC
  5
10CB1
330
1F
100
AcDbEntity
  8
AM_0
100
AcDbCircle
 10
130.8
 20
-115.4521226871084
 30
0.0
 40
1.2
100
AcDbArc
 50
0.0
 51
87.13759477388736
  0
ARC
  5
10CB2
330
1F
100
AcDbEntity
  8
AM_0
100
AcDbCircle
 10
82.87499999999977
 20
-165.5306236234383
 30
0.0
 40
1.0
100
AcDbArc
 50
0.0
 51
90.0
  0
ARC
  5
10CB3
330
1F
100
AcDbEntity
  8
AM_0
100
AcDbCircle
 10
82.87499999999977
 20
-108.5306236234383
 30
0.0
 40
1.0
100
AcDbArc
 50
270.0
 51
0.0
  0
ARC
  5
10CB4
330
1F
100
AcDbEntity
  8
AM_0
100
AcDbCircle
 10
81.12499999999977
 20
-165.5306236234383
 30
0.0
 40
1.0
100
AcDbArc
 50
90.0
 51
180.0
  0
ARC
  5
10CB5
330
1F
100
AcDbEntity
  8
AM_0
100
AcDbCircle
 10
81.12499999999977
 20
-108.5306236234383
 30
0.0
 40
1.0
100
AcDbArc
 50
180.0
 51
270.0
  0
ARC
  5
10CC9
330
1F
100
AcDbEntity
  8
AM_0
100
AcDbCircle
 10
55.74292720082372
 20
-22.25463940280997
 30
0.0
 40
5.000469987627355
100
AcDbArc
 50
12.50310907221372
 51
72.49689092786248
  0
LINE
  5
10CCA
330
1F
100
AcDbEntity
  8
AM_0
100
AcDbLine
 10
62.80360593084862
 20
-31.0
 30
0.0
 11
60.62480734685488
 21
-21.17207469945311
 31
0.0
  0
LINE
  5
10CCB
330
1F
100
AcDbEntity
  8
AM_0
100
AcDbLine
 10
30.91737505985822
 20
-9.184034465837385
 30
0.0
 11
35.24750207878043
 21
-10.54931827059136
 31
0.0
  0
LINE
  5
10CCC
330
1F
100
AcDbEntity
  8
AM_0
100
AcDbLine
 10
35.24750207878043
 20
10.54931827061478
 30
0.0
 11
30.91737505985822
 21
9.184034465856485
 31
0.0
  0
LINE
  5
10CCD
330
1F
100
AcDbEntity
  8
AM_0
100
AcDbLine
 10
49.61502401307354
 20
-15.07938053565181
 30
0.0
 11
35.24750207878043
 21
-10.54931827059136
 31
0.0
  0
ELLIPSE
  5
10CCE
330
1F
100
AcDbEntity
  8
AM_0
100
AcDbEllipse
 10
33.97733148656317
 20
0.0
 30
0.0
 11
4.184790778980194E-15
 21
31.0
 31
0.0
210
0.0
220
0.0
230
1.0
 40
0.5773502691896257
 41
4.204388010387104
 42
5.220389950383532
  0
LINE
  5
10CCF
330
1F
100
AcDbEntity
  8
AM_0
100
AcDbLine
 10
35.24750207878043
 20
10.54931827061478
 30
0.0
 11
49.61502401306262
 21
15.07938053568546
 31
0.0
  0
ARC
  5
10CD0
330
1F
100
AcDbEntity
  8
AM_0
100
AcDbCircle
 10
55.74287550439277
 20
22.25468677390222
 30
0.0
 40
5.000530713640181
100
AcDbArc
 50
287.5035107384208
 51
347.4964892615556
  0
LINE
  5
10CD1
330
1F
100
AcDbEntity
  8
AM_0
100
AcDbLine
 10
60.62480734685215
 20
21.17207469950108
 30
0.0
 11
62.80360593082679
 21
31.00000000000003
 31
0.0
  0
LINE
  5
10CD2
330
1F
100
AcDbEntity
  8
AM_0
100
AcDbLine
 10
22.83150059267229
 20
2.201911162799661
 30
0.0
 11
25.37225205904161
 21
3.003007022988413
 31
0.0
  0
LINE
  5
10CD3
330
1F
100
AcDbEntity
  8
AM_0
100
AcDbLine
 10
15.80220483754312
 20
4.418239601061487
 30
0.0
 11
30.91737505985822
 21
9.184034465856485
 31
0.0
  0
LINE
  5
10CD4
330
1F
100
AcDbEntity
  8
AM_0
100
AcDbLine
 10
30.91737505985822
 20
-9.184034465837385
 30
0.0
 11
15.80220483754221
 21
-4.418239601056712
 31
0.0
  0
LINE
  5
10CD5
330
1F
100
AcDbEntity
  8
AM_0
100
AcDbLine
 10
57.24685630877303
 20
-17.48568801540546
 30
0.0
 11
49.61502401307354
 21
-15.07938053565181
 31
0.0
  0
LINE
  5
10CD6
330
1F
100
AcDbEntity
  8
AM_0
100
AcDbLine
 10
49.61502401306262
 20
15.07938053568569
 30
0.0
 11
57.24685630877394
 21
17.48568801545048
 31
0.0
  0
ARC
  5
10CD7
330
1F
100
AcDbEntity
  8
AM_0
100
AcDbCircle
 10
73.39287017879974
 20
-34.43034531717876
 30
0.0
 40
4.521335507167764
100
AcDbArc
 50
82.28294962583705
 51
121.954097777493
  0
SPLINE
  5
10CD8
330
1F
100
AcDbEntity
  8
AM_0
100
AcDbSpline
210
0.0
220
0.0
230
1.0
 70
     8
 71
     3
 72
    22
 73
    18
 74
     0
 42
0.0000000001
 43
0.0000000001
 40
9.135131403655873
 40
9.135131403655873
 40
9.135131403655873
 40
9.135131403655873
 40
9.700515220472017
 40
9.700515220472017
 40
10.26589903728816
 40
10.26589903728816
 40
10.83128285410431
 40
10.83128285410431
 40
11.39666667092045
 40
11.39666667092045
 40
11.97803453432145
 40
11.97803453432145
 40
12.55940239772246
 40
12.55940239772246
 40
13.14077026112346
 40
13.14077026112346
 40
13.72213812452447
 40
13.72213812452447
 40
13.72213812452447
 40
13.72213812452447
 10
73.99999999999983
 20
29.6647939483826
 30
0.0
 10
73.8115387277274
 20
29.6647939483826
 30
0.0
 10
73.61695701850914
 20
29.67029013172603
 30
0.0
 10
73.23057020149173
 20
29.6930785779912
 30
0.0
 10
73.03876096806545
 20
29.71036092892453
 30
0.0
 10
72.6715300515778
 20
29.75509692905578
 30
0.0
 10
72.49579431134845
 20
29.78257232032095
 30
0.0
 10
72.17123466748927
 20
29.8443498708148
 30
0.0
 10
72.02241492497507
 20
29.87863437725289
 30
0.0
 10
71.75542427745023
 20
29.95040555554809
 30
0.0
 10
71.6287231006325
 20
29.99052406548233
 30
0.0
 10
71.40556155658925
 20
30.07471192398796
 30
0.0
 10
71.30908258795699
 20
30.11876098466681
 30
0.0
 10
71.15405659536356
 20
30.20685629907646
 30
0.0
 10
71.09539647800995
 20
30.250955911494
 30
0.0
 10
71.01835714484952
 20
30.3356820462034
 30
0.0
 10
70.99999999999983
 20
30.37630504740062
 30
0.0
 10
70.99999999999983
 20
30.4138126514911
 30
0.0
  0
LINE
  5
10CD9
330
1F
100
AcDbEntity
  8
AM_0
100
AcDbLine
 10
70.99999999999983
 20
-31.0
 30
0.0
 11
62.80360593084862
 21
-31.0
 31
0.0
  0
LINE
  5
10CDA
330
1F
100
AcDbEntity
  8
AM_0
100
AcDbLine
 10
70.99999999999983
 20
31.00000000000003
 30
0.0
 11
62.80360593082679
 21
31.00000000000003
 31
0.0
  0
ARC
  5
10CDB
330
1F
100
AcDbEntity
  8
AM_0
100
AcDbCircle
 10
25.89848720817446
 20
1.33400235917884
 30
0.0
 40
1.750000000000029
100
AcDbArc
 50
13.74733857710936
 51
107.5000000000205
  0
ARC
  5
10CDC
330
1F
100
AcDbEntity
  8
AM_0
100
AcDbCircle
 10
27.57733148656354
 20
-0.0000000000002274
 30
0.0
 40
1.75
100
AcDbArc
 50
220.1136298013614
 51
89.31165934768114
  0
LINE
  5
10CDD
330
1F
100
AcDbEntity
  8
AM_0
100
AcDbLine
 10
70.99999999999983
 20
-30.59411708155676
 30
0.0
 11
70.99999999999983
 21
-31.0
 31
0.0
  0
LINE
  5
10CDE
330
1F
100
AcDbEntity
  8
AM_0
100
AcDbLine
 10
70.99999999999983
 20
31.00000000000003
 30
0.0
 11
70.99999999999983
 21
30.4138126514911
 31
0.0
  0
ARC
  5
10CDF
330
1F
100
AcDbEntity
  8
AM_0
100
AcDbCircle
 10
14.39816062257324
 20
1.570555716892415
 30
0.0
 40
0.6
100
AcDbArc
 50
211.9722150900789
 51
298.0277849099311
  0
ARC
  5
10CE0
330
1F
100
AcDbEntity
  8
AM_0
100
AcDbCircle
 10
13.67710139424509
 20
1.120473958494841
 30
0.0
 40
0.2499999999998634
100
AcDbArc
 50
31.97221509004228
 51
104.9999999999945
  0
ARC
  5
10CE1
330
1F
100
AcDbEntity
  8
AM_0
100
AcDbCircle
 10
13.67710139424509
 20
1.120473958494841
 30
0.0
 40
0.2499999999998634
100
AcDbArc
 50
104.9999999999945
 51
178.0277849099343
  0
ARC
  5
10CE2
330
1F
100
AcDbEntity
  8
AM_0
100
AcDbCircle
 10
12.82760490568018
 20
1.149726580883026
 30
0.0
 40
0.6
100
AcDbArc
 50
271.9722150900396
 51
358.0277849099344
  0
ARC
  5
10CE3
330
1F
100
AcDbEntity
  8
AM_0
100
AcDbCircle
 10
12.85685752806859
 20
0.3002300923185715
 30
0.0
 40
0.2499999999998634
100
AcDbArc
 50
91.97221509009171
 51
164.9999999999922
  0
ARC
  5
10CE4
330
1F
100
AcDbEntity
  8
AM_0
100
AcDbCircle
 10
12.85685752806859
 20
0.3002300923185715
 30
0.0
 40
0.2499999999998634
100
AcDbArc
 50
164.9999999999922
 51
238.0277849099384
  0
ARC
  5
10CE5
330
1F
100
AcDbEntity
  8
AM_0
100
AcDbCircle
 10
12.40677576967102
 20
-0.4208291360098144
 30
0.0
 40
0.6
100
AcDbArc
 50
331.9722150900711
 51
58.02778490993829
  0
ARC
  5
10CE6
330
1F
100
AcDbEntity
  8
AM_0
100
AcDbCircle
 10
13.15708762038759
 20
-0.8202438661764688
 30
0.0
 40
0.2499999999998634
100
AcDbArc
 50
151.9722150900711
 51
224.9999999999908
  0
ARC
  5
10CE7
330
1F
100
AcDbEntity
  8
AM_0
100
AcDbCircle
 10
13.15708762038759
 20
-0.8202438661764688
 30
0.0
 40
0.2499999999998634
100
AcDbArc
 50
224.9999999999908
 51
298.0277849099311
  0
ARC
  5
10CE8
330
1F
100
AcDbEntity
  8
AM_0
100
AcDbCircle
 10
13.55650235055401
 20
-1.570555716892812
 30
0.0
 40
0.6
100
AcDbArc
 50
31.97221509007881
 51
118.027784909931
  0
ARC
  5
10CE9
330
1F
100
AcDbEntity
  8
AM_0
100
AcDbCircle
 10
14.27756157888217
 20
-1.120473958495239
 30
0.0
 40
0.2499999999998634
100
AcDbArc
 50
211.9722150900789
 51
284.9999999999944
  0
ARC
  5
10CEA
330
1F
100
AcDbEntity
  8
AM_0
100
AcDbCircle
 10
14.27756157888217
 20
-1.120473958495239
 30
0.0
 40
0.2499999999998634
100
AcDbArc
 50
284.9999999999944
 51
358.0277849099344
  0
ARC
  5
10CEB
330
1F
100
AcDbEntity
  8
AM_0
100
AcDbCircle
 10
15.12705806744708
 20
-1.149726580883652
 30
0.0
 40
0.6
100
AcDbArc
 50
91.97221509009171
 51
178.0277849099213
  0
ARC
  5
10CEC
330
1F
100
AcDbEntity
  8
AM_0
100
AcDbCircle
 10
15.09780544505867
 20
-0.3002300923191967
 30
0.0
 40
0.2499999999998634
100
AcDbArc
 50
271.9722150900396
 51
344.9999999999921
  0
ARC
  5
10CED
330
1F
100
AcDbEntity
  8
AM_0
100
AcDbCircle
 10
15.09780544505867
 20
-0.3002300923191967
 30
0.0
 40
0.2499999999998634
100
AcDbArc
 50
344.9999999999921
 51
58.02778490993829
  0
ARC
  5
10CEE
330
1F
100
AcDbEntity
  8
AM_0
100
AcDbCircle
 10
15.54788720345624
 20
0.4208291360091891
 30
0.0
 40
0.6
100
AcDbArc
 50
151.9722150900507
 51
238.0277849099384
  0
ARC
  5
10CEF
330
1F
100
AcDbEntity
  8
AM_0
100
AcDbCircle
 10
14.79757535273967
 20
0.8202438661758436
 30
0.0
 40
0.2499999999998634
100
AcDbArc
 50
331.9722150900507
 51
44.99999999999081
  0
ARC
  5
10CF0
330
1F
100
AcDbEntity
  8
AM_0
100
AcDbCircle
 10
14.79757535273967
 20
0.8202438661758436
 30
0.0
 40
0.2499999999998634
100
AcDbArc
 50
44.99999999999081
 51
118.027784909931
  0
ARC
  5
10CF1
330
1F
100
AcDbEntity
  8
AM_0
100
AcDbCircle
 10
13.97733148656317
 20
-0.000000000000199
 30
0.0
 40
1.410000000000055
100
AcDbArc
 50
284.9999999999944
 51
344.9999999999921
  0
ARC
  5
10CF2
330
1F
100
AcDbEntity
  8
AM_0
100
AcDbCircle
 10
13.97733148656317
 20
-0.000000000000199
 30
0.0
 40
1.410000000000055
100
AcDbArc
 50
224.9999999999908
 51
284.9999999999944
  0
ARC
  5
10CF3
330
1F
100
AcDbEntity
  8
AM_0
100
AcDbCircle
 10
13.97733148656317
 20
-0.000000000000199
 30
0.0
 40
1.410000000000055
100
AcDbArc
 50
164.9999999999922
 51
224.9999999999908
  0
ARC
  5
10CF4
330
1F
100
AcDbEntity
  8
AM_0
100
AcDbCircle
 10
13.97733148656317
 20
-0.000000000000199
 30
0.0
 40
1.410000000000055
100
AcDbArc
 50
104.9999999999945
 51
164.9999999999922
  0
ARC
  5
10CF5
330
1F
100
AcDbEntity
  8
AM_0
100
AcDbCircle
 10
13.97733148656317
 20
-0.000000000000199
 30
0.0
 40
1.410000000000055
100
AcDbArc
 50
44.99999999999081
 51
104.9999999999945
  0
ARC
  5
10CF6
330
1F
100
AcDbEntity
  8
AM_0
100
AcDbCircle
 10
13.97733148656317
 20
-0.000000000000199
 30
0.0
 40
1.410000000000055
100
AcDbArc
 50
344.9999999999921
 51
44.99999999999081
  0
CIRCLE
  5
10CF7
330
1F
100
AcDbEntity
  8
AM_0
100
AcDbCircle
 10
13.97733148656317
 20
-0.000000000000199
 30
0.0
 40
2.55
  0
LINE
  5
10CF8
330
1F
100
AcDbEntity
  8
AM_0
100
AcDbLine
 10
13.97733148656408
 20
-4.993619958477439
 30
0.0
 11
27.39522761273003
 21
-0.7629735605935366
 31
0.0
  0
LINE
  5
10CF9
330
1F
100
AcDbEntity
  8
AM_0
100
AcDbLine
 10
27.39522761273003
 20
0.7629735606028589
 30
0.0
 11
13.97733148656226
 21
4.993619958482441
 31
0.0
  0
LINE
  5
10CFA
330
1F
100
AcDbEntity
  8
AM_0
100
AcDbLine
 10
13.97733148656226
 20
4.993619958482441
 30
0.0
 11
0.5594353603963214
 21
0.7629735605985388
 31
0.0
  0
LINE
  5
10CFB
330
1F
100
AcDbEntity
  8
AM_0
100
AcDbLine
 10
0.5594353603963214
 20
-0.7629735605978567
 30
0.0
 11
13.97733148656408
 21
-4.993619958477439
 31
0.0
  0
ARC
  5
10CFC
330
1F
100
AcDbEntity
  8
AM_0
100
AcDbCircle
 10
27.15466297312634
 20
0.0000000000043201
 30
0.0
 40
0.7999999999999998
100
AcDbArc
 50
287.5000000000205
 51
72.50000000004778
  0
ARC
  5
10CFD
330
1F
100
AcDbEntity
  8
AM_0
100
AcDbCircle
 10
0.8000000000000114
 20
0.0000000000000284
 30
0.0
 40
0.7999999999999998
100
AcDbArc
 50
107.5000000000205
 51
252.4999999999796
  0
ARC
  5
10CFE
330
1F
100
AcDbEntity
  8
AM_0
100
AcDbCircle
 10
56.73984986381561
 20
-158.6403557289209
 30
0.0
 40
4.020231704516978
100
AcDbArc
 50
277.2450772429219
 51
345.0945542785267
  0
ARC
  5
10CFF
330
1F
100
AcDbEntity
  8
AM_0
100
AcDbCircle
 10
56.7396368969155
 20
-115.4211350468304
 30
0.0
 40
4.020500151111555
100
AcDbArc
 50
14.90801878273855
 51
82.75234969583381
  0
ELLIPSE
  5
10D00
330
1F
100
AcDbEntity
  8
AM_0
100
AcDbEllipse
 10
55.93107138888792
 20
-137.0306236234383
 30
0.0
 11
3.051027909646820E-15
 21
31.0
 31
0.0
210
0.0
220
0.0
230
1.0
 40
0.2216946626439028
 41
3.893413813832662
 42
5.531364146936717
  0
ARC
  5
10D01
330
1F
100
AcDbEntity
  8
AM_0
100
AcDbCircle
 10
30.91737505985816
 20
-132.3306236234382
 30
0.0
 40
5.0
100
AcDbArc
 50
270.0
 51
329.9999999999849
  0
LINE
  5
10D02
330
1F
100
AcDbEntity
  8
AM_0
100
AcDbLine
 10
49.61502401307354
 20
-109.9453456543827
 30
0.0
 11
35.24750207878043
 21
-134.8306236234384
 31
0.0
  0
LINE
  5
10D03
330
1F
100
AcDbEntity
  8
AM_0
100
AcDbLine
 10
49.61502401307354
 20
-109.9453456543827
 30
0.0
 11
51.87518983144202
 21
-106.0306236234383
 31
0.0
  0
ARC
  5
10D04
330
1F
100
AcDbEntity
  8
AM_0
100
AcDbCircle
 10
14.14998211448688
 20
-199.0701822117492
 30
0.0
 40
31.22657679913799
100
AcDbArc
 50
83.72614639556461
 51
89.97713305528303
  0
ARC
  5
10D05
330
1F
100
AcDbEntity
  8
AM_0
100
AcDbCircle
 10
14.17490738448737
 20
-199.0701822117555
 30
0.0
 40
31.22657679914425
100
AcDbArc
 50
90.02286694471695
 51
96.27385360443539
  0
LINE
  5
10D06
330
1F
100
AcDbEntity
  8
AM_0
100
AcDbLine
 10
30.91737505985822
 20
-137.3306236234382
 30
0.0
 11
15.74095665354963
 21
-137.3306236234382
 31
0.0
  0
LINE
  5
10D07
330
1F
100
AcDbEntity
  8
AM_0
100
AcDbLine
 10
15.3033784090274
 20
-139.4739275518321
 30
0.0
 11
15.3033784090274
 21
-143.0706236234382
 31
0.0
  0
LINE
  5
10D08
330
1F
100
AcDbEntity
  8
AM_0
100
AcDbLine
 10
14.6382765043416
 20
-143.0706236234382
 30
0.0
 11
14.6382765043416
 21
-144.9706236234383
 31
0.0
  0
LINE
  5
10D09
330
1F
100
AcDbEntity
  8
AM_0
100
AcDbLine
 10
14.6382765043416
 20
-144.9706236234383
 30
0.0
 11
14.30988243891153
 21
-144.9706236234383
 31
0.0
  0
LINE
  5
10D0A
330
1F
100
AcDbEntity
  8
AM_0
100
AcDbLine
 10
15.3033784090274
 20
-143.0706236234382
 30
0.0
 11
14.6382765043416
 21
-143.0706236234382
 31
0.0
  0
ELLIPSE
  5
10D0B
330
1F
100
AcDbEntity
  8
AM_0
100
AcDbEllipse
 10
1.789339083190328
 20
-137.0306236234383
 30
0.0
 11
-98.31943887357463
 21
3.133285211595817E-14
 31
0.0
210
0.0
220
0.0
230
1.0
 40
0.3152987888779732
 41
4.113101270132897
 42
4.204388010387103
  0
LINE
  5
10D0C
330
1F
100
AcDbEntity
  8
AM_0
100
AcDbLine
 10
15.74095665354963
 20
-137.3306236234382
 30
0.0
 11
15.3033784090274
 21
-139.4739275518321
 31
0.0
  0
LINE
  5
10D0D
330
1F
100
AcDbEntity
  8
AM_0
100
AcDbLine
 10
1.789339083204879
 20
-144.9706236234383
 30
0.0
 11
1.789339083204879
 21
-168.0306236234383
 31
0.0
  0
ELLIPSE
  5
10D0E
330
1F
100
AcDbEntity
  8
AM_0
100
AcDbEllipse
 10
1.789339083190328
 20
-137.0306236234383
 30
0.0
 11
-98.31943887357463
 21
3.133285211595817E-14
 31
0.0
210
0.0
220
0.0
230
1.0
 40
0.3152987888779732
 41
1.570796326795044
 42
2.17008403704669
  0
LINE
  5
10D0F
330
1F
100
AcDbEntity
  8
AM_0
100
AcDbLine
 10
73.99999999999983
 20
-168.0306236234383
 30
0.0
 11
17.56244474948727
 21
-168.0306236234383
 31
0.0
  0
LINE
  5
10D10
330
1F
100
AcDbEntity
  8
AM_0
100
AcDbLine
 10
10.76244474948709
 20
-168.0306236234383
 30
0.0
 11
1.789339083204879
 21
-168.0306236234383
 31
0.0
  0
LINE
  5
10D11
330
1F
100
AcDbEntity
  8
AM_0
100
AcDbLine
 10
73.99999999999983
 20
-106.0306236234383
 30
0.0
 11
51.87518983144202
 21
-106.0306236234383
 31
0.0
  0
LINE
  5
10D12
330
1F
100
AcDbEntity
  8
AM_0
100
AcDbLine
 10
15.38733148656303
 20
-136.8306236234382
 30
0.0
 11
16.52733148656336
 21
-137.0306236234383
 31
0.0
  0
LINE
  5
10D13
330
1F
100
AcDbEntity
  8
AM_0
100
AcDbLine
 10
12.56733148656332
 20
-136.8306236234382
 30
0.0
 11
11.4273314865639
 21
-137.0306236234383
 31
0.0
  0
LINE
  5
10D14
330
1F
100
AcDbEntity
  8
AM_0
100
AcDbLine
 10
15.3392869016314
 20
-136.8306236234382
 30
0.0
 11
14.34226634015778
 21
-136.8306236234382
 31
0.0
  0
LINE
  5
10D15
330
1F
100
AcDbEntity
  8
AM_0
100
AcDbLine
 10
14.34226634015778
 20
-136.8306236234382
 30
0.0
 11
12.98031092509046
 21
-136.8306236234382
 31
0.0
  0
LINE
  5
10D16
330
1F
100
AcDbEntity
  8
AM_0
100
AcDbLine
 10
12.98031092509046
 20
-136.8306236234382
 30
0.0
 11
12.56733148656332
 21
-136.8306236234382
 31
0.0
  0
LINE
  5
10D17
330
1F
100
AcDbEntity
  8
AM_0
100
AcDbLine
 10
15.38733148656303
 20
-136.8306236234382
 30
0.0
 11
15.3392869016314
 21
-136.8306236234382
 31
0.0
  0
LINE
  5
10D18
330
1F
100
AcDbEntity
  8
AM_0
100
AcDbLine
 10
13.97733148656863
 20
-144.9706236234383
 30
0.0
 11
14.30988243891153
 21
-144.9706236234383
 31
0.0
  0
LINE
  5
10D19
330
1F
100
AcDbEntity
  8
AM_0
100
AcDbLine
 10
13.97733148656863
 20
-141.7906236234383
 30
0.0
 11
13.97733148656863
 21
-144.9706236234383
 31
0.0
  0
LINE
  5
10D1A
330
1F
100
AcDbEntity
  8
AM_0
100
AcDbLine
 10
1.729197923303047
 20
-144.9706236234383
 30
0.0
 11
13.97733148656863
 21
-144.9706236234383
 31
0.0
  0
LINE
  5
10D1B
330
1F
100
AcDbEntity
  8
AM_0
100
AcDbLine
 10
1.589339083204152
 20
-141.7906236234383
 30
0.0
 11
1.589339083204152
 21
-144.9706236234383
 31
0.0
  0
LINE
  5
10D1C
330
1F
100
AcDbEntity
  8
AM_0
100
AcDbLine
 10
1.729197923303047
 20
-144.9706236234383
 30
0.0
 11
1.589339083204152
 21
-144.9706236234383
 31
0.0
  0
LINE
  5
10D1D
330
1F
100
AcDbEntity
  8
AM_0
100
AcDbLine
 10
13.97733148656408
 20
-141.7906236234383
 30
0.0
 11
15.3033784090274
 21
-141.7906236234383
 31
0.0
  0
LINE
  5
10D1E
330
1F
100
AcDbEntity
  8
AM_0
100
AcDbLine
 10
0.7351842210690052
 20
-141.7906236234383
 30
0.0
 11
13.97733148656408
 21
-141.7906236234383
 31
0.0
  0
LINE
  5
10D1F
330
1F
100
AcDbEntity
  8
AM_0
100
AcDbLine
 10
13.97733148656408
 20
-137.0306236234383
 30
0.0
 11
27.39522761273003
 21
-137.0306236234383
 31
0.0
  0
LINE
  5
10D20
330
1F
100
AcDbEntity
  8
AM_0
100
AcDbLine
 10
13.97733148656408
 20
-137.0306236234383
 30
0.0
 11
13.97733148656408
 21
-141.7906236234383
 31
0.0
  0
LINE
  5
10D21
330
1F
100
AcDbEntity
  8
AM_0
100
AcDbLine
 10
0.5594353603963214
 20
-137.0306236234383
 30
0.0
 11
13.97733148656408
 21
-137.0306236234383
 31
0.0
  0
LINE
  5
10D22
330
1F
100
AcDbEntity
  8
AM_0
100
AcDbLine
 10
27.91782760485586
 20
-137.3306236234382
 30
0.0
 11
27.95466297312652
 21
-137.0306236234383
 31
0.0
  0
LINE
  5
10D23
330
1F
100
AcDbEntity
  8
AM_0
100
AcDbLine
 10
0.5844545098978529
 20
-141.7906236234383
 30
0.0
 11
-0.0000000000001705
 21
-137.0306236234383
 31
0.0
  0
LINE
  5
10D24
330
1F
100
AcDbEntity
  8
AM_0
100
AcDbLine
 10
27.95466297312652
 20
-137.0306236234383
 30
0.0
 11
27.39522761273003
 21
-137.0306236234383
 31
0.0
  0
LINE
  5
10D25
330
1F
100
AcDbEntity
  8
AM_0
100
AcDbLine
 10
0.5844545098978529
 20
-141.7906236234383
 30
0.0
 11
0.7351842210690052
 21
-141.7906236234383
 31
0.0
  0
LINE
  5
10D26
330
1F
100
AcDbEntity
  8
AM_0
100
AcDbLine
 10
0.5594353603963214
 20
-137.0306236234383
 30
0.0
 11
-0.0000000000001705
 21
-137.0306236234383
 31
0.0
  0
ARC
  5
10D27
330
1F
100
AcDbEntity
  8
AM_0
100
AcDbCircle
 10
-88.70897567946301
 20
0.0033681397075043
 30
0.0
 40
31.00537052465428
100
AcDbArc
 50
214.3374148803511
 51
223.0754210616876
  0
ARC
  5
10D28
330
1F
100
AcDbEntity
  8
AM_0
100
AcDbCircle
 10
-88.7167200416379
 20
0.002837688738623
 30
0.0
 40
31.00452471614637
100
AcDbArc
 50
316.9244595196178
 51
325.6627045383349
  0
ARC
  5
10D29
330
1F
100
AcDbEntity
  8
AM_0
100
AcDbCircle
 10
-88.71317884008474
 20
0.0000000000005684
 30
0.0
 40
31.0
100
AcDbArc
 50
223.0761794305678
 51
316.9238205694315
  0
ELLIPSE
  5
10D2A
330
1F
100
AcDbEntity
  8
AM_0
100
AcDbEllipse
 10
-84.01317884008489
 20
-9.184034465836845
 30
0.0
 11
5.0
 21
-1.134973756986190E-15
 31
0.0
210
0.0
220
0.0
230
1.0
 40
0.3152987888779734
 41
3.141592653589793
 42
4.188790204786391
  0
ELLIPSE
  5
10D2B
330
1F
100
AcDbEntity
  8
AM_0
100
AcDbEllipse
 10
-84.01317884008489
 20
9.184034465857025
 30
0.0
 11
-5.0
 21
1.897187228328603E-15
 31
0.0
210
0.0
220
0.0
230
1.0
 40
0.3152987888789468
 41
5.235987755982988
 42
6.283185307179586
  0
LINE
  5
10D2C
330
1F
100
AcDbEntity
  8
AM_0
100
AcDbLine
 10
-61.62790087102979
 20
-15.07938053565127
 30
0.0
 11
-86.51317884008489
 21
-10.54931827059082
 31
0.0
  0
ARC
  5
10D2D
330
1F
100
AcDbEntity
  8
AM_0
100
AcDbCircle
 10
-88.71317884008474
 20
0.0000000000005684
 30
0.0
 40
31.0
100
AcDbArc
 50
330.8936884305859
 51
29.10631156949144
  0
LINE
  5
10D2E
330
1F
100
AcDbEntity
  8
AM_0
100
AcDbLine
 10
-86.51317884008489
 20
10.54931827061532
 30
0.0
 11
-61.62790087104798
 21
15.079380535686
 31
0.0
  0
ARC
  5
10D2F
330
1F
100
AcDbEntity
  8
AM_0
100
AcDbCircle
 10
-88.71738200069828
 20
-0.0033681397002283
 30
0.0
 40
31.0053705246441
100
AcDbArc
 50
34.33741488044361
 51
43.07542106181607
  0
ARC
  5
10D30
330
1F
100
AcDbEntity
  8
AM_0
100
AcDbCircle
 10
-88.70897567946938
 20
-0.0033681397018199
 30
0.0
 40
31.00537052464677
100
AcDbArc
 50
136.9245789381839
 51
145.6625851195563
  0
ARC
  5
10D31
330
1F
100
AcDbEntity
  8
AM_0
100
AcDbCircle
 10
-88.71317884008474
 20
0.0000000000005684
 30
0.0
 40
31.0
100
AcDbArc
 50
43.07617943065884
 51
136.923820569341
  0
LINE
  5
10D32
330
1F
100
AcDbEntity
  8
AM_0
100
AcDbLine
 10
-89.01317884008489
 20
4.954997002015801
 30
0.0
 11
-89.01317884008489
 21
9.184034465857025
 31
0.0
  0
LINE
  5
10D33
330
1F
100
AcDbEntity
  8
AM_0
100
AcDbLine
 10
-89.01317884008489
 20
-9.184034465836845
 30
0.0
 11
-89.01317884008489
 21
-4.954997002009492
 31
0.0
  0
LINE
  5
10D34
330
1F
100
AcDbEntity
  8
AM_0
100
AcDbLine
 10
-93.47317884008493
 20
-4.260960232285157
 30
0.0
 11
-94.75317884008467
 21
-4.260960232285157
 31
0.0
  0
LINE
  5
10D35
330
1F
100
AcDbEntity
  8
AM_0
100
AcDbLine
 10
-94.75317884008467
 20
4.052565068669395
 30
0.0
 11
-94.75317884008467
 21
4.260960232290785
 31
0.0
  0
LINE
  5
10D36
330
1F
100
AcDbEntity
  8
AM_0
100
AcDbLine
 10
-94.75317884008467
 20
-4.260960232285157
 30
0.0
 11
-94.75317884008467
 21
-4.052565068666723
 31
0.0
  0
ARC
  5
10D37
330
1F
100
AcDbEntity
  8
AM_0
100
AcDbCircle
 10
-88.71317884008474
 20
0.0000000000005684
 30
0.0
 40
31.00000000000001
100
AcDbArc
 50
325.6633434885203
 51
330.8936884305859
  0
LINE
  5
10D38
330
1F
100
AcDbEntity
  8
AM_0
100
AcDbLine
 10
-96.65317884008522
 20
-0.0000000000040075
 30
0.0
 11
-119.7131788400847
 21
-0.0000000000039506
 31
0.0
  0
ARC
  5
10D39
330
1F
100
AcDbEntity
  8
AM_0
100
AcDbCircle
 10
-88.71317884008474
 20
0.0000000000005684
 30
0.0
 40
31.00000000000001
100
AcDbArc
 50
180.0
 51
214.3366565114796
  0
LINE
  5
10D3A
330
1F
100
AcDbEntity
  8
AM_0
100
AcDbLine
 10
-94.75317884008467
 20
4.260960232290785
 30
0.0
 11
-93.47317884008493
 21
4.260960232290785
 31
0.0
  0
ARC
  5
10D3B
330
1F
100
AcDbEntity
  8
AM_0
100
AcDbCircle
 10
-88.71317884008474
 20
0.0000000000005684
 30
0.0
 40
31.0
100
AcDbArc
 50
145.6633434884239
 51
180.0
  0
ARC
  5
10D3C
330
1F
100
AcDbEntity
  8
AM_0
100
AcDbCircle
 10
-88.71317884008474
 20
0.0000000000005684
 30
0.0
 40
31.0
100
AcDbArc
 50
29.10631156949144
 51
34.33665651157607
  0
LINE
  5
10D3D
330
1F
100
AcDbEntity
  8
AM_0
100
AcDbLine
 10
-80.71317884008471
 20
-29.94995826374327
 30
0.0
 11
-80.71317884008471
 21
-30.46719547316377
 31
0.0
  0
LINE
  5
10D3E
330
1F
100
AcDbEntity
  8
AM_0
100
AcDbLine
 10
-79.71317884008471
 20
30.18691769624766
 30
0.0
 11
-79.71317884008471
 21
29.66479394838316
 31
0.0
  0
LINE
  5
10D3F
330
1F
100
AcDbEntity
  8
AM_0
100
AcDbLine
 10
-97.71317884008471
 20
29.66479394838316
 30
0.0
 11
-97.71317884008471
 21
30.18691769624766
 31
0.0
  0
LINE
  5
10D40
330
1F
100
AcDbEntity
  8
AM_0
100
AcDbLine
 10
-96.71317884008471
 20
-30.46719547316377
 30
0.0
 11
-96.71317884008471
 21
-29.94995826374327
 31
0.0
  0
ARC
  5
10D41
330
1F
100
AcDbEntity
  8
AM_0
100
AcDbCircle
 10
-88.71317884008474
 20
-0.0000000000001137
 30
0.0
 40
31.50000000000073
100
AcDbArc
 50
73.39845040095641
 51
106.6015495990435
  0
ARC
  5
10D42
330
1F
100
AcDbEntity
  8
AM_0
100
AcDbCircle
 10
-88.71317884008474
 20
0.0000000000007958
 30
0.0
 40
31.50000000000019
100
AcDbArc
 50
255.2875420391034
 51
284.7124579608966
  0
ARC
  5
10D43
330
1F
100
AcDbEntity
  8
AM_0
100
AcDbCircle
 10
-88.71317884008474
 20
0.0000000000005684
 30
0.0
 40
31.5
100
AcDbArc
 50
284.7124579608966
 51
73.39845040095641
  0
ARC
  5
10D44
330
1F
100
AcDbEntity
  8
AM_0
100
AcDbCircle
 10
-88.71317884008474
 20
0.0000000000005684
 30
0.0
 40
31.5
100
AcDbArc
 50
106.6015495990435
 51
255.2875420391034
  0
LINE
  5
10D45
330
1F
100
AcDbEntity
  8
AM_0
100
AcDbLine
 10
-88.51317884008489
 20
-1.409999999999769
 30
0.0
 11
-88.71317884008471
 21
-2.549999999999869
 31
0.0
  0
LINE
  5
10D46
330
1F
100
AcDbEntity
  8
AM_0
100
AcDbLine
 10
-88.51317884008489
 20
1.410000000000395
 30
0.0
 11
-88.71317884008471
 21
2.550000000000267
 31
0.0
  0
LINE
  5
10D47
330
1F
100
AcDbEntity
  8
AM_0
100
AcDbLine
 10
-88.51317884008489
 20
-1.409999999999769
 30
0.0
 11
-88.51317884008489
 21
-0.9970205614728513
 31
0.0
  0
LINE
  5
10D48
330
1F
100
AcDbEntity
  8
AM_0
100
AcDbLine
 10
-88.51317884008489
 20
-0.9970205614728513
 30
0.0
 11
-88.51317884008489
 21
0.3649348535949173
 31
0.0
  0
LINE
  5
10D49
330
1F
100
AcDbEntity
  8
AM_0
100
AcDbLine
 10
-88.51317884008489
 20
0.3649348535949173
 30
0.0
 11
-88.51317884008489
 21
1.361955415067854
 31
0.0
  0
LINE
  5
10D4A
330
1F
100
AcDbEntity
  8
AM_0
100
AcDbLine
 10
-88.51317884008489
 20
1.361955415067854
 30
0.0
 11
-88.51317884008489
 21
1.410000000000395
 31
0.0
  0
LINE
  5
10D4B
330
1F
100
AcDbEntity
  8
AM_0
100
AcDbLine
 10
-93.47317884008493
 20
-4.052565068666723
 30
0.0
 11
-96.65317884008522
 21
-4.052565068666723
 31
0.0
  0
LINE
  5
10D4C
330
1F
100
AcDbEntity
  8
AM_0
100
AcDbLine
 10
-93.47317884008493
 20
4.052565068669395
 30
0.0
 11
-96.65317884008522
 21
4.052565068669395
 31
0.0
  0
LINE
  5
10D4D
330
1F
100
AcDbEntity
  8
AM_0
100
AcDbLine
 10
-96.65317884008522
 20
4.052565068669395
 30
0.0
 11
-96.65317884008522
 21
0.1907433901459115
 31
0.0
  0
LINE
  5
10D4E
330
1F
100
AcDbEntity
  8
AM_0
100
AcDbLine
 10
-96.65317884008522
 20
-0.1907433901534716
 30
0.0
 11
-96.65317884008522
 21
-4.052565068666723
 31
0.0
  0
LINE
  5
10D4F
330
1F
100
AcDbEntity
  8
AM_0
100
AcDbLine
 10
-96.65317884008522
 20
-0.1907433901534716
 30
0.0
 11
-96.65317884008522
 21
0.1907433901459115
 31
0.0
  0
LINE
  5
10D50
330
1F
100
AcDbEntity
  8
AM_0
100
AcDbLine
 10
-93.47317884008493
 20
-0.2055693875664986
 30
0.0
 11
-93.47317884008493
 21
-4.380802382529197
 31
0.0
  0
LINE
  5
10D51
330
1F
100
AcDbEntity
  8
AM_0
100
AcDbLine
 10
-93.47317884008493
 20
4.380802382535279
 30
0.0
 11
-93.47317884008493
 21
0.2055693875682607
 31
0.0
  0
LINE
  5
10D52
330
1F
100
AcDbEntity
  8
AM_0
100
AcDbLine
 10
-88.71317884008471
 20
-4.993619958476899
 30
0.0
 11
-93.47317884008493
 21
-4.380802382529197
 31
0.0
  0
LINE
  5
10D53
330
1F
100
AcDbEntity
  8
AM_0
100
AcDbLine
 10
-88.71317884008471
 20
4.993619958482981
 30
0.0
 11
-88.71317884008471
 21
0.7629735605990788
 31
0.0
  0
LINE
  5
10D54
330
1F
100
AcDbEntity
  8
AM_0
100
AcDbLine
 10
-88.71317884008471
 20
-0.7629735605973167
 30
0.0
 11
-88.71317884008471
 21
-4.993619958476899
 31
0.0
  0
LINE
  5
10D55
330
1F
100
AcDbEntity
  8
AM_0
100
AcDbLine
 10
-88.71317884008471
 20
4.993619958482981
 30
0.0
 11
-93.47317884008493
 21
4.380802382535279
 31
0.0
  0
LINE
  5
10D56
330
1F
100
AcDbEntity
  8
AM_0
100
AcDbLine
 10
-93.47317884008493
 20
0.2055693875682607
 30
0.0
 11
-93.47317884008493
 21
-0.2055693875674081
 31
0.0
  0
LINE
  5
10D57
330
1F
100
AcDbEntity
  8
AM_0
100
AcDbLine
 10
-88.71317884008471
 20
-0.7629735605979988
 30
0.0
 11
-88.71317884008471
 21
0.7629735605990788
 31
0.0
  0
DIMENSION
  5
10DFF
330
1F
100
AcDbEntity
  8
AM_5
100
AcDbDimension
  2
*D4
 10
99.99999999999983
 20
-64.23628260462192
 30
0.0
 11
49.99999999999989
 21
-60.83628260462192
 31
0.0
 70
    32
  1
<>
 71
     5
 42
99.99999999999989
  3
AM_JIS$0
100
AcDbAlignedDimension
 13
-0.0000000000000568
 23
0.0
 33
0.0
 14
99.99999999999983
 24
-31.5
 34
0.0
100
AcDbRotatedDimension
1001
ACAD
1000
DSTYLE
1002
{
1070
   179
1070
     0
1070
   271
1070
     0
1070
   272
1070
     2
1002
}
  0
ARC
  5
10E06
330
1F
100
AcDbEntity
  8
AM_0
100
AcDbCircle
 10
127.4999999999998
 20
-132.3181236234386
 30
0.0
 40
1.5
100
AcDbArc
 50
90.0
 51
180.0
1001
GENIUS_GENOBJ-N-FIL_13
1002
{
1000
OWNER
1000
GEN
1002
}
1001
GENIUS_GENODEF_13
1002
{
1000
HIER
1070
     0
1002
}
1002
{
1000
MANEDIT
1070
     0
1002
}
1002
{
1000
NOSEL
1070
     0
1002
}
1002
{
1000
BEHIND
1070
     0
1002
}
1002
{
1000
OTHER
1070
     0
1002
}
1002
{
1000
REACTOR
1002
}
  0
ARC
  5
10E07
330
1F
100
AcDbEntity
  8
AM_0
100
AcDbCircle
 10
127.4999999999998
 20
-141.7431236234388
 30
0.0
 40
1.5
100
AcDbArc
 50
180.0
 51
270.0
1001
GENIUS_GENODEF_13
1002
{
1000
HIER
1070
     0
1002
}
1002
{
1000
MANEDIT
1070
     0
1002
}
1002
{
1000
NOSEL
1070
     0
1002
}
1002
{
1000
BEHIND
1070
     0
1002
}
1002
{
1000
OTHER
1070
     0
1002
}
1002
{
1000
REACTOR
1002
}
1001
GENIUS_GENOBJ-N-FIL_13
1002
{
1000
OWNER
1000
GEN
1002
}
  0
ARC
  5
10E08
330
1F
100
AcDbEntity
  8
AM_0
100
AcDbCircle
 10
127.4999999999998
 20
-145.1332918196154
 30
0.0
 40
1.5
100
AcDbArc
 50
180.0
 51
280.7630026735891
1001
GENIUS_GENOBJ-N-FIL_13
1002
{
1000
OWNER
1000
GEN
1002
}
1001
GENIUS_GENODEF_13
1002
{
1000
HIER
1070
     0
1002
}
1002
{
1000
MANEDIT
1070
     0
1002
}
1002
{
1000
NOSEL
1070
     0
1002
}
1002
{
1000
BEHIND
1070
     0
1002
}
1002
{
1000
OTHER
1070
     0
1002
}
1002
{
1000
REACTOR
1002
}
  0
ARC
  5
10E09
330
1F
100
AcDbEntity
  8
AM_0
100
AcDbCircle
 10
127.4999999999998
 20
-128.9279554272623
 30
0.0
 40
1.5
100
AcDbArc
 50
79.23699732641424
 51
179.9999999999992
1001
GENIUS_GENOBJ-N-FIL_13
1002
{
1000
OWNER
1000
GEN
1002
}
1001
GENIUS_GENODEF_13
1002
{
1000
HIER
1070
     0
1002
}
1002
{
1000
MANEDIT
1070
     0
1002
}
1002
{
1000
NOSEL
1070
     0
1002
}
1002
{
1000
BEHIND
1070
     0
1002
}
1002
{
1000
OTHER
1070
     0
1002
}
1002
{
1000
REACTOR
1002
}
  0
ARC
  5
10E0E
330
1F
100
AcDbEntity
  8
AM_11
  6
ACJISTGB
100
AcDbCircle
 10
130.8
 20
21.57850093632987
 30
0.0
 40
1.2
100
AcDbArc
 50
0.0
 51
87.13759477388736
  0
ARC
  5
10E0F
330
1F
100
AcDbEntity
  8
AM_11
  6
ACJISTGB
100
AcDbCircle
 10
130.8
 20
-21.57850093633078
 30
0.0
 40
1.2
100
AcDbArc
 50
272.8624052261126
 51
0.0
  0
LINE
  5
10E10
330
1F
100
AcDbEntity
  8
AM_11
  6
ACJISTGB
100
AcDbLine
 10
131.9999999999998
 20
-20.26093592543685
 30
0.0
 11
131.9999999999998
 21
-21.57850093633081
 31
0.0
  0
LINE
  5
10E11
330
1F
100
AcDbEntity
  8
AM_0
100
AcDbLine
 10
125.9999999999998
 20
-23.01999999999956
 30
0.0
 11
113.4999999999998
 21
-23.64499999999953
 31
0.0
  0
LINE
  5
10E12
330
1F
100
AcDbEntity
  8
AM_0
100
AcDbLine
 10
131.9999999999997
 20
20.28895312868855
 30
0.0
 11
131.9999999999998
 21
-20.26093592543685
 31
0.0
  0
LINE
  5
10E13
330
1F
100
AcDbEntity
  8
AM_0
100
AcDbLine
 10
121.9999999999998
 20
23.22000000000026
 30
0.0
 11
113.4999999999998
 21
23.64500000000044
 31
0.0
  0
DIMENSION
  5
10E1A
330
1F
100
AcDbEntity
  8
AM_5
100
AcDbDimension
  2
*D5
 10
157.9899171987324
 20
-31.50000000000002
 30
0.0
 11
154.5899171987324
 21
-0.0000000000000057
 31
0.0
 70
    32
  1
%%c<>
 71
     5
 42
62.99999999999997
  3
AM_JIS$0
100
AcDbAlignedDimension
 13
99.99999999999983
 23
31.49999999999997
 33
0.0
 14
99.99999999999983
 24
-31.5
 34
0.0
 50
90.0
100
AcDbRotatedDimension
1001
ACAD
1000
DSTYLE
1002
{
1070
   179
1070
     0
1070
   271
1070
     0
1070
   272
1070
     2
1002
}
  0
LINE
  5
10E89
330
1F
100
AcDbEntity
  8
AM_7
100
AcDbLine
 10
-88.71317884008437
 20
0.0
 30
0.0
 11
-51.60254653964108
 21
0.0
 31
0.0
1001
GENIUS_GENOREF_13
1005
10EA8
  0
LINE
  5
10E8A
330
1F
100
AcDbEntity
  8
AM_7
100
AcDbLine
 10
-88.71317884008437
 20
0.0
 30
0.0
 11
-88.71317884008437
 21
37.11063230044331
 31
0.0
1001
GENIUS_GENOREF_13
1005
10EA8
  0
LINE
  5
10E8B
330
1F
100
AcDbEntity
  8
AM_7
100
AcDbLine
 10
-88.71317884008437
 20
0.0
 30
0.0
 11
-125.8238111405277
 21
0.0000000000000568
 31
0.0
1001
GENIUS_GENOREF_13
1005
10EA8
  0
LINE
  5
10E8C
330
1F
100
AcDbEntity
  8
AM_7
100
AcDbLine
 10
-88.71317884008471
 20
0.0
 30
0.0
 11
-88.71317884008437
 21
-36.3760531426833
 31
0.0
1001
GENIUS_GENOREF_13
1005
10EA8
  0
LINE
  5
10E9C
330
1F
100
AcDbEntity
  8
AM_7
100
AcDbLine
 10
136.1713935235128
 20
-0.0000000000000284
 30
0.0
 11
-3.446091600793977
 21
0.0
 31
0.0
1001
GENIUS_GENODEF_13
1002
{
1000
HIER
1070
     0
1002
}
1002
{
1000
MANEDIT
1070
     0
1002
}
1002
{
1000
NOSEL
1070
     0
1002
}
1002
{
1000
BEHIND
1070
     0
1002
}
1002
{
1000
OTHER
1070
     0
1002
}
1002
{
1000
REACTOR
1002
}
1001
GENIUS_GENOBJ-N-CEN_13
1002
{
1000
OWNER
1000
GEN
1002
}
  0
LINE
  5
10E9D
330
1F
100
AcDbEntity
  8
AM_7
100
AcDbLine
 10
139.4704181305186
 20
-137.0306236234383
 30
0.0
 11
-7.912943178369631
 21
-137.0306236234383
 31
0.0
1001
GENIUS_GENODEF_13
1002
{
1000
HIER
1070
     0
1002
}
1002
{
1000
MANEDIT
1070
     0
1002
}
1002
{
1000
NOSEL
1070
     0
1002
}
1002
{
1000
BEHIND
1070
     0
1002
}
1002
{
1000
OTHER
1070
     0
1002
}
1002
{
1000
REACTOR
1002
}
1001
GENIUS_GENOBJ-N-CEN_13
1002
{
1000
OWNER
1000
GEN
1002
}
  0
TEXT
  5
10E9F
330
1F
100
AcDbEntity
  8
AM_0
100
AcDbText
 10
-78.19144972158756
 20
-188.2909914158946
 30
0.0
 40
5.0
  1
H63A-WH-SVVCN-H16
100
AcDbText
  0
DIMENSION
  5
10EA4
330
1F
100
AcDbEntity
  8
AM_5
100
AcDbDimension
  2
*D6
 10
-0.0000000000000568
 20
-12.02765046049183
 30
0.0
 11
22.79583854762154
 21
-31.67618520373252
 31
0.0
 70
    34
 71
     5
 42
1.265363707696236
  3
AM_JIS$2
100
AcDb2LineAngularDimension
 13
0.5594353603963214
 23
-0.7629735605978567
 33
0.0
 14
13.97733148656408
 24
-4.993619958477439
 34
0.0
 15
-0.0000000000000568
 25
-7.951367231498466
 35
0.0
 16
17.17475031969658
 26
-38.86167626515117
 36
0.0
1001
ACAD
1000
DSTYLE
1002
{
1070
   271
1070
     1
1070
   179
1070
     1
1070
   271
1070
     0
1070
   272
1070
     2
1002
}
  0
POINT
  5
10EA8
330
1F
100
AcDbEntity
  8
0
 60
     1
100
AcDbPoint
 10
-763.2270443977425
 20
-31.04027443587253
 30
0.0
1001
GENIUS_GENOLIS_13
1002
{
1000
ENT
1005
10E8C
1005
10E8B
1005
10E8A
1005
10E89
1002
}
1001
GENIUS_GENOBJ-N-CRS_13
1002
{
1000
OWNER
1000
GEN
1002
}
1001
GENIUS_GENOENT_13
1002
{
1000
MYREF
1005
10EA8
1002
}
1002
{
1000
GRP
1005
0
1002
}
1001
GENIUS_GENODEF_13
1002
{
1000
HIER
1070
    10
1002
}
1002
{
1000
MANEDIT
1070
     0
1002
}
1002
{
1000
NOSEL
1070
     0
1002
}
1002
{
1000
BEHIND
1070
     0
1002
}
1002
{
1000
OTHER
1070
     0
1002
}
1002
{
1000
REACTOR
1002
}
  0
ELLIPSE
  5
1175B
330
1F
100
AcDbEntity
  8
AM_0
100
AcDbEllipse
 10
44.36963633197678
 20
0.0
 30
0.0
 11
1.179935717610628E-15
 21
5.500000000000001
 31
0.0
210
0.0
220
0.0
230
1.0
 40
0.577350269189626
 41
5.30702986978225
 42
7.64206951343278
  0
ELLIPSE
  5
1175C
330
1F
100
AcDbEntity
  8
AM_0
100
AcDbEllipse
 10
44.36963633197678
 20
0.0
 30
0.0
 11
1.179935717610628E-15
 21
5.500000000000001
 31
0.0
210
0.0
220
0.0
230
1.0
 40
0.577350269189626
 41
1.782708447336601
 42
4.117748090987131
  0
LINE
  5
1175D
330
1F
100
AcDbEntity
  8
AM_0
100
AcDbLine
 10
46.99999999999983
 20
3.081162268013969
 30
0.0
 11
46.99999999999983
 21
2.059990514986168
 31
0.0
  0
LINE
  5
1175E
330
1F
100
AcDbEntity
  8
AM_0
100
AcDbLine
 10
46.99999999999983
 20
-2.059990514986168
 30
0.0
 11
46.99999999999983
 21
-3.081162268013969
 31
0.0
  0
ELLIPSE
  5
1175F
330
1F
100
AcDbEntity
  8
AM_0
100
AcDbEllipse
 10
44.36963633197678
 20
0.0
 30
0.0
 11
1.072668834191480E-15
 21
5.0
 31
0.0
210
0.0
220
0.0
230
1.0
 40
0.5773502691896257
 41
4.287743139744555
 42
5.137034821024825
  0
LINE
  5
11760
330
1F
100
AcDbEntity
  8
AM_0
100
AcDbLine
 10
41.26524246971854
 20
-1.156812968426692
 30
0.0
 11
41.26524246971854
 21
1.156812968426664
 31
0.0
  0
CIRCLE
  5
11761
330
1F
100
AcDbEntity
  8
AM_0
100
AcDbCircle
 10
68.99999999999977
 20
0.0
 30
0.0
 40
3.500000000000037
  0
CIRCLE
  5
11766
330
1F
100
AcDbEntity
  8
AM_0
100
AcDbCircle
 10
68.99999999999977
 20
0.0
 30
0.0
 40
3.000000000000057
  0
LINE
  5
11788
330
1F
100
AcDbEntity
  8
AM_0
100
AcDbLine
 10
68.13397459621535
 20
1.499999999999972
 30
0.0
 11
69.86602540378419
 21
1.499999999999972
 31
0.0
  0
LINE
  5
11789
330
1F
100
AcDbEntity
  8
AM_0
100
AcDbLine
 10
69.86602540378419
 20
1.499999999999972
 30
0.0
 11
70.73205080756867
 21
-0.0000000000000284
 31
0.0
  0
LINE
  5
1178A
330
1F
100
AcDbEntity
  8
AM_0
100
AcDbLine
 10
70.73205080756867
 20
-0.0000000000000284
 30
0.0
 11
69.86602540378419
 21
-1.500000000000028
 31
0.0
  0
LINE
  5
1178B
330
1F
100
AcDbEntity
  8
AM_0
100
AcDbLine
 10
69.86602540378419
 20
-1.500000000000028
 30
0.0
 11
68.13397459621535
 21
-1.500000000000028
 31
0.0
  0
LINE
  5
1178C
330
1F
100
AcDbEntity
  8
AM_0
100
AcDbLine
 10
68.13397459621535
 20
-1.500000000000028
 30
0.0
 11
67.26794919243088
 21
-0.0000000000000284
 31
0.0
  0
LINE
  5
1178D
330
1F
100
AcDbEntity
  8
AM_0
100
AcDbLine
 10
67.26794919243088
 20
-0.0000000000000284
 30
0.0
 11
68.13397459621535
 21
1.499999999999972
 31
0.0
  0
LINE
  5
1178F
330
1F
100
AcDbEntity
  8
AM_0
100
AcDbLine
 10
45.2999999999999
 20
2.214510797200376
 30
0.0
 11
45.2999999999999
 21
-2.214510797200376
 31
0.0
  0
LINE
  5
11790
330
1F
100
AcDbEntity
  8
AM_0
100
AcDbLine
 10
46.99999999999983
 20
2.05999051498614
 30
0.0
 11
46.99999999999983
 21
-2.059990514986168
 31
0.0
  0
ARC
  5
11791
330
1F
100
AcDbEntity
  8
AM_0
100
AcDbCircle
 10
48.64990703032737
 20
-0.2145107972002052
 30
0.0
 40
3.901522409500942
100
AcDbArc
 50
210.8385318138108
 51
240.9790935219641
  0
ARC
  5
11792
330
1F
100
AcDbEntity
  8
AM_0
100
AcDbCircle
 10
48.64990703032737
 20
0.2145107972002052
 30
0.0
 40
3.901522409500942
100
AcDbArc
 50
119.0209064780359
 51
149.1614681861892
  0
LINE
  5
117C0
330
1F
100
AcDbEntity
  8
AM_0
100
AcDbLine
 10
47.25638767792486
 20
-114.0306236234382
 30
0.0
 11
46.99999999999983
 21
-114.0306236234382
 31
0.0
  0
LINE
  5
117C1
330
1F
100
AcDbEntity
  8
AM_0
100
AcDbLine
 10
45.2999999999999
 20
-116.8161128262379
 30
0.0
 11
45.2999999999999
 21
-117.419186480906
 31
0.0
  0
LINE
  5
117C2
330
1F
100
AcDbEntity
  8
AM_0
100
AcDbLine
 10
46.99999999999983
 20
-114.0306236234383
 30
0.0
 11
46.99999999999983
 21
-114.474700108039
 31
0.0
  0
ARC
  5
117C3
330
1F
100
AcDbEntity
  8
AM_0
100
AcDbCircle
 10
48.64990703032731
 20
-118.816112826238
 30
0.0
 40
3.901522409500941
100
AcDbArc
 50
127.3100763689396
 51
149.1614681861892
  0
ARC
  5
117DA
330
1F
100
AcDbEntity
  8
AM_0
100
AcDbCircle
 10
-70.71317884008471
 20
0.0000000000005684
 30
0.0
 40
5.500000000000001
100
AcDbArc
 50
34.07041328838529
 51
167.8583298652935
  0
ARC
  5
117DB
330
1F
100
AcDbEntity
  8
AM_0
100
AcDbCircle
 10
-70.71317884008471
 20
0.0000000000005684
 30
0.0
 40
5.500000000000001
100
AcDbArc
 50
192.1416701347063
 51
325.9295867116147
  0
LINE
  5
117DC
330
1F
100
AcDbEntity
  8
AM_0
100
AcDbLine
 10
-66.15725532468554
 20
3.081162268014509
 30
0.0
 11
-66.15725532468554
 21
2.059990514986708
 31
0.0
  0
LINE
  5
117DD
330
1F
100
AcDbEntity
  8
AM_0
100
AcDbLine
 10
-66.15725532468554
 20
-2.059990514985628
 30
0.0
 11
-66.15725532468554
 21
-3.081162268013429
 31
0.0
  0
LINE
  5
117DE
330
1F
100
AcDbEntity
  8
AM_0
100
AcDbLine
 10
-76.0901467362209
 20
-1.156812968426152
 30
0.0
 11
-76.0901467362209
 21
1.156812968427204
 31
0.0
  0
ARC
  5
117DF
330
1F
100
AcDbEntity
  8
AM_0
100
AcDbCircle
 10
-70.71317884008471
 20
0.0000000000005684
 30
0.0
 40
5.0
100
AcDbArc
 50
24.3304144564657
 51
335.6695855435342
  0
CIRCLE
  5
117F3
330
1F
100
AcDbEntity
  8
AM_0
100
AcDbCircle
 10
-70.71317884008471
 20
0.0000000000005684
 30
0.0
 40
2.214510797200376
  0
CIRCLE
  5
117F4
330
1F
100
AcDbEntity
  8
AM_0
100
AcDbCircle
 10
-70.71317884008471
 20
0.0000000000005684
 30
0.0
 40
3.75
  0
CIRCLE
  5
117F5
330
1F
100
AcDbEntity
  8
AM_0
100
AcDbCircle
 10
-70.71317884008471
 20
0.0000000000005684
 30
0.0
 40
5.0
  0
CIRCLE
  5
117F6
330
1F
100
AcDbEntity
  8
AM_0
100
AcDbCircle
 10
-70.71317884008471
 20
0.0000000000005684
 30
0.0
 40
2.0
  0
LINE
  5
11857
330
1F
100
AcDbEntity
  8
AM_7
  6
AM_ISO08W050x2
100
AcDbLine
 10
-70.71317884008471
 20
8.50000000000054
 30
0.0
 11
-70.71317884008471
 21
-8.49999999999946
 31
0.0
1001
GENIUS_GENOBJ-N-CEN_13
1002
{
1000
OWNER
1000
GEN
1002
}
1001
GENIUS_GENODEF_13
1002
{
1000
HIER
1070
     0
1002
}
1002
{
1000
MANEDIT
1070
     0
1002
}
1002
{
1000
NOSEL
1070
     0
1002
}
1002
{
1000
BEHIND
1070
     0
1002
}
1002
{
1000
OTHER
1070
     0
1002
}
1002
{
1000
REACTOR
1002
}
1001
GENIUS_GENCEN_19
1002
{
1040
3.0
1002
}
  0
DIMENSION
  5
11BFB
330
1F
100
AcDbEntity
  8
AM_5
100
AcDbDimension
  2
*D7
 10
0.5594353603963214
 20
0.7629735605985388
 30
0.0
 11
-20.99600694596022
 21
18.32752626120561
 31
0.0
 70
    34
 71
     5
 42
0.6108652381976532
  3
AM_JIS$2
100
AcDb2LineAngularDimension
 13
0.5594353603963214
 23
-0.7629735605978567
 33
0.0
 14
13.97733148656408
 24
-4.993619958477439
 34
0.0
 15
13.97733148656226
 25
4.993619958482441
 35
0.0
 16
-24.11635463546298
 26
-2.273759011555492
 36
0.0
1001
ACAD
1000
DSTYLE
1002
{
1070
   179
1070
     0
1002
}
  0
ENDSEC
  0
SECTION
  2
OBJECTS
  0
DICTIONARY
  5
C
330
0
100
AcDbDictionary
281
     1
  3
ACAD_COLOR
350
99D5
  3
ACAD_GROUP
350
D
  3
ACAD_LAYOUT
350
1A
  3
ACAD_MATERIAL
350
99D4
  3
ACAD_MLINESTYLE
350
17
  3
ACAD_PLOTSETTINGS
350
19
  3
ACAD_PLOTSTYLENAME
350
E
  3
ACAD_TABLESTYLE
350
99D6
  3
AcAmCatalogState
350
9A2C
  3
ACDBHEADERROUNDTRIPXREC
350
11E39
  3
AcDbVariableDictionary
350
30
  3
ACDMSYSVARMGR
350
99EF
  3
ACGREF_MASTER
350
23CD
  3
ACGREFACAD_MASTER
350
23D1
  3
AcmDictionary
350
4D
  3
ACME_BOM_MANAGER_NAME
350
99A7
  3
ACME_COMMAND_HISTORY
350
99A2
  3
ACME_SCOPE_NAME
350
99A1
  3
ACMESTATEMGR
350
99AC
  3
AcmeSysVarManager
350
99A3
  3
AcmSystemVariableManager
350
9A2A
  3
AD_APPL
350
9A17
  3
ADSYSVARMGR
350
9A16
  3
AmdtNamedDwgMgr
350
9A0A
  3
AMG
350
3F
  3
AMGSNAPSETTINGS
350
73
  3
AMI_MASTER
350
23D2
  3
AUTOCAD_ASSEMBLIES_PROJECT
350
9A1F
  3
Designer_Assemblies_SysVars
350
9A1A
  3
DWGPROPS
350
11E3C
  3
FILENAME
350
1C9F
  3
GREFAM_MODULE
350
9A10
  3
ZWKSIZE
350
1CA1
  0
DICTIONARY
  5
9B25
330
2
100
AcDbDictionary
280
     1
281
     1
  3
ACAD_LAYERFILTERS
360
9F3B
  3
ACAD_LAYERSTATES
360
9B26
  3
ACLYDICTIONARY
360
9F3A
  3
AMLAYER_GROUPCOLORS
360
9F39
  0
DICTIONARY
  5
165
330
1F
100
AcDbDictionary
280
     1
281
     1
  3
ACAD_LAYOUTSELFREF
360
98ED
  3
ACAD_SORTENTS
360
C040
  0
DICTIONARY
  5
264F
330
1B
100
AcDbDictionary
280
     1
281
     1
  3
ACAD_LAYOUTSELFREF
360
98EC
  0
DICTIONARY
  5
2651
330
23
100
AcDbDictionary
280
     1
281
     1
  3
ACAD_LAYOUTSELFREF
360
98EE
  0
DICTIONARY
  5
99D5
102
{ACAD_REACTORS
330
C
102
}
330
C
100
AcDbDictionary
281
     1
  0
DICTIONARY
  5
D
102
{ACAD_REACTORS
330
C
102
}
330
C
100
AcDbDictionary
281
     1
  0
DICTIONARY
  5
1A
102
{ACAD_REACTORS
330
C
102
}
330
C
100
AcDbDictionary
281
     1
  3
Model
350
22
  3
ﾚｲｱｳﾄ1
350
1E
  3
ﾚｲｱｳﾄ2
350
26
  0
DICTIONARY
  5
99D4
102
{ACAD_REACTORS
330
C
102
}
330
C
100
AcDbDictionary
281
     1
  0
DICTIONARY
  5
17
102
{ACAD_REACTORS
330
C
102
}
330
C
100
AcDbDictionary
281
     1
  3
Standard
350
18
  0
DICTIONARY
  5
19
102
{ACAD_REACTORS
330
C
102
}
330
C
100
AcDbDictionary
281
     1
  0
ACDBDICTIONARYWDFLT
  5
E
102
{ACAD_REACTORS
330
C
102
}
330
C
100
AcDbDictionary
281
     1
  3
Normal
350
F
100
AcDbDictionaryWithDefault
340
F
  0
DICTIONARY
  5
99D6
102
{ACAD_REACTORS
330
C
102
}
330
C
100
AcDbDictionary
281
     1
  3
Standard
350
99D7
  0
ACAD_PROXY_OBJECT
  5
9A2C
102
{ACAD_REACTORS
330
C
102
}
330
C
100
AcDbProxyObject
 90
      499
 91
      584
 95
       25
 70
     0
 93
      424
310
3FFFFFFFE00A0281402902C1D2E482B415AC15141BA41A441C5C1AFAE20A1A0A226991818182E24A1AA26C00A3FFFFFFFCFFFF1F40
  0
DICTIONARY
  5
11E39
102
{ACAD_REACTORS
330
C
102
}
330
C
100
AcDbDictionary
281
     1
  3
COLORDICT
350
11E3A
  3
MATERIALDICT
350
11E3B
  0
DICTIONARY
  5
30
102
{ACAD_REACTORS
330
C
102
}
330
C
100
AcDbDictionary
281
     1
  3
CTABLESTYLE
350
9A53
  3
HIDETEXT
350
11E38
  3
INDEXCTL
350
11E37
  0
ACAD_PROXY_OBJECT
  5
99EF
102
{ACAD_REACTORS
330
C
102
}
330
C
100
AcDbProxyObject
 90
      499
 91
      507
 95
       25
 70
     0
 93
      240
310
4C51A47A0000000000000000000000000000000000000000000000000000
330
99F0
330
99F1
330
99F2
330
99F3
330
99F4
330
99F5
330
99F6
330
99F7
330
99F8
330
99F9
330
99FA
330
99FB
330
99FC
330
99FD
330
99FE
330
99FF
330
9A00
330
9A01
330
9A02
330
9A03
330
9A04
330
9A05
330
9A06
330
9A07
330
9A08
330
9A09
 94
        0
  0
ACAD_PROXY_OBJECT
  5
23CD
102
{ACAD_REACTORS
330
C
102
}
330
C
100
AcDbProxyObject
 90
      499
 91
      534
 95
       25
 70
     0
 93
       34
310
0400004280
  0
ACAD_PROXY_OBJECT
  5
23D1
102
{ACAD_REACTORS
330
C
102
}
330
C
100
AcDbProxyObject
 90
      499
 91
      535
 95
       25
 70
     0
 93
      114
310
04000041C080000000000000000000
  0
DICTIONARY
  5
4D
102
{ACAD_REACTORS
330
C
102
}
330
C
100
AcDbDictionary
281
     1
  3
AcmBOMDATA
350
99B0
  3
AcmStdDictionary
350
17E
  3
AMDTSECTSYM_ARROWCOLOR
350
9A47
  0
ACAD_PROXY_OBJECT
  5
99A7
102
{ACAD_REACTORS
330
C
102
}
330
C
100
AcDbProxyObject
 90
      499
 91
      510
 95
       25
 70
     0
 93
       50
310
00010040400000
330
0
330
0
330
99A8
 94
        0
  0
ACAD_PROXY_OBJECT
  5
99A2
102
{ACAD_REACTORS
330
C
102
}
330
C
100
AcDbProxyObject
 90
      499
 91
      505
 95
       25
 70
     0
 93
     4590
310
478050E414D4454524553455444424D4F4440805084E202D20554E444F014213880B4815539113C0504554E444F80504554E444F8050545524153458050545524153458050545524153458050545524153458050653454C454354404052D4D5347202D205050413A2020206465736B746F702E6172782046696C6556657273
310
696F6E3A20392E322E302E34014151549054D16014151549054D16014151549054D16014151549054D1501014B5354D1C80B481414104E88080819195CDADD1BDC0B985C9E08119A5B1955995C9CDA5BDB8E880E4B8C8B8C0B8D00505455241534580505455241534580505455241534580505455241534580505455241534
310
5404052D4D5347202D205050413A2020206465736B746F702E6172782046696C6556657273696F6E3A20392E322E302E34014151549054D16014151549054D16014151549054D16014151549054D1501014B5354D1C80B481414104E88080819195CDADD1BDC0B985C9E08119A5B1955995C9CDA5BDB8E880E4B8C8B8C0B8D
310
005054552415345805054552415345805054552415345805054552415345805055153415645404052D4D5347202D205050413A2020206465736B746F702E6172782046696C6556657273696F6E3A20392E322E302E34014390535115149154D15511109353D1102014213880B4815539113C05084E202D20554E444F014115
310
539113E014115539113E014154155491D1501014B5354D1C80B481414104E88080819195CDADD1BDC0B985C9E08119A5B1955995C9CDA5BDB8E880E4B8C8B8C0B8D0
  0
ACAD_PROXY_OBJECT
  5
99A1
102
{ACAD_REACTORS
330
C
102
}
330
C
100
AcDbProxyObject
 90
      499
 91
      504
 95
       25
 70
     0
 93
      578
310
09000046408000000000000000001334DE000000000000000000000000000000000000000000000000000000000000000000000000000000000000000000000000000000AAA406AA80
360
99A4
360
99A5
360
99A6
360
99A8
360
99E8
360
99E9
360
99EA
360
99EB
360
99EC
360
99ED
360
99F0
360
99F1
360
99F2
360
99F3
360
99F4
360
99F5
360
99F6
360
99F7
360
99F8
360
99F9
360
99FA
360
99FB
360
99FC
360
99FD
360
99FE
360
99FF
360
9A00
360
9A01
360
9A02
360
9A03
360
9A04
360
9A05
360
9A06
360
9A07
360
9A08
360
9A09
360
9A12
360
9A13
360
9A14
360
9A15
360
9A1B
360
9A1C
360
9A1D
360
9A1E
360
9A23
360
9A24
360
9A25
360
9A26
360
9A27
360
9A28
360
9A2B
 94
        0
  0
ACAD_PROXY_OBJECT
  5
99AC
102
{ACAD_REACTORS
330
C
102
}
330
C
100
AcDbProxyObject
 90
      499
 91
      515
 95
       25
 70
     0
 93
       50
310
09000042641280
  0
ACAD_PROXY_OBJECT
  5
99A3
102
{ACAD_REACTORS
330
C
102
}
330
C
100
AcDbProxyObject
 90
      499
 91
      507
 95
       25
 70
     0
 93
       48
310
903412000000
330
99A4
330
99A5
330
99A6
 94
        0
  0
ACAD_PROXY_OBJECT
  5
9A2A
102
{ACAD_REACTORS
330
C
102
}
330
C
100
AcDbProxyObject
 90
      499
 91
      507
 95
       25
 70
     0
 93
       32
310
90140A00
330
9A2B
 94
        0
  0
ACAD_PROXY_OBJECT
  5
9A17
102
{ACAD_REACTORS
330
C
102
}
330
C
100
AcDbProxyObject
 90
      499
 91
      574
 95
       25
 70
     0
 93
       42
310
000900004040
330
9A12
 94
        0
  0
ACAD_PROXY_OBJECT
  5
9A16
102
{ACAD_REACTORS
330
C
102
}
330
C
100
AcDbProxyObject
 90
      499
 91
      507
 95
       25
 70
     0
 93
        8
310
AA
  0
ACAD_PROXY_OBJECT
  5
9A0A
102
{ACAD_REACTORS
330
C
102
}
330
C
100
AcDbProxyObject
 90
      499
 91
      565
 95
       25
 70
     0
 93
       42
310
000100005E80
330
99E8
 94
        0
  0
DICTIONARY
  5
3F
102
{ACAD_REACTORS
330
C
102
}
330
C
100
AcDbDictionary
281
     1
  3
AcMgSettings
350
40
  3
AMGLAYCFG
350
99B4
  0
DICTIONARY
  5
73
102
{ACAD_REACTORS
330
C
102
}
330
C
100
AcDbDictionary
281
     1
  0
ACAD_PROXY_OBJECT
  5
23D2
102
{ACAD_REACTORS
330
C
102
}
330
C
100
AcDbProxyObject
 90
      499
 91
      536
 95
       25
 70
     0
 93
       34
310
0500004280
  0
ACAD_PROXY_OBJECT
  5
9A1F
102
{ACAD_REACTORS
330
C
102
}
330
C
100
AcDbProxyObject
 90
      499
 91
      577
 95
       25
 70
     0
 93
       98
310
0900004E400000000000000000
330
9A26
330
0
330
9A27
330
0
330
0
330
0
330
0
330
0
 94
        0
  0
ACAD_PROXY_OBJECT
  5
9A1A
102
{ACAD_REACTORS
330
C
102
}
330
C
100
AcDbProxyObject
 90
      499
 91
      507
 95
       25
 70
     0
 93
       56
310
90441600000000
330
9A1B
330
9A1C
330
9A1D
330
9A1E
 94
        0
  0
XRECORD
  5
11E3C
102
{ACAD_REACTORS
330
C
102
}
330
C
100
AcDbXrecord
280
     1
  1
DWGPROPS COOKIE
  2

  3

  4

  6

  7

  8

  9

300
AmdtFileType=84
301
=
302
=
303
=
304
=
305
=
306
=
307
=
308
=
309
=
 40
0.0
 41
2451943.235431667
 42
2455482.079011493
  1

 90
        1
  0
DICTIONARY
  5
1C9F
102
{ACAD_REACTORS
330
C
102
}
330
C
100
AcDbDictionary
281
     1
  3
FILENAME
350
1CA0
  0
ACAD_PROXY_OBJECT
  5
9A10
102
{ACAD_REACTORS
330
C
102
}
330
C
100
AcDbProxyObject
 90
      499
 91
      568
 95
       25
 70
     0
 93
        8
310
05
  0
DICTIONARY
  5
1CA1
102
{ACAD_REACTORS
330
C
102
}
330
C
100
AcDbDictionary
281
     1
  3
ZWKSIZE
350
1CA2
  0
DICTIONARY
  5
9F3B
102
{ACAD_REACTORS
330
9B25
102
}
330
9B25
100
AcDbDictionary
281
     1
  0
DICTIONARY
  5
9B26
102
{ACAD_REACTORS
330
9B25
102
}
330
9B25
100
AcDbDictionary
281
     1
  0
DICTIONARY
  5
9F3A
102
{ACAD_REACTORS
330
9B25
102
}
330
9B25
100
AcDbDictionary
281
     1
1001
ACAD
1000
<All
  0
DICTIONARY
  5
9F39
102
{ACAD_REACTORS
330
9B25
102
}
330
9B25
100
AcDbDictionary
280
     1
281
     1
  0
XRECORD
  5
98ED
102
{ACAD_REACTORS
330
165
102
}
330
165
100
AcDbXrecord
280
     1
340
1F
  0
SORTENTSTABLE
  5
C040
102
{ACAD_REACTORS
330
165
102
}
330
165
100
AcDbSortentsTable
330
1F
  0
XRECORD
  5
98EC
102
{ACAD_REACTORS
330
264F
102
}
330
264F
100
AcDbXrecord
280
     1
340
1B
  0
XRECORD
  5
98EE
102
{ACAD_REACTORS
330
2651
102
}
330
2651
100
AcDbXrecord
280
     1
340
23
  0
LAYOUT
  5
22
102
{ACAD_REACTORS
330
1A
102
}
330
1A
100
AcDbPlotSettings
  1

  2
SII LP-2150 (D-SCAN C2)
  4
User120
  6
AM_VIEW1
 40
3.174999952316284
 41
3.174999952316284
 42
3.17498779296875
 43
3.17498779296875
 44
296.9259948730469
 45
419.9889831542969
 46
0.0
 47
0.0
 48
0.0
 49
0.0
140
420.0
141
297.0
142
1.0
143
1.022107788374329
 70
 11952
 72
     1
 73
     1
 74
     4
  7
sei_cad.ctb
 75
     0
147
0.9783703943695685
148
0.0
149
0.0
100
AcDbLayout
  1
Model
 70
     1
 71
     0
 10
0.0
 20
0.0
 11
12.0
 21
9.0
 12
0.0
 22
0.0
 32
0.0
 14
0.0
 24
0.0
 34
0.0
 15
0.0
 25
0.0
 35
0.0
146
0.0
 13
0.0
 23
0.0
 33
0.0
 16
1.0
 26
0.0
 36
0.0
 17
0.0
 27
1.0
 37
0.0
 76
     0
330
1F
1001
ACAD_PSEXT
1000
SII LP-2150 (D-SCAN C2)
1000
SII LP-2150 (D-SCAN C2)
1000
133.153.16.130#3000
1000

1070
     0
  0
LAYOUT
  5
1E
102
{ACAD_REACTORS
330
1A
102
}
330
1A
100
AcDbPlotSettings
  1

  2
Canon LASER SHOT LBP-2030
  4

  6

 40
0.0
 41
0.0
 42
0.0
 43
0.0
 44
0.0
 45
0.0
 46
0.0
 47
0.0
 48
0.0
 49
0.0
140
0.0
141
0.0
142
1.0
143
1.0
 70
   688
 72
     0
 73
     0
 74
     5
  7
sei_cad.ctb
 75
    16
147
1.0
148
0.0
149
0.0
100
AcDbLayout
  1
ﾚｲｱｳﾄ1
 70
     1
 71
     1
 10
0.0
 20
0.0
 11
420.0
 21
297.0
 12
0.0
 22
0.0
 32
0.0
 14
1.000000000000000E+20
 24
1.000000000000000E+20
 34
1.000000000000000E+20
 15
-1.000000000000000E+20
 25
-1.000000000000000E+20
 35
-1.000000000000000E+20
146
0.0
 13
0.0
 23
0.0
 33
0.0
 16
1.0
 26
0.0
 36
0.0
 17
0.0
 27
1.0
 37
0.0
 76
     0
330
1B
  0
LAYOUT
  5
26
102
{ACAD_REACTORS
330
1A
102
}
330
1A
100
AcDbPlotSettings
  1

  2
Canon LASER SHOT LBP-2030
  4

  6

 40
0.0
 41
0.0
 42
0.0
 43
0.0
 44
0.0
 45
0.0
 46
0.0
 47
0.0
 48
0.0
 49
0.0
140
0.0
141
0.0
142
1.0
143
1.0
 70
   688
 72
     0
 73
     0
 74
     5
  7
sei_cad.ctb
 75
    16
147
1.0
148
0.0
149
0.0
100
AcDbLayout
  1
ﾚｲｱｳﾄ2
 70
     1
 71
     2
 10
0.0
 20
0.0
 11
12.0
 21
9.0
 12
0.0
 22
0.0
 32
0.0
 14
0.0
 24
0.0
 34
0.0
 15
0.0
 25
0.0
 35
0.0
146
0.0
 13
0.0
 23
0.0
 33
0.0
 16
1.0
 26
0.0
 36
0.0
 17
0.0
 27
1.0
 37
0.0
 76
     0
330
23
  0
MLINESTYLE
  5
18
102
{ACAD_REACTORS
330
17
102
}
330
17
100
AcDbMlineStyle
  2
STANDARD
 70
     0
  3

 62
   256
 51
90.0
 52
90.0
 71
     2
 49
0.5
 62
   256
  6
BYLAYER
 49
-0.5
 62
   256
  6
BYLAYER
  0
ACDBPLACEHOLDER
  5
F
102
{ACAD_REACTORS
330
E
102
}
330
E
  0
TABLESTYLE
  5
99D7
102
{ACAD_REACTORS
330
99D6
102
}
330
99D6
100
AcDbTableStyle
  3
Standard
 70
     0
 71
     8
 40
1.5
 41
1.5
280
     0
281
     0
  7
STANDARD
140
4.5
170
     2
 62
     0
 63
     7
283
     0
274
    -2
284
     1
 64
     0
275
    -2
285
     1
 65
     0
276
    -2
286
     1
 66
     0
277
    -2
287
     1
 67
     0
278
    -2
288
     1
 68
     0
279
    -2
289
     1
 69
     0
  7
STANDARD
140
6.0
170
     5
 62
     0
 63
     7
283
     0
274
    -2
284
     1
 64
     0
275
    -2
285
     1
 65
     0
276
    -2
286
     1
 66
     0
277
    -2
287
     1
 67
     0
278
    -2
288
     1
 68
     0
279
    -2
289
     1
 69
     0
  7
STANDARD
140
4.5
170
     5
 62
     0
 63
     7
283
     0
274
    -2
284
     1
 64
     0
275
    -2
285
     1
 65
     0
276
    -2
286
     1
 66
     0
277
    -2
287
     1
 67
     0
278
    -2
288
     1
 68
     0
279
    -2
289
     1
 69
     0
  0
XRECORD
  5
11E3A
102
{ACAD_REACTORS
330
11E39
102
}
330
11E39
100
AcDbXrecord
280
     1
340
99D5
  0
XRECORD
  5
11E3B
102
{ACAD_REACTORS
330
11E39
102
}
330
11E39
100
AcDbXrecord
280
     1
340
99D4
  0
DICTIONARYVAR
  5
9A53
102
{ACAD_REACTORS
330
30
102
}
330
30
100
DictionaryVariables
280
     0
  1
STANDARD
  0
DICTIONARYVAR
  5
11E38
102
{ACAD_REACTORS
330
30
102
}
330
30
100
DictionaryVariables
280
     0
  1
0
  0
DICTIONARYVAR
  5
11E37
102
{ACAD_REACTORS
330
30
102
}
330
30
100
DictionaryVariables
280
     0
  1
1
  0
ACAD_PROXY_OBJECT
  5
99B0
102
{ACAD_REACTORS
330
4D
102
}
330
4D
100
AcDbProxyObject
 90
      499
 91
      520
 95
       25
 70
     0
 93
      118
310
405010040CA904C415CD5B075DD1F8
350
99B1
 94
        0
  0
DICTIONARY
  5
17E
102
{ACAD_REACTORS
330
4D
102
}
330
4D
100
AcDbDictionary
281
     1
  3
ISO
350
9A35
  3
JIS
350
9CBB
  0
XRECORD
  5
9A47
102
{ACAD_REACTORS
330
4D
102
}
330
4D
100
AcDbXrecord
280
     1
 90
-1023410169
  0
ACAD_PROXY_OBJECT
  5
99A4
330
99A1
100
AcDbProxyObject
 90
      499
 91
      508
 95
       25
 70
     0
 93
      156
310
00010143D050D351505391D5531054925390D490
330
99A1
 94
        0
  0
ACAD_PROXY_OBJECT
  5
99A5
330
99A1
100
AcDbProxyObject
 90
      499
 91
      508
 95
       25
 70
     0
 93
      148
310
000101439050D351531253915054925390D490
330
99A1
 94
        0
  0
ACAD_PROXY_OBJECT
  5
99A6
330
99A1
100
AcDbProxyObject
 90
      499
 91
      509
 95
       25
 70
     0
 93
      156
310
000101439050D35154D6535093D314D256915080
330
99A1
 94
        0
  0
ACAD_PROXY_OBJECT
  5
99A8
330
99A1
100
AcDbProxyObject
 90
      499
 91
      511
 95
       25
 70
     0
 93
       88
310
000101411093D34C402B00
330
99A1
330
0
330
0
 94
        0
  0
ACAD_PROXY_OBJECT
  5
99E8
330
99A1
100
AcDbProxyObject
 90
      499
 91
      561
 95
       25
 70
     0
 93
      358
310
0001014124FEA55D00507392E322E302E32014124FEA55D00507392E322E302E3240501000041505391D311658
330
99A1
330
99E9
330
99EF
 94
        0
  0
ACAD_PROXY_OBJECT
  5
99E9
330
99A1
100
AcDbProxyObject
 90
      499
 91
      562
 95
       25
 70
     0
 93
       56
310
000190240E0000
330
99A1
330
99EA
330
99EC
 94
        0
  0
ACAD_PROXY_OBJECT
  5
99EA
330
99A1
100
AcDbProxyObject
 90
      499
 91
      563
 95
       25
 70
     0
 93
       48
310
0001AA000000
330
99A1
330
1E
330
99EB
330
0
 94
        0
  0
ACAD_PROXY_OBJECT
  5
99EB
330
99A1
100
AcDbProxyObject
 90
      499
 91
      564
 95
       25
 70
     0
 93
       28
310
0001AAA0
330
99A1
 94
        0
  0
ACAD_PROXY_OBJECT
  5
99EC
330
99A1
100
AcDbProxyObject
 90
      499
 91
      563
 95
       25
 70
     0
 93
       48
310
0001AA000000
330
99A1
330
26
330
99ED
330
0
 94
        0
  0
ACAD_PROXY_OBJECT
  5
99ED
330
99A1
100
AcDbProxyObject
 90
      499
 91
      564
 95
       25
 70
     0
 93
       28
310
0001AAA0
330
99A1
 94
        0
  0
ACAD_PROXY_OBJECT
  5
99F0
330
99A1
100
AcDbProxyObject
 90
      499
 91
      509
 95
       25
 70
     0
 93
      108
310
000101421053521310D05310D010
330
99A1
 94
        0
  0
ACAD_PROXY_OBJECT
  5
99F1
330
99A1
100
AcDbProxyObject
 90
      499
 91
      509
 95
       25
 70
     0
 93
      124
310
00010142905354915554D15112535010
330
99A1
 94
        0
  0
ACAD_PROXY_OBJECT
  5
99F2
330
99A1
100
AcDbProxyObject
 90
      499
 91
      509
 95
       25
 70
     0
 93
      132
310
00010143105354D150D51253D391125360
330
99A1
 94
        0
  0
ACAD_PROXY_OBJECT
  5
99F3
330
99A1
100
AcDbProxyObject
 90
      499
 91
      509
 95
       25
 70
     0
 93
      124
310
00010142905355941093D49111549010
330
99A1
 94
        0
  0
ACAD_PROXY_OBJECT
  5
99F4
330
99A1
100
AcDbProxyObject
 90
      499
 91
      509
 95
       25
 70
     0
 93
      116
310
0001014290535115D1D0D3D313D4A0
330
99A1
 94
        0
  0
ACAD_PROXY_OBJECT
  5
99F5
330
99A1
100
AcDbProxyObject
 90
      499
 91
      509
 95
       25
 70
     0
 93
      148
310
00010143505355925155D49151949154D21010
330
99A1
 94
        0
  0
ACAD_PROXY_OBJECT
  5
99F6
330
99A1
100
AcDbProxyObject
 90
      499
 91
      509
 95
       25
 70
     0
 93
      172
310
00010144105350539393D51154149154D15495915010
330
99A1
 94
        0
  0
ACAD_PROXY_OBJECT
  5
99F7
330
99A1
100
AcDbProxyObject
 90
      499
 91
      509
 95
       25
 70
     0
 93
      172
310
00010144105350555513D11253505494905391D15010
330
99A1
 94
        0
  0
ACAD_PROXY_OBJECT
  5
99F8
330
99A1
100
AcDbProxyObject
 90
      499
 91
      509
 95
       25
 70
     0
 93
      124
310
00010142D05351561514915191125360
330
99A1
 94
        0
  0
ACAD_PROXY_OBJECT
  5
99F9
330
99A1
100
AcDbProxyObject
 90
      499
 91
      509
 95
       25
 70
     0
 93
      132
310
00010142D05355105410539393D5115010
330
99A1
 94
        0
  0
ACAD_PROXY_OBJECT
  5
99FA
330
99A1
100
AcDbProxyObject
 90
      499
 91
      509
 95
       25
 70
     0
 93
      108
310
00010142105350555513D0D31010
330
99A1
 94
        0
  0
ACAD_PROXY_OBJECT
  5
99FB
330
99A1
100
AcDbProxyObject
 90
      499
 91
      509
 95
       25
 70
     0
 93
      108
310
00010142105350D3119150551050
330
99A1
 94
        0
  0
ACAD_PROXY_OBJECT
  5
99FC
330
99A1
100
AcDbProxyObject
 90
      499
 91
      509
 95
       25
 70
     0
 93
      108
310
00010142105350D315925155D3F0
330
99A1
 94
        0
  0
ACAD_PROXY_OBJECT
  5
99FD
330
99A1
100
AcDbProxyObject
 90
      499
 91
      509
 95
       25
 70
     0
 93
      148
310
0001014350535212511156915493D112535010
330
99A1
 94
        0
  0
ACAD_PROXY_OBJECT
  5
99FE
330
99A1
100
AcDbProxyObject
 90
      499
 91
      509
 95
       25
 70
     0
 93
      124
310
00010142905352105510D21254D3D010
330
99A1
 94
        0
  0
ACAD_PROXY_OBJECT
  5
99FF
330
99A1
100
AcDbProxyObject
 90
      499
 91
      509
 95
       25
 70
     0
 93
      148
310
00010143905354D25391D31152105513105660
330
99A1
 94
        0
  0
ACAD_PROXY_OBJECT
  5
9A00
330
99A1
100
AcDbProxyObject
 90
      499
 91
      509
 95
       25
 70
     0
 93
      124
310
00010142D0535115D1D193111254D420
330
99A1
 94
        0
  0
ACAD_PROXY_OBJECT
  5
9A01
330
99A1
100
AcDbProxyObject
 90
      499
 91
      509
 95
       25
 70
     0
 93
      100
310
00010142105350555513D213A0
330
99A1
 94
        0
  0
ACAD_PROXY_OBJECT
  5
9A02
330
99A1
100
AcDbProxyObject
 90
      499
 91
      509
 95
       25
 70
     0
 93
      116
310
000101425053521390D3D553951010
330
99A1
 94
        0
  0
ACAD_PROXY_OBJECT
  5
9A03
330
99A1
100
AcDbProxyObject
 90
      499
 91
      509
 95
       25
 70
     0
 93
      108
310
0001014210535213941493D29010
330
99A1
 94
        0
  0
ACAD_PROXY_OBJECT
  5
9A04
330
99A1
100
AcDbProxyObject
 90
      499
 91
      509
 95
       25
 70
     0
 93
      108
310
0001014210535213951654115070
330
99A1
 94
        0
  0
ACAD_PROXY_OBJECT
  5
9A05
330
99A1
100
AcDbProxyObject
 90
      499
 91
      509
 95
       25
 70
     0
 93
      108
310
000101421053521395925155D0F0
330
99A1
 94
        0
  0
ACAD_PROXY_OBJECT
  5
9A06
330
99A1
100
AcDbProxyObject
 90
      499
 91
      509
 95
       25
 70
     0
 93
      140
310
00010143505354D150D51253D390D3D41660
330
99A1
 94
        0
  0
ACAD_PROXY_OBJECT
  5
9A07
330
99A1
100
AcDbProxyObject
 90
      499
 91
      509
 95
       25
 70
     0
 93
      108
310
00010142105350D3141493D29030
330
99A1
 94
        0
  0
ACAD_PROXY_OBJECT
  5
9A08
330
99A1
100
AcDbProxyObject
 90
      499
 91
      508
 95
       25
 70
     0
 93
      212
310
00010143905350555513D2105510D21493D500000000000002E400
330
99A1
 94
        0
  0
ACAD_PROXY_OBJECT
  5
9A09
330
99A1
100
AcDbProxyObject
 90
      499
 91
      509
 95
       25
 70
     0
 93
      156
310
00010143905350555513D2105510D21111551010
330
99A1
 94
        0
  0
ACAD_PROXY_OBJECT
  5
9A12
330
99A1
100
AcDbProxyObject
 90
      499
 91
      570
 95
       25
 70
     0
 93
      698
310
0001000000009AA6A9AA4051E467269204A756E2032332030373A34373A333020323030362028555443290141CE4B8C8B8C0B8C80518547565204F63742031322031303A35333A343620323031300141CE4B8C8B8C0B8C80
330
99A1
330
9A13
330
9A14
330
9A16
330
0
 94
        0
  0
ACAD_PROXY_OBJECT
  5
9A13
330
99A1
100
AcDbProxyObject
 90
      499
 91
      571
 95
       25
 70
     0
 93
       70
310
0001AAA80820000000
330
99A1
330
9A13
330
9A13
 94
        0
  0
ACAD_PROXY_OBJECT
  5
9A14
330
99A1
100
AcDbProxyObject
 90
      499
 91
      572
 95
       25
 70
     0
 93
       48
310
000100000000
330
99A1
330
0
330
9A15
330
0
330
0
 94
        0
  0
ACAD_PROXY_OBJECT
  5
9A15
330
99A1
100
AcDbProxyObject
 90
      499
 91
      573
 95
       25
 70
     0
 93
       40
310
000100AAAA
330
99A1
330
0
 94
        0
  0
ACAD_PROXY_OBJECT
  5
9A1B
330
99A1
100
AcDbProxyObject
 90
      499
 91
      522
 95
       25
 70
     0
 93
      180
310
00010143105050D3D35411119390535140504434F4D500
330
99A1
 94
        0
  0
ACAD_PROXY_OBJECT
  5
9A1C
330
99A1
100
AcDbProxyObject
 90
      499
 91
      522
 95
       25
 70
     0
 93
      212
310
0001014390505193D311115491119390535140506466F6C6465720
330
99A1
 94
        0
  0
ACAD_PROXY_OBJECT
  5
9A1D
330
99A1
100
AcDbProxyObject
 90
      499
 91
      522
 95
       25
 70
     0
 93
      180
310
00010143105050539393D1119390535140504284156290
330
99A1
 94
        0
  0
ACAD_PROXY_OBJECT
  5
9A1E
330
99A1
100
AcDbProxyObject
 90
      499
 91
      522
 95
       25
 70
     0
 93
      436
310
00010143905050D3D35415925155D31254D50052295BD96CA0A90B396CA0A894591A496CA0A8DB691A496CA0A89BA96CA0A95E28F95310
330
99A1
 94
        0
  0
ACAD_PROXY_OBJECT
  5
9A23
330
99A1
100
AcDbProxyObject
 90
      499
 91
      578
 95
       25
 70
     0
 93
       32
310
00010000
330
99A1
340
9A20
330
9A25
330
9A20
 94
        0
  0
ACAD_PROXY_OBJECT
  5
9A24
330
99A1
100
AcDbProxyObject
 90
      499
 91
      579
 95
       25
 70
     0
 93
       18
310
000180
330
99A1
 94
        0
  0
ACAD_PROXY_OBJECT
  5
9A25
330
99A1
100
AcDbProxyObject
 90
      499
 91
      580
 95
       25
 70
     0
 93
      226
310
00010144520D8CD04B55D20B54D59590D38B520C4D9050055401550000
330
99A1
330
9A23
330
9A24
 94
        0
  0
ACAD_PROXY_OBJECT
  5
9A26
330
99A1
100
AcDbProxyObject
 90
      499
 91
      581
 95
       25
 70
     0
 93
      178
310
000100AAAAAAB54A018816C84011E71A8B242D3714CA40
330
99A1
330
9A25
 94
        0
  0
ACAD_PROXY_OBJECT
  5
9A27
330
99A1
100
AcDbProxyObject
 90
      499
 91
      582
 95
       25
 70
     0
 93
      108
310
000190140A000000000000AAAAA0
330
99A1
330
9A28
330
9A28
330
9A28
330
9A28
330
9A28
330
0
 94
        0
  0
ACAD_PROXY_OBJECT
  5
9A28
330
99A1
100
AcDbProxyObject
 90
      499
 91
      583
 95
       25
 70
     0
 93
       51
310
00010000AAAA80
330
99A1
330
9A27
330
9A25
 94
        0
  0
ACAD_PROXY_OBJECT
  5
9A2B
330
99A1
100
AcDbProxyObject
 90
      499
 91
      522
 95
       25
 70
     0
 93
      140
310
00010142105350D55494D511005034A49530
330
99A1
 94
        0
  0
DICTIONARY
  5
40
102
{ACAD_REACTORS
330
3F
102
}
330
3F
100
AcDbDictionary
281
     1
  3
DWGSETTINGS
350
999E
  3
Shaft
350
9F38
  3
TRANSSETTINGS
350
999F
  0
ACAD_PROXY_OBJECT
  5
99B4
102
{ACAD_REACTORS
330
3F
102
}
330
3F
100
AcDbProxyObject
 90
      499
 91
      519
 95
       25
 70
     0
 93
    17944
310
41502491013041105357CC201C00030C0132441013141105357CC603800030C0132441013241105357CCA01400030C0132441013341105357CCE01800030C01199013441105357CD200C00030C01199013541105357CD600C00030C01199013641105357CDA00800030C01239013741105357CDE01000030C0119901384110
310
5357CE200400030C01199013941105357CE63F400030C0241102324141505357CC4C201C00030C0132902344141505357CC4C600C00030C0119902495041505357CC4CA01C00030C013240902304E41505357CC13A01C00030C0132902314E41505357CC53A03800030C0132902324E41505357CC93A01400030C013290233
310
4E41505357CCD3A01800030C0119902344E41505357CD13A00C00030C0119902354E41505357CD53A00C00030C0119902364E41505357CD93A00800030C0123902374E41505357CDD3A01000030C0119902384E41505357CE13A00400030C0119902394E41505357CE53A3F400030C024110332414E41905357CC4C13A01C0
310
0030C013290334414E41905357CC4C53A00C00030C011990349504E41905357CC4C93A01C00030C0132409044B4C494E41505357D0D3200400030C011942504494E464F42105357D410549151A01000030C011942D055241484D3541905357D093D4A01C00030C0132425045649455742105357D5925155D4E00400030C011
310
942D06424548494E4441905357D25395A3F400030C0243505545241494C41505357D514A00C00030C01194250348494441905357D21251201C00030C01194250356495341905357D59254E01C00030C01324250650415244494D42505357D41054911253600C00030C01194250652454644494D42505357D49151911253601
310
000030C0119425534110921395901398000000C0003FFFFFFFE415092139594D06424548494E448000000C0003FFFFFFFE411093D48C9055241484D358010000C300466411093D48CD055241484D358020000C30048E411093D48D5055241484D358000000C0003FFFFFFFE4110D0530C901348000000C0003FFFFFFFE4110
310
D0530CD01348020000C30048E4110D0530D501348070000C3004CA4110D0530DD013481E0000C30051A4110D15393901378000000C0003FFFFFFFE4110D15395D01378000000C0003FFFFFFFE4110D312539044B4C494E8000000C0003FFFFFFFE4110D3D38C501308000000C0003FFFFFFFD034110D3D38C901318000000C
310
0003FFFFFFFD034110D3D38CD01328000000C0003FFFFFFFD034110D3D38D101328000000C0003FFFFFFFD034111115510501348000000C0003FFFFFFFE4111125051D01358000000C0003FFFFFFFE4111125312501358000000C0003FFFFFFFE411112535410650415244494D8000000C0003FFFFFFFE4111125354906524
310
54644494D8000000C0003FFFFFFFE4111915353901388000000C0003FFFFFFFE415191535413901388030000C3003FFFFFFFE4151915354D410234418000000C0003FFFFFFFE4151915354D510234418030000C300466415191535593901328000000C0003FFFFFFFE415191535595101328030000C3004664112105510D01
310
388000000C0003FFFFFFFD014112125113901338000000C0003FFFFFFFD034112125115D01338000000C0003FFFFFFFD034112131253901348000000C0003FFFFFFFD01411213D0D3901378000000C0003FFFFFFFE411213D0D5D01378000000C0003FFFFFFFE4112539193D04494E464F8000000C0003FFFFFFFE41131150
310
51101358000000C0003FFFFFFFE419397D0921395902394E8000000C0003FFFFFFFE419397D0D3D38C502304E8000000C0003FFFFFFFD03419397D0D3D38C902314E8000000C0003FFFFFFFD03419397D0D3D38CD02324E8000000C0003FFFFFFFD03419397D0D3D38D102324E8000000C0003FFFFFFFD03419397D0D15393
310
902374E8000000C0003FFFFFFFE419397D0D15395D02374E8000000C0003FFFFFFFE419397D1125312502354E8000000C0003FFFFFFFE419397D2105510D02384E8000000C0003FFFFFFFD01419397D2125113902334E8000000C0003FFFFFFFD03419397D2125115D02334E8000000C0003FFFFFFFD03419397D311505110
310
2354E8000000C0003FFFFFFFE419397D391D25410349504E8000000C0003FFFFFFFE419397D412105390334414E8000000C0003FFFFFFFE419397D510D3D3902304E8000000C0003FFFFFFFD03419397D5121312502344E8000000C0003FFFFFFFD01419397D5131153902304E8000000C0003FFFFFFFD03419397D5941312
310
50332414E8000000C0003FFFFFFFE411391D25410249508000000C0003FFFFFFFE411410530C9055241484D358010000C300466411410530CD055241484D358020000C30048E411410530D5055241484D358000000C0003FFFFFFFE411412105390234418000000C0003FFFFFFFE411413D4D3901358000000C0003FFFFFFF
310
E411490D1D3901378000000C0003FFFFFFFE411490D1D5D01378000000C0003FFFFFFFE4114D09492D01348000000C0003FFFFFFFD014114D150D5101348000000C0003FFFFFFFD014114D6508CD01358020000C30048E411354D653501358020000C30048E411510D3D3901308000000C0003FFFFFFFD0341151213125013
310
48000000C0003FFFFFFFD01411512550C9055241484D358010000C300466411512550CD055241484D358020000C30048E411512550D5055241484D358000000C0003FFFFFFFE4115131153901308000000C0003FFFFFFFD03415514905253105545241494C8000000C0003FFFFFFFE4115149312501348000000C0003FFFFF
310
FFD01411516150C501368030000C300466411516150C901368030000C300466411516150CD01368000000C0003FFFFFFFE411516150D501368070000C3004CA411516150DD013681E0000C30051A4115925155D04564945578000000C0003FFFFFFFE41159151121034849448000000C0003FFFFFFFD024115915115903564
310
9538000000C0003FFFFFFFD02411594131250232418000000C0003FFFFFFFE4116925690501348000000C0003FFFFFFFD01AAA00000030401013F90A405194092340D1941119415324191941D3243932479467F6
340
16
340
16
340
16
340
43
340
16
340
16
340
16
340
44
340
16
340
16
340
44
340
45
340
16
340
16
340
16
340
16
340
43
340
16
340
16
340
16
340
44
340
16
340
16
340
44
340
45
340
16
340
46
340
16
340
16
340
16
340
16
340
16
340
43
340
16
340
16
340
16
340
15
340
15
340
15
340
15
340
15
340
15
340
15
340
15
340
15
340
48
340
15
340
15
340
15
340
15
340
15
340
15
340
15
340
15
340
15
340
15
340
15
340
15
340
15
340
16
340
15
340
15
340
15
340
15
340
47
340
15
340
15
340
48
340
15
340
15
340
15
340
15
340
15
340
15
340
15
340
15
340
48
340
15
340
15
340
15
340
47
340
15
340
15
340
15
340
15
340
15
340
15
340
15
340
15
340
15
340
15
340
15
340
15
340
15
340
15
340
48
340
15
340
15
340
15
340
15
340
15
340
15
340
15
340
15
340
15
340
15
340
15
340
15
340
15
340
15
340
15
340
15
340
15
340
15
340
15
340
15
340
15
340
15
340
4B
 94
        0
  0
XRECORD
  5
1CA0
102
{ACAD_REACTORS
330
1C9F
102
}
330
1C9F
100
AcDbXrecord
280
     1
  1
21000845__00___
  0

  0
XRECORD
  5
1CA2
102
{ACAD_REACTORS
330
1CA1
102
}
330
1CA1
100
AcDbXrecord
280
     1
  1
3
  0

  0
ACAD_PROXY_OBJECT
  5
99B1
102
{ACAD_REACTORS
330
99B0
102
}
330
99B0
100
AcDbProxyObject
 90
      499
 91
      521
 95
       25
 70
     0
 93
      157
310
057356C1D77406406AA8FFFFFFFF05DD01009010
330
1F
330
0
330
9A25
 94
        0
  0
ACAD_PROXY_OBJECT
  5
9A35
102
{ACAD_REACTORS
330
17E
102
}
330
17E
100
AcDbProxyObject
 90
      499
 91
      589
 95
       25
 70
     0
 93
     2497
310
5DC0000000000000C408030000C30040D254D3D01640600800030C0200800030C000000000000000C40C88A2085A0B6B23A22B233B2A9BA3220480A1C82C6DAA6EAE4CCA8CAF0E8A6E8C88120284A0B1B6A321A329BA3220480A1A82C6DAAECAD8C8D2DCCEA6E8C8812028420B1B6A4B229BA3220480A1682C6DA88C2E8EAD
310
AA6E8C88120284A0B1B6A127A6A9BA3220480A2082DAC8E888CAE8C2D2D8A6F2DAA6E8C88120288A0B6B23A29B2B1BA34B7B729BCB6A9BA3220480A2282DAC8E886CADCE8CAE498D2DCCAA6E8C88120288A0B6B23A2A343932B0B22634B732A9BA3220480A1682DAC8E89CDEE8CAA6E8C88120285A0B1A0B6B3A630BCA9BA3
310
220480A1682C682DACE88D2DAA6E8C88120288A0B1A0B6B3A437B632A1B430B93A29BA3220480A1A82C682DACEA8D2E8D8CAA6E8C8812032048080
340
9A36
360
9A37
360
9A38
360
9A39
360
9A3A
360
9A3B
360
9A3C
360
9A3D
360
9A3E
360
9A3F
360
9A40
360
9A41
360
9A42
360
9A4D
360
9A4E
360
9A4F
360
9A50
340
0
340
0
 94
        0
  0
ACAD_PROXY_OBJECT
  5
9CBB
102
{ACAD_REACTORS
330
17E
102
}
330
17E
100
AcDbProxyObject
 90
      499
 91
      526
 95
       25
 70
     0
 93
     2379
310
5DC33333333333309408000000C00040D29254D01640600800030C0200800030C003333333333330940C8121E8720B1B6A9BAB9332A32BC3A29BA3220480A1282C6DA8C868CA6E8C88120286A0B1B6ABB2B63234B733A9BA3220480A1082C6DA92C8A6E8C88120285A0B1B6A230BA3AB6A9BA3220480A1282C6DA849E9AA6E
310
8C88120286A0B1A0B6B3AA34BA3632A9BA3220480A2082DAC8E888CAE8C2D2D8A6F2DAA6E8C88120288A0B6B23A29B2B1BA34B7B729BCB6A9BA3220480A2282DAC8E886CADCE8CAE498D2DCCAA6E8C88120288A0B6B23A2A343932B0B22634B732A9BA3220480A1682DAC8E89CDEE8CAA6E8C88120285A0B1A0B6B3A630BCA
310
9BA3220480A1682C682DACE88D2DAA6E8C88120288A0B1A0B6B3A437B632A1B430B93A29BA3220480C812020
340
180
360
9CBC
360
9CBD
360
9CBE
360
9CBF
360
9CC0
360
9CC1
360
9CC2
360
9CC3
360
9CC4
360
9CC5
360
9CC6
360
9CC7
360
9CCD
360
9CCE
360
9CCF
340
0
340
0
 94
        0
  0
ACAD_PROXY_OBJECT
  5
999E
102
{ACAD_REACTORS
330
40
102
}
330
40
100
AcDbProxyObject
 90
      499
 91
      518
 95
       25
 70
     0
 93
     2892
310
4050B44574753455454494E4753A0E8482A68AA6A88882A069492A684A1A0A723A0A92920ACA0A8419983E1A1ABE1B1820C868A9C829C8E82A12686AF87260F862666A8321A2A72224A0A50000000000000122020E868A9C889282A682A106260F86460F8666083A1A2A72224A9AA250000000000000042020C868A9C988A9
310
C94000000000000048808321A2A727A323250000000000000122020E868A9C9E8C8C62940000000000000488083A1A2A727A3231925000000000000012202128698929C82A4A482B282A04626A8421A624A722AA2CA820A82AC2624A722A1288AE8EAAA68682988A94283A620A9AA27A12520A82989822A09C2109A82968AA
310
C928AAE9FA04832829A1A0A622830020000419491559254D2505404C1055343414C4541503313A314214D510539110549110540D29254D0954494D455354414D504A00550AF41792B734141D5915494D253D3905414C4D4B8C0C1107B44574753455454494E4753454E447D0
  0
ACAD_PROXY_OBJECT
  5
9F38
102
{ACAD_REACTORS
330
40
102
}
330
40
100
AcDbProxyObject
 90
      499
 91
      518
 95
       25
 70
     0
 93
      199
310
405055368616674220F688AE8EA68AA8A8929C8EA68A9C88FA
  0
ACAD_PROXY_OBJECT
  5
999F
102
{ACAD_REACTORS
330
40
102
}
330
40
100
AcDbProxyObject
 90
      499
 91
      518
 95
       25
 70
     0
 93
      852
310
4050D5452414E5353455454494E4753A2488A482AE929C8EA8A4829CA69882A8929E9C0C00800050D4F524947494E414C4C595F4F4E0600400008529A7AAA921A2A620A723A0A81A52827212AAA0A48AA68AA4AC8A0C0080001107B44574753455454494E4753454E447D0
  0
ACAD_PROXY_OBJECT
  5
9A37
330
9A35
100
AcDbProxyObject
 90
      499
 91
      590
 95
       25
 70
     0
 93
       13
310
5DD8
  0
ACAD_PROXY_OBJECT
  5
9A38
330
9A35
100
AcDbProxyObject
 90
      499
 91
      591
 95
       25
 70
     0
 93
       96
310
5DEA0E80A0280A0280A0280F
  0
ACAD_PROXY_OBJECT
  5
9A39
330
9A35
100
AcDbProxyObject
 90
      499
 91
      592
 95
       25
 70
     0
 93
      272
310
5DD0E4050140501405014050140501405014050140D01405012C0000000000000040
340
9A43
 94
        0
  0
ACAD_PROXY_OBJECT
  5
9A3A
330
9A35
100
AcDbProxyObject
 90
      499
 91
      593
 95
       25
 70
     0
 93
      497
310
5DE8666666666667A67E199999999999E99FD22405014050140501405014050140501405014050140501405014050140501405014050140501405014050100
340
9A44
 94
        0
  0
ACAD_PROXY_OBJECT
  5
9A3B
330
9A35
100
AcDbProxyObject
 90
      499
 91
      594
 95
       25
 70
     0
 93
       10
310
5DC0
  0
ACAD_PROXY_OBJECT
  5
9A3C
330
9A35
100
AcDbProxyObject
 90
      499
 91
      595
 95
       25
 70
     0
 93
      257
310
5DE290EA22A7D90F49F80000000000001081400000000000004204010000618000
340
9A45
340
9A46
 94
        0
  0
ACAD_PROXY_OBJECT
  5
9A3D
330
9A35
100
AcDbProxyObject
 90
      499
 91
      596
 95
       25
 70
     0
 93
    13013
310
5DD0E411255115350141236025B690140501406901000000000000091013347454E545241434F2C4A504E2C302C8D8096DA2C47454E54524154582C25732C2847454E4D53472067656E647767203232322940690120281A8AA2CA0282484A4BE52028120280A0320200000000000012202668E8A9CA8A482869E5894A09C58
310
605921292F94588E8A9CA8A482A8B0584AE658508E8A9C9AA68E40CECADCC8EECE406464665280D202405044E414D454050496BC914F4051C40640A80000000000004E404CD1D15395149050D3CB1294138B0C0B25AF2453CB11D15395149055160B095CCB0A11D1539354D1C819D95B991DD9C80C8C8D8A50192C3D494628
310
4953424C414E4B28504152543A4E414D45292C424C4F434B3A4E414D452C504152543A4E414D452940480A0A888AA686A480A09251B1DBE80A3A80C81D0000000000100A28099A3A2A72A2920A1A7962528271618164946C76F9623A2A72A2920AA2C1612B9961423A2A726A9A39033B2B7323BB39019189B94A0348090142
310
14D51053911054911014122D2E29A50147501904A000000000000125013347454E545241434F2C4A504E2C302C8B4B8A692C47454E54524154582C25732C2847454E4D53472067656E64776720323138294069012028426A0AA22A924A0A62028246EF4BDFA028EA0320B40000000000001CA02668E8A9CA8A482869E5894A
310
09C5860591BBD2F7E588E8A9CA8A482A8B0584AE658508E8A9C9AA68E40CECADCC8EECE406464625280D202405044E4F544540504928D8B4C4051D40641A80000000000003E404CD1D15395149050D3CB1294138B0C0B24A362D30B11D15395149055160B095CCB0A11D1539354D1C819D95B991DD9C80C8C8D4A501240480
310
A0CAC8A9C889EA480A1106F1072706BF02B680A3A80C83D00000000000007C809BA3A2A72A2920A1A79625282716181641BC41C9C1AFC0AD9623A2A72A2920AA2C1612B9961423A2A726A9A39033B2B7323BB39019191A14A0248090141911154D0D48C90141A43825AF880C90147501908A000000000020145013447454E5
310
45241434F2C4A504E2C302C90E096BE20322C47454E54524154582C25732C2847454E4D53472067656E6477672033362940490120284A9AA20A72220A922192028345A5C53490192028EA03213400000000000024A026A8E8A9CA8A482869E5894A09C586059169714D24064588E8A9CA8A482A8B0584AE658508E8A9C9AA6
310
8E40CECADCC8EECE4064646052809202405094D4154455249414C32405068DDE97BF20324051D40642A8713D0AD7A37045404D11D15395149050D3CB1294138B0C0B2377A5EFC80C8B11D15395149055160B095CCB0A11D1539354D1C819D95B991DD9C80D0C0A501240480A089A82A6A680A091D7F2F9480A3A80A0485A06
310
8100000000000007C809923A2A72A2920A1A796252827161816475FCBE51623A2A72A2920AA2C1612B9961423A2A726A9A39033B2B7323BB3901A1914A024809014154149250D150141226FE29A501475014090C409020000000000000F9013247454E545241434F2C4A504E2C302C89BF8A692C47454E54524154582C2573
310
2C2847454E4D53472067656E6477672034332940490120281A224A6A02824850CB202028EA028121A81A040000000000001F202648E8A9CA8A482869E5894A09C58605921432C80588E8A9CA8A482A8B0584AE658508E8A9C9AA68E40CECADCC8EECE406868528092024050E445020000000000000510201C00030C0001018
310
0000000000003E400000000000000F901073D3C4954454D3E4050180000000000003E400000000000000F901073D3C4954454D3E40501800000000000034400000000000000D101073D3C4954454D3E40501800000000000034400000000000000D101073D3C4954454D3E405029010000000000000F9000000000000003E4
310
041CF4F125511534F901418F4F1455164F9014060000000000000F9000000000000003E4041CF4F125511534F9014060000000000000D100000000000000344041CF4F125511534F901901000000000000000F9000000000000003E40A2200000000000008204038000618048220681A048120280C88214844882034852034
310
8452028521485214814000000000000F0BF0000000000003C2FD018020000C3008070000C3003373333333333B0FCCDCCCCCCCCCCEC3F000000000000031012034164050341105901A000000000000062040100006180401000061804008000618008098A02808
340
0
340
0
 94
        0
  0
ACAD_PROXY_OBJECT
  5
9A3E
330
9A35
100
AcDbProxyObject
 90
      499
 91
      597
 95
       25
 70
     0
 93
      898
310
5DC4000000000000144048CF4F11115510525317D3105091530F880A0F11115510525317D05094D4D0D053114F8A51141C9A9999999999B93F26A666666666724FC000000000000E03F400000000000000400000000000000510000000000000024408070000C300000000000000051000
340
16
340
9A36
 94
        0
  0
ACAD_PROXY_OBJECT
  5
9A3F
330
9A35
100
AcDbProxyObject
 90
      499
 91
      598
 95
       25
 70
     0
 93
      823
310
5DC0B00000000000002880959E9E29A2A1AA24A7A72FA620A122A62FA324A929AA1F169E29A2A1AA24A7A72FA620A122A62FA620A9AA1F000000000000048803FFFE01C00030C0088C0380006180000000000000048800000000000000A2000000000000002880
340
652
340
9A36
 94
        0
  0
ACAD_PROXY_OBJECT
  5
9A40
330
9A35
100
AcDbProxyObject
 90
      499
 91
      599
 95
       25
 70
     0
 93
      152
310
5DE80000000000000840A3D0A5723F0BD1F200
  0
ACAD_PROXY_OBJECT
  5
9A41
330
9A35
100
AcDbProxyObject
 90
      499
 91
      600
 95
       25
 70
     0
 93
       14
310
5DE0
340
0
 94
        0
  0
ACAD_PROXY_OBJECT
  5
9A42
330
9A35
100
AcDbProxyObject
 90
      499
 91
      601
 95
       25
 70
     0
 93
     8619
310
5DD084050BA4050AA405024050E836583938376838C815B836720314043A013D2525633C486F6C653A63746469613E2078203C486F6C653A637464657074683E20555C503C696628657175616C28486F6C653A7461707065642C223022292C22252563222C486F6C653A6E6F6D696E616C202220782022293E3C6966286571
310
75616C28486F6C653A7461707065642C223022292C486F6C653A6469612C486F6C653A706974636864657363293E3C696628657175616C28486F6C653A7461707065642C223122292C22207820222C2222293E3C696628657175616C28486F6C653A7461707065642C223122292C486F6C653A74617064657074682C222229
310
3E203C696628657175616C28486F6C653A7465726D696E6174696F6E2C223022292C22202F20222C2222293E3C696628657175616C28486F6C653A7465726D696E6174696F6E2C223022292C486F6C653A64657074682C2222293E406901405034050E836583938376838C815B836720314043B013D2525633C486F6C653A6
310
3746469613E2078203C486F6C653A6374616E676C653E2525645C503C696628657175616C28486F6C653A7461707065642C223022292C22252563222C486F6C653A6E6F6D696E616C202220782022293E3C696628657175616C28486F6C653A7461707065642C223022292C486F6C653A6469612C486F6C653A70697463686
310
4657363293E3C696628657175616C28486F6C653A7461707065642C223122292C22207820222C2222293E3C696628657175616C28486F6C653A7461707065642C223122292C486F6C653A74617064657074682C2222293E203C696628657175616C28486F6C653A7465726D696E6174696F6E2C223022292C22202F20222C2
310
222293E3C696628657175616C28486F6C653A7465726D696E6174696F6E2C223022292C486F6C653A64657074682C2222293E406901405014050E836583938376838C815B8367203140416013D3C696628657175616C28486F6C653A7461707065642C223022292C22252563222C486F6C653A6E6F6D696E616C2022207820
310
22293E3C696628657175616C28486F6C653A7461707065642C223022292C486F6C653A6469612C486F6C653A706974636864657363293E3C696628657175616C28486F6C653A7461707065642C223122292C22207820222C2222293E3C696628657175616C28486F6C653A7461707065642C223122292C486F6C653A746170
310
64657074682C2222293E203C696628657175616C28486F6C653A7465726D696E6174696F6E2C223022292C22202F20222C2222293E3C696628657175616C28486F6C653A7465726D696E6174696F6E2C223022292C486F6C653A64657074682C2222293E4069014051E4090E836583938376838C815B83672032405173D3C5
310
35444503A444553433E203C535444503A5354443E40690E836583938376838C815B836720314050C3D3C535444503A444553433E40690240515AAABBA120
360
9A4B
330
9A4B
360
9A4C
330
9A4C
360
9A4A
330
9A4A
360
9A49
360
9A48
330
9A49
330
9A48
 94
        0
  0
ACAD_PROXY_OBJECT
  5
9A4D
330
9A35
100
AcDbProxyObject
 90
      499
 91
      542
 95
       25
 70
     0
 93
    23182
310
5DD02491013041105357CC201C00030C0132441013141105357CC603800030C0132441013241105357CCA01400030C0132441013341105357CCE01800030C01199013441105357CD200C00030C01199013541105357CD600C00030C01199013641105357CDA00800030C01239013741105357CDE01000030C0119901384110
310
5357CE200400030C01199013941105357CE63F400030C0241102324141505357CC4C201C00030C0132902344141505357CC4C600C00030C0119902495041505357CC4CA01C00030C013240902304E41505357CC13A01C00030C0132902314E41505357CC53A03800030C0132902324E41505357CC93A01400030C013290233
310
4E41505357CCD3A01800030C0119902344E41505357CD13A00C00030C0119902354E41505357CD53A00C00030C0119902364E41505357CD93A00800030C0123902374E41505357CDD3A01000030C0119902384E41505357CE13A00400030C0119902394E41505357CE53A3F400030C024110332414E41905357CC4C13A01C0
310
0030C013290334414E41905357CC4C53A00C00030C011990349504E41905357CC4C93A01C00030C0132409044B4C494E41505357D0D3200400030C011942504494E464F42105357D410549151A01000030C011942D055241484D3541905357D093D4A01C00030C0132425045649455742105357D5925155D4E00400030C011
310
942D06424548494E4441905357D25395A3F400030C0243505545241494C41505357D514A00C00030C01194250348494441905357D21251201C00030C01194250356495341905357D59254E01C00030C01324250650415244494D42505357D41054911253600C00030C01194250652454644494D42505357D49151911253601
310
000030C0119425774110531514901348070000C3004C9034110915312501348000000C0003FFFFFFFD034110921395901398000000C0003FFFFFFFE415092139594D06424548494E448000000C0003FFFFFFFE411093125110234418000000C0003FFFFFFFD03411093D05410234418000000C0003FFFFFFFD03411093D48C
310
9055241484D358010000C300466411093D48CD055241484D358020000C30048E411093D48D5055241484D358000000C0003FFFFFFFE411093D48DD055241484D3581E0000C30051903411094105410234418000000C0003FFFFFFFD03411094115610234418000000C0003FFFFFFFD034110951112501358000000C0003FFF
310
FFFFD034110D0530C901348000000C0003FFFFFFFE4110D0530CD01348020000C30048E4110D0530D501348070000C3004CA4110D0530DD013481E0000C30051A4110D15393901378000000C0003FFFFFFFE4110D15395D01378000000C0003FFFFFFFE4110D312539044B4C494E8000000C0003FFFFFFFE4110D3D38C5013
310
08000000C0003FFFFFFFD034110D3D38C901318000000C0003FFFFFFFD034110D3D38CD01328000000C0003FFFFFFFD034110D3D38D101328000000C0003FFFFFFFD034111115494101348000000C0003FFFFFFFD034111115510501348000000C0003FFFFFFFE4111125051D01358000000C0003FFFFFFFE4111125312501
310
358000000C0003FFFFFFFE411112535410650415244494D8000000C0003FFFFFFFE411112535490652454644494D8000000C0003FFFFFFFE411156135410234418000000C0003FFFFFFFD034111915353901388000000C0003FFFFFFFE415191535413901388030000C3003FFFFFFFE4151915354D410234418000000C0003
310
FFFFFFFE4151915354D510234418030000C300466415191535593901328000000C0003FFFFFFFE415191535595101328030000C3004664111931055101308000000C0003FFFFFFFD03411194905490234418000000C0003FFFFFFFD034111D49312501358000000C0003FFFFFFFD034111D5931250234418000000C0003FFF
310
FFFFD034112105510D01388000000C0003FFFFFFFD014112125113901338000000C0003FFFFFFFD034112125115D01338000000C0003FFFFFFFD034112131253901348000000C0003FFFFFFFD01411213D0D3901378000000C0003FFFFFFFE411213D0D5D01378000000C0003FFFFFFFE4112539193D04494E464F8000000C
310
0003FFFFFFFE4113105112501348000000C0003FFFFFFFD034113115051101358000000C0003FFFFFFFE419397D0921395902394E8000000C0003FFFFFFFE419397D0D3D38C502304E8000000C0003FFFFFFFD03419397D0D3D38C902314E8000000C0003FFFFFFFD03419397D0D3D38CD02324E8000000C0003FFFFFFFD03
310
419397D0D3D38D102324E8000000C0003FFFFFFFD03419397D0D15393902374E8000000C0003FFFFFFFE419397D0D15395D02374E8000000C0003FFFFFFFE419397D1125312502354E8000000C0003FFFFFFFE419397D2105510D02384E8000000C0003FFFFFFFD01419397D2125113902334E8000000C0003FFFFFFFD0341
310
9397D2125115D02334E8000000C0003FFFFFFFD03419397D3115051102354E8000000C0003FFFFFFFE419397D391D25410349504E8000000C0003FFFFFFFE419397D412105390334414E8000000C0003FFFFFFFE419397D510D3D3902304E8000000C0003FFFFFFFD03419397D5121312502344E8000000C0003FFFFFFFD01
310
419397D5131153902304E8000000C0003FFFFFFFD03419397D516150CD02364E8000000C0003FFFFFFFD03419397D594131250332414E8000000C0003FFFFFFFE411391D25410249508000000C0003FFFFFFFE411410530C9055241484D358010000C300466411410530CD055241484D358020000C30048E411410530D5055
310
241484D358000000C0003FFFFFFFE411410530DD055241484D3581E0000C30051903411412105390234418000000C0003FFFFFFFE411413D4D3901368070000C3004CA419413D4D49151901368050000C3004C903411413D4D6101368000000C0003FFFFFFFD03411414D150D0234418000000C0003FFFFFFFD03411490D1D
310
3901378000000C0003FFFFFFFE411490D1D5D01378000000C0003FFFFFFFE4114919112501348000000C0003FFFFFFFD034114945514901348070000C3004C903411494D093D01348000000C0003FFFFFFFD034114D09492D01348000000C0003FFFFFFFD014114D0D153901378000000C0003FFFFFFFD034114D150D51013
310
48000000C0003FFFFFFFD014114D15313901378000000C0003FFFFFFFD034114D15315D01378000000C0003FFFFFFFD034114D4D654D01308000000C0003FFFFFFFD034114D51312501348070000C3004C9034114D6508C501358000000C0003FFFFFFFD034114D6508C901358000000C0003FFFFFFFD034114D6508CD0135
310
8020000C30048E4114D6508D501358070000C3004C9034114D65353901378000000C0003FFFFFFFD034114D65355D01378000000C0003FFFFFFFD03411510D3D3901308000000C0003FFFFFFFD034115121312501348000000C0003FFFFFFFD01411512550C9055241484D358010000C300466411512550CD055241484D358
310
020000C30048E411512550D5055241484D358000000C0003FFFFFFFE411512550DD055241484D3581E0000C300519034115131153901308000000C0003FFFFFFFD03415514905253105545241494C8000000C0003FFFFFFFE41151492D3901378000000C0003FFFFFFFD0341151492D5D01378000000C0003FFFFFFFD03411
310
5149312501348000000C0003FFFFFFFD01411516150C501368030000C300466411516150C901368030000C300466411516150CD01368000000C0003FFFFFFFE411516150D501368070000C3004CA411516150DD013681E0000C30051A4115925155D04564945578000000C0003FFFFFFFE41159151121034849448000000C0
310
003FFFFFFFD0241159151159035649538000000C0003FFFFFFFD02411594131250232418000000C0003FFFFFFFE4116925690501348000000C0003FFFFFFFD01411354D653501358020000C30048E429014650248D0346504465054C906465074C90E4C91E519FD8
340
99B4
340
16
340
16
340
16
340
43
340
16
340
16
340
16
340
44
340
16
340
16
340
44
340
45
340
16
340
16
340
16
340
16
340
43
340
16
340
16
340
16
340
44
340
16
340
16
340
44
340
45
340
16
340
46
340
16
340
16
340
16
340
16
340
16
340
43
340
16
340
16
340
16
340
47
340
15
340
15
340
15
340
15
340
15
340
15
340
15
340
15
340
15
340
15
340
15
340
15
340
15
340
15
340
15
340
15
340
48
340
15
340
15
340
15
340
15
340
15
340
15
340
15
340
15
340
15
340
15
340
15
340
15
340
15
340
15
340
15
340
16
340
15
340
15
340
15
340
15
340
15
340
15
340
15
340
15
340
47
340
15
340
15
340
48
340
15
340
15
340
15
340
15
340
15
340
15
340
15
340
15
340
15
340
48
340
15
340
15
340
15
340
47
340
15
340
15
340
15
340
15
340
15
340
15
340
15
340
15
340
15
340
15
340
15
340
15
340
15
340
15
340
15
340
15
340
15
340
15
340
15
340
48
340
15
340
15
340
48
340
15
340
15
340
16
340
15
340
48
340
15
340
15
340
47
340
15
340
15
340
16
340
15
340
48
340
15
340
15
340
15
340
15
340
15
340
15
340
15
340
15
340
15
340
48
340
15
340
15
340
15
340
15
340
15
340
15
340
15
340
15
340
15
340
15
340
15
340
4B
340
16
 94
        0
  0
ACAD_PROXY_OBJECT
  5
9A4E
330
9A35
100
AcDbProxyObject
 90
      499
 91
      543
 95
       25
 70
     0
 93
      250
310
5DD020000000000000A1000000000000002440408F0F9023C3E409A0DCFFFF80
340
0
340
0
340
0
340
0
340
0
340
0
340
0
340
0
340
0
340
0
 94
        0
  0
ACAD_PROXY_OBJECT
  5
9A4F
330
9A35
100
AcDbProxyObject
 90
      499
 91
      603
 95
       25
 70
     0
 93
    13889
310
5DD1D003FFFFFFFD030300030000000000000310200800030C01030300030000000000000310200800030C00050C8DC0955782CC838A83588367014ED1D15395149050D3CB1294138B0C0B23702555E0B320E2A0D620D9CB11D15395149055160B095CCB0A11D1539354D1C819D95B991A5B5E880CCC0A78000C0000000000
310
00000000000000000000010000000000000310200800030C010000000000000310200800030C020143CF4F111959985D5B1D151A5D1B194F8050A8C8A8365815B8375838B014E51D15395149050D3CB1294138B0C0B2322A0D96056E0DD60E2CB11D15395149055160B095CCB0A11D1539354D1C819D95B991A5B5E880CCC4
310
A78000C000000000000000000000000000000010000000000000310200800030C010000000000000310200800030C020143CF4F111959985D5B1D151A5D1B194F90D44111409034110541D0C4350F4050E44D03449074510F000141232D24D7C053247454E545241434F2C4A504E2C302C8CB4935F2C47454E54524154582C
310
25732C2847454E4D53472067656E64696D7A20312900010104002214000281464500A608E8A9CA8A482869E5894A09C5860591914588E8A9CA8A482A8B0584AE658508E8A9C9AA68E40CECADCC8D2DAF4406452029E9E9E27B934B3B4B71F1E24A31427A91424A9A12620A7259427B934B3B4B7149624A9A12620A7259424B
310
A32B6949496111116111711149F1E24BA32B69F00808200111A000140560052F47454E545241434F2C4A504E2C302C582C47454E54524154582C25732C2847454E4D53472067656E64696D7A20332900010100002054000280AC80A5E8E8A9CA8A482869E5894A09C586058B2588E8A9CA8A482A8B0584AE658508E8A9C9AA
310
68E40CECADCC8D2DAF4406852000202000040E800050152014BD1D15395149050D3CB1294138B0C0B148B11D15395149055160B095CCB0A11D1539354D1C819D95B991A5B5E880D8A400040400008250000A0507A6029823A2A72A2920A1A79625282716181641E99623A2A72A2920AA2C1612B9961423A2A726A9A39033B2
310
B73234B6BD101B948000808180105A000140A0F4C053047454E545241434F2C4A504E2C302C83D32C47454E54524154582C25732C2847454E4D53472067656E64696D7A203829000101010020F400028248704B5F00A668E8A9CA8A482869E5894A09C58605921C12D7C588E8A9CA8A482A8B0584AE658508E8A9C9AA68E40
310
CECADCC8D2DAF440646052000200080043280005048B4B8A69014CD1D15395149050D3CB1294138B0C0B22D2E29A4B11D15395149055160B095CCB0A11D1539354D1C819D95B991A5B5E880C8C4A4000400100086D0000A09196926BE029923A2A72A2920A1A796252827161816465A49AF9623A2A72A2920AA2C1612B9961
310
423A2A726A9A39033B2B73234B6BD10189480A02620202080043E80005048D8096DA014CD1D15395149050D3CB1294138B0C0B236025B68B11D15395149055160B095CCB0A11D1539354D1C819D95B991A5B5E880C4D0A4000404140280D0000A190687072706CD06C5069D06B0029DA3A2A72A2920A1A7962528271618164
310
1A1C1C9C1B341B141A741AC1623A2A72A2920AA2C1612B9961423A2A726A9A39033B2B73234B6BD10189A94800080828050EA000143A322A0D0E0E4E0D9A0D8A0D3A0D60053D47454E545241434F2C4A504E2C302C8C8A8343839383668362834E83582C47454E54524154582C25732C2847454E4D53472067656E64696D7A
310
2031372900010105002274000281464500A628E8A9CA8A482869E5894A09C5860591914588E8A9CA8A482A8B0584AE658508E8A9C9AA68E40CECADCC8D2DAF440626C52000202080044A8000504909497CA014CD1D15395149050D3CB1294138B0C0B242525F28B11D15395149055160B095CCB0A11D1539354D1C819D95B9
310
91A5B5E880C4E4A400040418008A521E000000000000001CA040C00000000000034408080000000000006881010000000000000D102040000000000001A204080000000000003440818000000000000728103000000000000125020600000000004028A040000000000000034408000000000000004881000000000000000D
310
102000000000000001A204000000000000003440818000000000000508143C0000000000000039408180000000000006881030000000000000D102060000000000001A2040C00000000000034408180000000000006881030000000000000E5020600000000000024A040C0000000000805140800000000000000688100000
310
00000000009102000000000000001A2040000000000000034408180000000000006881030000000000000A10284220000000878000002020000008380000020400000081800000208000000828000002028900000000
340
0
340
0
340
0
340
0
340
9A36
340
9A36
 94
        0
  0
ACAD_PROXY_OBJECT
  5
9A50
330
9A35
100
AcDbProxyObject
 90
      499
 91
      537
 95
       25
 70
     0
 93
     7018
310
5DD9740D254D3D0649534F5F4133429254D3D7D5125513115051349534F5F42525F5265766973696F6E6C69737446111413478342028323937783834316D6D2920421254D3D7D04D1E0D11141327835202835393478323130326D6D29421254D3D7D04C9E0D51141337837202834323078323038306D6D29421254D3D7D04C
310
DE0DD1141347839202832393778313839326D6D29421254D3D7D04D1E0E50E41312028353934783834316D6D29419254D3D7D04C51141327834202835393478313638326D6D29421254D3D7D04C9E0D11141347838202832393778313638326D6D29421254D3D7D04D1E0E10E41332028323937783432306D6D29419254D3D
310
7D04CD104130202838343078313138396D6D2920419254D3D7D04C11141347835202832393778313035316D6D29421254D3D7D04D1E0D51141347836202832393778313236316D6D29421254D3D7D04D1E0D91141347837202832393778313437316D6D29421254D3D7D04D1E0DD1141327833202835393478313236316D6D
310
29421254D3D7D04C9E0CD1141337834202834323078313138396D6D29421254D3D7D04CDE0D110413478332028323937783633306D6D29421254D3D7D04D1E0CD1141337835202834323078313438366D6D29421254D3D7D04CDE0D51141337836202834323078313738336D6D29421254D3D7D04CDE0D9104133783320283
310
43230783839316D6D29421254D3D7D04CDE0CD0E41322028343230783539346D6D29419254D3D7D04C9124130783220283131383978313638326D6D29421254D3D7D04C1E0C90E41342028323937783231306D6D29419254D3D7D04D1124130783320283131383978323532336D6D29421254D3D7D04C1E0CD114131783420
310
2838343178323337386D6D29421254D3D7D04C5E0D11141317833202838343178313738336D6D29421254D3D7D04C5E0CD02431254D3C82557247A25E4C81050A49534F5F5449544C4541431254D3C82557247A25E4C81090A49534F5F5449544C45424110E979A97F0838A835883675F42525F44D254D3D7D09497D4995D9
310
A5CDA5BDB9B1A5CDD10E979A97F0838A835883675F54525F44D254D3D7D51497D4995D9A5CDA5BDB9B1A5CDD10E979A97F0838A835883675F424C5F44D254D3D7D09317D4995D9A5CDA5BDB9B1A5CDD10E979A97F0838A835883675F544C5F44D254D3D7D51317D4995D9A5CDA5BDB9B1A5CDD00
  0
ACAD_PROXY_OBJECT
  5
9CBC
330
9CBB
100
AcDbProxyObject
 90
      499
 91
      527
 95
       25
 70
     0
 93
       86
310
5DEA0C80A0280A0280A034
  0
ACAD_PROXY_OBJECT
  5
9CBD
330
9CBB
100
AcDbProxyObject
 90
      499
 91
      528
 95
       25
 70
     0
 93
      282
310
5DD0E4050140501405014050140501405014050141101405014041000000000000001000
340
187
 94
        0
  0
ACAD_PROXY_OBJECT
  5
9CBE
330
9CBB
100
AcDbProxyObject
 90
      499
 91
      529
 95
       25
 70
     0
 93
      323
310
5DCC199999999999E99F91740501405014050140501405014050140501405014050140501405014040
340
0
 94
        0
  0
ACAD_PROXY_OBJECT
  5
9CBF
330
9CBB
100
AcDbProxyObject
 90
      499
 91
      530
 95
       25
 70
     0
 93
       10
310
5DC0
  0
ACAD_PROXY_OBJECT
  5
9CC0
330
9CBB
100
AcDbProxyObject
 90
      499
 91
      531
 95
       25
 70
     0
 93
      257
310
5DE0C16A22A7D90F49F80000000000001081400000000000004204010000618000
340
188
340
189
 94
        0
  0
ACAD_PROXY_OBJECT
  5
9CC1
330
9CBB
100
AcDbProxyObject
 90
      499
 91
      532
 95
       25
 70
     0
 93
     5277
310
5DD06411255115350141236025B6901405014069010000000000000910240690120281A8AA2CA0282484A4BE52028120280A032020000000000001220480D202405044E414D454050496BC914F4051C40640A80000000000004E4090193C3D3C4946284953424C414E4B28504152543A4E414D45292C424C4F434B3A4E414D
310
452C504152543A4E414D45293E3C41435F44455343524950544E3E40480A109A82A88AA492829880A091BBD2F7E80A3A80C81D0E27A15AF46E08A81203480901411393D5115014124A363B7D0147501904A0000000000000F902406428F4F1050D7D393D5114F901202832B22A72227A92028366EF6EE06F582028EA0320B4
310
0000000000001F20480C879E9E20A1AFAB27222FA620A122A61F20240506445020000000000000490201C00030C00010180000000000003E400000000000000F901073D3C4954454D3E4050180000000000003E400000000000000F901073D3C4954454D3E40501800000000000034400000000000000D101073D3C4954454
310
D3E40501800000000000034400000000000000D101073D3C4954454D3E405029010000000000000F9000000000000003E4041CF4F125511534F901418F4F1455164F9014060000000000000F9000000000000003E4041CF4F125511534F901800000000000034400000000000000D101073D3C4954454D3E40640400000000
310
0000003E400000000000000F90288800000000000020810000001800120881A068120480A032208521122080D21480D211480A1485214852050000000000003C2FC000000000000F0BF40600800030C0200400030C00CDCCCCCCCCCCEC3F3373333333333B0FC3333333333330940C80D069014090341504901A1999999999
310
9984A040100006180400800061804010000618008098A02808
340
0
340
0
 94
        0
  0
ACAD_PROXY_OBJECT
  5
9CC2
330
9CBB
100
AcDbProxyObject
 90
      499
 91
      537
 95
       25
 70
     0
 93
     3042
310
5DD9740D29254D064A49535F413342929254D7D512551311505134A49535F42525F5265766973696F6E6C6973744190F4134522028323937783231306D6D2941D29254D7D04D1490E41312028353934783834316D6D2941929254D7D04C50E41332028323937783432306D6D2941929254D7D04CD0F41344C2028323130783
310
239376D6D2941D29254D7D04D1310E41322028343230783539346D6D2941929254D7D04C90F4130202838343178313138396D6D2941929254D7D04C10243129254C82557247A25E4C81050A4A49535F5449544C454143129254C82557247A25E4C81090A4A49535F5449544C45424110E979A97F0838A835883675F42525F4
310
4D29254D7D09497D4995D9A5CDA5BDB9B1A5CDD10E979A97F0838A835883675F54525F44D29254D7D51497D4995D9A5CDA5BDB9B1A5CDD10E979A97F0838A835883675F424C5F44D29254D7D09317D4995D9A5CDA5BDB9B1A5CDD10E979A97F0838A835883675F544C5F44D29254D7D51317D4995D9A5CDA5BDB9B1A5CDD00
  0
ACAD_PROXY_OBJECT
  5
9CC3
330
9CBB
100
AcDbProxyObject
 90
      499
 91
      538
 95
       25
 70
     0
 93
      898
310
5DC4000000000000124048CF4F11115510525317D3105091530F880A0F11115510525317D05094D4D0D053114F8A50241C9A9999999999B93F26A666666666724FC000000000000E03F400000000000000400000000000000510000000000000024408070000C300000000000000049000
340
16
340
180
 94
        0
  0
ACAD_PROXY_OBJECT
  5
9CC4
330
9CBB
100
AcDbProxyObject
 90
      499
 91
      539
 95
       25
 70
     0
 93
      823
310
5DC0B00000000000002480959E9E29A2A1AA24A7A72FA620A122A62FA324A929AA1F169E29A2A1AA24A7A72FA620A122A62FA620A9AA1F000000000000048803FFFE01C00030C008140380006180000000000000048800000000000000A2000000000000002480
340
652
340
180
 94
        0
  0
ACAD_PROXY_OBJECT
  5
9CC5
330
9CBB
100
AcDbProxyObject
 90
      499
 91
      540
 95
       25
 70
     0
 93
      152
310
5DE8273108AC1C5A0640A3D0A5723F0BD1F200
  0
ACAD_PROXY_OBJECT
  5
9CC6
330
9CBB
100
AcDbProxyObject
 90
      499
 91
      604
 95
       25
 70
     0
 93
       14
310
5DE0
340
0
 94
        0
  0
ACAD_PROXY_OBJECT
  5
9CC7
330
9CBB
100
AcDbProxyObject
 90
      499
 91
      541
 95
       25
 70
     0
 93
     6059
310
5DD084050BA4050AA405024050E836583938376838C815B83672031405983D3C486F6C653A6469613E3C696628657175616C28486F6C653A7465726D696E6174696F6E2C223022292C2220905B82B320222C22208368838A838B22293E3C696628657175616C28486F6C653A7465726D696E6174696F6E2C223022292C486F
310
6C653A64657074682C2222293E2C203C486F6C653A63746469613E2082B482AE82E882CC905B82B3203C486F6C653A637464657074683E406901405034050E836583938376838C815B83672031405EF3D3C486F6C653A6374616E676C653E252564202525633C486F6C653A63746469613E208E4D8C8A2C203C69662865717
310
5616C28486F6C653A7461707065642C223022292C22252563222C486F6C653A6E6F6D696E616C202220782022293E3C696628657175616C28486F6C653A7461707065642C223022292C486F6C653A6469612C486F6C653A706974636864657363293E203C696628657175616C28486F6C653A7465726D696E6174696F6E2C2
310
23022292C22905B82B320222C222022293E3C696628657175616C28486F6C653A7465726D696E6174696F6E2C223022292C486F6C653A64657074682C2222293E406901405014050E836583938376838C815B83672031405C73D3C696628657175616C28486F6C653A7461707065642C223022292C22252563222C486F6C65
310
3A6E6F6D696E616C202220782022293E3C696628657175616C28486F6C653A7461707065642C223022292C486F6C653A6469612C486F6C653A706974636864657363293E203C696628657175616C28486F6C653A7465726D696E6174696F6E2C223022292C22905B82B320222C222022293E3C696628657175616C28486F6C
310
653A7465726D696E6174696F6E2C223022292C486F6C653A64657074682C2222293E4069014051E4090E836583938376838C815B83672032405173D3C535444503A444553433E203C535444503A5354443E40690E836583938376838C815B836720314050C3D3C535444503A444553433E40690240515AAABBA120
360
9CC8
330
9CC8
360
9CC9
330
9CC9
360
9CCA
330
9CCA
360
9CCB
360
9CCC
330
9CCB
330
9CCC
 94
        0
  0
ACAD_PROXY_OBJECT
  5
9CCD
330
9CBB
100
AcDbProxyObject
 90
      499
 91
      542
 95
       25
 70
     0
 93
       26
310
5DD02A80
340
0
 94
        0
  0
ACAD_PROXY_OBJECT
  5
9CCE
330
9CBB
100
AcDbProxyObject
 90
      499
 91
      543
 95
       25
 70
     0
 93
      250
310
5DD020000000000000A1000000000000002440408F0F9023C3E409A0DCFFFF80
340
58
340
1899
340
189A
340
5F
340
60
340
61
340
62
340
63
340
68
340
0
 94
        0
  0
ACAD_PROXY_OBJECT
  5
9CCF
330
9CBB
100
AcDbProxyObject
 90
      499
 91
      605
 95
       25
 70
     0
 93
    13889
310
5DD1D003FFFFFFFD030300030CCCCCCCCCCCC250200800030C01030300030CCCCCCCCCCCC250200800030C00050C8DC0955782CC838A83588367014ED1D15395149050D3CB1294138B0C0B23702555E0B320E2A0D620D9CB11D15395149055160B095CCB0A11D1539354D1C819D95B991A5B5E880CCC0A78000C0000000000
310
00000000000000000000010CCCCCCCCCCCC250200800030C010CCCCCCCCCCCC250200800030C020143CF4F111959985D5B1D151A5D1B194F8050A8C8A8365815B8375838B014E51D15395149050D3CB1294138B0C0B2322A0D96056E0DD60E2CB11D15395149055160B095CCB0A11D1539354D1C819D95B991A5B5E880CCC4
310
A78000C000000000000000000000000000000010CCCCCCCCCCCC250200800030C010CCCCCCCCCCCC250200800030C020143CF4F111959985D5B1D151A5D1B194F90D44111409034110541D0C4350F4050E44D03449074510F000141232D24D7C053247454E545241434F2C4A504E2C302C8CB4935F2C47454E54524154582C
310
25732C2847454E4D53472067656E64696D7A20312900010104002214000281464500A608E8A9CA8A482869E5894A09C5860591914588E8A9CA8A482A8B0584AE658508E8A9C9AA68E40CECADCC8D2DAF4406452029E9E9E27B934B3B4B71F1E24A31427A91424A9A12620A7259427B934B3B4B7149624A9A12620A7259424B
310
A32B6949496111116111711149F1E24BA32B69F00808200111A000140560052F47454E545241434F2C4A504E2C302C582C47454E54524154582C25732C2847454E4D53472067656E64696D7A20332900010100002054000280AC80A5E8E8A9CA8A482869E5894A09C586058B2588E8A9CA8A482A8B0584AE658508E8A9C9AA
310
68E40CECADCC8D2DAF4406852000202000040E800050152014BD1D15395149050D3CB1294138B0C0B148B11D15395149055160B095CCB0A11D1539354D1C819D95B991A5B5E880D8A400040400008250000A0507A6029823A2A72A2920A1A79625282716181641E99623A2A72A2920AA2C1612B9961423A2A726A9A39033B2
310
B73234B6BD101B948000808180105A000140A0F4C053047454E545241434F2C4A504E2C302C83D32C47454E54524154582C25732C2847454E4D53472067656E64696D7A203829000101010020F400028248704B5F00A668E8A9CA8A482869E5894A09C58605921C12D7C588E8A9CA8A482A8B0584AE658508E8A9C9AA68E40
310
CECADCC8D2DAF440646052000200080043280005048B4B8A69014CD1D15395149050D3CB1294138B0C0B22D2E29A4B11D15395149055160B095CCB0A11D1539354D1C819D95B991A5B5E880C8C4A4000400100086D0000A09196926BE029923A2A72A2920A1A796252827161816465A49AF9623A2A72A2920AA2C1612B9961
310
423A2A726A9A39033B2B73234B6BD10189480A02620202080043E80005048D8096DA014CD1D15395149050D3CB1294138B0C0B236025B68B11D15395149055160B095CCB0A11D1539354D1C819D95B991A5B5E880C4D0A4000404140280D0000A190687072706CD06C5069D06B0029DA3A2A72A2920A1A7962528271618164
310
1A1C1C9C1B341B141A741AC1623A2A72A2920AA2C1612B9961423A2A726A9A39033B2B73234B6BD10189A94800080820050EA000143A322A0D0E0E4E0D9A0D8A0D3A0D60053D47454E545241434F2C4A504E2C302C8C8A8343839383668362834E83582C47454E54524154582C25732C2847454E4D53472067656E64696D7A
310
2031372900010105002274000281464500A628E8A9CA8A482869E5894A09C5860591914588E8A9CA8A482A8B0584AE658508E8A9C9AA68E40CECADCC8D2DAF440626C52000202080044A8000504909497CA014CD1D15395149050D3CB1294138B0C0B242525F28B11D15395149055160B095CCB0A11D1539354D1C819D95B9
310
91A5B5E880C4E4A400040418008A521E000000000000001CA040C00000000000034408080000000000006881010000000000000D102040000000000001A204080000000000003440818000000000000728103000000000000125020600000000004028A040000000000000034408000000000000004881000000000000000D
310
102000000000000001A204000000000000003440818000000000000508143C0000000000000039408180000000000006881030000000000000D102060000000000001A2040C00000000000034408180000000000006881030000000000000E5020600000000000024A040C0000000000805140800000000000000688100000
310
00000000009102000000000000001A2040000000000000034408180000000000006881030000000000000A10284220000000878000002020000008380000020400000081800000208000000828000002028900000000
340
0
340
0
340
0
340
0
340
180
340
180
 94
        0
  0
ACAD_PROXY_OBJECT
  5
9A4B
330
9A42
100
AcDbProxyObject
 90
      499
 91
      602
 95
       25
 70
     0
 93
     2680
310
5DE0143A0D960E4E0DDA0E32056E0D9C80C4043A013D2525633C486F6C653A63746469613E2078203C486F6C653A637464657074683E20555C503C696628657175616C28486F6C653A7461707065642C223022292C22252563222C486F6C653A6E6F6D696E616C202220782022293E3C696628657175616C28486F6C653A74
310
61707065642C223022292C486F6C653A6469612C486F6C653A706974636864657363293E3C696628657175616C28486F6C653A7461707065642C223122292C22207820222C2222293E3C696628657175616C28486F6C653A7461707065642C223122292C486F6C653A74617064657074682C2222293E203C69662865717561
310
6C28486F6C653A7465726D696E6174696F6E2C223022292C22202F20222C2222293E3C696628657175616C28486F6C653A7465726D696E6174696F6E2C223022292C486F6C653A64657074682C2222293E
  0
ACAD_PROXY_OBJECT
  5
9A4C
330
9A42
100
AcDbProxyObject
 90
      499
 91
      602
 95
       25
 70
     0
 93
     2688
310
5DE0143A0D960E4E0DDA0E32056E0D9C80C4043B013D2525633C486F6C653A63746469613E2078203C486F6C653A6374616E676C653E2525645C503C696628657175616C28486F6C653A7461707065642C223022292C22252563222C486F6C653A6E6F6D696E616C202220782022293E3C696628657175616C28486F6C653A
310
7461707065642C223022292C486F6C653A6469612C486F6C653A706974636864657363293E3C696628657175616C28486F6C653A7461707065642C223122292C22207820222C2222293E3C696628657175616C28486F6C653A7461707065642C223122292C486F6C653A74617064657074682C2222293E203C696628657175
310
616C28486F6C653A7465726D696E6174696F6E2C223022292C22202F20222C2222293E3C696628657175616C28486F6C653A7465726D696E6174696F6E2C223022292C486F6C653A64657074682C2222293E
  0
ACAD_PROXY_OBJECT
  5
9A4A
330
9A42
100
AcDbProxyObject
 90
      499
 91
      602
 95
       25
 70
     0
 93
     2392
310
5DE0143A0D960E4E0DDA0E32056E0D9C80C40416013D3C696628657175616C28486F6C653A7461707065642C223022292C22252563222C486F6C653A6E6F6D696E616C202220782022293E3C696628657175616C28486F6C653A7461707065642C223022292C486F6C653A6469612C486F6C653A706974636864657363293E
310
3C696628657175616C28486F6C653A7461707065642C223122292C22207820222C2222293E3C696628657175616C28486F6C653A7461707065642C223122292C486F6C653A74617064657074682C2222293E203C696628657175616C28486F6C653A7465726D696E6174696F6E2C223022292C22202F20222C2222293E3C69
310
6628657175616C28486F6C653A7465726D696E6174696F6E2C223022292C486F6C653A64657074682C2222293E
  0
ACAD_PROXY_OBJECT
  5
9A49
330
9A42
100
AcDbProxyObject
 90
      499
 91
      602
 95
       25
 70
     0
 93
      344
310
5DE0143A0D960E4E0DDA0E32056E0D9C80C805173D3C535444503A444553433E203C535444503A5354443E
  0
ACAD_PROXY_OBJECT
  5
9A48
330
9A42
100
AcDbProxyObject
 90
      499
 91
      602
 95
       25
 70
     0
 93
      256
310
5DE0143A0D960E4E0DDA0E32056E0D9C80C4050C3D3C535444503A444553433E
  0
ACAD_PROXY_OBJECT
  5
9CC8
330
9CC7
100
AcDbProxyObject
 90
      499
 91
      602
 95
       25
 70
     0
 93
     1376
310
5DE0143A0D960E4E0DDA0E32056E0D9C80C405983D3C486F6C653A6469613E3C696628657175616C28486F6C653A7465726D696E6174696F6E2C223022292C2220905B82B320222C22208368838A838B22293E3C696628657175616C28486F6C653A7465726D696E6174696F6E2C223022292C486F6C653A64657074682C22
310
22293E2C203C486F6C653A63746469613E2082B482AE82E882CC905B82B3203C486F6C653A637464657074683E
  0
ACAD_PROXY_OBJECT
  5
9CC9
330
9CC7
100
AcDbProxyObject
 90
      499
 91
      602
 95
       25
 70
     0
 93
     2072
310
5DE0143A0D960E4E0DDA0E32056E0D9C80C405EF3D3C486F6C653A6374616E676C653E252564202525633C486F6C653A63746469613E208E4D8C8A2C203C696628657175616C28486F6C653A7461707065642C223022292C22252563222C486F6C653A6E6F6D696E616C202220782022293E3C696628657175616C28486F6C
310
653A7461707065642C223022292C486F6C653A6469612C486F6C653A706974636864657363293E203C696628657175616C28486F6C653A7465726D696E6174696F6E2C223022292C22905B82B320222C222022293E3C696628657175616C28486F6C653A7465726D696E6174696F6E2C223022292C486F6C653A6465707468
310
2C2222293E
  0
ACAD_PROXY_OBJECT
  5
9CCA
330
9CC7
100
AcDbProxyObject
 90
      499
 91
      602
 95
       25
 70
     0
 93
     1752
310
5DE0143A0D960E4E0DDA0E32056E0D9C80C405C73D3C696628657175616C28486F6C653A7461707065642C223022292C22252563222C486F6C653A6E6F6D696E616C202220782022293E3C696628657175616C28486F6C653A7461707065642C223022292C486F6C653A6469612C486F6C653A706974636864657363293E20
310
3C696628657175616C28486F6C653A7465726D696E6174696F6E2C223022292C22905B82B320222C222022293E3C696628657175616C28486F6C653A7465726D696E6174696F6E2C223022292C486F6C653A64657074682C2222293E
  0
ACAD_PROXY_OBJECT
  5
9CCB
330
9CC7
100
AcDbProxyObject
 90
      499
 91
      602
 95
       25
 70
     0
 93
      344
310
5DE0143A0D960E4E0DDA0E32056E0D9C80C805173D3C535444503A444553433E203C535444503A5354443E
  0
ACAD_PROXY_OBJECT
  5
9CCC
330
9CC7
100
AcDbProxyObject
 90
      499
 91
      602
 95
       25
 70
     0
 93
      256
310
5DE0143A0D960E4E0DDA0E32056E0D9C80C4050C3D3C535444503A444553433E
  0
ENDSEC
  0
EOF
