  0
SECTION
  2
HEADER
  9
$ACADVER
  1
AC1015
  9
$ACADMAINTVER
 70
     6
  9
$DWGCODEPAGE
  3
ANSI_932
  9
$INSBASE
 10
0.0
 20
0.0
 30
0.0
  9
$EXTMIN
 10
-94.77148765136013
 20
-196.5964008260621
 30
0.0
  9
$EXTMAX
 10
198.9899171987326
 20
37.11063230044329
 30
0.0
  9
$LIMMIN
 10
0.0
 20
0.0
  9
$LIMMAX
 10
420.0
 20
297.0
  9
$ORTHOMODE
 70
     0
  9
$REGENMODE
 70
     1
  9
$FILLMODE
 70
     1
  9
$QTEXTMODE
 70
     0
  9
$MIRRTEXT
 70
     1
  9
$LTSCALE
 40
1.0
  9
$ATTMODE
 70
     1
  9
$TEXTSIZE
 40
3.0
  9
$TRACEWID
 40
1.0
  9
$TEXTSTYLE
  7
STANDARD
  9
$CLAYER
  8
AM_0
  9
$CELTYPE
  6
ByLayer
  9
$CECOLOR
 62
   256
  9
$CELTSCALE
 40
1.0
  9
$DISPSILH
 70
     0
  9
$DIMSCALE
 40
1.0
  9
$DIMASZ
 40
2.5
  9
$DIMEXO
 40
0.0
  9
$DIMDLI
 40
10.0
  9
$DIMRND
 40
0.0
  9
$DIMDLE
 40
0.0
  9
$DIMEXE
 40
1.0
  9
$DIMTP
 40
0.1
  9
$DIMTM
 40
0.1000000001
  9
$DIMTXT
 40
3.8
  9
$DIMCEN
 40
0.0
  9
$DIMTSZ
 40
0.0
  9
$DIMTOL
 70
     0
  9
$DIMLIM
 70
     0
  9
$DIMTIH
 70
     0
  9
$DIMTOH
 70
     0
  9
$DIMSE1
 70
     0
  9
$DIMSE2
 70
     0
  9
$DIMTAD
 70
     3
  9
$DIMZIN
 70
     1
  9
$DIMBLK
  1
Open30
  9
$DIMASO
 70
     1
  9
$DIMSHO
 70
     1
  9
$DIMPOST
  1

  9
$DIMAPOST
  1
"
  9
$DIMALT
 70
     0
  9
$DIMALTD
 70
     2
  9
$DIMALTF
 40
0.0393701
  9
$DIMLFAC
 40
1.0
  9
$DIMTOFL
 70
     1
  9
$DIMTVP
 40
0.0
  9
$DIMTIX
 70
     0
  9
$DIMSOXD
 70
     0
  9
$DIMSAH
 70
     0
  9
$DIMBLK1
  1

  9
$DIMBLK2
  1

  9
$DIMSTYLE
  2
AM_JIS
  9
$DIMCLRD
 70
   256
  9
$DIMCLRE
 70
   256
  9
$DIMCLRT
 70
     2
  9
$DIMTFAC
 40
0.71
  9
$DIMGAP
 40
1.5
  9
$DIMJUST
 70
     0
  9
$DIMSD1
 70
     0
  9
$DIMSD2
 70
     0
  9
$DIMTOLJ
 70
     0
  9
$DIMTZIN
 70
     8
  9
$DIMALTZ
 70
     0
  9
$DIMALTTZ
 70
     0
  9
$DIMUPT
 70
     0
  9
$DIMDEC
 70
     3
  9
$DIMTDEC
 70
     3
  9
$DIMALTU
 70
     2
  9
$DIMALTTD
 70
     2
  9
$DIMTXSTY
  7
STANDARD
  9
$DIMAUNIT
 70
     1
  9
$DIMADEC
 70
     2
  9
$DIMALTRND
 40
0.0
  9
$DIMAZIN
 70
     2
  9
$DIMDSEP
 70
    46
  9
$DIMATFIT
 70
     3
  9
$DIMFRAC
 70
     0
  9
$DIMLDRBLK
  1
Open30
  9
$DIMLUNIT
 70
     2
  9
$DIMLWD
 70
    -1
  9
$DIMLWE
 70
    -1
  9
$DIMTMOVE
 70
     0
  9
$LUNITS
 70
     2
  9
$LUPREC
 70
     2
  9
$SKETCHINC
 40
1.0
  9
$FILLETRAD
 40
1.5
  9
$AUNITS
 70
     1
  9
$AUPREC
 70
     5
  9
$MENU
  1
.
  9
$ELEVATION
 40
0.0
  9
$PELEVATION
 40
0.0
  9
$THICKNESS
 40
0.0
  9
$LIMCHECK
 70
     0
  9
$CHAMFERA
 40
2.5
  9
$CHAMFERB
 40
2.5
  9
$CHAMFERC
 40
20.0
  9
$CHAMFERD
 40
0.0
  9
$SKPOLY
 70
     0
  9
$TDCREATE
 40
2451943.610431667
  9
$TDUCREATE
 40
2451943.235431667
  9
$TDUPDATE
 40
2455482.453895393
  9
$TDUUPDATE
 40
2455482.078895393
  9
$TDINDWG
 40
0.6276466204
  9
$TDUSRTIMER
 40
0.6276464468
  9
$USRTIMER
 70
     1
  9
$ANGBASE
 50
0.0
  9
$ANGDIR
 70
     0
  9
$PDMODE
 70
     0
  9
$PDSIZE
 40
0.0
  9
$PLINEWID
 40
0.0
  9
$SPLFRAME
 70
     0
  9
$SPLINETYPE
 70
     6
  9
$SPLINESEGS
 70
     8
  9
$HANDSEED
  5
12DD9
  9
$SURFTAB1
 70
     6
  9
$SURFTAB2
 70
     6
  9
$SURFTYPE
 70
     6
  9
$SURFU
 70
     6
  9
$SURFV
 70
     6
  9
$UCSBASE
  2

  9
$UCSNAME
  2

  9
$UCSORG
 10
0.0
 20
0.0
 30
0.0
  9
$UCSXDIR
 10
1.0
 20
0.0
 30
0.0
  9
$UCSYDIR
 10
0.0
 20
1.0
 30
0.0
  9
$UCSORTHOREF
  2

  9
$UCSORTHOVIEW
 70
     0
  9
$UCSORGTOP
 10
0.0
 20
0.0
 30
0.0
  9
$UCSORGBOTTOM
 10
0.0
 20
0.0
 30
0.0
  9
$UCSORGLEFT
 10
0.0
 20
0.0
 30
0.0
  9
$UCSORGRIGHT
 10
0.0
 20
0.0
 30
0.0
  9
$UCSORGFRONT
 10
0.0
 20
0.0
 30
0.0
  9
$UCSORGBACK
 10
0.0
 20
0.0
 30
0.0
  9
$PUCSBASE
  2

  9
$PUCSNAME
  2

  9
$PUCSORG
 10
0.0
 20
0.0
 30
0.0
  9
$PUCSXDIR
 10
1.0
 20
0.0
 30
0.0
  9
$PUCSYDIR
 10
0.0
 20
1.0
 30
0.0
  9
$PUCSORTHOREF
  2

  9
$PUCSORTHOVIEW
 70
     0
  9
$PUCSORGTOP
 10
0.0
 20
0.0
 30
0.0
  9
$PUCSORGBOTTOM
 10
0.0
 20
0.0
 30
0.0
  9
$PUCSORGLEFT
 10
0.0
 20
0.0
 30
0.0
  9
$PUCSORGRIGHT
 10
0.0
 20
0.0
 30
0.0
  9
$PUCSORGFRONT
 10
0.0
 20
0.0
 30
0.0
  9
$PUCSORGBACK
 10
0.0
 20
0.0
 30
0.0
  9
$USERI1
 70
     0
  9
$USERI2
 70
     0
  9
$USERI3
 70
     0
  9
$USERI4
 70
     0
  9
$USERI5
 70
     0
  9
$USERR1
 40
0.0
  9
$USERR2
 40
0.0
  9
$USERR3
 40
0.0
  9
$USERR4
 40
0.0
  9
$USERR5
 40
0.0
  9
$WORLDVIEW
 70
     1
  9
$SHADEDGE
 70
     3
  9
$SHADEDIF
 70
    70
  9
$TILEMODE
 70
     1
  9
$MAXACTVP
 70
    48
  9
$PINSBASE
 10
0.0
 20
0.0
 30
0.0
  9
$PLIMCHECK
 70
     0
  9
$PEXTMIN
 10
1.000000000000000E+20
 20
1.000000000000000E+20
 30
1.000000000000000E+20
  9
$PEXTMAX
 10
-1.000000000000000E+20
 20
-1.000000000000000E+20
 30
-1.000000000000000E+20
  9
$PLIMMIN
 10
0.0
 20
0.0
  9
$PLIMMAX
 10
420.0
 20
297.0
  9
$UNITMODE
 70
     0
  9
$VISRETAIN
 70
     1
  9
$PLINEGEN
 70
     0
  9
$PSLTSCALE
 70
     1
  9
$TREEDEPTH
 70
  3020
  9
$CMLSTYLE
  2
Standard
  9
$CMLJUST
 70
     0
  9
$CMLSCALE
 40
20.0
  9
$PROXYGRAPHICS
 70
     1
  9
$MEASUREMENT
 70
     1
  9
$CELWEIGHT
370
    -1
  9
$ENDCAPS
280
     0
  9
$JOINSTYLE
280
     0
  9
$LWDISPLAY
290
     0
  9
$INSUNITS
 70
     4
  9
$HYPERLINKBASE
  1

  9
$STYLESHEET
  1
sei_cad.ctb
  9
$XEDIT
290
     1
  9
$CEPSNTYPE
380
     0
  9
$PSTYLEMODE
290
     1
  9
$FINGERPRINTGUID
  2
{C77AB3BE-9CA2-11D3-BAF3-006094EB760E}
  9
$VERSIONGUID
  2
{8055569E-B6B6-4BCA-B7E8-7709506B644E}
  9
$EXTNAMES
290
     1
  9
$PSVPSCALE
 40
0.0
  9
$OLESTARTUP
290
     0
  0
ENDSEC
  0
SECTION
  2
CLASSES
  0
CLASS
  1
ACDBDICTIONARYWDFLT
  2
AcDbDictionaryWithDefault
  3
ObjectDBX Classes
 90
        0
280
     0
281
     0
  0
CLASS
  1
ACDBPLACEHOLDER
  2
AcDbPlaceHolder
  3
ObjectDBX Classes
 90
        0
280
     0
281
     0
  0
CLASS
  1
LAYOUT
  2
AcDbLayout
  3
ObjectDBX Classes
 90
        0
280
     0
281
     0
  0
CLASS
  1
ACME_DOCUMENT
  2
AcMeDbDoc
  3
AcMeServices
 90
        0
280
     1
281
     0
  0
CLASS
  1
ACMESCOPE
  2
AcMeScope
  3
AcMeServices
 90
        0
280
     1
281
     0
  0
CLASS
  1
ACMECOMMANDHISTORY
  2
AcMeCommandHistory
  3
AcMeServices
 90
        0
280
     1
281
     0
  0
CLASS
  1
DICTIONARYVAR
  2
AcDbDictionaryVar
  3
ObjectDBX Classes
 90
        0
280
     0
281
     0
  0
CLASS
  1
ACIMSYSVARMAN
  2
AcImSysVarManager
  3
AcMeServices
 90
        0
280
     1
281
     0
  0
CLASS
  1
ACIMREALSYSVAR
  2
AcImRealSysVar
  3
AcMeServices
 90
        0
280
     1
281
     0
  0
CLASS
  1
ACIMINTSYSVAR
  2
AcImIntSysVar
  3
AcMeServices
 90
        0
280
     1
281
     0
  0
CLASS
  1
ACMEDRAWINGMAN
  2
AcMeDrawingMan
  3
AcMeServices
 90
        0
280
     1
281
     0
  0
CLASS
  1
ACMEVIEW
  2
AcMeView
  3
AcMeServices
 90
        0
280
     1
281
     0
  0
CLASS
  1
ACDBENTITYCACHE
  2
AcMeEntityCache
  3
AcMeServices
 90
        0
280
     1
281
     0
  0
CLASS
  1
GSMANAGER
  2
AcMeGSManager
  3
AcMeServices
 90
        0
280
     1
281
     0
  0
CLASS
  1
AMDTINTERNALREACTOR
  2
AmdtInternalReactor
  3
AcMeServices
 90
        0
280
     1
281
     0
  0
CLASS
  1
ACMESTATEMGR
  2
AcMeStateMgr
  3
AcMeServices
 90
        0
280
     1
281
     0
  0
CLASS
  1
ACME_DATABASE
  2
AcMeDbDatabase
  3
AcMeServices
 90
        0
280
     1
281
     0
  0
CLASS
  1
ACRFINSADJUSTERMGR
  2
AcRfInsAdjusterMgr
  3
AcMeServices
 90
        0
280
     1
281
     0
  0
CLASS
  1
AMGSETTINGSOBJ
  2
AmgSettingsObj
  3
"AcadM|Product Description: AutoCAD Mechanical 2000|Company: Autodesk"
 90
        0
280
     1
281
     0
  0
CLASS
  1
AMGOBJPROPCFG
  2
AmgObjPropCfg
  3
"AmgLay|Product Description: AutoCAD Mechanical 2000|Company: Autodesk"
 90
        1
280
     1
281
     0
  0
CLASS
  1
ACMDATADICTIONARY
  2
AcmDataDictionary
  3
"AcmSymBB|Product Description: AutoCAD Mechanical 2004 DX|Company: Autodesk"
 90
        0
280
     1
281
     0
  0
CLASS
  1
ACMDATAENTRYBLOCK
  2
AcmDataEntryBlock
  3
"AcmSymBB|Product Description: AutoCAD Mechanical 2004 DX|Company: Autodesk"
 90
        0
280
     1
281
     0
  0
CLASS
  1
ACIMSTRSYSVAR
  2
AcImStrSysVar
  3
AcMeServices
 90
        0
280
     1
281
     0
  0
CLASS
  1
ACAMGFILTERDAT
  2
AcAmgFilterDat
  3
"AcadM|Product Description: AutoCAD Mechanical 2000|Company: Autodesk"
 90
        0
280
     1
281
     0
  0
CLASS
  1
LAYER_INDEX
  2
AcDbLayerIndex
  3
ObjectDBX Classes
 90
        0
280
     0
281
     0
  0
CLASS
  1
IDBUFFER
  2
AcDbIdBuffer
  3
ObjectDBX Classes
 90
        0
280
     0
281
     0
  0
CLASS
  1
ACMSTANDARDJIS
  2
AcmStandardJIS
  3
"Amdt_StdImp|Product Description: AutoCAD Mechanical 2004 DX|Company: Autodesk"
 90
        0
280
     1
281
     0
  0
CLASS
  1
ACMSURFSTANDARDJIS
  2
AcmSurfTextStdJIS
  3
"Amdt_StdImp|Product Description: AutoCAD Mechanical 2004 DX|Company: Autodesk"
 90
        0
280
     1
281
     0
  0
CLASS
  1
ACMFCFSTANDARDJIS
  2
AcmFCFStdJIS
  3
"Amdt_StdImp|Product Description: AutoCAD Mechanical 2004 DX|Company: Autodesk"
 90
        0
280
     1
281
     0
  0
CLASS
  1
ACMWELDSTANDARDJIS
  2
AcmWeldingStdJIS
  3
"Amdt_StdImp|Product Description: AutoCAD Mechanical 2004 DX|Company: Autodesk"
 90
        0
280
     1
281
     0
  0
CLASS
  1
ACMIDSTANDARDJIS
  2
AcmIdStdJIS
  3
"Amdt_StdImp|Product Description: AutoCAD Mechanical 2004 DX|Company: Autodesk"
 90
        0
280
     1
281
     0
  0
CLASS
  1
ACMDATUMSTANDARDJIS
  2
AcmDatumStdJIS
  3
"Amdt_StdImp|Product Description: AutoCAD Mechanical 2004 DX|Company: Autodesk"
 90
        0
280
     1
281
     0
  0
CLASS
  1
ACMBOMSTANDARDJIS
  2
AcmBOMStdJIS
  3
"Amdt_StdImp|Product Description: AutoCAD Mechanical 2004 DX|Company: Autodesk"
 90
        0
280
     1
281
     0
  0
CLASS
  1
AMDTNOTE
  2
AmdtNote
  3
"AcmSymBB|Product Description: AutoCAD Mechanical 2004 DX|Company: Autodesk"
 90
     1023
280
     1
281
     1
  0
CLASS
  1
ACGREFMASTER
  2
AcGrefMaster
  3
AcAttribServices
 90
        0
280
     1
281
     0
  0
CLASS
  1
ACGREFACADMASTER
  2
AcGrefacadMaster
  3
AcGrefServices
 90
        0
280
     1
281
     0
  0
CLASS
  1
AMIMASTER
  2
AmiMaster
  3
AmiServices
 90
        0
280
     1
281
     0
  0
CLASS
  1
ACAMGTITLESTD
  2
AcAmgTitleStd
  3
"TITLEAPP"
 90
        0
280
     1
281
     0
  0
CLASS
  1
ACMDETAILSTANDARDJIS
  2
AmdtDetailSymStdJIS
  3
"Amdt_StdImp|Product Description: AutoCAD Mechanical 2004 DX|Company: Autodesk"
 90
        0
280
     1
281
     0
  0
CLASS
  1
ACMSECTIONSTANDARDJIS
  2
AmdtSectionSymStdJIS
  3
"Amdt_StdImp|Product Description: AutoCAD Mechanical 2004 DX|Company: Autodesk"
 90
        0
280
     1
281
     0
  0
CLASS
  1
ACMCENTERLINESTANDARDJIS
  2
AmdtCenterLineStdJIS
  3
"Amdt_StdImp|Product Description: AutoCAD Mechanical 2004 DX|Company: Autodesk"
 90
        0
280
     1
281
     0
  0
CLASS
  1
ACMNOTESTANDARDJIS
  2
AmdtNoteStdJIS
  3
"Amdt_StdImp|Product Description: AutoCAD Mechanical 2004 DX|Company: Autodesk"
 90
        0
280
     1
281
     0
  0
CLASS
  1
ACAMGLAYSTD
  2
AcAmgLayStd
  3
"AcAmgLayStd|Product Description: AutoCAD Mechanical 2000|Company: Autodesk"
 90
        0
280
     1
281
     0
  0
CLASS
  1
ACAMGDIMSTD
  2
AcAmgDimStd
  3
"AcAmgDimStd|Product Description: AutoCAD Mechanical 2000|Company: Autodesk"
 90
        0
280
     1
281
     0
  0
CLASS
  1
AMDTFORMULAUPDATEDISPATCHER
  2
AmdtFormulaUpdateDispatcher
  3
AcMeServices
 90
        0
280
     1
281
     0
  0
CLASS
  1
DUMMY
  2
AcDbLongTransaction
  3
DUMMY
 90
        0
280
     0
281
     0
  0
CLASS
  1
LWPOLYLINE
  2
AcDbPolyline
  3
AutoCAD 2000
 90
        0
280
     0
281
     1
  0
CLASS
  1
HATCH
  2
AcDbHatch
  3
AutoCAD 2000
 90
        0
280
     0
281
     1
  0
CLASS
  1
XRECORD
  2
AcDbXrecord
  3
AutoCAD 2000
 90
        0
280
     0
281
     0
  0
CLASS
  1
DUMMY
  2
AcDbLongTransaction
  3
DUMMY
 90
        0
280
     0
281
     0
  0
CLASS
  1
LWPOLYLINE
  2
AcDbPolyline
  3
AutoCAD 2000
 90
        0
280
     0
281
     1
  0
CLASS
  1
HATCH
  2
AcDbHatch
  3
AutoCAD 2000
 90
        0
280
     0
281
     1
  0
CLASS
  1
XRECORD
  2
AcDbXrecord
  3
AutoCAD 2000
 90
        0
280
     0
281
     0
  0
CLASS
  1
ACDBCIRCARCRES
  2
AcDbCircArcRes
  3
AcGrefServices
 90
        0
280
     1
281
     0
  0
CLASS
  1
ACDBLINERES
  2
AcDbLineRes
  3
AcGrefServices
 90
        0
280
     1
281
     0
  0
CLASS
  1
ACDBELLIPSERES
  2
AcDbEllipseRes
  3
AcGrefServices
 90
        0
280
     1
281
     0
  0
CLASS
  1
DUMMY
  2
AcDbLongTransaction
  3
DUMMY
 90
        0
280
     0
281
     0
  0
CLASS
  1
LWPOLYLINE
  2
AcDbPolyline
  3
AutoCAD 2000
 90
        0
280
     0
281
     1
  0
CLASS
  1
HATCH
  2
AcDbHatch
  3
AutoCAD 2000
 90
        0
280
     0
281
     1
  0
CLASS
  1
XRECORD
  2
AcDbXrecord
  3
AutoCAD 2000
 90
        0
280
     0
281
     0
  0
CLASS
  1
TABLESTYLE
  2
AcDbTableStyle
  3
ObjectDBX Classes
 90
     2047
280
     0
281
     0
  0
CLASS
  1
AM_DRAWING_MGR
  2
AcDmDwgMgr
  3
AcMechDwgViewMgmt
 90
        0
280
     1
281
     0
  0
CLASS
  1
AM_DWG_DOCUMENT
  2
AcDmDwgDocument
  3
AcMechDwgViewMgmt
 90
        0
280
     1
281
     0
  0
CLASS
  1
AM_DWG_SHEET
  2
AcDmSheet
  3
AcMechDwgViewMgmt
 90
        0
280
     1
281
     0
  0
CLASS
  1
AM_VIEWDIMPARMAP
  2
AcDmViewDimParMap
  3
AcMechDwgViewMgmt
 90
        0
280
     1
281
     0
  0
CLASS
  1
AM_DWGMGR_NAME
  2
AcDmDwgMgrName
  3
AcMechDwgViewMgmt
 90
        0
280
     1
281
     0
  0
CLASS
  1
AMDTMENUSTATEMGR
  2
AmdtMenuStateMgr
  3
McadcomServices
 90
        0
280
     1
281
     0
  0
CLASS
  1
AMDTMCOMMENUSTATE
  2
AmdtMcomMenuState
  3
McadcomServices
 90
        0
280
     1
281
     0
  0
CLASS
  1
MAPIAMMOUDLE
  2
MApiAmModule
  3
MApiAmServices
 90
        0
280
     1
281
     0
  0
CLASS
  1
AMDTADMENUSTATE
  2
AmdtAdMenuState
  3
DesignerServices
 90
        0
280
     1
281
     0
  0
CLASS
  1
ADAPPL
  2
AcAdAppl
  3
DesignerServices
 90
        0
280
     1
281
     0
  0
CLASS
  1
DEPMGR
  2
AcAdDepMgr
  3
DesignerServices
 90
        0
280
     1
281
     0
  0
CLASS
  1
PARAMMGR
  2
AcAdParamMgr
  3
DesignerServices
 90
        0
280
     1
281
     0
  0
CLASS
  1
PARAMSCOPE
  2
AcAdParamScope
  3
DesignerServices
 90
        0
280
     1
281
     0
  0
CLASS
  1
NAMEDAPPL
  2
AcAdNamedAppl
  3
DesignerServices
 90
        0
280
     1
281
     0
  0
CLASS
  1
AMDTDMMENUSTATE
  2
AmdtDmMenuState
  3
AcMechDwgViewMgmt
 90
        0
280
     1
281
     0
  0
CLASS
  1
AMDTAMMENUSTATE
  2
AmdtAmMenuState
  3
DesignerAssemblies
 90
        0
280
     1
281
     0
  0
CLASS
  1
ACAMPROJECT
  2
AcAmProject
  3
DesignerAssemblies
 90
        0
280
     1
281
     0
  0
CLASS
  1
ACAMGRCOMPDEF
  2
AcAmGrCompDef
  3
DesignerAssemblies
 90
        0
280
     1
281
     0
  0
CLASS
  1
ACCMCONTEXT
  2
AcCmContext
  3
DesignerAssemblies
 90
        0
280
     1
281
     0
  0
CLASS
  1
ACAMCOMPDEF
  2
AcAmCompDef
  3
DesignerAssemblies
 90
        0
280
     1
281
     0
  0
CLASS
  1
ACAMCOMPDEFMGR
  2
AcAmCompDefMgr
  3
DesignerAssemblies
 90
        0
280
     1
281
     0
  0
CLASS
  1
AMCONTEXTMGR
  2
AcAmContextMgr
  3
DesignerAssemblies
 90
        0
280
     1
281
     0
  0
CLASS
  1
ACAMCONTEXTMODELER
  2
AcAmContextModeler
  3
DesignerAssemblies
 90
        0
280
     1
281
     0
  0
CLASS
  1
CATALOGSTATE
  2
AcAmCatalogState
  3
DesignerAssemblies
 90
        0
280
     1
281
     0
  0
CLASS
  1
ACAMGRCOMPDEFSET
  2
AcAmGrCompDefSet
  3
DesignerAssemblies
 90
        0
280
     1
281
     0
  0
CLASS
  1
AMDTBROWSERDBTAB
  2
AmdtBrowserDbTab
  3
McadcomServices
 90
        0
280
     1
281
     0
  0
CLASS
  1
CBROWSERAPPOBJECT
  2
CBrowserAppObject
  3
McadcomServices
 90
        0
280
     1
281
     0
  0
CLASS
  1
DM_PLACEHOLDER
  2
AcDmSelsetPlaceholder
  3
AcMechDwgViewMgmt
 90
        0
280
     1
281
     0
  0
CLASS
  1
ACMSTANDARDISO
  2
AcmStandardISO
  3
"Amdt_StdImp|Product Description: AutoCAD Mechanical 2004 DX|Company: Autodesk"
 90
        0
280
     1
281
     0
  0
CLASS
  1
AMDTEDGESTANDARDISO13715
  2
AmdtEdgeStdISO13715
  3
"Amdt_StdImp|Product Description: AutoCAD Mechanical 2004 DX|Company: Autodesk"
 90
        0
280
     1
281
     0
  0
CLASS
  1
ACMSURFSTANDARDISO
  2
AcmSurfTextStdISO
  3
"Amdt_StdImp|Product Description: AutoCAD Mechanical 2004 DX|Company: Autodesk"
 90
        0
280
     1
281
     0
  0
CLASS
  1
ACMFCFSTANDARDISO
  2
AcmFCFStdISO
  3
"Amdt_StdImp|Product Description: AutoCAD Mechanical 2004 DX|Company: Autodesk"
 90
        0
280
     1
281
     0
  0
CLASS
  1
ACMWELDSTANDARDISO
  2
AcmWeldingStdISO
  3
"Amdt_StdImp|Product Description: AutoCAD Mechanical 2004 DX|Company: Autodesk"
 90
        0
280
     1
281
     0
  0
CLASS
  1
ACMIDSTANDARDISO
  2
AcmIdStdISO
  3
"Amdt_StdImp|Product Description: AutoCAD Mechanical 2004 DX|Company: Autodesk"
 90
        0
280
     1
281
     0
  0
CLASS
  1
ACMDATUMSTANDARDISO
  2
AcmDatumStdISO
  3
"Amdt_StdImp|Product Description: AutoCAD Mechanical 2004 DX|Company: Autodesk"
 90
        0
280
     1
281
     0
  0
CLASS
  1
ACMBOMSTANDARDISO
  2
AcmBOMStdISO
  3
"Amdt_StdImp|Product Description: AutoCAD Mechanical 2004 DX|Company: Autodesk"
 90
        0
280
     1
281
     0
  0
CLASS
  1
ACMDETAILSTANDARDISO
  2
AmdtDetailSymStdISO
  3
"Amdt_StdImp|Product Description: AutoCAD Mechanical 2004 DX|Company: Autodesk"
 90
        0
280
     1
281
     0
  0
CLASS
  1
ACMSECTIONSTANDARDISO
  2
AmdtSectionSymStdISO
  3
"Amdt_StdImp|Product Description: AutoCAD Mechanical 2004 DX|Company: Autodesk"
 90
        0
280
     1
281
     0
  0
CLASS
  1
ACMCENTERLINESTANDARDISO
  2
AmdtCenterLineStdISO
  3
"Amdt_StdImp|Product Description: AutoCAD Mechanical 2004 DX|Company: Autodesk"
 90
        0
280
     1
281
     0
  0
CLASS
  1
ACMTHREADLINESTANDARDISO
  2
AmdtThreadLineStdISO
  3
"Amdt_StdImp|Product Description: AutoCAD Mechanical 2004 DX|Company: Autodesk"
 90
        0
280
     1
281
     0
  0
CLASS
  1
ACMNOTESTANDARDISO
  2
AmdtNoteStdISO
  3
"Amdt_StdImp|Product Description: AutoCAD Mechanical 2004 DX|Company: Autodesk"
 90
        0
280
     1
281
     0
  0
CLASS
  1
AMDTNOTETEMPLATEDB
  2
AmdtNoteTemplateDB
  3
AMDT_STDIMP_MODULE_NAME
 90
        0
280
     1
281
     0
  0
CLASS
  1
ACAMGHOLECHARTSTDISO
  2
AcAmgHoleChartStdISO
  3
ACMSYMBB_MODULE_NAME
 90
        0
280
     1
281
     0
  0
CLASS
  1
ACMTHREADLINESTANDARDJIS
  2
AmdtThreadLineStdJIS
  3
"Amdt_StdImp|Product Description: AutoCAD Mechanical 2004 DX|Company: Autodesk"
 90
        0
280
     1
281
     0
  0
CLASS
  1
ACAMGHOLECHARTSTDJIS
  2
AcAmgHoleChartStdJIS
  3
ACMSYMBB_MODULE_NAME
 90
        0
280
     1
281
     0
  0
CLASS
  1
SORTENTSTABLE
  2
AcDbSortentsTable
  3
ObjectDBX Classes
 90
        0
280
     0
281
     0
  0
ENDSEC
  0
SECTION
  2
TABLES
  0
TABLE
  2
VPORT
  5
8
330
0
100
AcDbSymbolTable
 70
     3
  0
VPORT
  5
12DD2
330
8
100
AcDbSymbolTableRecord
100
AcDbViewportTableRecord
  2
*Active
 70
     0
 10
0.0
 20
0.0
 11
1.0
 21
1.0
 12
52.70754603640489
 22
-117.4470236655908
 13
0.0
 23
0.0
 14
2.5
 24
2.5
 15
10.0
 25
10.0
 16
0.0
 26
0.0
 36
1.0
 17
0.0
 27
0.0
 37
0.0
 40
367.3795093187345
 41
1.51114922813036
 42
50.0
 43
0.0
 44
0.0
 50
0.0
 51
0.0
 71
    16
 72
  2000
 73
     1
 74
     3
 75
     0
 76
     0
 77
     0
 78
     0
281
     0
 65
     1
110
0.0
120
0.0
130
0.0
111
1.0
121
0.0
131
0.0
112
0.0
122
1.0
132
0.0
 79
     0
146
0.0
  0
ENDTAB
  0
TABLE
  2
LTYPE
  5
5
330
0
100
AcDbSymbolTable
 70
    16
  0
LTYPE
  5
14
330
5
100
AcDbSymbolTableRecord
100
AcDbLinetypeTableRecord
  2
ByBlock
 70
     0
  3

 72
    65
 73
     0
 40
0.0
  0
LTYPE
  5
15
330
5
100
AcDbSymbolTableRecord
100
AcDbLinetypeTableRecord
  2
ByLayer
 70
     0
  3

 72
    65
 73
     0
 40
0.0
  0
LTYPE
  5
16
330
5
100
AcDbSymbolTableRecord
100
AcDbLinetypeTableRecord
  2
Continuous
 70
     0
  3
Solid line
 72
    65
 73
     0
 40
0.0
  0
LTYPE
  5
43
330
5
100
AcDbSymbolTableRecord
100
AcDbLinetypeTableRecord
  2
AM_ISO02W050
 70
     0
  3
__ __ __ __ __ __ __ __ __ __ __ __ __ __ __
 72
    65
 73
     2
 40
7.5
 49
6.0
 74
     0
 49
-1.5
 74
     0
  0
LTYPE
  5
44
330
5
100
AcDbSymbolTableRecord
100
AcDbLinetypeTableRecord
  2
AM_ISO08W050
 70
     0
  3
____ . ____ . ____ . ____ . ____ . ____ . ____
 72
    65
 73
     4
 40
18.0
 49
12.0
 74
     0
 49
-1.5
 74
     0
 49
3.0
 74
     0
 49
-1.5
 74
     0
  0
LTYPE
  5
45
330
5
100
AcDbSymbolTableRecord
100
AcDbLinetypeTableRecord
  2
AM_ISO09W050
 70
     0
  3
_____ . . _____ . . _____ . . ____ .. ____
 72
    65
 73
     6
 40
22.5
 49
12.0
 74
     0
 49
-1.5
 74
     0
 49
3.0
 74
     0
 49
-1.5
 74
     0
 49
3.0
 74
     0
 49
-1.5
 74
     0
  0
LTYPE
  5
46
330
5
100
AcDbSymbolTableRecord
100
AcDbLinetypeTableRecord
  2
Amconstr
 70
     0
  3
_______________________
 72
    65
 73
     2
 40
9999.0
 49
9999.0
 74
     0
 49
0.0
 74
     0
  0
LTYPE
  5
47
330
5
100
AcDbSymbolTableRecord
100
AcDbLinetypeTableRecord
  2
AM_ISO02W050x2
 70
     0
  3
 _ _ _ _ _ _ _ _ _ _ _ _
 72
    65
 73
     2
 40
3.75
 49
3.0
 74
     0
 49
-0.75
 74
     0
  0
LTYPE
  5
48
330
5
100
AcDbSymbolTableRecord
100
AcDbLinetypeTableRecord
  2
AM_ISO08W050x2
 70
     0
  3
__ . __ . __ . __ . __ . __
 72
    65
 73
     4
 40
9.0
 49
6.0
 74
     0
 49
-0.75
 74
     0
 49
1.5
 74
     0
 49
-0.75
 74
     0
  0
LTYPE
  5
4B
330
5
100
AcDbSymbolTableRecord
100
AcDbLinetypeTableRecord
  2
Amzigzag
 70
     0
  3
/\/-/\/-/\/-/\/-/\/-/\/
 72
    65
 73
     2
 40
11.0001
 49
0.0001
 74
     4
 75
   135
340
4A
 46
0.04
 50
0.0
 44
0.0
 45
0.0
 49
-11.0
 74
     0
  0
LTYPE
  5
188
330
5
100
AcDbSymbolTableRecord
100
AcDbLinetypeTableRecord
  2
ACJISTGB
 70
     0
  3
__ . . __ . .
 72
    65
 73
     6
 40
9.0
 49
4.0
 74
     0
 49
-1.0
 74
     0
 49
1.0
 74
     0
 49
-1.0
 74
     0
 49
1.0
 74
     0
 49
-1.0
 74
     0
  0
LTYPE
  5
189
330
5
100
AcDbSymbolTableRecord
100
AcDbLinetypeTableRecord
  2
ACJISTGL
 70
     0
  3
_ _ _ _ _
 72
    65
 73
     2
 40
3.0
 49
2.0
 74
     0
 49
-1.0
 74
     0
  0
LTYPE
  5
652
330
5
100
AcDbSymbolTableRecord
100
AcDbLinetypeTableRecord
  2
CENTER
 70
     0
  3
____ _ ____ _ ____ _ ____ _ ____ _ ____ _ ____
 72
    65
 73
     4
 40
17.5
 49
13.0
 74
     0
 49
-1.5
 74
     0
 49
1.5
 74
     0
 49
-1.5
 74
     0
  0
LTYPE
  5
12AB
330
5
100
AcDbSymbolTableRecord
100
AcDbLinetypeTableRecord
  2
HIDDEN
 70
     0
  3
Hidden __ __ __ __ __ __ __ __ __ __ __ __ __ _
 72
    65
 73
     2
 40
0.375
 49
0.25
 74
     0
 49
-0.125
 74
     0
  0
LTYPE
  5
12AC
330
5
100
AcDbSymbolTableRecord
100
AcDbLinetypeTableRecord
  2
PHANTOM2
 70
     0
  3
Phantom (.5x) ___ _ _ ___ _ _ ___ _ _ ___ _ _
 72
    65
 73
     6
 40
1.25
 49
0.625
 74
     0
 49
-0.125
 74
     0
 49
0.125
 74
     0
 49
-0.125
 74
     0
 49
0.125
 74
     0
 49
-0.125
 74
     0
  0
LTYPE
  5
9A44
330
5
100
AcDbSymbolTableRecord
100
AcDbLinetypeTableRecord
  2
ACISOWELD
 70
     0
  3
_ _ _ _ _
 72
    65
 73
     2
 40
2.0
 49
2.0
 74
     0
 49
-1.0
 74
     0
  0
LTYPE
  5
9A45
330
5
100
AcDbSymbolTableRecord
100
AcDbLinetypeTableRecord
  2
ACISOTGB
 70
     0
  3
__ . . __ . .
 72
    65
 73
     6
 40
9.0
 49
4.0
 74
     0
 49
-1.0
 74
     0
 49
1.0
 74
     0
 49
-1.0
 74
     0
 49
1.0
 74
     0
 49
-1.0
 74
     0
  0
LTYPE
  5
9A46
330
5
100
AcDbSymbolTableRecord
100
AcDbLinetypeTableRecord
  2
ACISOTGL
 70
     0
  3
_ _ _ _ _
 72
    65
 73
     2
 40
3.0
 49
2.0
 74
     0
 49
-1.0
 74
     0
  0
ENDTAB
  0
TABLE
  2
LAYER
  5
2
102
{ACAD_XDICTIONARY
360
9B25
102
}
330
0
100
AcDbSymbolTable
 70
     8
  0
LAYER
  5
10
330
2
100
AcDbSymbolTableRecord
100
AcDbLayerTableRecord
  2
0
 70
     0
 62
     7
  6
Continuous
370
    -3
390
F
  0
LAYER
  5
7D
330
2
100
AcDbSymbolTableRecord
100
AcDbLayerTableRecord
  2
AM_5
 70
     0
 62
     3
  6
Continuous
370
    13
390
F
  0
LAYER
  5
7F
330
2
100
AcDbSymbolTableRecord
100
AcDbLayerTableRecord
  2
Defpoints
 70
     0
 62
     7
  6
Continuous
290
     0
370
    -3
390
F
  0
LAYER
  5
12B1
330
2
100
AcDbSymbolTableRecord
100
AcDbLayerTableRecord
  2
AM_0
 70
     0
 62
     7
  6
Continuous
370
    30
390
F
  0
LAYER
  5
1896
330
2
100
AcDbSymbolTableRecord
100
AcDbLayerTableRecord
  2
AM_7
 70
     0
 62
     4
  6
AM_ISO08W050
370
    13
390
F
  0
LAYER
  5
2C94
330
2
100
AcDbSymbolTableRecord
100
AcDbLayerTableRecord
  2
AM_11
 70
     0
 62
     3
  6
AM_ISO09W050
370
    13
390
F
  0
ENDTAB
  0
TABLE
  2
STYLE
  5
3
330
0
100
AcDbSymbolTable
 70
     6
  0
STYLE
  5
11
330
3
100
AcDbSymbolTableRecord
100
AcDbTextStyleTableRecord
  2
STANDARD
 70
     0
 40
0.0
 41
1.0
 50
0.0
 71
     0
 42
3.0
  3
ISOCP.SHX
  4
EXTFONT.SHX
  0
STYLE
  5
4A
330
3
100
AcDbSymbolTableRecord
100
AcDbTextStyleTableRecord
  2

 70
     1
 40
0.0
 41
1.0
 50
0.0
 71
     0
 42
2.5
  3
ltypeshp.shx
  4

  0
STYLE
  5
180
330
3
100
AcDbSymbolTableRecord
100
AcDbTextStyleTableRecord
  2
ACJISTS
 70
     0
 40
1.0
 41
1.0
 50
0.0
 71
     0
 42
2.5
  3
isocp.shx
  4
bigfont.shx
  0
STYLE
  5
187
330
3
100
AcDbSymbolTableRecord
100
AcDbTextStyleTableRecord
  2
ACJISGDT
 70
     0
 40
0.0
 41
1.0
 50
0.0
 71
     0
 42
2.5
  3
amgdt.shx
  4

  0
STYLE
  5
9A36
330
3
100
AcDbSymbolTableRecord
100
AcDbTextStyleTableRecord
  2
ACISOTS
 70
     0
 40
1.0
 41
1.0
 50
0.0
 71
     0
 42
3.15
  3
isocp.shx
  4
extfont.shx
  0
STYLE
  5
9A43
330
3
100
AcDbSymbolTableRecord
100
AcDbTextStyleTableRecord
  2
ACISOGDT
 70
     0
 40
0.0
 41
1.0
 50
0.0
 71
     0
 42
3.15
  3
amgdt.shx
  4

  0
ENDTAB
  0
TABLE
  2
VIEW
  5
6
330
0
100
AcDbSymbolTable
 70
     6
  0
VIEW
  5
A30
330
6
100
AcDbSymbolTableRecord
100
AcDbViewTableRecord
  2
AM_VIEW1
 70
     0
 40
148.5
 10
108.6929657794677
 20
222.75
 41
217.3859315589354
 11
0.0
 21
0.0
 31
1.0
 12
0.0
 22
0.0
 32
0.0
 42
50.0
 43
0.0
 44
0.0
 50
0.0
 71
    16
281
     0
 72
     0
  0
VIEW
  5
A31
330
6
100
AcDbSymbolTableRecord
100
AcDbViewTableRecord
  2
AM_VIEW2
 70
     0
 40
148.5
 10
311.3070342205323
 20
222.75
 41
217.3859315589354
 11
0.0
 21
0.0
 31
1.0
 12
0.0
 22
0.0
 32
0.0
 42
50.0
 43
0.0
 44
0.0
 50
0.0
 71
    16
281
     0
 72
     0
  0
VIEW
  5
A32
330
6
100
AcDbSymbolTableRecord
100
AcDbViewTableRecord
  2
AM_VIEW3
 70
     0
 40
148.5
 10
108.6929657794677
 20
74.25
 41
217.3859315589354
 11
0.0
 21
0.0
 31
1.0
 12
0.0
 22
0.0
 32
0.0
 42
50.0
 43
0.0
 44
0.0
 50
0.0
 71
    16
281
     0
 72
     0
  0
VIEW
  5
A33
330
6
100
AcDbSymbolTableRecord
100
AcDbViewTableRecord
  2
AM_VIEW4
 70
     0
 40
148.5
 10
311.3070342205323
 20
74.25
 41
217.3859315589354
 11
0.0
 21
0.0
 31
1.0
 12
0.0
 22
0.0
 32
0.0
 42
50.0
 43
0.0
 44
0.0
 50
0.0
 71
    16
281
     0
 72
     0
  0
VIEW
  5
A34
330
6
100
AcDbSymbolTableRecord
100
AcDbViewTableRecord
  2
AM_VIEW5
 70
     0
 40
148.5
 10
210.0
 20
148.5
 41
217.3859315589353
 11
0.0
 21
0.0
 31
1.0
 12
0.0
 22
0.0
 32
0.0
 42
50.0
 43
0.0
 44
0.0
 50
0.0
 71
    16
281
     0
 72
     0
  0
VIEW
  5
A35
330
6
100
AcDbSymbolTableRecord
100
AcDbViewTableRecord
  2
AM_VIEW6
 70
     0
 40
296.99703
 10
210.0
 20
148.5
 41
434.7675153992395
 11
0.0
 21
0.0
 31
1.0
 12
0.0
 22
0.0
 32
0.0
 42
50.0
 43
0.0
 44
0.0
 50
0.0
 71
    16
281
     0
 72
     0
  0
ENDTAB
  0
TABLE
  2
UCS
  5
7
330
0
100
AcDbSymbolTable
 70
     0
  0
ENDTAB
  0
TABLE
  2
APPID
  5
9
330
0
100
AcDbSymbolTable
 70
    47
  0
APPID
  5
12
330
9
100
AcDbSymbolTableRecord
100
AcDbRegAppTableRecord
  2
ACAD
 70
     0
  0
APPID
  5
2C
330
9
100
AcDbSymbolTableRecord
100
AcDbRegAppTableRecord
  2
MCAD_NO_VIS
 70
     0
  0
APPID
  5
2D
330
9
100
AcDbSymbolTableRecord
100
AcDbRegAppTableRecord
  2
ACAD_TEMP_GRAPHIC
 70
     0
  0
APPID
  5
B9
330
9
100
AcDbSymbolTableRecord
100
AcDbRegAppTableRecord
  2
GENIUS_GENDTOL_13
 70
     0
  0
APPID
  5
359
330
9
100
AcDbSymbolTableRecord
100
AcDbRegAppTableRecord
  2
GENIUS_GENREC_14
 70
     0
  0
APPID
  5
35A
330
9
100
AcDbSymbolTableRecord
100
AcDbRegAppTableRecord
  2
GENIUS_GENODEF_13
 70
     0
  0
APPID
  5
35B
330
9
100
AcDbSymbolTableRecord
100
AcDbRegAppTableRecord
  2
GENIUS_GENOBJ-N-REC_13
 70
     0
  0
APPID
  5
667
330
9
100
AcDbSymbolTableRecord
100
AcDbRegAppTableRecord
  2
GENIUS_GENCFG_13
 70
     0
1001
GENIUS_GENCFG0_13
1000
GEN
  0
APPID
  5
668
330
9
100
AcDbSymbolTableRecord
100
AcDbRegAppTableRecord
  2
GENIUS_GENCFG0_13
 70
     0
1001
GENIUS_GENCFG_13
1071
1094015123
1000
668
1000
GEN
1070
     0
  0
APPID
  5
669
330
9
100
AcDbSymbolTableRecord
100
AcDbRegAppTableRecord
  2
GENIUS_GENCFG1_13
 70
     0
  0
APPID
  5
66A
330
9
100
AcDbSymbolTableRecord
100
AcDbRegAppTableRecord
  2
GENIUS_GENCFG2_13
 70
     0
  0
APPID
  5
66B
330
9
100
AcDbSymbolTableRecord
100
AcDbRegAppTableRecord
  2
GENIUS_GENCFG3_13
 70
     0
  0
APPID
  5
66C
330
9
100
AcDbSymbolTableRecord
100
AcDbRegAppTableRecord
  2
GENIUS_GENCFG4_13
 70
     0
  0
APPID
  5
A76
330
9
100
AcDbSymbolTableRecord
100
AcDbRegAppTableRecord
  2
GENIUS_GENBLLY_14
 70
     0
  0
APPID
  5
A77
330
9
100
AcDbSymbolTableRecord
100
AcDbRegAppTableRecord
  2
GENIUS_GENOBJ-N-CEN_13
 70
     0
  0
APPID
  5
A83
330
9
100
AcDbSymbolTableRecord
100
AcDbRegAppTableRecord
  2
GENIUS_GENTRA_14
 70
     0
  0
APPID
  5
A8D
330
9
100
AcDbSymbolTableRecord
100
AcDbRegAppTableRecord
  2
GENIUS_GENOBJ-N-TIT_13
 70
     0
  0
APPID
  5
A8E
330
9
100
AcDbSymbolTableRecord
100
AcDbRegAppTableRecord
  2
GENIUS_GENTITLE_13
 70
     0
  0
APPID
  5
A8F
330
9
100
AcDbSymbolTableRecord
100
AcDbRegAppTableRecord
  2
GENIUS_GENOENT_13
 70
     0
  0
APPID
  5
A90
330
9
100
AcDbSymbolTableRecord
100
AcDbRegAppTableRecord
  2
GENIUS_GENOREF_13
 70
     0
  0
APPID
  5
A91
330
9
100
AcDbSymbolTableRecord
100
AcDbRegAppTableRecord
  2
GENIUS_GENOLIS_13
 70
     0
  0
APPID
  5
A92
330
9
100
AcDbSymbolTableRecord
100
AcDbRegAppTableRecord
  2
GENIUS_GENZVEED_13
 70
     0
  0
APPID
  5
A93
330
9
100
AcDbSymbolTableRecord
100
AcDbRegAppTableRecord
  2
GENIUS_GENSCREG_15
 70
     0
  0
APPID
  5
A94
330
9
100
AcDbSymbolTableRecord
100
AcDbRegAppTableRecord
  2
GENIUS_GENOBJ-N-SDF_13
 70
     0
  0
APPID
  5
12B5
330
9
100
AcDbSymbolTableRecord
100
AcDbRegAppTableRecord
  2
GENIUS_GENOBJ-N-RSBK_13
 70
     0
  0
APPID
  5
12B6
330
9
100
AcDbSymbolTableRecord
100
AcDbRegAppTableRecord
  2
GENIUS_GENOBJ-N-LIB_13
 70
     0
  0
APPID
  5
12B7
330
9
100
AcDbSymbolTableRecord
100
AcDbRegAppTableRecord
  2
GENIUS_GENSCALE_13
 70
     0
  0
APPID
  5
12B8
330
9
100
AcDbSymbolTableRecord
100
AcDbRegAppTableRecord
  2
GENIUS_GENOBJ-N-HTC_13
 70
     0
  0
APPID
  5
12B9
330
9
100
AcDbSymbolTableRecord
100
AcDbRegAppTableRecord
  2
GENIUS_GENHATCH_13
 70
     0
  0
APPID
  5
189B
330
9
100
AcDbSymbolTableRecord
100
AcDbRegAppTableRecord
  2
BASE_TYPE
 70
     0
  0
APPID
  5
189C
330
9
100
AcDbSymbolTableRecord
100
AcDbRegAppTableRecord
  2
GENIUS_GENOBJ-N-FIL_13
 70
     0
  0
APPID
  5
23D0
330
9
100
AcDbSymbolTableRecord
100
AcDbRegAppTableRecord
  2
ACATTRIBSERVICES
 70
     0
  0
APPID
  5
264C
330
9
100
AcDbSymbolTableRecord
100
AcDbRegAppTableRecord
  2
GENIUS_GENSCREG_13
 70
     0
  0
APPID
  5
26E5
330
9
100
AcDbSymbolTableRecord
100
AcDbRegAppTableRecord
  2
CONTENTBLOCKICON
 70
     0
  0
APPID
  5
2747
330
9
100
AcDbSymbolTableRecord
100
AcDbRegAppTableRecord
  2
GENIUS_GENFIL_13
 70
     0
  0
APPID
  5
2748
330
9
100
AcDbSymbolTableRecord
100
AcDbRegAppTableRecord
  2
GENIUS_GENOBJ-N-CHA_13
 70
     0
  0
APPID
  5
2749
330
9
100
AcDbSymbolTableRecord
100
AcDbRegAppTableRecord
  2
GENIUS_GENDIMSH_14
 70
     0
  0
APPID
  5
274A
330
9
100
AcDbSymbolTableRecord
100
AcDbRegAppTableRecord
  2
GENIUS_GENOBJ-N-DIM_13
 70
     0
  0
APPID
  5
274B
330
9
100
AcDbSymbolTableRecord
100
AcDbRegAppTableRecord
  2
GENIUS_GENDIM_13
 70
     0
  0
APPID
  5
2A08
330
9
100
AcDbSymbolTableRecord
100
AcDbRegAppTableRecord
  2
GENIUS_GENOBJ-N-CRS_13
 70
     0
  0
APPID
  5
9A0B
330
9
100
AcDbSymbolTableRecord
100
AcDbRegAppTableRecord
  2
AD_DRAW
 70
     0
  0
APPID
  5
9A29
330
9
100
AcDbSymbolTableRecord
100
AcDbRegAppTableRecord
  2
DESIGNERASSEMBLIES
 70
     0
  0
APPID
  5
9A2F
330
9
100
AcDbSymbolTableRecord
100
AcDbRegAppTableRecord
  2
ACADM_DIM_EDIT
 70
     0
  0
APPID
  5
9A30
330
9
100
AcDbSymbolTableRecord
100
AcDbRegAppTableRecord
  2
AMDT_DM_ADJ
 70
     0
  0
APPID
  5
9B24
330
9
100
AcDbSymbolTableRecord
100
AcDbRegAppTableRecord
  2
GENIUS_GENCEN_19
 70
     0
  0
APPID
  5
A33D
330
9
100
AcDbSymbolTableRecord
100
AcDbRegAppTableRecord
  2
ACAD_DSTYLE_DIMTEXT_FILL
 70
     0
  0
APPID
  5
A33E
330
9
100
AcDbSymbolTableRecord
100
AcDbRegAppTableRecord
  2
ACAD_PSEXT
 70
     0
  0
ENDTAB
  0
TABLE
  2
DIMSTYLE
  5
A
330
0
100
AcDbSymbolTable
 70
    10
100
AcDbDimStyleTable
  0
DIMSTYLE
105
58
330
A
100
AcDbSymbolTableRecord
100
AcDbDimStyleTableRecord
  2
AM_JIS
 70
     0
  4
"
 41
2.5
 42
0.0
 43
10.0
 44
1.0
 47
0.1
 48
0.1000000001
 73
     0
 74
     0
 77
     3
 78
     1
 79
     2
140
3.8
141
0.0
143
0.0393701
146
0.71
147
1.5
172
     1
176
   256
177
   256
178
     2
179
     2
271
     3
272
     3
275
     1
283
     0
284
     8
340
11
341
59
342
59
371
    -1
372
    -1
  0
DIMSTYLE
105
5F
330
A
100
AcDbSymbolTableRecord
100
AcDbDimStyleTableRecord
  2
AM_JIS$3
 70
     0
  4
"
 41
2.5
 42
0.0
 43
10.0
 44
1.0
 47
0.1
 48
0.1000000001
 73
     0
 77
     3
 78
     1
 79
     2
140
3.8
141
0.0
143
0.0393701
146
0.71
147
1.5
172
     1
176
   256
177
   256
178
     2
179
     2
271
     3
272
     3
275
     1
283
     0
284
     8
288
     1
289
     0
340
11
341
59
342
59
371
    -1
372
    -1
  0
DIMSTYLE
105
60
330
A
100
AcDbSymbolTableRecord
100
AcDbDimStyleTableRecord
  2
AM_JIS$4
 70
     0
  4
"
 41
2.5
 42
0.0
 43
10.0
 44
1.0
 47
0.1
 48
0.1000000001
 73
     0
 77
     3
 78
     1
 79
     2
140
3.8
141
0.0
143
0.0393701
146
0.71
147
1.5
172
     1
176
   256
177
   256
178
     2
179
     2
271
     3
272
     3
275
     1
283
     0
284
     8
288
     1
289
     0
340
11
341
59
342
59
371
    -1
372
    -1
  0
DIMSTYLE
105
61
330
A
100
AcDbSymbolTableRecord
100
AcDbDimStyleTableRecord
  2
AM_JIS$6
 70
     0
  4
"
 41
2.5
 42
0.0
 43
10.0
 44
1.0
 47
0.1
 48
0.1000000001
 73
     0
 74
     0
 78
     1
 79
     2
140
3.8
141
0.0
143
0.0393701
146
0.71
147
1.5
172
     1
176
   256
177
   256
178
     2
179
     2
271
     3
272
     3
275
     1
283
     0
284
     8
340
11
341
59
342
59
371
    -1
372
    -1
  0
DIMSTYLE
105
62
330
A
100
AcDbSymbolTableRecord
100
AcDbDimStyleTableRecord
  2
AM_JIS$7
 70
     0
  4
"
 41
2.5
 42
0.0
 43
10.0
 44
1.0
 47
0.1
 48
0.1000000001
 73
     0
 74
     0
 77
     3
 78
     1
 79
     2
140
5.0
141
0.0
143
0.0393701
146
0.71
147
1.5
172
     1
176
   256
177
   256
178
     2
179
     2
271
     3
272
     3
275
     1
283
     0
284
     8
340
11
341
59
342
59
371
    -1
372
    -1
  0
DIMSTYLE
105
63
330
A
100
AcDbSymbolTableRecord
100
AcDbDimStyleTableRecord
  2
AM_JIS$SF
 70
     0
  4
"
 41
2.5
 42
1.0
 43
10.0
 44
1.0
 47
0.1
 48
0.1
 73
     0
 74
     0
 75
     1
 76
     1
 77
     3
 78
     8
 79
     2
140
3.5
141
0.0
143
0.0393701
146
0.71
147
1.5
176
   256
177
   256
178
     2
271
     2
272
     3
274
     4
340
11
341
59
342
59
343
59
344
59
371
    -1
372
    -1
  0
DIMSTYLE
105
68
330
A
100
AcDbSymbolTableRecord
100
AcDbDimStyleTableRecord
  2
AM_JIS$SH
 70
     0
  4
"
 41
2.5
 42
1.0
 43
10.0
 44
1.0
 47
0.1
 48
0.1
 73
     0
 74
     0
 75
     1
 76
     1
 77
     3
 78
     8
 79
     2
140
3.5
141
0.0
143
0.0393701
144
2.0
146
0.71
147
1.5
173
     1
176
   256
177
   256
178
     2
271
     2
272
     3
274
     4
340
11
341
59
342
59
343
64
344
59
371
    -1
372
    -1
  0
DIMSTYLE
105
65F
330
A
100
AcDbSymbolTableRecord
100
AcDbDimStyleTableRecord
  2
STANDARD
 70
     0
340
11
  0
DIMSTYLE
105
1899
102
{ACAD_REACTORS
330
11B6F
330
12C9D
102
}
330
A
100
AcDbSymbolTableRecord
100
AcDbDimStyleTableRecord
  2
AM_JIS$0
 70
     0
  4
"
 41
2.5
 42
0.0
 43
10.0
 44
1.0
 47
0.1
 48
0.1000000001
 73
     0
 74
     0
 77
     3
 78
     1
 79
     2
140
3.8
141
0.0
143
0.0393701
146
0.71
147
1.5
172
     1
176
     3
177
     3
178
     2
271
     3
272
     3
275
     1
283
     0
284
     8
289
     0
340
11
341
59
342
59
371
    13
372
    13
  0
DIMSTYLE
105
189A
102
{ACAD_REACTORS
330
11C00
102
}
330
A
100
AcDbSymbolTableRecord
100
AcDbDimStyleTableRecord
  2
AM_JIS$2
 70
     0
  4
"
 41
2.5
 42
0.0
 43
10.0
 44
1.0
 47
0.1
 48
0.1000000001
 73
     0
 74
     0
 77
     3
 78
     1
 79
     2
140
3.8
141
0.0
143
0.0393701
146
0.71
147
1.5
172
     1
176
     3
177
     3
178
     2
179
     3
271
     3
272
     3
275
     1
283
     0
284
     8
289
     0
340
11
341
59
342
59
371
    13
372
    13
  0
ENDTAB
  0
TABLE
  2
BLOCK_RECORD
  5
1
330
0
100
AcDbSymbolTable
 70
     7
  0
BLOCK_RECORD
  5
1F
102
{ACAD_XDICTIONARY
360
165
102
}
330
1
100
AcDbSymbolTableRecord
100
AcDbBlockTableRecord
  2
*Model_Space
340
22
  0
BLOCK_RECORD
  5
1B
102
{ACAD_XDICTIONARY
360
264F
102
}
330
1
100
AcDbSymbolTableRecord
100
AcDbBlockTableRecord
  2
*Paper_Space
340
1E
  0
BLOCK_RECORD
  5
23
102
{ACAD_XDICTIONARY
360
2651
102
}
330
1
100
AcDbSymbolTableRecord
100
AcDbBlockTableRecord
  2
*Paper_Space0
340
26
  0
BLOCK_RECORD
  5
59
330
1
100
AcDbSymbolTableRecord
100
AcDbBlockTableRecord
  2
_Open30
340
0
102
{BLKREFS
331
12D7F
331
12D80
331
12D76
331
12D77
331
12D8A
331
12D8B
102
}
  0
BLOCK_RECORD
  5
64
330
1
100
AcDbSymbolTableRecord
100
AcDbBlockTableRecord
  2
GENAXEH
340
0
  0
BLOCK_RECORD
  5
9A20
330
1
100
AcDbSymbolTableRecord
100
AcDbBlockTableRecord
  2
*U3
340
0
  0
BLOCK_RECORD
  5
11C13
330
1
100
AcDbSymbolTableRecord
100
AcDbBlockTableRecord
  2
*D4
340
0
  0
BLOCK_RECORD
  5
11C83
330
1
100
AcDbSymbolTableRecord
100
AcDbBlockTableRecord
  2
*D5
340
0
  0
BLOCK_RECORD
  5
12C9E
330
1
100
AcDbSymbolTableRecord
100
AcDbBlockTableRecord
  2
*D6
340
0
  0
ENDTAB
  0
ENDSEC
  0
SECTION
  2
BLOCKS
  0
BLOCK
  5
20
330
1F
100
AcDbEntity
  8
0
100
AcDbBlockBegin
  2
*Model_Space
 70
     0
 71
     0
 10
0.0
 20
0.0
 30
0.0
  3
*Model_Space
  1

  0
ENDBLK
  5
21
330
1F
100
AcDbEntity
  8
0
100
AcDbBlockEnd
  0
BLOCK
  5
1C
330
1B
100
AcDbEntity
 67
     1
  8
0
100
AcDbBlockBegin
  2
*Paper_Space
 70
     0
 71
     0
 10
0.0
 20
0.0
 30
0.0
  3
*Paper_Space
  1

  0
ENDBLK
  5
1D
330
1B
100
AcDbEntity
 67
     1
  8
0
100
AcDbBlockEnd
  0
BLOCK
  5
24
330
23
100
AcDbEntity
  8
0
100
AcDbBlockBegin
  2
*Paper_Space0
 70
     0
 71
     0
 10
0.0
 20
0.0
 30
0.0
  3
*Paper_Space0
  1

  0
ENDBLK
  5
25
330
23
100
AcDbEntity
  8
0
100
AcDbBlockEnd
  0
BLOCK
  5
2F22
330
59
100
AcDbEntity
  8
0
100
AcDbBlockBegin
  2
_Open30
 70
     0
 71
     0
 10
0.0
 20
0.0
 30
0.0
  3
_Open30
  1

  0
LINE
  5
2F1F
330
59
100
AcDbEntity
  8
0
 62
     0
370
    -2
100
AcDbLine
 10
-1.0
 20
0.26794919
 30
0.0
 11
0.0
 21
0.0
 31
0.0
  0
LINE
  5
2F20
330
59
100
AcDbEntity
  8
0
 62
     0
370
    -2
100
AcDbLine
 10
0.0
 20
0.0
 30
0.0
 11
-1.0
 21
-0.26794919
 31
0.0
  0
LINE
  5
2F21
330
59
100
AcDbEntity
  8
0
 62
     0
370
    -2
100
AcDbLine
 10
0.0
 20
0.0
 30
0.0
 11
-1.0
 21
0.0
 31
0.0
  0
ENDBLK
  5
2F23
330
59
100
AcDbEntity
  8
0
100
AcDbBlockEnd
  0
BLOCK
  5
2F2E
330
64
100
AcDbEntity
  8
0
100
AcDbBlockBegin
  2
GENAXEH
 70
     0
 71
     0
 10
0.0
 20
0.0
 30
0.0
  3
GENAXEH
  1

  0
LINE
  5
2F2D
330
64
100
AcDbEntity
  8
0
100
AcDbLine
 10
-1.0
 20
0.0
 30
0.0
 11
1.0
 21
0.0
 31
0.0
  0
ENDBLK
  5
2F2F
330
64
100
AcDbEntity
  8
0
100
AcDbBlockEnd
  0
BLOCK
  5
9A21
330
9A20
100
AcDbEntity
  8
0
100
AcDbBlockBegin
  2
*U3
 70
     1
 71
     0
 10
0.0
 20
0.0
 30
0.0
  3
*U3
  1

  0
ENDBLK
  5
9A22
330
9A20
100
AcDbEntity
  8
0
100
AcDbBlockEnd
  0
BLOCK
  5
11E57
330
11C13
100
AcDbEntity
  8
0
100
AcDbBlockBegin
  2
*D4
 70
     1
 71
     0
 10
0.0
 20
0.0
 30
0.0
  3
*D4
  1

  0
LINE
  5
12D7C
330
11C13
100
AcDbEntity
  8
AM_5
 62
     3
370
    13
100
AcDbLine
 10
0.0
 20
-15.86418845482933
 30
0.0
 11
-0.0000000000000036
 21
-40.11129311632489
 31
0.0
  0
LINE
  5
12D7D
330
11C13
100
AcDbEntity
  8
AM_5
 62
     3
370
    13
100
AcDbLine
 10
13.97733148656403
 20
-4.993619958477437
 30
0.0
 11
37.69538480107765
 21
-12.47189344310172
 31
0.0
  0
ARC
  5
12D7E
330
11C13
100
AcDbEntity
  8
AM_5
 62
     3
370
    13
100
AcDbCircle
 10
-0.0000000000000003
 20
-0.5865842690090499
 30
0.0
 40
38.52470884731584
100
AcDbArc
 50
273.7187716265061
 51
338.7812283735138
  0
INSERT
  5
12D7F
330
11C13
100
AcDbEntity
  8
AM_5
 62
     3
370
    13
100
AcDbBlockReference
  2
_Open30
 10
-0.0000000000000036
 20
-39.11129311632489
 30
0.0
 41
2.5
 42
2.5
 43
2.5
 50
181.8593858132531
  0
INSERT
  5
12D80
330
11C13
100
AcDbEntity
  8
AM_5
 62
     3
370
    13
100
AcDbBlockReference
  2
_Open30
 10
36.74166785032931
 20
-12.17118764359777
 30
0.0
 41
2.5
 42
2.5
 43
2.5
 50
70.64061418676684
  0
MTEXT
  5
12D81
330
11C13
100
AcDbEntity
  8
AM_5
 62
     2
100
AcDbMText
 10
20.76935807826397
 20
-28.91241457240771
 30
0.0
 40
3.8
 41
0.0
 71
     5
 72
     1
  1
72°30'
 11
0.8064446042673803
 21
0.5913096483637218
 31
0.0
 73
     1
 44
1.0
  0
POINT
  5
12D82
330
11C13
100
AcDbEntity
  8
Defpoints
 62
     0
100
AcDbPoint
 10
15.77171972145052
 20
-35.73492774062181
 30
0.0
  0
POINT
  5
12D83
330
11C13
100
AcDbEntity
  8
Defpoints
 62
     0
100
AcDbPoint
 10
-0.0000000000000004
 20
-6.548991567202847
 30
0.0
  0
POINT
  5
12D84
330
11C13
100
AcDbEntity
  8
Defpoints
 62
     0
100
AcDbPoint
 10
0.5594353603962645
 20
-0.7629735605978567
 30
0.0
  0
POINT
  5
12D85
330
11C13
100
AcDbEntity
  8
Defpoints
 62
     0
100
AcDbPoint
 10
13.97733148656403
 20
-4.993619958477437
 30
0.0
  0
POINT
  5
12D86
330
11C13
100
AcDbEntity
  8
Defpoints
 62
     0
100
AcDbPoint
 10
0.0
 20
-15.86418845482933
 30
0.0
  0
ENDBLK
  5
11E58
330
11C13
100
AcDbEntity
  8
0
100
AcDbBlockEnd
  0
BLOCK
  5
11E6D
330
11C83
100
AcDbEntity
  8
0
100
AcDbBlockBegin
  2
*D5
 70
     1
 71
     0
 10
0.0
 20
0.0
 30
0.0
  3
*D5
  1

  0
LINE
  5
12D73
330
11C83
100
AcDbEntity
  8
AM_5
 62
     3
370
    13
100
AcDbLine
 10
139.9999999999999
 20
31.5
 30
0.0
 11
198.9899171987326
 21
31.49999999999999
 31
0.0
  0
LINE
  5
12D74
330
11C83
100
AcDbEntity
  8
AM_5
 62
     3
370
    13
100
AcDbLine
 10
139.9999999999999
 20
-31.50000000000006
 30
0.0
 11
198.9899171987326
 21
-31.50000000000007
 31
0.0
  0
LINE
  5
12D75
330
11C83
100
AcDbEntity
  8
AM_5
 62
     3
370
    13
100
AcDbLine
 10
197.9899171987326
 20
28.99999999999999
 30
0.0
 11
197.9899171987326
 21
-29.00000000000007
 31
0.0
  0
INSERT
  5
12D76
330
11C83
100
AcDbEntity
  8
AM_5
 62
     3
370
    13
100
AcDbBlockReference
  2
_Open30
 10
197.9899171987326
 20
31.49999999999999
 30
0.0
 41
2.5
 42
2.5
 43
2.5
 50
90.0
  0
INSERT
  5
12D77
330
11C83
100
AcDbEntity
  8
AM_5
 62
     3
370
    13
100
AcDbBlockReference
  2
_Open30
 10
197.9899171987326
 20
-31.50000000000007
 30
0.0
 41
2.5
 42
2.5
 43
2.5
 50
270.0
  0
MTEXT
  5
12D78
330
11C83
100
AcDbEntity
  8
AM_5
 62
     2
100
AcDbMText
 10
194.5899171987326
 20
-0.0000000000000117
 30
0.0
 40
3.8
 41
0.0
 71
     5
 72
     1
  1
%%c63
 11
6.123031769111886E-17
 21
1.0
 31
0.0
 73
     1
 44
1.0
  0
POINT
  5
12D79
330
11C83
100
AcDbEntity
  8
Defpoints
 62
     0
100
AcDbPoint
 10
139.9999999999999
 20
31.5
 30
0.0
  0
POINT
  5
12D7A
330
11C83
100
AcDbEntity
  8
Defpoints
 62
     0
100
AcDbPoint
 10
139.9999999999999
 20
-31.50000000000006
 30
0.0
  0
POINT
  5
12D7B
330
11C83
100
AcDbEntity
  8
Defpoints
 62
     0
100
AcDbPoint
 10
197.9899171987326
 20
-31.50000000000007
 30
0.0
  0
ENDBLK
  5
11E6E
330
11C83
100
AcDbEntity
  8
0
100
AcDbBlockEnd
  0
BLOCK
  5
12CBD
330
12C9E
100
AcDbEntity
  8
0
100
AcDbBlockBegin
  2
*D6
 70
     1
 71
     0
 10
0.0
 20
0.0
 30
0.0
  3
*D6
  1

  0
LINE
  5
12D87
330
12C9E
100
AcDbEntity
  8
AM_5
 62
     3
370
    13
100
AcDbLine
 10
139.9999999999999
 20
-31.50000000000006
 30
0.0
 11
139.9999999999999
 21
-55.80534840255422
 31
0.0
  0
LINE
  5
12D88
330
12C9E
100
AcDbEntity
  8
AM_5
 62
     3
370
    13
100
AcDbLine
 10
-0.0000000000000568
 20
0.0
 30
0.0
 11
-0.0000000000000603
 21
-55.80534840255422
 31
0.0
  0
LINE
  5
12D89
330
12C9E
100
AcDbEntity
  8
AM_5
 62
     3
370
    13
100
AcDbLine
 10
137.4999999999999
 20
-54.80534840255422
 30
0.0
 11
2.49999999999994
 21
-54.80534840255422
 31
0.0
  0
INSERT
  5
12D8A
330
12C9E
100
AcDbEntity
  8
AM_5
 62
     3
370
    13
100
AcDbBlockReference
  2
_Open30
 10
139.9999999999999
 20
-54.80534840255422
 30
0.0
 41
2.5
 42
2.5
 43
2.5
  0
INSERT
  5
12D8B
330
12C9E
100
AcDbEntity
  8
AM_5
 62
     3
370
    13
100
AcDbBlockReference
  2
_Open30
 10
-0.0000000000000602
 20
-54.80534840255422
 30
0.0
 41
2.5
 42
2.5
 43
2.5
 50
180.0
  0
MTEXT
  5
12D8C
330
12C9E
100
AcDbEntity
  8
AM_5
 62
     2
100
AcDbMText
 10
69.99999999999992
 20
-51.40534840255422
 30
0.0
 40
3.8
 41
0.0
 71
     5
 72
     1
  1
140
 73
     1
 44
1.0
  0
POINT
  5
12D8D
330
12C9E
100
AcDbEntity
  8
Defpoints
 62
     0
100
AcDbPoint
 10
139.9999999999999
 20
-31.50000000000006
 30
0.0
  0
POINT
  5
12D8E
330
12C9E
100
AcDbEntity
  8
Defpoints
 62
     0
100
AcDbPoint
 10
-0.0000000000000568
 20
0.0
 30
0.0
  0
POINT
  5
12D8F
330
12C9E
100
AcDbEntity
  8
Defpoints
 62
     0
100
AcDbPoint
 10
-0.0000000000000602
 20
-54.80534840255422
 30
0.0
  0
ENDBLK
  5
12CBE
330
12C9E
100
AcDbEntity
  8
0
100
AcDbBlockEnd
  0
ENDSEC
  0
SECTION
  2
ENTITIES
  0
LINE
  5
1196E
330
1F
100
AcDbEntity
  8
AM_0
100
AcDbLine
 10
120.2668482163135
 20
26.49999999999997
 30
0.0
 11
121.1249999999999
 21
26.49999999999997
 31
0.0
  0
LINE
  5
1196F
330
1F
100
AcDbEntity
  8
AM_0
100
AcDbLine
 10
122.8749999999999
 20
26.49999999999997
 30
0.0
 11
121.1249999999999
 21
26.49999999999997
 31
0.0
  0
LINE
  5
11970
330
1F
100
AcDbEntity
  8
AM_0
100
AcDbLine
 10
122.8749999999999
 20
26.49999999999997
 30
0.0
 11
123.7331517836864
 21
26.49999999999997
 31
0.0
  0
LINE
  5
11971
330
1F
100
AcDbEntity
  8
AM_0
100
AcDbLine
 10
118.6225009252412
 20
30.18691769624729
 30
0.0
 11
114.0
 21
30.18691769624729
 31
0.0
  0
SPLINE
  5
11972
330
1F
100
AcDbEntity
  8
AM_0
100
AcDbSpline
210
0.0
220
0.0
230
1.0
 70
    12
 71
     2
 72
     6
 73
     3
 74
     0
 42
0.0000000001
 43
0.0000000001
 40
0.0
 40
0.0
 40
0.0
 40
3.113143699890185
 40
3.113143699890185
 40
3.113143699890185
 10
120.125
 20
27.46035345826837
 30
0.0
 41
1.0
 10
119.4092825889829
 20
28.76489463188588
 30
0.0
 41
1.001020531935521
 10
118.6225009252412
 20
30.18691769624729
 30
0.0
 41
1.0
  0
ARC
  5
11973
330
1F
100
AcDbEntity
  8
AM_0
100
AcDbCircle
 10
121.2270638145683
 20
27.04086158464904
 30
0.0
 40
1.102064085650231
100
AcDbArc
 50
179.9598130706537
 51
209.3912990857484
  0
ARC
  5
11974
330
1F
100
AcDbEntity
  8
AM_0
100
AcDbCircle
 10
121.1839398542543
 20
-27.34889958628173
 30
0.0
 40
1.058952913756587
100
AcDbArc
 50
126.7129507495297
 51
180.2845529351275
  0
SPLINE
  5
11975
330
1F
100
AcDbEntity
  8
AM_0
100
AcDbSpline
210
0.0
220
0.0
230
1.0
 70
    12
 71
     2
 72
     6
 73
     3
 74
     0
 42
0.0000000001
 43
0.0000000001
 40
0.0004629399900766
 40
0.0004629399900766
 40
0.0004629399900766
 40
3.089518613366919
 40
3.089518613366919
 40
3.089518613366919
 10
118.6225009252411
 20
-30.46719547316394
 30
0.0
 41
1.00000029977658
 10
119.4085685701939
 20
-29.05953270801109
 30
0.0
 41
1.001000308211577
 10
120.1249999999999
 20
-27.76816544269855
 30
0.0
 41
1.00000032891449
  0
LINE
  5
11976
330
1F
100
AcDbEntity
  8
AM_0
100
AcDbLine
 10
113.9999999999999
 20
-30.46719547316394
 30
0.0
 11
118.6225009252411
 21
-30.46719547316394
 31
0.0
  0
LINE
  5
11977
330
1F
100
AcDbEntity
  8
AM_0
100
AcDbLine
 10
122.8749999999999
 20
-26.50000000000006
 30
0.0
 11
123.4491089321472
 21
-26.50000000000006
 31
0.0
  0
LINE
  5
11978
330
1F
100
AcDbEntity
  8
AM_0
100
AcDbLine
 10
121.1249999999999
 20
-26.50000000000006
 30
0.0
 11
122.8749999999999
 21
-26.50000000000006
 31
0.0
  0
LINE
  5
11979
330
1F
100
AcDbEntity
  8
AM_0
100
AcDbLine
 10
120.5508910678536
 20
-26.50000000000006
 30
0.0
 11
121.1249999999999
 21
-26.50000000000006
 31
0.0
  0
ARC
  5
1197A
330
1F
100
AcDbEntity
  8
AM_0
100
AcDbCircle
 10
150.1751318367251
 20
47.37263673449706
 30
0.0
 40
23.9594551963814
100
AcDbArc
 50
256.298476670375
 51
277.9767128774107
  0
ARC
  5
1197B
330
1F
100
AcDbEntity
  8
AM_0
100
AcDbCircle
 10
150.175131836725
 20
-47.37263673449706
 30
0.0
 40
23.95945519638139
100
AcDbArc
 50
82.02328712258939
 51
103.701523329625
  0
SPLINE
  5
1197C
330
1F
100
AcDbEntity
  8
AM_0
100
AcDbSpline
210
0.0
220
0.0
230
1.0
 70
     8
 71
     3
 72
     8
 73
     4
 74
     0
 42
0.0000000001
 43
0.0000000001
 40
2.048349944607707
 40
2.048349944607707
 40
2.048349944607707
 40
2.048349944607707
 40
2.082808961106547
 40
2.082808961106547
 40
2.082808961106547
 40
2.082808961106547
 10
171.9995549477389
 20
-20.29583066739821
 30
0.0
 10
171.9998543928213
 20
-20.28406332142555
 30
0.0
 10
171.9999999999999
 20
-20.2724222642683
 30
0.0
 10
171.9999999999999
 20
-20.26093592543481
 30
0.0
  0
SPLINE
  5
1197D
330
1F
100
AcDbEntity
  8
AM_0
100
AcDbSpline
210
0.0
220
0.0
230
1.0
 70
     8
 71
     3
 72
     8
 73
     4
 74
     0
 42
0.0000000001
 43
0.0000000001
 40
5.80931992843316
 40
5.80931992843316
 40
5.80931992843316
 40
5.80931992843316
 40
5.823322112792894
 40
5.823322112792894
 40
5.823322112792894
 40
5.823322112792894
 10
171.9999999999999
 20
20.28191457645238
 30
0.0
 10
171.9999999999999
 20
20.28658197123872
 30
0.0
 10
171.9999759386646
 20
20.29127491188041
 30
0.0
 10
171.9999272087097
 20
20.29599149296695
 30
0.0
  0
SPLINE
  5
1197E
330
1F
100
AcDbEntity
  8
AM_0
100
AcDbSpline
210
0.0
220
0.0
230
1.0
 70
     8
 71
     3
 72
    16
 73
    12
 74
     0
 42
0.0000000001
 43
0.0000000001
 40
-1.965007727733835
 40
-1.965007727733835
 40
-1.965007727733835
 40
-1.965007727733835
 40
-1.602152014354634
 40
-1.602152014354634
 40
-0.9617068588456064
 40
-0.9617068588456064
 40
-0.4733245765258282
 40
-0.4733245765258282
 40
-0.1927584624124154
 40
-0.1927584624124154
 40
-0.0001921708555565
 40
-0.0001921708555565
 40
-0.0001921708555565
 40
-0.0001921708555565
 10
171.9999272087097
 20
20.2961605905129
 30
0.0
 10
171.9985497967572
 20
20.38573514765716
 30
0.0
 10
171.9777411960503
 20
20.46895818018942
 30
0.0
 10
171.868800906067
 20
20.67167276063441
 30
0.0
 10
171.7498492172835
 20
20.75496673622996
 30
0.0
 10
171.5052791745456
 20
20.8398134156086
 30
0.0
 10
171.3883213889048
 20
20.85632464283293
 30
0.0
 10
171.2016973338595
 20
20.86802084104141
 30
0.0
 10
171.1247302580804
 20
20.86965914293518
 30
0.0
 10
170.9841456870299
 20
20.87031290871795
 30
0.0
 10
170.9235914611263
 20
20.87008831058478
 30
0.0
 10
170.8599251403329
 20
20.86999999999983
 30
0.0
  0
SPLINE
  5
1197F
330
1F
100
AcDbEntity
  8
AM_0
100
AcDbSpline
210
0.0
220
0.0
230
1.0
 70
     8
 71
     3
 72
    16
 73
    12
 74
     0
 42
0.0000000001
 43
0.0000000001
 40
-4.40429224599759
 40
-4.40429224599759
 40
-4.40429224599759
 40
-4.40429224599759
 40
-4.141910802677585
 40
-4.141910802677585
 40
-3.871634509130126
 40
-3.871634509130126
 40
-3.14310442813097
 40
-3.14310442813097
 40
-2.420961954899249
 40
-2.420961954899249
 40
-1.953365045766561
 40
-1.953365045766561
 40
-1.953365045766561
 40
-1.953365045766561
 10
170.8599251403329
 20
-20.86999999999995
 30
0.0
 10
170.9282849022019
 20
-20.86992338016995
 30
0.0
 10
170.9932432913628
 20
-20.869726110459
 30
0.0
 10
171.1176472909291
 20
-20.86778624592631
 30
0.0
 10
171.1768642359102
 20
-20.86592444066542
 30
0.0
 10
171.3774388659894
 20
-20.85381625952783
 30
0.0
 10
171.5210509055832
 20
-20.8328025999345
 30
0.0
 10
171.7695275120249
 20
-20.73018404392047
 30
0.0
 10
171.8690256417867
 20
-20.65113651526195
 30
0.0
 10
171.9713351699574
 20
-20.47232009367605
 30
0.0
 10
171.9959899172872
 20
-20.38954393635146
 30
0.0
 10
171.9995549477389
 20
-20.29595168313796
 30
0.0
  0
ARC
  5
11980
330
1F
100
AcDbEntity
  8
AM_0
100
AcDbCircle
 10
122.7729361854317
 20
27.04086158464904
 30
0.0
 40
1.102064085651275
100
AcDbArc
 50
330.6087009142633
 51
0.0401869293332346
  0
SPLINE
  5
11981
330
1F
100
AcDbEntity
  8
AM_0
100
AcDbSpline
210
0.0
220
0.0
230
1.0
 70
    12
 71
     2
 72
     6
 73
     3
 74
     0
 42
0.0000000001
 43
0.0000000001
 40
0.0
 40
0.0
 40
0.0
 40
3.113143699890207
 40
3.113143699890207
 40
3.113143699890207
 10
125.3774990747597
 20
30.18691769624729
 30
0.0
 41
1.0
 10
124.590717411029
 20
28.7648946319068
 30
0.0
 41
1.001020531934115
 10
123.875
 20
27.46035345826837
 30
0.0
 41
1.0
  0
LINE
  5
11982
330
1F
100
AcDbEntity
  8
AM_0
100
AcDbLine
 10
126.0
 20
30.18691769624729
 30
0.0
 11
125.3774990747597
 21
30.18691769624729
 31
0.0
  0
ARC
  5
11983
330
1F
100
AcDbEntity
  8
AM_0
100
AcDbCircle
 10
125.7627065149392
 20
63.31335143878368
 30
0.0
 40
33.12728362991341
100
AcDbArc
 50
270.4104179389327
 51
286.191131660085
  0
ARC
  5
11984
330
1F
100
AcDbEntity
  8
AM_0
100
AcDbCircle
 10
122.8160601457457
 20
-27.34889958628264
 30
0.0
 40
1.058952913757433
100
AcDbArc
 50
359.7154470648854
 51
53.28704925043766
  0
SPLINE
  5
11985
330
1F
100
AcDbEntity
  8
AM_0
100
AcDbSpline
210
0.0
220
0.0
230
1.0
 70
     8
 71
     3
 72
     8
 73
     4
 74
     0
 42
0.0000000001
 43
0.0000000001
 40
1.776340743961663
 40
1.776340743961663
 40
1.776340743961663
 40
1.776340743961663
 40
2.063575594279487
 40
2.063575594279487
 40
2.063575594279487
 40
2.063575594279487
 10
123.8749999999999
 20
-20.30394050424644
 30
0.0
 10
123.8749999999999
 20
-20.20819555414079
 30
0.0
 10
123.8676137147967
 20
-20.10344515595722
 30
0.0
 10
123.8514533298266
 20
-20.00000000000006
 30
0.0
  0
LINE
  5
11986
330
1F
100
AcDbEntity
  8
AM_0
100
AcDbLine
 10
123.8514533298266
 20
-20.00000000000006
 30
0.0
 11
123.8749999999999
 21
-20.00000000000006
 31
0.0
  0
ARC
  5
11987
330
1F
100
AcDbEntity
  8
AM_0
100
AcDbCircle
 10
121.1646765477753
 20
-17.51309475951348
 30
0.0
 40
6.647400590745968
100
AcDbArc
 50
201.9697455278646
 51
247.5156208110634
  0
LINE
  5
11988
330
1F
100
AcDbEntity
  8
AM_0
100
AcDbLine
 10
114.9999999999999
 20
-20.00000000000006
 30
0.0
 11
118.6225009252411
 21
-20.00000000000006
 31
0.0
  0
LINE
  5
11989
330
1F
100
AcDbEntity
  8
AM_0
100
AcDbLine
 10
118.6225009252411
 20
-20.00000000000006
 30
0.0
 11
120.1249999999999
 21
-20.00000000000006
 31
0.0
  0
LINE
  5
1198A
330
1F
100
AcDbEntity
  8
AM_0
100
AcDbLine
 10
120.1249999999999
 20
-20.00000000000006
 30
0.0
 11
120.1257259884596
 21
-20.00000000000006
 31
0.0
  0
SPLINE
  5
1198B
330
1F
100
AcDbEntity
  8
AM_0
100
AcDbSpline
210
0.0
220
0.0
230
1.0
 70
     8
 71
     3
 72
     8
 73
     4
 74
     0
 42
0.0000000001
 43
0.0000000001
 40
-1.94204761059973
 40
-1.94204761059973
 40
-1.94204761059973
 40
-1.94204761059973
 40
-1.894302822527507
 40
-1.894302822527507
 40
-1.894302822527507
 40
-1.894302822527507
 10
120.1257259884596
 20
-20.00000000000006
 30
0.0
 10
120.12524096385
 20
-20.01797842666389
 30
0.0
 10
120.1249999999999
 20
-20.03597907479531
 30
0.0
 10
120.1249999999999
 20
-20.05399192398551
 30
0.0
  0
LINE
  5
1198C
330
1F
100
AcDbEntity
  8
AM_0
100
AcDbLine
 10
125.3774990747597
 20
-30.46719547316394
 30
0.0
 11
126.9999999999999
 21
-30.46719547316394
 31
0.0
  0
SPLINE
  5
1198D
330
1F
100
AcDbEntity
  8
AM_0
100
AcDbSpline
210
0.0
220
0.0
230
1.0
 70
    12
 71
     2
 72
     6
 73
     3
 74
     0
 42
0.0000000001
 43
0.0000000001
 40
0.0
 40
0.0
 40
0.0
 40
3.089056677703773
 40
3.089056677703773
 40
3.089056677703773
 10
123.8749999999999
 20
-27.76816544269792
 30
0.0
 41
1.0
 10
124.5914314297858
 20
-29.0595327079738
 30
0.0
 41
1.000999993556015
 10
125.3774990747597
 20
-30.46719547316394
 30
0.0
 41
1.0
  0
ARC
  5
1198E
330
1F
100
AcDbEntity
  8
AM_0
100
AcDbCircle
 10
126.8357696250951
 20
-63.23930744120844
 30
0.0
 40
32.77252346802263
100
AcDbArc
 50
75.5746650841989
 51
89.71287695489545
  0
SPLINE
  5
1198F
330
1F
100
AcDbEntity
  8
AM_0
100
AcDbSpline
210
0.0
220
0.0
230
1.0
 70
    12
 71
     2
 72
     6
 73
     3
 74
     0
 42
0.0000000001
 43
0.0000000001
 40
0.0
 40
0.0
 40
0.0
 40
3.788582771409939
 40
3.788582771409939
 40
3.788582771409939
 10
125.3774990747597
 20
-24.33618704727547
 30
0.0
 41
1.0
 10
124.568439039767
 20
-22.52234529161621
 30
0.0
 41
1.001661993538315
 10
123.8749999999999
 20
-20.85835592881273
 30
0.0
 41
1.0
  0
LINE
  5
11990
330
1F
100
AcDbEntity
  8
AM_0
100
AcDbLine
 10
123.8749999999999
 20
-20.00000000000006
 30
0.0
 11
125.3774990747597
 21
-20.00000000000006
 31
0.0
  0
LINE
  5
11991
330
1F
100
AcDbEntity
  8
AM_0
100
AcDbLine
 10
123.8749999999999
 20
-20.85835592881273
 30
0.0
 11
123.8749999999999
 21
-20.30394050424644
 31
0.0
  0
LINE
  5
11992
330
1F
100
AcDbEntity
  8
AM_0
100
AcDbLine
 10
120.1249999999999
 20
-20.05399192398551
 30
0.0
 11
120.1249999999999
 21
-20.61513046624538
 31
0.0
  0
ARC
  5
11993
330
1F
100
AcDbEntity
  8
AM_0
100
AcDbCircle
 10
66.61985999220178
 20
3.93761795919545
 30
0.0
 40
58.86966504488657
100
AcDbArc
 50
332.0494046668668
 51
335.350282339776
  0
ARC
  5
11994
330
1F
100
AcDbEntity
  8
AM_0
100
AcDbCircle
 10
128.3622825456405
 20
-17.11358135752744
 30
0.0
 40
7.238142412492669
100
AcDbArc
 50
266.2452459749703
 51
336.4981347158576
  0
LINE
  5
11995
330
1F
100
AcDbEntity
  8
AM_0
100
AcDbLine
 10
125.3774990747597
 20
-20.00000000000006
 30
0.0
 11
134.9999999999999
 21
-20.00000000000006
 31
0.0
  0
LINE
  5
11996
330
1F
100
AcDbEntity
  8
AM_0
100
AcDbLine
 10
127.888286096344
 20
-24.33618704727547
 30
0.0
 11
125.3774990747597
 21
-24.33618704727547
 31
0.0
  0
LINE
  5
11997
330
1F
100
AcDbEntity
  8
AM_0
100
AcDbLine
 10
165.9999999999999
 20
-20.86999999999995
 30
0.0
 11
170.8599251403329
 21
-20.86999999999995
 31
0.0
  0
LINE
  5
11998
330
1F
100
AcDbEntity
  8
AM_0
100
AcDbLine
 10
161.9999999999999
 20
20.86999999999983
 30
0.0
 11
170.8599251403329
 21
20.86999999999983
 31
0.0
  0
LINE
  5
11999
330
1F
100
AcDbEntity
  8
AM_11
  6
ACJISTGB
100
AcDbLine
 10
170.8599251403327
 20
-22.77700374298291
 30
0.0
 11
165.9999999999999
 21
-23.01999999999958
 31
0.0
  0
LINE
  5
1199A
330
1F
100
AcDbEntity
  8
AM_0
100
AcDbLine
 10
144.4999999999999
 20
-24.09500000000031
 30
0.0
 11
139.9999999999999
 21
-24.31999999999977
 31
0.0
  0
LINE
  5
1199B
330
1F
100
AcDbEntity
  8
AM_11
  6
ACJISTGB
100
AcDbLine
 10
170.8599251403328
 20
22.77700374298337
 30
0.0
 11
161.9999999999999
 21
23.22000000000026
 31
0.0
  0
LINE
  5
1199C
330
1F
100
AcDbEntity
  8
AM_0
100
AcDbLine
 10
144.4999999999999
 20
24.0950000000002
 30
0.0
 11
139.9999999999999
 21
24.32000000000059
 31
0.0
  0
LINE
  5
1199D
330
1F
100
AcDbEntity
  8
AM_0
100
AcDbLine
 10
139.9999999999999
 20
-31.50000000000006
 30
0.0
 11
134.9999999999999
 21
-31.50000000000006
 31
0.0
  0
LINE
  5
1199E
330
1F
100
AcDbEntity
  8
AM_0
100
AcDbLine
 10
139.9999999999999
 20
31.5
 30
0.0
 11
134.9999999999999
 21
31.5
 31
0.0
  0
LINE
  5
1199F
330
1F
100
AcDbEntity
  8
AM_0
100
AcDbLine
 10
114.0
 20
30.18691769624729
 30
0.0
 11
113.9999999999999
 21
-30.46719547316394
 31
0.0
  0
LINE
  5
119A0
330
1F
100
AcDbEntity
  8
AM_11
  6
ACJISTGB
100
AcDbLine
 10
171.9999999999999
 20
21.57850093632982
 30
0.0
 11
171.9999999999999
 21
20.28895312868849
 31
0.0
  0
LINE
  5
119A1
330
1F
100
AcDbEntity
  8
AM_0
100
AcDbLine
 10
165.9999999999999
 20
-20.86999999999995
 30
0.0
 11
165.9999999999999
 21
-23.01999999999958
 31
0.0
  0
LINE
  5
119A2
330
1F
100
AcDbEntity
  8
AM_0
100
AcDbLine
 10
161.9999999999999
 20
23.2200000000002
 30
0.0
 11
161.9999999999999
 21
20.86999999999983
 31
0.0
  0
LINE
  5
119A3
330
1F
100
AcDbEntity
  8
AM_0
100
AcDbLine
 10
122.8749999999999
 20
26.49999999999997
 30
0.0
 11
122.8749999999999
 21
-26.50000000000006
 31
0.0
  0
LINE
  5
119A4
330
1F
100
AcDbEntity
  8
AM_0
100
AcDbLine
 10
118.6225009252411
 20
-23.65518542296383
 30
0.0
 11
118.6225009252411
 21
-30.46719547316394
 31
0.0
  0
LINE
  5
119A5
330
1F
100
AcDbEntity
  8
AM_0
100
AcDbLine
 10
118.6225009252412
 20
30.18691769624729
 30
0.0
 11
118.6225009252411
 21
-20.00000000000006
 31
0.0
  0
LINE
  5
119A6
330
1F
100
AcDbEntity
  8
AM_0
100
AcDbLine
 10
121.1249999999999
 20
26.49999999999997
 30
0.0
 11
121.1249999999999
 21
-26.50000000000006
 31
0.0
  0
LINE
  5
119A7
330
1F
100
AcDbEntity
  8
AM_0
100
AcDbLine
 10
120.125
 20
27.46035345826837
 30
0.0
 11
120.1249999999999
 21
-20.00000000000006
 31
0.0
  0
LINE
  5
119A8
330
1F
100
AcDbEntity
  8
AM_0
100
AcDbLine
 10
125.3774990747597
 20
-24.33618704727547
 30
0.0
 11
125.3774990747597
 21
-30.46719547316394
 31
0.0
  0
LINE
  5
119A9
330
1F
100
AcDbEntity
  8
AM_0
100
AcDbLine
 10
123.8749999999999
 20
-20.85835592881273
 30
0.0
 11
123.8749999999999
 21
-27.76816544269792
 31
0.0
  0
LINE
  5
119AA
330
1F
100
AcDbEntity
  8
AM_0
100
AcDbLine
 10
123.875
 20
27.46035345826837
 30
0.0
 11
123.8749999999999
 21
-20.00000000000006
 31
0.0
  0
LINE
  5
119AB
330
1F
100
AcDbEntity
  8
AM_0
100
AcDbLine
 10
125.3774990747597
 20
30.18691769624729
 30
0.0
 11
125.3774990747597
 21
-20.00000000000006
 31
0.0
  0
LINE
  5
119AC
330
1F
100
AcDbEntity
  8
AM_0
100
AcDbLine
 10
120.1249999999999
 20
-20.61513046624538
 30
0.0
 11
120.1249999999999
 21
-27.76816544269792
 31
0.0
  0
LINE
  5
119AD
330
1F
100
AcDbEntity
  8
AM_0
100
AcDbLine
 10
139.9999999999999
 20
31.5
 30
0.0
 11
139.9999999999999
 21
-31.50000000000006
 31
0.0
  0
ARC
  5
119AE
330
1F
100
AcDbEntity
  8
AM_0
100
AcDbCircle
 10
114.0000029630674
 20
-134.1934703452871
 30
0.0
 40
3.000002963068777
100
AcDbArc
 50
180.000056590357
 51
269.99994340963
  0
ARC
  5
119AF
330
1F
100
AcDbEntity
  8
AM_0
100
AcDbCircle
 10
114.0000029630674
 20
-124.1934762714218
 30
0.0
 40
3.000002963068682
100
AcDbArc
 50
90.00005659035696
 51
179.99994340963
  0
LINE
  5
119B0
330
1F
100
AcDbEntity
  8
AM_0
100
AcDbLine
 10
120.1249999999999
 20
-121.1934733083544
 30
0.0
 11
120.5508910678536
 21
-121.1934733083544
 31
0.0
  0
LINE
  5
119B1
330
1F
100
AcDbEntity
  8
AM_0
100
AcDbLine
 10
118.6225009252411
 20
-121.1934733083544
 30
0.0
 11
120.1249999999999
 21
-121.1934733083544
 31
0.0
  0
LINE
  5
119B2
330
1F
100
AcDbEntity
  8
AM_0
100
AcDbLine
 10
113.9999999999999
 20
-121.1934733083544
 30
0.0
 11
118.6225009252411
 21
-121.1934733083544
 31
0.0
  0
SPLINE
  5
119B3
330
1F
100
AcDbEntity
  8
AM_0
100
AcDbSpline
210
0.0
220
0.0
230
1.0
 70
     8
 71
     3
 72
    16
 73
    12
 74
     0
 42
0.0000000001
 43
0.0000000001
 40
5.956346460088473
 40
5.956346460088473
 40
5.956346460088473
 40
5.956346460088473
 40
6.062495147234408
 40
6.062495147234408
 40
6.202228077623816
 40
6.202228077623816
 40
6.481227230306896
 40
6.481227230306896
 40
6.760226382989976
 40
6.760226382989976
 40
6.821665582602051
 40
6.821665582602051
 40
6.821665582602051
 40
6.821665582602051
 10
121.1249999999999
 20
-136.5419425367045
 30
0.0
 10
121.089617104285
 20
-136.5419425367045
 30
0.0
 10
121.0481322907444
 20
-136.5509878255771
 30
0.0
 10
120.9723362181966
 20
-136.5821725232454
 30
0.0
 10
120.9262891242478
 20
-136.6138539347121
 30
0.0
 10
120.8218881805451
 20
-136.7064945449456
 30
0.0
 10
120.7619699841779
 20
-136.7872346288277
 30
0.0
 10
120.6569349404189
 20
-136.9596269522199
 30
0.0
 10
120.6121120984871
 20
-137.0514581513216
 30
0.0
 10
120.5667642634925
 20
-137.1554829541674
 30
0.0
 10
120.5587494412102
 20
-137.1744074851467
 30
0.0
 10
120.5508910678536
 20
-137.1934733083544
 30
0.0
  0
LINE
  5
119B4
330
1F
100
AcDbEntity
  8
AM_0
100
AcDbLine
 10
122.8749999999999
 20
-136.5419425367045
 30
0.0
 11
121.1249999999999
 21
-136.5419425367045
 31
0.0
  0
SPLINE
  5
119B5
330
1F
100
AcDbEntity
  8
AM_0
100
AcDbSpline
210
0.0
220
0.0
230
1.0
 70
     8
 71
     3
 72
    16
 73
    12
 74
     0
 42
0.0000000001
 43
0.0000000001
 40
5.091027337574894
 40
5.091027337574894
 40
5.091027337574894
 40
5.091027337574894
 40
5.15246653718697
 40
5.15246653718697
 40
5.43146568987005
 40
5.43146568987005
 40
5.71046484255313
 40
5.71046484255313
 40
5.850197772942538
 40
5.850197772942538
 40
5.956346460088473
 40
5.956346460088473
 40
5.956346460088473
 40
5.956346460088473
 10
123.4491089321472
 20
-137.1934733083544
 30
0.0
 10
123.4412505587906
 20
-137.1744074851467
 30
0.0
 10
123.4332357365083
 20
-137.1554829541674
 30
0.0
 10
123.3878879015137
 20
-137.0514581513216
 30
0.0
 10
123.343065059581
 20
-136.9596269522199
 30
0.0
 10
123.2380300158229
 20
-136.7872346288277
 30
0.0
 10
123.1781118194558
 20
-136.7064945449456
 30
0.0
 10
123.0737108757521
 20
-136.6138539347121
 30
0.0
 10
123.0276637818042
 20
-136.5821725232454
 30
0.0
 10
122.9518677092555
 20
-136.5509878255771
 30
0.0
 10
122.9103828957158
 20
-136.5419425367045
 30
0.0
 10
122.8749999999999
 20
-136.5419425367045
 30
0.0
  0
SPLINE
  5
119B6
330
1F
100
AcDbEntity
  8
AM_0
100
AcDbSpline
210
0.0
220
0.0
230
1.0
 70
     8
 71
     3
 72
    16
 73
    12
 74
     0
 42
0.0000000001
 43
0.0000000001
 40
5.956346460088472
 40
5.956346460088472
 40
5.956346460088472
 40
5.956346460088472
 40
6.062495147234407
 40
6.062495147234407
 40
6.202228077623815
 40
6.202228077623815
 40
6.481227230306895
 40
6.481227230306895
 40
6.760226382989975
 40
6.760226382989975
 40
6.821665582602113
 40
6.821665582602113
 40
6.821665582602113
 40
6.821665582602113
 10
122.8749999999999
 20
-121.8450040800053
 30
0.0
 10
122.9103828957158
 20
-121.8450040800053
 30
0.0
 10
122.9518677092555
 20
-121.8359587911327
 30
0.0
 10
123.0276637818042
 20
-121.8047740934644
 30
0.0
 10
123.0737108757521
 20
-121.7730926819977
 30
0.0
 10
123.1781118194558
 20
-121.6804520717642
 30
0.0
 10
123.2380300158229
 20
-121.5997119878821
 30
0.0
 10
123.343065059581
 20
-121.4273196644899
 30
0.0
 10
123.3878879015137
 20
-121.3354884653882
 30
0.0
 10
123.4332357365083
 20
-121.2314636625415
 30
0.0
 10
123.4412505587906
 20
-121.2125391315631
 30
0.0
 10
123.4491089321472
 20
-121.1934733083544
 30
0.0
  0
LINE
  5
119B7
330
1F
100
AcDbEntity
  8
AM_0
100
AcDbLine
 10
121.1249999999999
 20
-121.8450040800053
 30
0.0
 11
122.8749999999999
 21
-121.8450040800053
 31
0.0
  0
SPLINE
  5
119B8
330
1F
100
AcDbEntity
  8
AM_0
100
AcDbSpline
210
0.0
220
0.0
230
1.0
 70
     8
 71
     3
 72
    16
 73
    12
 74
     0
 42
0.0000000001
 43
0.0000000001
 40
5.091027337574832
 40
5.091027337574832
 40
5.091027337574832
 40
5.091027337574832
 40
5.152466537186969
 40
5.152466537186969
 40
5.431465689870049
 40
5.431465689870049
 40
5.71046484255313
 40
5.71046484255313
 40
5.850197772942537
 40
5.850197772942537
 40
5.956346460088472
 40
5.956346460088472
 40
5.956346460088472
 40
5.956346460088472
 10
120.5508910678536
 20
-121.1934733083544
 30
0.0
 10
120.5587494412102
 20
-121.2125391315631
 30
0.0
 10
120.5667642634925
 20
-121.2314636625415
 30
0.0
 10
120.6121120984871
 20
-121.3354884653882
 30
0.0
 10
120.6569349404189
 20
-121.4273196644899
 30
0.0
 10
120.7619699841779
 20
-121.5997119878821
 30
0.0
 10
120.8218881805451
 20
-121.6804520717642
 30
0.0
 10
120.9262891242478
 20
-121.7730926819977
 30
0.0
 10
120.9723362181966
 20
-121.8047740934644
 30
0.0
 10
121.0481322907444
 20
-121.8359587911327
 30
0.0
 10
121.089617104285
 20
-121.8450040800053
 30
0.0
 10
121.1249999999999
 20
-121.8450040800053
 30
0.0
  0
LINE
  5
119B9
330
1F
100
AcDbEntity
  8
AM_0
100
AcDbLine
 10
118.6225009252411
 20
-137.1934733083544
 30
0.0
 11
113.9999999999999
 21
-137.1934733083544
 31
0.0
  0
LINE
  5
119BA
330
1F
100
AcDbEntity
  8
AM_0
100
AcDbLine
 10
118.6225009252411
 20
-137.1934733083544
 30
0.0
 11
120.1249999999999
 21
-137.1934733083544
 31
0.0
  0
LINE
  5
119BB
330
1F
100
AcDbEntity
  8
AM_0
100
AcDbLine
 10
120.1249999999999
 20
-137.1934733083544
 30
0.0
 11
120.5508910678536
 21
-137.1934733083544
 31
0.0
  0
ARC
  5
119BC
330
1F
100
AcDbEntity
  8
AM_0
100
AcDbCircle
 10
132.9611987334865
 20
-192.2799132357432
 30
0.0
 40
31.98582038169304
100
AcDbArc
 50
80.93630643191762
 51
89.930495784383
  0
ARC
  5
119BD
330
1F
100
AcDbEntity
  8
AM_0
100
AcDbCircle
 10
133.0388012665144
 20
-192.2799132357404
 30
0.0
 40
31.98582038169042
100
AcDbArc
 50
90.06950421560396
 51
99.06369356809559
  0
ARC
  5
119BE
330
1F
100
AcDbEntity
  8
AM_0
100
AcDbCircle
 10
148.9999999999999
 20
-129.1934733083544
 30
0.0
 40
4.499999999999965
100
AcDbArc
 50
228.8076280850552
 51
131.1923719149442
  0
ARC
  5
119BF
330
1F
100
AcDbEntity
  8
AM_0
100
AcDbCircle
 10
149.0000000025274
 20
-129.1934733083544
 30
0.0
 40
4.500000001664618
100
AcDbArc
 50
131.1923719391818
 51
228.8076280608183
  0
CIRCLE
  5
119C0
330
1F
100
AcDbEntity
  8
AM_0
100
AcDbCircle
 10
148.9999999999999
 20
-129.1934733083544
 30
0.0
 40
4.500000000000006
  0
LINE
  5
119C1
330
1F
100
AcDbEntity
  8
AM_0
100
AcDbLine
 10
169.9999999999999
 20
-122.9809733083549
 30
0.0
 11
171.9999999999999
 21
-121.8262727699758
 31
0.0
  0
LINE
  5
119C2
330
1F
100
AcDbEntity
  8
AM_0
100
AcDbLine
 10
169.9999999999999
 20
-135.405973308355
 30
0.0
 11
167.4999999999999
 21
-135.405973308355
 31
0.0
  0
LINE
  5
119C3
330
1F
100
AcDbEntity
  8
AM_0
100
AcDbLine
 10
167.4999999999999
 20
-122.9809733083549
 30
0.0
 11
169.9999999999999
 21
-122.9809733083549
 31
0.0
  0
LINE
  5
119C4
330
1F
100
AcDbEntity
  8
AM_0
100
AcDbLine
 10
171.9995549477389
 20
-121.7690297210184
 30
0.0
 11
171.9999999999999
 21
-121.7687727699759
 31
0.0
  0
LINE
  5
119C5
330
1F
100
AcDbEntity
  8
AM_0
100
AcDbLine
 10
169.9999999999999
 20
-135.405973308355
 30
0.0
 11
171.9999999999999
 21
-136.5606738467341
 31
0.0
  0
LINE
  5
119C6
330
1F
100
AcDbEntity
  8
AM_0
100
AcDbLine
 10
171.9995549477389
 20
-136.6179168956915
 30
0.0
 11
171.9999999999999
 21
-136.618173846734
 31
0.0
  0
SPLINE
  5
119C7
330
1F
100
AcDbEntity
  8
AM_0
100
AcDbSpline
210
0.0
220
0.0
230
1.0
 70
     8
 71
     3
 72
    16
 73
    12
 74
     0
 42
0.0000000001
 43
0.0000000001
 40
-1.936088707179519
 40
-1.936088707179519
 40
-1.936088707179519
 40
-1.936088707179519
 40
-1.618608641566384
 40
-1.618608641566384
 40
-0.9853554418149393
 40
-0.9853554418149393
 40
-0.4905148334691103
 40
-0.4905148334691103
 40
-0.2011422780024802
 40
-0.2011422780024802
 40
-0.0002750058701333
 40
-0.0002750058701333
 40
-0.0002750058701333
 40
-0.0002750058701333
 10
171.9995549477389
 20
-136.6179168956915
 30
0.0
 10
171.9963835781954
 20
-136.7291724646803
 30
0.0
 10
171.9764826641539
 20
-136.8462330270996
 30
0.0
 10
171.8782639048886
 20
-137.2042514189289
 30
0.0
 10
171.764245966232
 20
-137.4463471323225
 30
0.0
 10
171.523605518174
 20
-137.827587635592
 30
0.0
 10
171.4057453538398
 20
-137.9758575740144
 30
0.0
 10
171.2150731057472
 20
-138.1537401708793
 30
0.0
 10
171.1356191136492
 20
-138.2148251192567
 30
0.0
 10
170.989634593704
 20
-138.287707074459
 30
0.0
 10
170.9263816550346
 20
-138.3089468413583
 30
0.0
 10
170.8599251403329
 20
-138.3170718686934
 30
0.0
  0
SPLINE
  5
119C8
330
1F
100
AcDbEntity
  8
AM_0
100
AcDbSpline
210
0.0
220
0.0
230
1.0
 70
     8
 71
     3
 72
    16
 73
    12
 74
     0
 42
0.0000000001
 43
0.0000000001
 40
-4.40429224599759
 40
-4.40429224599759
 40
-4.40429224599759
 40
-4.40429224599759
 40
-4.141910802677585
 40
-4.141910802677585
 40
-3.871634509130126
 40
-3.871634509130126
 40
-3.14310442813097
 40
-3.14310442813097
 40
-2.420961954899249
 40
-2.420961954899249
 40
-1.953365045766561
 40
-1.953365045766561
 40
-1.953365045766561
 40
-1.953365045766561
 10
170.8599251403329
 20
-120.0698747480165
 30
0.0
 10
170.9282849022019
 20
-120.0782324678922
 30
0.0
 10
170.9932432913628
 20
-120.1004676437215
 30
0.0
 10
171.1176472909291
 20
-120.1637902463281
 30
0.0
 10
171.1768642359102
 20
-120.2054175807626
 30
0.0
 10
171.3774388659894
 20
-120.3731685469484
 30
0.0
 10
171.5210509055832
 20
-120.5506991671146
 30
0.0
 10
171.7695275120249
 20
-120.9541917198968
 30
0.0
 10
171.8690256417867
 20
-121.1696674023788
 30
0.0
 10
171.9713351699574
 20
-121.5118441155165
 30
0.0
 10
171.9959899172872
 20
-121.6439640401132
 30
0.0
 10
171.9995549477389
 20
-121.7690297210184
 30
0.0
  0
ARC
  5
119C9
330
1F
100
AcDbEntity
  8
AM_0
100
AcDbCircle
 10
174.7173831895124
 20
-83.12277483724301
 30
0.0
 40
37.14792288160733
100
AcDbArc
 50
259.2369973264142
 51
264.0396343738103
  0
ARC
  5
119CA
330
1F
100
AcDbEntity
  8
AM_0
100
AcDbCircle
 10
174.7173831895088
 20
-175.2641717794395
 30
0.0
 40
37.14792288157967
100
AcDbArc
 50
95.96036562618968
 51
100.7630026735891
  0
LINE
  5
119CB
330
1F
100
AcDbEntity
  8
AM_0
100
AcDbLine
 10
123.8749999999999
 20
-137.1934733083544
 30
0.0
 11
125.3774990747597
 21
-137.1934733083544
 31
0.0
  0
LINE
  5
119CC
330
1F
100
AcDbEntity
  8
AM_0
100
AcDbLine
 10
123.4491089321472
 20
-137.1934733083544
 30
0.0
 11
123.8749999999999
 21
-137.1934733083544
 31
0.0
  0
LINE
  5
119CD
330
1F
100
AcDbEntity
  8
AM_0
100
AcDbLine
 10
123.4491089321472
 20
-121.1934733083544
 30
0.0
 11
123.8749999999999
 21
-121.1934733083544
 31
0.0
  0
LINE
  5
119CE
330
1F
100
AcDbEntity
  8
AM_0
100
AcDbLine
 10
123.8514533298266
 20
-109.1934733083544
 30
0.0
 11
123.8749999999999
 21
-109.1934733083544
 31
0.0
  0
SPLINE
  5
119CF
330
1F
100
AcDbEntity
  8
AM_0
100
AcDbSpline
210
0.0
220
0.0
230
1.0
 70
     8
 71
     3
 72
     8
 73
     4
 74
     0
 42
0.0000000001
 43
0.0000000001
 40
-2.06357559427948
 40
-2.06357559427948
 40
-2.06357559427948
 40
-2.06357559427948
 40
-1.776340743961663
 40
-1.776340743961663
 40
-1.776340743961663
 40
-1.776340743961663
 10
123.8514533298266
 20
-109.1934733083544
 30
0.0
 10
123.8676137147967
 20
-109.0900281523973
 30
0.0
 10
123.8749999999999
 20
-108.9852777542137
 30
0.0
 10
123.8749999999999
 20
-108.8895328041081
 30
0.0
  0
ARC
  5
119D0
330
1F
100
AcDbEntity
  8
AM_0
100
AcDbCircle
 10
122.1126232725601
 20
-101.1925414755751
 30
0.0
 40
8.001235164662798
100
AcDbArc
 50
207.2595688438603
 51
244.1384544096972
  0
LINE
  5
119D1
330
1F
100
AcDbEntity
  8
AM_0
100
AcDbLine
 10
114.9999999999999
 20
-104.857286261079
 30
0.0
 11
118.6225009252411
 21
-104.857286261079
 31
0.0
  0
SPLINE
  5
119D2
330
1F
100
AcDbEntity
  8
AM_0
100
AcDbSpline
210
0.0
220
0.0
230
1.0
 70
    12
 71
     2
 72
     6
 73
     3
 74
     0
 42
0.0000000001
 43
0.0000000001
 40
0.0
 40
0.0
 40
0.0
 40
3.788582771409915
 40
3.788582771409915
 40
3.788582771409915
 10
118.6225009252411
 20
-104.857286261079
 30
0.0
 41
1.0
 10
119.4315609602335
 20
-106.6711280167392
 30
0.0
 41
1.001661993538562
 10
120.1249999999999
 20
-108.3351173795418
 30
0.0
 41
1.0
  0
SPLINE
  5
119D3
330
1F
100
AcDbEntity
  8
AM_0
100
AcDbSpline
210
0.0
220
0.0
230
1.0
 70
     8
 71
     3
 72
     8
 73
     4
 74
     0
 42
0.0000000001
 43
0.0000000001
 40
1.776340743961663
 40
1.776340743961663
 40
1.776340743961663
 40
1.776340743961663
 40
1.82900694760964
 40
1.82900694760964
 40
1.82900694760964
 40
1.82900694760964
 10
120.1249999999999
 20
-108.8895328041081
 30
0.0
 10
120.1249999999999
 20
-108.9070882053238
 30
0.0
 10
120.1252350693403
 20
-108.9249467003874
 30
0.0
 10
120.1257259884596
 20
-108.9430443933052
 30
0.0
  0
SPLINE
  5
119D4
330
1F
100
AcDbEntity
  8
AM_0
100
AcDbSpline
210
0.0
220
0.0
230
1.0
 70
    24
 71
     3
 72
     8
 73
     4
 74
     0
 42
0.0000000001
 43
0.0000000001
 40
-1.94204761059973
 40
-1.94204761059973
 40
-1.94204761059973
 40
-1.94204761059973
 40
-1.894302822527507
 40
-1.894302822527507
 40
-1.894302822527507
 40
-1.894302822527507
 10
120.1257259884596
 20
-108.9430443933052
 30
0.0
 10
120.12524096385
 20
-108.9429200957147
 30
0.0
 10
120.1249999999999
 20
-108.9428583075032
 30
0.0
 10
120.1249999999999
 20
-108.9428583075032
 30
0.0
  0
LINE
  5
119D5
330
1F
100
AcDbEntity
  8
AM_0
100
AcDbLine
 10
120.1249999999999
 20
-108.3351173795418
 30
0.0
 11
120.1249999999999
 21
-108.8895328041081
 31
0.0
  0
LINE
  5
119D6
330
1F
100
AcDbEntity
  8
AM_0
100
AcDbLine
 10
126.9999999999999
 20
-137.1934733083544
 30
0.0
 11
125.3774990747597
 21
-137.1934733083544
 31
0.0
  0
LINE
  5
119D7
330
1F
100
AcDbEntity
  8
AM_0
100
AcDbLine
 10
125.3774990747597
 20
-121.1934733083544
 30
0.0
 11
126.9999999999999
 21
-121.1934733083544
 31
0.0
  0
LINE
  5
119D8
330
1F
100
AcDbEntity
  8
AM_0
100
AcDbLine
 10
123.8749999999999
 20
-121.1934733083544
 30
0.0
 11
125.3774990747597
 21
-121.1934733083544
 31
0.0
  0
ARC
  5
119D9
330
1F
100
AcDbEntity
  8
AM_0
100
AcDbCircle
 10
127.0
 20
-129.1934733083544
 30
0.0
 40
8.000000000000057
100
AcDbArc
 50
270.0
 51
90.0
  0
LINE
  5
119DA
330
1F
100
AcDbEntity
  8
AM_0
100
AcDbLine
 10
123.8749999999999
 20
-109.1934733083544
 30
0.0
 11
125.3774990747597
 21
-109.1934733083544
 31
0.0
  0
SPLINE
  5
119DB
330
1F
100
AcDbEntity
  8
AM_0
100
AcDbSpline
210
0.0
220
0.0
230
1.0
 70
    12
 71
     2
 72
     6
 73
     3
 74
     0
 42
0.0000000001
 43
0.0000000001
 40
0.0
 40
0.0
 40
0.0
 40
3.788582771409939
 40
3.788582771409939
 40
3.788582771409939
 10
123.8749999999999
 20
-108.3351173795418
 30
0.0
 41
1.0
 10
124.568439039767
 20
-106.6711280167392
 30
0.0
 41
1.001661993538315
 10
125.3774990747597
 20
-104.857286261079
 30
0.0
 41
1.0
  0
LINE
  5
119DC
330
1F
100
AcDbEntity
  8
AM_0
100
AcDbLine
 10
123.8749999999999
 20
-108.8895328041081
 30
0.0
 11
123.8749999999999
 21
-108.3351173795418
 31
0.0
  0
ARC
  5
119DD
330
1F
100
AcDbEntity
  8
AM_0
100
AcDbCircle
 10
122.1111237415416
 20
-101.1950843528693
 30
0.0
 40
7.99829286590654
100
AcDbArc
 50
244.1401747691824
 51
255.6219705914313
  0
ARC
  5
119DE
330
1F
100
AcDbEntity
  8
AM_0
100
AcDbCircle
 10
127.8880879936751
 20
-101.1931484032039
 30
0.0
 40
8.000324907604083
100
AcDbArc
 50
270.0014187482344
 51
332.7419619425979
  0
LINE
  5
119DF
330
1F
100
AcDbEntity
  8
AM_0
100
AcDbLine
 10
125.3774990747597
 20
-104.857286261079
 30
0.0
 11
134.9999999999999
 21
-104.857286261079
 31
0.0
  0
LINE
  5
119E0
330
1F
100
AcDbEntity
  8
AM_0
100
AcDbLine
 10
127.888286096344
 20
-109.1934733083544
 30
0.0
 11
125.3774990747597
 21
-109.1934733083544
 31
0.0
  0
LINE
  5
119E1
330
1F
100
AcDbEntity
  8
AM_0
100
AcDbLine
 10
170.8599251403329
 20
-151.9704770513382
 30
0.0
 11
139.9999999999999
 21
-153.5134733083551
 31
0.0
  0
LINE
  5
119E2
330
1F
100
AcDbEntity
  8
AM_0
100
AcDbLine
 10
170.8599251403329
 20
-106.4164695653718
 30
0.0
 11
139.9999999999999
 21
-104.8734733083547
 31
0.0
  0
LINE
  5
119E3
330
1F
100
AcDbEntity
  8
AM_0
100
AcDbLine
 10
123.8749999999999
 20
-158.0910685725467
 30
0.0
 11
125.3774990747597
 21
-160.6934733083544
 31
0.0
  0
LINE
  5
119E4
330
1F
100
AcDbEntity
  8
AM_0
100
AcDbLine
 10
118.6225009252411
 20
-160.6934733083544
 30
0.0
 11
113.9999999999999
 21
-160.6934733083544
 31
0.0
  0
LINE
  5
119E5
330
1F
100
AcDbEntity
  8
AM_0
100
AcDbLine
 10
118.6225009252411
 20
-97.6934733083545
 30
0.0
 11
113.9999999999999
 21
-97.6934733083545
 31
0.0
  0
LINE
  5
119E6
330
1F
100
AcDbEntity
  8
AM_0
100
AcDbLine
 10
122.8749999999999
 20
-156.6934733083544
 30
0.0
 11
121.1249999999999
 21
-156.6934733083544
 31
0.0
  0
LINE
  5
119E7
330
1F
100
AcDbEntity
  8
AM_0
100
AcDbLine
 10
122.8749999999999
 20
-101.6934733083544
 30
0.0
 11
121.1249999999999
 21
-101.6934733083544
 31
0.0
  0
LINE
  5
119E8
330
1F
100
AcDbEntity
  8
AM_0
100
AcDbLine
 10
120.1249999999999
 20
-158.0910685725467
 30
0.0
 11
118.6225009252411
 21
-160.6934733083544
 31
0.0
  0
LINE
  5
119E9
330
1F
100
AcDbEntity
  8
AM_0
100
AcDbLine
 10
120.1249999999999
 20
-100.2958780441632
 30
0.0
 11
118.6225009252411
 21
-97.6934733083545
 31
0.0
  0
LINE
  5
119EA
330
1F
100
AcDbEntity
  8
AM_0
100
AcDbLine
 10
123.8749999999999
 20
-100.2958780441632
 30
0.0
 11
125.3774990747597
 21
-97.6934733083545
 31
0.0
  0
LINE
  5
119EB
330
1F
100
AcDbEntity
  8
AM_0
100
AcDbLine
 10
139.9999999999999
 20
-160.6934733083544
 30
0.0
 11
137.9999999999999
 21
-160.6934733083544
 31
0.0
  0
LINE
  5
119EC
330
1F
100
AcDbEntity
  8
AM_0
100
AcDbLine
 10
127.9999999999999
 20
-160.6934733083544
 30
0.0
 11
125.3774990747597
 21
-160.6934733083544
 31
0.0
  0
LINE
  5
119ED
330
1F
100
AcDbEntity
  8
AM_0
100
AcDbLine
 10
139.9999999999999
 20
-97.6934733083545
 30
0.0
 11
125.3774990747597
 21
-97.6934733083545
 31
0.0
  0
LINE
  5
119EE
330
1F
100
AcDbEntity
  8
AM_0
100
AcDbLine
 10
110.9999999999999
 20
-124.1934733083544
 30
0.0
 11
110.9999999999999
 21
-134.1934733083544
 31
0.0
  0
LINE
  5
119EF
330
1F
100
AcDbEntity
  8
AM_0
100
AcDbLine
 10
113.9999999999999
 20
-97.6934733083545
 30
0.0
 11
113.9999999999999
 21
-121.1934733083544
 31
0.0
  0
LINE
  5
119F0
330
1F
100
AcDbEntity
  8
AM_0
100
AcDbLine
 10
113.9999999999999
 20
-137.1934733083544
 30
0.0
 11
113.9999999999999
 21
-160.6934733083544
 31
0.0
  0
LINE
  5
119F1
330
1F
100
AcDbEntity
  8
AM_0
100
AcDbLine
 10
171.9999999999999
 20
-121.8262727699758
 30
0.0
 11
171.9999999999999
 21
-121.7687727699759
 31
0.0
  0
LINE
  5
119F2
330
1F
100
AcDbEntity
  8
AM_0
100
AcDbLine
 10
171.9999999999999
 20
-136.618173846734
 30
0.0
 11
171.9999999999999
 21
-136.5606738467341
 31
0.0
  0
LINE
  5
119F3
330
1F
100
AcDbEntity
  8
AM_0
100
AcDbLine
 10
171.9999999999999
 20
-136.618173846734
 30
0.0
 11
171.9999999999999
 21
-150.7719742446853
 31
0.0
  0
LINE
  5
119F4
330
1F
100
AcDbEntity
  8
AM_0
100
AcDbLine
 10
171.9999999999999
 20
-107.6149723720246
 30
0.0
 11
171.9999999999999
 21
-121.7687727699759
 31
0.0
  0
LINE
  5
119F5
330
1F
100
AcDbEntity
  8
AM_0
100
AcDbLine
 10
165.9999999999999
 20
-121.0908051121785
 30
0.0
 11
165.9999999999999
 21
-137.2961415045317
 31
0.0
  0
LINE
  5
119F6
330
1F
100
AcDbEntity
  8
AM_0
100
AcDbLine
 10
125.3774990747597
 20
-137.1934733083554
 30
0.0
 11
125.3774990747597
 21
-160.6934733083544
 31
0.0
  0
LINE
  5
119F7
330
1F
100
AcDbEntity
  8
AM_0
100
AcDbLine
 10
123.8749999999999
 20
-137.1934733083544
 30
0.0
 11
123.8749999999999
 21
-158.0910685725467
 31
0.0
  0
LINE
  5
119F8
330
1F
100
AcDbEntity
  8
AM_0
100
AcDbLine
 10
122.8749999999999
 20
-136.5419425367045
 30
0.0
 11
122.8749999999999
 21
-156.6934733083544
 31
0.0
  0
LINE
  5
119F9
330
1F
100
AcDbEntity
  8
AM_0
100
AcDbLine
 10
118.6225009252411
 20
-137.1934733083544
 30
0.0
 11
118.6225009252411
 21
-160.6934733083544
 31
0.0
  0
LINE
  5
119FA
330
1F
100
AcDbEntity
  8
AM_0
100
AcDbLine
 10
118.6225009252411
 20
-108.3924588473919
 30
0.0
 11
118.6225009252411
 21
-121.1934733083544
 31
0.0
  0
LINE
  5
119FB
330
1F
100
AcDbEntity
  8
AM_0
100
AcDbLine
 10
118.6225009252411
 20
-97.6934733083545
 30
0.0
 11
118.6225009252411
 21
-104.857286261079
 31
0.0
  0
LINE
  5
119FC
330
1F
100
AcDbEntity
  8
AM_0
100
AcDbLine
 10
121.1249999999999
 20
-136.5419425367045
 30
0.0
 11
121.1249999999999
 21
-156.6934733083544
 31
0.0
  0
LINE
  5
119FD
330
1F
100
AcDbEntity
  8
AM_0
100
AcDbLine
 10
120.1249999999999
 20
-137.1934733083544
 30
0.0
 11
120.1249999999999
 21
-158.0910685725467
 31
0.0
  0
LINE
  5
119FE
330
1F
100
AcDbEntity
  8
AM_0
100
AcDbLine
 10
120.1249999999999
 20
-100.2958780441632
 30
0.0
 11
120.1249999999999
 21
-108.3351173795418
 31
0.0
  0
LINE
  5
119FF
330
1F
100
AcDbEntity
  8
AM_0
100
AcDbLine
 10
125.3774990747597
 20
-109.1934733083544
 30
0.0
 11
125.3774990747597
 21
-121.1934733083544
 31
0.0
  0
LINE
  5
11A00
330
1F
100
AcDbEntity
  8
AM_0
100
AcDbLine
 10
123.8749999999999
 20
-109.1934733083544
 30
0.0
 11
123.8749999999999
 21
-121.1934733083544
 31
0.0
  0
LINE
  5
11A01
330
1F
100
AcDbEntity
  8
AM_0
100
AcDbLine
 10
123.8749999999999
 20
-100.2958780441632
 30
0.0
 11
123.8749999999999
 21
-108.3351173795418
 31
0.0
  0
LINE
  5
11A02
330
1F
100
AcDbEntity
  8
AM_0
100
AcDbLine
 10
125.3774990747597
 20
-97.6934733083545
 30
0.0
 11
125.3774990747597
 21
-104.857286261079
 31
0.0
  0
LINE
  5
11A03
330
1F
100
AcDbEntity
  8
AM_0
100
AcDbLine
 10
120.1249999999999
 20
-108.9428583075032
 30
0.0
 11
120.1249999999999
 21
-121.1934733083544
 31
0.0
  0
LINE
  5
11A04
330
1F
100
AcDbEntity
  8
AM_0
100
AcDbLine
 10
139.9999999999999
 20
-97.6934733083545
 30
0.0
 11
139.9999999999999
 21
-160.6934733083544
 31
0.0
  0
ARC
  5
11A05
330
1F
100
AcDbEntity
  8
AM_0
100
AcDbCircle
 10
170.8000000000001
 20
-150.7719742446852
 30
0.0
 40
1.2
100
AcDbArc
 50
272.8624052261126
 51
0.0
  0
ARC
  5
11A06
330
1F
100
AcDbEntity
  8
AM_0
100
AcDbCircle
 10
170.8000000000001
 20
-107.6149723720246
 30
0.0
 40
1.2
100
AcDbArc
 50
0.0
 51
87.13759477388736
  0
ARC
  5
11A07
330
1F
100
AcDbEntity
  8
AM_0
100
AcDbCircle
 10
122.875
 20
-157.6934733083544
 30
0.0
 40
1.0
100
AcDbArc
 50
0.0
 51
90.0
  0
ARC
  5
11A08
330
1F
100
AcDbEntity
  8
AM_0
100
AcDbCircle
 10
122.875
 20
-100.6934733083544
 30
0.0
 40
1.0
100
AcDbArc
 50
270.0
 51
0.0
  0
ARC
  5
11A09
330
1F
100
AcDbEntity
  8
AM_0
100
AcDbCircle
 10
121.125
 20
-157.6934733083544
 30
0.0
 40
1.0
100
AcDbArc
 50
90.0
 51
180.0
  0
ARC
  5
11A0A
330
1F
100
AcDbEntity
  8
AM_0
100
AcDbCircle
 10
121.125
 20
-100.6934733083544
 30
0.0
 40
1.0
100
AcDbArc
 50
180.0
 51
270.0
  0
ARC
  5
11A1E
330
1F
100
AcDbEntity
  8
AM_0
100
AcDbCircle
 10
55.74292720082377
 20
-22.25463940280997
 30
0.0
 40
5.000469987627355
100
AcDbArc
 50
12.50310907221372
 51
72.49689092786248
  0
LINE
  5
11A1F
330
1F
100
AcDbEntity
  8
AM_0
100
AcDbLine
 10
62.80360593084856
 20
-31.0
 30
0.0
 11
60.62480734685482
 21
-21.17207469945311
 31
0.0
  0
LINE
  5
11A20
330
1F
100
AcDbEntity
  8
AM_0
100
AcDbLine
 10
30.91737505985816
 20
-9.184034465837385
 30
0.0
 11
35.24750207878037
 21
-10.54931827059136
 31
0.0
  0
LINE
  5
11A21
330
1F
100
AcDbEntity
  8
AM_0
100
AcDbLine
 10
35.24750207878037
 20
10.54931827061478
 30
0.0
 11
30.91737505985816
 21
9.184034465856485
 31
0.0
  0
LINE
  5
11A22
330
1F
100
AcDbEntity
  8
AM_0
100
AcDbLine
 10
49.61502401307348
 20
-15.07938053565181
 30
0.0
 11
35.24750207878037
 21
-10.54931827059136
 31
0.0
  0
ELLIPSE
  5
11A23
330
1F
100
AcDbEntity
  8
AM_0
100
AcDbEllipse
 10
33.97733148656312
 20
0.0
 30
0.0
 11
5.253869755863971E-15
 21
31.0
 31
0.0
210
0.0
220
0.0
230
1.0
 40
0.5773502691896257
 41
4.204388010387104
 42
5.220389950383532
  0
LINE
  5
11A24
330
1F
100
AcDbEntity
  8
AM_0
100
AcDbLine
 10
35.24750207878037
 20
10.54931827061478
 30
0.0
 11
49.61502401306257
 21
15.07938053568546
 31
0.0
  0
ARC
  5
11A25
330
1F
100
AcDbEntity
  8
AM_0
100
AcDbCircle
 10
55.74287550439277
 20
22.25468677390222
 30
0.0
 40
5.000530713640181
100
AcDbArc
 50
287.5035107384208
 51
347.4964892615556
  0
LINE
  5
11A26
330
1F
100
AcDbEntity
  8
AM_0
100
AcDbLine
 10
60.62480734685209
 20
21.17207469950108
 30
0.0
 11
62.80360593082679
 21
31.0
 31
0.0
  0
LINE
  5
11A27
330
1F
100
AcDbEntity
  8
AM_0
100
AcDbLine
 10
22.83150059267223
 20
2.201911162799661
 30
0.0
 11
25.37225205904156
 21
3.003007022988413
 31
0.0
  0
LINE
  5
11A28
330
1F
100
AcDbEntity
  8
AM_0
100
AcDbLine
 10
15.80220483754306
 20
4.418239601061487
 30
0.0
 11
30.91737505985816
 21
9.184034465856485
 31
0.0
  0
LINE
  5
11A29
330
1F
100
AcDbEntity
  8
AM_0
100
AcDbLine
 10
30.91737505985816
 20
-9.184034465837385
 30
0.0
 11
15.80220483754215
 21
-4.418239601056712
 31
0.0
  0
LINE
  5
11A2A
330
1F
100
AcDbEntity
  8
AM_0
100
AcDbLine
 10
57.24685630877298
 20
-17.48568801540546
 30
0.0
 11
49.61502401307348
 21
-15.07938053565181
 31
0.0
  0
LINE
  5
11A2B
330
1F
100
AcDbEntity
  8
AM_0
100
AcDbLine
 10
49.61502401306257
 20
15.07938053568569
 30
0.0
 11
57.24685630877389
 21
17.48568801545048
 31
0.0
  0
ARC
  5
11A2C
330
1F
100
AcDbEntity
  8
AM_0
100
AcDbCircle
 10
113.3928701788
 20
-34.43034531717876
 30
0.0
 40
4.521335507167764
100
AcDbArc
 50
82.28294962583705
 51
121.954097777493
  0
SPLINE
  5
11A2D
330
1F
100
AcDbEntity
  8
AM_0
100
AcDbSpline
210
0.0
220
0.0
230
1.0
 70
     8
 71
     3
 72
    22
 73
    18
 74
     0
 42
0.0000000001
 43
0.0000000001
 40
9.135131403655873
 40
9.135131403655873
 40
9.135131403655873
 40
9.135131403655873
 40
9.700515220472017
 40
9.700515220472017
 40
10.26589903728816
 40
10.26589903728816
 40
10.83128285410431
 40
10.83128285410431
 40
11.39666667092045
 40
11.39666667092045
 40
11.97803453432145
 40
11.97803453432145
 40
12.55940239772246
 40
12.55940239772246
 40
13.14077026112346
 40
13.14077026112346
 40
13.72213812452447
 40
13.72213812452447
 40
13.72213812452447
 40
13.72213812452447
 10
114.0
 20
29.66479394838257
 30
0.0
 10
113.8115387277276
 20
29.66479394838257
 30
0.0
 10
113.6169570185093
 20
29.67029013172601
 30
0.0
 10
113.2305702014919
 20
29.69307857799117
 30
0.0
 10
113.0387609680656
 20
29.7103609289245
 30
0.0
 10
112.671530051578
 20
29.75509692905575
 30
0.0
 10
112.4957943113486
 20
29.78257232032092
 30
0.0
 10
112.1712346674894
 20
29.84434987081477
 30
0.0
 10
112.0224149249752
 20
29.87863437725287
 30
0.0
 10
111.7554242774504
 20
29.95040555554806
 30
0.0
 10
111.6287231006327
 20
29.99052406548231
 30
0.0
 10
111.4055615565894
 20
30.07471192398793
 30
0.0
 10
111.3090825879572
 20
30.11876098466678
 30
0.0
 10
111.1540565953637
 20
30.20685629907644
 30
0.0
 10
111.0953964780101
 20
30.25095591149398
 30
0.0
 10
111.0183571448497
 20
30.33568204620337
 30
0.0
 10
111.0
 20
30.37630504740059
 30
0.0
 10
111.0
 20
30.41381265149107
 30
0.0
  0
ARC
  5
11A30
330
1F
100
AcDbEntity
  8
AM_0
100
AcDbCircle
 10
25.89848720817446
 20
1.33400235917884
 30
0.0
 40
1.750000000000029
100
AcDbArc
 50
13.74733857710936
 51
107.5000000000205
  0
ARC
  5
11A31
330
1F
100
AcDbEntity
  8
AM_0
100
AcDbCircle
 10
27.57733148656354
 20
-0.0000000000002274
 30
0.0
 40
1.75
100
AcDbArc
 50
220.1136298013608
 51
89.31165934768114
  0
LINE
  5
11A32
330
1F
100
AcDbEntity
  8
AM_0
100
AcDbLine
 10
110.9999999999999
 20
-30.59411708155682
 30
0.0
 11
110.9999999999999
 21
-31.00000000000006
 31
0.0
  0
LINE
  5
11A33
330
1F
100
AcDbEntity
  8
AM_0
100
AcDbLine
 10
111.0
 20
31.0
 30
0.0
 11
111.0
 21
30.41381265149107
 31
0.0
  0
ARC
  5
11A34
330
1F
100
AcDbEntity
  8
AM_0
100
AcDbCircle
 10
14.39816062257324
 20
1.570555716892386
 30
0.0
 40
0.6
100
AcDbArc
 50
211.9722150900795
 51
298.0277849099311
  0
ARC
  5
11A35
330
1F
100
AcDbEntity
  8
AM_0
100
AcDbCircle
 10
13.67710139424509
 20
1.120473958494813
 30
0.0
 40
0.2499999999998634
100
AcDbArc
 50
31.97221509004156
 51
104.9999999999945
  0
ARC
  5
11A36
330
1F
100
AcDbEntity
  8
AM_0
100
AcDbCircle
 10
13.67710139424509
 20
1.120473958494813
 30
0.0
 40
0.2499999999998634
100
AcDbArc
 50
104.9999999999945
 51
178.0277849099343
  0
ARC
  5
11A37
330
1F
100
AcDbEntity
  8
AM_0
100
AcDbCircle
 10
12.82760490568018
 20
1.149726580882998
 30
0.0
 40
0.6
100
AcDbArc
 50
271.9722150900396
 51
358.0277849099344
  0
ARC
  5
11A38
330
1F
100
AcDbEntity
  8
AM_0
100
AcDbCircle
 10
12.85685752806859
 20
0.300230092318543
 30
0.0
 40
0.2499999999998634
100
AcDbArc
 50
91.97221509009171
 51
164.9999999999922
  0
ARC
  5
11A39
330
1F
100
AcDbEntity
  8
AM_0
100
AcDbCircle
 10
12.85685752806859
 20
0.300230092318543
 30
0.0
 40
0.2499999999998634
100
AcDbArc
 50
164.9999999999922
 51
238.0277849099384
  0
ARC
  5
11A3A
330
1F
100
AcDbEntity
  8
AM_0
100
AcDbCircle
 10
12.40677576967102
 20
-0.4208291360098428
 30
0.0
 40
0.6
100
AcDbArc
 50
331.9722150900703
 51
58.02778490993838
  0
ARC
  5
11A3B
330
1F
100
AcDbEntity
  8
AM_0
100
AcDbCircle
 10
13.15708762038759
 20
-0.8202438661764973
 30
0.0
 40
0.2499999999998634
100
AcDbArc
 50
151.9722150900703
 51
224.9999999999908
  0
ARC
  5
11A3C
330
1F
100
AcDbEntity
  8
AM_0
100
AcDbCircle
 10
13.15708762038759
 20
-0.8202438661764973
 30
0.0
 40
0.2499999999998634
100
AcDbArc
 50
224.9999999999908
 51
298.0277849099311
  0
ARC
  5
11A3D
330
1F
100
AcDbEntity
  8
AM_0
100
AcDbCircle
 10
13.55650235055401
 20
-1.570555716892841
 30
0.0
 40
0.6
100
AcDbArc
 50
31.97221509007953
 51
118.027784909931
  0
ARC
  5
11A3E
330
1F
100
AcDbEntity
  8
AM_0
100
AcDbCircle
 10
14.27756157888217
 20
-1.120473958495268
 30
0.0
 40
0.2499999999998634
100
AcDbArc
 50
211.9722150900795
 51
284.9999999999944
  0
ARC
  5
11A3F
330
1F
100
AcDbEntity
  8
AM_0
100
AcDbCircle
 10
14.27756157888217
 20
-1.120473958495268
 30
0.0
 40
0.2499999999998634
100
AcDbArc
 50
284.9999999999944
 51
358.0277849099344
  0
ARC
  5
11A40
330
1F
100
AcDbEntity
  8
AM_0
100
AcDbCircle
 10
15.12705806744708
 20
-1.14972658088368
 30
0.0
 40
0.6
100
AcDbArc
 50
91.97221509009171
 51
178.0277849099213
  0
ARC
  5
11A41
330
1F
100
AcDbEntity
  8
AM_0
100
AcDbCircle
 10
15.09780544505867
 20
-0.3002300923192252
 30
0.0
 40
0.2499999999998634
100
AcDbArc
 50
271.9722150900396
 51
344.9999999999921
  0
ARC
  5
11A42
330
1F
100
AcDbEntity
  8
AM_0
100
AcDbCircle
 10
15.09780544505867
 20
-0.3002300923192252
 30
0.0
 40
0.2499999999998634
100
AcDbArc
 50
344.9999999999921
 51
58.02778490993838
  0
ARC
  5
11A43
330
1F
100
AcDbEntity
  8
AM_0
100
AcDbCircle
 10
15.54788720345624
 20
0.4208291360091607
 30
0.0
 40
0.6
100
AcDbArc
 50
151.9722150900507
 51
238.0277849099384
  0
ARC
  5
11A44
330
1F
100
AcDbEntity
  8
AM_0
100
AcDbCircle
 10
14.79757535273967
 20
0.8202438661758151
 30
0.0
 40
0.2499999999998634
100
AcDbArc
 50
331.9722150900507
 51
44.99999999999025
  0
ARC
  5
11A45
330
1F
100
AcDbEntity
  8
AM_0
100
AcDbCircle
 10
14.79757535273967
 20
0.8202438661758151
 30
0.0
 40
0.2499999999998634
100
AcDbArc
 50
44.99999999999025
 51
118.027784909931
  0
ARC
  5
11A46
330
1F
100
AcDbEntity
  8
AM_0
100
AcDbCircle
 10
13.97733148656317
 20
-0.0000000000002274
 30
0.0
 40
1.410000000000055
100
AcDbArc
 50
284.9999999999944
 51
344.9999999999921
  0
ARC
  5
11A47
330
1F
100
AcDbEntity
  8
AM_0
100
AcDbCircle
 10
13.97733148656317
 20
-0.0000000000002274
 30
0.0
 40
1.410000000000055
100
AcDbArc
 50
224.9999999999908
 51
284.9999999999944
  0
ARC
  5
11A48
330
1F
100
AcDbEntity
  8
AM_0
100
AcDbCircle
 10
13.97733148656317
 20
-0.0000000000002274
 30
0.0
 40
1.410000000000055
100
AcDbArc
 50
164.9999999999922
 51
224.9999999999908
  0
ARC
  5
11A49
330
1F
100
AcDbEntity
  8
AM_0
100
AcDbCircle
 10
13.97733148656317
 20
-0.0000000000002274
 30
0.0
 40
1.410000000000055
100
AcDbArc
 50
104.9999999999945
 51
164.9999999999922
  0
ARC
  5
11A4A
330
1F
100
AcDbEntity
  8
AM_0
100
AcDbCircle
 10
13.97733148656317
 20
-0.0000000000002274
 30
0.0
 40
1.410000000000055
100
AcDbArc
 50
44.99999999999025
 51
104.9999999999945
  0
ARC
  5
11A4B
330
1F
100
AcDbEntity
  8
AM_0
100
AcDbCircle
 10
13.97733148656317
 20
-0.0000000000002274
 30
0.0
 40
1.410000000000055
100
AcDbArc
 50
344.9999999999921
 51
44.99999999999025
  0
CIRCLE
  5
11A4C
330
1F
100
AcDbEntity
  8
AM_0
100
AcDbCircle
 10
13.97733148656317
 20
-0.0000000000002274
 30
0.0
 40
2.55
  0
LINE
  5
11A4D
330
1F
100
AcDbEntity
  8
AM_0
100
AcDbLine
 10
13.97733148656403
 20
-4.993619958477439
 30
0.0
 11
27.39522761272997
 21
-0.7629735605935366
 31
0.0
  0
LINE
  5
11A4E
330
1F
100
AcDbEntity
  8
AM_0
100
AcDbLine
 10
27.39522761272997
 20
0.7629735606028589
 30
0.0
 11
13.97733148656221
 21
4.993619958482441
 31
0.0
  0
LINE
  5
11A4F
330
1F
100
AcDbEntity
  8
AM_0
100
AcDbLine
 10
13.97733148656221
 20
4.993619958482441
 30
0.0
 11
0.5594353603962645
 21
0.7629735605985388
 31
0.0
  0
LINE
  5
11A50
330
1F
100
AcDbEntity
  8
AM_0
100
AcDbLine
 10
0.5594353603962645
 20
-0.7629735605978567
 30
0.0
 11
13.97733148656403
 21
-4.993619958477439
 31
0.0
  0
ARC
  5
11A51
330
1F
100
AcDbEntity
  8
AM_0
100
AcDbCircle
 10
27.15466297312634
 20
0.0000000000043201
 30
0.0
 40
0.7999999999999998
100
AcDbArc
 50
287.5000000000205
 51
72.50000000004778
  0
ARC
  5
11A52
330
1F
100
AcDbEntity
  8
AM_0
100
AcDbCircle
 10
0.8000000000000114
 20
0.0
 30
0.0
 40
0.7999999999999998
100
AcDbArc
 50
107.5000000000205
 51
252.4999999999796
  0
ARC
  5
11A53
330
1F
100
AcDbEntity
  8
AM_0
100
AcDbCircle
 10
56.73984986381583
 20
-150.8032054138371
 30
0.0
 40
4.020231704516978
100
AcDbArc
 50
277.2450772429219
 51
345.0945542785267
  0
ARC
  5
11A54
330
1F
100
AcDbEntity
  8
AM_0
100
AcDbCircle
 10
56.73963689691573
 20
-107.5839847317466
 30
0.0
 40
4.020500151111555
100
AcDbArc
 50
14.90801878273855
 51
82.75234969583381
  0
ELLIPSE
  5
11A55
330
1F
100
AcDbEntity
  8
AM_0
100
AcDbEllipse
 10
55.93107138888803
 20
-129.1934733083544
 30
0.0
 11
4.120106886530599E-15
 21
31.0
 31
0.0
210
0.0
220
0.0
230
1.0
 40
0.2216946626439028
 41
3.893413813832662
 42
5.531364146936717
  0
ARC
  5
11A56
330
1F
100
AcDbEntity
  8
AM_0
100
AcDbCircle
 10
30.91737505985839
 20
-124.4934733083544
 30
0.0
 40
5.0
100
AcDbArc
 50
270.0
 51
329.9999999999849
  0
LINE
  5
11A57
330
1F
100
AcDbEntity
  8
AM_0
100
AcDbLine
 10
49.61502401307365
 20
-102.1081953392989
 30
0.0
 11
35.24750207878054
 21
-126.9934733083546
 31
0.0
  0
LINE
  5
11A58
330
1F
100
AcDbEntity
  8
AM_0
100
AcDbLine
 10
49.61502401307365
 20
-102.1081953392989
 30
0.0
 11
51.87518983144213
 21
-98.19347330835444
 31
0.0
  0
ARC
  5
11A59
330
1F
100
AcDbEntity
  8
AM_0
100
AcDbCircle
 10
14.1499821144871
 20
-191.2330318966654
 30
0.0
 40
31.22657679913799
100
AcDbArc
 50
83.72614639556461
 51
89.97713305528303
  0
ARC
  5
11A5A
330
1F
100
AcDbEntity
  8
AM_0
100
AcDbCircle
 10
14.1749073844876
 20
-191.2330318966717
 30
0.0
 40
31.22657679914425
100
AcDbArc
 50
90.02286694471695
 51
96.27385360443539
  0
LINE
  5
11A5B
330
1F
100
AcDbEntity
  8
AM_0
100
AcDbLine
 10
30.91737505985833
 20
-129.4934733083544
 30
0.0
 11
15.74095665354975
 21
-129.4934733083544
 31
0.0
  0
LINE
  5
11A5C
330
1F
100
AcDbEntity
  8
AM_0
100
AcDbLine
 10
15.30337840902752
 20
-131.6367772367482
 30
0.0
 11
15.30337840902752
 21
-135.2334733083544
 31
0.0
  0
LINE
  5
11A5D
330
1F
100
AcDbEntity
  8
AM_0
100
AcDbLine
 10
14.63827650434172
 20
-135.2334733083544
 30
0.0
 11
14.63827650434172
 21
-137.1334733083545
 31
0.0
  0
LINE
  5
11A5E
330
1F
100
AcDbEntity
  8
AM_0
100
AcDbLine
 10
14.63827650434172
 20
-137.1334733083545
 30
0.0
 11
14.30988243891164
 21
-137.1334733083545
 31
0.0
  0
LINE
  5
11A5F
330
1F
100
AcDbEntity
  8
AM_0
100
AcDbLine
 10
15.30337840902752
 20
-135.2334733083544
 30
0.0
 11
14.63827650434172
 21
-135.2334733083544
 31
0.0
  0
ELLIPSE
  5
11A60
330
1F
100
AcDbEntity
  8
AM_0
100
AcDbEllipse
 10
1.789339083190441
 20
-129.1934733083544
 30
0.0
 11
-98.3194388735746
 21
3.472353744236939E-14
 31
0.0
210
0.0
220
0.0
230
1.0
 40
0.3152987888779732
 41
4.113101270132897
 42
4.204388010387103
  0
LINE
  5
11A61
330
1F
100
AcDbEntity
  8
AM_0
100
AcDbLine
 10
15.74095665354975
 20
-129.4934733083544
 30
0.0
 11
15.30337840902752
 21
-131.6367772367482
 31
0.0
  0
LINE
  5
11A62
330
1F
100
AcDbEntity
  8
AM_0
100
AcDbLine
 10
1.789339083204993
 20
-137.1334733083545
 30
0.0
 11
1.789339083204993
 21
-160.1934733083544
 31
0.0
  0
ELLIPSE
  5
11A63
330
1F
100
AcDbEntity
  8
AM_0
100
AcDbEllipse
 10
1.789339083190441
 20
-129.1934733083544
 30
0.0
 11
-98.3194388735746
 21
3.472353744236939E-14
 31
0.0
210
0.0
220
0.0
230
1.0
 40
0.3152987888779732
 41
1.570796326795044
 42
2.17008403704669
  0
LINE
  5
11A65
330
1F
100
AcDbEntity
  8
AM_0
100
AcDbLine
 10
10.7624447494872
 20
-160.1934733083544
 30
0.0
 11
1.789339083204993
 21
-160.1934733083544
 31
0.0
  0
LINE
  5
11A67
330
1F
100
AcDbEntity
  8
AM_0
100
AcDbLine
 10
15.38733148656314
 20
-128.9934733083544
 30
0.0
 11
16.52733148656347
 21
-129.1934733083544
 31
0.0
  0
LINE
  5
11A68
330
1F
100
AcDbEntity
  8
AM_0
100
AcDbLine
 10
12.56733148656343
 20
-128.9934733083544
 30
0.0
 11
11.42733148656402
 21
-129.1934733083544
 31
0.0
  0
LINE
  5
11A69
330
1F
100
AcDbEntity
  8
AM_0
100
AcDbLine
 10
15.33928690163151
 20
-128.9934733083544
 30
0.0
 11
14.34226634015789
 21
-128.9934733083544
 31
0.0
  0
LINE
  5
11A6A
330
1F
100
AcDbEntity
  8
AM_0
100
AcDbLine
 10
14.34226634015789
 20
-128.9934733083544
 30
0.0
 11
12.98031092509058
 21
-128.9934733083544
 31
0.0
  0
LINE
  5
11A6B
330
1F
100
AcDbEntity
  8
AM_0
100
AcDbLine
 10
12.98031092509058
 20
-128.9934733083544
 30
0.0
 11
12.56733148656343
 21
-128.9934733083544
 31
0.0
  0
LINE
  5
11A6C
330
1F
100
AcDbEntity
  8
AM_0
100
AcDbLine
 10
15.38733148656314
 20
-128.9934733083544
 30
0.0
 11
15.33928690163151
 21
-128.9934733083544
 31
0.0
  0
LINE
  5
11A6D
330
1F
100
AcDbEntity
  8
AM_0
100
AcDbLine
 10
13.97733148656874
 20
-137.1334733083545
 30
0.0
 11
14.30988243891164
 21
-137.1334733083545
 31
0.0
  0
LINE
  5
11A6E
330
1F
100
AcDbEntity
  8
AM_0
100
AcDbLine
 10
13.97733148656874
 20
-133.9534733083544
 30
0.0
 11
13.97733148656874
 21
-137.1334733083545
 31
0.0
  0
LINE
  5
11A6F
330
1F
100
AcDbEntity
  8
AM_0
100
AcDbLine
 10
1.729197923303161
 20
-137.1334733083545
 30
0.0
 11
13.97733148656874
 21
-137.1334733083545
 31
0.0
  0
LINE
  5
11A70
330
1F
100
AcDbEntity
  8
AM_0
100
AcDbLine
 10
1.589339083204266
 20
-133.9534733083544
 30
0.0
 11
1.589339083204266
 21
-137.1334733083545
 31
0.0
  0
LINE
  5
11A71
330
1F
100
AcDbEntity
  8
AM_0
100
AcDbLine
 10
1.729197923303161
 20
-137.1334733083545
 30
0.0
 11
1.589339083204266
 21
-137.1334733083545
 31
0.0
  0
LINE
  5
11A72
330
1F
100
AcDbEntity
  8
AM_0
100
AcDbLine
 10
13.9773314865642
 20
-133.9534733083544
 30
0.0
 11
15.30337840902752
 21
-133.9534733083544
 31
0.0
  0
LINE
  5
11A73
330
1F
100
AcDbEntity
  8
AM_0
100
AcDbLine
 10
0.7351842210691189
 20
-133.9534733083544
 30
0.0
 11
13.9773314865642
 21
-133.9534733083544
 31
0.0
  0
LINE
  5
11A74
330
1F
100
AcDbEntity
  8
AM_0
100
AcDbLine
 10
13.9773314865642
 20
-129.1934733083544
 30
0.0
 11
27.39522761273014
 21
-129.1934733083544
 31
0.0
  0
LINE
  5
11A75
330
1F
100
AcDbEntity
  8
AM_0
100
AcDbLine
 10
13.9773314865642
 20
-129.1934733083544
 30
0.0
 11
13.9773314865642
 21
-133.9534733083544
 31
0.0
  0
LINE
  5
11A76
330
1F
100
AcDbEntity
  8
AM_0
100
AcDbLine
 10
0.559435360396435
 20
-129.1934733083544
 30
0.0
 11
13.9773314865642
 21
-129.1934733083544
 31
0.0
  0
LINE
  5
11A77
330
1F
100
AcDbEntity
  8
AM_0
100
AcDbLine
 10
27.91782760485597
 20
-129.4934733083544
 30
0.0
 11
27.95466297312663
 21
-129.1934733083544
 31
0.0
  0
LINE
  5
11A78
330
1F
100
AcDbEntity
  8
AM_0
100
AcDbLine
 10
0.5844545098979666
 20
-133.9534733083544
 30
0.0
 11
-0.0000000000000568
 21
-129.1934733083544
 31
0.0
  0
LINE
  5
11A79
330
1F
100
AcDbEntity
  8
AM_0
100
AcDbLine
 10
27.95466297312663
 20
-129.1934733083544
 30
0.0
 11
27.39522761273014
 21
-129.1934733083544
 31
0.0
  0
LINE
  5
11A7A
330
1F
100
AcDbEntity
  8
AM_0
100
AcDbLine
 10
0.5844545098979666
 20
-133.9534733083544
 30
0.0
 11
0.7351842210691189
 21
-133.9534733083544
 31
0.0
  0
LINE
  5
11A7B
330
1F
100
AcDbEntity
  8
AM_0
100
AcDbLine
 10
0.559435360396435
 20
-129.1934733083544
 30
0.0
 11
-0.0000000000000568
 21
-129.1934733083544
 31
0.0
  0
ARC
  5
11A7C
330
1F
100
AcDbEntity
  8
AM_0
100
AcDbCircle
 10
-57.6566521902954
 20
0.0033681397074474
 30
0.0
 40
31.00537052465428
100
AcDbArc
 50
214.3374148803511
 51
223.0754210616883
  0
ARC
  5
11A7D
330
1F
100
AcDbEntity
  8
AM_0
100
AcDbCircle
 10
-57.66439655247029
 20
0.0028376887385662
 30
0.0
 40
31.00452471614637
100
AcDbArc
 50
316.9244595196183
 51
325.6627045383349
  0
ARC
  5
11A7E
330
1F
100
AcDbEntity
  8
AM_0
100
AcDbCircle
 10
-57.66085535091713
 20
0.0000000000005116
 30
0.0
 40
31.0
100
AcDbArc
 50
223.0761794305651
 51
316.9238205694315
  0
ELLIPSE
  5
11A7F
330
1F
100
AcDbEntity
  8
AM_0
100
AcDbEllipse
 10
-52.96085535091737
 20
-9.184034465836874
 30
0.0
 11
4.999999999999999
 21
-1.307405850031961E-15
 31
0.0
210
0.0
220
0.0
230
1.0
 40
0.3152987888779734
 41
3.141592653589793
 42
4.188790204786391
  0
ELLIPSE
  5
11A80
330
1F
100
AcDbEntity
  8
AM_0
100
AcDbEllipse
 10
-52.96085535091737
 20
9.184034465856996
 30
0.0
 11
-4.999999999999999
 21
2.069619321374374E-15
 31
0.0
210
0.0
220
0.0
230
1.0
 40
0.3152987888789468
 41
5.235987755982988
 42
6.283185307179586
  0
LINE
  5
11A81
330
1F
100
AcDbEntity
  8
AM_0
100
AcDbLine
 10
-30.57557738186227
 20
-15.0793805356513
 30
0.0
 11
-55.46085535091737
 21
-10.54931827059085
 31
0.0
  0
ARC
  5
11A82
330
1F
100
AcDbEntity
  8
AM_0
100
AcDbCircle
 10
-57.66085535091713
 20
0.0000000000005116
 30
0.0
 40
31.0
100
AcDbArc
 50
330.8936884305859
 51
29.10631156949072
  0
LINE
  5
11A83
330
1F
100
AcDbEntity
  8
AM_0
100
AcDbLine
 10
-55.46085535091737
 20
10.54931827061529
 30
0.0
 11
-30.57557738188046
 21
15.07938053568597
 31
0.0
  0
ARC
  5
11A84
330
1F
100
AcDbEntity
  8
AM_0
100
AcDbCircle
 10
-57.66505851153067
 20
-0.0033681397002852
 30
0.0
 40
31.0053705246441
100
AcDbArc
 50
34.33741488044433
 51
43.07542106181895
  0
ARC
  5
11A85
330
1F
100
AcDbEntity
  8
AM_0
100
AcDbCircle
 10
-57.65665219030177
 20
-0.0033681397018768
 30
0.0
 40
31.00537052464677
100
AcDbArc
 50
136.924578938181
 51
145.6625851195557
  0
ARC
  5
11A86
330
1F
100
AcDbEntity
  8
AM_0
100
AcDbCircle
 10
-57.66085535091713
 20
0.0000000000005116
 30
0.0
 40
31.0
100
AcDbArc
 50
43.07617943065884
 51
136.923820569341
  0
LINE
  5
11A87
330
1F
100
AcDbEntity
  8
AM_0
100
AcDbLine
 10
-57.96085535091737
 20
4.954997002015773
 30
0.0
 11
-57.96085535091737
 21
9.184034465856996
 31
0.0
  0
LINE
  5
11A88
330
1F
100
AcDbEntity
  8
AM_0
100
AcDbLine
 10
-57.96085535091737
 20
-9.184034465836874
 30
0.0
 11
-57.96085535091737
 21
-4.95499700200952
 31
0.0
  0
LINE
  5
11A89
330
1F
100
AcDbEntity
  8
AM_0
100
AcDbLine
 10
-62.42085535091741
 20
-4.260960232285186
 30
0.0
 11
-63.70085535091715
 21
-4.260960232285186
 31
0.0
  0
LINE
  5
11A8A
330
1F
100
AcDbEntity
  8
AM_0
100
AcDbLine
 10
-63.70085535091715
 20
4.052565068669367
 30
0.0
 11
-63.70085535091715
 21
4.260960232290756
 31
0.0
  0
LINE
  5
11A8B
330
1F
100
AcDbEntity
  8
AM_0
100
AcDbLine
 10
-63.70085535091715
 20
-4.260960232285186
 30
0.0
 11
-63.70085535091715
 21
-4.052565068666752
 31
0.0
  0
ARC
  5
11A8C
330
1F
100
AcDbEntity
  8
AM_0
100
AcDbCircle
 10
-57.66085535091713
 20
0.0000000000005116
 30
0.0
 40
31.00000000000001
100
AcDbArc
 50
325.6633434885203
 51
330.8936884305859
  0
LINE
  5
11A8D
330
1F
100
AcDbEntity
  8
AM_0
100
AcDbLine
 10
-65.6008553509177
 20
-0.0000000000040359
 30
0.0
 11
-88.66085535091719
 21
-0.0000000000040359
 31
0.0
  0
ARC
  5
11A8E
330
1F
100
AcDbEntity
  8
AM_0
100
AcDbCircle
 10
-57.66085535091713
 20
0.0000000000005116
 30
0.0
 40
31.00000000000001
100
AcDbArc
 50
180.0
 51
214.3366565114796
  0
LINE
  5
11A8F
330
1F
100
AcDbEntity
  8
AM_0
100
AcDbLine
 10
-63.70085535091715
 20
4.260960232290756
 30
0.0
 11
-62.42085535091741
 21
4.260960232290756
 31
0.0
  0
ARC
  5
11A90
330
1F
100
AcDbEntity
  8
AM_0
100
AcDbCircle
 10
-57.66085535091713
 20
0.0000000000005116
 30
0.0
 40
31.0
100
AcDbArc
 50
145.6633434884239
 51
180.0
  0
ARC
  5
11A91
330
1F
100
AcDbEntity
  8
AM_0
100
AcDbCircle
 10
-57.66085535091713
 20
0.0000000000005116
 30
0.0
 40
31.0
100
AcDbArc
 50
29.10631156949072
 51
34.33665651157607
  0
LINE
  5
11A92
330
1F
100
AcDbEntity
  8
AM_0
100
AcDbLine
 10
-49.66085535091719
 20
-29.94995826374333
 30
0.0
 11
-49.66085535091719
 21
-30.46719547316383
 31
0.0
  0
LINE
  5
11A93
330
1F
100
AcDbEntity
  8
AM_0
100
AcDbLine
 10
-48.66085535091719
 20
30.18691769624763
 30
0.0
 11
-48.66085535091719
 21
29.66479394838314
 31
0.0
  0
LINE
  5
11A94
330
1F
100
AcDbEntity
  8
AM_0
100
AcDbLine
 10
-66.66085535091719
 20
29.66479394838314
 30
0.0
 11
-66.66085535091719
 21
30.18691769624763
 31
0.0
  0
LINE
  5
11A95
330
1F
100
AcDbEntity
  8
AM_0
100
AcDbLine
 10
-65.66085535091719
 20
-30.46719547316383
 30
0.0
 11
-65.66085535091719
 21
-29.94995826374333
 31
0.0
  0
ARC
  5
11A96
330
1F
100
AcDbEntity
  8
AM_0
100
AcDbCircle
 10
-57.66085535091713
 20
-0.0000000000001705
 30
0.0
 40
31.50000000000073
100
AcDbArc
 50
73.39845040095641
 51
106.6015495990435
  0
ARC
  5
11A97
330
1F
100
AcDbEntity
  8
AM_0
100
AcDbCircle
 10
-57.66085535091713
 20
0.000000000000739
 30
0.0
 40
31.50000000000019
100
AcDbArc
 50
255.2875420391034
 51
284.7124579608966
  0
ARC
  5
11A98
330
1F
100
AcDbEntity
  8
AM_0
100
AcDbCircle
 10
-57.66085535091713
 20
0.0000000000005116
 30
0.0
 40
31.5
100
AcDbArc
 50
284.7124579608966
 51
73.39845040095641
  0
ARC
  5
11A99
330
1F
100
AcDbEntity
  8
AM_0
100
AcDbCircle
 10
-57.66085535091713
 20
0.0000000000005116
 30
0.0
 40
31.5
100
AcDbArc
 50
106.6015495990435
 51
255.2875420391034
  0
LINE
  5
11A9A
330
1F
100
AcDbEntity
  8
AM_0
100
AcDbLine
 10
-57.46085535091737
 20
-1.409999999999798
 30
0.0
 11
-57.66085535091719
 21
-2.549999999999898
 31
0.0
  0
LINE
  5
11A9B
330
1F
100
AcDbEntity
  8
AM_0
100
AcDbLine
 10
-57.46085535091737
 20
1.410000000000366
 30
0.0
 11
-57.66085535091719
 21
2.550000000000239
 31
0.0
  0
LINE
  5
11A9C
330
1F
100
AcDbEntity
  8
AM_0
100
AcDbLine
 10
-57.46085535091737
 20
-1.409999999999798
 30
0.0
 11
-57.46085535091737
 21
-0.9970205614728798
 31
0.0
  0
LINE
  5
11A9D
330
1F
100
AcDbEntity
  8
AM_0
100
AcDbLine
 10
-57.46085535091737
 20
-0.9970205614728798
 30
0.0
 11
-57.46085535091737
 21
0.3649348535948889
 31
0.0
  0
LINE
  5
11A9E
330
1F
100
AcDbEntity
  8
AM_0
100
AcDbLine
 10
-57.46085535091737
 20
0.3649348535948889
 30
0.0
 11
-57.46085535091737
 21
1.361955415067826
 31
0.0
  0
LINE
  5
11A9F
330
1F
100
AcDbEntity
  8
AM_0
100
AcDbLine
 10
-57.46085535091737
 20
1.361955415067826
 30
0.0
 11
-57.46085535091737
 21
1.410000000000366
 31
0.0
  0
LINE
  5
11AA0
330
1F
100
AcDbEntity
  8
AM_0
100
AcDbLine
 10
-62.42085535091741
 20
-4.052565068666752
 30
0.0
 11
-65.6008553509177
 21
-4.052565068666752
 31
0.0
  0
LINE
  5
11AA1
330
1F
100
AcDbEntity
  8
AM_0
100
AcDbLine
 10
-62.42085535091741
 20
4.052565068669367
 30
0.0
 11
-65.6008553509177
 21
4.052565068669367
 31
0.0
  0
LINE
  5
11AA2
330
1F
100
AcDbEntity
  8
AM_0
100
AcDbLine
 10
-65.6008553509177
 20
4.052565068669367
 30
0.0
 11
-65.6008553509177
 21
0.190743390145883
 31
0.0
  0
LINE
  5
11AA3
330
1F
100
AcDbEntity
  8
AM_0
100
AcDbLine
 10
-65.6008553509177
 20
-0.1907433901535001
 30
0.0
 11
-65.6008553509177
 21
-4.052565068666752
 31
0.0
  0
LINE
  5
11AA4
330
1F
100
AcDbEntity
  8
AM_0
100
AcDbLine
 10
-65.6008553509177
 20
-0.1907433901535001
 30
0.0
 11
-65.6008553509177
 21
0.190743390145883
 31
0.0
  0
LINE
  5
11AA5
330
1F
100
AcDbEntity
  8
AM_0
100
AcDbLine
 10
-62.42085535091741
 20
-0.205569387566527
 30
0.0
 11
-62.42085535091741
 21
-4.380802382529225
 31
0.0
  0
LINE
  5
11AA6
330
1F
100
AcDbEntity
  8
AM_0
100
AcDbLine
 10
-62.42085535091741
 20
4.380802382535251
 30
0.0
 11
-62.42085535091741
 21
0.2055693875682323
 31
0.0
  0
LINE
  5
11AA7
330
1F
100
AcDbEntity
  8
AM_0
100
AcDbLine
 10
-57.66085535091719
 20
-4.993619958476927
 30
0.0
 11
-62.42085535091741
 21
-4.380802382529225
 31
0.0
  0
LINE
  5
11AA8
330
1F
100
AcDbEntity
  8
AM_0
100
AcDbLine
 10
-57.66085535091719
 20
4.993619958482952
 30
0.0
 11
-57.66085535091719
 21
0.7629735605990504
 31
0.0
  0
LINE
  5
11AA9
330
1F
100
AcDbEntity
  8
AM_0
100
AcDbLine
 10
-57.66085535091719
 20
-0.7629735605973451
 30
0.0
 11
-57.66085535091719
 21
-4.993619958476927
 31
0.0
  0
LINE
  5
11AAA
330
1F
100
AcDbEntity
  8
AM_0
100
AcDbLine
 10
-57.66085535091719
 20
4.993619958482952
 30
0.0
 11
-62.42085535091741
 21
4.380802382535251
 31
0.0
  0
LINE
  5
11AAB
330
1F
100
AcDbEntity
  8
AM_0
100
AcDbLine
 10
-62.42085535091741
 20
0.2055693875682323
 30
0.0
 11
-62.42085535091741
 21
-0.2055693875674365
 31
0.0
  0
LINE
  5
11AAC
330
1F
100
AcDbEntity
  8
AM_0
100
AcDbLine
 10
-57.66085535091719
 20
-0.7629735605980272
 30
0.0
 11
-57.66085535091719
 21
0.7629735605990504
 31
0.0
  0
ARC
  5
11B5B
330
1F
100
AcDbEntity
  8
AM_0
100
AcDbCircle
 10
167.4999999999999
 20
-124.4809733083548
 30
0.0
 40
1.5
100
AcDbArc
 50
90.0
 51
180.0
1001
GENIUS_GENOBJ-N-FIL_13
1002
{
1000
OWNER
1000
GEN
1002
}
1001
GENIUS_GENODEF_13
1002
{
1000
HIER
1070
     0
1002
}
1002
{
1000
MANEDIT
1070
     0
1002
}
1002
{
1000
NOSEL
1070
     0
1002
}
1002
{
1000
BEHIND
1070
     0
1002
}
1002
{
1000
OTHER
1070
     0
1002
}
1002
{
1000
REACTOR
1002
}
  0
ARC
  5
11B5C
330
1F
100
AcDbEntity
  8
AM_0
100
AcDbCircle
 10
167.4999999999999
 20
-133.905973308355
 30
0.0
 40
1.5
100
AcDbArc
 50
180.0
 51
270.0
1001
GENIUS_GENODEF_13
1002
{
1000
HIER
1070
     0
1002
}
1002
{
1000
MANEDIT
1070
     0
1002
}
1002
{
1000
NOSEL
1070
     0
1002
}
1002
{
1000
BEHIND
1070
     0
1002
}
1002
{
1000
OTHER
1070
     0
1002
}
1002
{
1000
REACTOR
1002
}
1001
GENIUS_GENOBJ-N-FIL_13
1002
{
1000
OWNER
1000
GEN
1002
}
  0
ARC
  5
11B5D
330
1F
100
AcDbEntity
  8
AM_0
100
AcDbCircle
 10
167.5000000000001
 20
-137.2961415045317
 30
0.0
 40
1.5
100
AcDbArc
 50
180.0
 51
280.7630026735859
1001
GENIUS_GENOBJ-N-FIL_13
1002
{
1000
OWNER
1000
GEN
1002
}
1001
GENIUS_GENODEF_13
1002
{
1000
HIER
1070
     0
1002
}
1002
{
1000
MANEDIT
1070
     0
1002
}
1002
{
1000
NOSEL
1070
     0
1002
}
1002
{
1000
BEHIND
1070
     0
1002
}
1002
{
1000
OTHER
1070
     0
1002
}
1002
{
1000
REACTOR
1002
}
  0
ARC
  5
11B5E
330
1F
100
AcDbEntity
  8
AM_0
100
AcDbCircle
 10
167.5000000000001
 20
-121.0908051121785
 30
0.0
 40
1.5
100
AcDbArc
 50
79.23699732641424
 51
179.9999999999992
1001
GENIUS_GENOBJ-N-FIL_13
1002
{
1000
OWNER
1000
GEN
1002
}
1001
GENIUS_GENODEF_13
1002
{
1000
HIER
1070
     0
1002
}
1002
{
1000
MANEDIT
1070
     0
1002
}
1002
{
1000
NOSEL
1070
     0
1002
}
1002
{
1000
BEHIND
1070
     0
1002
}
1002
{
1000
OTHER
1070
     0
1002
}
1002
{
1000
REACTOR
1002
}
  0
ARC
  5
11B63
330
1F
100
AcDbEntity
  8
AM_11
  6
ACJISTGB
100
AcDbCircle
 10
170.8000000000001
 20
21.57850093632985
 30
0.0
 40
1.2
100
AcDbArc
 50
0.0
 51
87.13759477388736
  0
ARC
  5
11B64
330
1F
100
AcDbEntity
  8
AM_11
  6
ACJISTGB
100
AcDbCircle
 10
170.8000000000001
 20
-21.57850093633078
 30
0.0
 40
1.2
100
AcDbArc
 50
272.8624052261126
 51
0.0
  0
LINE
  5
11B65
330
1F
100
AcDbEntity
  8
AM_11
  6
ACJISTGB
100
AcDbLine
 10
171.9999999999999
 20
-20.26093592543685
 30
0.0
 11
171.9999999999999
 21
-21.57850093633084
 31
0.0
  0
LINE
  5
11B66
330
1F
100
AcDbEntity
  8
AM_0
100
AcDbLine
 10
165.9999999999999
 20
-23.01999999999958
 30
0.0
 11
153.4999999999999
 21
-23.64499999999958
 31
0.0
  0
LINE
  5
11B67
330
1F
100
AcDbEntity
  8
AM_0
100
AcDbLine
 10
171.9999999999999
 20
20.28895312868849
 30
0.0
 11
171.9999999999999
 21
-20.26093592543685
 31
0.0
  0
LINE
  5
11B68
330
1F
100
AcDbEntity
  8
AM_0
100
AcDbLine
 10
161.9999999999999
 20
23.22000000000026
 30
0.0
 11
153.4999999999999
 21
23.64500000000038
 31
0.0
  0
DIMENSION
  5
11B6F
330
1F
100
AcDbEntity
  8
AM_5
100
AcDbDimension
  2
*D5
 10
197.9899171987326
 20
-31.50000000000007
 30
0.0
 11
194.5899171987326
 21
-0.0000000000000117
 31
0.0
 70
    32
  1
%%c<>
 71
     5
 42
63.00000000000006
  3
AM_JIS$0
100
AcDbAlignedDimension
 13
139.9999999999999
 23
31.5
 33
0.0
 14
139.9999999999999
 24
-31.50000000000006
 34
0.0
 50
90.0
100
AcDbRotatedDimension
1001
ACAD
1000
DSTYLE
1002
{
1070
   179
1070
     0
1070
   271
1070
     0
1070
   272
1070
     2
1002
}
  0
LINE
  5
11BDE
330
1F
100
AcDbEntity
  8
AM_7
100
AcDbLine
 10
-57.66085535091696
 20
0.0
 30
0.0
 11
-20.55022305047368
 21
0.0
 31
0.0
1001
GENIUS_GENOREF_13
1005
11C03
  0
LINE
  5
11BDF
330
1F
100
AcDbEntity
  8
AM_7
100
AcDbLine
 10
-57.66085535091696
 20
0.0
 30
0.0
 11
-57.66085535091696
 21
37.11063230044329
 31
0.0
1001
GENIUS_GENOREF_13
1005
11C03
  0
LINE
  5
11BE0
330
1F
100
AcDbEntity
  8
AM_7
100
AcDbLine
 10
-57.66085535091696
 20
0.0
 30
0.0
 11
-94.77148765136013
 21
0.0000000000000568
 31
0.0
1001
GENIUS_GENOREF_13
1005
11C03
  0
LINE
  5
11BE1
330
1F
100
AcDbEntity
  8
AM_7
100
AcDbLine
 10
-57.66085535091719
 20
0.0
 30
0.0
 11
-57.66085535091696
 21
-36.3760531426833
 31
0.0
1001
GENIUS_GENOREF_13
1005
11C03
  0
LINE
  5
11BF1
330
1F
100
AcDbEntity
  8
AM_7
100
AcDbLine
 10
176.1713935235129
 20
-0.0000000000000568
 30
0.0
 11
-3.633511705756348
 21
0.0
 31
0.0
1001
GENIUS_GENODEF_13
1002
{
1000
HIER
1070
     0
1002
}
1002
{
1000
MANEDIT
1070
     0
1002
}
1002
{
1000
NOSEL
1070
     0
1002
}
1002
{
1000
BEHIND
1070
     0
1002
}
1002
{
1000
OTHER
1070
     0
1002
}
1002
{
1000
REACTOR
1002
}
1001
GENIUS_GENOBJ-N-CEN_13
1002
{
1000
OWNER
1000
GEN
1002
}
  0
LINE
  5
11BF2
330
1F
100
AcDbEntity
  8
AM_7
100
AcDbLine
 10
179.4704181305187
 20
-129.1934733083545
 30
0.0
 11
32.0870568216306
 21
-129.1934733083544
 31
0.0
1001
GENIUS_GENODEF_13
1002
{
1000
HIER
1070
     0
1002
}
1002
{
1000
MANEDIT
1070
     0
1002
}
1002
{
1000
NOSEL
1070
     0
1002
}
1002
{
1000
BEHIND
1070
     0
1002
}
1002
{
1000
OTHER
1070
     0
1002
}
1002
{
1000
REACTOR
1002
}
1001
GENIUS_GENOBJ-N-CEN_13
1002
{
1000
OWNER
1000
GEN
1002
}
  0
LINE
  5
11BF5
330
1F
100
AcDbEntity
  8
AM_0
100
AcDbLine
 10
111.0
 20
31.00000000000003
 30
0.0
 11
62.80360593082679
 21
31.0
 31
0.0
  0
LINE
  5
11BF6
330
1F
100
AcDbEntity
  8
AM_0
100
AcDbLine
 10
110.9999999999999
 20
-30.99999999999938
 30
0.0
 11
62.80360593084856
 21
-31.0
 31
0.0
  0
LINE
  5
11BF9
330
1F
100
AcDbEntity
  8
AM_0
100
AcDbLine
 10
113.9999999999999
 20
-98.19347330835456
 30
0.0
 11
51.87518983144213
 21
-98.19347330835444
 31
0.0
  0
LINE
  5
11BFA
330
1F
100
AcDbEntity
  8
AM_0
100
AcDbLine
 10
114.0
 20
-160.1934733083544
 30
0.0
 11
17.56244474948738
 21
-160.1934733083544
 31
0.0
  0
DIMENSION
  5
11C00
330
1F
100
AcDbEntity
  8
AM_5
100
AcDbDimension
  2
*D4
 10
0.0
 20
-15.86418845482933
 30
0.0
 11
20.76935807826397
 21
-28.91241457240771
 31
0.0
 70
    34
 71
     5
 42
1.265363707696236
  3
AM_JIS$2
100
AcDb2LineAngularDimension
 13
0.5594353603962645
 23
-0.7629735605978567
 33
0.0
 14
13.97733148656403
 24
-4.993619958477439
 34
0.0
 15
0.0
 25
-6.548991567202847
 35
0.0
 16
15.77171972145052
 26
-35.73492774062181
 36
0.0
1001
ACAD
1000
DSTYLE
1002
{
1070
    79
1070
     1
1070
   179
1070
     1
1070
   271
1070
     0
1070
   272
1070
     2
1002
}
  0
TEXT
  5
11C01
330
1F
100
AcDbEntity
  8
AM_0
100
AcDbText
 10
-40.55483275251305
 20
-196.6134056972273
 30
0.0
 40
5.0
  1
H63A-WH-SVVCN-L16
100
AcDbText
  0
POINT
  5
11C03
330
1F
100
AcDbEntity
  8
0
 60
     1
100
AcDbPoint
 10
-617.2649424521975
 20
31.68244056231566
 30
0.0
1001
GENIUS_GENOLIS_13
1002
{
1000
ENT
1005
11BE1
1005
11BE0
1005
11BDF
1005
11BDE
1002
}
1001
GENIUS_GENOBJ-N-CRS_13
1002
{
1000
OWNER
1000
GEN
1002
}
1001
GENIUS_GENOENT_13
1002
{
1000
MYREF
1005
11C03
1002
}
1002
{
1000
GRP
1005
0
1002
}
1001
GENIUS_GENODEF_13
1002
{
1000
HIER
1070
    10
1002
}
1002
{
1000
MANEDIT
1070
     0
1002
}
1002
{
1000
NOSEL
1070
     0
1002
}
1002
{
1000
BEHIND
1070
     0
1002
}
1002
{
1000
OTHER
1070
     0
1002
}
1002
{
1000
REACTOR
1002
}
  0
ELLIPSE
  5
1259C
330
1F
100
AcDbEntity
  8
AM_0
100
AcDbEllipse
 10
44.36963633197672
 20
0.0
 30
0.0
 11
1.369611019960976E-15
 21
5.500000000000001
 31
0.0
210
0.0
220
0.0
230
1.0
 40
0.577350269189626
 41
5.30702986978225
 42
7.64206951343278
  0
ELLIPSE
  5
1259D
330
1F
100
AcDbEntity
  8
AM_0
100
AcDbEllipse
 10
44.36963633197672
 20
0.0
 30
0.0
 11
1.369611019960976E-15
 21
5.500000000000001
 31
0.0
210
0.0
220
0.0
230
1.0
 40
0.577350269189626
 41
1.782708447336601
 42
4.117748090987131
  0
LINE
  5
1259E
330
1F
100
AcDbEntity
  8
AM_0
100
AcDbLine
 10
46.99999999999977
 20
3.081162268013998
 30
0.0
 11
46.99999999999977
 21
2.059990514986168
 31
0.0
  0
LINE
  5
1259F
330
1F
100
AcDbEntity
  8
AM_0
100
AcDbLine
 10
46.99999999999977
 20
-2.059990514986168
 30
0.0
 11
46.99999999999977
 21
-3.081162268013998
 31
0.0
  0
ELLIPSE
  5
125A0
330
1F
100
AcDbEntity
  8
AM_0
100
AcDbEllipse
 10
44.36963633197672
 20
0.0
 30
0.0
 11
1.245100927237250E-15
 21
5.0
 31
0.0
210
0.0
220
0.0
230
1.0
 40
0.5773502691896257
 41
4.287743139744555
 42
5.137034821024825
  0
LINE
  5
125A1
330
1F
100
AcDbEntity
  8
AM_0
100
AcDbLine
 10
41.26524246971849
 20
-1.156812968426664
 30
0.0
 11
41.26524246971849
 21
1.156812968426664
 31
0.0
  0
CIRCLE
  5
125A2
330
1F
100
AcDbEntity
  8
AM_0
100
AcDbCircle
 10
108.9999999999999
 20
0.0
 30
0.0
 40
3.500000000000037
  0
CIRCLE
  5
125A3
330
1F
100
AcDbEntity
  8
AM_0
100
AcDbCircle
 10
108.9999999999999
 20
0.0
 30
0.0
 40
3.000000000000057
  0
LINE
  5
125A4
330
1F
100
AcDbEntity
  8
AM_0
100
AcDbLine
 10
108.1339745962154
 20
1.499999999999943
 30
0.0
 11
109.8660254037843
 21
1.499999999999943
 31
0.0
  0
LINE
  5
125A5
330
1F
100
AcDbEntity
  8
AM_0
100
AcDbLine
 10
109.8660254037843
 20
1.499999999999943
 30
0.0
 11
110.7320508075688
 21
-0.0000000000000568
 31
0.0
  0
LINE
  5
125A6
330
1F
100
AcDbEntity
  8
AM_0
100
AcDbLine
 10
110.7320508075688
 20
-0.0000000000000568
 30
0.0
 11
109.8660254037843
 21
-1.500000000000057
 31
0.0
  0
LINE
  5
125A7
330
1F
100
AcDbEntity
  8
AM_0
100
AcDbLine
 10
109.8660254037843
 20
-1.500000000000057
 30
0.0
 11
108.1339745962154
 21
-1.500000000000057
 31
0.0
  0
LINE
  5
125A8
330
1F
100
AcDbEntity
  8
AM_0
100
AcDbLine
 10
108.1339745962154
 20
-1.500000000000057
 30
0.0
 11
107.267949192431
 21
-0.0000000000000568
 31
0.0
  0
LINE
  5
125A9
330
1F
100
AcDbEntity
  8
AM_0
100
AcDbLine
 10
107.267949192431
 20
-0.0000000000000568
 30
0.0
 11
108.1339745962154
 21
1.499999999999943
 31
0.0
  0
LINE
  5
125AB
330
1F
100
AcDbEntity
  8
AM_0
100
AcDbLine
 10
45.29999999999984
 20
2.214510797200376
 30
0.0
 11
45.29999999999984
 21
-2.214510797200376
 31
0.0
  0
LINE
  5
125AC
330
1F
100
AcDbEntity
  8
AM_0
100
AcDbLine
 10
46.99999999999977
 20
2.059990514986168
 30
0.0
 11
46.99999999999977
 21
-2.059990514986168
 31
0.0
  0
ARC
  5
125AD
330
1F
100
AcDbEntity
  8
AM_0
100
AcDbCircle
 10
48.64990703032737
 20
-0.2145107972002052
 30
0.0
 40
3.901522409500942
100
AcDbArc
 50
210.8385318138108
 51
240.9790935219641
  0
ARC
  5
125AE
330
1F
100
AcDbEntity
  8
AM_0
100
AcDbCircle
 10
48.64990703032737
 20
0.2145107972002052
 30
0.0
 40
3.901522409500942
100
AcDbArc
 50
119.0209064780359
 51
149.1614681861892
  0
LINE
  5
125AF
330
1F
100
AcDbEntity
  8
AM_0
100
AcDbLine
 10
47.25638767792492
 20
-106.1934733083544
 30
0.0
 11
46.99999999999994
 21
-106.1934733083544
 31
0.0
  0
LINE
  5
125B0
330
1F
100
AcDbEntity
  8
AM_0
100
AcDbLine
 10
45.30000000000001
 20
-108.9789625111541
 30
0.0
 11
45.30000000000001
 21
-109.5820361658222
 31
0.0
  0
LINE
  5
125B1
330
1F
100
AcDbEntity
  8
AM_0
100
AcDbLine
 10
46.99999999999994
 20
-106.1934733083544
 30
0.0
 11
46.99999999999994
 21
-106.6375497929552
 31
0.0
  0
ARC
  5
125B2
330
1F
100
AcDbEntity
  8
AM_0
100
AcDbCircle
 10
48.64990703032754
 20
-110.9789625111542
 30
0.0
 40
3.901522409500941
100
AcDbArc
 50
127.3100763689396
 51
149.1614681861892
  0
ARC
  5
125B3
330
1F
100
AcDbEntity
  8
AM_0
100
AcDbCircle
 10
-39.66085535091725
 20
0.0000000000005116
 30
0.0
 40
5.500000000000001
100
AcDbArc
 50
34.07041328838529
 51
167.8583298652935
  0
ARC
  5
125B4
330
1F
100
AcDbEntity
  8
AM_0
100
AcDbCircle
 10
-39.66085535091725
 20
0.0000000000005116
 30
0.0
 40
5.500000000000001
100
AcDbArc
 50
192.1416701347063
 51
325.9295867116147
  0
LINE
  5
125B5
330
1F
100
AcDbEntity
  8
AM_0
100
AcDbLine
 10
-35.10493183551813
 20
3.081162268014452
 30
0.0
 11
-35.10493183551813
 21
2.05999051498668
 31
0.0
  0
LINE
  5
125B6
330
1F
100
AcDbEntity
  8
AM_0
100
AcDbLine
 10
-35.10493183551813
 20
-2.059990514985657
 30
0.0
 11
-35.10493183551813
 21
-3.081162268013429
 31
0.0
  0
LINE
  5
125B7
330
1F
100
AcDbEntity
  8
AM_0
100
AcDbLine
 10
-45.0378232470535
 20
-1.156812968426209
 30
0.0
 11
-45.0378232470535
 21
1.156812968427175
 31
0.0
  0
ARC
  5
125B8
330
1F
100
AcDbEntity
  8
AM_0
100
AcDbCircle
 10
-39.66085535091725
 20
0.0000000000005116
 30
0.0
 40
5.0
100
AcDbArc
 50
24.33041445646579
 51
335.6695855435342
  0
CIRCLE
  5
125B9
330
1F
100
AcDbEntity
  8
AM_0
100
AcDbCircle
 10
-39.66085535091725
 20
0.0000000000005116
 30
0.0
 40
2.214510797200376
  0
CIRCLE
  5
125BA
330
1F
100
AcDbEntity
  8
AM_0
100
AcDbCircle
 10
-39.66085535091725
 20
0.0000000000005116
 30
0.0
 40
3.75
  0
CIRCLE
  5
125BB
330
1F
100
AcDbEntity
  8
AM_0
100
AcDbCircle
 10
-39.66085535091725
 20
0.0000000000005116
 30
0.0
 40
5.0
  0
CIRCLE
  5
125BC
330
1F
100
AcDbEntity
  8
AM_0
100
AcDbCircle
 10
-39.66085535091725
 20
0.0000000000005116
 30
0.0
 40
2.0
  0
LINE
  5
1261D
330
1F
100
AcDbEntity
  8
AM_7
  6
AM_ISO08W050x2
100
AcDbLine
 10
-39.6608553509173
 20
8.500000000000512
 30
0.0
 11
-39.6608553509173
 21
-8.499999999999488
 31
0.0
1001
GENIUS_GENOBJ-N-CEN_13
1002
{
1000
OWNER
1000
GEN
1002
}
1001
GENIUS_GENODEF_13
1002
{
1000
HIER
1070
     0
1002
}
1002
{
1000
MANEDIT
1070
     0
1002
}
1002
{
1000
NOSEL
1070
     0
1002
}
1002
{
1000
BEHIND
1070
     0
1002
}
1002
{
1000
OTHER
1070
     0
1002
}
1002
{
1000
REACTOR
1002
}
1001
GENIUS_GENCEN_19
1002
{
1040
3.0
1002
}
  0
DIMENSION
  5
12C9D
330
1F
100
AcDbEntity
  8
AM_5
100
AcDbDimension
  2
*D6
 10
-0.0000000000000602
 20
-54.80534840255422
 30
0.0
 11
69.99999999999992
 21
-51.40534840255422
 31
0.0
 70
    32
 71
     5
 42
139.9999999999999
  3
AM_JIS$0
100
AcDbAlignedDimension
 13
139.9999999999999
 23
-31.50000000000006
 33
0.0
 14
-0.0000000000000568
 24
0.0
 34
0.0
 50
180.0
100
AcDbRotatedDimension
1001
ACAD
1000
DSTYLE
1002
{
1070
   179
1070
     2
1070
   271
1070
     0
1002
}
  0
ENDSEC
  0
SECTION
  2
OBJECTS
  0
DICTIONARY
  5
C
330
0
100
AcDbDictionary
281
     1
  3
ACAD_COLOR
350
99D5
  3
ACAD_GROUP
350
D
  3
ACAD_LAYOUT
350
1A
  3
ACAD_MATERIAL
350
99D4
  3
ACAD_MLINESTYLE
350
17
  3
ACAD_PLOTSETTINGS
350
19
  3
ACAD_PLOTSTYLENAME
350
E
  3
ACAD_TABLESTYLE
350
99D6
  3
AcAmCatalogState
350
9A2C
  3
ACDBHEADERROUNDTRIPXREC
350
12DD5
  3
AcDbVariableDictionary
350
30
  3
ACDMSYSVARMGR
350
99EF
  3
ACGREF_MASTER
350
23CD
  3
ACGREFACAD_MASTER
350
23D1
  3
AcmDictionary
350
4D
  3
ACME_BOM_MANAGER_NAME
350
99A7
  3
ACME_COMMAND_HISTORY
350
99A2
  3
ACME_SCOPE_NAME
350
99A1
  3
ACMESTATEMGR
350
99AC
  3
AcmeSysVarManager
350
99A3
  3
AcmSystemVariableManager
350
9A2A
  3
AD_APPL
350
9A17
  3
ADSYSVARMGR
350
9A16
  3
AmdtNamedDwgMgr
350
9A0A
  3
AMG
350
3F
  3
AMGSNAPSETTINGS
350
73
  3
AMI_MASTER
350
23D2
  3
AUTOCAD_ASSEMBLIES_PROJECT
350
9A1F
  3
Designer_Assemblies_SysVars
350
9A1A
  3
DWGPROPS
350
12DD8
  3
FILENAME
350
1C9F
  3
GREFAM_MODULE
350
9A10
  3
ZWKSIZE
350
1CA1
  0
DICTIONARY
  5
9B25
330
2
100
AcDbDictionary
280
     1
281
     1
  3
ACAD_LAYERFILTERS
360
9F3B
  3
ACAD_LAYERSTATES
360
9B26
  3
ACLYDICTIONARY
360
9F3A
  3
AMLAYER_GROUPCOLORS
360
9F39
  0
DICTIONARY
  5
165
330
1F
100
AcDbDictionary
280
     1
281
     1
  3
ACAD_LAYOUTSELFREF
360
98ED
  3
ACAD_SORTENTS
360
C040
  0
DICTIONARY
  5
264F
330
1B
100
AcDbDictionary
280
     1
281
     1
  3
ACAD_LAYOUTSELFREF
360
98EC
  0
DICTIONARY
  5
2651
330
23
100
AcDbDictionary
280
     1
281
     1
  3
ACAD_LAYOUTSELFREF
360
98EE
  0
DICTIONARY
  5
99D5
102
{ACAD_REACTORS
330
C
102
}
330
C
100
AcDbDictionary
281
     1
  0
DICTIONARY
  5
D
102
{ACAD_REACTORS
330
C
102
}
330
C
100
AcDbDictionary
281
     1
  0
DICTIONARY
  5
1A
102
{ACAD_REACTORS
330
C
102
}
330
C
100
AcDbDictionary
281
     1
  3
Model
350
22
  3
ﾚｲｱｳﾄ1
350
1E
  3
ﾚｲｱｳﾄ2
350
26
  0
DICTIONARY
  5
99D4
102
{ACAD_REACTORS
330
C
102
}
330
C
100
AcDbDictionary
281
     1
  0
DICTIONARY
  5
17
102
{ACAD_REACTORS
330
C
102
}
330
C
100
AcDbDictionary
281
     1
  3
Standard
350
18
  0
DICTIONARY
  5
19
102
{ACAD_REACTORS
330
C
102
}
330
C
100
AcDbDictionary
281
     1
  0
ACDBDICTIONARYWDFLT
  5
E
102
{ACAD_REACTORS
330
C
102
}
330
C
100
AcDbDictionary
281
     1
  3
Normal
350
F
100
AcDbDictionaryWithDefault
340
F
  0
DICTIONARY
  5
99D6
102
{ACAD_REACTORS
330
C
102
}
330
C
100
AcDbDictionary
281
     1
  3
Standard
350
99D7
  0
ACAD_PROXY_OBJECT
  5
9A2C
102
{ACAD_REACTORS
330
C
102
}
330
C
100
AcDbProxyObject
 90
      499
 91
      584
 95
       25
 70
     0
 93
      424
310
3FFFFFFFE00A0281402902C1D2E482B415AC15141BA41A441C5C1AFAE20A1A0A226991818182E24A1AA26C00A3FFFFFFFCFFFF1F40
  0
DICTIONARY
  5
12DD5
102
{ACAD_REACTORS
330
C
102
}
330
C
100
AcDbDictionary
281
     1
  3
COLORDICT
350
12DD6
  3
MATERIALDICT
350
12DD7
  0
DICTIONARY
  5
30
102
{ACAD_REACTORS
330
C
102
}
330
C
100
AcDbDictionary
281
     1
  3
CTABLESTYLE
350
9A53
  3
HIDETEXT
350
12DD4
  3
INDEXCTL
350
12DD3
  0
ACAD_PROXY_OBJECT
  5
99EF
102
{ACAD_REACTORS
330
C
102
}
330
C
100
AcDbProxyObject
 90
      499
 91
      507
 95
       25
 70
     0
 93
      240
310
4C51A47A0000000000000000000000000000000000000000000000000000
330
99F0
330
99F1
330
99F2
330
99F3
330
99F4
330
99F5
330
99F6
330
99F7
330
99F8
330
99F9
330
99FA
330
99FB
330
99FC
330
99FD
330
99FE
330
99FF
330
9A00
330
9A01
330
9A02
330
9A03
330
9A04
330
9A05
330
9A06
330
9A07
330
9A08
330
9A09
 94
        0
  0
ACAD_PROXY_OBJECT
  5
23CD
102
{ACAD_REACTORS
330
C
102
}
330
C
100
AcDbProxyObject
 90
      499
 91
      534
 95
       25
 70
     0
 93
       34
310
0400004280
  0
ACAD_PROXY_OBJECT
  5
23D1
102
{ACAD_REACTORS
330
C
102
}
330
C
100
AcDbProxyObject
 90
      499
 91
      535
 95
       25
 70
     0
 93
      114
310
04000041C080000000000000000000
  0
DICTIONARY
  5
4D
102
{ACAD_REACTORS
330
C
102
}
330
C
100
AcDbDictionary
281
     1
  3
AcmBOMDATA
350
99B0
  3
AcmStdDictionary
350
17E
  3
AMDTSECTSYM_ARROWCOLOR
350
9A47
  0
ACAD_PROXY_OBJECT
  5
99A7
102
{ACAD_REACTORS
330
C
102
}
330
C
100
AcDbProxyObject
 90
      499
 91
      510
 95
       25
 70
     0
 93
       50
310
00010040400000
330
0
330
0
330
99A8
 94
        0
  0
ACAD_PROXY_OBJECT
  5
99A2
102
{ACAD_REACTORS
330
C
102
}
330
C
100
AcDbProxyObject
 90
      499
 91
      505
 95
       25
 70
     0
 93
     3638
310
478050545524153458050C475249505F53545245544348805054552415345404052D4D5347202D205050413A2020206465736B746F702E6172782046696C6556657273696F6E3A20392E322E302E34014151549054D16014151549054D16014151549054D16014151549054D16014151549054D16014151549054D16014151
310
549054D16014151549054D16014151549054D16014151549054D16014151549054D16014151549054D16014151549054D16014151549054D16014151549054D16014151549054D16014151549054D16014151549054D1501014B5354D1C80B481414104E88080819195CDADD1BDC0B985C9E08119A5B1955995C9CDA5BDB8E
310
880E4B8C8B8C0B8D005054552415345805054552415345805054552415345805055153415645404052D4D5347202D205050413A2020206465736B746F702E6172782046696C6556657273696F6E3A20392E322E302E34014390535115149154D15511109353D1102014213880B4815539113C05084E202D20554E444F01411
310
5539113E014115539113E014154155491D1601415454D05591501014B5354D1C80B481414104E88080819195CDADD1BDC0B985C9E08119A5B1955995C9CDA5BDB8E880E4B8C8B8C0B8D0
  0
ACAD_PROXY_OBJECT
  5
99A1
102
{ACAD_REACTORS
330
C
102
}
330
C
100
AcDbProxyObject
 90
      499
 91
      504
 95
       25
 70
     0
 93
      578
310
09000046408000000000000000001334DE000000000000000000000000000000000000000000000000000000000000000000000000000000000000000000000000000000AAA406AA80
360
99A4
360
99A5
360
99A6
360
99A8
360
99E8
360
99E9
360
99EA
360
99EB
360
99EC
360
99ED
360
99F0
360
99F1
360
99F2
360
99F3
360
99F4
360
99F5
360
99F6
360
99F7
360
99F8
360
99F9
360
99FA
360
99FB
360
99FC
360
99FD
360
99FE
360
99FF
360
9A00
360
9A01
360
9A02
360
9A03
360
9A04
360
9A05
360
9A06
360
9A07
360
9A08
360
9A09
360
9A12
360
9A13
360
9A14
360
9A15
360
9A1B
360
9A1C
360
9A1D
360
9A1E
360
9A23
360
9A24
360
9A25
360
9A26
360
9A27
360
9A28
360
9A2B
 94
        0
  0
ACAD_PROXY_OBJECT
  5
99AC
102
{ACAD_REACTORS
330
C
102
}
330
C
100
AcDbProxyObject
 90
      499
 91
      515
 95
       25
 70
     0
 93
       50
310
09000042641280
  0
ACAD_PROXY_OBJECT
  5
99A3
102
{ACAD_REACTORS
330
C
102
}
330
C
100
AcDbProxyObject
 90
      499
 91
      507
 95
       25
 70
     0
 93
       48
310
903412000000
330
99A4
330
99A5
330
99A6
 94
        0
  0
ACAD_PROXY_OBJECT
  5
9A2A
102
{ACAD_REACTORS
330
C
102
}
330
C
100
AcDbProxyObject
 90
      499
 91
      507
 95
       25
 70
     0
 93
       32
310
90140A00
330
9A2B
 94
        0
  0
ACAD_PROXY_OBJECT
  5
9A17
102
{ACAD_REACTORS
330
C
102
}
330
C
100
AcDbProxyObject
 90
      499
 91
      574
 95
       25
 70
     0
 93
       42
310
000900004040
330
9A12
 94
        0
  0
ACAD_PROXY_OBJECT
  5
9A16
102
{ACAD_REACTORS
330
C
102
}
330
C
100
AcDbProxyObject
 90
      499
 91
      507
 95
       25
 70
     0
 93
        8
310
AA
  0
ACAD_PROXY_OBJECT
  5
9A0A
102
{ACAD_REACTORS
330
C
102
}
330
C
100
AcDbProxyObject
 90
      499
 91
      565
 95
       25
 70
     0
 93
       42
310
000100005E80
330
99E8
 94
        0
  0
DICTIONARY
  5
3F
102
{ACAD_REACTORS
330
C
102
}
330
C
100
AcDbDictionary
281
     1
  3
AcMgSettings
350
40
  3
AMGLAYCFG
350
99B4
  0
DICTIONARY
  5
73
102
{ACAD_REACTORS
330
C
102
}
330
C
100
AcDbDictionary
281
     1
  0
ACAD_PROXY_OBJECT
  5
23D2
102
{ACAD_REACTORS
330
C
102
}
330
C
100
AcDbProxyObject
 90
      499
 91
      536
 95
       25
 70
     0
 93
       34
310
0500004280
  0
ACAD_PROXY_OBJECT
  5
9A1F
102
{ACAD_REACTORS
330
C
102
}
330
C
100
AcDbProxyObject
 90
      499
 91
      577
 95
       25
 70
     0
 93
       98
310
0900004E400000000000000000
330
9A26
330
0
330
9A27
330
0
330
0
330
0
330
0
330
0
 94
        0
  0
ACAD_PROXY_OBJECT
  5
9A1A
102
{ACAD_REACTORS
330
C
102
}
330
C
100
AcDbProxyObject
 90
      499
 91
      507
 95
       25
 70
     0
 93
       56
310
90441600000000
330
9A1B
330
9A1C
330
9A1D
330
9A1E
 94
        0
  0
XRECORD
  5
12DD8
102
{ACAD_REACTORS
330
C
102
}
330
C
100
AcDbXrecord
280
     1
  1
DWGPROPS COOKIE
  2

  3

  4

  6

  7

  8

  9

300
AmdtFileType=84
301
=
302
=
303
=
304
=
305
=
306
=
307
=
308
=
309
=
 40
0.0
 41
2451943.235431667
 42
2455482.078895393
  1

 90
        1
  0
DICTIONARY
  5
1C9F
102
{ACAD_REACTORS
330
C
102
}
330
C
100
AcDbDictionary
281
     1
  3
FILENAME
350
1CA0
  0
ACAD_PROXY_OBJECT
  5
9A10
102
{ACAD_REACTORS
330
C
102
}
330
C
100
AcDbProxyObject
 90
      499
 91
      568
 95
       25
 70
     0
 93
        8
310
05
  0
DICTIONARY
  5
1CA1
102
{ACAD_REACTORS
330
C
102
}
330
C
100
AcDbDictionary
281
     1
  3
ZWKSIZE
350
1CA2
  0
DICTIONARY
  5
9F3B
102
{ACAD_REACTORS
330
9B25
102
}
330
9B25
100
AcDbDictionary
281
     1
  0
DICTIONARY
  5
9B26
102
{ACAD_REACTORS
330
9B25
102
}
330
9B25
100
AcDbDictionary
281
     1
  0
DICTIONARY
  5
9F3A
102
{ACAD_REACTORS
330
9B25
102
}
330
9B25
100
AcDbDictionary
281
     1
1001
ACAD
1000
<All
  0
DICTIONARY
  5
9F39
102
{ACAD_REACTORS
330
9B25
102
}
330
9B25
100
AcDbDictionary
280
     1
281
     1
  0
XRECORD
  5
98ED
102
{ACAD_REACTORS
330
165
102
}
330
165
100
AcDbXrecord
280
     1
340
1F
  0
SORTENTSTABLE
  5
C040
102
{ACAD_REACTORS
330
165
102
}
330
165
100
AcDbSortentsTable
330
1F
331
1196E
  5
1196E
331
1196F
  5
1196F
331
11970
  5
11970
331
11971
  5
11971
331
11972
  5
11972
331
11973
  5
11973
331
11974
  5
11974
331
11975
  5
11975
331
11976
  5
11976
331
11977
  5
11977
331
11978
  5
11978
331
11979
  5
11979
331
1197A
  5
1197A
331
1197B
  5
1197B
331
1197C
  5
1197C
331
1197D
  5
1197D
331
1197E
  5
1197E
331
1197F
  5
1197F
331
11980
  5
11980
331
11981
  5
11981
331
11982
  5
11982
331
11983
  5
11983
331
11984
  5
11984
331
11985
  5
11985
331
11986
  5
11986
331
11987
  5
11987
331
11988
  5
11988
331
11989
  5
11989
331
1198A
  5
1198A
331
1198B
  5
1198B
331
1198C
  5
1198C
331
1198D
  5
1198D
331
1198E
  5
1198E
331
1198F
  5
1198F
331
11990
  5
11990
331
11991
  5
11991
331
11992
  5
11992
331
11993
  5
11993
331
11994
  5
11994
331
11995
  5
11995
331
11996
  5
11996
331
11997
  5
11997
331
11998
  5
11998
331
11999
  5
11999
331
1199A
  5
1199A
331
1199B
  5
1199B
331
1199C
  5
1199C
331
1199D
  5
1199D
331
1199E
  5
1199E
331
1199F
  5
1199F
331
119A0
  5
119A0
331
119A1
  5
119A1
331
119A2
  5
119A2
331
119A3
  5
119A3
331
119A4
  5
119A4
331
119A5
  5
119A5
331
119A6
  5
119A6
331
119A7
  5
119A7
331
119A8
  5
119A8
331
119A9
  5
119A9
331
119AA
  5
119AA
331
119AB
  5
119AB
331
119AC
  5
119AC
331
119AD
  5
119AD
331
119AE
  5
119AE
331
119AF
  5
119AF
331
119B0
  5
119B0
331
119B1
  5
119B1
331
119B2
  5
119B2
331
119B3
  5
119B3
331
119B4
  5
119B4
331
119B5
  5
119B5
331
119B6
  5
119B6
331
119B7
  5
119B7
331
119B8
  5
119B8
331
119B9
  5
119B9
331
119BA
  5
119BA
331
119BB
  5
119BB
331
119BC
  5
119BC
331
119BD
  5
119BD
331
119BE
  5
119BE
331
119BF
  5
119BF
331
119C0
  5
119C0
331
119C1
  5
119C1
331
119C2
  5
119C2
331
119C3
  5
119C3
331
119C4
  5
119C4
331
119C5
  5
119C5
331
119C6
  5
119C6
331
119C7
  5
119C7
331
119C8
  5
119C8
331
119C9
  5
119C9
331
119CA
  5
119CA
331
119CB
  5
119CB
331
119CC
  5
119CC
331
119CD
  5
119CD
331
119CE
  5
119CE
331
119CF
  5
119CF
331
119D0
  5
119D0
331
119D1
  5
119D1
331
119D2
  5
119D2
331
119D3
  5
119D3
331
119D4
  5
119D4
331
119D5
  5
119D5
331
119D6
  5
119D6
331
119D7
  5
119D7
331
119D8
  5
119D8
331
119D9
  5
119D9
331
119DA
  5
119DA
331
119DB
  5
119DB
331
119DC
  5
119DC
331
119DD
  5
119DD
331
119DE
  5
119DE
331
119DF
  5
119DF
331
119E0
  5
119E0
331
119E1
  5
119E1
331
119E2
  5
119E2
331
119E3
  5
119E3
331
119E4
  5
119E4
331
119E5
  5
119E5
331
119E6
  5
119E6
331
119E7
  5
119E7
331
119E8
  5
119E8
331
119E9
  5
119E9
331
119EA
  5
119EA
331
119EB
  5
119EB
331
119EC
  5
119EC
331
119ED
  5
119ED
331
119EE
  5
119EE
331
119EF
  5
119EF
331
119F0
  5
119F0
331
119F1
  5
119F1
331
119F2
  5
119F2
331
119F3
  5
119F3
331
119F4
  5
119F4
331
119F5
  5
119F5
331
119F6
  5
119F6
331
119F7
  5
119F7
331
119F8
  5
119F8
331
119F9
  5
119F9
331
119FA
  5
119FA
331
119FB
  5
119FB
331
119FC
  5
119FC
331
119FD
  5
119FD
331
119FE
  5
119FE
331
119FF
  5
119FF
331
11A00
  5
11A00
331
11A01
  5
11A01
331
11A02
  5
11A02
331
11A03
  5
11A03
331
11A04
  5
11A04
331
11A05
  5
11A05
331
11A06
  5
11A06
331
11A07
  5
11A07
331
11A08
  5
11A08
331
11A09
  5
11A09
331
11A0A
  5
11A0A
331
11A1E
  5
11A1E
331
11A1F
  5
11A1F
331
11A20
  5
11A20
331
11A21
  5
11A21
331
11A22
  5
11A22
331
11A23
  5
11A23
331
11A24
  5
11A24
331
11A25
  5
11A25
331
11A26
  5
11A26
331
11A27
  5
11A27
331
11A28
  5
11A28
331
11A29
  5
11A29
331
11A2A
  5
11A2A
331
11A2B
  5
11A2B
331
11A2C
  5
11A2C
331
11A2D
  5
11A2D
331
11A30
  5
11A30
331
11A31
  5
11A31
331
11A32
  5
11A32
331
11A33
  5
11A33
331
11A34
  5
11A34
331
11A35
  5
11A35
331
11A36
  5
11A36
331
11A37
  5
11A37
331
11A38
  5
11A38
331
11A39
  5
11A39
331
11A3A
  5
11A3A
331
11A3B
  5
11A3B
331
11A3C
  5
11A3C
331
11A3D
  5
11A3D
331
11A3E
  5
11A3E
331
11A3F
  5
11A3F
331
11A40
  5
11A40
331
11A41
  5
11A41
331
11A42
  5
11A42
331
11A43
  5
11A43
331
11A44
  5
11A44
331
11A45
  5
11A45
331
11A46
  5
11A46
331
11A47
  5
11A47
331
11A48
  5
11A48
331
11A49
  5
11A49
331
11A4A
  5
11A4A
331
11A4B
  5
11A4B
331
11A4C
  5
11A4C
331
11A4D
  5
11A4D
331
11A4E
  5
11A4E
331
11A4F
  5
11A4F
331
11A50
  5
11A50
331
11A51
  5
11A51
331
11A52
  5
11A52
331
11A53
  5
11A53
331
11A54
  5
11A54
331
11A55
  5
11A55
331
11A56
  5
11A56
331
11A57
  5
11A57
331
11A58
  5
11A58
331
11A59
  5
11A59
331
11A5A
  5
11A5A
331
11A5B
  5
11A5B
331
11A5C
  5
11A5C
331
11A5D
  5
11A5D
331
11A5E
  5
11A5E
331
11A5F
  5
11A5F
331
11A60
  5
11A60
331
11A61
  5
11A61
331
11A62
  5
11A62
331
11A63
  5
11A63
331
11A65
  5
11A65
331
11A67
  5
11A67
331
11A68
  5
11A68
331
11A69
  5
11A69
331
11A6A
  5
11A6A
331
11A6B
  5
11A6B
331
11A6C
  5
11A6C
331
11A6D
  5
11A6D
331
11A6E
  5
11A6E
331
11A6F
  5
11A6F
331
11A70
  5
11A70
331
11A71
  5
11A71
331
11A72
  5
11A72
331
11A73
  5
11A73
331
11A74
  5
11A74
331
11A75
  5
11A75
331
11A76
  5
11A76
331
11A77
  5
11A77
331
11A78
  5
11A78
331
11A79
  5
11A79
331
11A7A
  5
11A7A
331
11A7B
  5
11A7B
331
11A7C
  5
11A7C
331
11A7D
  5
11A7D
331
11A7E
  5
11A7E
331
11A7F
  5
11A7F
331
11A80
  5
11A80
331
11A81
  5
11A81
331
11A82
  5
11A82
331
11A83
  5
11A83
331
11A84
  5
11A84
331
11A85
  5
11A85
331
11A86
  5
11A86
331
11A87
  5
11A87
331
11A88
  5
11A88
331
11A89
  5
11A89
331
11A8A
  5
11A8A
331
11A8B
  5
11A8B
331
11A8C
  5
11A8C
331
11A8D
  5
11A8D
331
11A8E
  5
11A8E
331
11A8F
  5
11A8F
331
11A90
  5
11A90
331
11A91
  5
11A91
331
11A92
  5
11A92
331
11A93
  5
11A93
331
11A94
  5
11A94
331
11A95
  5
11A95
331
11A96
  5
11A96
331
11A97
  5
11A97
331
11A98
  5
11A98
331
11A99
  5
11A99
331
11A9A
  5
11A9A
331
11A9B
  5
11A9B
331
11A9C
  5
11A9C
331
11A9D
  5
11A9D
331
11A9E
  5
11A9E
331
11A9F
  5
11A9F
331
11AA0
  5
11AA0
331
11AA1
  5
11AA1
331
11AA2
  5
11AA2
331
11AA3
  5
11AA3
331
11AA4
  5
11AA4
331
11AA5
  5
11AA5
331
11AA6
  5
11AA6
331
11AA7
  5
11AA7
331
11AA8
  5
11AA8
331
11AA9
  5
11AA9
331
11AAA
  5
11AAA
331
11AAB
  5
11AAB
331
11AAC
  5
11AAC
331
11B5B
  5
11B5B
331
11B5C
  5
11B5C
331
11B5D
  5
11B5D
331
11B5E
  5
11B5E
331
11B63
  5
11B63
331
11B64
  5
11B64
331
11B65
  5
11B65
331
11B66
  5
11B66
331
11B67
  5
11B67
331
11B68
  5
11B68
331
11B6F
  5
11B6F
331
11BDE
  5
11BDE
331
11BDF
  5
11BDF
331
11BE0
  5
11BE0
331
11BE1
  5
11BE1
331
11BF1
  5
11BF1
331
11BF2
  5
11BF2
331
11BF5
  5
11BF5
331
11BF6
  5
11BF6
331
11BF9
  5
11BF9
331
11BFA
  5
11BFA
331
11C00
  5
11C00
331
11C01
  5
11C01
331
1259C
  5
1259C
331
1259D
  5
1259D
331
1259E
  5
1259E
331
1259F
  5
1259F
331
125A0
  5
125A0
331
125A1
  5
125A1
331
125A2
  5
125A2
331
125A3
  5
125A3
331
125A4
  5
125A4
331
125A5
  5
125A5
331
125A6
  5
125A6
331
125A7
  5
125A7
331
125A8
  5
125A8
331
125A9
  5
125A9
331
125AB
  5
125AB
331
125AC
  5
125AC
331
125AD
  5
125AD
331
125AE
  5
125AE
331
125AF
  5
125AF
331
125B0
  5
125B0
331
125B1
  5
125B1
331
125B2
  5
125B2
331
125B3
  5
125B3
331
125B4
  5
125B4
331
125B5
  5
125B5
331
125B6
  5
125B6
331
125B7
  5
125B7
331
125B8
  5
125B8
331
125B9
  5
125B9
331
125BA
  5
125BA
331
125BB
  5
125BB
331
125BC
  5
125BC
331
1261D
  5
12621
  0
XRECORD
  5
98EC
102
{ACAD_REACTORS
330
264F
102
}
330
264F
100
AcDbXrecord
280
     1
340
1B
  0
XRECORD
  5
98EE
102
{ACAD_REACTORS
330
2651
102
}
330
2651
100
AcDbXrecord
280
     1
340
23
  0
LAYOUT
  5
22
102
{ACAD_REACTORS
330
1A
102
}
330
1A
100
AcDbPlotSettings
  1

  2
SII LP-2150 (D-SCAN C2)
  4
User120
  6
AM_VIEW1
 40
3.174999952316284
 41
3.174999952316284
 42
3.17498779296875
 43
3.17498779296875
 44
296.9259948730469
 45
419.9889831542969
 46
0.0
 47
0.0
 48
0.0
 49
0.0
140
420.0
141
297.0
142
1.0
143
1.022107788374329
 70
 11952
 72
     1
 73
     1
 74
     4
  7
sei_cad.ctb
 75
     0
147
0.9783703943695685
148
0.0
149
0.0
100
AcDbLayout
  1
Model
 70
     1
 71
     0
 10
0.0
 20
0.0
 11
12.0
 21
9.0
 12
0.0
 22
0.0
 32
0.0
 14
0.0
 24
0.0
 34
0.0
 15
0.0
 25
0.0
 35
0.0
146
0.0
 13
0.0
 23
0.0
 33
0.0
 16
1.0
 26
0.0
 36
0.0
 17
0.0
 27
1.0
 37
0.0
 76
     0
330
1F
1001
ACAD_PSEXT
1000
SII LP-2150 (D-SCAN C2)
1000
SII LP-2150 (D-SCAN C2)
1000
133.153.16.130#3000
1000

1070
     0
  0
LAYOUT
  5
1E
102
{ACAD_REACTORS
330
1A
102
}
330
1A
100
AcDbPlotSettings
  1

  2
Canon LASER SHOT LBP-2030
  4

  6

 40
0.0
 41
0.0
 42
0.0
 43
0.0
 44
0.0
 45
0.0
 46
0.0
 47
0.0
 48
0.0
 49
0.0
140
0.0
141
0.0
142
1.0
143
1.0
 70
   688
 72
     0
 73
     0
 74
     5
  7
sei_cad.ctb
 75
    16
147
1.0
148
0.0
149
0.0
100
AcDbLayout
  1
ﾚｲｱｳﾄ1
 70
     1
 71
     1
 10
0.0
 20
0.0
 11
420.0
 21
297.0
 12
0.0
 22
0.0
 32
0.0
 14
1.000000000000000E+20
 24
1.000000000000000E+20
 34
1.000000000000000E+20
 15
-1.000000000000000E+20
 25
-1.000000000000000E+20
 35
-1.000000000000000E+20
146
0.0
 13
0.0
 23
0.0
 33
0.0
 16
1.0
 26
0.0
 36
0.0
 17
0.0
 27
1.0
 37
0.0
 76
     0
330
1B
  0
LAYOUT
  5
26
102
{ACAD_REACTORS
330
1A
102
}
330
1A
100
AcDbPlotSettings
  1

  2
Canon LASER SHOT LBP-2030
  4

  6

 40
0.0
 41
0.0
 42
0.0
 43
0.0
 44
0.0
 45
0.0
 46
0.0
 47
0.0
 48
0.0
 49
0.0
140
0.0
141
0.0
142
1.0
143
1.0
 70
   688
 72
     0
 73
     0
 74
     5
  7
sei_cad.ctb
 75
    16
147
1.0
148
0.0
149
0.0
100
AcDbLayout
  1
ﾚｲｱｳﾄ2
 70
     1
 71
     2
 10
0.0
 20
0.0
 11
12.0
 21
9.0
 12
0.0
 22
0.0
 32
0.0
 14
0.0
 24
0.0
 34
0.0
 15
0.0
 25
0.0
 35
0.0
146
0.0
 13
0.0
 23
0.0
 33
0.0
 16
1.0
 26
0.0
 36
0.0
 17
0.0
 27
1.0
 37
0.0
 76
     0
330
23
  0
MLINESTYLE
  5
18
102
{ACAD_REACTORS
330
17
102
}
330
17
100
AcDbMlineStyle
  2
STANDARD
 70
     0
  3

 62
   256
 51
90.0
 52
90.0
 71
     2
 49
0.5
 62
   256
  6
BYLAYER
 49
-0.5
 62
   256
  6
BYLAYER
  0
ACDBPLACEHOLDER
  5
F
102
{ACAD_REACTORS
330
E
102
}
330
E
  0
TABLESTYLE
  5
99D7
102
{ACAD_REACTORS
330
99D6
102
}
330
99D6
100
AcDbTableStyle
  3
Standard
 70
     0
 71
     8
 40
1.5
 41
1.5
280
     0
281
     0
  7
STANDARD
140
4.5
170
     2
 62
     0
 63
     7
283
     0
274
    -2
284
     1
 64
     0
275
    -2
285
     1
 65
     0
276
    -2
286
     1
 66
     0
277
    -2
287
     1
 67
     0
278
    -2
288
     1
 68
     0
279
    -2
289
     1
 69
     0
  7
STANDARD
140
6.0
170
     5
 62
     0
 63
     7
283
     0
274
    -2
284
     1
 64
     0
275
    -2
285
     1
 65
     0
276
    -2
286
     1
 66
     0
277
    -2
287
     1
 67
     0
278
    -2
288
     1
 68
     0
279
    -2
289
     1
 69
     0
  7
STANDARD
140
4.5
170
     5
 62
     0
 63
     7
283
     0
274
    -2
284
     1
 64
     0
275
    -2
285
     1
 65
     0
276
    -2
286
     1
 66
     0
277
    -2
287
     1
 67
     0
278
    -2
288
     1
 68
     0
279
    -2
289
     1
 69
     0
  0
XRECORD
  5
12DD6
102
{ACAD_REACTORS
330
12DD5
102
}
330
12DD5
100
AcDbXrecord
280
     1
340
99D5
  0
XRECORD
  5
12DD7
102
{ACAD_REACTORS
330
12DD5
102
}
330
12DD5
100
AcDbXrecord
280
     1
340
99D4
  0
DICTIONARYVAR
  5
9A53
102
{ACAD_REACTORS
330
30
102
}
330
30
100
DictionaryVariables
280
     0
  1
STANDARD
  0
DICTIONARYVAR
  5
12DD4
102
{ACAD_REACTORS
330
30
102
}
330
30
100
DictionaryVariables
280
     0
  1
0
  0
DICTIONARYVAR
  5
12DD3
102
{ACAD_REACTORS
330
30
102
}
330
30
100
DictionaryVariables
280
     0
  1
1
  0
ACAD_PROXY_OBJECT
  5
99B0
102
{ACAD_REACTORS
330
4D
102
}
330
4D
100
AcDbProxyObject
 90
      499
 91
      520
 95
       25
 70
     0
 93
      118
310
405010040CA904C415CD5B075DD208
350
99B1
 94
        0
  0
DICTIONARY
  5
17E
102
{ACAD_REACTORS
330
4D
102
}
330
4D
100
AcDbDictionary
281
     1
  3
ISO
350
9A35
  3
JIS
350
9CBB
  0
XRECORD
  5
9A47
102
{ACAD_REACTORS
330
4D
102
}
330
4D
100
AcDbXrecord
280
     1
 90
-1023410169
  0
ACAD_PROXY_OBJECT
  5
99A4
330
99A1
100
AcDbProxyObject
 90
      499
 91
      508
 95
       25
 70
     0
 93
      156
310
00010143D050D351505391D5531054925390D490
330
99A1
 94
        0
  0
ACAD_PROXY_OBJECT
  5
99A5
330
99A1
100
AcDbProxyObject
 90
      499
 91
      508
 95
       25
 70
     0
 93
      148
310
000101439050D351531253915054925390D490
330
99A1
 94
        0
  0
ACAD_PROXY_OBJECT
  5
99A6
330
99A1
100
AcDbProxyObject
 90
      499
 91
      509
 95
       25
 70
     0
 93
      156
310
000101439050D35154D6535093D314D256915080
330
99A1
 94
        0
  0
ACAD_PROXY_OBJECT
  5
99A8
330
99A1
100
AcDbProxyObject
 90
      499
 91
      511
 95
       25
 70
     0
 93
       88
310
000101411093D34C402B00
330
99A1
330
0
330
0
 94
        0
  0
ACAD_PROXY_OBJECT
  5
99E8
330
99A1
100
AcDbProxyObject
 90
      499
 91
      561
 95
       25
 70
     0
 93
      358
310
0001014124FEA55D00507392E322E302E32014124FEA55D00507392E322E302E3240501000041505391D311658
330
99A1
330
99E9
330
99EF
 94
        0
  0
ACAD_PROXY_OBJECT
  5
99E9
330
99A1
100
AcDbProxyObject
 90
      499
 91
      562
 95
       25
 70
     0
 93
       56
310
000190240E0000
330
99A1
330
99EA
330
99EC
 94
        0
  0
ACAD_PROXY_OBJECT
  5
99EA
330
99A1
100
AcDbProxyObject
 90
      499
 91
      563
 95
       25
 70
     0
 93
       48
310
0001AA000000
330
99A1
330
1E
330
99EB
330
0
 94
        0
  0
ACAD_PROXY_OBJECT
  5
99EB
330
99A1
100
AcDbProxyObject
 90
      499
 91
      564
 95
       25
 70
     0
 93
       28
310
0001AAA0
330
99A1
 94
        0
  0
ACAD_PROXY_OBJECT
  5
99EC
330
99A1
100
AcDbProxyObject
 90
      499
 91
      563
 95
       25
 70
     0
 93
       48
310
0001AA000000
330
99A1
330
26
330
99ED
330
0
 94
        0
  0
ACAD_PROXY_OBJECT
  5
99ED
330
99A1
100
AcDbProxyObject
 90
      499
 91
      564
 95
       25
 70
     0
 93
       28
310
0001AAA0
330
99A1
 94
        0
  0
ACAD_PROXY_OBJECT
  5
99F0
330
99A1
100
AcDbProxyObject
 90
      499
 91
      509
 95
       25
 70
     0
 93
      108
310
000101421053521310D05310D010
330
99A1
 94
        0
  0
ACAD_PROXY_OBJECT
  5
99F1
330
99A1
100
AcDbProxyObject
 90
      499
 91
      509
 95
       25
 70
     0
 93
      124
310
00010142905354915554D15112535010
330
99A1
 94
        0
  0
ACAD_PROXY_OBJECT
  5
99F2
330
99A1
100
AcDbProxyObject
 90
      499
 91
      509
 95
       25
 70
     0
 93
      132
310
00010143105354D150D51253D391125360
330
99A1
 94
        0
  0
ACAD_PROXY_OBJECT
  5
99F3
330
99A1
100
AcDbProxyObject
 90
      499
 91
      509
 95
       25
 70
     0
 93
      124
310
00010142905355941093D49111549010
330
99A1
 94
        0
  0
ACAD_PROXY_OBJECT
  5
99F4
330
99A1
100
AcDbProxyObject
 90
      499
 91
      509
 95
       25
 70
     0
 93
      116
310
0001014290535115D1D0D3D313D4A0
330
99A1
 94
        0
  0
ACAD_PROXY_OBJECT
  5
99F5
330
99A1
100
AcDbProxyObject
 90
      499
 91
      509
 95
       25
 70
     0
 93
      148
310
00010143505355925155D49151949154D21010
330
99A1
 94
        0
  0
ACAD_PROXY_OBJECT
  5
99F6
330
99A1
100
AcDbProxyObject
 90
      499
 91
      509
 95
       25
 70
     0
 93
      172
310
00010144105350539393D51154149154D15495915010
330
99A1
 94
        0
  0
ACAD_PROXY_OBJECT
  5
99F7
330
99A1
100
AcDbProxyObject
 90
      499
 91
      509
 95
       25
 70
     0
 93
      172
310
00010144105350555513D11253505494905391D15010
330
99A1
 94
        0
  0
ACAD_PROXY_OBJECT
  5
99F8
330
99A1
100
AcDbProxyObject
 90
      499
 91
      509
 95
       25
 70
     0
 93
      124
310
00010142D05351561514915191125360
330
99A1
 94
        0
  0
ACAD_PROXY_OBJECT
  5
99F9
330
99A1
100
AcDbProxyObject
 90
      499
 91
      509
 95
       25
 70
     0
 93
      132
310
00010142D05355105410539393D5115010
330
99A1
 94
        0
  0
ACAD_PROXY_OBJECT
  5
99FA
330
99A1
100
AcDbProxyObject
 90
      499
 91
      509
 95
       25
 70
     0
 93
      108
310
00010142105350555513D0D31010
330
99A1
 94
        0
  0
ACAD_PROXY_OBJECT
  5
99FB
330
99A1
100
AcDbProxyObject
 90
      499
 91
      509
 95
       25
 70
     0
 93
      108
310
00010142105350D3119150551050
330
99A1
 94
        0
  0
ACAD_PROXY_OBJECT
  5
99FC
330
99A1
100
AcDbProxyObject
 90
      499
 91
      509
 95
       25
 70
     0
 93
      108
310
00010142105350D315925155D3F0
330
99A1
 94
        0
  0
ACAD_PROXY_OBJECT
  5
99FD
330
99A1
100
AcDbProxyObject
 90
      499
 91
      509
 95
       25
 70
     0
 93
      148
310
0001014350535212511156915493D112535010
330
99A1
 94
        0
  0
ACAD_PROXY_OBJECT
  5
99FE
330
99A1
100
AcDbProxyObject
 90
      499
 91
      509
 95
       25
 70
     0
 93
      124
310
00010142905352105510D21254D3D010
330
99A1
 94
        0
  0
ACAD_PROXY_OBJECT
  5
99FF
330
99A1
100
AcDbProxyObject
 90
      499
 91
      509
 95
       25
 70
     0
 93
      148
310
00010143905354D25391D31152105513105660
330
99A1
 94
        0
  0
ACAD_PROXY_OBJECT
  5
9A00
330
99A1
100
AcDbProxyObject
 90
      499
 91
      509
 95
       25
 70
     0
 93
      124
310
00010142D0535115D1D193111254D420
330
99A1
 94
        0
  0
ACAD_PROXY_OBJECT
  5
9A01
330
99A1
100
AcDbProxyObject
 90
      499
 91
      509
 95
       25
 70
     0
 93
      100
310
00010142105350555513D213A0
330
99A1
 94
        0
  0
ACAD_PROXY_OBJECT
  5
9A02
330
99A1
100
AcDbProxyObject
 90
      499
 91
      509
 95
       25
 70
     0
 93
      116
310
000101425053521390D3D553951010
330
99A1
 94
        0
  0
ACAD_PROXY_OBJECT
  5
9A03
330
99A1
100
AcDbProxyObject
 90
      499
 91
      509
 95
       25
 70
     0
 93
      108
310
0001014210535213941493D29010
330
99A1
 94
        0
  0
ACAD_PROXY_OBJECT
  5
9A04
330
99A1
100
AcDbProxyObject
 90
      499
 91
      509
 95
       25
 70
     0
 93
      108
310
0001014210535213951654115070
330
99A1
 94
        0
  0
ACAD_PROXY_OBJECT
  5
9A05
330
99A1
100
AcDbProxyObject
 90
      499
 91
      509
 95
       25
 70
     0
 93
      108
310
000101421053521395925155D0F0
330
99A1
 94
        0
  0
ACAD_PROXY_OBJECT
  5
9A06
330
99A1
100
AcDbProxyObject
 90
      499
 91
      509
 95
       25
 70
     0
 93
      140
310
00010143505354D150D51253D390D3D41660
330
99A1
 94
        0
  0
ACAD_PROXY_OBJECT
  5
9A07
330
99A1
100
AcDbProxyObject
 90
      499
 91
      509
 95
       25
 70
     0
 93
      108
310
00010142105350D3141493D29030
330
99A1
 94
        0
  0
ACAD_PROXY_OBJECT
  5
9A08
330
99A1
100
AcDbProxyObject
 90
      499
 91
      508
 95
       25
 70
     0
 93
      212
310
00010143905350555513D2105510D21493D500000000000002E400
330
99A1
 94
        0
  0
ACAD_PROXY_OBJECT
  5
9A09
330
99A1
100
AcDbProxyObject
 90
      499
 91
      509
 95
       25
 70
     0
 93
      156
310
00010143905350555513D2105510D21111551010
330
99A1
 94
        0
  0
ACAD_PROXY_OBJECT
  5
9A12
330
99A1
100
AcDbProxyObject
 90
      499
 91
      570
 95
       25
 70
     0
 93
      698
310
0001000000009AA6A9AA4051E467269204A756E2032332030373A34373A333020323030362028555443290141CE4B8C8B8C0B8C80518547565204F63742031322031303A35333A333620323031300141CE4B8C8B8C0B8C80
330
99A1
330
9A13
330
9A14
330
9A16
330
0
 94
        0
  0
ACAD_PROXY_OBJECT
  5
9A13
330
99A1
100
AcDbProxyObject
 90
      499
 91
      571
 95
       25
 70
     0
 93
       70
310
0001AAA80820000000
330
99A1
330
9A13
330
9A13
 94
        0
  0
ACAD_PROXY_OBJECT
  5
9A14
330
99A1
100
AcDbProxyObject
 90
      499
 91
      572
 95
       25
 70
     0
 93
       48
310
000100000000
330
99A1
330
0
330
9A15
330
0
330
0
 94
        0
  0
ACAD_PROXY_OBJECT
  5
9A15
330
99A1
100
AcDbProxyObject
 90
      499
 91
      573
 95
       25
 70
     0
 93
       40
310
000100AAAA
330
99A1
330
0
 94
        0
  0
ACAD_PROXY_OBJECT
  5
9A1B
330
99A1
100
AcDbProxyObject
 90
      499
 91
      522
 95
       25
 70
     0
 93
      180
310
00010143105050D3D35411119390535140504434F4D500
330
99A1
 94
        0
  0
ACAD_PROXY_OBJECT
  5
9A1C
330
99A1
100
AcDbProxyObject
 90
      499
 91
      522
 95
       25
 70
     0
 93
      212
310
0001014390505193D311115491119390535140506466F6C6465720
330
99A1
 94
        0
  0
ACAD_PROXY_OBJECT
  5
9A1D
330
99A1
100
AcDbProxyObject
 90
      499
 91
      522
 95
       25
 70
     0
 93
      180
310
00010143105050539393D1119390535140504284156290
330
99A1
 94
        0
  0
ACAD_PROXY_OBJECT
  5
9A1E
330
99A1
100
AcDbProxyObject
 90
      499
 91
      522
 95
       25
 70
     0
 93
      436
310
00010143905050D3D35415925155D31254D50052295BD96CA0A90B396CA0A894591A496CA0A8DB691A496CA0A89BA96CA0A95E28F95310
330
99A1
 94
        0
  0
ACAD_PROXY_OBJECT
  5
9A23
330
99A1
100
AcDbProxyObject
 90
      499
 91
      578
 95
       25
 70
     0
 93
       32
310
00010000
330
99A1
340
9A20
330
9A25
330
9A20
 94
        0
  0
ACAD_PROXY_OBJECT
  5
9A24
330
99A1
100
AcDbProxyObject
 90
      499
 91
      579
 95
       25
 70
     0
 93
       18
310
000180
330
99A1
 94
        0
  0
ACAD_PROXY_OBJECT
  5
9A25
330
99A1
100
AcDbProxyObject
 90
      499
 91
      580
 95
       25
 70
     0
 93
      226
310
00010144520D8CD04B55D20B54D59590D38B530C4D9050055401550000
330
99A1
330
9A23
330
9A24
 94
        0
  0
ACAD_PROXY_OBJECT
  5
9A26
330
99A1
100
AcDbProxyObject
 90
      499
 91
      581
 95
       25
 70
     0
 93
      178
310
000100AAAAAAB54A018816C84011E71A8B242D3714CA40
330
99A1
330
9A25
 94
        0
  0
ACAD_PROXY_OBJECT
  5
9A27
330
99A1
100
AcDbProxyObject
 90
      499
 91
      582
 95
       25
 70
     0
 93
      108
310
000190140A000000000000AAAAA0
330
99A1
330
9A28
330
9A28
330
9A28
330
9A28
330
9A28
330
0
 94
        0
  0
ACAD_PROXY_OBJECT
  5
9A28
330
99A1
100
AcDbProxyObject
 90
      499
 91
      583
 95
       25
 70
     0
 93
       51
310
00010000AAAA80
330
99A1
330
9A27
330
9A25
 94
        0
  0
ACAD_PROXY_OBJECT
  5
9A2B
330
99A1
100
AcDbProxyObject
 90
      499
 91
      522
 95
       25
 70
     0
 93
      140
310
00010142105350D55494D511005034A49530
330
99A1
 94
        0
  0
DICTIONARY
  5
40
102
{ACAD_REACTORS
330
3F
102
}
330
3F
100
AcDbDictionary
281
     1
  3
DWGSETTINGS
350
999E
  3
Shaft
350
9F38
  3
TRANSSETTINGS
350
999F
  0
ACAD_PROXY_OBJECT
  5
99B4
102
{ACAD_REACTORS
330
3F
102
}
330
3F
100
AcDbProxyObject
 90
      499
 91
      519
 95
       25
 70
     0
 93
    17944
310
41502491013041105357CC201C00030C0132441013141105357CC603800030C0132441013241105357CCA01400030C0132441013341105357CCE01800030C01199013441105357CD200C00030C01199013541105357CD600C00030C01199013641105357CDA00800030C01239013741105357CDE01000030C0119901384110
310
5357CE200400030C01199013941105357CE63F400030C0241102324141505357CC4C201C00030C0132902344141505357CC4C600C00030C0119902495041505357CC4CA01C00030C013240902304E41505357CC13A01C00030C0132902314E41505357CC53A03800030C0132902324E41505357CC93A01400030C013290233
310
4E41505357CCD3A01800030C0119902344E41505357CD13A00C00030C0119902354E41505357CD53A00C00030C0119902364E41505357CD93A00800030C0123902374E41505357CDD3A01000030C0119902384E41505357CE13A00400030C0119902394E41505357CE53A3F400030C024110332414E41905357CC4C13A01C0
310
0030C013290334414E41905357CC4C53A00C00030C011990349504E41905357CC4C93A01C00030C0132409044B4C494E41505357D0D3200400030C011942504494E464F42105357D410549151A01000030C011942D055241484D3541905357D093D4A01C00030C0132425045649455742105357D5925155D4E00400030C011
310
942D06424548494E4441905357D25395A3F400030C0243505545241494C41505357D514A00C00030C01194250348494441905357D21251201C00030C01194250356495341905357D59254E01C00030C01324250650415244494D42505357D41054911253600C00030C01194250652454644494D42505357D49151911253601
310
000030C0119425534110921395901398000000C0003FFFFFFFE415092139594D06424548494E448000000C0003FFFFFFFE411093D48C9055241484D358010000C300466411093D48CD055241484D358020000C30048E411093D48D5055241484D358000000C0003FFFFFFFE4110D0530C901348000000C0003FFFFFFFE4110
310
D0530CD01348020000C30048E4110D0530D501348070000C3004CA4110D0530DD013481E0000C30051A4110D15393901378000000C0003FFFFFFFE4110D15395D01378000000C0003FFFFFFFE4110D312539044B4C494E8000000C0003FFFFFFFE4110D3D38C501308000000C0003FFFFFFFD034110D3D38C901318000000C
310
0003FFFFFFFD034110D3D38CD01328000000C0003FFFFFFFD034110D3D38D101328000000C0003FFFFFFFD034111115510501348000000C0003FFFFFFFE4111125051D01358000000C0003FFFFFFFE4111125312501358000000C0003FFFFFFFE411112535410650415244494D8000000C0003FFFFFFFE4111125354906524
310
54644494D8000000C0003FFFFFFFE4111915353901388000000C0003FFFFFFFE415191535413901388030000C3003FFFFFFFE4151915354D410234418000000C0003FFFFFFFE4151915354D510234418030000C300466415191535593901328000000C0003FFFFFFFE415191535595101328030000C3004664112105510D01
310
388000000C0003FFFFFFFD014112125113901338000000C0003FFFFFFFD034112125115D01338000000C0003FFFFFFFD034112131253901348000000C0003FFFFFFFD01411213D0D3901378000000C0003FFFFFFFE411213D0D5D01378000000C0003FFFFFFFE4112539193D04494E464F8000000C0003FFFFFFFE41131150
310
51101358000000C0003FFFFFFFE419397D0921395902394E8000000C0003FFFFFFFE419397D0D3D38C502304E8000000C0003FFFFFFFD03419397D0D3D38C902314E8000000C0003FFFFFFFD03419397D0D3D38CD02324E8000000C0003FFFFFFFD03419397D0D3D38D102324E8000000C0003FFFFFFFD03419397D0D15393
310
902374E8000000C0003FFFFFFFE419397D0D15395D02374E8000000C0003FFFFFFFE419397D1125312502354E8000000C0003FFFFFFFE419397D2105510D02384E8000000C0003FFFFFFFD01419397D2125113902334E8000000C0003FFFFFFFD03419397D2125115D02334E8000000C0003FFFFFFFD03419397D311505110
310
2354E8000000C0003FFFFFFFE419397D391D25410349504E8000000C0003FFFFFFFE419397D412105390334414E8000000C0003FFFFFFFE419397D510D3D3902304E8000000C0003FFFFFFFD03419397D5121312502344E8000000C0003FFFFFFFD01419397D5131153902304E8000000C0003FFFFFFFD03419397D5941312
310
50332414E8000000C0003FFFFFFFE411391D25410249508000000C0003FFFFFFFE411410530C9055241484D358010000C300466411410530CD055241484D358020000C30048E411410530D5055241484D358000000C0003FFFFFFFE411412105390234418000000C0003FFFFFFFE411413D4D3901358000000C0003FFFFFFF
310
E411490D1D3901378000000C0003FFFFFFFE411490D1D5D01378000000C0003FFFFFFFE4114D09492D01348000000C0003FFFFFFFD014114D150D5101348000000C0003FFFFFFFD014114D6508CD01358020000C30048E411354D653501358020000C30048E411510D3D3901308000000C0003FFFFFFFD0341151213125013
310
48000000C0003FFFFFFFD01411512550C9055241484D358010000C300466411512550CD055241484D358020000C30048E411512550D5055241484D358000000C0003FFFFFFFE4115131153901308000000C0003FFFFFFFD03415514905253105545241494C8000000C0003FFFFFFFE4115149312501348000000C0003FFFFF
310
FFD01411516150C501368030000C300466411516150C901368030000C300466411516150CD01368000000C0003FFFFFFFE411516150D501368070000C3004CA411516150DD013681E0000C30051A4115925155D04564945578000000C0003FFFFFFFE41159151121034849448000000C0003FFFFFFFD024115915115903564
310
9538000000C0003FFFFFFFD02411594131250232418000000C0003FFFFFFFE4116925690501348000000C0003FFFFFFFD01AAA00000030401013F90A4393241D3241919415324111940D194092340519479467F6
340
16
340
16
340
16
340
43
340
16
340
16
340
16
340
44
340
16
340
16
340
44
340
45
340
16
340
16
340
16
340
16
340
43
340
16
340
16
340
16
340
44
340
16
340
16
340
44
340
45
340
16
340
46
340
16
340
16
340
16
340
16
340
16
340
43
340
16
340
16
340
16
340
15
340
15
340
15
340
15
340
15
340
15
340
15
340
15
340
15
340
48
340
15
340
15
340
15
340
15
340
15
340
15
340
15
340
15
340
15
340
15
340
15
340
15
340
15
340
16
340
15
340
15
340
15
340
15
340
47
340
15
340
15
340
48
340
15
340
15
340
15
340
15
340
15
340
15
340
15
340
15
340
48
340
15
340
15
340
15
340
47
340
15
340
15
340
15
340
15
340
15
340
15
340
15
340
15
340
15
340
15
340
15
340
15
340
15
340
15
340
48
340
15
340
15
340
15
340
15
340
15
340
15
340
15
340
15
340
15
340
15
340
15
340
15
340
15
340
15
340
15
340
15
340
15
340
15
340
15
340
15
340
15
340
15
340
4B
 94
        0
  0
XRECORD
  5
1CA0
102
{ACAD_REACTORS
330
1C9F
102
}
330
1C9F
100
AcDbXrecord
280
     1
  1
21000845__00___
  0

  0
XRECORD
  5
1CA2
102
{ACAD_REACTORS
330
1CA1
102
}
330
1CA1
100
AcDbXrecord
280
     1
  1
3
  0

  0
ACAD_PROXY_OBJECT
  5
99B1
102
{ACAD_REACTORS
330
99B0
102
}
330
99B0
100
AcDbProxyObject
 90
      499
 91
      521
 95
       25
 70
     0
 93
      157
310
057356C1D77406406AA8FFFFFFFF05DD01009010
330
1F
330
0
330
9A25
 94
        0
  0
ACAD_PROXY_OBJECT
  5
9A35
102
{ACAD_REACTORS
330
17E
102
}
330
17E
100
AcDbProxyObject
 90
      499
 91
      589
 95
       25
 70
     0
 93
     2497
310
5DC0000000000000C408030000C30040D254D3D01640600800030C0200800030C000000000000000C40C88A2085A0B6B23A22B233B2A9BA3220480A1C82C6DAA6EAE4CCA8CAF0E8A6E8C88120284A0B1B6A321A329BA3220480A1A82C6DAAECAD8C8D2DCCEA6E8C8812028420B1B6A4B229BA3220480A1682C6DA88C2E8EAD
310
AA6E8C88120284A0B1B6A127A6A9BA3220480A2082DAC8E888CAE8C2D2D8A6F2DAA6E8C88120288A0B6B23A29B2B1BA34B7B729BCB6A9BA3220480A2282DAC8E886CADCE8CAE498D2DCCAA6E8C88120288A0B6B23A2A343932B0B22634B732A9BA3220480A1682DAC8E89CDEE8CAA6E8C88120285A0B1A0B6B3A630BCA9BA3
310
220480A1682C682DACE88D2DAA6E8C88120288A0B1A0B6B3A437B632A1B430B93A29BA3220480A1A82C682DACEA8D2E8D8CAA6E8C8812032048080
340
9A36
360
9A37
360
9A38
360
9A39
360
9A3A
360
9A3B
360
9A3C
360
9A3D
360
9A3E
360
9A3F
360
9A40
360
9A41
360
9A42
360
9A4D
360
9A4E
360
9A4F
360
9A50
340
0
340
0
 94
        0
  0
ACAD_PROXY_OBJECT
  5
9CBB
102
{ACAD_REACTORS
330
17E
102
}
330
17E
100
AcDbProxyObject
 90
      499
 91
      526
 95
       25
 70
     0
 93
     2379
310
5DC33333333333309408000000C00040D29254D01640600800030C0200800030C003333333333330940C8121E8720B1B6A9BAB9332A32BC3A29BA3220480A1282C6DA8C868CA6E8C88120286A0B1B6ABB2B63234B733A9BA3220480A1082C6DA92C8A6E8C88120285A0B1B6A230BA3AB6A9BA3220480A1282C6DA849E9AA6E
310
8C88120286A0B1A0B6B3AA34BA3632A9BA3220480A2082DAC8E888CAE8C2D2D8A6F2DAA6E8C88120288A0B6B23A29B2B1BA34B7B729BCB6A9BA3220480A2282DAC8E886CADCE8CAE498D2DCCAA6E8C88120288A0B6B23A2A343932B0B22634B732A9BA3220480A1682DAC8E89CDEE8CAA6E8C88120285A0B1A0B6B3A630BCA
310
9BA3220480A1682C682DACE88D2DAA6E8C88120288A0B1A0B6B3A437B632A1B430B93A29BA3220480C812020
340
180
360
9CBC
360
9CBD
360
9CBE
360
9CBF
360
9CC0
360
9CC1
360
9CC2
360
9CC3
360
9CC4
360
9CC5
360
9CC6
360
9CC7
360
9CCD
360
9CCE
360
9CCF
340
0
340
0
 94
        0
  0
ACAD_PROXY_OBJECT
  5
999E
102
{ACAD_REACTORS
330
40
102
}
330
40
100
AcDbProxyObject
 90
      499
 91
      518
 95
       25
 70
     0
 93
     2900
310
4050B44574753455454494E4753A0E8482A68AA6A88882A069492A684A1A0A723A0A92920ACA0A8419983E1A1ABE1B1820C868A9C829C8E82A12686AF87260F862666A8321A2A72224A0A50000000000000122020E868A9C889282A682A106260F86460F8666083A1A2A72224A9AA250000000000000042020C868A9C988A9
310
C94000000000000048808321A2A727A323250000000000000122020E868A9C9E8C8C62940000000000000488083A1A2A727A3231925000000000000012202128698929C82A4A482B282A066268608421A624A722AA2CA820A82AC2624A722A1288AE8EAAA68682988A94283A620A9AA27A12520A829898A19819A109A82968
310
AAC928AAE9FA04832829A1A0A622830020000419491559254D2505404C1055343414C4541503313A314214D510539110549110540D29254D0954494D455354414D504A06D52AF41792B734141D5915494D253D3905414C4D4B8C0C1107B44574753455454494E4753454E447D0
  0
ACAD_PROXY_OBJECT
  5
9F38
102
{ACAD_REACTORS
330
40
102
}
330
40
100
AcDbProxyObject
 90
      499
 91
      518
 95
       25
 70
     0
 93
      199
310
405055368616674220F688AE8EA68AA8A8929C8EA68A9C88FA
  0
ACAD_PROXY_OBJECT
  5
999F
102
{ACAD_REACTORS
330
40
102
}
330
40
100
AcDbProxyObject
 90
      499
 91
      518
 95
       25
 70
     0
 93
      852
310
4050D5452414E5353455454494E4753A2488A482AE929C8EA8A4829CA69882A8929E9C0C00800050D4F524947494E414C4C595F4F4E0600400008529A7AAA921A2A620A723A0A81A52827212AAA0A48AA68AA4AC8A0C0080001107B44574753455454494E4753454E447D0
  0
ACAD_PROXY_OBJECT
  5
9A37
330
9A35
100
AcDbProxyObject
 90
      499
 91
      590
 95
       25
 70
     0
 93
       13
310
5DD8
  0
ACAD_PROXY_OBJECT
  5
9A38
330
9A35
100
AcDbProxyObject
 90
      499
 91
      591
 95
       25
 70
     0
 93
       96
310
5DEA0E80A0280A0280A0280F
  0
ACAD_PROXY_OBJECT
  5
9A39
330
9A35
100
AcDbProxyObject
 90
      499
 91
      592
 95
       25
 70
     0
 93
      272
310
5DD0E4050140501405014050140501405014050140D01405012C0000000000000040
340
9A43
 94
        0
  0
ACAD_PROXY_OBJECT
  5
9A3A
330
9A35
100
AcDbProxyObject
 90
      499
 91
      593
 95
       25
 70
     0
 93
      497
310
5DE8666666666667A67E199999999999E99FD22405014050140501405014050140501405014050140501405014050140501405014050140501405014050100
340
9A44
 94
        0
  0
ACAD_PROXY_OBJECT
  5
9A3B
330
9A35
100
AcDbProxyObject
 90
      499
 91
      594
 95
       25
 70
     0
 93
       10
310
5DC0
  0
ACAD_PROXY_OBJECT
  5
9A3C
330
9A35
100
AcDbProxyObject
 90
      499
 91
      595
 95
       25
 70
     0
 93
      257
310
5DE290EA22A7D90F49F80000000000001081400000000000004204010000618000
340
9A45
340
9A46
 94
        0
  0
ACAD_PROXY_OBJECT
  5
9A3D
330
9A35
100
AcDbProxyObject
 90
      499
 91
      596
 95
       25
 70
     0
 93
    13013
310
5DD0E411255115350141236025B690140501406901000000000000091013347454E545241434F2C4A504E2C302C8D8096DA2C47454E54524154582C25732C2847454E4D53472067656E647767203232322940690120281A8AA2CA0282484A4BE52028120280A0320200000000000012202668E8A9CA8A482869E5894A09C58
310
605921292F94588E8A9CA8A482A8B0584AE658508E8A9C9AA68E40CECADCC8EECE406464665280D202405044E414D454050496BC914F4051C40640A80000000000004E404CD1D15395149050D3CB1294138B0C0B25AF2453CB11D15395149055160B095CCB0A11D1539354D1C819D95B991DD9C80C8C8D8A50192C3D494628
310
4953424C414E4B28504152543A4E414D45292C424C4F434B3A4E414D452C504152543A4E414D452940480A0A888AA686A480A09251B1DBE80A3A80C81D0000000000100A28099A3A2A72A2920A1A7962528271618164946C76F9623A2A72A2920AA2C1612B9961423A2A726A9A39033B2B7323BB39019189B94A0348090142
310
14D51053911054911014122D2E29A50147501904A000000000000125013347454E545241434F2C4A504E2C302C8B4B8A692C47454E54524154582C25732C2847454E4D53472067656E64776720323138294069012028426A0AA22A924A0A62028246EF4BDFA028EA0320B40000000000001CA02668E8A9CA8A482869E5894A
310
09C5860591BBD2F7E588E8A9CA8A482A8B0584AE658508E8A9C9AA68E40CECADCC8EECE406464625280D202405044E4F544540504928D8B4C4051D40641A80000000000003E404CD1D15395149050D3CB1294138B0C0B24A362D30B11D15395149055160B095CCB0A11D1539354D1C819D95B991DD9C80C8C8D4A501240480
310
A0CAC8A9C889EA480A1106F1072706BF02B680A3A80C83D00000000000007C809BA3A2A72A2920A1A79625282716181641BC41C9C1AFC0AD9623A2A72A2920AA2C1612B9961423A2A726A9A39033B2B7323BB39019191A14A0248090141911154D0D48C90141A43825AF880C90147501908A000000000020145013447454E5
310
45241434F2C4A504E2C302C90E096BE20322C47454E54524154582C25732C2847454E4D53472067656E6477672033362940490120284A9AA20A72220A922192028345A5C53490192028EA03213400000000000024A026A8E8A9CA8A482869E5894A09C586059169714D24064588E8A9CA8A482A8B0584AE658508E8A9C9AA6
310
8E40CECADCC8EECE4064646052809202405094D4154455249414C32405068DDE97BF20324051D40642A8713D0AD7A37045404D11D15395149050D3CB1294138B0C0B2377A5EFC80C8B11D15395149055160B095CCB0A11D1539354D1C819D95B991DD9C80D0C0A501240480A089A82A6A680A091D7F2F9480A3A80A0485A06
310
8100000000000007C809923A2A72A2920A1A796252827161816475FCBE51623A2A72A2920AA2C1612B9961423A2A726A9A39033B2B7323BB3901A1914A024809014154149250D150141226FE29A501475014090C409020000000000000F9013247454E545241434F2C4A504E2C302C89BF8A692C47454E54524154582C2573
310
2C2847454E4D53472067656E6477672034332940490120281A224A6A02824850CB202028EA028121A81A040000000000001F202648E8A9CA8A482869E5894A09C58605921432C80588E8A9CA8A482A8B0584AE658508E8A9C9AA68E40CECADCC8EECE406868528092024050E445020000000000000510201C00030C0001018
310
0000000000003E400000000000000F901073D3C4954454D3E4050180000000000003E400000000000000F901073D3C4954454D3E40501800000000000034400000000000000D101073D3C4954454D3E40501800000000000034400000000000000D101073D3C4954454D3E405029010000000000000F9000000000000003E4
310
041CF4F125511534F901418F4F1455164F9014060000000000000F9000000000000003E4041CF4F125511534F9014060000000000000D100000000000000344041CF4F125511534F901901000000000000000F9000000000000003E40A2200000000000008204038000618048220681A048120280C88214844882034852034
310
8452028521485214814000000000000F0BF0000000000003C2FD018020000C3008070000C3003373333333333B0FCCDCCCCCCCCCCEC3F000000000000031012034164050341105901A000000000000062040100006180401000061804008000618008098A02808
340
0
340
0
 94
        0
  0
ACAD_PROXY_OBJECT
  5
9A3E
330
9A35
100
AcDbProxyObject
 90
      499
 91
      597
 95
       25
 70
     0
 93
      898
310
5DC4000000000000144048CF4F11115510525317D3105091530F880A0F11115510525317D05094D4D0D053114F8A51141C9A9999999999B93F26A666666666724FC000000000000E03F400000000000000400000000000000510000000000000024408070000C300000000000000051000
340
16
340
9A36
 94
        0
  0
ACAD_PROXY_OBJECT
  5
9A3F
330
9A35
100
AcDbProxyObject
 90
      499
 91
      598
 95
       25
 70
     0
 93
      823
310
5DC0B00000000000002880959E9E29A2A1AA24A7A72FA620A122A62FA324A929AA1F169E29A2A1AA24A7A72FA620A122A62FA620A9AA1F000000000000048803FFFE01C00030C0088C0380006180000000000000048800000000000000A2000000000000002880
340
652
340
9A36
 94
        0
  0
ACAD_PROXY_OBJECT
  5
9A40
330
9A35
100
AcDbProxyObject
 90
      499
 91
      599
 95
       25
 70
     0
 93
      152
310
5DE80000000000000840A3D0A5723F0BD1F200
  0
ACAD_PROXY_OBJECT
  5
9A41
330
9A35
100
AcDbProxyObject
 90
      499
 91
      600
 95
       25
 70
     0
 93
       14
310
5DE0
340
0
 94
        0
  0
ACAD_PROXY_OBJECT
  5
9A42
330
9A35
100
AcDbProxyObject
 90
      499
 91
      601
 95
       25
 70
     0
 93
     8619
310
5DD084050BA4050AA405024050E836583938376838C815B836720314043A013D2525633C486F6C653A63746469613E2078203C486F6C653A637464657074683E20555C503C696628657175616C28486F6C653A7461707065642C223022292C22252563222C486F6C653A6E6F6D696E616C202220782022293E3C6966286571
310
75616C28486F6C653A7461707065642C223022292C486F6C653A6469612C486F6C653A706974636864657363293E3C696628657175616C28486F6C653A7461707065642C223122292C22207820222C2222293E3C696628657175616C28486F6C653A7461707065642C223122292C486F6C653A74617064657074682C222229
310
3E203C696628657175616C28486F6C653A7465726D696E6174696F6E2C223022292C22202F20222C2222293E3C696628657175616C28486F6C653A7465726D696E6174696F6E2C223022292C486F6C653A64657074682C2222293E406901405034050E836583938376838C815B836720314043B013D2525633C486F6C653A6
310
3746469613E2078203C486F6C653A6374616E676C653E2525645C503C696628657175616C28486F6C653A7461707065642C223022292C22252563222C486F6C653A6E6F6D696E616C202220782022293E3C696628657175616C28486F6C653A7461707065642C223022292C486F6C653A6469612C486F6C653A70697463686
310
4657363293E3C696628657175616C28486F6C653A7461707065642C223122292C22207820222C2222293E3C696628657175616C28486F6C653A7461707065642C223122292C486F6C653A74617064657074682C2222293E203C696628657175616C28486F6C653A7465726D696E6174696F6E2C223022292C22202F20222C2
310
222293E3C696628657175616C28486F6C653A7465726D696E6174696F6E2C223022292C486F6C653A64657074682C2222293E406901405014050E836583938376838C815B8367203140416013D3C696628657175616C28486F6C653A7461707065642C223022292C22252563222C486F6C653A6E6F6D696E616C2022207820
310
22293E3C696628657175616C28486F6C653A7461707065642C223022292C486F6C653A6469612C486F6C653A706974636864657363293E3C696628657175616C28486F6C653A7461707065642C223122292C22207820222C2222293E3C696628657175616C28486F6C653A7461707065642C223122292C486F6C653A746170
310
64657074682C2222293E203C696628657175616C28486F6C653A7465726D696E6174696F6E2C223022292C22202F20222C2222293E3C696628657175616C28486F6C653A7465726D696E6174696F6E2C223022292C486F6C653A64657074682C2222293E4069014051E4090E836583938376838C815B83672032405173D3C5
310
35444503A444553433E203C535444503A5354443E40690E836583938376838C815B836720314050C3D3C535444503A444553433E40690240515AAABBA120
360
9A4B
330
9A4B
360
9A4C
330
9A4C
360
9A4A
330
9A4A
360
9A49
360
9A48
330
9A49
330
9A48
 94
        0
  0
ACAD_PROXY_OBJECT
  5
9A4D
330
9A35
100
AcDbProxyObject
 90
      499
 91
      542
 95
       25
 70
     0
 93
    23182
310
5DD02491013041105357CC201C00030C0132441013141105357CC603800030C0132441013241105357CCA01400030C0132441013341105357CCE01800030C01199013441105357CD200C00030C01199013541105357CD600C00030C01199013641105357CDA00800030C01239013741105357CDE01000030C0119901384110
310
5357CE200400030C01199013941105357CE63F400030C0241102324141505357CC4C201C00030C0132902344141505357CC4C600C00030C0119902495041505357CC4CA01C00030C013240902304E41505357CC13A01C00030C0132902314E41505357CC53A03800030C0132902324E41505357CC93A01400030C013290233
310
4E41505357CCD3A01800030C0119902344E41505357CD13A00C00030C0119902354E41505357CD53A00C00030C0119902364E41505357CD93A00800030C0123902374E41505357CDD3A01000030C0119902384E41505357CE13A00400030C0119902394E41505357CE53A3F400030C024110332414E41905357CC4C13A01C0
310
0030C013290334414E41905357CC4C53A00C00030C011990349504E41905357CC4C93A01C00030C0132409044B4C494E41505357D0D3200400030C011942504494E464F42105357D410549151A01000030C011942D055241484D3541905357D093D4A01C00030C0132425045649455742105357D5925155D4E00400030C011
310
942D06424548494E4441905357D25395A3F400030C0243505545241494C41505357D514A00C00030C01194250348494441905357D21251201C00030C01194250356495341905357D59254E01C00030C01324250650415244494D42505357D41054911253600C00030C01194250652454644494D42505357D49151911253601
310
000030C0119425774110531514901348070000C3004C9034110915312501348000000C0003FFFFFFFD034110921395901398000000C0003FFFFFFFE415092139594D06424548494E448000000C0003FFFFFFFE411093125110234418000000C0003FFFFFFFD03411093D05410234418000000C0003FFFFFFFD03411093D48C
310
9055241484D358010000C300466411093D48CD055241484D358020000C30048E411093D48D5055241484D358000000C0003FFFFFFFE411093D48DD055241484D3581E0000C30051903411094105410234418000000C0003FFFFFFFD03411094115610234418000000C0003FFFFFFFD034110951112501358000000C0003FFF
310
FFFFD034110D0530C901348000000C0003FFFFFFFE4110D0530CD01348020000C30048E4110D0530D501348070000C3004CA4110D0530DD013481E0000C30051A4110D15393901378000000C0003FFFFFFFE4110D15395D01378000000C0003FFFFFFFE4110D312539044B4C494E8000000C0003FFFFFFFE4110D3D38C5013
310
08000000C0003FFFFFFFD034110D3D38C901318000000C0003FFFFFFFD034110D3D38CD01328000000C0003FFFFFFFD034110D3D38D101328000000C0003FFFFFFFD034111115494101348000000C0003FFFFFFFD034111115510501348000000C0003FFFFFFFE4111125051D01358000000C0003FFFFFFFE4111125312501
310
358000000C0003FFFFFFFE411112535410650415244494D8000000C0003FFFFFFFE411112535490652454644494D8000000C0003FFFFFFFE411156135410234418000000C0003FFFFFFFD034111915353901388000000C0003FFFFFFFE415191535413901388030000C3003FFFFFFFE4151915354D410234418000000C0003
310
FFFFFFFE4151915354D510234418030000C300466415191535593901328000000C0003FFFFFFFE415191535595101328030000C3004664111931055101308000000C0003FFFFFFFD03411194905490234418000000C0003FFFFFFFD034111D49312501358000000C0003FFFFFFFD034111D5931250234418000000C0003FFF
310
FFFFD034112105510D01388000000C0003FFFFFFFD014112125113901338000000C0003FFFFFFFD034112125115D01338000000C0003FFFFFFFD034112131253901348000000C0003FFFFFFFD01411213D0D3901378000000C0003FFFFFFFE411213D0D5D01378000000C0003FFFFFFFE4112539193D04494E464F8000000C
310
0003FFFFFFFE4113105112501348000000C0003FFFFFFFD034113115051101358000000C0003FFFFFFFE419397D0921395902394E8000000C0003FFFFFFFE419397D0D3D38C502304E8000000C0003FFFFFFFD03419397D0D3D38C902314E8000000C0003FFFFFFFD03419397D0D3D38CD02324E8000000C0003FFFFFFFD03
310
419397D0D3D38D102324E8000000C0003FFFFFFFD03419397D0D15393902374E8000000C0003FFFFFFFE419397D0D15395D02374E8000000C0003FFFFFFFE419397D1125312502354E8000000C0003FFFFFFFE419397D2105510D02384E8000000C0003FFFFFFFD01419397D2125113902334E8000000C0003FFFFFFFD0341
310
9397D2125115D02334E8000000C0003FFFFFFFD03419397D3115051102354E8000000C0003FFFFFFFE419397D391D25410349504E8000000C0003FFFFFFFE419397D412105390334414E8000000C0003FFFFFFFE419397D510D3D3902304E8000000C0003FFFFFFFD03419397D5121312502344E8000000C0003FFFFFFFD01
310
419397D5131153902304E8000000C0003FFFFFFFD03419397D516150CD02364E8000000C0003FFFFFFFD03419397D594131250332414E8000000C0003FFFFFFFE411391D25410249508000000C0003FFFFFFFE411410530C9055241484D358010000C300466411410530CD055241484D358020000C30048E411410530D5055
310
241484D358000000C0003FFFFFFFE411410530DD055241484D3581E0000C30051903411412105390234418000000C0003FFFFFFFE411413D4D3901368070000C3004CA419413D4D49151901368050000C3004C903411413D4D6101368000000C0003FFFFFFFD03411414D150D0234418000000C0003FFFFFFFD03411490D1D
310
3901378000000C0003FFFFFFFE411490D1D5D01378000000C0003FFFFFFFE4114919112501348000000C0003FFFFFFFD034114945514901348070000C3004C903411494D093D01348000000C0003FFFFFFFD034114D09492D01348000000C0003FFFFFFFD014114D0D153901378000000C0003FFFFFFFD034114D150D51013
310
48000000C0003FFFFFFFD014114D15313901378000000C0003FFFFFFFD034114D15315D01378000000C0003FFFFFFFD034114D4D654D01308000000C0003FFFFFFFD034114D51312501348070000C3004C9034114D6508C501358000000C0003FFFFFFFD034114D6508C901358000000C0003FFFFFFFD034114D6508CD0135
310
8020000C30048E4114D6508D501358070000C3004C9034114D65353901378000000C0003FFFFFFFD034114D65355D01378000000C0003FFFFFFFD03411510D3D3901308000000C0003FFFFFFFD034115121312501348000000C0003FFFFFFFD01411512550C9055241484D358010000C300466411512550CD055241484D358
310
020000C30048E411512550D5055241484D358000000C0003FFFFFFFE411512550DD055241484D3581E0000C300519034115131153901308000000C0003FFFFFFFD03415514905253105545241494C8000000C0003FFFFFFFE41151492D3901378000000C0003FFFFFFFD0341151492D5D01378000000C0003FFFFFFFD03411
310
5149312501348000000C0003FFFFFFFD01411516150C501368030000C300466411516150C901368030000C300466411516150CD01368000000C0003FFFFFFFE411516150D501368070000C3004CA411516150DD013681E0000C30051A4115925155D04564945578000000C0003FFFFFFFE41159151121034849448000000C0
310
003FFFFFFFD0241159151159035649538000000C0003FFFFFFFD02411594131250232418000000C0003FFFFFFFE4116925690501348000000C0003FFFFFFFD01411354D653501358020000C30048E4290E4C9074C906465054C904465034650248D014651E519FD8
340
99B4
340
16
340
16
340
16
340
43
340
16
340
16
340
16
340
44
340
16
340
16
340
44
340
45
340
16
340
16
340
16
340
16
340
43
340
16
340
16
340
16
340
44
340
16
340
16
340
44
340
45
340
16
340
46
340
16
340
16
340
16
340
16
340
16
340
43
340
16
340
16
340
16
340
47
340
15
340
15
340
15
340
15
340
15
340
15
340
15
340
15
340
15
340
15
340
15
340
15
340
15
340
15
340
15
340
15
340
48
340
15
340
15
340
15
340
15
340
15
340
15
340
15
340
15
340
15
340
15
340
15
340
15
340
15
340
15
340
15
340
16
340
15
340
15
340
15
340
15
340
15
340
15
340
15
340
15
340
47
340
15
340
15
340
48
340
15
340
15
340
15
340
15
340
15
340
15
340
15
340
15
340
15
340
48
340
15
340
15
340
15
340
47
340
15
340
15
340
15
340
15
340
15
340
15
340
15
340
15
340
15
340
15
340
15
340
15
340
15
340
15
340
15
340
15
340
15
340
15
340
15
340
48
340
15
340
15
340
48
340
15
340
15
340
16
340
15
340
48
340
15
340
15
340
47
340
15
340
15
340
16
340
15
340
48
340
15
340
15
340
15
340
15
340
15
340
15
340
15
340
15
340
15
340
48
340
15
340
15
340
15
340
15
340
15
340
15
340
15
340
15
340
15
340
15
340
15
340
4B
340
16
 94
        0
  0
ACAD_PROXY_OBJECT
  5
9A4E
330
9A35
100
AcDbProxyObject
 90
      499
 91
      543
 95
       25
 70
     0
 93
      250
310
5DD020000000000000A1000000000000002440408F0F9023C3E409A0DCFFFF80
340
0
340
0
340
0
340
0
340
0
340
0
340
0
340
0
340
0
340
0
 94
        0
  0
ACAD_PROXY_OBJECT
  5
9A4F
330
9A35
100
AcDbProxyObject
 90
      499
 91
      603
 95
       25
 70
     0
 93
    13889
310
5DD1D003FFFFFFFD030300030000000000000310200800030C01030300030000000000000310200800030C00050C8DC0955782CC838A83588367014ED1D15395149050D3CB1294138B0C0B23702555E0B320E2A0D620D9CB11D15395149055160B095CCB0A11D1539354D1C819D95B991A5B5E880CCC0A78000C0000000000
310
00000000000000000000010000000000000310200800030C010000000000000310200800030C020143CF4F111959985D5B1D151A5D1B194F8050A8C8A8365815B8375838B014E51D15395149050D3CB1294138B0C0B2322A0D96056E0DD60E2CB11D15395149055160B095CCB0A11D1539354D1C819D95B991A5B5E880CCC4
310
A78000C000000000000000000000000000000010000000000000310200800030C010000000000000310200800030C020143CF4F111959985D5B1D151A5D1B194F90D44111409034110541D0C4350F4050E44D03449074510F000141232D24D7C053247454E545241434F2C4A504E2C302C8CB4935F2C47454E54524154582C
310
25732C2847454E4D53472067656E64696D7A20312900010104002214000281464500A608E8A9CA8A482869E5894A09C5860591914588E8A9CA8A482A8B0584AE658508E8A9C9AA68E40CECADCC8D2DAF4406452029E9E9E27B934B3B4B71F1E24A31427A91424A9A12620A7259427B934B3B4B7149624A9A12620A7259424B
310
A32B6949496111116111711149F1E24BA32B69F00808200111A000140560052F47454E545241434F2C4A504E2C302C582C47454E54524154582C25732C2847454E4D53472067656E64696D7A20332900010100002054000280AC80A5E8E8A9CA8A482869E5894A09C586058B2588E8A9CA8A482A8B0584AE658508E8A9C9AA
310
68E40CECADCC8D2DAF4406852000202000040E800050152014BD1D15395149050D3CB1294138B0C0B148B11D15395149055160B095CCB0A11D1539354D1C819D95B991A5B5E880D8A400040400008250000A0507A6029823A2A72A2920A1A79625282716181641E99623A2A72A2920AA2C1612B9961423A2A726A9A39033B2
310
B73234B6BD101B948000808180105A000140A0F4C053047454E545241434F2C4A504E2C302C83D32C47454E54524154582C25732C2847454E4D53472067656E64696D7A203829000101010020F400028248704B5F00A668E8A9CA8A482869E5894A09C58605921C12D7C588E8A9CA8A482A8B0584AE658508E8A9C9AA68E40
310
CECADCC8D2DAF440646052000200080043280005048B4B8A69014CD1D15395149050D3CB1294138B0C0B22D2E29A4B11D15395149055160B095CCB0A11D1539354D1C819D95B991A5B5E880C8C4A4000400100086D0000A09196926BE029923A2A72A2920A1A796252827161816465A49AF9623A2A72A2920AA2C1612B9961
310
423A2A726A9A39033B2B73234B6BD10189480A02620202080043E80005048D8096DA014CD1D15395149050D3CB1294138B0C0B236025B68B11D15395149055160B095CCB0A11D1539354D1C819D95B991A5B5E880C4D0A4000404140280D0000A190687072706CD06C5069D06B0029DA3A2A72A2920A1A7962528271618164
310
1A1C1C9C1B341B141A741AC1623A2A72A2920AA2C1612B9961423A2A726A9A39033B2B73234B6BD10189A94800080828050EA000143A322A0D0E0E4E0D9A0D8A0D3A0D60053D47454E545241434F2C4A504E2C302C8C8A8343839383668362834E83582C47454E54524154582C25732C2847454E4D53472067656E64696D7A
310
2031372900010105002274000281464500A628E8A9CA8A482869E5894A09C5860591914588E8A9CA8A482A8B0584AE658508E8A9C9AA68E40CECADCC8D2DAF440626C52000202080044A8000504909497CA014CD1D15395149050D3CB1294138B0C0B242525F28B11D15395149055160B095CCB0A11D1539354D1C819D95B9
310
91A5B5E880C4E4A400040418008A521E000000000000001CA040C00000000000034408080000000000006881010000000000000D102040000000000001A204080000000000003440818000000000000728103000000000000125020600000000004028A040000000000000034408000000000000004881000000000000000D
310
102000000000000001A204000000000000003440818000000000000508143C0000000000000039408180000000000006881030000000000000D102060000000000001A2040C00000000000034408180000000000006881030000000000000E5020600000000000024A040C0000000000805140800000000000000688100000
310
00000000009102000000000000001A2040000000000000034408180000000000006881030000000000000A10284220000000878000002020000008380000020400000081800000208000000828000002028900000000
340
0
340
0
340
0
340
0
340
9A36
340
9A36
 94
        0
  0
ACAD_PROXY_OBJECT
  5
9A50
330
9A35
100
AcDbProxyObject
 90
      499
 91
      537
 95
       25
 70
     0
 93
     7018
310
5DD9740D254D3D0649534F5F4133429254D3D7D5125513115051349534F5F42525F5265766973696F6E6C69737446111413478342028323937783834316D6D2920421254D3D7D04D1E0D11141327835202835393478323130326D6D29421254D3D7D04C9E0D51141347839202832393778313839326D6D29421254D3D7D04D
310
1E0E51141337837202834323078323038306D6D29421254D3D7D04CDE0DD1141347838202832393778313638326D6D29421254D3D7D04D1E0E11141327834202835393478313638326D6D29421254D3D7D04C9E0D10E41312028353934783834316D6D29419254D3D7D04C51141347837202832393778313437316D6D29421
310
254D3D7D04D1E0DD1141347836202832393778313236316D6D29421254D3D7D04D1E0D91141347835202832393778313035316D6D29421254D3D7D04D1E0D5104130202838343078313138396D6D2920419254D3D7D04C10E41332028323937783432306D6D29419254D3D7D04CD1141327833202835393478313236316D6D
310
29421254D3D7D04C9E0CD10413478332028323937783633306D6D29421254D3D7D04D1E0CD1141337834202834323078313138396D6D29421254D3D7D04CDE0D11141337836202834323078313738336D6D29421254D3D7D04CDE0D91141337835202834323078313438366D6D29421254D3D7D04CDE0D50E4132202834323
310
0783539346D6D29419254D3D7D04C910413378332028343230783839316D6D29421254D3D7D04CDE0CD0E41342028323937783231306D6D29419254D3D7D04D1124130783220283131383978313638326D6D29421254D3D7D04C1E0C9124130783320283131383978323532336D6D29421254D3D7D04C1E0CD114131783420
310
2838343178323337386D6D29421254D3D7D04C5E0D11141317833202838343178313738336D6D29421254D3D7D04C5E0CD02431254D3C82557247A25E4C81050A49534F5F5449544C4541431254D3C82557247A25E4C81090A49534F5F5449544C45424110E979A97F0838A835883675F42525F44D254D3D7D09497D4995D9
310
A5CDA5BDB9B1A5CDD10E979A97F0838A835883675F54525F44D254D3D7D51497D4995D9A5CDA5BDB9B1A5CDD10E979A97F0838A835883675F424C5F44D254D3D7D09317D4995D9A5CDA5BDB9B1A5CDD10E979A97F0838A835883675F544C5F44D254D3D7D51317D4995D9A5CDA5BDB9B1A5CDD00
  0
ACAD_PROXY_OBJECT
  5
9CBC
330
9CBB
100
AcDbProxyObject
 90
      499
 91
      527
 95
       25
 70
     0
 93
       86
310
5DEA0C80A0280A0280A034
  0
ACAD_PROXY_OBJECT
  5
9CBD
330
9CBB
100
AcDbProxyObject
 90
      499
 91
      528
 95
       25
 70
     0
 93
      282
310
5DD0E4050140501405014050140501405014050141101405014041000000000000001000
340
187
 94
        0
  0
ACAD_PROXY_OBJECT
  5
9CBE
330
9CBB
100
AcDbProxyObject
 90
      499
 91
      529
 95
       25
 70
     0
 93
      323
310
5DCC199999999999E99F91740501405014050140501405014050140501405014050140501405014040
340
0
 94
        0
  0
ACAD_PROXY_OBJECT
  5
9CBF
330
9CBB
100
AcDbProxyObject
 90
      499
 91
      530
 95
       25
 70
     0
 93
       10
310
5DC0
  0
ACAD_PROXY_OBJECT
  5
9CC0
330
9CBB
100
AcDbProxyObject
 90
      499
 91
      531
 95
       25
 70
     0
 93
      257
310
5DE0C16A22A7D90F49F80000000000001081400000000000004204010000618000
340
188
340
189
 94
        0
  0
ACAD_PROXY_OBJECT
  5
9CC1
330
9CBB
100
AcDbProxyObject
 90
      499
 91
      532
 95
       25
 70
     0
 93
     5277
310
5DD06411255115350141236025B6901405014069010000000000000910240690120281A8AA2CA0282484A4BE52028120280A032020000000000001220480D202405044E414D454050496BC914F4051C40640A80000000000004E4090193C3D3C4946284953424C414E4B28504152543A4E414D45292C424C4F434B3A4E414D
310
452C504152543A4E414D45293E3C41435F44455343524950544E3E40480A109A82A88AA492829880A091BBD2F7E80A3A80C81D0E27A15AF46E08A81203480901411393D5115014124A363B7D0147501904A0000000000000F902406428F4F1050D7D393D5114F901202832B22A72227A92028366EF6EE06F582028EA0320B4
310
0000000000001F20480C879E9E20A1AFAB27222FA620A122A61F20240506445020000000000000490201C00030C00010180000000000003E400000000000000F901073D3C4954454D3E4050180000000000003E400000000000000F901073D3C4954454D3E40501800000000000034400000000000000D101073D3C4954454
310
D3E40501800000000000034400000000000000D101073D3C4954454D3E405029010000000000000F9000000000000003E4041CF4F125511534F901418F4F1455164F9014060000000000000F9000000000000003E4041CF4F125511534F901800000000000034400000000000000D101073D3C4954454D3E40640400000000
310
0000003E400000000000000F90288800000000000020810000001800120881A068120480A032208521122080D21480D211480A1485214852050000000000003C2FC000000000000F0BF40600800030C0200400030C00CDCCCCCCCCCCEC3F3373333333333B0FC3333333333330940C80D069014090341504901A1999999999
310
9984A040100006180400800061804010000618008098A02808
340
0
340
0
 94
        0
  0
ACAD_PROXY_OBJECT
  5
9CC2
330
9CBB
100
AcDbProxyObject
 90
      499
 91
      537
 95
       25
 70
     0
 93
     3042
310
5DD9740D29254D064A49535F413342929254D7D512551311505134A49535F42525F5265766973696F6E6C6973744190F4134522028323937783231306D6D2941D29254D7D04D1490E41312028353934783834316D6D2941929254D7D04C50F41344C2028323130783239376D6D2941D29254D7D04D1310E413320283239377
310
83432306D6D2941929254D7D04CD0E41322028343230783539346D6D2941929254D7D04C90F4130202838343178313138396D6D2941929254D7D04C10243129254C82557247A25E4C81050A4A49535F5449544C454143129254C82557247A25E4C81090A4A49535F5449544C45424110E979A97F0838A835883675F42525F4
310
4D29254D7D09497D4995D9A5CDA5BDB9B1A5CDD10E979A97F0838A835883675F54525F44D29254D7D51497D4995D9A5CDA5BDB9B1A5CDD10E979A97F0838A835883675F424C5F44D29254D7D09317D4995D9A5CDA5BDB9B1A5CDD10E979A97F0838A835883675F544C5F44D29254D7D51317D4995D9A5CDA5BDB9B1A5CDD00
  0
ACAD_PROXY_OBJECT
  5
9CC3
330
9CBB
100
AcDbProxyObject
 90
      499
 91
      538
 95
       25
 70
     0
 93
      898
310
5DC4000000000000124048CF4F11115510525317D3105091530F880A0F11115510525317D05094D4D0D053114F8A50241C9A9999999999B93F26A666666666724FC000000000000E03F400000000000000400000000000000510000000000000024408070000C300000000000000049000
340
16
340
180
 94
        0
  0
ACAD_PROXY_OBJECT
  5
9CC4
330
9CBB
100
AcDbProxyObject
 90
      499
 91
      539
 95
       25
 70
     0
 93
      823
310
5DC0B00000000000002480959E9E29A2A1AA24A7A72FA620A122A62FA324A929AA1F169E29A2A1AA24A7A72FA620A122A62FA620A9AA1F000000000000048803FFFE01C00030C008140380006180000000000000048800000000000000A2000000000000002480
340
652
340
180
 94
        0
  0
ACAD_PROXY_OBJECT
  5
9CC5
330
9CBB
100
AcDbProxyObject
 90
      499
 91
      540
 95
       25
 70
     0
 93
      152
310
5DE8273108AC1C5A0640A3D0A5723F0BD1F200
  0
ACAD_PROXY_OBJECT
  5
9CC6
330
9CBB
100
AcDbProxyObject
 90
      499
 91
      604
 95
       25
 70
     0
 93
       14
310
5DE0
340
0
 94
        0
  0
ACAD_PROXY_OBJECT
  5
9CC7
330
9CBB
100
AcDbProxyObject
 90
      499
 91
      541
 95
       25
 70
     0
 93
     6059
310
5DD084050BA4050AA405024050E836583938376838C815B83672031405983D3C486F6C653A6469613E3C696628657175616C28486F6C653A7465726D696E6174696F6E2C223022292C2220905B82B320222C22208368838A838B22293E3C696628657175616C28486F6C653A7465726D696E6174696F6E2C223022292C486F
310
6C653A64657074682C2222293E2C203C486F6C653A63746469613E2082B482AE82E882CC905B82B3203C486F6C653A637464657074683E406901405034050E836583938376838C815B83672031405EF3D3C486F6C653A6374616E676C653E252564202525633C486F6C653A63746469613E208E4D8C8A2C203C69662865717
310
5616C28486F6C653A7461707065642C223022292C22252563222C486F6C653A6E6F6D696E616C202220782022293E3C696628657175616C28486F6C653A7461707065642C223022292C486F6C653A6469612C486F6C653A706974636864657363293E203C696628657175616C28486F6C653A7465726D696E6174696F6E2C2
310
23022292C22905B82B320222C222022293E3C696628657175616C28486F6C653A7465726D696E6174696F6E2C223022292C486F6C653A64657074682C2222293E406901405014050E836583938376838C815B83672031405C73D3C696628657175616C28486F6C653A7461707065642C223022292C22252563222C486F6C65
310
3A6E6F6D696E616C202220782022293E3C696628657175616C28486F6C653A7461707065642C223022292C486F6C653A6469612C486F6C653A706974636864657363293E203C696628657175616C28486F6C653A7465726D696E6174696F6E2C223022292C22905B82B320222C222022293E3C696628657175616C28486F6C
310
653A7465726D696E6174696F6E2C223022292C486F6C653A64657074682C2222293E4069014051E4090E836583938376838C815B83672032405173D3C535444503A444553433E203C535444503A5354443E40690E836583938376838C815B836720314050C3D3C535444503A444553433E40690240515AAABBA120
360
9CC8
330
9CC8
360
9CC9
330
9CC9
360
9CCA
330
9CCA
360
9CCB
360
9CCC
330
9CCB
330
9CCC
 94
        0
  0
ACAD_PROXY_OBJECT
  5
9CCD
330
9CBB
100
AcDbProxyObject
 90
      499
 91
      542
 95
       25
 70
     0
 93
       26
310
5DD02A80
340
0
 94
        0
  0
ACAD_PROXY_OBJECT
  5
9CCE
330
9CBB
100
AcDbProxyObject
 90
      499
 91
      543
 95
       25
 70
     0
 93
      250
310
5DD020000000000000A1000000000000002440408F0F9023C3E409A0DCFFFF80
340
58
340
1899
340
189A
340
5F
340
60
340
61
340
62
340
63
340
68
340
0
 94
        0
  0
ACAD_PROXY_OBJECT
  5
9CCF
330
9CBB
100
AcDbProxyObject
 90
      499
 91
      605
 95
       25
 70
     0
 93
    13889
310
5DD1D003FFFFFFFD030300030CCCCCCCCCCCC250200800030C01030300030CCCCCCCCCCCC250200800030C00050C8DC0955782CC838A83588367014ED1D15395149050D3CB1294138B0C0B23702555E0B320E2A0D620D9CB11D15395149055160B095CCB0A11D1539354D1C819D95B991A5B5E880CCC0A78000C0000000000
310
00000000000000000000010CCCCCCCCCCCC250200800030C010CCCCCCCCCCCC250200800030C020143CF4F111959985D5B1D151A5D1B194F8050A8C8A8365815B8375838B014E51D15395149050D3CB1294138B0C0B2322A0D96056E0DD60E2CB11D15395149055160B095CCB0A11D1539354D1C819D95B991A5B5E880CCC4
310
A78000C000000000000000000000000000000010CCCCCCCCCCCC250200800030C010CCCCCCCCCCCC250200800030C020143CF4F111959985D5B1D151A5D1B194F90D44111409034110541D0C4350F4050E44D03449074510F000141232D24D7C053247454E545241434F2C4A504E2C302C8CB4935F2C47454E54524154582C
310
25732C2847454E4D53472067656E64696D7A20312900010104002214000281464500A608E8A9CA8A482869E5894A09C5860591914588E8A9CA8A482A8B0584AE658508E8A9C9AA68E40CECADCC8D2DAF4406452029E9E9E27B934B3B4B71F1E24A31427A91424A9A12620A7259427B934B3B4B7149624A9A12620A7259424B
310
A32B6949496111116111711149F1E24BA32B69F00808200111A000140560052F47454E545241434F2C4A504E2C302C582C47454E54524154582C25732C2847454E4D53472067656E64696D7A20332900010100002054000280AC80A5E8E8A9CA8A482869E5894A09C586058B2588E8A9CA8A482A8B0584AE658508E8A9C9AA
310
68E40CECADCC8D2DAF4406852000202000040E800050152014BD1D15395149050D3CB1294138B0C0B148B11D15395149055160B095CCB0A11D1539354D1C819D95B991A5B5E880D8A400040400008250000A0507A6029823A2A72A2920A1A79625282716181641E99623A2A72A2920AA2C1612B9961423A2A726A9A39033B2
310
B73234B6BD101B948000808180105A000140A0F4C053047454E545241434F2C4A504E2C302C83D32C47454E54524154582C25732C2847454E4D53472067656E64696D7A203829000101010020F400028248704B5F00A668E8A9CA8A482869E5894A09C58605921C12D7C588E8A9CA8A482A8B0584AE658508E8A9C9AA68E40
310
CECADCC8D2DAF440646052000200080043280005048B4B8A69014CD1D15395149050D3CB1294138B0C0B22D2E29A4B11D15395149055160B095CCB0A11D1539354D1C819D95B991A5B5E880C8C4A4000400100086D0000A09196926BE029923A2A72A2920A1A796252827161816465A49AF9623A2A72A2920AA2C1612B9961
310
423A2A726A9A39033B2B73234B6BD10189480A02620202080043E80005048D8096DA014CD1D15395149050D3CB1294138B0C0B236025B68B11D15395149055160B095CCB0A11D1539354D1C819D95B991A5B5E880C4D0A4000404140280D0000A190687072706CD06C5069D06B0029DA3A2A72A2920A1A7962528271618164
310
1A1C1C9C1B341B141A741AC1623A2A72A2920AA2C1612B9961423A2A726A9A39033B2B73234B6BD10189A94800080820050EA000143A322A0D0E0E4E0D9A0D8A0D3A0D60053D47454E545241434F2C4A504E2C302C8C8A8343839383668362834E83582C47454E54524154582C25732C2847454E4D53472067656E64696D7A
310
2031372900010105002274000281464500A628E8A9CA8A482869E5894A09C5860591914588E8A9CA8A482A8B0584AE658508E8A9C9AA68E40CECADCC8D2DAF440626C52000202080044A8000504909497CA014CD1D15395149050D3CB1294138B0C0B242525F28B11D15395149055160B095CCB0A11D1539354D1C819D95B9
310
91A5B5E880C4E4A400040418008A521E000000000000001CA040C00000000000034408080000000000006881010000000000000D102040000000000001A204080000000000003440818000000000000728103000000000000125020600000000004028A040000000000000034408000000000000004881000000000000000D
310
102000000000000001A204000000000000003440818000000000000508143C0000000000000039408180000000000006881030000000000000D102060000000000001A2040C00000000000034408180000000000006881030000000000000E5020600000000000024A040C0000000000805140800000000000000688100000
310
00000000009102000000000000001A2040000000000000034408180000000000006881030000000000000A10284220000000878000002020000008380000020400000081800000208000000828000002028900000000
340
0
340
0
340
0
340
0
340
180
340
180
 94
        0
  0
ACAD_PROXY_OBJECT
  5
9A4B
330
9A42
100
AcDbProxyObject
 90
      499
 91
      602
 95
       25
 70
     0
 93
     2680
310
5DE0143A0D960E4E0DDA0E32056E0D9C80C4043A013D2525633C486F6C653A63746469613E2078203C486F6C653A637464657074683E20555C503C696628657175616C28486F6C653A7461707065642C223022292C22252563222C486F6C653A6E6F6D696E616C202220782022293E3C696628657175616C28486F6C653A74
310
61707065642C223022292C486F6C653A6469612C486F6C653A706974636864657363293E3C696628657175616C28486F6C653A7461707065642C223122292C22207820222C2222293E3C696628657175616C28486F6C653A7461707065642C223122292C486F6C653A74617064657074682C2222293E203C69662865717561
310
6C28486F6C653A7465726D696E6174696F6E2C223022292C22202F20222C2222293E3C696628657175616C28486F6C653A7465726D696E6174696F6E2C223022292C486F6C653A64657074682C2222293E
  0
ACAD_PROXY_OBJECT
  5
9A4C
330
9A42
100
AcDbProxyObject
 90
      499
 91
      602
 95
       25
 70
     0
 93
     2688
310
5DE0143A0D960E4E0DDA0E32056E0D9C80C4043B013D2525633C486F6C653A63746469613E2078203C486F6C653A6374616E676C653E2525645C503C696628657175616C28486F6C653A7461707065642C223022292C22252563222C486F6C653A6E6F6D696E616C202220782022293E3C696628657175616C28486F6C653A
310
7461707065642C223022292C486F6C653A6469612C486F6C653A706974636864657363293E3C696628657175616C28486F6C653A7461707065642C223122292C22207820222C2222293E3C696628657175616C28486F6C653A7461707065642C223122292C486F6C653A74617064657074682C2222293E203C696628657175
310
616C28486F6C653A7465726D696E6174696F6E2C223022292C22202F20222C2222293E3C696628657175616C28486F6C653A7465726D696E6174696F6E2C223022292C486F6C653A64657074682C2222293E
  0
ACAD_PROXY_OBJECT
  5
9A4A
330
9A42
100
AcDbProxyObject
 90
      499
 91
      602
 95
       25
 70
     0
 93
     2392
310
5DE0143A0D960E4E0DDA0E32056E0D9C80C40416013D3C696628657175616C28486F6C653A7461707065642C223022292C22252563222C486F6C653A6E6F6D696E616C202220782022293E3C696628657175616C28486F6C653A7461707065642C223022292C486F6C653A6469612C486F6C653A706974636864657363293E
310
3C696628657175616C28486F6C653A7461707065642C223122292C22207820222C2222293E3C696628657175616C28486F6C653A7461707065642C223122292C486F6C653A74617064657074682C2222293E203C696628657175616C28486F6C653A7465726D696E6174696F6E2C223022292C22202F20222C2222293E3C69
310
6628657175616C28486F6C653A7465726D696E6174696F6E2C223022292C486F6C653A64657074682C2222293E
  0
ACAD_PROXY_OBJECT
  5
9A49
330
9A42
100
AcDbProxyObject
 90
      499
 91
      602
 95
       25
 70
     0
 93
      344
310
5DE0143A0D960E4E0DDA0E32056E0D9C80C805173D3C535444503A444553433E203C535444503A5354443E
  0
ACAD_PROXY_OBJECT
  5
9A48
330
9A42
100
AcDbProxyObject
 90
      499
 91
      602
 95
       25
 70
     0
 93
      256
310
5DE0143A0D960E4E0DDA0E32056E0D9C80C4050C3D3C535444503A444553433E
  0
ACAD_PROXY_OBJECT
  5
9CC8
330
9CC7
100
AcDbProxyObject
 90
      499
 91
      602
 95
       25
 70
     0
 93
     1376
310
5DE0143A0D960E4E0DDA0E32056E0D9C80C405983D3C486F6C653A6469613E3C696628657175616C28486F6C653A7465726D696E6174696F6E2C223022292C2220905B82B320222C22208368838A838B22293E3C696628657175616C28486F6C653A7465726D696E6174696F6E2C223022292C486F6C653A64657074682C22
310
22293E2C203C486F6C653A63746469613E2082B482AE82E882CC905B82B3203C486F6C653A637464657074683E
  0
ACAD_PROXY_OBJECT
  5
9CC9
330
9CC7
100
AcDbProxyObject
 90
      499
 91
      602
 95
       25
 70
     0
 93
     2072
310
5DE0143A0D960E4E0DDA0E32056E0D9C80C405EF3D3C486F6C653A6374616E676C653E252564202525633C486F6C653A63746469613E208E4D8C8A2C203C696628657175616C28486F6C653A7461707065642C223022292C22252563222C486F6C653A6E6F6D696E616C202220782022293E3C696628657175616C28486F6C
310
653A7461707065642C223022292C486F6C653A6469612C486F6C653A706974636864657363293E203C696628657175616C28486F6C653A7465726D696E6174696F6E2C223022292C22905B82B320222C222022293E3C696628657175616C28486F6C653A7465726D696E6174696F6E2C223022292C486F6C653A6465707468
310
2C2222293E
  0
ACAD_PROXY_OBJECT
  5
9CCA
330
9CC7
100
AcDbProxyObject
 90
      499
 91
      602
 95
       25
 70
     0
 93
     1752
310
5DE0143A0D960E4E0DDA0E32056E0D9C80C405C73D3C696628657175616C28486F6C653A7461707065642C223022292C22252563222C486F6C653A6E6F6D696E616C202220782022293E3C696628657175616C28486F6C653A7461707065642C223022292C486F6C653A6469612C486F6C653A706974636864657363293E20
310
3C696628657175616C28486F6C653A7465726D696E6174696F6E2C223022292C22905B82B320222C222022293E3C696628657175616C28486F6C653A7465726D696E6174696F6E2C223022292C486F6C653A64657074682C2222293E
  0
ACAD_PROXY_OBJECT
  5
9CCB
330
9CC7
100
AcDbProxyObject
 90
      499
 91
      602
 95
       25
 70
     0
 93
      344
310
5DE0143A0D960E4E0DDA0E32056E0D9C80C805173D3C535444503A444553433E203C535444503A5354443E
  0
ACAD_PROXY_OBJECT
  5
9CCC
330
9CC7
100
AcDbProxyObject
 90
      499
 91
      602
 95
       25
 70
     0
 93
      256
310
5DE0143A0D960E4E0DDA0E32056E0D9C80C4050C3D3C535444503A444553433E
  0
ENDSEC
  0
EOF
