  0
SECTION
  2
HEADER
  9
$ACADVER
  1
AC1014
  9
$ACADMAINTVER
 70
     0
  9
$DWGCODEPAGE
  3
ANSI_932
  9
$INSBASE
 10
0.0
 20
0.0
 30
0.0
  9
$EXTMIN
 10
-78.953777
 20
-87.202835
 30
0.0
  9
$EXTMAX
 10
121.350491
 20
45.351517
 30
0.0
  9
$LIMMIN
 10
-80.358364
 20
-81.49521
  9
$LIMMAX
 10
130.232456
 20
33.850618
  9
$ORTHOMODE
 70
     0
  9
$REGENMODE
 70
     1
  9
$FILLMODE
 70
     1
  9
$QTEXTMODE
 70
     0
  9
$MIRRTEXT
 70
     1
  9
$DRAGMODE
 70
     2
  9
$LTSCALE
 40
0.5
  9
$OSMODE
 70
    39
  9
$ATTMODE
 70
     1
  9
$TEXTSIZE
 40
0.2
  9
$TRACEWID
 40
0.05
  9
$TEXTSTYLE
  7
STANDARD
  9
$CLAYER
  8
寸法
  9
$CELTYPE
  6
BYLAYER
  9
$CECOLOR
 62
     1
  9
$CELTSCALE
 40
1.0
  9
$DELOBJ
 70
     1
  9
$DISPSILH
 70
     0
  9
$DIMSCALE
 40
1.0
  9
$DIMASZ
 40
2.0
  9
$DIMEXO
 40
1.0
  9
$DIMDLI
 40
10.0
  9
$DIMRND
 40
0.0
  9
$DIMDLE
 40
0.0
  9
$DIMEXE
 40
1.0
  9
$DIMTP
 40
0.0
  9
$DIMTM
 40
0.0
  9
$DIMTXT
 40
3.0
  9
$DIMCEN
 40
2.0
  9
$DIMTSZ
 40
0.0
  9
$DIMTOL
 70
     0
  9
$DIMLIM
 70
     0
  9
$DIMTIH
 70
     0
  9
$DIMTOH
 70
     0
  9
$DIMSE1
 70
     0
  9
$DIMSE2
 70
     0
  9
$DIMTAD
 70
     1
  9
$DIMZIN
 70
     8
  9
$DIMBLK
  1

  9
$DIMASO
 70
     1
  9
$DIMSHO
 70
     1
  9
$DIMPOST
  1

  9
$DIMAPOST
  1

  9
$DIMALT
 70
     0
  9
$DIMALTD
 70
     2
  9
$DIMALTF
 40
25.4
  9
$DIMLFAC
 40
1.0
  9
$DIMTOFL
 70
     1
  9
$DIMTVP
 40
0.0
  9
$DIMTIX
 70
     0
  9
$DIMSOXD
 70
     0
  9
$DIMSAH
 70
     1
  9
$DIMBLK1
  1
_OPEN30
  9
$DIMBLK2
  1
_OPEN30
  9
$DIMSTYLE
  2
寸法
  9
$DIMCLRD
 70
     1
  9
$DIMCLRE
 70
     1
  9
$DIMCLRT
 70
     1
  9
$DIMTFAC
 40
1.0
  9
$DIMGAP
 40
1.0
  9
$DIMJUST
 70
     0
  9
$DIMSD1
 70
     0
  9
$DIMSD2
 70
     0
  9
$DIMTOLJ
 70
     1
  9
$DIMTZIN
 70
     0
  9
$DIMALTZ
 70
     0
  9
$DIMALTTZ
 70
     0
  9
$DIMFIT
 70
     3
  9
$DIMUPT
 70
     0
  9
$DIMUNIT
 70
     2
  9
$DIMDEC
 70
     2
  9
$DIMTDEC
 70
     4
  9
$DIMALTU
 70
     2
  9
$DIMALTTD
 70
     2
  9
$DIMTXSTY
  7
STANDARD
  9
$DIMAUNIT
 70
     0
  9
$LUNITS
 70
     2
  9
$LUPREC
 70
     4
  9
$SKETCHINC
 40
0.1
  9
$FILLETRAD
 40
0.0
  9
$AUNITS
 70
     0
  9
$AUPREC
 70
     0
  9
$MENU
  1
acad
  9
$ELEVATION
 40
0.0
  9
$PELEVATION
 40
0.0
  9
$THICKNESS
 40
0.0
  9
$LIMCHECK
 70
     0
  9
$BLIPMODE
 70
     0
  9
$CHAMFERA
 40
0.0
  9
$CHAMFERB
 40
0.0
  9
$CHAMFERC
 40
0.0
  9
$CHAMFERD
 40
0.0
  9
$SKPOLY
 70
     0
  9
$TDCREATE
 40
2451941.922896990
  9
$TDUPDATE
 40
2451977.634826389
  9
$TDINDWG
 40
0.0135483796
  9
$TDUSRTIMER
 40
0.0135483796
  9
$USRTIMER
 70
     1
  9
$ANGBASE
 50
0.0
  9
$ANGDIR
 70
     0
  9
$PDMODE
 70
     0
  9
$PDSIZE
 40
0.0
  9
$PLINEWID
 40
0.0
  9
$COORDS
 70
     1
  9
$SPLFRAME
 70
     0
  9
$SPLINETYPE
 70
     6
  9
$SPLINESEGS
 70
     8
  9
$ATTDIA
 70
     0
  9
$ATTREQ
 70
     1
  9
$HANDLING
 70
     1
  9
$HANDSEED
  5
224
  9
$SURFTAB1
 70
     6
  9
$SURFTAB2
 70
     6
  9
$SURFTYPE
 70
     6
  9
$SURFU
 70
     6
  9
$SURFV
 70
     6
  9
$UCSNAME
  2

  9
$UCSORG
 10
0.0
 20
0.0
 30
0.0
  9
$UCSXDIR
 10
1.0
 20
0.0
 30
0.0
  9
$UCSYDIR
 10
0.0
 20
1.0
 30
0.0
  9
$PUCSNAME
  2

  9
$PUCSORG
 10
0.0
 20
0.0
 30
0.0
  9
$PUCSXDIR
 10
1.0
 20
0.0
 30
0.0
  9
$PUCSYDIR
 10
0.0
 20
1.0
 30
0.0
  9
$USERI1
 70
     0
  9
$USERI2
 70
     0
  9
$USERI3
 70
     0
  9
$USERI4
 70
     0
  9
$USERI5
 70
     0
  9
$USERR1
 40
0.0
  9
$USERR2
 40
0.0
  9
$USERR3
 40
0.0
  9
$USERR4
 40
0.0
  9
$USERR5
 40
0.0
  9
$WORLDVIEW
 70
     1
  9
$SHADEDGE
 70
     3
  9
$SHADEDIF
 70
    70
  9
$TILEMODE
 70
     1
  9
$MAXACTVP
 70
    48
  9
$PINSBASE
 10
0.0
 20
0.0
 30
0.0
  9
$PLIMCHECK
 70
     0
  9
$PEXTMIN
 10
1.000000E+20
 20
1.000000E+20
 30
1.000000E+20
  9
$PEXTMAX
 10
-1.000000E+20
 20
-1.000000E+20
 30
-1.000000E+20
  9
$PLIMMIN
 10
0.0
 20
0.0
  9
$PLIMMAX
 10
12.0
 20
9.0
  9
$UNITMODE
 70
     0
  9
$VISRETAIN
 70
     1
  9
$PLINEGEN
 70
     0
  9
$PSLTSCALE
 70
     1
  9
$TREEDEPTH
 70
  3020
  9
$PICKSTYLE
 70
     1
  9
$CMLSTYLE
  2
STANDARD
  9
$CMLJUST
 70
     0
  9
$CMLSCALE
 40
1.0
  9
$PROXYGRAPHICS
 70
     1
  9
$MEASUREMENT
 70
     0
  0
ENDSEC
  0
SECTION
  2
CLASSES
  0
ENDSEC
  0
SECTION
  2
TABLES
  0
TABLE
  2
VPORT
  5
8
100
AcDbSymbolTable
 70
     2
  0
VPORT
  5
223
100
AcDbSymbolTableRecord
100
AcDbViewportTableRecord
  2
*ACTIVE
 70
     0
 10
0.0
 20
0.0
 11
1.0
 21
1.0
 12
36.785417
 22
-22.34309
 13
0.0
 23
0.0
 14
1.0
 24
1.0
 15
10.0
 25
10.0
 16
0.0
 26
0.0
 36
1.0
 17
0.0
 27
0.0
 37
0.0
 40
144.609613
 41
1.710425
 42
50.0
 43
0.0
 44
0.0
 50
0.0
 51
0.0
 71
     0
 72
   100
 73
     1
 74
     1
 75
     0
 76
     0
 77
     0
 78
     0
  0
ENDTAB
  0
TABLE
  2
LTYPE
  5
5
100
AcDbSymbolTable
 70
     5
  0
LTYPE
  5
12
100
AcDbSymbolTableRecord
100
AcDbLinetypeTableRecord
  2
BYBLOCK
 70
     0
  3

 72
    65
 73
     0
 40
0.0
  0
LTYPE
  5
13
100
AcDbSymbolTableRecord
100
AcDbLinetypeTableRecord
  2
BYLAYER
 70
     0
  3

 72
    65
 73
     0
 40
0.0
  0
LTYPE
  5
14
100
AcDbSymbolTableRecord
100
AcDbLinetypeTableRecord
  2
CONTINUOUS
 70
     0
  3
Solid line
 72
    65
 73
     0
 40
0.0
  0
LTYPE
  5
1F
100
AcDbSymbolTableRecord
100
AcDbLinetypeTableRecord
  2
DASHED
 70
     0
  3
__ __ __ __ __ __ __ __ __ __ __ __ __ __ __
 72
    65
 73
     2
 40
3.5
 49
2.0
 74
     0
 49
-1.5
 74
     0
  0
LTYPE
  5
20
100
AcDbSymbolTableRecord
100
AcDbLinetypeTableRecord
  2
CENTER
 70
     0
  3
____ _ ____ _ ____ _ ____ _ ____ _ ____ _ ____
 72
    65
 73
     4
 40
17.5
 49
13.0
 74
     0
 49
-1.5
 74
     0
 49
1.5
 74
     0
 49
-1.5
 74
     0
  0
LTYPE
  5
21
100
AcDbSymbolTableRecord
100
AcDbLinetypeTableRecord
  2
PHANTOM
 70
     0
  3
_____ _ _ _____ _ _ _____ _ _ _____ _ _ ____  
 72
    65
 73
     6
 40
15.5
 49
8.0
 74
     0
 49
-1.5
 74
     0
 49
1.5
 74
     0
 49
-1.5
 74
     0
 49
1.5
 74
     0
 49
-1.5
 74
     0
  0
LTYPE
  5
22
100
AcDbSymbolTableRecord
100
AcDbLinetypeTableRecord
  2
DOT
 70
     0
  3
. . . . . . . . . . . . . . . . . . . . . . . .
 72
    65
 73
     2
 40
0.25
 49
0.0
 74
     0
 49
-0.25
 74
     0
  0
ENDTAB
  0
TABLE
  2
LAYER
  5
2
100
AcDbSymbolTable
 70
     3
  0
LAYER
  5
E
100
AcDbSymbolTableRecord
100
AcDbLayerTableRecord
  2
0
 70
     0
 62
     7
  6
CONTINUOUS
  0
LAYER
  5
113
100
AcDbSymbolTableRecord
100
AcDbLayerTableRecord
  2
寸法
 70
     0
 62
     1
  6
CONTINUOUS
  0
LAYER
  5
12D
100
AcDbSymbolTableRecord
100
AcDbLayerTableRecord
  2
DEFPOINTS
 70
     0
 62
     7
  6
CONTINUOUS
  0
ENDTAB
  0
TABLE
  2
STYLE
  5
3
100
AcDbSymbolTable
 70
     2
  0
STYLE
  5
F
100
AcDbSymbolTableRecord
100
AcDbTextStyleTableRecord
  2
STANDARD
 70
     0
 40
0.0
 41
1.0
 50
0.0
 71
     0
 42
0.2
  3
txt
  4
BIGFONT
  0
STYLE
  5
114
100
AcDbSymbolTableRecord
100
AcDbTextStyleTableRecord
  2
寸法
 70
     0
 40
0.0
 41
1.0
 50
0.0
 71
     0
 42
1.767677
  3
txt.shx
  4
bigfont.shx
  0
ENDTAB
  0
TABLE
  2
VIEW
  5
6
100
AcDbSymbolTable
 70
     0
  0
ENDTAB
  0
TABLE
  2
UCS
  5
7
100
AcDbSymbolTable
 70
     0
  0
ENDTAB
  0
TABLE
  2
APPID
  5
9
100
AcDbSymbolTable
 70
     3
  0
APPID
  5
10
100
AcDbSymbolTableRecord
100
AcDbRegAppTableRecord
  2
ACAD
 70
     0
  0
APPID
  5
117
100
AcDbSymbolTableRecord
100
AcDbRegAppTableRecord
  2
CONTENTTABDATA
 70
     0
  0
APPID
  5
118
100
AcDbSymbolTableRecord
100
AcDbRegAppTableRecord
  2
CONTENTCURRENTTAB
 70
     0
  0
ENDTAB
  0
TABLE
  2
DIMSTYLE
  5
A
100
AcDbSymbolTable
 70
     3
  0
DIMSTYLE
105
105
100
AcDbSymbolTableRecord
100
AcDbDimStyleTableRecord
  2
STANDARD
 70
     0
  3

  4

  5

  6

  7

 40
1.0
 41
0.18
 42
0.0625
 43
0.38
 44
0.18
 45
0.0
 46
0.0
 47
0.0
 48
0.0
140
0.18
141
0.09
142
0.0
143
25.4
144
1.0
145
0.0
146
1.0
147
0.09
 71
     0
 72
     0
 73
     1
 74
     1
 75
     0
 76
     0
 77
     0
 78
     0
170
     0
171
     2
172
     0
173
     0
174
     0
175
     0
176
     0
177
     0
178
     0
270
     2
271
     4
272
     4
273
     2
274
     2
340
F
275
     0
280
     0
281
     0
282
     0
283
     1
284
     0
285
     0
286
     0
287
     3
288
     0
  0
DIMSTYLE
105
115
100
AcDbSymbolTableRecord
100
AcDbDimStyleTableRecord
  2
STANDARD_WS
 70
     0
  3

  4

  5

  6

  7

 40
0.707071
 41
2.5
 42
0.625
 43
3.75
 44
1.25
 45
0.0
 46
0.0
 47
0.0
 48
0.0
140
2.5
141
2.5
142
0.0
143
0.0394
144
1.0
145
0.0
146
1.0
147
0.625
 71
     0
 72
     0
 73
     0
 74
     0
 75
     0
 76
     0
 77
     1
 78
     8
170
     0
171
     4
172
     1
173
     0
174
     0
175
     0
176
     0
177
     0
178
     0
270
     2
271
     4
272
     4
273
     8
274
     4
340
F
275
     0
280
     0
281
     0
282
     0
283
     1
284
     0
285
     0
286
     0
287
     3
288
     0
  0
DIMSTYLE
105
116
102
{ACAD_REACTORS
330
131
330
13E
330
14D
330
15A
330
167
330
174
330
183
330
191
330
19E
330
1AB
330
1BD
330
1E7
330
1FA
102
}
100
AcDbSymbolTableRecord
100
AcDbDimStyleTableRecord
  2
寸法
 70
     0
  3

  4

  5

  6
_OPEN30
  7
_OPEN30
 40
1.0
 41
2.0
 42
1.0
 43
10.0
 44
1.0
 45
0.0
 46
0.0
 47
0.0
 48
0.0
140
3.0
141
2.0
142
0.0
143
25.4
144
1.0
145
0.0
146
1.0
147
1.0
 71
     0
 72
     0
 73
     0
 74
     0
 75
     0
 76
     0
 77
     1
 78
     8
170
     0
171
     2
172
     1
173
     1
174
     0
175
     0
176
     1
177
     1
178
     1
270
     2
271
     2
272
     4
273
     2
274
     2
340
F
275
     0
280
     0
281
     0
282
     0
283
     1
284
     0
285
     0
286
     0
287
     3
288
     0
  0
ENDTAB
  0
TABLE
  2
BLOCK_RECORD
  5
1
100
AcDbSymbolTable
 70
    16
  0
BLOCK_RECORD
  5
18
100
AcDbSymbolTableRecord
100
AcDbBlockTableRecord
  2
*MODEL_SPACE
  0
BLOCK_RECORD
  5
15
100
AcDbSymbolTableRecord
100
AcDbBlockTableRecord
  2
*PAPER_SPACE
  0
BLOCK_RECORD
  5
10D
100
AcDbSymbolTableRecord
100
AcDbBlockTableRecord
  2
_OPEN30
  0
BLOCK_RECORD
  5
119
100
AcDbSymbolTableRecord
100
AcDbBlockTableRecord
  2
テンプレ-ト
  0
BLOCK_RECORD
  5
128
100
AcDbSymbolTableRecord
100
AcDbBlockTableRecord
  2
*D2
  0
BLOCK_RECORD
  5
132
100
AcDbSymbolTableRecord
100
AcDbBlockTableRecord
  2
*D3
  0
BLOCK_RECORD
  5
140
100
AcDbSymbolTableRecord
100
AcDbBlockTableRecord
  2
*D4
  0
BLOCK_RECORD
  5
14E
100
AcDbSymbolTableRecord
100
AcDbBlockTableRecord
  2
*D5
  0
BLOCK_RECORD
  5
15B
100
AcDbSymbolTableRecord
100
AcDbBlockTableRecord
  2
*D6
  0
BLOCK_RECORD
  5
168
100
AcDbSymbolTableRecord
100
AcDbBlockTableRecord
  2
*D7
  0
BLOCK_RECORD
  5
175
100
AcDbSymbolTableRecord
100
AcDbBlockTableRecord
  2
*D8
  0
BLOCK_RECORD
  5
185
100
AcDbSymbolTableRecord
100
AcDbBlockTableRecord
  2
*D9
  0
BLOCK_RECORD
  5
192
100
AcDbSymbolTableRecord
100
AcDbBlockTableRecord
  2
*D10
  0
BLOCK_RECORD
  5
19F
100
AcDbSymbolTableRecord
100
AcDbBlockTableRecord
  2
*D11
  0
BLOCK_RECORD
  5
1AD
100
AcDbSymbolTableRecord
100
AcDbBlockTableRecord
  2
*D12
  0
BLOCK_RECORD
  5
1CB
100
AcDbSymbolTableRecord
100
AcDbBlockTableRecord
  2
A$C483B0104
  0
BLOCK_RECORD
  5
1DB
100
AcDbSymbolTableRecord
100
AcDbBlockTableRecord
  2
*D14
  0
BLOCK_RECORD
  5
1F2
100
AcDbSymbolTableRecord
100
AcDbBlockTableRecord
  2
*D15
  0
ENDTAB
  0
ENDSEC
  0
SECTION
  2
BLOCKS
  0
BLOCK
  5
19
100
AcDbEntity
  8
0
100
AcDbBlockBegin
  2
*MODEL_SPACE
 70
     0
 10
0.0
 20
0.0
 30
0.0
  3
*MODEL_SPACE
  1

  0
ENDBLK
  5
1A
100
AcDbEntity
  8
0
100
AcDbBlockEnd
  0
BLOCK
  5
16
100
AcDbEntity
 67
     1
  8
0
100
AcDbBlockBegin
  2
*PAPER_SPACE
 70
     0
 10
0.0
 20
0.0
 30
0.0
  3
*PAPER_SPACE
  1

  0
ENDBLK
  5
17
100
AcDbEntity
 67
     1
  8
0
100
AcDbBlockEnd
  0
BLOCK
  5
111
100
AcDbEntity
  8
0
100
AcDbBlockBegin
  2
_OPEN30
 70
     0
 10
0.0
 20
0.0
 30
0.0
  3
_OPEN30
  1

  0
LINE
  5
10E
100
AcDbEntity
  8
0
  6
BYBLOCK
 62
     0
100
AcDbLine
 10
-1.0
 20
0.267949
 30
0.0
 11
0.0
 21
0.0
 31
0.0
  0
LINE
  5
10F
100
AcDbEntity
  8
0
  6
BYBLOCK
 62
     0
100
AcDbLine
 10
0.0
 20
0.0
 30
0.0
 11
-1.0
 21
-0.267949
 31
0.0
  0
LINE
  5
110
100
AcDbEntity
  8
0
  6
BYBLOCK
 62
     0
100
AcDbLine
 10
0.0
 20
0.0
 30
0.0
 11
-1.0
 21
0.0
 31
0.0
  0
ENDBLK
  5
112
100
AcDbEntity
  8
0
100
AcDbBlockEnd
  0
BLOCK
  5
11A
100
AcDbEntity
  8
0
100
AcDbBlockBegin
  2
テンプレ-ト
 70
     0
 10
0.0
 20
0.0
 30
0.0
  3
テンプレ-ト
  1

  0
ENDBLK
  5
11B
100
AcDbEntity
  8
0
100
AcDbBlockEnd
  0
BLOCK
  5
129
100
AcDbEntity
  8
0
100
AcDbBlockBegin
  2
*D2
 70
     1
 10
0.0
 20
0.0
 30
0.0
  3
*D2
  1

  0
LINE
  5
12A
100
AcDbEntity
  8
0
  6
BYBLOCK
 62
     1
100
AcDbLine
 10
-36.240293
 20
33.067952
 30
0.0
 11
-61.52368
 21
25.239999
 31
0.0
  0
MTEXT
  5
12B
100
AcDbEntity
  8
0
  6
BYBLOCK
 62
     1
100
AcDbMText
 10
-41.517186
 20
34.051261
 30
0.0
 40
3.0
 41
0.0
 71
     5
 72
     1
  1
\A1;\U+220570
 11
0.955263
 21
0.295758
 31
0.0
  0
INSERT
  5
12C
100
AcDbEntity
  8
0
  6
BYBLOCK
 62
     1
100
AcDbBlockReference
  2
_OPEN30
 10
-63.434206
 20
24.648484
 30
0.0
 41
2.0
 42
2.0
 43
2.0
 50
197.202973
  0
POINT
  5
12E
100
AcDbEntity
  8
DEFPOINTS
  6
BYBLOCK
 62
     0
100
AcDbPoint
 10
-63.434206
 20
24.648484
 30
0.0
  0
POINT
  5
12F
100
AcDbEntity
  8
DEFPOINTS
  6
BYBLOCK
 62
     0
100
AcDbPoint
 10
3.434206
 20
45.351517
 30
0.0
  0
ENDBLK
  5
130
100
AcDbEntity
  8
0
100
AcDbBlockEnd
  0
BLOCK
  5
133
100
AcDbEntity
  8
0
100
AcDbBlockBegin
  2
*D3
 70
     1
 10
0.0
 20
0.0
 30
0.0
  3
*D3
  1

  0
LINE
  5
134
100
AcDbEntity
  8
0
  6
BYBLOCK
 62
     1
100
AcDbLine
 10
1.077648
 20
25.0
 30
0.0
 11
-17.154488
 21
25.0
 31
0.0
  0
LINE
  5
135
100
AcDbEntity
  8
0
  6
BYBLOCK
 62
     1
100
AcDbLine
 10
-1.0
 20
0.0
 30
0.0
 11
-17.154488
 21
0.0
 31
0.0
  0
LINE
  5
136
100
AcDbEntity
  8
0
  6
BYBLOCK
 62
     1
100
AcDbLine
 10
-16.154488
 20
23.0
 30
0.0
 11
-16.154488
 21
2.0
 31
0.0
  0
INSERT
  5
137
100
AcDbEntity
  8
0
  6
BYBLOCK
 62
     1
100
AcDbBlockReference
  2
_OPEN30
 10
-16.154488
 20
25.0
 30
0.0
 41
2.0
 42
2.0
 43
2.0
 50
90.0
  0
INSERT
  5
138
100
AcDbEntity
  8
0
  6
BYBLOCK
 62
     1
100
AcDbBlockReference
  2
_OPEN30
 10
-16.154488
 20
0.0
 30
0.0
 41
2.0
 42
2.0
 43
2.0
 50
270.0
  0
MTEXT
  5
139
100
AcDbEntity
  8
0
  6
BYBLOCK
 62
     1
100
AcDbMText
 10
-18.654488
 20
12.5
 30
0.0
 40
3.0
 41
0.0
 71
     5
 72
     1
  1
\A1;25
 11
0.0
 21
1.0
 31
0.0
  0
POINT
  5
13A
100
AcDbEntity
  8
DEFPOINTS
  6
BYBLOCK
 62
     0
100
AcDbPoint
 10
2.077648
 20
25.0
 30
0.0
  0
POINT
  5
13B
100
AcDbEntity
  8
DEFPOINTS
  6
BYBLOCK
 62
     0
100
AcDbPoint
 10
0.0
 20
0.0
 30
0.0
  0
POINT
  5
13C
100
AcDbEntity
  8
DEFPOINTS
  6
BYBLOCK
 62
     0
100
AcDbPoint
 10
-16.154488
 20
0.0
 30
0.0
  0
ENDBLK
  5
13D
100
AcDbEntity
  8
0
100
AcDbBlockEnd
  0
BLOCK
  5
141
100
AcDbEntity
  8
0
100
AcDbBlockBegin
  2
*D4
 70
     1
 10
0.0
 20
0.0
 30
0.0
  3
*D4
  1

  0
LINE
  5
142
100
AcDbEntity
  8
0
  6
BYBLOCK
 62
     1
100
AcDbLine
 10
-2.0
 20
0.0
 30
0.0
 11
-11.889836
 21
0.0
 31
0.0
  0
ARC
  5
143
100
AcDbEntity
  8
0
  6
BYBLOCK
 62
     1
100
AcDbCircle
 10
-0.10957
 20
0.0
 30
0.0
 40
10.780265
100
AcDbArc
 50
95.645053
 51
169.354943
  0
INSERT
  5
144
100
AcDbEntity
  8
0
  6
BYBLOCK
 62
     1
100
AcDbBlockReference
  2
_OPEN30
 10
0.829992
 20
10.739243
 30
0.0
 41
2.0
 42
2.0
 43
2.0
 50
0.322525
  0
INSERT
  5
145
100
AcDbEntity
  8
0
  6
BYBLOCK
 62
     1
100
AcDbBlockReference
  2
_OPEN30
 10
-10.889836
 20
0.0
 30
0.0
 41
2.0
 42
2.0
 43
2.0
 50
264.677472
  0
MTEXT
  5
146
100
AcDbEntity
  8
0
  6
BYBLOCK
 62
     1
100
AcDbMText
 10
-9.081587
 20
9.791239
 30
0.0
 40
3.0
 41
0.0
 71
     5
 72
     1
  1
\A1;95°
 11
0.737277
 21
0.67559
 31
0.0
  0
POINT
  5
147
100
AcDbEntity
  8
DEFPOINTS
  6
BYBLOCK
 62
     0
100
AcDbPoint
 10
-4.947744
 20
9.633597
 30
0.0
  0
POINT
  5
148
100
AcDbEntity
  8
DEFPOINTS
  6
BYBLOCK
 62
     0
100
AcDbPoint
 10
-1.0
 20
0.0
 30
0.0
  0
POINT
  5
149
100
AcDbEntity
  8
DEFPOINTS
  6
BYBLOCK
 62
     0
100
AcDbPoint
 10
0.004566
 20
1.304587
 30
0.0
  0
POINT
  5
14A
100
AcDbEntity
  8
DEFPOINTS
  6
BYBLOCK
 62
     0
100
AcDbPoint
 10
2.077648
 20
25.0
 30
0.0
  0
POINT
  5
14B
100
AcDbEntity
  8
DEFPOINTS
  6
BYBLOCK
 62
     0
100
AcDbPoint
 10
0.0
 20
0.0
 30
0.0
  0
ENDBLK
  5
14C
100
AcDbEntity
  8
0
100
AcDbBlockEnd
  0
BLOCK
  5
14F
100
AcDbEntity
  8
0
100
AcDbBlockBegin
  2
*D5
 70
     1
 10
0.0
 20
0.0
 30
0.0
  3
*D5
  1

  0
LINE
  5
150
100
AcDbEntity
  8
0
  6
BYBLOCK
 62
     1
100
AcDbLine
 10
61.0
 20
25.0
 30
0.0
 11
80.585149
 21
25.0
 31
0.0
  0
LINE
  5
151
100
AcDbEntity
  8
0
  6
BYBLOCK
 62
     1
100
AcDbLine
 10
61.0
 20
6.0
 30
0.0
 11
80.585149
 21
6.0
 31
0.0
  0
LINE
  5
152
100
AcDbEntity
  8
0
  6
BYBLOCK
 62
     1
100
AcDbLine
 10
79.585149
 20
23.0
 30
0.0
 11
79.585149
 21
8.0
 31
0.0
  0
INSERT
  5
153
100
AcDbEntity
  8
0
  6
BYBLOCK
 62
     1
100
AcDbBlockReference
  2
_OPEN30
 10
79.585149
 20
25.0
 30
0.0
 41
2.0
 42
2.0
 43
2.0
 50
90.0
  0
INSERT
  5
154
100
AcDbEntity
  8
0
  6
BYBLOCK
 62
     1
100
AcDbBlockReference
  2
_OPEN30
 10
79.585149
 20
6.0
 30
0.0
 41
2.0
 42
2.0
 43
2.0
 50
270.0
  0
MTEXT
  5
155
100
AcDbEntity
  8
0
  6
BYBLOCK
 62
     1
100
AcDbMText
 10
77.085149
 20
15.5
 30
0.0
 40
3.0
 41
0.0
 71
     5
 72
     1
  1
\A1;19
 11
0.0
 21
1.0
 31
0.0
  0
POINT
  5
156
100
AcDbEntity
  8
DEFPOINTS
  6
BYBLOCK
 62
     0
100
AcDbPoint
 10
60.0
 20
25.0
 30
0.0
  0
POINT
  5
157
100
AcDbEntity
  8
DEFPOINTS
  6
BYBLOCK
 62
     0
100
AcDbPoint
 10
60.0
 20
6.0
 30
0.0
  0
POINT
  5
158
100
AcDbEntity
  8
DEFPOINTS
  6
BYBLOCK
 62
     0
100
AcDbPoint
 10
79.585149
 20
6.0
 30
0.0
  0
ENDBLK
  5
159
100
AcDbEntity
  8
0
100
AcDbBlockEnd
  0
BLOCK
  5
15C
100
AcDbEntity
  8
0
100
AcDbBlockBegin
  2
*D6
 70
     1
 10
0.0
 20
0.0
 30
0.0
  3
*D6
  1

  0
LINE
  5
15D
100
AcDbEntity
  8
0
  6
BYBLOCK
 62
     1
100
AcDbLine
 10
70.0
 20
15.0
 30
0.0
 11
70.0
 21
-1.135618
 31
0.0
  0
LINE
  5
15E
100
AcDbEntity
  8
0
  6
BYBLOCK
 62
     1
100
AcDbLine
 10
60.0
 20
5.0
 30
0.0
 11
60.0
 21
-1.135618
 31
0.0
  0
LINE
  5
15F
100
AcDbEntity
  8
0
  6
BYBLOCK
 62
     1
100
AcDbLine
 10
68.0
 20
-0.135618
 30
0.0
 11
62.0
 21
-0.135618
 31
0.0
  0
INSERT
  5
160
100
AcDbEntity
  8
0
  6
BYBLOCK
 62
     1
100
AcDbBlockReference
  2
_OPEN30
 10
70.0
 20
-0.135618
 30
0.0
 41
2.0
 42
2.0
 43
2.0
  0
INSERT
  5
161
100
AcDbEntity
  8
0
  6
BYBLOCK
 62
     1
100
AcDbBlockReference
  2
_OPEN30
 10
60.0
 20
-0.135618
 30
0.0
 41
2.0
 42
2.0
 43
2.0
 50
180.0
  0
MTEXT
  5
162
100
AcDbEntity
  8
0
  6
BYBLOCK
 62
     1
100
AcDbMText
 10
65.0
 20
2.364382
 30
0.0
 40
3.0
 41
0.0
 71
     5
 72
     1
  1
\A1;10
  0
POINT
  5
163
100
AcDbEntity
  8
DEFPOINTS
  6
BYBLOCK
 62
     0
100
AcDbPoint
 10
70.0
 20
16.0
 30
0.0
  0
POINT
  5
164
100
AcDbEntity
  8
DEFPOINTS
  6
BYBLOCK
 62
     0
100
AcDbPoint
 10
60.0
 20
6.0
 30
0.0
  0
POINT
  5
165
100
AcDbEntity
  8
DEFPOINTS
  6
BYBLOCK
 62
     0
100
AcDbPoint
 10
60.0
 20
-0.135618
 30
0.0
  0
ENDBLK
  5
166
100
AcDbEntity
  8
0
100
AcDbBlockEnd
  0
BLOCK
  5
169
100
AcDbEntity
  8
0
100
AcDbBlockBegin
  2
*D7
 70
     1
 10
0.0
 20
0.0
 30
0.0
  3
*D7
  1

  0
LINE
  5
16A
100
AcDbEntity
  8
0
  6
BYBLOCK
 62
     1
100
AcDbLine
 10
70.0
 20
15.0
 30
0.0
 11
70.0
 21
-11.234124
 31
0.0
  0
LINE
  5
16B
100
AcDbEntity
  8
0
  6
BYBLOCK
 62
     1
100
AcDbLine
 10
0.0
 20
-1.0
 30
0.0
 11
0.0
 21
-11.234124
 31
0.0
  0
LINE
  5
16C
100
AcDbEntity
  8
0
  6
BYBLOCK
 62
     1
100
AcDbLine
 10
68.0
 20
-10.234124
 30
0.0
 11
2.0
 21
-10.234124
 31
0.0
  0
INSERT
  5
16D
100
AcDbEntity
  8
0
  6
BYBLOCK
 62
     1
100
AcDbBlockReference
  2
_OPEN30
 10
70.0
 20
-10.234124
 30
0.0
 41
2.0
 42
2.0
 43
2.0
  0
INSERT
  5
16E
100
AcDbEntity
  8
0
  6
BYBLOCK
 62
     1
100
AcDbBlockReference
  2
_OPEN30
 10
0.0
 20
-10.234124
 30
0.0
 41
2.0
 42
2.0
 43
2.0
 50
180.0
  0
MTEXT
  5
16F
100
AcDbEntity
  8
0
  6
BYBLOCK
 62
     1
100
AcDbMText
 10
35.0
 20
-7.734124
 30
0.0
 40
3.0
 41
0.0
 71
     5
 72
     1
  1
\A1;70
  0
POINT
  5
170
100
AcDbEntity
  8
DEFPOINTS
  6
BYBLOCK
 62
     0
100
AcDbPoint
 10
70.0
 20
16.0
 30
0.0
  0
POINT
  5
171
100
AcDbEntity
  8
DEFPOINTS
  6
BYBLOCK
 62
     0
100
AcDbPoint
 10
0.0
 20
0.0
 30
0.0
  0
POINT
  5
172
100
AcDbEntity
  8
DEFPOINTS
  6
BYBLOCK
 62
     0
100
AcDbPoint
 10
0.0
 20
-10.234124
 30
0.0
  0
ENDBLK
  5
173
100
AcDbEntity
  8
0
100
AcDbBlockEnd
  0
BLOCK
  5
210
100
AcDbEntity
  8
0
100
AcDbBlockBegin
  2
*D8
 70
     1
 10
0.0
 20
0.0
 30
0.0
  3
*D8
  1

  0
LINE
  5
211
100
AcDbEntity
  8
0
  6
BYBLOCK
 62
     1
100
AcDbLine
 10
38.75
 20
-35.681326
 30
0.0
 11
38.75
 21
-29.636622
 31
0.0
  0
LINE
  5
212
100
AcDbEntity
  8
0
  6
BYBLOCK
 62
     1
100
AcDbLine
 10
41.25
 20
-35.681326
 30
0.0
 11
41.25
 21
-29.636622
 31
0.0
  0
LINE
  5
213
100
AcDbEntity
  8
0
  6
BYBLOCK
 62
     1
100
AcDbLine
 10
36.75
 20
-30.636622
 30
0.0
 11
34.75
 21
-30.636622
 31
0.0
  0
LINE
  5
214
100
AcDbEntity
  8
0
  6
BYBLOCK
 62
     1
100
AcDbLine
 10
43.25
 20
-30.636622
 30
0.0
 11
53.25
 21
-30.636622
 31
0.0
  0
LINE
  5
215
100
AcDbEntity
  8
0
  6
BYBLOCK
 62
     1
100
AcDbLine
 10
38.75
 20
-30.636622
 30
0.0
 11
41.25
 21
-30.636622
 31
0.0
  0
INSERT
  5
216
100
AcDbEntity
  8
0
  6
BYBLOCK
 62
     1
100
AcDbBlockReference
  2
_OPEN30
 10
38.75
 20
-30.636622
 30
0.0
 41
2.0
 42
2.0
 43
2.0
  0
INSERT
  5
217
100
AcDbEntity
  8
0
  6
BYBLOCK
 62
     1
100
AcDbBlockReference
  2
_OPEN30
 10
41.25
 20
-30.636622
 30
0.0
 41
2.0
 42
2.0
 43
2.0
 50
180.0
  0
MTEXT
  5
218
100
AcDbEntity
  8
0
  6
BYBLOCK
 62
     1
100
AcDbMText
 10
49.25
 20
-28.136622
 30
0.0
 40
3.0
 41
0.0
 71
     5
 72
     1
  1
\A1;2.5
  0
POINT
  5
219
100
AcDbEntity
  8
DEFPOINTS
  6
BYBLOCK
 62
     0
100
AcDbPoint
 10
38.75
 20
-36.681326
 30
0.0
  0
POINT
  5
21A
100
AcDbEntity
  8
DEFPOINTS
  6
BYBLOCK
 62
     0
100
AcDbPoint
 10
41.25
 20
-36.681326
 30
0.0
  0
POINT
  5
21B
100
AcDbEntity
  8
DEFPOINTS
  6
BYBLOCK
 62
     0
100
AcDbPoint
 10
41.25
 20
-30.636622
 30
0.0
  0
ENDBLK
  5
21C
100
AcDbEntity
  8
0
100
AcDbBlockEnd
  0
BLOCK
  5
186
100
AcDbEntity
  8
0
100
AcDbBlockBegin
  2
*D9
 70
     1
 10
0.0
 20
0.0
 30
0.0
  3
*D9
  1

  0
LINE
  5
187
100
AcDbEntity
  8
0
  6
BYBLOCK
 62
     1
100
AcDbLine
 10
70.0
 20
-40.0
 30
0.0
 11
70.0
 21
-13.192479
 31
0.0
  0
LINE
  5
188
100
AcDbEntity
  8
0
  6
BYBLOCK
 62
     1
100
AcDbLine
 10
40.0
 20
-29.618711
 30
0.0
 11
40.0
 21
-13.192479
 31
0.0
  0
LINE
  5
189
100
AcDbEntity
  8
0
  6
BYBLOCK
 62
     1
100
AcDbLine
 10
68.0
 20
-14.192479
 30
0.0
 11
42.0
 21
-14.192479
 31
0.0
  0
INSERT
  5
18A
100
AcDbEntity
  8
0
  6
BYBLOCK
 62
     1
100
AcDbBlockReference
  2
_OPEN30
 10
70.0
 20
-14.192479
 30
0.0
 41
2.0
 42
2.0
 43
2.0
  0
INSERT
  5
18B
100
AcDbEntity
  8
0
  6
BYBLOCK
 62
     1
100
AcDbBlockReference
  2
_OPEN30
 10
40.0
 20
-14.192479
 30
0.0
 41
2.0
 42
2.0
 43
2.0
 50
180.0
  0
MTEXT
  5
18C
100
AcDbEntity
  8
0
  6
BYBLOCK
 62
     1
100
AcDbMText
 10
55.0
 20
-11.692479
 30
0.0
 40
3.0
 41
0.0
 71
     5
 72
     1
  1
\A1;30
  0
POINT
  5
18D
100
AcDbEntity
  8
DEFPOINTS
  6
BYBLOCK
 62
     0
100
AcDbPoint
 10
70.0
 20
-41.0
 30
0.0
  0
POINT
  5
18E
100
AcDbEntity
  8
DEFPOINTS
  6
BYBLOCK
 62
     0
100
AcDbPoint
 10
40.0
 20
-30.618711
 30
0.0
  0
POINT
  5
18F
100
AcDbEntity
  8
DEFPOINTS
  6
BYBLOCK
 62
     0
100
AcDbPoint
 10
40.0
 20
-14.192479
 30
0.0
  0
ENDBLK
  5
190
100
AcDbEntity
  8
0
100
AcDbBlockEnd
  0
BLOCK
  5
193
100
AcDbEntity
  8
0
100
AcDbBlockBegin
  2
*D10
 70
     1
 10
0.0
 20
0.0
 30
0.0
  3
*D10
  1

  0
LINE
  5
194
100
AcDbEntity
  8
0
  6
BYBLOCK
 62
     1
100
AcDbLine
 10
61.0
 20
-30.0
 30
0.0
 11
80.831321
 21
-30.0
 31
0.0
  0
LINE
  5
195
100
AcDbEntity
  8
0
  6
BYBLOCK
 62
     1
100
AcDbLine
 10
61.0
 20
-50.0
 30
0.0
 11
80.831321
 21
-50.0
 31
0.0
  0
LINE
  5
196
100
AcDbEntity
  8
0
  6
BYBLOCK
 62
     1
100
AcDbLine
 10
79.831321
 20
-32.0
 30
0.0
 11
79.831321
 21
-48.0
 31
0.0
  0
INSERT
  5
197
100
AcDbEntity
  8
0
  6
BYBLOCK
 62
     1
100
AcDbBlockReference
  2
_OPEN30
 10
79.831321
 20
-30.0
 30
0.0
 41
2.0
 42
2.0
 43
2.0
 50
90.0
  0
INSERT
  5
198
100
AcDbEntity
  8
0
  6
BYBLOCK
 62
     1
100
AcDbBlockReference
  2
_OPEN30
 10
79.831321
 20
-50.0
 30
0.0
 41
2.0
 42
2.0
 43
2.0
 50
270.0
  0
MTEXT
  5
199
100
AcDbEntity
  8
0
  6
BYBLOCK
 62
     1
100
AcDbMText
 10
77.331321
 20
-40.0
 30
0.0
 40
3.0
 41
0.0
 71
     5
 72
     1
  1
\A1;20
 11
0.0
 21
1.0
 31
0.0
  0
POINT
  5
19A
100
AcDbEntity
  8
DEFPOINTS
  6
BYBLOCK
 62
     0
100
AcDbPoint
 10
60.0
 20
-30.0
 30
0.0
  0
POINT
  5
19B
100
AcDbEntity
  8
DEFPOINTS
  6
BYBLOCK
 62
     0
100
AcDbPoint
 10
60.0
 20
-50.0
 30
0.0
  0
POINT
  5
19C
100
AcDbEntity
  8
DEFPOINTS
  6
BYBLOCK
 62
     0
100
AcDbPoint
 10
79.831321
 20
-50.0
 30
0.0
  0
ENDBLK
  5
19D
100
AcDbEntity
  8
0
100
AcDbBlockEnd
  0
BLOCK
  5
1A0
100
AcDbEntity
  8
0
100
AcDbBlockBegin
  2
*D11
 70
     1
 10
0.0
 20
0.0
 30
0.0
  3
*D11
  1

  0
LINE
  5
1A1
100
AcDbEntity
  8
0
  6
BYBLOCK
 62
     1
100
AcDbLine
 10
-1.0
 20
-30.0
 30
0.0
 11
-16.252592
 21
-30.0
 31
0.0
  0
LINE
  5
1A2
100
AcDbEntity
  8
0
  6
BYBLOCK
 62
     1
100
AcDbLine
 10
4.985078
 20
-50.0
 30
0.0
 11
-16.252592
 21
-50.0
 31
0.0
  0
LINE
  5
1A3
100
AcDbEntity
  8
0
  6
BYBLOCK
 62
     1
100
AcDbLine
 10
-15.252592
 20
-32.0
 30
0.0
 11
-15.252592
 21
-48.0
 31
0.0
  0
INSERT
  5
1A4
100
AcDbEntity
  8
0
  6
BYBLOCK
 62
     1
100
AcDbBlockReference
  2
_OPEN30
 10
-15.252592
 20
-30.0
 30
0.0
 41
2.0
 42
2.0
 43
2.0
 50
90.0
  0
INSERT
  5
1A5
100
AcDbEntity
  8
0
  6
BYBLOCK
 62
     1
100
AcDbBlockReference
  2
_OPEN30
 10
-15.252592
 20
-50.0
 30
0.0
 41
2.0
 42
2.0
 43
2.0
 50
270.0
  0
MTEXT
  5
1A6
100
AcDbEntity
  8
0
  6
BYBLOCK
 62
     1
100
AcDbMText
 10
-17.752592
 20
-40.0
 30
0.0
 40
3.0
 41
0.0
 71
     5
 72
     1
  1
\A1;20
 11
0.0
 21
1.0
 31
0.0
  0
POINT
  5
1A7
100
AcDbEntity
  8
DEFPOINTS
  6
BYBLOCK
 62
     0
100
AcDbPoint
 10
0.0
 20
-30.0
 30
0.0
  0
POINT
  5
1A8
100
AcDbEntity
  8
DEFPOINTS
  6
BYBLOCK
 62
     0
100
AcDbPoint
 10
5.985078
 20
-50.0
 30
0.0
  0
POINT
  5
1A9
100
AcDbEntity
  8
DEFPOINTS
  6
BYBLOCK
 62
     0
100
AcDbPoint
 10
-15.252592
 20
-50.0
 30
0.0
  0
ENDBLK
  5
1AA
100
AcDbEntity
  8
0
100
AcDbBlockEnd
  0
BLOCK
  5
1BE
100
AcDbEntity
  8
0
100
AcDbBlockBegin
  2
*D12
 70
     1
 10
0.0
 20
0.0
 30
0.0
  3
*D12
  1

  0
LINE
  5
1BF
100
AcDbEntity
  8
0
  6
BYBLOCK
 62
     1
100
AcDbLine
 10
111.080847
 20
-52.080844
 30
0.0
 11
115.499588
 21
-56.499585
 31
0.0
  0
LINE
  5
1C0
100
AcDbEntity
  8
0
  6
BYBLOCK
 62
     1
100
AcDbLine
 10
109.875117
 20
-49.875114
 30
0.0
 11
118.243533
 21
-49.875114
 31
0.0
  0
ARC
  5
1C1
100
AcDbEntity
  8
0
  6
BYBLOCK
 62
     1
100
AcDbCircle
 10
108.875117
 20
-49.875114
 30
0.0
 40
8.368416
100
AcDbArc
 50
328.726137
 51
346.273861
  0
INSERT
  5
1C2
100
AcDbEntity
  8
0
  6
BYBLOCK
 62
     1
100
AcDbBlockReference
  2
_OPEN30
 10
114.792481
 20
-55.792478
 30
0.0
 41
2.0
 42
2.0
 43
2.0
 50
231.863068
  0
INSERT
  5
1C3
100
AcDbEntity
  8
0
  6
BYBLOCK
 62
     1
100
AcDbBlockReference
  2
_OPEN30
 10
117.243533
 20
-49.875114
 30
0.0
 41
2.0
 42
2.0
 43
2.0
 50
83.136931
  0
MTEXT
  5
1C4
100
AcDbEntity
  8
0
  6
BYBLOCK
 62
     1
100
AcDbMText
 10
119.705756
 20
-48.969727
 30
0.0
 40
3.0
 41
0.0
 71
     5
 72
     1
  1
\A1;45°
 11
0.083304
 21
-0.996524
 31
0.0
  0
POINT
  5
1C5
100
AcDbEntity
  8
DEFPOINTS
  6
BYBLOCK
 62
     0
100
AcDbPoint
 10
116.122378
 20
-54.059322
 30
0.0
  0
POINT
  5
1C6
100
AcDbEntity
  8
DEFPOINTS
  6
BYBLOCK
 62
     0
100
AcDbPoint
 10
108.00004
 20
-49.875114
 30
0.0
  0
POINT
  5
1C7
100
AcDbEntity
  8
DEFPOINTS
  6
BYBLOCK
 62
     0
100
AcDbPoint
 10
110.37374
 20
-51.373737
 30
0.0
  0
POINT
  5
1C8
100
AcDbEntity
  8
DEFPOINTS
  6
BYBLOCK
 62
     0
100
AcDbPoint
 10
93.112251
 20
-34.112247
 30
0.0
  0
POINT
  5
1C9
100
AcDbEntity
  8
DEFPOINTS
  6
BYBLOCK
 62
     0
100
AcDbPoint
 10
108.642054
 20
-49.875114
 30
0.0
  0
ENDBLK
  5
1CA
100
AcDbEntity
  8
0
100
AcDbBlockEnd
  0
BLOCK
  5
1D2
100
AcDbEntity
  8
0
 62
     1
100
AcDbBlockBegin
  2
A$C483B0104
 70
     0
 10
0.0
 20
0.0
 30
0.0
  3
A$C483B0104
  1

  0
TEXT
  5
1CC
100
AcDbEntity
  8
寸法
  6
CONTINUOUS
100
AcDbText
 10
12.244577
 20
0.0
 30
0.0
 40
3.0
  1
+5°
100
AcDbText
  0
LINE
  5
1CD
100
AcDbEntity
  8
寸法
  6
CONTINUOUS
 62
     1
100
AcDbLine
 10
12.337881
 20
5.006003
 30
0.0
 11
4.608707
 21
5.006003
 31
0.0
  0
LINE
  5
1CE
100
AcDbEntity
  8
寸法
  6
CONTINUOUS
 62
     1
100
AcDbLine
 10
4.608707
 20
12.988109
 30
0.0
 11
4.608707
 21
5.006003
 31
0.0
  0
INSERT
  5
1CF
100
AcDbEntity
  8
寸法
  6
CONTINUOUS
 62
     1
100
AcDbBlockReference
  2
_OPEN30
 10
4.608707
 20
14.988109
 30
0.0
 41
2.0
 42
2.0
 43
2.0
 50
90.0
  0
TEXT
  5
1D0
100
AcDbEntity
  8
寸法
  6
CONTINUOUS
100
AcDbText
 10
0.0
 20
12.495593
 30
0.0
 40
3.0
  1
0°
100
AcDbText
  0
INSERT
  5
1D1
100
AcDbEntity
  8
寸法
  6
CONTINUOUS
 62
     1
100
AcDbBlockReference
  2
_OPEN30
 10
14.337881
 20
5.006003
 30
0.0
 41
2.0
 42
2.0
 43
2.0
  0
ENDBLK
  5
1D3
100
AcDbEntity
  8
0
 62
     1
100
AcDbBlockEnd
  0
BLOCK
  5
1DC
100
AcDbEntity
  8
0
100
AcDbBlockBegin
  2
*D14
 70
     1
 10
0.0
 20
0.0
 30
0.0
  3
*D14
  1

  0
LINE
  5
1DD
100
AcDbEntity
  8
0
  6
BYBLOCK
 62
     1
100
AcDbLine
 10
1.077648
 20
-26.062615
 30
0.0
 11
-16.252592
 21
-26.062615
 31
0.0
  0
LINE
  5
1DE
100
AcDbEntity
  8
0
  6
BYBLOCK
 62
     1
100
AcDbLine
 10
-1.0
 20
-36.062615
 30
0.0
 11
-16.252592
 21
-36.062615
 31
0.0
  0
LINE
  5
1DF
100
AcDbEntity
  8
0
  6
BYBLOCK
 62
     1
100
AcDbLine
 10
-15.252592
 20
-28.062615
 30
0.0
 11
-15.252592
 21
-34.062615
 31
0.0
  0
INSERT
  5
1E0
100
AcDbEntity
  8
0
  6
BYBLOCK
 62
     1
100
AcDbBlockReference
  2
_OPEN30
 10
-15.252592
 20
-26.062615
 30
0.0
 41
2.0
 42
2.0
 43
2.0
 50
90.0
  0
INSERT
  5
1E1
100
AcDbEntity
  8
0
  6
BYBLOCK
 62
     1
100
AcDbBlockReference
  2
_OPEN30
 10
-15.252592
 20
-36.062615
 30
0.0
 41
2.0
 42
2.0
 43
2.0
 50
270.0
  0
MTEXT
  5
1E2
100
AcDbEntity
  8
0
  6
BYBLOCK
 62
     1
100
AcDbMText
 10
-17.752592
 20
-31.062615
 30
0.0
 40
3.0
 41
0.0
 71
     5
 72
     1
  1
\A1;10
 11
0.0
 21
1.0
 31
0.0
  0
POINT
  5
1E3
100
AcDbEntity
  8
DEFPOINTS
  6
BYBLOCK
 62
     0
100
AcDbPoint
 10
2.077648
 20
-26.062615
 30
0.0
  0
POINT
  5
1E4
100
AcDbEntity
  8
DEFPOINTS
  6
BYBLOCK
 62
     0
100
AcDbPoint
 10
0.0
 20
-36.062615
 30
0.0
  0
POINT
  5
1E5
100
AcDbEntity
  8
DEFPOINTS
  6
BYBLOCK
 62
     0
100
AcDbPoint
 10
-15.252592
 20
-36.062615
 30
0.0
  0
ENDBLK
  5
1E6
100
AcDbEntity
  8
0
100
AcDbBlockEnd
  0
BLOCK
  5
1F3
100
AcDbEntity
  8
0
100
AcDbBlockBegin
  2
*D15
 70
     1
 10
0.0
 20
0.0
 30
0.0
  3
*D15
  1

  0
LINE
  5
1F4
100
AcDbEntity
  8
0
  6
BYBLOCK
 62
     1
100
AcDbLine
 10
25.790199
 20
-59.186759
 30
0.0
 11
17.523022
 21
-69.138522
 31
0.0
  0
MTEXT
  5
1F5
100
AcDbEntity
  8
0
  6
BYBLOCK
 62
     1
100
AcDbMText
 10
20.831933
 20
-61.242995
 30
0.0
 40
3.0
 41
0.0
 71
     5
 72
     1
  1
\A1;\U+220590
 11
0.639
 21
0.769207
 31
0.0
  0
INSERT
  5
1F6
100
AcDbEntity
  8
0
  6
BYBLOCK
 62
     1
100
AcDbBlockReference
  2
_OPEN30
 10
16.245023
 20
-70.676936
 30
0.0
 41
2.0
 42
2.0
 43
2.0
 50
230.282744
  0
POINT
  5
1F7
100
AcDbEntity
  8
DEFPOINTS
  6
BYBLOCK
 62
     0
100
AcDbPoint
 10
16.245023
 20
-70.676936
 30
0.0
  0
POINT
  5
1F8
100
AcDbEntity
  8
DEFPOINTS
  6
BYBLOCK
 62
     0
100
AcDbPoint
 10
73.754978
 20
-1.448293
 30
0.0
  0
ENDBLK
  5
1F9
100
AcDbEntity
  8
0
100
AcDbBlockEnd
  0
ENDSEC
  0
SECTION
  2
ENTITIES
  0
POINT
  5
24
100
AcDbEntity
  8
0
  6
CONTINUOUS
 62
     7
100
AcDbPoint
 10
-36.70504
 20
0.000001
 30
0.0
  0
POINT
  5
25
100
AcDbEntity
  8
0
  6
CONTINUOUS
 62
     7
100
AcDbPoint
 10
0.0
 20
0.0
 30
0.0
  0
POINT
  5
26
100
AcDbEntity
  8
0
  6
CONTINUOUS
 62
     7
100
AcDbPoint
 10
0.0
 20
-36.062615
 30
0.0
  0
POINT
  5
27
100
AcDbEntity
  8
0
  6
CONTINUOUS
 62
     7
100
AcDbPoint
 10
91.69593
 20
-56.080014
 30
0.0
  0
LINE
  5
28
100
AcDbEntity
  8
0
  6
CONTINUOUS
 62
     7
100
AcDbLine
 10
0.004566
 20
1.304587
 30
0.0
 11
2.077648
 21
25.0
 31
0.0
  0
LINE
  5
29
100
AcDbEntity
  8
0
  6
CONTINUOUS
 62
     7
100
AcDbLine
 10
1.304587
 20
0.004566
 30
0.0
 11
14.935395
 21
1.197107
 31
0.0
  0
LINE
  5
2A
100
AcDbEntity
  8
0
  6
CONTINUOUS
 62
     7
100
AcDbLine
 10
2.287955
 20
16.026239
 30
0.0
 11
15.918764
 21
17.218781
 31
0.0
  0
LINE
  5
2B
100
AcDbEntity
  8
0
  6
CONTINUOUS
 62
     7
100
AcDbLine
 10
16.026241
 20
2.287954
 30
0.0
 11
17.218782
 21
15.918761
 31
0.0
  0
LINE
  5
2C
100
AcDbEntity
  8
0
  6
CONTINUOUS
 62
     7
100
AcDbLine
 10
2.077648
 20
25.0
 30
0.0
 11
60.0
 21
25.0
 31
0.0
  0
LINE
  5
2D
100
AcDbEntity
  8
0
  6
CONTINUOUS
 62
     7
100
AcDbLine
 10
29.999998
 20
6.0
 30
0.0
 11
60.0
 21
6.0
 31
0.0
  0
LINE
  5
2E
100
AcDbEntity
  8
0
  6
CONTINUOUS
 62
     7
100
AcDbLine
 10
60.0
 20
25.0
 30
0.0
 11
60.0
 21
6.0
 31
0.0
  0
LINE
  5
2F
100
AcDbEntity
  8
0
  6
CENTER
 62
     1
100
AcDbLine
 10
72.058167
 20
16.0
 30
0.0
 11
57.647362
 21
16.0
 31
0.0
  0
LINE
  5
30
100
AcDbEntity
  8
0
  6
CONTINUOUS
 62
     7
100
AcDbLine
 10
70.0
 20
17.800001
 30
0.0
 11
70.0
 21
14.199999
 31
0.0
  0
LINE
  5
31
100
AcDbEntity
  8
0
  6
CONTINUOUS
 62
     7
100
AcDbLine
 10
64.0
 20
20.5
 30
0.0
 11
64.0
 21
11.5
 31
0.0
  0
LINE
  5
32
100
AcDbEntity
  8
0
  6
CONTINUOUS
 62
     7
100
AcDbLine
 10
64.0
 20
19.0
 30
0.0
 11
60.0
 21
19.0
 31
0.0
  0
LINE
  5
33
100
AcDbEntity
  8
0
  6
CONTINUOUS
 62
     7
100
AcDbLine
 10
64.0
 20
13.0
 30
0.0
 11
60.0
 21
13.0
 31
0.0
  0
LINE
  5
34
100
AcDbEntity
  8
0
  6
CONTINUOUS
 62
     7
100
AcDbLine
 10
64.0
 20
13.5415
 30
0.0
 11
60.0
 21
13.5415
 31
0.0
  0
LINE
  5
35
100
AcDbEntity
  8
0
  6
CONTINUOUS
 62
     7
100
AcDbLine
 10
64.0
 20
18.4585
 30
0.0
 11
60.0
 21
18.4585
 31
0.0
  0
LINE
  5
36
100
AcDbEntity
  8
0
  6
CONTINUOUS
 62
     7
100
AcDbLine
 10
68.507812
 20
11.0
 30
0.0
 11
64.5
 21
11.0
 31
0.0
  0
LINE
  5
37
100
AcDbEntity
  8
0
  6
CONTINUOUS
 62
     7
100
AcDbLine
 10
68.507812
 20
21.0
 30
0.0
 11
64.5
 21
21.0
 31
0.0
  0
LINE
  5
38
100
AcDbEntity
  8
0
  6
CONTINUOUS
 62
     7
100
AcDbLine
 10
70.0
 20
17.800001
 30
0.0
 11
68.507812
 21
21.0
 31
0.0
  0
LINE
  5
39
100
AcDbEntity
  8
0
  6
CONTINUOUS
 62
     7
100
AcDbLine
 10
70.0
 20
14.199996
 30
0.0
 11
68.507812
 21
10.999998
 31
0.0
  0
LINE
  5
3A
100
AcDbEntity
  8
0
  6
CONTINUOUS
 62
     7
100
AcDbLine
 10
64.5
 20
21.000002
 30
0.0
 11
64.0
 21
20.500004
 31
0.0
  0
LINE
  5
3B
100
AcDbEntity
  8
0
  6
CONTINUOUS
 62
     7
100
AcDbLine
 10
64.0
 20
11.499999
 30
0.0
 11
64.5
 21
11.000001
 31
0.0
  0
LINE
  5
3C
100
AcDbEntity
  8
0
  6
CONTINUOUS
 62
     7
100
AcDbLine
 10
64.5
 20
21.0
 30
0.0
 11
64.5
 21
11.0
 31
0.0
  0
LINE
  5
3D
100
AcDbEntity
  8
0
  6
CONTINUOUS
 62
     7
100
AcDbLine
 10
68.507812
 20
21.0
 30
0.0
 11
68.507812
 21
11.0
 31
0.0
  0
LINE
  5
3E
100
AcDbEntity
  8
0
  6
CONTINUOUS
 62
     7
100
AcDbLine
 10
2.077648
 20
-26.062615
 30
0.0
 11
25.226494
 21
-26.062615
 31
0.0
  0
LINE
  5
3F
100
AcDbEntity
  8
0
  6
CONTINUOUS
 62
     7
100
AcDbLine
 10
5.985078
 20
-56.062615
 30
0.0
 11
60.0
 21
-56.062615
 31
0.0
  0
LINE
  5
40
100
AcDbEntity
  8
0
  6
CONTINUOUS
 62
     7
100
AcDbLine
 10
31.0
 20
-36.062615
 30
0.0
 11
60.0
 21
-36.062615
 31
0.0
  0
LINE
  5
41
100
AcDbEntity
  8
0
  6
CONTINUOUS
 62
     7
100
AcDbLine
 10
60.0
 20
-36.062615
 30
0.0
 11
60.0
 21
-56.062615
 31
0.0
  0
LINE
  5
42
100
AcDbEntity
  8
0
  6
CENTER
 62
     1
100
AcDbLine
 10
72.058167
 20
-47.062615
 30
0.0
 11
57.151093
 21
-47.062615
 31
0.0
  0
LINE
  5
43
100
AcDbEntity
  8
0
  6
CONTINUOUS
 62
     7
100
AcDbLine
 10
70.0
 20
-45.262616
 30
0.0
 11
70.0
 21
-48.862614
 31
0.0
  0
LINE
  5
44
100
AcDbEntity
  8
0
  6
CONTINUOUS
 62
     7
100
AcDbLine
 10
64.0
 20
-42.562615
 30
0.0
 11
64.0
 21
-51.562615
 31
0.0
  0
LINE
  5
45
100
AcDbEntity
  8
0
  6
CONTINUOUS
 62
     7
100
AcDbLine
 10
64.0
 20
-44.062615
 30
0.0
 11
60.0
 21
-44.062615
 31
0.0
  0
LINE
  5
46
100
AcDbEntity
  8
0
  6
CONTINUOUS
 62
     7
100
AcDbLine
 10
64.0
 20
-50.062615
 30
0.0
 11
60.0
 21
-50.062615
 31
0.0
  0
LINE
  5
47
100
AcDbEntity
  8
0
  6
CONTINUOUS
 62
     7
100
AcDbLine
 10
64.0
 20
-49.521115
 30
0.0
 11
60.0
 21
-49.521115
 31
0.0
  0
LINE
  5
48
100
AcDbEntity
  8
0
  6
CONTINUOUS
 62
     7
100
AcDbLine
 10
64.0
 20
-44.604115
 30
0.0
 11
60.0
 21
-44.604115
 31
0.0
  0
LINE
  5
49
100
AcDbEntity
  8
0
  6
CONTINUOUS
 62
     7
100
AcDbLine
 10
68.507812
 20
-52.062615
 30
0.0
 11
64.5
 21
-52.062615
 31
0.0
  0
LINE
  5
4A
100
AcDbEntity
  8
0
  6
CONTINUOUS
 62
     7
100
AcDbLine
 10
68.507812
 20
-42.062615
 30
0.0
 11
64.5
 21
-42.062615
 31
0.0
  0
LINE
  5
4B
100
AcDbEntity
  8
0
  6
CONTINUOUS
 62
     7
100
AcDbLine
 10
70.0
 20
-45.262616
 30
0.0
 11
68.507812
 21
-42.062619
 31
0.0
  0
LINE
  5
4C
100
AcDbEntity
  8
0
  6
CONTINUOUS
 62
     7
100
AcDbLine
 10
70.0
 20
-48.862618
 30
0.0
 11
68.50782
 21
-52.062615
 31
0.0
  0
LINE
  5
4D
100
AcDbEntity
  8
0
  6
CONTINUOUS
 62
     7
100
AcDbLine
 10
64.5
 20
-42.062615
 30
0.0
 11
64.0
 21
-42.562615
 31
0.0
  0
LINE
  5
4E
100
AcDbEntity
  8
0
  6
CONTINUOUS
 62
     7
100
AcDbLine
 10
64.0
 20
-51.562615
 30
0.0
 11
64.5
 21
-52.062615
 31
0.0
  0
LINE
  5
4F
100
AcDbEntity
  8
0
  6
CONTINUOUS
 62
     7
100
AcDbLine
 10
64.5
 20
-42.062615
 30
0.0
 11
64.5
 21
-52.062615
 31
0.0
  0
LINE
  5
50
100
AcDbEntity
  8
0
  6
CONTINUOUS
 62
     7
100
AcDbLine
 10
68.507812
 20
-42.062615
 30
0.0
 11
68.507812
 21
-52.062615
 31
0.0
  0
LINE
  5
51
100
AcDbEntity
  8
0
  6
CONTINUOUS
 62
     7
100
AcDbLine
 10
25.226496
 20
-26.062615
 30
0.0
 11
31.000002
 21
-36.062617
 31
0.0
  0
LINE
  5
52
100
AcDbEntity
  8
0
  6
CONTINUOUS
 62
     7
100
AcDbLine
 10
1.552716
 20
19.0
 30
0.0
 11
28.088627
 21
19.0
 31
0.0
  0
LINE
  5
53
100
AcDbEntity
  8
0
  6
CONTINUOUS
 62
     7
100
AcDbLine
 10
31.0
 20
-46.77834
 30
0.0
 11
60.0
 21
-46.77834
 31
0.0
  0
LINE
  5
54
100
AcDbEntity
  8
0
  6
CONTINUOUS
 62
     7
100
AcDbLine
 10
29.999998
 20
-51.420479
 30
0.0
 11
60.0
 21
-51.420479
 31
0.0
  0
LINE
  5
55
100
AcDbEntity
  8
0
  6
CONTINUOUS
 62
     7
100
AcDbLine
 10
15.424033
 20
1.349428
 30
0.0
 11
27.947578
 21
2.445096
 31
0.0
  0
LINE
  5
56
100
AcDbEntity
  8
0
  6
CONTINUOUS
 62
     7
100
AcDbLine
 10
30.0
 20
6.0
 30
0.0
 11
27.947577
 21
2.445096
 31
0.0
  0
LINE
  5
57
100
AcDbEntity
  8
0
  6
CONTINUOUS
 62
     7
100
AcDbLine
 10
29.999998
 20
-34.330561
 30
0.0
 11
29.999998
 21
-51.420479
 31
0.0
  0
LINE
  5
58
100
AcDbEntity
  8
0
  6
CONTINUOUS
 62
     7
100
AcDbLine
 10
31.0
 20
-36.062615
 30
0.0
 11
31.0
 21
-46.77834
 31
0.0
  0
LINE
  5
59
100
AcDbEntity
  8
0
  6
CONTINUOUS
 62
     7
100
AcDbLine
 10
31.000002
 20
25.0
 30
0.0
 11
31.000002
 21
6.0
 31
0.0
  0
LINE
  5
5A
100
AcDbEntity
  8
0
  6
CONTINUOUS
 62
     7
100
AcDbLine
 10
31.000002
 20
16.715729
 30
0.0
 11
60.0
 21
16.715729
 31
0.0
  0
LINE
  5
5B
100
AcDbEntity
  8
0
  6
CONTINUOUS
 62
     7
100
AcDbLine
 10
25.226494
 20
25.0
 30
0.0
 11
25.226494
 21
19.0
 31
0.0
  0
LINE
  5
5C
100
AcDbEntity
  8
0
  6
CONTINUOUS
 62
     7
100
AcDbLine
 10
39.0
 20
7.322365
 30
0.0
 11
41.25
 21
7.322365
 31
0.0
  0
LINE
  5
5D
100
AcDbEntity
  8
0
  6
CONTINUOUS
 62
     7
100
AcDbLine
 10
39.0
 20
14.393433
 30
0.0
 11
41.25
 21
14.393433
 31
0.0
  0
LINE
  5
5E
100
AcDbEntity
  8
0
  6
CENTER
 62
     1
100
AcDbLine
 10
40.0
 20
18.387232
 30
0.0
 11
40.0
 21
4.296439
 31
0.0
  0
LINE
  5
5F
100
AcDbEntity
  8
0
  6
CONTINUOUS
 62
     7
100
AcDbLine
 10
38.75
 20
-45.456009
 30
0.0
 11
41.25
 21
-45.456009
 31
0.0
  0
LINE
  5
60
100
AcDbEntity
  8
0
  6
CONTINUOUS
 62
     7
100
AcDbLine
 10
38.75
 20
-38.384942
 30
0.0
 11
41.25
 21
-38.384942
 31
0.0
  0
LINE
  5
61
100
AcDbEntity
  8
0
  6
CENTER
 62
     1
100
AcDbLine
 10
23.873383
 20
18.568647
 30
0.0
 11
23.873383
 21
8.568646
 31
0.0
  0
LINE
  5
62
100
AcDbEntity
  8
0
  6
CENTER
 62
     1
100
AcDbLine
 10
18.873383
 20
13.568646
 30
0.0
 11
28.873383
 21
13.568646
 31
0.0
  0
LINE
  5
63
100
AcDbEntity
  8
0
  6
CENTER
 62
     1
100
AcDbLine
 10
9.0
 20
-26.562615
 30
0.0
 11
9.0
 21
-33.562615
 31
0.0
  0
LINE
  5
64
100
AcDbEntity
  8
0
  6
CENTER
 62
     1
100
AcDbLine
 10
5.5
 20
-30.062615
 30
0.0
 11
12.5
 21
-30.062615
 31
0.0
  0
LINE
  5
65
100
AcDbEntity
  8
0
  6
CONTINUOUS
 62
     7
100
AcDbLine
 10
0.000001
 20
-36.062615
 30
0.0
 11
15.938484
 21
-34.387414
 31
0.0
  0
LINE
  5
66
100
AcDbEntity
  8
0
  6
CONTINUOUS
 62
     7
100
AcDbLine
 10
0.663755
 20
-42.377831
 30
0.0
 11
16.602238
 21
-40.70263
 31
0.0
  0
LINE
  5
67
100
AcDbEntity
  8
0
  6
CONTINUOUS
 62
     7
100
AcDbLine
 10
1.16035
 20
-47.102616
 30
0.0
 11
0.0
 21
-36.062615
 31
0.0
  0
LINE
  5
68
100
AcDbEntity
  8
0
  6
CONTINUOUS
 62
     7
100
AcDbLine
 10
17.098833
 20
-45.427414
 30
0.0
 11
15.938483
 21
-34.387415
 31
0.0
  0
LINE
  5
69
100
AcDbEntity
  8
0
  6
CONTINUOUS
 62
     7
100
AcDbLine
 10
1.284869
 20
-33.837159
 30
0.0
 11
17.223352
 21
-32.161955
 31
0.0
  0
LINE
  5
6A
100
AcDbEntity
  8
0
  6
CONTINUOUS
 62
     7
100
AcDbLine
 10
1.16035
 20
-47.102616
 30
0.0
 11
17.098833
 21
-45.427414
 31
0.0
  0
LINE
  5
6B
100
AcDbEntity
  8
0
  6
CONTINUOUS
 62
     7
100
AcDbLine
 10
2.666293
 20
-46.944336
 30
0.0
 11
5.985078
 21
-56.062615
 31
0.0
  0
LINE
  5
6C
100
AcDbEntity
  8
0
  6
CONTINUOUS
 62
     7
100
AcDbLine
 10
2.077648
 20
-26.062615
 30
0.0
 11
2.077648
 21
-33.753834
 31
0.0
  0
LINE
  5
6D
100
AcDbEntity
  8
0
  6
CONTINUOUS
 62
     7
100
AcDbLine
 10
15.938483
 20
-34.387415
 30
0.0
 11
17.223352
 21
-32.161955
 31
0.0
  0
LINE
  5
6E
100
AcDbEntity
  8
0
  6
CONTINUOUS
 62
     7
100
AcDbLine
 10
0.000001
 20
-36.062615
 30
0.0
 11
1.284869
 21
-33.837157
 31
0.0
  0
LINE
  5
6F
100
AcDbEntity
  8
0
  6
CONTINUOUS
 62
     7
100
AcDbLine
 10
28.088625
 20
19.0
 30
0.0
 11
29.226477
 21
4.660222
 31
0.0
  0
LINE
  5
70
100
AcDbEntity
  8
0
  6
CONTINUOUS
 62
     7
100
AcDbLine
 10
15.966002
 20
-34.686173
 30
0.0
 11
27.94758
 21
-33.426858
 31
0.0
  0
LINE
  5
71
100
AcDbEntity
  8
0
  6
CONTINUOUS
 62
     7
100
AcDbLine
 10
29.226479
 20
-51.138939
 30
0.0
 11
29.999998
 21
-51.420479
 31
0.0
  0
LINE
  5
72
100
AcDbEntity
  8
0
  6
CONTINUOUS
 62
     7
100
AcDbLine
 10
8.448936
 20
-46.336556
 30
0.0
 11
29.226477
 21
-51.133427
 31
0.0
  0
LINE
  5
73
100
AcDbEntity
  8
0
  6
CENTER
 62
     1
100
AcDbLine
 10
9.0
 20
26.650431
 30
0.0
 11
9.0
 21
17.803995
 31
0.0
  0
LINE
  5
74
100
AcDbEntity
  8
0
  6
CENTER
 62
     1
100
AcDbLine
 10
38.75
 20
-36.681326
 30
0.0
 11
38.75
 21
-46.77834
 31
0.0
  0
LINE
  5
75
100
AcDbEntity
  8
0
  6
CENTER
 62
     1
100
AcDbLine
 10
41.25
 20
-36.681326
 30
0.0
 11
41.25
 21
-46.77834
 31
0.0
  0
LINE
  5
76
100
AcDbEntity
  8
0
  6
CENTER
 62
     1
100
AcDbLine
 10
8.608926
 20
13.608924
 30
0.0
 11
8.608926
 21
3.608924
 31
0.0
  0
LINE
  5
77
100
AcDbEntity
  8
0
  6
CENTER
 62
     1
100
AcDbLine
 10
3.608925
 20
8.608924
 30
0.0
 11
13.608926
 21
8.608924
 31
0.0
  0
LINE
  5
78
100
AcDbEntity
  8
0
  6
CONTINUOUS
 62
     7
100
AcDbLine
 10
27.947582
 20
-33.426858
 30
0.0
 11
29.226479
 21
-32.990784
 31
0.0
  0
LINE
  5
79
100
AcDbEntity
  8
0
  6
CONTINUOUS
 62
     7
100
AcDbLine
 10
27.94758
 20
-33.426859
 30
0.0
 11
29.226477
 21
-51.138943
 31
0.0
  0
LINE
  5
7A
100
AcDbEntity
  8
0
  6
CONTINUOUS
 62
     7
100
AcDbLine
 10
28.088625
 20
-31.019969
 30
0.0
 11
17.037943
 21
-32.483096
 31
0.0
  0
LINE
  5
7B
100
AcDbEntity
  8
0
  6
CONTINUOUS
 62
     7
100
AcDbLine
 10
-26.70504
 20
25.0
 30
0.0
 11
-26.70504
 21
19.0
 31
0.0
  0
LINE
  5
7C
100
AcDbEntity
  8
0
  6
CONTINUOUS
 62
     7
100
AcDbLine
 10
-55.70504
 20
25.0
 30
0.0
 11
-26.70504
 21
25.0
 31
0.0
  0
LINE
  5
7D
100
AcDbEntity
  8
0
  6
CONTINUOUS
 62
     7
100
AcDbLine
 10
-56.70504
 20
24.0
 30
0.0
 11
-56.70504
 21
8.85498
 31
0.0
  0
LINE
  5
7E
100
AcDbEntity
  8
0
  6
CONTINUOUS
 62
     7
100
AcDbLine
 10
-34.034771
 20
19.0
 30
0.0
 11
-26.70504
 21
19.0
 31
0.0
  0
LINE
  5
7F
100
AcDbEntity
  8
0
  6
CONTINUOUS
 62
     7
100
AcDbLine
 10
-34.034771
 20
19.0
 30
0.0
 11
-36.70504
 21
0.000001
 31
0.0
  0
LINE
  5
80
100
AcDbEntity
  8
0
  6
CONTINUOUS
 62
     7
100
AcDbLine
 10
-40.753239
 20
16.822231
 30
0.0
 11
-42.993244
 21
0.883749
 31
0.0
  0
LINE
  5
81
100
AcDbEntity
  8
0
  6
CONTINUOUS
 62
     7
100
AcDbLine
 10
-42.993244
 20
0.88375
 30
0.0
 11
-36.70504
 21
0.0
 31
0.0
  0
LINE
  5
82
100
AcDbEntity
  8
0
  6
CONTINUOUS
 62
     7
100
AcDbLine
 10
-45.457806
 20
17.483414
 30
0.0
 11
-34.465036
 21
15.938481
 31
0.0
  0
LINE
  5
83
100
AcDbEntity
  8
0
  6
CONTINUOUS
 62
     7
100
AcDbLine
 10
-45.457806
 20
17.483414
 30
0.0
 11
-47.604885
 21
2.206117
 31
0.0
  0
LINE
  5
84
100
AcDbEntity
  8
0
  6
CONTINUOUS
 62
     7
100
AcDbLine
 10
-34.465038
 20
15.938481
 30
0.0
 11
-32.239582
 21
17.223349
 31
0.0
  0
LINE
  5
85
100
AcDbEntity
  8
0
  6
CONTINUOUS
 62
     7
100
AcDbLine
 10
-32.239582
 20
17.223349
 30
0.0
 11
-34.479586
 21
1.284866
 31
0.0
  0
LINE
  5
86
100
AcDbEntity
  8
0
  6
CONTINUOUS
 62
     7
100
AcDbLine
 10
-30.977354
 20
19.0
 30
0.0
 11
-32.80438
 21
6.0
 31
0.0
  0
LINE
  5
87
100
AcDbEntity
  8
0
  6
CONTINUOUS
 62
     7
100
AcDbLine
 10
-34.470512
 20
1.349428
 30
0.0
 11
-34.396259
 21
1.349428
 31
0.0
  0
LINE
  5
88
100
AcDbEntity
  8
0
  6
CONTINUOUS
 62
     7
100
AcDbLine
 10
-32.80438
 20
6.0
 30
0.0
 11
-34.396259
 21
1.349428
 31
0.0
  0
LINE
  5
89
100
AcDbEntity
  8
0
  6
CENTER
 62
     1
100
AcDbLine
 10
-30.70504
 20
26.310184
 30
0.0
 11
-30.70504
 21
17.803995
 31
0.0
  0
LINE
  5
8A
100
AcDbEntity
  8
0
  6
CONTINUOUS
 62
     7
100
AcDbLine
 10
-56.705044
 20
8.854981
 30
0.0
 11
-47.423561
 21
3.496316
 31
0.0
  0
LINE
  5
8B
100
AcDbEntity
  8
0
  6
CONTINUOUS
 62
     7
100
AcDbLine
 10
-47.604885
 20
2.206116
 30
0.0
 11
-42.993244
 21
0.88375
 31
0.0
  0
LINE
  5
8C
100
AcDbEntity
  8
0
  6
CONTINUOUS
 62
     7
100
AcDbLine
 10
-55.70504
 20
25.0
 30
0.0
 11
-56.70504
 21
24.0
 31
0.0
  0
LINE
  5
8D
100
AcDbEntity
  8
0
  6
CONTINUOUS
 62
     7
100
AcDbLine
 10
-56.705036
 20
18.526814
 30
0.0
 11
-48.990597
 21
25.0
 31
0.0
  0
LINE
  5
8E
100
AcDbEntity
  8
0
  6
CONTINUOUS
 62
     7
100
AcDbLine
 10
-36.70504
 20
0.000001
 30
0.0
 11
-34.479586
 21
1.284866
 31
0.0
  0
LINE
  5
8F
100
AcDbEntity
  8
0
  6
CONTINUOUS
 62
     7
100
AcDbLine
 10
90.0
 20
-46.77834
 30
0.0
 11
90.0
 21
-51.420491
 31
0.0
  0
LINE
  5
90
100
AcDbEntity
  8
0
  6
CONTINUOUS
 62
     7
100
AcDbLine
 10
91.689598
 20
-56.062615
 30
0.0
 11
93.689598
 21
-56.062615
 31
0.0
  0
LINE
  5
91
100
AcDbEntity
  8
0
  6
CONTINUOUS
 62
     7
100
AcDbLine
 10
109.0
 20
-37.062619
 30
0.0
 11
109.0
 21
-54.920159
 31
0.0
  0
LINE
  5
92
100
AcDbEntity
  8
0
  6
CONTINUOUS
 62
     7
100
AcDbLine
 10
100.71573
 20
-36.062615
 30
0.0
 11
108.0
 21
-36.062615
 31
0.0
  0
LINE
  5
93
100
AcDbEntity
  8
0
  6
CONTINUOUS
 62
     7
100
AcDbLine
 10
90.0
 20
-46.77834
 30
0.0
 11
100.71573
 21
-36.062613
 31
0.0
  0
LINE
  5
94
100
AcDbEntity
  8
0
  6
CONTINUOUS
 62
     7
100
AcDbLine
 10
90.0
 20
-51.420491
 30
0.0
 11
91.689598
 21
-56.062615
 31
0.0
  0
LINE
  5
95
100
AcDbEntity
  8
0
  6
CONTINUOUS
 62
     7
100
AcDbLine
 10
108.00004
 20
-55.937729
 30
0.0
 11
109.0
 21
-54.920159
 31
0.0
  0
LINE
  5
96
100
AcDbEntity
  8
0
  6
CONTINUOUS
 62
     7
100
AcDbLine
 10
108.0
 20
-36.062613
 30
0.0
 11
109.0
 21
-37.062617
 31
0.0
  0
LINE
  5
97
100
AcDbEntity
  8
0
  6
CENTER
 62
     1
100
AcDbLine
 10
110.37374
 20
-57.436352
 30
0.0
 11
93.112251
 21
-40.174862
 31
0.0
  0
LINE
  5
98
100
AcDbEntity
  8
0
  6
CONTINUOUS
 62
     7
100
AcDbLine
 10
109.0
 20
-48.991543
 30
0.0
 11
98.393402
 21
-38.384942
 31
0.0
  0
LINE
  5
99
100
AcDbEntity
  8
0
  6
CONTINUOUS
 62
     7
100
AcDbLine
 10
101.85765
 20
-55.99133
 30
0.0
 11
91.322334
 21
-45.456009
 31
0.0
  0
LINE
  5
9A
100
AcDbEntity
  8
0
  6
CONTINUOUS
 62
     7
100
AcDbLine
 10
93.689598
 20
-56.062615
 30
0.0
 11
108.00003
 21
-55.937729
 31
0.0
  0
LINE
  5
9B
100
AcDbEntity
  8
0
  6
CONTINUOUS
 62
     7
100
AcDbLine
 10
0.0
 20
0.0
 30
0.0
 11
1.2
 21
0.0
 31
0.0
  0
LINE
  5
9C
100
AcDbEntity
  8
0
  6
CONTINUOUS
 62
     7
100
AcDbLine
 10
0.0
 20
1.2
 30
0.0
 11
0.0
 21
0.0
 31
0.0
  0
ARC
  5
9D
100
AcDbEntity
  8
0
  6
CONTINUOUS
 62
     7
100
AcDbCircle
 10
16.02335
 20
16.023348
 30
0.0
 40
1.2
100
AcDbArc
 50
355.00001
 51
95.000008
  0
ARC
  5
9E
100
AcDbEntity
  8
0
  6
CONTINUOUS
 62
     7
100
AcDbCircle
 10
2.392542
 20
14.830807
 30
0.0
 40
1.2
100
AcDbArc
 50
95.000022
 51
175.00003
  0
ARC
  5
9F
100
AcDbEntity
  8
0
  6
CONTINUOUS
 62
     7
100
AcDbCircle
 10
14.830808
 20
2.392541
 30
0.0
 40
1.2
100
AcDbArc
 50
274.99998
 51
355.0
  0
ARC
  5
A0
100
AcDbEntity
  8
0
  6
CONTINUOUS
 62
     7
100
AcDbCircle
 10
1.2
 20
1.2
 30
0.0
 40
1.2
100
AcDbArc
 50
175.00002
 51
274.99997
  0
CIRCLE
  5
A1
100
AcDbEntity
  8
0
  6
CONTINUOUS
 62
     7
100
AcDbCircle
 10
23.873383
 20
13.568646
 30
0.0
 40
4.0
  0
CIRCLE
  5
A2
100
AcDbEntity
  8
0
  6
CONTINUOUS
 62
     7
100
AcDbCircle
 10
9.0
 20
-30.062615
 30
0.0
 40
2.5
  0
ARC
  5
A3
100
AcDbEntity
  8
0
  6
CONTINUOUS
 62
     7
100
AcDbCircle
 10
15.693331
 20
15.693328
 30
0.0
 40
2.5
100
AcDbArc
 50
301.8699
 51
148.1301
  0
CIRCLE
  5
A4
100
AcDbEntity
  8
0
  6
CONTINUOUS
 62
     7
100
AcDbCircle
 10
9.0
 20
-30.062615
 30
0.0
 40
2.1
  0
CIRCLE
  5
A5
100
AcDbEntity
  8
0
  6
CONTINUOUS
 62
     7
100
AcDbCircle
 10
8.608926
 20
8.608924
 30
0.0
 40
3.7
  0
CIRCLE
  5
A6
100
AcDbEntity
  8
0
  6
CONTINUOUS
 62
     7
100
AcDbCircle
 10
23.873383
 20
13.568646
 30
0.0
 40
3.5
  0
POLYLINE
  5
A7
100
AcDbEntity
  8
0
  6
CONTINUOUS
 62
     7
100
AcDb2dPolyline
 66
     1
 10
0.0
 20
0.0
 30
0.0
  0
VERTEX
  5
A8
100
AcDbEntity
  8
0
  6
CONTINUOUS
 62
     7
100
AcDbVertex
100
AcDb2dVertex
 10
38.75
 20
-38.384942
 30
0.0
 42
0.03001
  0
VERTEX
  5
A9
100
AcDbEntity
  8
0
  6
CONTINUOUS
 62
     7
100
AcDbVertex
100
AcDb2dVertex
 10
37.908741
 20
-38.435344
 30
0.0
 42
0.031339
  0
VERTEX
  5
AA
100
AcDbEntity
  8
0
  6
CONTINUOUS
 62
     7
100
AcDbVertex
100
AcDb2dVertex
 10
37.07972
 20
-38.588047
 30
0.0
 42
0.034234
  0
VERTEX
  5
AB
100
AcDbEntity
  8
0
  6
CONTINUOUS
 62
     7
100
AcDbVertex
100
AcDb2dVertex
 10
36.276869
 20
-38.847722
 30
0.0
 42
0.039157
  0
VERTEX
  5
AC
100
AcDbEntity
  8
0
  6
CONTINUOUS
 62
     7
100
AcDbVertex
100
AcDb2dVertex
 10
35.519475
 20
-39.221985
 30
0.0
 42
0.046684
  0
VERTEX
  5
AD
100
AcDbEntity
  8
0
  6
CONTINUOUS
 62
     7
100
AcDbVertex
100
AcDb2dVertex
 10
34.838207
 20
-39.718445
 30
0.0
 42
0.05772
  0
VERTEX
  5
AE
100
AcDbEntity
  8
0
  6
CONTINUOUS
 62
     7
100
AcDbVertex
100
AcDb2dVertex
 10
34.274386
 20
-40.344265
 30
0.0
 42
0.071526
  0
VERTEX
  5
AF
100
AcDbEntity
  8
0
  6
CONTINUOUS
 62
     7
100
AcDbVertex
100
AcDb2dVertex
 10
33.888922
 20
-41.092854
 30
0.0
 42
0.082487
  0
VERTEX
  5
B0
100
AcDbEntity
  8
0
  6
CONTINUOUS
 62
     7
100
AcDbVertex
100
AcDb2dVertex
 10
33.75
 20
-41.920476
 30
0.0
 42
0.082483
  0
VERTEX
  5
B1
100
AcDbEntity
  8
0
  6
CONTINUOUS
 62
     7
100
AcDbVertex
100
AcDb2dVertex
 10
33.888916
 20
-42.748081
 30
0.0
 42
0.071426
  0
VERTEX
  5
B2
100
AcDbEntity
  8
0
  6
CONTINUOUS
 62
     7
100
AcDbVertex
100
AcDb2dVertex
 10
34.273603
 20
-43.495575
 30
0.0
 42
0.057689
  0
VERTEX
  5
B3
100
AcDbEntity
  8
0
  6
CONTINUOUS
 62
     7
100
AcDbVertex
100
AcDb2dVertex
 10
34.836552
 20
-44.121035
 30
0.0
 42
0.046691
  0
VERTEX
  5
B4
100
AcDbEntity
  8
0
  6
CONTINUOUS
 62
     7
100
AcDbVertex
100
AcDb2dVertex
 10
35.517271
 20
-44.617647
 30
0.0
 42
0.039109
  0
VERTEX
  5
B5
100
AcDbEntity
  8
0
  6
CONTINUOUS
 62
     7
100
AcDbVertex
100
AcDb2dVertex
 10
36.273048
 20
-44.99169
 30
0.0
 42
0.03424
  0
VERTEX
  5
B6
100
AcDbEntity
  8
0
  6
CONTINUOUS
 62
     7
100
AcDbVertex
100
AcDb2dVertex
 10
37.07542
 20
-45.251825
 30
0.0
 42
0.031378
  0
VERTEX
  5
B7
100
AcDbEntity
  8
0
  6
CONTINUOUS
 62
     7
100
AcDbVertex
100
AcDb2dVertex
 10
37.905107
 20
-45.405167
 30
0.0
 42
0.030048
  0
VERTEX
  5
B8
100
AcDbEntity
  8
0
  6
CONTINUOUS
 62
     7
100
AcDbVertex
100
AcDb2dVertex
 10
38.747333
 20
-45.456009
 30
0.0
  0
SEQEND
  5
B9
100
AcDbEntity
  8
0
 62
     7
  0
POLYLINE
  5
BA
100
AcDbEntity
  8
0
  6
CONTINUOUS
 62
     7
100
AcDb2dPolyline
 66
     1
 10
0.0
 20
0.0
 30
0.0
  0
VERTEX
  5
BB
100
AcDbEntity
  8
0
  6
CONTINUOUS
 62
     7
100
AcDbVertex
100
AcDb2dVertex
 10
41.25
 20
-38.384942
 30
0.0
 42
-0.03001
  0
VERTEX
  5
BC
100
AcDbEntity
  8
0
  6
CONTINUOUS
 62
     7
100
AcDbVertex
100
AcDb2dVertex
 10
42.091259
 20
-38.435344
 30
0.0
 42
-0.031339
  0
VERTEX
  5
BD
100
AcDbEntity
  8
0
  6
CONTINUOUS
 62
     7
100
AcDbVertex
100
AcDb2dVertex
 10
42.92028
 20
-38.588047
 30
0.0
 42
-0.034234
  0
VERTEX
  5
BE
100
AcDbEntity
  8
0
  6
CONTINUOUS
 62
     7
100
AcDbVertex
100
AcDb2dVertex
 10
43.723131
 20
-38.847722
 30
0.0
 42
-0.039157
  0
VERTEX
  5
BF
100
AcDbEntity
  8
0
  6
CONTINUOUS
 62
     7
100
AcDbVertex
100
AcDb2dVertex
 10
44.480525
 20
-39.221985
 30
0.0
 42
-0.046684
  0
VERTEX
  5
C0
100
AcDbEntity
  8
0
  6
CONTINUOUS
 62
     7
100
AcDbVertex
100
AcDb2dVertex
 10
45.161793
 20
-39.718445
 30
0.0
 42
-0.05772
  0
VERTEX
  5
C1
100
AcDbEntity
  8
0
  6
CONTINUOUS
 62
     7
100
AcDbVertex
100
AcDb2dVertex
 10
45.725614
 20
-40.344265
 30
0.0
 42
-0.071526
  0
VERTEX
  5
C2
100
AcDbEntity
  8
0
  6
CONTINUOUS
 62
     7
100
AcDbVertex
100
AcDb2dVertex
 10
46.111078
 20
-41.092854
 30
0.0
 42
-0.082487
  0
VERTEX
  5
C3
100
AcDbEntity
  8
0
  6
CONTINUOUS
 62
     7
100
AcDbVertex
100
AcDb2dVertex
 10
46.25
 20
-41.920476
 30
0.0
 42
-0.082483
  0
VERTEX
  5
C4
100
AcDbEntity
  8
0
  6
CONTINUOUS
 62
     7
100
AcDbVertex
100
AcDb2dVertex
 10
46.111084
 20
-42.748081
 30
0.0
 42
-0.071426
  0
VERTEX
  5
C5
100
AcDbEntity
  8
0
  6
CONTINUOUS
 62
     7
100
AcDbVertex
100
AcDb2dVertex
 10
45.726397
 20
-43.495575
 30
0.0
 42
-0.057689
  0
VERTEX
  5
C6
100
AcDbEntity
  8
0
  6
CONTINUOUS
 62
     7
100
AcDbVertex
100
AcDb2dVertex
 10
45.163448
 20
-44.121035
 30
0.0
 42
-0.046691
  0
VERTEX
  5
C7
100
AcDbEntity
  8
0
  6
CONTINUOUS
 62
     7
100
AcDbVertex
100
AcDb2dVertex
 10
44.482729
 20
-44.617647
 30
0.0
 42
-0.039109
  0
VERTEX
  5
C8
100
AcDbEntity
  8
0
  6
CONTINUOUS
 62
     7
100
AcDbVertex
100
AcDb2dVertex
 10
43.726952
 20
-44.99169
 30
0.0
 42
-0.03424
  0
VERTEX
  5
C9
100
AcDbEntity
  8
0
  6
CONTINUOUS
 62
     7
100
AcDbVertex
100
AcDb2dVertex
 10
42.92458
 20
-45.251825
 30
0.0
 42
-0.031378
  0
VERTEX
  5
CA
100
AcDbEntity
  8
0
  6
CONTINUOUS
 62
     7
100
AcDbVertex
100
AcDb2dVertex
 10
42.094893
 20
-45.405167
 30
0.0
 42
-0.030048
  0
VERTEX
  5
CB
100
AcDbEntity
  8
0
  6
CONTINUOUS
 62
     7
100
AcDbVertex
100
AcDb2dVertex
 10
41.252667
 20
-45.456009
 30
0.0
  0
SEQEND
  5
CC
100
AcDbEntity
  8
0
 62
     7
  0
POLYLINE
  5
CD
100
AcDbEntity
  8
0
  6
CONTINUOUS
 62
     7
100
AcDb2dPolyline
 66
     1
 10
0.0
 20
0.0
 30
0.0
  0
VERTEX
  5
CE
100
AcDbEntity
  8
0
  6
CONTINUOUS
 62
     7
100
AcDbVertex
100
AcDb2dVertex
 10
39.0
 20
14.393433
 30
0.0
 42
0.03001
  0
VERTEX
  5
CF
100
AcDbEntity
  8
0
  6
CONTINUOUS
 62
     7
100
AcDbVertex
100
AcDb2dVertex
 10
38.158741
 20
14.34303
 30
0.0
 42
0.031339
  0
VERTEX
  5
D0
100
AcDbEntity
  8
0
  6
CONTINUOUS
 62
     7
100
AcDbVertex
100
AcDb2dVertex
 10
37.32972
 20
14.190327
 30
0.0
 42
0.034234
  0
VERTEX
  5
D1
100
AcDbEntity
  8
0
  6
CONTINUOUS
 62
     7
100
AcDbVertex
100
AcDb2dVertex
 10
36.526869
 20
13.930652
 30
0.0
 42
0.039157
  0
VERTEX
  5
D2
100
AcDbEntity
  8
0
  6
CONTINUOUS
 62
     7
100
AcDbVertex
100
AcDb2dVertex
 10
35.769475
 20
13.55639
 30
0.0
 42
0.046684
  0
VERTEX
  5
D3
100
AcDbEntity
  8
0
  6
CONTINUOUS
 62
     7
100
AcDbVertex
100
AcDb2dVertex
 10
35.088207
 20
13.059929
 30
0.0
 42
0.05772
  0
VERTEX
  5
D4
100
AcDbEntity
  8
0
  6
CONTINUOUS
 62
     7
100
AcDbVertex
100
AcDb2dVertex
 10
34.524386
 20
12.434109
 30
0.0
 42
0.071526
  0
VERTEX
  5
D5
100
AcDbEntity
  8
0
  6
CONTINUOUS
 62
     7
100
AcDbVertex
100
AcDb2dVertex
 10
34.138922
 20
11.685521
 30
0.0
 42
0.082487
  0
VERTEX
  5
D6
100
AcDbEntity
  8
0
  6
CONTINUOUS
 62
     7
100
AcDbVertex
100
AcDb2dVertex
 10
34.0
 20
10.857899
 30
0.0
 42
0.082483
  0
VERTEX
  5
D7
100
AcDbEntity
  8
0
  6
CONTINUOUS
 62
     7
100
AcDbVertex
100
AcDb2dVertex
 10
34.138916
 20
10.030293
 30
0.0
 42
0.071426
  0
VERTEX
  5
D8
100
AcDbEntity
  8
0
  6
CONTINUOUS
 62
     7
100
AcDbVertex
100
AcDb2dVertex
 10
34.523603
 20
9.2828
 30
0.0
 42
0.057689
  0
VERTEX
  5
D9
100
AcDbEntity
  8
0
  6
CONTINUOUS
 62
     7
100
AcDbVertex
100
AcDb2dVertex
 10
35.086552
 20
8.657339
 30
0.0
 42
0.046691
  0
VERTEX
  5
DA
100
AcDbEntity
  8
0
  6
CONTINUOUS
 62
     7
100
AcDbVertex
100
AcDb2dVertex
 10
35.767271
 20
8.160728
 30
0.0
 42
0.039109
  0
VERTEX
  5
DB
100
AcDbEntity
  8
0
  6
CONTINUOUS
 62
     7
100
AcDbVertex
100
AcDb2dVertex
 10
36.523048
 20
7.786685
 30
0.0
 42
0.03424
  0
VERTEX
  5
DC
100
AcDbEntity
  8
0
  6
CONTINUOUS
 62
     7
100
AcDbVertex
100
AcDb2dVertex
 10
37.32542
 20
7.526549
 30
0.0
 42
0.031378
  0
VERTEX
  5
DD
100
AcDbEntity
  8
0
  6
CONTINUOUS
 62
     7
100
AcDbVertex
100
AcDb2dVertex
 10
38.155107
 20
7.373207
 30
0.0
 42
0.030048
  0
VERTEX
  5
DE
100
AcDbEntity
  8
0
  6
CONTINUOUS
 62
     7
100
AcDbVertex
100
AcDb2dVertex
 10
38.997333
 20
7.322365
 30
0.0
  0
SEQEND
  5
DF
100
AcDbEntity
  8
0
 62
     7
  0
POLYLINE
  5
E0
100
AcDbEntity
  8
0
  6
CONTINUOUS
 62
     7
100
AcDb2dPolyline
 66
     1
 10
0.0
 20
0.0
 30
0.0
  0
VERTEX
  5
E1
100
AcDbEntity
  8
0
  6
CONTINUOUS
 62
     7
100
AcDbVertex
100
AcDb2dVertex
 10
41.25
 20
14.393433
 30
0.0
 42
-0.03001
  0
VERTEX
  5
E2
100
AcDbEntity
  8
0
  6
CONTINUOUS
 62
     7
100
AcDbVertex
100
AcDb2dVertex
 10
42.091259
 20
14.34303
 30
0.0
 42
-0.031339
  0
VERTEX
  5
E3
100
AcDbEntity
  8
0
  6
CONTINUOUS
 62
     7
100
AcDbVertex
100
AcDb2dVertex
 10
42.92028
 20
14.190327
 30
0.0
 42
-0.034234
  0
VERTEX
  5
E4
100
AcDbEntity
  8
0
  6
CONTINUOUS
 62
     7
100
AcDbVertex
100
AcDb2dVertex
 10
43.723131
 20
13.930652
 30
0.0
 42
-0.039157
  0
VERTEX
  5
E5
100
AcDbEntity
  8
0
  6
CONTINUOUS
 62
     7
100
AcDbVertex
100
AcDb2dVertex
 10
44.480525
 20
13.55639
 30
0.0
 42
-0.046684
  0
VERTEX
  5
E6
100
AcDbEntity
  8
0
  6
CONTINUOUS
 62
     7
100
AcDbVertex
100
AcDb2dVertex
 10
45.161793
 20
13.059929
 30
0.0
 42
-0.05772
  0
VERTEX
  5
E7
100
AcDbEntity
  8
0
  6
CONTINUOUS
 62
     7
100
AcDbVertex
100
AcDb2dVertex
 10
45.725614
 20
12.434109
 30
0.0
 42
-0.071526
  0
VERTEX
  5
E8
100
AcDbEntity
  8
0
  6
CONTINUOUS
 62
     7
100
AcDbVertex
100
AcDb2dVertex
 10
46.111078
 20
11.685521
 30
0.0
 42
-0.082487
  0
VERTEX
  5
E9
100
AcDbEntity
  8
0
  6
CONTINUOUS
 62
     7
100
AcDbVertex
100
AcDb2dVertex
 10
46.25
 20
10.857899
 30
0.0
 42
-0.082483
  0
VERTEX
  5
EA
100
AcDbEntity
  8
0
  6
CONTINUOUS
 62
     7
100
AcDbVertex
100
AcDb2dVertex
 10
46.111084
 20
10.030293
 30
0.0
 42
-0.071426
  0
VERTEX
  5
EB
100
AcDbEntity
  8
0
  6
CONTINUOUS
 62
     7
100
AcDbVertex
100
AcDb2dVertex
 10
45.726397
 20
9.2828
 30
0.0
 42
-0.057689
  0
VERTEX
  5
EC
100
AcDbEntity
  8
0
  6
CONTINUOUS
 62
     7
100
AcDbVertex
100
AcDb2dVertex
 10
45.163448
 20
8.657339
 30
0.0
 42
-0.046691
  0
VERTEX
  5
ED
100
AcDbEntity
  8
0
  6
CONTINUOUS
 62
     7
100
AcDbVertex
100
AcDb2dVertex
 10
44.482729
 20
8.160728
 30
0.0
 42
-0.039109
  0
VERTEX
  5
EE
100
AcDbEntity
  8
0
  6
CONTINUOUS
 62
     7
100
AcDbVertex
100
AcDb2dVertex
 10
43.726952
 20
7.786685
 30
0.0
 42
-0.03424
  0
VERTEX
  5
EF
100
AcDbEntity
  8
0
  6
CONTINUOUS
 62
     7
100
AcDbVertex
100
AcDb2dVertex
 10
42.92458
 20
7.526549
 30
0.0
 42
-0.031378
  0
VERTEX
  5
F0
100
AcDbEntity
  8
0
  6
CONTINUOUS
 62
     7
100
AcDbVertex
100
AcDb2dVertex
 10
42.094893
 20
7.373207
 30
0.0
 42
-0.030048
  0
VERTEX
  5
F1
100
AcDbEntity
  8
0
  6
CONTINUOUS
 62
     7
100
AcDbVertex
100
AcDb2dVertex
 10
41.252667
 20
7.322365
 30
0.0
  0
SEQEND
  5
F2
100
AcDbEntity
  8
0
 62
     7
  0
LINE
  5
F3
100
AcDbEntity
  8
0
  6
CONTINUOUS
 62
     7
100
AcDbLine
 10
108.24383
 20
-48.235369
 30
0.0
 11
109.0
 21
-47.479194
 31
0.0
  0
LINE
  5
F4
100
AcDbEntity
  8
0
  6
CONTINUOUS
 62
     7
100
AcDbLine
 10
107.12129
 20
-47.112837
 30
0.0
 11
109.0
 21
-45.234128
 31
0.0
  0
LINE
  5
F5
100
AcDbEntity
  8
0
  6
CONTINUOUS
 62
     7
100
AcDbLine
 10
105.99876
 20
-45.990305
 30
0.0
 11
109.0
 21
-42.989061
 31
0.0
  0
LINE
  5
F6
100
AcDbEntity
  8
0
  6
CONTINUOUS
 62
     7
100
AcDbLine
 10
104.87623
 20
-44.867773
 30
0.0
 11
109.0
 21
-40.743995
 31
0.0
  0
LINE
  5
F7
100
AcDbEntity
  8
0
  6
CONTINUOUS
 62
     7
100
AcDbLine
 10
103.7537
 20
-43.745241
 30
0.0
 11
109.0
 21
-38.498929
 31
0.0
  0
LINE
  5
F8
100
AcDbEntity
  8
0
  6
CONTINUOUS
 62
     7
100
AcDbLine
 10
102.63117
 20
-42.622709
 30
0.0
 11
108.59562
 21
-36.65824
 31
0.0
  0
LINE
  5
F9
100
AcDbEntity
  8
0
  6
CONTINUOUS
 62
     7
100
AcDbLine
 10
101.50863
 20
-41.500177
 30
0.0
 11
106.94619
 21
-36.062615
 31
0.0
  0
LINE
  5
FA
100
AcDbEntity
  8
0
  6
CONTINUOUS
 62
     7
100
AcDbLine
 10
100.3861
 20
-40.377645
 30
0.0
 11
104.70112
 21
-36.062614
 31
0.0
  0
LINE
  5
FB
100
AcDbEntity
  8
0
  6
CONTINUOUS
 62
     7
100
AcDbLine
 10
99.26357
 20
-39.255113
 30
0.0
 11
102.45606
 21
-36.062614
 31
0.0
  0
LINE
  5
FC
100
AcDbEntity
  8
0
  6
CONTINUOUS
 62
     7
100
AcDbLine
 10
100.47582
 20
-56.003393
 30
0.0
 11
101.17277
 21
-55.306442
 31
0.0
  0
LINE
  5
FD
100
AcDbEntity
  8
0
  6
CONTINUOUS
 62
     7
100
AcDbLine
 10
98.210992
 20
-56.023158
 30
0.0
 11
100.05023
 21
-54.183911
 31
0.0
  0
LINE
  5
FE
100
AcDbEntity
  8
0
  6
CONTINUOUS
 62
     7
100
AcDbLine
 10
95.946165
 20
-56.042922
 30
0.0
 11
98.927703
 21
-53.061379
 31
0.0
  0
LINE
  5
FF
100
AcDbEntity
  8
0
  6
CONTINUOUS
 62
     7
100
AcDbLine
 10
93.681411
 20
-56.062615
 30
0.0
 11
97.80517
 21
-51.938847
 31
0.0
  0
LINE
  5
100
100
AcDbEntity
  8
0
  6
CONTINUOUS
 62
     7
100
AcDbLine
 10
91.622019
 20
-55.876944
 30
0.0
 11
96.682638
 21
-50.816315
 31
0.0
  0
LINE
  5
101
100
AcDbEntity
  8
0
  6
CONTINUOUS
 62
     7
100
AcDbLine
 10
91.022932
 20
-54.230967
 30
0.0
 11
95.560106
 21
-49.693783
 31
0.0
  0
LINE
  5
102
100
AcDbEntity
  8
0
  6
CONTINUOUS
 62
     7
100
AcDbLine
 10
90.423844
 20
-52.58499
 30
0.0
 11
94.437574
 21
-48.571252
 31
0.0
  0
LINE
  5
103
100
AcDbEntity
  8
0
  6
CONTINUOUS
 62
     7
100
AcDbLine
 10
90.0
 20
-50.763768
 30
0.0
 11
93.315042
 21
-47.44872
 31
0.0
  0
LINE
  5
104
100
AcDbEntity
  8
0
  6
CONTINUOUS
 62
     7
100
AcDbLine
 10
90.0
 20
-48.518702
 30
0.0
 11
92.192509
 21
-46.326188
 31
0.0
  0
TEXT
  5
107
100
AcDbEntity
  8
0
  6
CONTINUOUS
100
AcDbText
 10
5.158194
 20
-87.202835
 30
0.0
 40
6.0
  1
PCLNR20CA
100
AcDbText
  0
INSERT
  5
11C
100
AcDbEntity
  8
0
  6
CONTINUOUS
100
AcDbBlockReference
  2
テンプレ-ト
 10
-24.102117
 20
-57.095131
 30
0.0
  0
LINE
  5
11F
100
AcDbEntity
  8
0
  6
CENTER
 62
     1
100
AcDbLine
 10
-32.360295
 20
35.0
 30
0.0
 11
-42.38919
 21
35.0
 31
0.0
  0
ARC
  5
120
100
AcDbEntity
  8
0
  6
CENTER
 62
     1
100
AcDbCircle
 10
-36.70504
 20
35.0
 30
0.0
 40
35.0
100
AcDbArc
 50
180.0
 51
270.0
  0
LINE
  5
124
100
AcDbEntity
  8
0
  6
CENTER
 62
     1
100
AcDbLine
 10
-36.70504
 20
0.0
 30
0.0
 11
-36.70504
 21
40.453889
 31
0.0
  0
RAY
  5
127
100
AcDbEntity
  8
0
  6
CENTER
 62
     1
100
AcDbRay
 10
-30.0
 20
149.445086
 30
0.0
 11
0.0
 21
1.0
 31
0.0
  0
DIMENSION
  5
131
100
AcDbEntity
  8
寸法
 62
     1
100
AcDbDimension
  2
*D2
 10
-3.270835
 20
45.351517
 30
0.0
 11
-47.482832
 21
31.663104
 31
0.0
 12
-6.70504
 22
0.0
 32
0.0
 70
   163
  3
寸法
100
AcDbDiametricDimension
 15
-70.139246
 25
24.648484
 35
0.0
 40
0.0
1001
ACAD
1000
DSTYLE
1002
{
1070
   288
1070
     1
1002
}
  0
DIMENSION
  5
13E
100
AcDbEntity
  8
寸法
 62
     1
100
AcDbDimension
  2
*D3
 10
-16.154488
 20
0.0
 30
0.0
 11
-18.654488
 21
12.5
 31
0.0
 70
    32
  3
寸法
100
AcDbAlignedDimension
 13
2.077648
 23
25.0
 33
0.0
 14
0.0
 24
0.0
 34
0.0
 50
90.0
100
AcDbRotatedDimension
  0
LINE
  5
13F
100
AcDbEntity
  8
寸法
 62
     1
100
AcDbLine
 10
-1.0
 20
0.0
 30
0.0
 11
0.0
 21
0.0
 31
0.0
  0
DIMENSION
  5
14D
100
AcDbEntity
  8
寸法
 62
     1
100
AcDbDimension
  2
*D4
 10
0.0
 20
0.0
 30
0.0
 11
-9.081587
 21
9.791239
 31
0.0
 70
    34
  3
寸法
100
AcDb2LineAngularDimension
 13
0.004566
 23
1.304587
 33
0.0
 14
2.077648
 24
25.0
 34
0.0
 15
-1.0
 25
0.0
 35
0.0
 16
-4.947744
 26
9.633597
 36
0.0
  0
DIMENSION
  5
15A
100
AcDbEntity
  8
寸法
 62
     1
100
AcDbDimension
  2
*D5
 10
79.585149
 20
6.0
 30
0.0
 11
77.085149
 21
15.5
 31
0.0
 70
    32
  3
寸法
100
AcDbAlignedDimension
 13
60.0
 23
25.0
 33
0.0
 14
60.0
 24
6.0
 34
0.0
 50
90.0
100
AcDbRotatedDimension
  0
DIMENSION
  5
167
100
AcDbEntity
  8
寸法
 62
     1
100
AcDbDimension
  2
*D6
 10
60.0
 20
-0.135618
 30
0.0
 11
65.0
 21
2.364382
 31
0.0
 70
    32
  3
寸法
100
AcDbAlignedDimension
 13
70.0
 23
16.0
 33
0.0
 14
60.0
 24
6.0
 34
0.0
100
AcDbRotatedDimension
  0
DIMENSION
  5
174
100
AcDbEntity
  8
寸法
 62
     1
100
AcDbDimension
  2
*D7
 10
0.0
 20
-10.234124
 30
0.0
 11
35.0
 21
-7.734124
 31
0.0
 70
    32
  3
寸法
100
AcDbAlignedDimension
 13
70.0
 23
16.0
 33
0.0
 14
0.0
 24
0.0
 34
0.0
100
AcDbRotatedDimension
  0
DIMENSION
  5
183
100
AcDbEntity
  8
寸法
 62
     1
100
AcDbDimension
  2
*D8
 10
41.25
 20
-30.636622
 30
0.0
 11
49.25
 21
-28.136622
 31
0.0
 70
    32
  3
寸法
100
AcDbAlignedDimension
 13
38.75
 23
-36.681326
 33
0.0
 14
41.25
 24
-36.681326
 34
0.0
100
AcDbRotatedDimension
  0
LINE
  5
184
100
AcDbEntity
  8
0
  6
CENTER
 62
     1
100
AcDbLine
 10
40.0
 20
-36.681326
 30
0.0
 11
40.0
 21
-46.77834
 31
0.0
  0
DIMENSION
  5
191
100
AcDbEntity
  8
寸法
 62
     1
100
AcDbDimension
  2
*D9
 10
40.0
 20
-20.255094
 30
0.0
 11
55.0
 21
-17.755094
 31
0.0
 12
0.0
 22
-6.062615
 32
0.0
 70
    32
  3
寸法
100
AcDbAlignedDimension
 13
70.0
 23
-47.062615
 33
0.0
 14
40.0
 24
-36.681326
 34
0.0
100
AcDbRotatedDimension
  0
DIMENSION
  5
19E
100
AcDbEntity
  8
寸法
 62
     1
100
AcDbDimension
  2
*D10
 10
79.831321
 20
-56.062615
 30
0.0
 11
77.331321
 21
-46.062615
 31
0.0
 12
0.0
 22
-6.062615
 32
0.0
 70
    32
  3
寸法
100
AcDbAlignedDimension
 13
60.0
 23
-36.062615
 33
0.0
 14
60.0
 24
-56.062615
 34
0.0
 50
90.0
100
AcDbRotatedDimension
  0
DIMENSION
  5
1AB
100
AcDbEntity
  8
寸法
 62
     1
100
AcDbDimension
  2
*D11
 10
-15.252592
 20
-56.062615
 30
0.0
 11
-17.752592
 21
-46.062615
 31
0.0
 12
0.0
 22
-6.062615
 32
0.0
 70
    32
  3
寸法
100
AcDbAlignedDimension
 13
0.0
 23
-36.062615
 33
0.0
 14
5.985078
 24
-56.062615
 34
0.0
 50
90.0
100
AcDbRotatedDimension
  0
LINE
  5
1AC
100
AcDbEntity
  8
寸法
 62
     1
100
AcDbLine
 10
108.00004
 20
-55.937729
 30
0.0
 11
108.642054
 21
-55.937729
 31
0.0
  0
DIMENSION
  5
1BD
100
AcDbEntity
  8
寸法
 62
     1
100
AcDbDimension
  2
*D12
 10
108.642054
 20
-55.937729
 30
0.0
 11
117.214446
 21
-55.240603
 31
0.0
 12
0.0
 22
-6.062615
 32
0.0
 70
   162
  3
寸法
100
AcDb2LineAngularDimension
 13
110.37374
 23
-57.436352
 33
0.0
 14
93.112251
 24
-40.174862
 34
0.0
 15
108.00004
 25
-55.937729
 35
0.0
 16
116.122378
 26
-60.121937
 36
0.0
  0
TEXT
  5
1D5
100
AcDbEntity
  8
寸法
  6
CONTINUOUS
100
AcDbText
 10
-48.952354
 20
-61.819626
 30
0.0
 40
3.0
  1
-6°
100
AcDbText
  0
LINE
  5
1D6
100
AcDbEntity
  8
寸法
  6
CONTINUOUS
 62
     1
100
AcDbLine
 10
-48.85905
 20
-56.813623
 30
0.0
 11
-56.588224
 21
-56.813623
 31
0.0
  0
LINE
  5
1D7
100
AcDbEntity
  8
寸法
  6
CONTINUOUS
 62
     1
100
AcDbLine
 10
-56.588224
 20
-48.831517
 30
0.0
 11
-56.588224
 21
-56.813623
 31
0.0
  0
INSERT
  5
1D8
100
AcDbEntity
  8
寸法
  6
CONTINUOUS
 62
     1
100
AcDbBlockReference
  2
_OPEN30
 10
-56.588224
 20
-46.831517
 30
0.0
 41
2.0
 42
2.0
 43
2.0
 50
90.0
  0
TEXT
  5
1D9
100
AcDbEntity
  8
寸法
  6
CONTINUOUS
100
AcDbText
 10
-66.254695
 20
-48.818815
 30
0.0
 40
3.0
  1
-8°
100
AcDbText
  0
INSERT
  5
1DA
100
AcDbEntity
  8
寸法
  6
CONTINUOUS
 62
     1
100
AcDbBlockReference
  2
_OPEN30
 10
-46.85905
 20
-56.813623
 30
0.0
 41
2.0
 42
2.0
 43
2.0
  0
DIMENSION
  5
1E7
100
AcDbEntity
  8
寸法
 62
     1
100
AcDbDimension
  2
*D14
 10
-15.252592
 20
-36.062615
 30
0.0
 11
-17.752592
 21
-31.062615
 31
0.0
 70
    32
  3
寸法
100
AcDbAlignedDimension
 13
2.077648
 23
-26.062615
 33
0.0
 14
0.0
 24
-36.062615
 34
0.0
 50
90.0
100
AcDbRotatedDimension
  0
ARC
  5
1F1
100
AcDbEntity
  8
寸法
 62
     1
100
AcDbCircle
 10
45.000001
 20
-36.062615
 30
0.0
 40
45.0
100
AcDbArc
 50
180.0
 51
240.0
  0
DIMENSION
  5
1FA
100
AcDbEntity
  8
寸法
 62
     1
100
AcDbDimension
  2
*D15
 10
73.754978
 20
-1.448293
 30
0.0
 11
22.754951
 21
-62.840493
 31
0.0
 70
   163
  3
寸法
100
AcDbDiametricDimension
 15
16.245023
 25
-70.676936
 35
0.0
 40
0.0
1001
ACAD
1000
DSTYLE
1002
{
1070
   288
1070
     1
1002
}
  0
ENDSEC
  0
SECTION
  2
OBJECTS
  0
DICTIONARY
  5
C
100
AcDbDictionary
  3
ACAD_GROUP
350
D
  3
ACAD_MLINESTYLE
350
1B
  0
DICTIONARY
  5
D
102
{ACAD_REACTORS
330
C
102
}
100
AcDbDictionary
  0
DICTIONARY
  5
1B
102
{ACAD_REACTORS
330
C
102
}
100
AcDbDictionary
  3
STANDARD
350
1C
  0
MLINESTYLE
  5
1C
102
{ACAD_REACTORS
330
1B
102
}
100
AcDbMlineStyle
  2
STANDARD
 70
     0
  3

 62
   256
 51
90.0
 52
90.0
 71
     2
 49
0.5
 62
   256
  6
BYLAYER
 49
-0.5
 62
   256
  6
BYLAYER
  0
ENDSEC
  0
EOF
