  0
SECTION
  2
HEADER
  9
$ACADVER
  1
AC1014
  9
$ACADMAINTVER
 70
     9
  9
$DWGCODEPAGE
  3
ANSI_932
  9
$INSBASE
 10
0.0
 20
0.0
 30
0.0
  9
$EXTMIN
 10
-47.52330998329399
 20
-16.20486996649452
 30
-0.00000001
  9
$EXTMAX
 10
10.05865674081684
 20
9.792596375054232
 30
0.00000001
  9
$LIMMIN
 10
-56.86421368136478
 20
-24.00472159727374
  9
$LIMMAX
 10
18.94771978626653
 20
16.83458007609971
  9
$ORTHOMODE
 70
     0
  9
$REGENMODE
 70
     1
  9
$FILLMODE
 70
     1
  9
$QTEXTMODE
 70
     0
  9
$MIRRTEXT
 70
     0
  9
$DRAGMODE
 70
     2
  9
$LTSCALE
 40
0.3
  9
$OSMODE
 70
    55
  9
$ATTMODE
 70
     1
  9
$TEXTSIZE
 40
2.5
  9
$TRACEWID
 40
1.0
  9
$TEXTSTYLE
  7
STANDARD
  9
$CLAYER
  8
AM_5
  9
$CELTYPE
  6
BYLAYER
  9
$CECOLOR
 62
   256
  9
$CELTSCALE
 40
1.0
  9
$DELOBJ
 70
     1
  9
$DISPSILH
 70
     0
  9
$DIMSCALE
 40
0.3333333333333333
  9
$DIMASZ
 40
2.5
  9
$DIMEXO
 40
1.0
  9
$DIMDLI
 40
12.0
  9
$DIMRND
 40
0.0
  9
$DIMDLE
 40
0.0
  9
$DIMEXE
 40
1.0
  9
$DIMTP
 40
0.1
  9
$DIMTM
 40
0.1
  9
$DIMTXT
 40
3.2
  9
$DIMCEN
 40
0.0
  9
$DIMTSZ
 40
0.0
  9
$DIMTOL
 70
     0
  9
$DIMLIM
 70
     0
  9
$DIMTIH
 70
     0
  9
$DIMTOH
 70
     0
  9
$DIMSE1
 70
     0
  9
$DIMSE2
 70
     0
  9
$DIMTAD
 70
     3
  9
$DIMZIN
 70
     8
  9
$DIMBLK
  1
OPEN30
  9
$DIMASO
 70
     1
  9
$DIMSHO
 70
     1
  9
$DIMPOST
  1

  9
$DIMAPOST
  1
"
  9
$DIMALT
 70
     0
  9
$DIMALTD
 70
     2
  9
$DIMALTF
 40
0.0393701
  9
$DIMLFAC
 40
1.0
  9
$DIMTOFL
 70
     1
  9
$DIMTVP
 40
0.0
  9
$DIMTIX
 70
     0
  9
$DIMSOXD
 70
     0
  9
$DIMSAH
 70
     0
  9
$DIMBLK1
  1

  9
$DIMBLK2
  1

  9
$DIMSTYLE
  2
AM_JIS
  9
$DIMCLRD
 70
     3
  9
$DIMCLRE
 70
     3
  9
$DIMCLRT
 70
     2
  9
$DIMTFAC
 40
0.71
  9
$DIMGAP
 40
1.5
  9
$DIMJUST
 70
     0
  9
$DIMSD1
 70
     0
  9
$DIMSD2
 70
     0
  9
$DIMTOLJ
 70
     0
  9
$DIMTZIN
 70
     0
  9
$DIMALTZ
 70
     0
  9
$DIMALTTZ
 70
     0
  9
$DIMFIT
 70
     3
  9
$DIMUPT
 70
     0
  9
$DIMUNIT
 70
     2
  9
$DIMDEC
 70
     3
  9
$DIMTDEC
 70
     3
  9
$DIMALTU
 70
     2
  9
$DIMALTTD
 70
     2
  9
$DIMTXSTY
  7
ASAMI
  9
$DIMAUNIT
 70
     0
  9
$LUNITS
 70
     2
  9
$LUPREC
 70
     2
  9
$SKETCHINC
 40
1.0
  9
$FILLETRAD
 40
0.8
  9
$AUNITS
 70
     0
  9
$AUPREC
 70
     0
  9
$MENU
  1
.
  9
$ELEVATION
 40
0.0
  9
$PELEVATION
 40
0.0
  9
$THICKNESS
 40
0.0
  9
$LIMCHECK
 70
     0
  9
$BLIPMODE
 70
     0
  9
$CHAMFERA
 40
0.3
  9
$CHAMFERB
 40
0.3
  9
$CHAMFERC
 40
20.0
  9
$CHAMFERD
 40
0.0
  9
$SKPOLY
 70
     0
  9
$TDCREATE
 40
2452838.620506898
  9
$TDUPDATE
 40
2453151.591672801
  9
$TDINDWG
 40
1.1057555903
  9
$TDUSRTIMER
 40
1.1057555903
  9
$USRTIMER
 70
     1
  9
$ANGBASE
 50
0.0
  9
$ANGDIR
 70
     0
  9
$PDMODE
 70
     0
  9
$PDSIZE
 40
0.0
  9
$PLINEWID
 40
0.0
  9
$COORDS
 70
     1
  9
$SPLFRAME
 70
     0
  9
$SPLINETYPE
 70
     6
  9
$SPLINESEGS
 70
     8
  9
$ATTDIA
 70
     1
  9
$ATTREQ
 70
     1
  9
$HANDLING
 70
 12289
  9
$HANDSEED
  5
6E14
  9
$SURFTAB1
 70
     6
  9
$SURFTAB2
 70
     6
  9
$SURFTYPE
 70
     6
  9
$SURFU
 70
     6
  9
$SURFV
 70
     6
  9
$UCSNAME
  2

  9
$UCSORG
 10
0.0
 20
0.0
 30
0.0
  9
$UCSXDIR
 10
1.0
 20
0.0
 30
0.0
  9
$UCSYDIR
 10
0.0
 20
1.0
 30
0.0
  9
$PUCSNAME
  2

  9
$PUCSORG
 10
0.0
 20
0.0
 30
0.0
  9
$PUCSXDIR
 10
1.0
 20
0.0
 30
0.0
  9
$PUCSYDIR
 10
0.0
 20
1.0
 30
0.0
  9
$USERI1
 70
     0
  9
$USERI2
 70
     0
  9
$USERI3
 70
     0
  9
$USERI4
 70
     0
  9
$USERI5
 70
     0
  9
$USERR1
 40
0.0
  9
$USERR2
 40
0.0
  9
$USERR3
 40
0.0
  9
$USERR4
 40
0.0
  9
$USERR5
 40
0.0
  9
$WORLDVIEW
 70
     1
  9
$SHADEDGE
 70
     3
  9
$SHADEDIF
 70
    70
  9
$TILEMODE
 70
     1
  9
$MAXACTVP
 70
    64
  9
$PINSBASE
 10
0.0
 20
0.0
 30
0.0
  9
$PLIMCHECK
 70
     0
  9
$PEXTMIN
 10
1.000000000000000E+20
 20
1.000000000000000E+20
 30
1.000000000000000E+20
  9
$PEXTMAX
 10
-1.000000000000000E+20
 20
-1.000000000000000E+20
 30
-1.000000000000000E+20
  9
$PLIMMIN
 10
0.0
 20
0.0
  9
$PLIMMAX
 10
210.0
 20
297.0
  9
$UNITMODE
 70
     0
  9
$VISRETAIN
 70
     1
  9
$PLINEGEN
 70
     0
  9
$PSLTSCALE
 70
     1
  9
$TREEDEPTH
 70
  3020
  9
$PICKSTYLE
 70
     0
  9
$CMLSTYLE
  2
STANDARD
  9
$CMLJUST
 70
     0
  9
$CMLSCALE
 40
20.0
  9
$PROXYGRAPHICS
 70
     1
  9
$MEASUREMENT
 70
     1
  0
ENDSEC
  0
SECTION
  2
CLASSES
  0
CLASS
  1
ACDBDICTIONARYWDFLT
  2
AcDbDictionaryWithDefault
  3
AutoCAD 2000
 90
        0
280
     0
281
     0
  0
CLASS
  1
ACDBPLACEHOLDER
  2
AcDbPlaceHolder
  3
AutoCAD 2000
 90
        0
280
     0
281
     0
  0
CLASS
  1
LAYOUT
  2
AcDbLayout
  3
AutoCAD 2000
 90
        0
280
     0
281
     0
  0
CLASS
  1
AMGSETTINGSOBJ
  2
AmgSettingsObj
  3
"AcadM|Product Description: AutoCAD Mechanical 2000|Company: Autodesk"
 90
        0
280
     0
281
     0
  0
CLASS
  1
ACME_DOCUMENT
  2
AcMeDbDoc
  3
AcMeServices
 90
        0
280
     0
281
     0
  0
CLASS
  1
ACMESCOPE
  2
AcMeScope
  3
AcMeServices
 90
        0
280
     0
281
     0
  0
CLASS
  1
ACMECOMMANDHISTORY
  2
AcMeCommandHistory
  3
AcMeServices
 90
        0
280
     0
281
     0
  0
CLASS
  1
DICTIONARYVAR
  2
AcDbDictionaryVar
  3
AutoCAD 2000
 90
        0
280
     0
281
     0
  0
CLASS
  1
ACIMSYSVARMAN
  2
AcImSysVarManager
  3
AcMeServices
 90
        0
280
     0
281
     0
  0
CLASS
  1
ACIMREALSYSVAR
  2
AcImRealSysVar
  3
AcMeServices
 90
        0
280
     0
281
     0
  0
CLASS
  1
ACIMINTSYSVAR
  2
AcImIntSysVar
  3
AcMeServices
 90
        0
280
     0
281
     0
  0
CLASS
  1
ACMEDRAWINGMAN
  2
AcMeDrawingMan
  3
AcMeServices
 90
        0
280
     0
281
     0
  0
CLASS
  1
ACMEVIEW
  2
AcMeView
  3
AcMeServices
 90
        0
280
     0
281
     0
  0
CLASS
  1
ACDBENTITYCACHE
  2
AcMeEntityCache
  3
AcMeServices
 90
        0
280
     0
281
     0
  0
CLASS
  1
GSMANAGER
  2
AcMeGSManager
  3
AcMeServices
 90
        0
280
     0
281
     0
  0
CLASS
  1
AmdtInternalReactor
  2
AmdtInternalReactor
  3
AcMeServices
 90
        0
280
     0
281
     0
  0
CLASS
  1
ACMESTATEMGR
  2
AcMeStateMgr
  3
AcMeServices
 90
        0
280
     0
281
     0
  0
CLASS
  1
ACME_DATABASE
  2
AcMeDbDatabase
  3
AcMeServices
 90
        0
280
     0
281
     0
  0
CLASS
  1
ACRFINSADJUSTERMGR
  2
AcRfInsAdjusterMgr
  3
AcMeServices
 90
        0
280
     0
281
     0
  0
CLASS
  1
ACMDATADICTIONARY
  2
AcmDataDictionary
  3
"AcmSymBB|Product Description: AutoCAD Mechanical 2000|Company: Autodesk"
 90
        0
280
     0
281
     0
  0
CLASS
  1
ACMDATAENTRYBLOCK
  2
AcmDataEntryBlock
  3
"AcmSymBB|Product Description: AutoCAD Mechanical 2000|Company: Autodesk"
 90
        0
280
     0
281
     0
  0
CLASS
  1
AMGOBJPROPCFG
  2
AmgObjPropCfg
  3
"AmgLay|Product Description: AutoCAD Mechanical 2000|Company: Autodesk"
 90
        1
280
     0
281
     0
  0
CLASS
  1
ACAMGFILTERDAT
  2
AcAmgFilterDat
  3
"AcadM|Product Description: AutoCAD Mechanical 2000|Company: Autodesk"
 90
        0
280
     0
281
     0
  0
CLASS
  1
LAYER_INDEX
  2
AcDbLayerIndex
  3
AutoCAD 2000
 90
        0
280
     0
281
     0
  0
CLASS
  1
IDBUFFER
  2
AcDbIdBuffer
  3
AutoCAD 2000
 90
        0
280
     0
281
     0
  0
CLASS
  1
ACIMSTRSYSVAR
  2
AcImStrSysVar
  3
AcMeServices
 90
        0
280
     0
281
     0
  0
CLASS
  1
ACMSTANDARDJIS
  2
AcmStandardJIS
  3
"AcmSymBB|Product Description: AutoCAD Mechanical 2000|Company: Autodesk"
 90
        0
280
     0
281
     0
  0
CLASS
  1
ACMSURFSTANDARDJIS
  2
AcmSurfTextStdJIS
  3
"AcmSymBB|Product Description: AutoCAD Mechanical 2000|Company: Autodesk"
 90
        0
280
     0
281
     0
  0
CLASS
  1
ACMFCFSTANDARDJIS
  2
AcmFCFStdJIS
  3
"AcmSymBB|Product Description: AutoCAD Mechanical 2000|Company: Autodesk"
 90
        0
280
     0
281
     0
  0
CLASS
  1
ACMWELDSTANDARDJIS
  2
AcmWeldingStdJIS
  3
"AcmSymBB|Product Description: AutoCAD Mechanical 2000|Company: Autodesk"
 90
        0
280
     0
281
     0
  0
CLASS
  1
ACMIDSTANDARDJIS
  2
AcmIdStdJIS
  3
"AcmSymBB|Product Description: AutoCAD Mechanical 2000|Company: Autodesk"
 90
        0
280
     0
281
     0
  0
CLASS
  1
ACMDATUMSTANDARDJIS
  2
AcmDatumStdJIS
  3
"AcmSymBB|Product Description: AutoCAD Mechanical 2000|Company: Autodesk"
 90
        0
280
     0
281
     0
  0
CLASS
  1
ACMBOMSTANDARDJIS
  2
AcmBOMStdJIS
  3
"AcmSymBB|Product Description: AutoCAD Mechanical 2000|Company: Autodesk"
 90
        0
280
     0
281
     0
  0
CLASS
  1
ACMSTANDARDANSI
  2
AcmStandardANSI
  3
"AcmSymBB|Product Description: AutoCAD Mechanical 2000|Company: Autodesk"
 90
        0
280
     0
281
     0
  0
CLASS
  1
ACMSURFSTANDARDANSI
  2
AcmSurfTextStdANSI
  3
"AcmSymBB|Product Description: AutoCAD Mechanical 2000|Company: Autodesk"
 90
        0
280
     0
281
     0
  0
CLASS
  1
ACMFCFSTANDARDANSI
  2
AcmFCFStdANSI
  3
"AcmSymBB|Product Description: AutoCAD Mechanical 2000|Company: Autodesk"
 90
        0
280
     0
281
     0
  0
CLASS
  1
ACMWELDSTANDARDANSI
  2
AcmWeldingStdANSI
  3
"AcmSymBB|Product Description: AutoCAD Mechanical 2000|Company: Autodesk"
 90
        0
280
     0
281
     0
  0
CLASS
  1
ACMIDSTANDARDANSI
  2
AcmIdStdANSI
  3
"AcmSymBB|Product Description: AutoCAD Mechanical 2000|Company: Autodesk"
 90
        0
280
     0
281
     0
  0
CLASS
  1
ACMDATUMSTANDARDANSI
  2
AcmDatumStdANSI
  3
"AcmSymBB|Product Description: AutoCAD Mechanical 2000|Company: Autodesk"
 90
        0
280
     0
281
     0
  0
CLASS
  1
ACMBOMSTANDARDANSI
  2
AcmBOMStdANSI
  3
"AcmSymBB|Product Description: AutoCAD Mechanical 2000|Company: Autodesk"
 90
        0
280
     0
281
     0
  0
CLASS
  1
ACMSTANDARDBSI
  2
AcmStandardBSI
  3
"AcmSymBB|Product Description: AutoCAD Mechanical 2000|Company: Autodesk"
 90
        0
280
     0
281
     0
  0
CLASS
  1
ACMSURFSTANDARDBSI
  2
AcmSurfTextStdBSI
  3
"AcmSymBB|Product Description: AutoCAD Mechanical 2000|Company: Autodesk"
 90
        0
280
     0
281
     0
  0
CLASS
  1
ACMFCFSTANDARDBSI
  2
AcmFCFStdBSI
  3
"AcmSymBB|Product Description: AutoCAD Mechanical 2000|Company: Autodesk"
 90
        0
280
     0
281
     0
  0
CLASS
  1
ACMWELDSTANDARDBSI
  2
AcmWeldingStdBSI
  3
"AcmSymBB|Product Description: AutoCAD Mechanical 2000|Company: Autodesk"
 90
        0
280
     0
281
     0
  0
CLASS
  1
ACMIDSTANDARDBSI
  2
AcmIdStdBSI
  3
"AcmSymBB|Product Description: AutoCAD Mechanical 2000|Company: Autodesk"
 90
        0
280
     0
281
     0
  0
CLASS
  1
ACMDATUMSTANDARDBSI
  2
AcmDatumStdBSI
  3
"AcmSymBB|Product Description: AutoCAD Mechanical 2000|Company: Autodesk"
 90
        0
280
     0
281
     0
  0
CLASS
  1
ACMBOMSTANDARDBSI
  2
AcmBOMStdBSI
  3
"AcmSymBB|Product Description: AutoCAD Mechanical 2000|Company: Autodesk"
 90
        0
280
     0
281
     0
  0
CLASS
  1
LONG_TRANSACTION
  2
AcDbLongTransaction
  3
AutoCAD 2000
 90
        0
280
     0
281
     0
  0
CLASS
  1
LWPOLYLINE
  2
AcDbPolyline
  3
AutoCAD 2000
 90
        0
280
     0
281
     1
  0
CLASS
  1
HATCH
  2
AcDbHatch
  3
AutoCAD 2000
 90
        0
280
     0
281
     1
  0
CLASS
  1
XRECORD
  2
AcDbXrecord
  3
AutoCAD 2000
 90
        0
280
     0
281
     0
  0
ENDSEC
  0
SECTION
  2
TABLES
  0
TABLE
  2
VPORT
  5
8
330
0
100
AcDbSymbolTable
 70
     3
  0
VPORT
  5
6DDE
330
8
100
AcDbSymbolTableRecord
100
AcDbViewportTableRecord
  2
*ACTIVE
 70
     0
 10
0.0
 20
0.0
 11
1.0
 21
1.0
 12
-9.163194156858693
 22
0.8966594493753596
 13
0.0
 23
0.0
 14
2.5
 24
2.5
 15
10.0
 25
10.0
 16
0.0
 26
0.0
 36
1.0
 17
0.0
 27
0.0
 37
0.0
 40
63.49968425009819
 41
1.56570841889117
 42
50.0
 43
0.0
 44
0.0
 50
0.0
 51
0.0
 71
     0
 72
   100
 73
     1
 74
     3
 75
     0
 76
     0
 77
     0
 78
     0
  0
ENDTAB
  0
TABLE
  2
LTYPE
  5
5
330
0
100
AcDbSymbolTable
 70
    10
  0
LTYPE
  5
14
330
5
100
AcDbSymbolTableRecord
100
AcDbLinetypeTableRecord
  2
BYBLOCK
 70
     0
  3

 72
    65
 73
     0
 40
0.0
  0
LTYPE
  5
15
330
5
100
AcDbSymbolTableRecord
100
AcDbLinetypeTableRecord
  2
BYLAYER
 70
     0
  3

 72
    65
 73
     0
 40
0.0
  0
LTYPE
  5
16
330
5
100
AcDbSymbolTableRecord
100
AcDbLinetypeTableRecord
  2
CONTINUOUS
 70
     0
  3
Solid line
 72
    65
 73
     0
 40
0.0
  0
LTYPE
  5
4B
330
5
100
AcDbSymbolTableRecord
100
AcDbLinetypeTableRecord
  2
AM_ISO02W050
 70
     0
  3
__ __ __ __ __ __ __ __ __ __ __ __ __ __ __
 72
    65
 73
     2
 40
7.5
 49
6.0
 74
     0
 49
-1.5
 74
     0
  0
LTYPE
  5
4C
330
5
100
AcDbSymbolTableRecord
100
AcDbLinetypeTableRecord
  2
AM_ISO08W050
 70
     0
  3
____ . ____ . ____ . ____ . ____ . ____ . ____
 72
    65
 73
     4
 40
18.0
 49
12.0
 74
     0
 49
-1.5
 74
     0
 49
3.0
 74
     0
 49
-1.5
 74
     0
  0
LTYPE
  5
4D
330
5
100
AcDbSymbolTableRecord
100
AcDbLinetypeTableRecord
  2
AM_ISO09W050
 70
     0
  3
_____ . . _____ . . _____ . . ____ .. ____
 72
    65
 73
     6
 40
22.5
 49
12.0
 74
     0
 49
-1.5
 74
     0
 49
3.0
 74
     0
 49
-1.5
 74
     0
 49
3.0
 74
     0
 49
-1.5
 74
     0
  0
LTYPE
  5
4E
330
5
100
AcDbSymbolTableRecord
100
AcDbLinetypeTableRecord
  2
AMCONSTR
 70
     0
  3
_______________________
 72
    65
 73
     2
 40
9999.0
 49
9999.0
 74
     0
 49
0.0
 74
     0
  0
LTYPE
  5
4F
330
5
100
AcDbSymbolTableRecord
100
AcDbLinetypeTableRecord
  2
AM_ISO02W050X2
 70
     0
  3
 _ _ _ _ _ _ _ _ _ _ _ _
 72
    65
 73
     2
 40
3.75
 49
3.0
 74
     0
 49
-0.75
 74
     0
  0
LTYPE
  5
50
330
5
100
AcDbSymbolTableRecord
100
AcDbLinetypeTableRecord
  2
AM_ISO08W050X2
 70
     0
  3
__ . __ . __ . __ . __ . __
 72
    65
 73
     4
 40
9.0
 49
6.0
 74
     0
 49
-0.75
 74
     0
 49
1.5
 74
     0
 49
-0.75
 74
     0
  0
LTYPE
  5
53
330
5
100
AcDbSymbolTableRecord
100
AcDbLinetypeTableRecord
  2
AMZIGZAG
 70
     0
  3
/\/-/\/-/\/-/\/-/\/-/\/
 72
    65
 73
     2
 40
11.00009999999999
 49
0.0001
 74
     4
 75
   135
340
52
 46
0.04
 50
0.0
 44
0.0
 45
0.0
 49
-11.0
 74
     0
  0
LTYPE
  5
166
330
5
100
AcDbSymbolTableRecord
100
AcDbLinetypeTableRecord
  2
ACJISTGL
 70
     0
  3
_ _ _ _ _
 72
    65
 73
     2
 40
3.0
 49
2.0
 74
     0
 49
-1.0
 74
     0
  0
LTYPE
  5
26A
330
5
100
AcDbSymbolTableRecord
100
AcDbLinetypeTableRecord
  2
ACJISTGB
 70
     0
  3
__ . . __ . .
 72
    65
 73
     6
 40
9.0
 49
4.0
 74
     0
 49
-1.0
 74
     0
 49
1.0
 74
     0
 49
-1.0
 74
     0
 49
1.0
 74
     0
 49
-1.0
 74
     0
  0
ENDTAB
  0
TABLE
  2
LAYER
  5
2
330
0
100
AcDbSymbolTable
 70
    10
  0
LAYER
  5
10
330
2
100
AcDbSymbolTableRecord
100
AcDbLayerTableRecord
  2
0
 70
     0
 62
     7
  6
CONTINUOUS
  0
LAYER
  5
3F9
330
2
100
AcDbSymbolTableRecord
100
AcDbLayerTableRecord
  2
AM_0
 70
     0
 62
     7
  6
CONTINUOUS
  0
LAYER
  5
BD6
330
2
100
AcDbSymbolTableRecord
100
AcDbLayerTableRecord
  2
AM_11
 70
     0
 62
     3
  6
AM_ISO09W050
  0
LAYER
  5
BD7
330
2
100
AcDbSymbolTableRecord
100
AcDbLayerTableRecord
  2
AM_7
 70
     0
 62
     4
  6
AM_ISO08W050
  0
LAYER
  5
BD8
330
2
100
AcDbSymbolTableRecord
100
AcDbLayerTableRecord
  2
AM_5
 70
     0
 62
     3
  6
CONTINUOUS
  0
LAYER
  5
BD9
330
2
100
AcDbSymbolTableRecord
100
AcDbLayerTableRecord
  2
DEFPOINTS
 70
     0
 62
     7
  6
CONTINUOUS
  0
LAYER
  5
BDA
330
2
100
AcDbSymbolTableRecord
100
AcDbLayerTableRecord
  2
AM_6
 70
     0
 62
     2
  6
CONTINUOUS
  0
LAYER
  5
1E2E
330
2
100
AcDbSymbolTableRecord
100
AcDbLayerTableRecord
  2
AM_CL
 70
     0
 62
     1
  6
AMCONSTR
  0
LAYER
  5
6468
330
2
100
AcDbSymbolTableRecord
100
AcDbLayerTableRecord
  2
5
 70
     0
 62
     3
  6
CONTINUOUS
  0
LAYER
  5
6469
330
2
100
AcDbSymbolTableRecord
100
AcDbLayerTableRecord
  2
AM_4
 70
     0
 62
     3
  6
CONTINUOUS
  0
ENDTAB
  0
TABLE
  2
STYLE
  5
3
330
0
100
AcDbSymbolTable
 70
     5
  0
STYLE
  5
11
330
3
100
AcDbSymbolTableRecord
100
AcDbTextStyleTableRecord
  2
STANDARD
 70
     0
 40
0.0
 41
1.0
 50
0.0
 71
     0
 42
2.5
  3
simplex.shx
  4
EXTFONT.SHX
  0
STYLE
  5
52
330
3
100
AcDbSymbolTableRecord
100
AcDbTextStyleTableRecord
  2

 70
     1
 40
0.0
 41
1.0
 50
0.0
 71
     0
 42
2.5
  3
ltypeshp.shx
  4

  0
STYLE
  5
6B
330
3
100
AcDbSymbolTableRecord
100
AcDbTextStyleTableRecord
  2
ASAMI
 70
     0
 40
0.0
 41
1.0
 50
0.0
 71
     0
 42
2.5
  3
simplex.shx
  4
EXTFONT.SHX
  0
STYLE
  5
262
330
3
100
AcDbSymbolTableRecord
100
AcDbTextStyleTableRecord
  2
ACJISTS
 70
     0
 40
1.0
 41
1.0
 50
0.0
 71
     0
 42
2.5
  3
simplex.shx
  4
bigfont.shx
  0
STYLE
  5
269
330
3
100
AcDbSymbolTableRecord
100
AcDbTextStyleTableRecord
  2
ACJISGDT
 70
     0
 40
0.0
 41
1.0
 50
0.0
 71
     0
 42
2.5
  3
amgdtans.shx
  4

  0
ENDTAB
  0
TABLE
  2
VIEW
  5
6
330
0
100
AcDbSymbolTable
 70
     0
  0
ENDTAB
  0
TABLE
  2
UCS
  5
7
330
0
100
AcDbSymbolTable
 70
     0
  0
ENDTAB
  0
TABLE
  2
APPID
  5
9
330
0
100
AcDbSymbolTable
 70
    14
  0
APPID
  5
12
330
9
100
AcDbSymbolTableRecord
100
AcDbRegAppTableRecord
  2
ACAD
 70
     0
  0
APPID
  5
30
330
9
100
AcDbSymbolTableRecord
100
AcDbRegAppTableRecord
  2
MCAD_NO_VIS
 70
     0
  0
APPID
  5
31
330
9
100
AcDbSymbolTableRecord
100
AcDbRegAppTableRecord
  2
ACAD_TEMP_GRAPHIC
 70
     0
  0
APPID
  5
2C2
330
9
100
AcDbSymbolTableRecord
100
AcDbRegAppTableRecord
  2
GENIUS_GENDTOL_13
 70
     0
  0
APPID
  5
339
330
9
100
AcDbSymbolTableRecord
100
AcDbRegAppTableRecord
  2
GENIUS_GENODEF_13
 70
     0
  0
APPID
  5
33A
330
9
100
AcDbSymbolTableRecord
100
AcDbRegAppTableRecord
  2
GENIUS_GENOBJ-N-RSBK_13
 70
     0
  0
APPID
  5
33B
330
9
100
AcDbSymbolTableRecord
100
AcDbRegAppTableRecord
  2
GENIUS_GENOBJ-N-LIB_13
 70
     0
  0
APPID
  5
33C
330
9
100
AcDbSymbolTableRecord
100
AcDbRegAppTableRecord
  2
GENIUS_GENSCALE_13
 70
     0
  0
APPID
  5
378
330
9
100
AcDbSymbolTableRecord
100
AcDbRegAppTableRecord
  2
GENIUS_GENDIMSH_14
 70
     0
  0
APPID
  5
BDB
330
9
100
AcDbSymbolTableRecord
100
AcDbRegAppTableRecord
  2
GENIUS_GENOBJ-N-CEN_13
 70
     0
  0
APPID
  5
BDC
330
9
100
AcDbSymbolTableRecord
100
AcDbRegAppTableRecord
  2
GENIUS_GENFIL_13
 70
     0
  0
APPID
  5
BDD
330
9
100
AcDbSymbolTableRecord
100
AcDbRegAppTableRecord
  2
GENIUS_GENOBJ-N-FIL_13
 70
     0
  0
APPID
  5
12AD
330
9
100
AcDbSymbolTableRecord
100
AcDbRegAppTableRecord
  2
GENIUS_GENOREF_13
 70
     0
  0
APPID
  5
62E6
330
9
100
AcDbSymbolTableRecord
100
AcDbRegAppTableRecord
  2
GENIUS_GENOBJ-N-CHA_13
 70
     0
  0
ENDTAB
  0
TABLE
  2
DIMSTYLE
  5
A
330
0
100
AcDbSymbolTable
 70
     9
  0
DIMSTYLE
105
58
102
{ACAD_REACTORS
330
634F
330
640B
330
6418
330
63C1
330
6DB4
102
}
330
A
100
AcDbSymbolTableRecord
100
AcDbDimStyleTableRecord
  2
AM_JIS
 70
     0
  3

  4
"
  5
OPEN30
  6

  7

 40
0.3333333333333333
 41
2.5
 42
1.0
 43
12.0
 44
1.0
 45
0.0
 46
0.0
 47
0.1
 48
0.1
140
3.2
141
0.0
142
0.0
143
0.0393701
144
1.0
145
0.0
146
0.71
147
1.5
 71
     0
 72
     0
 73
     0
 74
     0
 75
     0
 76
     0
 77
     3
 78
     8
170
     0
171
     2
172
     1
173
     0
174
     0
175
     0
176
     3
177
     3
178
     2
270
     2
271
     3
272
     3
273
     2
274
     2
340
6B
275
     0
280
     0
281
     0
282
     0
283
     0
284
     0
285
     0
286
     0
287
     3
288
     0
  0
DIMSTYLE
105
5F
330
A
100
AcDbSymbolTableRecord
100
AcDbDimStyleTableRecord
  2
AM_JIS$3
 70
     0
  3

  4
"
  5
OPEN30
  6

  7

 40
0.3333333333333333
 41
2.5
 42
1.0
 43
10.0
 44
1.0
 45
0.0
 46
0.0
 47
0.1
 48
0.1
140
3.2
141
0.0
142
0.0
143
0.0393701
144
1.0
145
0.0
146
0.71
147
1.5
 71
     0
 72
     0
 73
     0
 74
     1
 75
     0
 76
     0
 77
     3
 78
     8
170
     0
171
     2
172
     0
173
     0
174
     0
175
     0
176
     3
177
     3
178
     2
270
     2
271
     2
272
     3
273
     2
274
     2
340
6B
275
     0
280
     0
281
     0
282
     0
283
     0
284
     0
285
     0
286
     0
287
     0
288
     1
  0
DIMSTYLE
105
60
330
A
100
AcDbSymbolTableRecord
100
AcDbDimStyleTableRecord
  2
AM_JIS$4
 70
     0
  3

  4
"
  5
OPEN30
  6

  7

 40
0.3333333333333333
 41
2.5
 42
1.0
 43
10.0
 44
1.0
 45
0.0
 46
0.0
 47
0.1
 48
0.1
140
3.2
141
0.0
142
0.0
143
0.0393701
144
1.0
145
0.0
146
0.71
147
1.5
 71
     0
 72
     0
 73
     0
 74
     1
 75
     0
 76
     0
 77
     3
 78
     8
170
     0
171
     2
172
     0
173
     0
174
     0
175
     0
176
     3
177
     3
178
     2
270
     2
271
     2
272
     3
273
     2
274
     2
340
6B
275
     0
280
     0
281
     0
282
     0
283
     0
284
     0
285
     0
286
     0
287
     0
288
     1
  0
DIMSTYLE
105
61
330
A
100
AcDbSymbolTableRecord
100
AcDbDimStyleTableRecord
  2
AM_JIS$6
 70
     0
  3

  4
"
  5
OPEN30
  6

  7

 40
0.3333333333333333
 41
2.5
 42
1.0
 43
10.0
 44
1.0
 45
0.0
 46
0.0
 47
0.1
 48
0.1
140
3.2
141
0.0
142
0.0
143
0.0393701
144
1.0
145
0.0
146
0.71
147
1.5
 71
     0
 72
     0
 73
     0
 74
     0
 75
     0
 76
     0
 77
     0
 78
     8
170
     0
171
     2
172
     1
173
     0
174
     0
175
     0
176
     3
177
     3
178
     2
270
     2
271
     2
272
     2
273
     2
274
     2
340
6B
275
     0
280
     0
281
     0
282
     0
283
     0
284
     0
285
     0
286
     0
287
     3
288
     0
  0
DIMSTYLE
105
62
330
A
100
AcDbSymbolTableRecord
100
AcDbDimStyleTableRecord
  2
AM_JIS$7
 70
     0
  3

  4
"
  5
OPEN30
  6

  7

 40
0.3333333333333333
 41
2.5
 42
1.0
 43
10.0
 44
1.0
 45
0.0
 46
0.0
 47
0.1
 48
0.1
140
3.2
141
0.0
142
0.0
143
0.0393701
144
1.0
145
0.0
146
0.71
147
1.5
 71
     0
 72
     0
 73
     0
 74
     0
 75
     0
 76
     0
 77
     3
 78
     8
170
     0
171
     2
172
     1
173
     0
174
     0
175
     0
176
     3
177
     3
178
     2
270
     2
271
     2
272
     3
273
     2
274
     2
340
6B
275
     0
280
     0
281
     0
282
     0
283
     0
284
     0
285
     0
286
     0
287
     3
288
     0
  0
DIMSTYLE
105
63
330
A
100
AcDbSymbolTableRecord
100
AcDbDimStyleTableRecord
  2
AM_JIS$SF
 70
     0
  3

  4
"
  5
OPEN30
  6

  7

 40
0.3333333333333333
 41
2.5
 42
1.0
 43
10.0
 44
1.0
 45
0.0
 46
0.0
 47
0.1
 48
0.1
140
3.2
141
0.0
142
0.0
143
0.0393701
144
1.0
145
0.0
146
0.71
147
1.5
 71
     0
 72
     0
 73
     0
 74
     0
 75
     1
 76
     1
 77
     3
 78
     8
170
     0
171
     2
172
     1
173
     0
174
     0
175
     0
176
   256
177
   256
178
     2
270
     2
271
     2
272
     2
273
     2
274
     2
340
6B
275
     0
280
     0
281
     0
282
     0
283
     0
284
     0
285
     0
286
     0
287
     3
288
     0
  0
DIMSTYLE
105
68
330
A
100
AcDbSymbolTableRecord
100
AcDbDimStyleTableRecord
  2
AM_JIS$SH
 70
     0
  3

  4
"
  5

  6
GENAXEH
  7
OPEN30
 40
0.3333333333333333
 41
2.5
 42
1.0
 43
10.0
 44
1.0
 45
0.0
 46
0.0
 47
0.1
 48
0.1
140
3.2
141
0.0
142
0.0
143
0.0393701
144
2.0
145
0.0
146
0.71
147
1.5
 71
     0
 72
     0
 73
     0
 74
     0
 75
     1
 76
     1
 77
     3
 78
     8
170
     0
171
     2
172
     1
173
     1
174
     0
175
     0
176
   256
177
   256
178
     2
270
     2
271
     2
272
     2
273
     2
274
     2
340
6B
275
     0
280
     0
281
     0
282
     0
283
     0
284
     0
285
     0
286
     0
287
     3
288
     0
  0
DIMSTYLE
105
B34
102
{ACAD_REACTORS
330
63DB
102
}
330
A
100
AcDbSymbolTableRecord
100
AcDbDimStyleTableRecord
  2
AM_JIS$2
 70
     0
  3

  4
"
  5
OPEN30
  6

  7

 40
0.3333333333333333
 41
2.5
 42
1.0
 43
12.0
 44
1.0
 45
0.0
 46
0.0
 47
0.1
 48
0.1
140
3.2
141
0.0
142
0.0
143
0.0393701
144
1.0
145
0.0
146
0.71
147
1.5
 71
     0
 72
     0
 73
     0
 74
     0
 75
     0
 76
     0
 77
     3
 78
     8
170
     0
171
     2
172
     1
173
     0
174
     0
175
     0
176
     3
177
     3
178
     2
270
     2
271
     3
272
     3
273
     2
274
     2
340
6B
275
     0
280
     0
281
     0
282
     0
283
     0
284
     0
285
     0
286
     0
287
     3
288
     0
  0
DIMSTYLE
105
62E5
330
A
100
AcDbSymbolTableRecord
100
AcDbDimStyleTableRecord
  2
ISO-25
 70
     0
  3

  4

  5

  6

  7

 40
1.0
 41
2.5
 42
0.625
 43
3.75
 44
1.25
 45
0.0
 46
0.0
 47
0.0
 48
0.0
140
2.5
141
2.5
142
0.0
143
0.03937007874016
144
1.0
145
0.0
146
1.0
147
0.625
 71
     0
 72
     0
 73
     0
 74
     0
 75
     0
 76
     0
 77
     1
 78
     8
170
     0
171
     3
172
     1
173
     0
174
     0
175
     0
176
     0
177
     0
178
     0
270
     2
271
     2
272
     2
273
     2
274
     3
340
11
275
     0
280
     0
281
     0
282
     0
283
     0
284
     8
285
     0
286
     0
287
     3
288
     0
  0
ENDTAB
  0
TABLE
  2
BLOCK_RECORD
  5
1
330
0
100
AcDbSymbolTable
 70
    11
  0
BLOCK_RECORD
  5
1F
102
{ACAD_XDICTIONARY
360
74
102
}
330
1
100
AcDbSymbolTableRecord
100
AcDbBlockTableRecord
  2
*MODEL_SPACE
  0
BLOCK_RECORD
  5
1B
102
{ACAD_XDICTIONARY
360
6E00
102
}
330
1
100
AcDbSymbolTableRecord
100
AcDbBlockTableRecord
  2
*PAPER_SPACE
  0
BLOCK_RECORD
  5
59
330
1
100
AcDbSymbolTableRecord
100
AcDbBlockTableRecord
  2
_OPEN30
  0
BLOCK_RECORD
  5
64
330
1
100
AcDbSymbolTableRecord
100
AcDbBlockTableRecord
  2
GENAXEH
  0
BLOCK_RECORD
  5
6350
330
1
100
AcDbSymbolTableRecord
100
AcDbBlockTableRecord
  2
*D5
  0
BLOCK_RECORD
  5
63C2
330
1
100
AcDbSymbolTableRecord
100
AcDbBlockTableRecord
  2
*D6
  0
BLOCK_RECORD
  5
63DC
330
1
100
AcDbSymbolTableRecord
100
AcDbBlockTableRecord
  2
*D7
  0
BLOCK_RECORD
  5
640C
330
1
100
AcDbSymbolTableRecord
100
AcDbBlockTableRecord
  2
*D8
  0
BLOCK_RECORD
  5
6419
330
1
100
AcDbSymbolTableRecord
100
AcDbBlockTableRecord
  2
*D9
  0
BLOCK_RECORD
  5
6DB5
330
1
100
AcDbSymbolTableRecord
100
AcDbBlockTableRecord
  2
*D10
  0
ENDTAB
  0
ENDSEC
  0
SECTION
  2
BLOCKS
  0
BLOCK
  5
20
330
1F
100
AcDbEntity
  8
0
100
AcDbBlockBegin
  2
*MODEL_SPACE
 70
     0
 10
0.0
 20
0.0
 30
0.0
  3
*MODEL_SPACE
  1

  0
ENDBLK
  5
21
330
1F
100
AcDbEntity
  8
0
100
AcDbBlockEnd
  0
BLOCK
  5
1C
330
1B
100
AcDbEntity
 67
     1
  8
0
100
AcDbBlockBegin
  2
*PAPER_SPACE
 70
     0
 10
0.0
 20
0.0
 30
0.0
  3
*PAPER_SPACE
  1

  0
ENDBLK
  5
1D
330
1B
100
AcDbEntity
 67
     1
  8
0
100
AcDbBlockEnd
  0
BLOCK
  5
5D
330
59
100
AcDbEntity
  8
0
100
AcDbBlockBegin
  2
_OPEN30
 70
     0
 10
0.0
 20
0.0
 30
0.0
  3
_OPEN30
  1

  0
LINE
  5
5A
330
59
100
AcDbEntity
  8
0
 62
     0
100
AcDbLine
 10
-1.0
 20
0.26794919
 30
0.0
 11
0.0
 21
0.0
 31
0.0
  0
LINE
  5
5B
330
59
100
AcDbEntity
  8
0
 62
     0
100
AcDbLine
 10
0.0
 20
0.0
 30
0.0
 11
-1.0
 21
-0.26794919
 31
0.0
  0
LINE
  5
5C
330
59
100
AcDbEntity
  8
0
 62
     0
100
AcDbLine
 10
0.0
 20
0.0
 30
0.0
 11
-1.0
 21
0.0
 31
0.0
  0
ENDBLK
  5
5E
330
59
100
AcDbEntity
  8
0
100
AcDbBlockEnd
  0
BLOCK
  5
66
330
64
100
AcDbEntity
  8
0
100
AcDbBlockBegin
  2
GENAXEH
 70
     0
 10
0.0
 20
0.0
 30
0.0
  3
GENAXEH
  1

  0
LINE
  5
65
330
64
100
AcDbEntity
  8
0
100
AcDbLine
 10
-1.0
 20
0.0
 30
0.0
 11
1.0
 21
0.0
 31
0.0
  0
ENDBLK
  5
67
330
64
100
AcDbEntity
  8
0
100
AcDbBlockEnd
  0
BLOCK
  5
635A
330
6350
100
AcDbEntity
  8
0
100
AcDbBlockBegin
  2
*D5
 70
     1
 10
0.0
 20
0.0
 30
0.0
  3
*D5
  1

  0
LINE
  5
6D84
330
6350
100
AcDbEntity
  8
AM_5
 62
     3
100
AcDbLine
 10
-42.03333333333513
 20
-0.9999999999999985
 30
0.0
 11
-46.28997664996066
 21
-0.9999999999999975
 31
0.0
  0
LINE
  5
6D85
330
6350
100
AcDbEntity
  8
AM_5
 62
     3
100
AcDbLine
 10
-42.03333333333513
 20
1.000000000000001
 30
0.0
 11
-46.28997664996066
 21
1.000000000000002
 31
0.0
  0
LINE
  5
6D86
330
6350
100
AcDbEntity
  8
AM_5
 62
     3
100
AcDbLine
 10
-45.95664331662732
 20
-1.83333333333333
 30
0.0
 11
-45.95664331662732
 21
-2.666666666666663
 31
0.0
  0
LINE
  5
6D87
330
6350
100
AcDbEntity
  8
AM_5
 62
     3
100
AcDbLine
 10
-45.95664331662732
 20
1.833333333333335
 30
0.0
 11
-45.95664331662732
 21
2.666666666666669
 31
0.0
  0
LINE
  5
6D88
330
6350
100
AcDbEntity
  8
AM_5
 62
     3
100
AcDbLine
 10
-45.95664331662732
 20
-0.9999999999999975
 30
0.0
 11
-45.95664331662732
 21
1.000000000000002
 31
0.0
  0
INSERT
  5
6D89
330
6350
100
AcDbEntity
  8
AM_5
 62
     3
100
AcDbBlockReference
  2
_OPEN30
 10
-45.95664331662732
 20
-0.9999999999999975
 30
0.0
 41
0.8333333333333332
 42
0.8333333333333332
 43
0.8333333333333332
 50
90.0
  0
INSERT
  5
6D8A
330
6350
100
AcDbEntity
  8
AM_5
 62
     3
100
AcDbBlockReference
  2
_OPEN30
 10
-45.95664331662732
 20
1.000000000000002
 30
0.0
 41
0.8333333333333332
 42
0.8333333333333332
 43
0.8333333333333332
 50
270.0
  0
MTEXT
  5
6D8B
330
6350
100
AcDbEntity
  8
AM_5
 62
     2
100
AcDbMText
 10
-46.98997664996065
 20
-0.0000000000000048
 30
0.0
 40
1.066666666666666
 41
0.0
 71
     5
 72
     1
  1
%%C2.0
  7
ASAMI
 11
0.0000000000000001
 21
1.0
 31
0.0
1001
ACAD
1000
MTEXTBEGIN
1070
    73
1070
     1
1070
    44
1040
1.0
1070
    74
1070
     0
1000
MTEXTEND
  0
POINT
  5
6D8C
330
6350
100
AcDbEntity
  8
DEFPOINTS
 62
     0
100
AcDbPoint
 10
-41.7000000000018
 20
-0.9999999999999987
 30
0.0
  0
POINT
  5
6D8D
330
6350
100
AcDbEntity
  8
DEFPOINTS
 62
     0
100
AcDbPoint
 10
-41.7000000000018
 20
1.000000000000001
 30
0.0
  0
POINT
  5
6D8E
330
6350
100
AcDbEntity
  8
DEFPOINTS
 62
     0
100
AcDbPoint
 10
-45.95664331662732
 20
1.000000000000002
 30
0.0
  0
ENDBLK
  5
635B
330
6350
100
AcDbEntity
  8
0
100
AcDbBlockEnd
  0
BLOCK
  5
63CE
330
63C2
100
AcDbEntity
  8
0
100
AcDbBlockBegin
  2
*D6
 70
     1
 10
0.0
 20
0.0
 30
0.0
  3
*D6
  1

  0
LINE
  5
6D8F
330
63C2
100
AcDbEntity
  8
AM_5
 62
     3
100
AcDbLine
 10
0.1331497044863299
 20
-0.5500000000014226
 30
0.0
 11
5.31865344210458
 21
-0.5500000000014241
 31
0.0
  0
LINE
  5
6D90
330
63C2
100
AcDbEntity
  8
AM_5
 62
     3
100
AcDbLine
 10
0.1275673263409862
 20
0.5498893280837979
 30
0.0
 11
5.31865344210458
 21
0.5498893280837964
 31
0.0
  0
LINE
  5
6D91
330
63C2
100
AcDbEntity
  8
AM_5
 62
     3
100
AcDbLine
 10
4.985320108771247
 20
-1.383333333334757
 30
0.0
 11
4.985320108771246
 21
-2.21666666666809
 31
0.0
  0
LINE
  5
6D92
330
63C2
100
AcDbEntity
  8
AM_5
 62
     3
100
AcDbLine
 10
4.985320108771247
 20
1.383222661417129
 30
0.0
 11
4.985320108771249
 21
6.975286153480621
 31
0.0
  0
LINE
  5
6D93
330
63C2
100
AcDbEntity
  8
AM_5
 62
     3
100
AcDbLine
 10
4.985320108771247
 20
-0.5500000000014241
 30
0.0
 11
4.985320108771247
 21
0.5498893280837965
 31
0.0
  0
INSERT
  5
6D94
330
63C2
100
AcDbEntity
  8
AM_5
 62
     3
100
AcDbBlockReference
  2
_OPEN30
 10
4.985320108771247
 20
-0.5500000000014241
 30
0.0
 41
0.8333333333333332
 42
0.8333333333333332
 43
0.8333333333333332
 50
90.0
  0
INSERT
  5
6D95
330
63C2
100
AcDbEntity
  8
AM_5
 62
     3
100
AcDbBlockReference
  2
_OPEN30
 10
4.985320108771247
 20
0.5498893280837965
 30
0.0
 41
0.8333333333333332
 42
0.8333333333333332
 43
0.8333333333333332
 50
270.0
  0
MTEXT
  5
6D96
330
63C2
100
AcDbEntity
  8
AM_5
 62
     2
100
AcDbMText
 10
3.951986775437914
 20
5.205444883639352
 30
0.0
 40
1.066666666666666
 41
0.0
 71
     5
 72
     1
  1
%%C1.1
  7
ASAMI
 11
0.0000000000000001
 21
1.0
 31
0.0
1001
ACAD
1000
MTEXTBEGIN
1070
    73
1070
     1
1070
    44
1040
1.0
1070
    74
1070
     0
1000
MTEXTEND
  0
POINT
  5
6D97
330
63C2
100
AcDbEntity
  8
DEFPOINTS
 62
     0
100
AcDbPoint
 10
-0.2001836288470034
 20
-0.5500000000014226
 30
0.0
  0
POINT
  5
6D98
330
63C2
100
AcDbEntity
  8
DEFPOINTS
 62
     0
100
AcDbPoint
 10
-0.2057660069923471
 20
0.5498893280837979
 30
0.0
  0
POINT
  5
6D99
330
63C2
100
AcDbEntity
  8
DEFPOINTS
 62
     0
100
AcDbPoint
 10
4.985320108771247
 20
0.5498893280837965
 30
0.0
  0
ENDBLK
  5
63CF
330
63C2
100
AcDbEntity
  8
0
100
AcDbBlockEnd
  0
BLOCK
  5
63E8
330
63DC
100
AcDbEntity
  8
0
100
AcDbBlockBegin
  2
*D7
 70
     1
 10
0.0
 20
0.0
 30
0.0
  3
*D7
  1

  0
LINE
  5
6E09
330
63DC
100
AcDbEntity
  8
AM_0
 62
     3
100
AcDbLine
 10
0.1140067144401308
 20
-0.3132308735952885
 30
0.0
 11
3.56421359670244
 21
-9.792596375054232
 31
0.0
  0
LINE
  5
6E0A
330
63DC
100
AcDbEntity
  8
AM_0
 62
     3
100
AcDbLine
 10
0.1140067144401309
 20
0.3132308735952885
 30
0.0
 11
3.564213596702444
 21
9.792596375054232
 31
0.0
  0
ARC
  5
6E0B
330
63DC
100
AcDbEntity
  8
AM_0
 62
     3
100
AcDbCircle
 10
-0.0000000000017979
 20
0.0
 30
0.0
 40
10.08773006382804
100
AcDbArc
 50
294.7344714160291
 51
65.26552858397089
  0
INSERT
  5
6E0C
330
63DC
100
AcDbEntity
  8
AM_0
 62
     3
100
AcDbBlockReference
  2
_OPEN30
 10
3.450206882260511
 20
-9.479365501458943
 30
0.0
 41
0.8333333333333332
 42
0.8333333333333332
 43
0.8333333333333332
 50
202.3672357080181
  0
INSERT
  5
6E0D
330
63DC
100
AcDbEntity
  8
AM_0
 62
     3
100
AcDbBlockReference
  2
_OPEN30
 10
3.450206882260515
 20
9.479365501458943
 30
0.0
 41
0.8333333333333332
 42
0.8333333333333332
 43
0.8333333333333332
 50
157.6327642919819
  0
MTEXT
  5
6E0E
330
63DC
100
AcDbEntity
  8
AM_0
 62
     2
100
AcDbMText
 10
9.054396730492914
 20
-0.0000000000000023
 30
0.0
 40
1.066666666666666
 41
0.0
 71
     5
 72
     1
  1
140°
  7
ASAMI
 11
0.0000000000000001
 21
1.0
 31
0.0
  0
POINT
  5
6E0F
330
63DC
100
AcDbEntity
  8
DEFPOINTS
 62
     0
100
AcDbPoint
 10
9.262716226465654
 20
-3.995545763546796
 30
0.0
  0
POINT
  5
6E10
330
63DC
100
AcDbEntity
  8
DEFPOINTS
 62
     0
100
AcDbPoint
 10
-0.0000000000017979
 20
0.0
 30
0.0
  0
POINT
  5
6E11
330
63DC
100
AcDbEntity
  8
DEFPOINTS
 62
     0
100
AcDbPoint
 10
-0.1819851171349699
 20
-0.5
 30
0.0
  0
POINT
  5
6E12
330
63DC
100
AcDbEntity
  8
DEFPOINTS
 62
     0
100
AcDbPoint
 10
-0.0000000000017979
 20
0.0
 30
0.0
  0
POINT
  5
6E13
330
63DC
100
AcDbEntity
  8
DEFPOINTS
 62
     0
100
AcDbPoint
 10
-0.1819851171349699
 20
0.5
 30
0.0
  0
ENDBLK
  5
63E9
330
63DC
100
AcDbEntity
  8
0
100
AcDbBlockEnd
  0
BLOCK
  5
6416
330
640C
100
AcDbEntity
  8
0
100
AcDbBlockBegin
  2
*D8
 70
     1
 10
0.0
 20
0.0
 30
0.0
  3
*D8
  1

  0
LINE
  5
6DAB
330
640C
100
AcDbEntity
  8
AM_5
 62
     3
100
AcDbLine
 10
-0.0000000000017979
 20
-0.3333333333333333
 30
0.0
 11
-0.0000000000017981
 21
-3.639108696814209
 31
0.0
  0
LINE
  5
6DAC
330
640C
100
AcDbEntity
  8
AM_5
 62
     3
100
AcDbLine
 10
-9.000000000001797
 20
0.2166666666652442
 30
0.0
 11
-9.000000000001797
 21
-3.639108696814209
 31
0.0
  0
LINE
  5
6DAD
330
640C
100
AcDbEntity
  8
AM_5
 62
     3
100
AcDbLine
 10
-0.8333333333351314
 20
-3.305775363480876
 30
0.0
 11
-8.166666666668463
 21
-3.305775363480876
 31
0.0
  0
INSERT
  5
6DAE
330
640C
100
AcDbEntity
  8
AM_5
 62
     3
100
AcDbBlockReference
  2
_OPEN30
 10
-0.0000000000017981
 20
-3.305775363480876
 30
0.0
 41
0.8333333333333332
 42
0.8333333333333332
 43
0.8333333333333332
  0
INSERT
  5
6DAF
330
640C
100
AcDbEntity
  8
AM_5
 62
     3
100
AcDbBlockReference
  2
_OPEN30
 10
-9.000000000001797
 20
-3.305775363480876
 30
0.0
 41
0.8333333333333332
 42
0.8333333333333332
 43
0.8333333333333332
 50
180.0
  0
MTEXT
  5
6DB0
330
640C
100
AcDbEntity
  8
AM_5
 62
     2
100
AcDbMText
 10
-4.500000000001797
 20
-2.272442030147542
 30
0.0
 40
1.066666666666666
 41
0.0
 71
     5
 72
     1
  1
9
  7
ASAMI
1001
ACAD
1000
MTEXTBEGIN
1070
    73
1070
     1
1070
    44
1040
1.0
1070
    74
1070
     0
1000
MTEXTEND
  0
POINT
  5
6DB1
330
640C
100
AcDbEntity
  8
DEFPOINTS
 62
     0
100
AcDbPoint
 10
-0.0000000000017979
 20
0.0
 30
0.0
  0
POINT
  5
6DB2
330
640C
100
AcDbEntity
  8
DEFPOINTS
 62
     0
100
AcDbPoint
 10
-9.000000000001797
 20
0.5499999999985775
 30
0.0
  0
POINT
  5
6DB3
330
640C
100
AcDbEntity
  8
DEFPOINTS
 62
     0
100
AcDbPoint
 10
-9.000000000001797
 20
-3.305775363480876
 30
0.0
  0
ENDBLK
  5
6417
330
640C
100
AcDbEntity
  8
0
100
AcDbBlockEnd
  0
BLOCK
  5
6423
330
6419
100
AcDbEntity
  8
0
100
AcDbBlockBegin
  2
*D9
 70
     1
 10
0.0
 20
0.0
 30
0.0
  3
*D9
  1

  0
LINE
  5
6C2B
330
6419
100
AcDbEntity
  8
AM_5
 62
     3
100
AcDbLine
 10
-0.0000000000017979
 20
-0.8333333333334213
 30
0.0
 11
-0.0000000000017984
 21
-9.038169966494498
 31
0.0
  0
LINE
  5
6C2C
330
6419
100
AcDbEntity
  8
AM_5
 62
     3
100
AcDbLine
 10
-42.00000000000179
 20
-1.033333333333331
 30
0.0
 11
-42.00000000000179
 21
-9.038169966494498
 31
0.0
  0
LINE
  5
6C2D
330
6419
100
AcDbEntity
  8
AM_5
 62
     3
100
AcDbLine
 10
-0.8333333333351317
 20
-8.704836633161164
 30
0.0
 11
-41.16666666666846
 21
-8.704836633161164
 31
0.0
  0
INSERT
  5
6C2E
330
6419
100
AcDbEntity
  8
AM_5
 62
     3
100
AcDbBlockReference
  2
_OPEN30
 10
-0.0000000000017984
 20
-8.704836633161164
 30
0.0
 41
0.8333333333333332
 42
0.8333333333333332
 43
0.8333333333333332
  0
INSERT
  5
6C2F
330
6419
100
AcDbEntity
  8
AM_5
 62
     3
100
AcDbBlockReference
  2
_OPEN30
 10
-42.00000000000179
 20
-8.704836633161164
 30
0.0
 41
0.8333333333333332
 42
0.8333333333333332
 43
0.8333333333333332
 50
180.0
  0
MTEXT
  5
6C30
330
6419
100
AcDbEntity
  8
AM_5
 62
     2
100
AcDbMText
 10
-21.00000000000179
 20
-7.671503299827831
 30
0.0
 40
1.066666666666666
 41
0.0
 71
     5
 72
     1
  1
42
  7
ASAMI
1001
ACAD
1000
MTEXTBEGIN
1070
    73
1070
     1
1070
    44
1040
1.0
1070
    74
1070
     0
1000
MTEXTEND
  0
POINT
  5
6C31
330
6419
100
AcDbEntity
  8
DEFPOINTS
 62
     0
100
AcDbPoint
 10
-0.0000000000017979
 20
-0.5000000000000881
 30
0.0
  0
POINT
  5
6C32
330
6419
100
AcDbEntity
  8
DEFPOINTS
 62
     0
100
AcDbPoint
 10
-42.00000000000179
 20
-0.6999999999999986
 30
0.0
  0
POINT
  5
6C33
330
6419
100
AcDbEntity
  8
DEFPOINTS
 62
     0
100
AcDbPoint
 10
-42.00000000000179
 20
-8.704836633161164
 30
0.0
  0
ENDBLK
  5
6424
330
6419
100
AcDbEntity
  8
0
100
AcDbBlockEnd
  0
BLOCK
  5
6DBF
330
6DB5
100
AcDbEntity
  8
0
100
AcDbBlockBegin
  2
*D10
 70
     1
 10
0.0
 20
0.0
 30
0.0
  3
*D10
  1

  0
LINE
  5
6DB6
330
6DB5
100
AcDbEntity
  8
AM_5
 62
     3
100
AcDbLine
 10
-11.99999999999894
 20
-1.333333333333331
 30
0.0
 11
-11.99999999999894
 21
-6.333159028765369
 31
0.0
  0
LINE
  5
6DB7
330
6DB5
100
AcDbEntity
  8
AM_5
 62
     3
100
AcDbLine
 10
-0.000000000001798
 20
-1.333333333333332
 30
0.0
 11
-0.0000000000017983
 21
-6.333159028765369
 31
0.0
  0
LINE
  5
6DB8
330
6DB5
100
AcDbEntity
  8
AM_5
 62
     3
100
AcDbLine
 10
-11.16666666666561
 20
-5.999825695432036
 30
0.0
 11
-0.8333333333351314
 21
-5.999825695432036
 31
0.0
  0
INSERT
  5
6DB9
330
6DB5
100
AcDbEntity
  8
AM_5
 62
     3
100
AcDbBlockReference
  2
_OPEN30
 10
-11.99999999999894
 20
-5.999825695432036
 30
0.0
 41
0.8333333333333332
 42
0.8333333333333332
 43
0.8333333333333332
 50
180.0
  0
INSERT
  5
6DBA
330
6DB5
100
AcDbEntity
  8
AM_5
 62
     3
100
AcDbBlockReference
  2
_OPEN30
 10
-0.0000000000017982
 20
-5.999825695432036
 30
0.0
 41
0.8333333333333332
 42
0.8333333333333332
 43
0.8333333333333332
  0
MTEXT
  5
6DBB
330
6DB5
100
AcDbEntity
  8
AM_5
 62
     2
100
AcDbMText
 10
-6.000000000000373
 20
-4.966492362098703
 30
0.0
 40
1.066666666666666
 41
0.0
 71
     5
 72
     1
  1
12
  7
ASAMI
1001
ACAD
1000
MTEXTBEGIN
1070
    73
1070
     1
1070
    44
1040
1.0
1070
    74
1070
     0
1000
MTEXTEND
  0
POINT
  5
6DBC
330
6DB5
100
AcDbEntity
  8
DEFPOINTS
 62
     0
100
AcDbPoint
 10
-11.99999999999894
 20
-0.9999999999999985
 30
0.0
  0
POINT
  5
6DBD
330
6DB5
100
AcDbEntity
  8
DEFPOINTS
 62
     0
100
AcDbPoint
 10
-0.0000000000017979
 20
-0.9999999999999992
 30
0.0
  0
POINT
  5
6DBE
330
6DB5
100
AcDbEntity
  8
DEFPOINTS
 62
     0
100
AcDbPoint
 10
-0.0000000000017982
 20
-5.999825695432036
 30
0.0
  0
ENDBLK
  5
6DC0
330
6DB5
100
AcDbEntity
  8
0
100
AcDbBlockEnd
  0
ENDSEC
  0
SECTION
  2
ENTITIES
  0
TEXT
  5
C58
330
1F
100
AcDbEntity
  8
AM_6
100
AcDbText
 10
-26.99206349206528
 20
-16.20486996649452
 30
0.0
 40
1.666666666666666
  1
MDS011SK
 50
0.0000000000002036
 72
     4
 11
-21.00000000000179
 21
-15.37153663316116
 31
0.0
100
AcDbText
  0
LINE
  5
631C
330
1F
100
AcDbEntity
  8
AM_0
100
AcDbLine
 10
-11.99999999999894
 20
-0.9999999999999985
 30
0.0
 11
-41.7000000000018
 21
-0.9999999999999985
 31
0.0
  0
LINE
  5
631D
330
1F
100
AcDbEntity
  8
AM_0
100
AcDbLine
 10
-12.00000000000179
 20
1.000000000000001
 30
0.0
 11
-41.70000000000181
 21
1.000000000000001
 31
0.0
  0
LINE
  5
6320
330
1F
100
AcDbEntity
  8
AM_7
100
AcDbLine
 10
-42.53333082217728
 20
0.0000000000000076
 30
0.0
 11
0.2999999999981282
 21
0.0
 31
0.0
1001
GENIUS_GENODEF_13
1002
{
1000
HIER
1070
     0
1002
}
1002
{
1000
MANEDIT
1070
     0
1002
}
1002
{
1000
NOSEL
1070
     0
1002
}
1002
{
1000
BEHIND
1070
     0
1002
}
1002
{
1000
REACTOR
1002
}
1001
GENIUS_GENOBJ-N-CEN_13
1002
{
1000
OWNER
1000
GEN
1002
}
  0
LINE
  5
6343
330
1F
100
AcDbEntity
  8
AM_0
100
AcDbLine
 10
-42.00000000000179
 20
-0.6999999999999986
 30
0.0
 11
-42.00000000000179
 21
0.7000000000000015
 31
0.0
  0
LINE
  5
6348
330
1F
100
AcDbEntity
  8
AM_0
100
AcDbLine
 10
-42.00000000000179
 20
0.6710216682309625
 30
0.0
 11
-42.0000000000018
 21
0.7000000000000015
 31
0.0
  0
LINE
  5
6349
330
1F
100
AcDbEntity
  8
AM_0
100
AcDbLine
 10
-42.00000000000179
 20
0.6216980985741135
 30
0.0
 11
-42.00000000000179
 21
0.6710216682309625
 31
0.0
  0
LINE
  5
634B
330
1F
100
AcDbEntity
  8
AM_0
100
AcDbLine
 10
-42.00000000000179
 20
-0.6999999999999986
 30
0.0
 11
-42.00000000000179
 21
-0.6710216682221539
 31
0.0
  0
LINE
  5
634C
330
1F
100
AcDbEntity
  8
AM_0
100
AcDbLine
 10
-42.00000000000179
 20
-0.6710216682221539
 30
0.0
 11
-42.00000000000179
 21
-0.6216980985978762
 31
0.0
  0
DIMENSION
  5
634F
330
1F
100
AcDbEntity
  8
AM_5
100
AcDbDimension
  2
*D5
 10
-45.95664331662732
 20
1.000000000000002
 30
0.0
 11
-45.95664331662732
 21
-0.0000000000000049
 31
0.0
 70
   160
  1
%%C<>
  3
AM_JIS
100
AcDbAlignedDimension
 13
-41.7000000000018
 23
-0.9999999999999985
 33
0.0
 14
-41.7000000000018
 24
1.000000000000001
 34
0.0
 50
90.0
100
AcDbRotatedDimension
1001
ACAD
1000
DSTYLE
1002
{
1070
    78
1070
     0
1070
   271
1070
     1
1002
}
  0
LINE
  5
638E
330
1F
100
AcDbEntity
  8
AM_0
100
AcDbLine
 10
-41.7000000000018
 20
1.000000000000001
 30
0.0
 11
-41.7000000000018
 21
-0.9999999999999985
 31
0.0
  0
DIMENSION
  5
63C1
330
1F
100
AcDbEntity
  8
AM_5
100
AcDbDimension
  2
*D6
 10
4.985320108771247
 20
0.5498893280837965
 30
0.0
 11
4.985320108771247
 21
5.205444883639352
 31
0.0
 70
   160
  1
%%C<>
  3
AM_JIS
100
AcDbAlignedDimension
 13
-0.2001836288470034
 23
-0.5500000000014226
 33
0.0
 14
-0.2057660069923471
 24
0.5498893280837979
 34
0.0
 50
90.0
100
AcDbRotatedDimension
1001
ACAD
1000
DSTYLE
1002
{
1070
    78
1070
     0
1070
   271
1070
     1
1002
}
  0
DIMENSION
  5
63DB
330
1F
100
AcDbEntity
  8
AM_0
100
AcDbDimension
  2
*D7
 10
-0.1819851171349699
 20
0.5
 30
0.0
 11
9.054396730492914
 21
-0.0000000000000038
 31
0.0
 70
    34
  3
AM_JIS$2
100
AcDb2LineAngularDimension
 13
-0.1819851171349699
 23
-0.5
 33
0.0
 14
-0.0000000000017979
 24
0.0
 34
0.0
 15
-0.0000000000017979
 25
0.0
 35
0.0
 16
9.262716226465654
 26
-3.995545763546796
 36
0.0
1001
ACAD
1000
DSTYLE
1002
{
1070
   271
1070
     0
1002
}
  0
DIMENSION
  5
640B
330
1F
100
AcDbEntity
  8
AM_5
100
AcDbDimension
  2
*D8
 10
-9.000000000001797
 20
-3.305775363480876
 30
0.0
 11
-4.500000000001797
 21
-2.272442030147542
 31
0.0
 70
    32
  3
AM_JIS
100
AcDbAlignedDimension
 13
-0.0000000000017979
 23
0.0
 33
0.0
 14
-9.000000000001797
 24
0.5499999999985775
 34
0.0
100
AcDbRotatedDimension
  0
DIMENSION
  5
6418
330
1F
100
AcDbEntity
  8
AM_5
100
AcDbDimension
  2
*D9
 10
-42.00000000000179
 20
-8.704836633161164
 30
0.0
 11
-21.00000000000179
 21
-7.671503299827831
 31
0.0
 70
    32
  3
AM_JIS
100
AcDbAlignedDimension
 13
-0.0000000000017979
 23
-0.5000000000000881
 33
0.0
 14
-42.00000000000179
 24
-0.6999999999999986
 34
0.0
100
AcDbRotatedDimension
  0
LINE
  5
66ED
330
1F
100
AcDbEntity
  8
AM_0
100
AcDbLine
 10
-11.55000000000037
 20
-0.5500000000014229
 30
0.0
 11
-11.55000000000037
 21
0.5499999999985772
 31
0.0
  0
LINE
  5
6AED
330
1F
100
AcDbEntity
  8
AM_0
100
AcDbLine
 10
-0.0000000000005165
 20
-0.0000000000014225
 30
0.0
 11
-0.2001836288470034
 21
0.5499999999985775
 31
0.0
  0
LINE
  5
6AF1
330
1F
100
AcDbEntity
  8
AM_0
100
AcDbLine
 10
-0.2289011307312879
 20
-0.0431172581927235
 30
0.0
 11
-0.0000000000005947
 21
-0.0000000000014225
 31
0.0
  0
LINE
  5
6AF2
330
1F
100
AcDbEntity
  8
AM_0
100
AcDbLine
 10
-0.0000000000005947
 20
-0.0000000000014225
 30
0.0
 11
-0.123051652797985
 21
0.095506497715391
 31
0.0
  0
LINE
  5
6AF3
330
1F
100
AcDbEntity
  8
AM_0
100
AcDbLine
 10
-0.123051652797985
 20
0.095506497715391
 30
0.0
 11
-0.0347615223484603
 21
0.095506497715391
 31
0.0
  0
LINE
  5
6AF4
330
1F
100
AcDbEntity
  8
AM_0
100
AcDbLine
 10
-0.2001836288470034
 20
-0.5500000000014226
 30
0.0
 11
-0.0000000000005165
 21
-0.0000000000014225
 31
0.0
  0
LINE
  5
6BFA
330
1F
100
AcDbEntity
  8
AM_0
100
AcDbLine
 10
-41.70000000000181
 20
1.000000000000001
 30
0.0
 11
-42.0000000000018
 21
0.7000000000000015
 31
0.0
1001
GENIUS_GENFIL_13
1070
     0
1040
0.3
1040
0.3
1040
20.0
1040
0.0
1002
{
1002
}
1001
GENIUS_GENODEF_13
1002
{
1000
HIER
1070
     0
1002
}
1002
{
1000
MANEDIT
1070
     0
1002
}
1002
{
1000
NOSEL
1070
     0
1002
}
1002
{
1000
BEHIND
1070
     0
1002
}
1002
{
1000
REACTOR
1002
}
1001
GENIUS_GENOBJ-N-CHA_13
1002
{
1000
OWNER
1000
GEN
1002
}
  0
LINE
  5
6BFD
330
1F
100
AcDbEntity
  8
AM_0
100
AcDbLine
 10
-41.7000000000018
 20
-0.9999999999999985
 30
0.0
 11
-42.00000000000179
 21
-0.6999999999999986
 31
0.0
1001
GENIUS_GENFIL_13
1070
     0
1040
0.3
1040
0.3
1040
20.0
1040
0.0
1002
{
1002
}
1001
GENIUS_GENODEF_13
1002
{
1000
HIER
1070
     0
1002
}
1002
{
1000
MANEDIT
1070
     0
1002
}
1002
{
1000
NOSEL
1070
     0
1002
}
1002
{
1000
BEHIND
1070
     0
1002
}
1002
{
1000
REACTOR
1002
}
1001
GENIUS_GENOBJ-N-CHA_13
1002
{
1000
OWNER
1000
GEN
1002
}
  0
LINE
  5
6C10
330
1F
100
AcDbEntity
  8
AM_0
100
AcDbLine
 10
-7.137756385627287
 20
0.5499999999985775
 30
0.0
 11
-11.55000000000037
 21
0.5499999999985775
 31
0.0
  0
LINE
  5
6C11
330
1F
100
AcDbEntity
  8
AM_0
100
AcDbLine
 10
-7.291169949152015
 20
-0.5500000000014226
 30
0.0
 11
-11.55000000000037
 21
-0.5500000000014226
 31
0.0
  0
LINE
  5
6C12
330
1F
100
AcDbEntity
  8
AM_0
100
AcDbLine
 10
-11.55000000000037
 20
-0.5500000000014229
 30
0.0
 11
-11.99999999999894
 21
-0.9999999999999989
 31
0.0
  0
LINE
  5
6C13
330
1F
100
AcDbEntity
  8
AM_0
100
AcDbLine
 10
-11.55000000000037
 20
0.5499999999985772
 30
0.0
 11
-12.00000000000179
 21
1.000000000000001
 31
0.0
  0
LINE
  5
6C14
330
1F
100
AcDbEntity
  8
AM_0
100
AcDbLine
 10
-12.00000000000179
 20
1.000000000000001
 30
0.0
 11
-12.00000000000179
 21
-0.9999999999999991
 31
0.0
  0
LINE
  5
6D0F
330
1F
100
AcDbEntity
  8
AM_0
100
AcDbLine
 10
-1.430179387760205
 20
0.5499999999985775
 30
0.0
 11
-2.988157183655509
 21
0.5499999999985775
 31
0.0
  0
LINE
  5
6D10
330
1F
100
AcDbEntity
  8
AM_11
 48
0.1
100
AcDbLine
 10
-0.2001836388959912
 20
0.5498888235063603
 30
0.0
 11
-1.430179387760205
 21
0.5499999999985775
 31
0.0
  0
LINE
  5
6D11
330
1F
100
AcDbEntity
  8
AM_11
 48
0.1
100
AcDbLine
 10
-6.037524247900586
 20
0.5499999999985775
 30
0.0
 11
-7.300000761949786
 21
0.5499999999985775
 31
0.0
  0
LINE
  5
6D12
330
1F
100
AcDbEntity
  8
AM_0
100
AcDbLine
 10
-4.297966931329451
 20
0.5499999999985775
 30
0.0
 11
-6.03752424790028
 21
0.5499999999985775
 31
0.0
  0
SPLINE
  5
6D13
330
1F
100
AcDbEntity
  8
AM_0
100
AcDbSpline
210
0.0
220
0.0
230
1.0
 70
     8
 71
     3
 72
     8
 73
     4
 74
     0
 42
0.0000000001
 43
0.0000000001
 40
2.893239258405414
 40
2.893239258405414
 40
2.893239258405414
 40
2.893239258405414
 40
2.897999309868792
 40
2.897999309868792
 40
2.897999309868792
 40
2.897999309868792
 10
-9.034580546237437
 20
0.5499911061689966
 30
0.0
 10
-9.036239222174751
 20
0.5499970318121372
 30
0.0
 10
-9.037898398779923
 20
0.5499999995082349
 30
0.0
 10
-9.0395580777031
 20
0.5499999995082349
 30
0.0
  0
LINE
  5
6D14
330
1F
100
AcDbEntity
  8
AM_11
 48
0.1
100
AcDbLine
 10
-2.988157183655659
 20
0.5499999999985775
 30
0.0
 11
-4.230947555576108
 21
0.5499999999985775
 31
0.0
  0
LINE
  5
6D15
330
1F
100
AcDbEntity
  8
AM_0
100
AcDbLine
 10
-0.2001836288470034
 20
-0.5500000000014226
 30
0.0
 11
-0.2289011307312879
 21
-0.0431172581927235
 31
0.0
  0
SPLINE
  5
6D16
330
1F
100
AcDbEntity
  8
AM_0
100
AcDbSpline
210
0.0
220
0.0
230
1.0
 70
     8
 71
     3
 72
     9
 73
     5
 74
     0
 42
0.0000000001
 43
0.0000000001
 40
0.0
 40
0.0
 40
0.0
 40
0.0
 40
0.0353107615743204
 40
0.4098003053212364
 40
0.4098003053212364
 40
0.4098003053212364
 40
0.4098003053212364
 10
-0.123051652797985
 20
0.095506497715391
 30
0.0
 10
-0.1223571930770271
 20
0.0815952931880702
 30
0.0
 10
-0.1142976159681377
 20
-0.0798516880865421
 30
0.0
 10
-0.3791722440009476
 20
0.148196587184119
 30
0.0
 10
-0.4617939571790133
 20
0.2533843196483958
 30
0.0
  0
LINE
  5
6D17
330
1F
100
AcDbEntity
  8
AM_0
100
AcDbLine
 10
-0.2289011307312879
 20
-0.0431172581927236
 30
0.0
 11
-0.4617939571790133
 21
0.2533843196483958
 31
0.0
  0
LINE
  5
6D18
330
1F
100
AcDbEntity
  8
AM_0
100
AcDbLine
 10
-1.430179387760205
 20
-0.5500000000014226
 30
0.0
 11
-2.988157183655509
 21
-0.5500000000014226
 31
0.0
  0
LINE
  5
6D19
330
1F
100
AcDbEntity
  8
AM_11
 48
0.1
100
AcDbLine
 10
-0.2001980556351199
 20
-0.5500000000014226
 30
0.0
 11
-1.430179387760205
 21
-0.5500000000014226
 31
0.0
  0
SPLINE
  5
6D1A
330
1F
100
AcDbEntity
  8
AM_0
100
AcDbSpline
210
0.0
220
0.0
230
1.0
 70
     8
 71
     3
 72
     8
 73
     4
 74
     0
 42
0.0000000001
 43
0.0000000001
 40
22.73274810806179
 40
22.73274810806179
 40
22.73274810806179
 40
22.73274810806179
 40
28.97999309868792
 40
28.97999309868792
 40
28.97999309868792
 40
28.97999309868792
 10
-0.8087842018000234
 20
-0.4186853090890354
 30
0.0
 10
-1.009846668536288
 20
-0.4988820763847905
 30
0.0
 10
-1.215754327634223
 20
-0.5500000000014226
 30
0.0
 10
-1.430179387760366
 20
-0.5500000000014226
 30
0.0
  0
LINE
  5
6D1B
330
1F
100
AcDbEntity
  8
AM_11
 48
0.1
100
AcDbLine
 10
-6.194424969936629
 20
-0.5500000004917652
 30
0.0
 11
-7.300000761131901
 21
-0.5500000004917652
 31
0.0
  0
LINE
  5
6D1C
330
1F
100
AcDbEntity
  8
AM_0
100
AcDbLine
 10
-4.297966931329632
 20
-0.5500000000014226
 30
0.0
 11
-6.194633923245944
 21
-0.5500000000014226
 31
0.0
  0
SPLINE
  5
6D1D
330
1F
100
AcDbEntity
  8
AM_0
100
AcDbSpline
210
0.0
220
0.0
230
1.0
 70
     8
 71
     3
 72
     8
 73
     4
 74
     0
 42
0.0000000001
 43
0.0000000001
 40
0.0
 40
0.0
 40
0.0
 40
0.0
 40
10.77533687840354
 40
10.77533687840354
 40
10.77533687840354
 40
10.77533687840354
 10
-7.456901484804815
 20
-0.5500000000014226
 30
0.0
 10
-7.832603294854855
 20
-0.5500000000014226
 30
0.0
 10
-8.18256459404205
 20
-0.3979249936580836
 30
0.0
 10
-8.525927048482394
 20
-0.2068639950753408
 30
0.0
  0
SPLINE
  5
6D1E
330
1F
100
AcDbEntity
  8
AM_0
100
AcDbSpline
210
0.0
220
0.0
230
1.0
 70
     8
 71
     3
 72
    10
 73
     6
 74
     0
 42
0.0000000001
 43
0.0000000001
 40
0.0
 40
0.0
 40
0.0
 40
0.0
 40
0.6447675857635071
 40
1.316546974011651
 40
1.777238964087921
 40
1.777238964087921
 40
1.777238964087921
 40
1.777238964087921
 10
-8.52592547343513
 20
-0.2068648714961526
 30
0.0
 10
-8.724633227268045
 20
-0.0962957761837963
 30
0.0
 10
-9.348154452250062
 20
0.4608953991374236
 30
0.0
 10
-8.289507388918387
 20
0.3715847693718964
 30
0.0
 10
-7.989337350662996
 20
0.2191780337777949
 30
0.0
 10
-7.848755882646361
 20
0.1375123755731529
 30
0.0
  0
SPLINE
  5
6D1F
330
1F
100
AcDbEntity
  8
AM_0
100
AcDbSpline
210
0.0
220
0.0
230
1.0
 70
     8
 71
     3
 72
     8
 73
     4
 74
     0
 42
0.0000000001
 43
0.0000000001
 40
22.73274810806179
 40
22.73274810806179
 40
22.73274810806179
 40
22.73274810806179
 40
28.97999309868792
 40
28.97999309868792
 40
28.97999309868792
 40
28.97999309868792
 10
-6.825663226961339
 20
-0.418685309579378
 30
0.0
 10
-7.029910578603666
 20
-0.4988820768751332
 30
0.0
 10
-7.239079871790491
 20
-0.5500000004917652
 30
0.0
 10
-7.45690148398606
 20
-0.5500000004917652
 30
0.0
  0
SPLINE
  5
6D20
330
1F
100
AcDbEntity
  8
AM_0
100
AcDbSpline
210
0.0
220
0.0
230
1.0
 70
     8
 71
     3
 72
     9
 73
     5
 74
     0
 42
0.0000000001
 43
0.0000000001
 40
0.0
 40
0.0
 40
0.0
 40
0.0
 40
1.448999654934392
 40
1.692872608825329
 40
1.692872608825329
 40
1.692872608825329
 40
1.692872608825329
 10
-6.194424969936629
 20
-0.5500000004917652
 30
0.0
 10
-6.699645177215556
 20
-0.5500000004917652
 30
0.0
 10
-7.235515043603732
 20
-0.2287163025684208
 30
0.0
 10
-7.771384909991911
 20
0.0925673953549236
 30
0.0
 10
-7.848803513695665
 20
0.1375400447610581
 30
0.0
  0
SPLINE
  5
6D21
330
1F
100
AcDbEntity
  8
AM_0
100
AcDbSpline
210
0.0
220
0.0
230
1.0
 70
     8
 71
     3
 72
     8
 73
     4
 74
     0
 42
0.0000000001
 43
0.0000000001
 40
22.73274810806179
 40
22.73274810806179
 40
22.73274810806179
 40
22.73274810806179
 40
28.97999309868792
 40
28.97999309868792
 40
28.97999309868792
 40
28.97999309868792
 10
-3.82362939715883
 20
-0.4186853090890354
 30
0.0
 10
-4.027876748801156
 20
-0.4988820763847905
 30
0.0
 10
-4.237046041987983
 20
-0.5500000000014226
 30
0.0
 10
-4.454867654183551
 20
-0.5500000000014226
 30
0.0
  0
SPLINE
  5
6D22
330
1F
100
AcDbEntity
  8
AM_0
100
AcDbSpline
210
0.0
220
0.0
230
1.0
 70
     8
 71
     3
 72
     9
 73
     5
 74
     0
 42
0.0000000001
 43
0.0000000001
 40
0.0
 40
0.0
 40
0.0
 40
0.0
 40
14.48999654934396
 40
16.92804852839734
 40
16.92804852839734
 40
16.92804852839734
 40
16.92804852839734
 10
-2.988157183655663
 20
-0.5500000000014226
 30
0.0
 10
-3.485499353841518
 20
-0.5500000000014226
 30
0.0
 10
-4.012992141248604
 20
-0.2287291612226511
 30
0.0
 10
-4.540484928655691
 20
0.0925416775561282
 30
0.0
 10
-4.616675027478777
 20
0.1375025602722509
 30
0.0
  0
LINE
  5
6D23
330
1F
100
AcDbEntity
  8
AM_11
 48
0.1
100
AcDbLine
 10
-3.142611310556397
 20
-0.5500000000014226
 30
0.0
 11
-4.230947555576057
 21
-0.5500000000014226
 31
0.0
  0
SPLINE
  5
6D24
330
1F
100
AcDbEntity
  8
AM_0
100
AcDbSpline
210
0.0
220
0.0
230
1.0
 70
     8
 71
     3
 72
     9
 73
     5
 74
     0
 42
0.0000000001
 43
0.0000000001
 40
0.0
 40
0.0
 40
0.0
 40
0.0
 40
0.1987770877846628
 40
5.759128114460802
 40
5.759128114460802
 40
5.759128114460802
 40
5.759128114460802
 10
-0.1783361051116919
 20
0.4899744218648329
 30
0.0
 10
-0.1786678818072354
 20
0.4899344660714447
 30
0.0
 10
-0.3715162812405799
 20
0.4906026806915557
 30
0.0
 10
-0.5634238231431947
 20
0.4520167845229076
 30
0.0
 10
-0.7453647281025439
 20
0.3923834712204638
 30
0.0
  0
SPLINE
  5
6D25
330
1F
100
AcDbEntity
  8
AM_0
100
AcDbSpline
210
0.0
220
0.0
230
1.0
 70
     8
 71
     3
 72
     9
 73
     5
 74
     0
 42
0.0000000001
 43
0.0000000001
 40
0.0
 40
0.0
 40
0.0
 40
0.0
 40
0.1987770877846628
 40
5.759128114445015
 40
5.759128114445015
 40
5.759128114445015
 40
5.759128114445015
 10
-2.967689222627058
 20
0.4899250883756693
 30
0.0
 10
-2.97451187630302
 20
0.4899250883756693
 30
0.0
 10
-3.172284449055285
 20
0.4906026806901409
 30
0.0
 10
-3.364191990957392
 20
0.4520167845217117
 30
0.0
 10
-3.546132895916251
 20
0.3923834712195571
 30
0.0
  0
SPLINE
  5
6D26
330
1F
100
AcDbEntity
  8
AM_0
100
AcDbSpline
210
0.0
220
0.0
230
1.0
 70
     8
 71
     3
 72
     8
 73
     4
 74
     0
 42
0.0000000001
 43
0.0000000001
 40
0.0
 40
0.0
 40
0.0
 40
0.0
 40
6.870645942600294
 40
6.870645942600294
 40
6.870645942600294
 40
6.870645942600294
 10
-2.988157183655663
 20
0.4899250883763806
 30
0.0
 10
-2.752336261088953
 20
0.4907338666887867
 30
0.0
 10
-2.515617789195506
 20
0.4519779410056714
 30
0.0
 10
-2.284680994102902
 20
0.3842721167833659
 30
0.0
  0
SPLINE
  5
6D27
330
1F
100
AcDbEntity
  8
AM_0
100
AcDbSpline
210
0.0
220
0.0
230
1.0
 70
     8
 71
     3
 72
     8
 73
     4
 74
     0
 42
0.0000000001
 43
0.0000000001
 40
0.0
 40
0.0
 40
0.0
 40
0.0
 40
6.870645942600294
 40
6.870645942600294
 40
6.870645942600294
 40
6.870645942600294
 10
-6.037524247900591
 20
0.4899250883763806
 30
0.0
 10
-5.797967856904552
 20
0.4907338666887867
 30
0.0
 10
-5.557499699152988
 20
0.4519779410056714
 30
0.0
 10
-5.322904801556802
 20
0.3842721167833659
 30
0.0
  0
SPLINE
  5
6D28
330
1F
100
AcDbEntity
  8
AM_0
100
AcDbSpline
210
0.0
220
0.0
230
1.0
 70
     8
 71
     3
 72
     9
 73
     5
 74
     0
 42
0.0000000001
 43
0.0000000001
 40
0.0
 40
0.0
 40
0.0
 40
0.0
 40
0.1987770877846628
 40
5.759128114445015
 40
5.759128114445015
 40
5.759128114445015
 40
5.759128114445015
 10
-6.016732068726272
 20
0.4899250883756693
 30
0.0
 10
-6.023662795117469
 20
0.4899250883756693
 30
0.0
 10
-6.224568139948063
 20
0.4906026806901409
 30
0.0
 10
-6.419515550222843
 20
0.4520167845217117
 30
0.0
 10
-6.604338449277391
 20
0.3923834712195571
 30
0.0
  0
SPLINE
  5
6D29
330
1F
100
AcDbEntity
  8
AM_0
100
AcDbSpline
210
0.0
220
0.0
230
1.0
 70
     8
 71
     3
 72
     9
 73
     5
 74
     0
 42
0.0000000001
 43
0.0000000001
 40
0.0
 40
0.0
 40
0.0
 40
0.0
 40
1.448999654934392
 40
2.897999309868792
 40
2.897999309868792
 40
2.897999309868792
 40
2.897999309868792
 10
-3.142611310556397
 20
-0.5500000000014226
 30
0.0
 10
-3.639953480742252
 20
-0.5500000000014226
 30
0.0
 10
-4.542995394464384
 20
-0.0000000000014381
 30
0.0
 10
-5.446037308186513
 20
0.5499999999985775
 30
0.0
 10
-5.94337947837237
 20
0.5499999999985775
 30
0.0
  0
SPLINE
  5
6D2A
330
1F
100
AcDbEntity
  8
AM_0
100
AcDbSpline
210
0.0
220
0.0
230
1.0
 70
     8
 71
     3
 72
     9
 73
     5
 74
     0
 42
0.0000000001
 43
0.0000000001
 40
1.521176736886217
 40
1.521176736886217
 40
1.521176736886217
 40
1.521176736886217
 40
14.48999654934396
 40
28.97999309868792
 40
28.97999309868792
 40
28.97999309868792
 40
28.97999309868792
 10
-3.143329889072187
 20
-0.5412258132549618
 30
0.0
 10
-3.580301747126881
 20
-0.4922603585571779
 30
0.0
 10
-4.435942464205897
 20
0.0288698207206998
 30
0.0
 10
-5.291583181284901
 20
0.5499999999985775
 30
0.0
 10
-5.788925351470751
 20
0.5499999999985775
 30
0.0
  0
SPLINE
  5
6D2B
330
1F
100
AcDbEntity
  8
AM_0
100
AcDbSpline
210
0.0
220
0.0
230
1.0
 70
     8
 71
     3
 72
     9
 73
     5
 74
     0
 42
0.0000000001
 43
0.0000000001
 40
0.0
 40
0.0
 40
0.0
 40
0.0
 40
1.448999654934399
 40
2.897999309868795
 40
2.897999309868795
 40
2.897999309868795
 40
2.897999309868795
 10
-4.454867654183391
 20
-0.5500000000014226
 30
0.0
 10
-4.960087861462318
 20
-0.5500000000014226
 30
0.0
 10
-5.877434208066628
 20
-0.0000000000014381
 30
0.0
 10
-6.794780554670937
 20
0.5499999999985775
 30
0.0
 10
-7.300000761949864
 20
0.5499999999985775
 30
0.0
  0
SPLINE
  5
6D2C
330
1F
100
AcDbEntity
  8
AM_0
100
AcDbSpline
210
0.0
220
0.0
230
1.0
 70
     8
 71
     3
 72
     9
 73
     5
 74
     0
 42
0.0000000001
 43
0.0000000001
 40
1.521176736886217
 40
1.521176736886217
 40
1.521176736886217
 40
1.521176736886217
 40
14.48999654934396
 40
28.97999309868792
 40
28.97999309868792
 40
28.97999309868792
 40
28.97999309868792
 10
-6.195154930934222
 20
-0.5412258137453044
 30
0.0
 10
-6.639048543693722
 20
-0.4922603590475207
 30
0.0
 10
-7.508242845631571
 20
0.0288698202303571
 30
0.0
 10
-8.377437147569407
 20
0.5499999995082349
 30
0.0
 10
-8.882657354848328
 20
0.5499999995082349
 30
0.0
  0
SPLINE
  5
6D2D
330
1F
100
AcDbEntity
  8
AM_0
100
AcDbSpline
210
0.0
220
0.0
230
1.0
 70
     8
 71
     3
 72
     8
 73
     4
 74
     0
 42
0.0000000001
 43
0.0000000001
 40
0.0
 40
0.0
 40
0.0
 40
0.0
 40
6.247244990625308
 40
6.247244990625308
 40
6.247244990625308
 40
6.247244990625308
 10
-6.037524247900591
 20
0.5499999999985775
 30
0.0
 10
-6.255345860096129
 20
0.5499999999985775
 30
0.0
 10
-6.464515153282929
 20
0.4988820763819534
 30
0.0
 10
-6.668762504925229
 20
0.4186853090862137
 30
0.0
  0
SPLINE
  5
6D2E
330
1F
100
AcDbEntity
  8
AM_0
100
AcDbSpline
210
0.0
220
0.0
230
1.0
 70
     8
 71
     3
 72
     9
 73
     5
 74
     0
 42
0.0000000001
 43
0.0000000001
 40
1.521176736886217
 40
1.521176736886217
 40
1.521176736886217
 40
1.521176736886217
 40
14.48999654934396
 40
28.97999309868792
 40
28.97999309868792
 40
28.97999309868792
 40
28.97999309868792
 10
-0.2008091565466649
 20
-0.5389590258679716
 30
0.0
 10
-0.6250794524101746
 20
-0.4922603585571779
 30
0.0
 10
-1.480720169489191
 20
0.0288698207206998
 30
0.0
 10
-2.336360886568193
 20
0.5499999999985775
 30
0.0
 10
-2.833703056754044
 20
0.5499999999985775
 30
0.0
  0
SPLINE
  5
6D2F
330
1F
100
AcDbEntity
  8
AM_0
100
AcDbSpline
210
0.0
220
0.0
230
1.0
 70
     8
 71
     3
 72
     9
 73
     5
 74
     0
 42
0.0000000001
 43
0.0000000001
 40
0.0
 40
0.0
 40
0.0
 40
0.0
 40
1.448999654934392
 40
2.897999309868792
 40
2.897999309868792
 40
2.897999309868792
 40
2.897999309868792
 10
-0.2046926587296244
 20
-0.5498892310668908
 30
0.0
 10
-0.6847311860255461
 20
-0.5500000000014226
 30
0.0
 10
-1.587773099747675
 20
-0.0000000000014381
 30
0.0
 10
-2.490815013469806
 20
0.5499999999985775
 30
0.0
 10
-2.988157183655663
 20
0.5499999999985775
 30
0.0
  0
SPLINE
  5
6D30
330
1F
100
AcDbEntity
  8
AM_0
100
AcDbSpline
210
0.0
220
0.0
230
1.0
 70
     8
 71
     3
 72
     8
 73
     4
 74
     0
 42
0.0000000001
 43
0.0000000001
 40
19.09542421355049
 40
19.09542421355049
 40
19.09542421355049
 40
19.09542421355049
 40
28.97999309868792
 40
28.97999309868792
 40
28.97999309868792
 40
28.97999309868792
 10
-0.4617939571790133
 20
0.2533843196483958
 30
0.0
 10
-0.7729633794783389
 20
0.4220289909378842
 30
0.0
 10
-1.090909952881969
 20
0.5499999999985775
 30
0.0
 10
-1.430179387760366
 20
0.5499999999985775
 30
0.0
  0
SPLINE
  5
6D31
330
1F
100
AcDbEntity
  8
AM_0
100
AcDbSpline
210
0.0
220
0.0
230
1.0
 70
     8
 71
     3
 72
     9
 73
     5
 74
     0
 42
0.0000000001
 43
0.0000000001
 40
0.0
 40
0.0
 40
0.0
 40
0.0
 40
1.448999654934399
 40
2.897999309868795
 40
2.897999309868795
 40
2.897999309868795
 40
2.897999309868795
 10
-1.430179387760209
 20
-0.5500000000014226
 30
0.0
 10
-1.927521557946066
 20
-0.5500000000014226
 30
0.0
 10
-2.830563471668198
 20
-0.0000000000014381
 30
0.0
 10
-3.733605385390328
 20
0.5499999999985775
 30
0.0
 10
-4.230947555576184
 20
0.5499999999985775
 30
0.0
  0
SPLINE
  5
6D32
330
1F
100
AcDbEntity
  8
AM_0
100
AcDbSpline
210
0.0
220
0.0
230
1.0
 70
     8
 71
     3
 72
     8
 73
     4
 74
     0
 42
0.0000000001
 43
0.0000000001
 40
0.0
 40
0.0
 40
0.0
 40
0.0
 40
6.247244990625308
 40
6.247244990625308
 40
6.247244990625308
 40
6.247244990625308
 10
-2.988157183655663
 20
0.5499999999985775
 30
0.0
 10
-3.202582243781776
 20
0.5499999999985775
 30
0.0
 10
-3.408489902879686
 20
0.4988820763819534
 30
0.0
 10
-3.609552369615926
 20
0.4186853090862137
 30
0.0
  0
SPLINE
  5
6D33
330
1F
100
AcDbEntity
  8
AM_0
100
AcDbSpline
210
0.0
220
0.0
230
1.0
 70
     8
 71
     3
 72
     8
 73
     4
 74
     0
 42
0.0000000001
 43
0.0000000001
 40
0.0
 40
0.0
 40
0.0
 40
0.0
 40
6.247244990626095
 40
6.247244990626095
 40
6.247244990626095
 40
6.247244990626095
 10
-0.2001836288470034
 20
0.5499999999985775
 30
0.0
 10
-0.4018140759658301
 20
0.5499999999985775
 30
0.0
 10
-0.6077217350637689
 20
0.4988820763819377
 30
0.0
 10
-0.8087842018000342
 20
0.4186853090861746
 30
0.0
  0
DIMENSION
  5
6DB4
330
1F
100
AcDbEntity
  8
AM_5
100
AcDbDimension
  2
*D10
 10
-0.0000000000017982
 20
-5.999825695432036
 30
0.0
 11
-6.000000000000373
 21
-4.966492362098703
 31
0.0
 70
    32
  3
AM_JIS
100
AcDbAlignedDimension
 13
-11.99999999999894
 23
-0.9999999999999985
 33
0.0
 14
-0.0000000000017979
 24
-0.9999999999999992
 34
0.0
100
AcDbRotatedDimension
  0
VIEWPORT
  5
E2
330
1B
100
AcDbEntity
 67
     1
  8
0
100
AcDbViewport
 10
158.659971393327
 20
148.5
 30
0.0
 40
581.809078125
 41
314.226
 68
     1
 69
     1
1001
ACAD
1000
MVIEW
1002
{
1070
    16
1010
0.0
1020
0.0
1030
0.0
1010
0.0
1020
0.0
1030
1.0
1040
0.0
1040
314.226
1040
158.659971393327
1040
148.5
1040
50.0
1040
0.0
1040
0.0
1070
     0
1070
   100
1070
     1
1070
     1
1070
     0
1070
     0
1070
     0
1070
     0
1040
0.0
1040
0.0
1040
0.0
1040
10.0
1040
10.0
1040
10.0
1040
10.0
1070
     0
1002
{
1002
}
1002
}
  0
ENDSEC
  0
SECTION
  2
OBJECTS
  0
DICTIONARY
  5
C
330
0
100
AcDbDictionary
  3
ACAD_GROUP
350
D
  3
ACAD_LAYOUT
350
1A
  3
ACAD_MLINESTYLE
350
17
  3
ACAD_PLOTSETTINGS
350
19
  3
ACAD_PLOTSTYLENAME
350
E
  3
ACDBVARIABLEDICTIONARY
350
34
  3
ACMDICTIONARY
350
43
  3
AMG
350
2B
  3
AMGSNAPSETTINGS
350
6E
  3
DWGPROPS
350
6DD0
  3
ACDBHEADERROUNDTRIPXREC
350
6DDF
  0
DICTIONARY
  5
74
330
1F
100
AcDbDictionary
280
     1
  3
ACAD_INDEX
360
6DD2
  3
ACAD_LAYOUTSELFREF
360
6E02
  0
DICTIONARY
  5
6E00
330
1B
100
AcDbDictionary
280
     1
  3
ACAD_LAYOUTSELFREF
360
6E01
  0
DICTIONARY
  5
D
102
{ACAD_REACTORS
330
C
102
}
330
C
100
AcDbDictionary
  0
DICTIONARY
  5
1A
102
{ACAD_REACTORS
330
C
102
}
330
C
100
AcDbDictionary
  0
DICTIONARY
  5
17
102
{ACAD_REACTORS
330
C
102
}
330
C
100
AcDbDictionary
  3
STANDARD
350
18
  0
DICTIONARY
  5
19
102
{ACAD_REACTORS
330
C
102
}
330
C
100
AcDbDictionary
  0
ACDBDICTIONARYWDFLT
  5
E
102
{ACAD_REACTORS
330
C
102
}
330
C
100
AcDbDictionary
281
     1
  3
Normal
350
F
100
AcDbDictionaryWithDefault
340
F
  0
DICTIONARY
  5
34
102
{ACAD_REACTORS
330
C
102
}
330
C
100
AcDbDictionary
  3
INDEXCTL
350
35
  3
SORTENTS
350
B5E
  0
DICTIONARY
  5
43
102
{ACAD_REACTORS
330
C
102
}
330
C
100
AcDbDictionary
  3
ACMSTDDICTIONARY
350
260
  0
DICTIONARY
  5
2B
102
{ACAD_REACTORS
330
C
102
}
330
C
100
AcDbDictionary
  3
ACMGSETTINGS
350
2C
  0
DICTIONARY
  5
6E
102
{ACAD_REACTORS
330
C
102
}
330
C
100
AcDbDictionary
  0
XRECORD
  5
6DD0
102
{ACAD_REACTORS
330
C
102
}
330
C
100
AcDbXrecord
  1
DWGPROPS COOKIE
  2

  3

  4

  6

  7

  8

  9

300
AmdtFileType=82
301
=
302
=
303
=
304
=
305
=
306
=
307
=
308
=
309
=
 40
1.105655034722222
 41
2452838.620506898
 42
2452955.030644028
  1

 90
        1
  0
DICTIONARY
  5
6DDF
102
{ACAD_REACTORS
330
C
102
}
330
C
100
AcDbDictionary
  3
TSTACKALIGN
350
6DE0
  3
TSTACKSIZE
350
6DE1
  3
HYPERLINKBASE
350
6DE2
  3
STYLESHEET
350
6DE3
  3
LAYOUTDICT
350
6DE4
  3
PLOTSETDICT
350
6DE5
  3
PLOTSTYLNAMDICT
350
6DE6
  3
LWETCUNION
350
6DE7
  3
INSUNITS
350
6DE8
  3
CEPSNTYPE
350
6DE9
  3
FINGERPRINTGUID
350
6DEA
  3
VERSIONGUID
350
6DEB
  3
PSVPSCALE
350
6DEC
  3
DIMSTYLEDATA
350
6DED
  3
PUCSORTHOREF
350
6DEE
  3
PUCSORTHOVIEW
350
6DEF
  3
PUCSBASE
350
6DF0
  3
PUCSORGTOP
350
6DF1
  3
PUCSORGBOTTOM
350
6DF2
  3
PUCSORGLEFT
350
6DF3
  3
PUCSORGRIGHT
350
6DF4
  3
PUCSORGFRONT
350
6DF5
  3
PUCSORGBACK
350
6DF6
  3
UCSORTHOREF
350
6DF7
  3
UCSORTHOVIEW
350
6DF8
  3
UCSBASE
350
6DF9
  3
UCSORGTOP
350
6DFA
  3
UCSORGBOTTOM
350
6DFB
  3
UCSORGLEFT
350
6DFC
  3
UCSORGRIGHT
350
6DFD
  3
UCSORGFRONT
350
6DFE
  3
UCSORGBACK
350
6DFF
  0
DICTIONARY
  5
6DD2
102
{ACAD_REACTORS
330
74
102
}
330
74
100
AcDbDictionary
  3
*A1
350
6DD3
  0
XRECORD
  5
6E02
102
{ACAD_REACTORS
330
74
102
}
330
74
100
AcDbXrecord
340
1F
  0
XRECORD
  5
6E01
102
{ACAD_REACTORS
330
6E00
102
}
330
6E00
100
AcDbXrecord
340
1B
  0
MLINESTYLE
  5
18
102
{ACAD_REACTORS
330
17
102
}
330
17
100
AcDbMlineStyle
  2
STANDARD
 70
     0
  3

 62
   256
 51
90.0
 52
90.0
 71
     2
 49
0.5
 62
   256
  6
BYLAYER
 49
-0.5
 62
   256
  6
BYLAYER
  0
ACDBPLACEHOLDER
  5
F
102
{ACAD_REACTORS
330
E
102
}
330
E
100
AcDbPlaceHolder
280
     0
  0
DICTIONARYVAR
  5
35
102
{ACAD_REACTORS
330
34
102
}
330
34
100
DictionaryVariables
280
     0
  1
1
  0
DICTIONARYVAR
  5
B5E
102
{ACAD_REACTORS
330
34
102
}
330
34
100
DictionaryVariables
280
     0
  1
96
  0
DICTIONARY
  5
260
102
{ACAD_REACTORS
330
43
102
}
330
43
100
AcDbDictionary
  0
DICTIONARY
  5
2C
102
{ACAD_REACTORS
330
2B
102
}
330
2B
100
AcDbDictionary
  3
DWGSETTINGS
350
2D
  0
XRECORD
  5
6DE0
102
{ACAD_REACTORS
330
6DDF
102
}
330
6DDF
100
AcDbXrecord
 90
        1
  0
XRECORD
  5
6DE1
102
{ACAD_REACTORS
330
6DDF
102
}
330
6DDF
100
AcDbXrecord
 90
       70
  0
XRECORD
  5
6DE2
102
{ACAD_REACTORS
330
6DDF
102
}
330
6DDF
100
AcDbXrecord
  1

  0
XRECORD
  5
6DE3
102
{ACAD_REACTORS
330
6DDF
102
}
330
6DDF
100
AcDbXrecord
  1
ASAMI.ctb
  0
XRECORD
  5
6DE4
102
{ACAD_REACTORS
330
6DDF
102
}
330
6DDF
100
AcDbXrecord
340
1A
  0
XRECORD
  5
6DE5
102
{ACAD_REACTORS
330
6DDF
102
}
330
6DDF
100
AcDbXrecord
340
19
  0
XRECORD
  5
6DE6
102
{ACAD_REACTORS
330
6DDF
102
}
330
6DDF
100
AcDbXrecord
340
E
  0
XRECORD
  5
6DE7
102
{ACAD_REACTORS
330
6DDF
102
}
330
6DDF
100
AcDbXrecord
 90
    10781
  0
XRECORD
  5
6DE8
102
{ACAD_REACTORS
330
6DDF
102
}
330
6DDF
100
AcDbXrecord
 90
        4
  0
XRECORD
  5
6DE9
102
{ACAD_REACTORS
330
6DDF
102
}
330
6DDF
100
AcDbXrecord
 90
        0
  0
XRECORD
  5
6DEA
102
{ACAD_REACTORS
330
6DDF
102
}
330
6DDF
100
AcDbXrecord
  1
{AFB28963-8C59-40AE-9337-C84526B81ACE}
  0
XRECORD
  5
6DEB
102
{ACAD_REACTORS
330
6DDF
102
}
330
6DDF
100
AcDbXrecord
  1
{D3C603A5-E020-44D3-B01A-537AC99FEA6B}
  0
XRECORD
  5
6DEC
102
{ACAD_REACTORS
330
6DDF
102
}
330
6DDF
100
AcDbXrecord
 40
0.0
  0
XRECORD
  5
6DED
102
{ACAD_REACTORS
330
6DDF
102
}
330
6DDF
100
AcDbXrecord
1000
DSTYLE
1002
{
1070
    79
 70
     2
1070
   341
340
59
1070
   342
340
59
1070
   371
 70
    -1
1070
   372
 70
    -1
1002
}
  0
XRECORD
  5
6DEE
102
{ACAD_REACTORS
330
6DDF
102
}
330
6DDF
100
AcDbXrecord
340
0
  0
XRECORD
  5
6DEF
102
{ACAD_REACTORS
330
6DDF
102
}
330
6DDF
100
AcDbXrecord
 70
     0
  0
XRECORD
  5
6DF0
102
{ACAD_REACTORS
330
6DDF
102
}
330
6DDF
100
AcDbXrecord
340
0
  0
XRECORD
  5
6DF1
102
{ACAD_REACTORS
330
6DDF
102
}
330
6DDF
100
AcDbXrecord
 10
0.0
 20
0.0
 30
0.0
  0
XRECORD
  5
6DF2
102
{ACAD_REACTORS
330
6DDF
102
}
330
6DDF
100
AcDbXrecord
 10
0.0
 20
0.0
 30
0.0
  0
XRECORD
  5
6DF3
102
{ACAD_REACTORS
330
6DDF
102
}
330
6DDF
100
AcDbXrecord
 10
0.0
 20
0.0
 30
0.0
  0
XRECORD
  5
6DF4
102
{ACAD_REACTORS
330
6DDF
102
}
330
6DDF
100
AcDbXrecord
 10
0.0
 20
0.0
 30
0.0
  0
XRECORD
  5
6DF5
102
{ACAD_REACTORS
330
6DDF
102
}
330
6DDF
100
AcDbXrecord
 10
0.0
 20
0.0
 30
0.0
  0
XRECORD
  5
6DF6
102
{ACAD_REACTORS
330
6DDF
102
}
330
6DDF
100
AcDbXrecord
 10
0.0
 20
0.0
 30
0.0
  0
XRECORD
  5
6DF7
102
{ACAD_REACTORS
330
6DDF
102
}
330
6DDF
100
AcDbXrecord
340
0
  0
XRECORD
  5
6DF8
102
{ACAD_REACTORS
330
6DDF
102
}
330
6DDF
100
AcDbXrecord
 70
     0
  0
XRECORD
  5
6DF9
102
{ACAD_REACTORS
330
6DDF
102
}
330
6DDF
100
AcDbXrecord
340
0
  0
XRECORD
  5
6DFA
102
{ACAD_REACTORS
330
6DDF
102
}
330
6DDF
100
AcDbXrecord
 10
0.0
 20
0.0
 30
0.0
  0
XRECORD
  5
6DFB
102
{ACAD_REACTORS
330
6DDF
102
}
330
6DDF
100
AcDbXrecord
 10
0.0
 20
0.0
 30
0.0
  0
XRECORD
  5
6DFC
102
{ACAD_REACTORS
330
6DDF
102
}
330
6DDF
100
AcDbXrecord
 10
0.0
 20
0.0
 30
0.0
  0
XRECORD
  5
6DFD
102
{ACAD_REACTORS
330
6DDF
102
}
330
6DDF
100
AcDbXrecord
 10
0.0
 20
0.0
 30
0.0
  0
XRECORD
  5
6DFE
102
{ACAD_REACTORS
330
6DDF
102
}
330
6DDF
100
AcDbXrecord
 10
0.0
 20
0.0
 30
0.0
  0
XRECORD
  5
6DFF
102
{ACAD_REACTORS
330
6DDF
102
}
330
6DDF
100
AcDbXrecord
 10
0.0
 20
0.0
 30
0.0
  0
LAYER_INDEX
  5
6DD3
102
{ACAD_REACTORS
330
6DD2
102
}
330
6DD2
100
AcDbIndex
 40
2453151.591672801
100
AcDbLayerIndex
  8
0
360
6DD4
 90
        0
  8
AM_0
360
6DD5
 90
       53
  8
AM_11
360
6DD6
 90
        6
  8
AM_7
360
6DD7
 90
        1
  8
AM_5
360
6DD8
 90
        5
  8
Defpoints
360
6DD9
 90
        0
  8
AM_6
360
6DDA
 90
        1
  8
AM_CL
360
6DDB
 90
        0
  8
5
360
6DDC
 90
        0
  8
AM_4
360
6DDD
 90
        0
  0
XRECORD
  5
2D
102
{ACAD_REACTORS
330
2C
102
}
330
2C
100
AcDbXrecord
  1
VERSION
140
15.0
  1
PRODUCT
  2
AutoCAD Mechanical 2000
  0
IDBUFFER
  5
6DD4
330
0
100
AcDbIdBuffer
  0
IDBUFFER
  5
6DD5
330
0
100
AcDbIdBuffer
330
6D2F
330
6D30
330
6D31
330
6D32
330
6D33
330
631C
330
631D
330
6343
330
6348
330
6349
330
634B
330
634C
330
638E
330
63DB
330
66ED
330
6AED
330
6AF1
330
6AF2
330
6AF3
330
6AF4
330
6BFA
330
6BFD
330
6C10
330
6C11
330
6C12
330
6C13
330
6C14
330
6D0F
330
6D12
330
6D13
330
6D15
330
6D16
330
6D17
330
6D18
330
6D1A
330
6D1C
330
6D1D
330
6D1E
330
6D1F
330
6D20
330
6D21
330
6D22
330
6D24
330
6D25
330
6D26
330
6D27
330
6D28
330
6D29
330
6D2A
330
6D2B
330
6D2C
330
6D2D
330
6D2E
  0
IDBUFFER
  5
6DD6
330
0
100
AcDbIdBuffer
330
6D10
330
6D11
330
6D14
330
6D19
330
6D1B
330
6D23
  0
IDBUFFER
  5
6DD7
330
0
100
AcDbIdBuffer
330
6320
  0
IDBUFFER
  5
6DD8
330
0
100
AcDbIdBuffer
330
634F
330
63C1
330
640B
330
6418
330
6DB4
  0
IDBUFFER
  5
6DD9
330
0
100
AcDbIdBuffer
  0
IDBUFFER
  5
6DDA
330
0
100
AcDbIdBuffer
330
C58
  0
IDBUFFER
  5
6DDB
330
0
100
AcDbIdBuffer
  0
IDBUFFER
  5
6DDC
330
0
100
AcDbIdBuffer
  0
IDBUFFER
  5
6DDD
330
0
100
AcDbIdBuffer
  0
ENDSEC
  0
EOF
