  0
SECTION
  2
HEADER
  9
$ACADVER
  1
AC1014
  9
$ACADMAINTVER
 70
     9
  9
$DWGCODEPAGE
  3
ANSI_932
  9
$INSBASE
 10
0.0
 20
0.0
 30
0.0
  9
$EXTMIN
 10
-47.52330998329399
 20
-17.77594448455768
 30
-0.00000001
  9
$EXTMAX
 10
11.23459395705148
 20
10.90127650865382
 30
0.00000001
  9
$LIMMIN
 10
-56.86421368136478
 20
-24.00472159727374
  9
$LIMMAX
 10
18.94771978626653
 20
16.83458007609971
  9
$ORTHOMODE
 70
     0
  9
$REGENMODE
 70
     1
  9
$FILLMODE
 70
     1
  9
$QTEXTMODE
 70
     0
  9
$MIRRTEXT
 70
     0
  9
$DRAGMODE
 70
     2
  9
$LTSCALE
 40
0.3
  9
$OSMODE
 70
    55
  9
$ATTMODE
 70
     1
  9
$TEXTSIZE
 40
2.5
  9
$TRACEWID
 40
1.0
  9
$TEXTSTYLE
  7
STANDARD
  9
$CLAYER
  8
AM_5
  9
$CELTYPE
  6
BYLAYER
  9
$CECOLOR
 62
   256
  9
$CELTSCALE
 40
1.0
  9
$DELOBJ
 70
     1
  9
$DISPSILH
 70
     0
  9
$DIMSCALE
 40
0.3333333333333333
  9
$DIMASZ
 40
2.5
  9
$DIMEXO
 40
1.0
  9
$DIMDLI
 40
12.0
  9
$DIMRND
 40
0.0
  9
$DIMDLE
 40
0.0
  9
$DIMEXE
 40
1.0
  9
$DIMTP
 40
0.1
  9
$DIMTM
 40
0.1
  9
$DIMTXT
 40
3.2
  9
$DIMCEN
 40
0.0
  9
$DIMTSZ
 40
0.0
  9
$DIMTOL
 70
     0
  9
$DIMLIM
 70
     0
  9
$DIMTIH
 70
     0
  9
$DIMTOH
 70
     0
  9
$DIMSE1
 70
     0
  9
$DIMSE2
 70
     0
  9
$DIMTAD
 70
     3
  9
$DIMZIN
 70
     8
  9
$DIMBLK
  1
OPEN30
  9
$DIMASO
 70
     1
  9
$DIMSHO
 70
     1
  9
$DIMPOST
  1

  9
$DIMAPOST
  1
"
  9
$DIMALT
 70
     0
  9
$DIMALTD
 70
     2
  9
$DIMALTF
 40
0.0393701
  9
$DIMLFAC
 40
1.0
  9
$DIMTOFL
 70
     1
  9
$DIMTVP
 40
0.0
  9
$DIMTIX
 70
     0
  9
$DIMSOXD
 70
     0
  9
$DIMSAH
 70
     0
  9
$DIMBLK1
  1

  9
$DIMBLK2
  1

  9
$DIMSTYLE
  2
AM_JIS
  9
$DIMCLRD
 70
     3
  9
$DIMCLRE
 70
     3
  9
$DIMCLRT
 70
     2
  9
$DIMTFAC
 40
0.71
  9
$DIMGAP
 40
1.5
  9
$DIMJUST
 70
     0
  9
$DIMSD1
 70
     0
  9
$DIMSD2
 70
     0
  9
$DIMTOLJ
 70
     0
  9
$DIMTZIN
 70
     0
  9
$DIMALTZ
 70
     0
  9
$DIMALTTZ
 70
     0
  9
$DIMFIT
 70
     3
  9
$DIMUPT
 70
     0
  9
$DIMUNIT
 70
     2
  9
$DIMDEC
 70
     3
  9
$DIMTDEC
 70
     3
  9
$DIMALTU
 70
     2
  9
$DIMALTTD
 70
     2
  9
$DIMTXSTY
  7
ASAMI
  9
$DIMAUNIT
 70
     0
  9
$LUNITS
 70
     2
  9
$LUPREC
 70
     2
  9
$SKETCHINC
 40
1.0
  9
$FILLETRAD
 40
0.8
  9
$AUNITS
 70
     0
  9
$AUPREC
 70
     0
  9
$MENU
  1
.
  9
$ELEVATION
 40
0.0
  9
$PELEVATION
 40
0.0
  9
$THICKNESS
 40
0.0
  9
$LIMCHECK
 70
     0
  9
$BLIPMODE
 70
     0
  9
$CHAMFERA
 40
0.3
  9
$CHAMFERB
 40
0.3
  9
$CHAMFERC
 40
20.0
  9
$CHAMFERD
 40
0.0
  9
$SKPOLY
 70
     0
  9
$TDCREATE
 40
2452838.620506898
  9
$TDUPDATE
 40
2453151.592064143
  9
$TDINDWG
 40
1.1352505903
  9
$TDUSRTIMER
 40
1.1352505903
  9
$USRTIMER
 70
     1
  9
$ANGBASE
 50
0.0
  9
$ANGDIR
 70
     0
  9
$PDMODE
 70
     0
  9
$PDSIZE
 40
0.0
  9
$PLINEWID
 40
0.0
  9
$COORDS
 70
     1
  9
$SPLFRAME
 70
     0
  9
$SPLINETYPE
 70
     6
  9
$SPLINESEGS
 70
     8
  9
$ATTDIA
 70
     1
  9
$ATTREQ
 70
     1
  9
$HANDLING
 70
 12289
  9
$HANDSEED
  5
706B
  9
$SURFTAB1
 70
     6
  9
$SURFTAB2
 70
     6
  9
$SURFTYPE
 70
     6
  9
$SURFU
 70
     6
  9
$SURFV
 70
     6
  9
$UCSNAME
  2

  9
$UCSORG
 10
0.0
 20
0.0
 30
0.0
  9
$UCSXDIR
 10
1.0
 20
0.0
 30
0.0
  9
$UCSYDIR
 10
0.0
 20
1.0
 30
0.0
  9
$PUCSNAME
  2

  9
$PUCSORG
 10
0.0
 20
0.0
 30
0.0
  9
$PUCSXDIR
 10
1.0
 20
0.0
 30
0.0
  9
$PUCSYDIR
 10
0.0
 20
1.0
 30
0.0
  9
$USERI1
 70
     0
  9
$USERI2
 70
     0
  9
$USERI3
 70
     0
  9
$USERI4
 70
     0
  9
$USERI5
 70
     0
  9
$USERR1
 40
0.0
  9
$USERR2
 40
0.0
  9
$USERR3
 40
0.0
  9
$USERR4
 40
0.0
  9
$USERR5
 40
0.0
  9
$WORLDVIEW
 70
     1
  9
$SHADEDGE
 70
     3
  9
$SHADEDIF
 70
    70
  9
$TILEMODE
 70
     1
  9
$MAXACTVP
 70
    64
  9
$PINSBASE
 10
0.0
 20
0.0
 30
0.0
  9
$PLIMCHECK
 70
     0
  9
$PEXTMIN
 10
1.000000000000000E+20
 20
1.000000000000000E+20
 30
1.000000000000000E+20
  9
$PEXTMAX
 10
-1.000000000000000E+20
 20
-1.000000000000000E+20
 30
-1.000000000000000E+20
  9
$PLIMMIN
 10
0.0
 20
0.0
  9
$PLIMMAX
 10
210.0
 20
297.0
  9
$UNITMODE
 70
     0
  9
$VISRETAIN
 70
     1
  9
$PLINEGEN
 70
     0
  9
$PSLTSCALE
 70
     1
  9
$TREEDEPTH
 70
  3020
  9
$PICKSTYLE
 70
     0
  9
$CMLSTYLE
  2
STANDARD
  9
$CMLJUST
 70
     0
  9
$CMLSCALE
 40
20.0
  9
$PROXYGRAPHICS
 70
     1
  9
$MEASUREMENT
 70
     1
  0
ENDSEC
  0
SECTION
  2
CLASSES
  0
CLASS
  1
ACDBDICTIONARYWDFLT
  2
AcDbDictionaryWithDefault
  3
AutoCAD 2000
 90
        0
280
     0
281
     0
  0
CLASS
  1
ACDBPLACEHOLDER
  2
AcDbPlaceHolder
  3
AutoCAD 2000
 90
        0
280
     0
281
     0
  0
CLASS
  1
LAYOUT
  2
AcDbLayout
  3
AutoCAD 2000
 90
        0
280
     0
281
     0
  0
CLASS
  1
AMGSETTINGSOBJ
  2
AmgSettingsObj
  3
"AcadM|Product Description: AutoCAD Mechanical 2000|Company: Autodesk"
 90
        0
280
     0
281
     0
  0
CLASS
  1
ACME_DOCUMENT
  2
AcMeDbDoc
  3
AcMeServices
 90
        0
280
     0
281
     0
  0
CLASS
  1
ACMESCOPE
  2
AcMeScope
  3
AcMeServices
 90
        0
280
     0
281
     0
  0
CLASS
  1
ACMECOMMANDHISTORY
  2
AcMeCommandHistory
  3
AcMeServices
 90
        0
280
     0
281
     0
  0
CLASS
  1
DICTIONARYVAR
  2
AcDbDictionaryVar
  3
AutoCAD 2000
 90
        0
280
     0
281
     0
  0
CLASS
  1
ACIMSYSVARMAN
  2
AcImSysVarManager
  3
AcMeServices
 90
        0
280
     0
281
     0
  0
CLASS
  1
ACIMREALSYSVAR
  2
AcImRealSysVar
  3
AcMeServices
 90
        0
280
     0
281
     0
  0
CLASS
  1
ACIMINTSYSVAR
  2
AcImIntSysVar
  3
AcMeServices
 90
        0
280
     0
281
     0
  0
CLASS
  1
ACMEDRAWINGMAN
  2
AcMeDrawingMan
  3
AcMeServices
 90
        0
280
     0
281
     0
  0
CLASS
  1
ACMEVIEW
  2
AcMeView
  3
AcMeServices
 90
        0
280
     0
281
     0
  0
CLASS
  1
ACDBENTITYCACHE
  2
AcMeEntityCache
  3
AcMeServices
 90
        0
280
     0
281
     0
  0
CLASS
  1
GSMANAGER
  2
AcMeGSManager
  3
AcMeServices
 90
        0
280
     0
281
     0
  0
CLASS
  1
AmdtInternalReactor
  2
AmdtInternalReactor
  3
AcMeServices
 90
        0
280
     0
281
     0
  0
CLASS
  1
ACMESTATEMGR
  2
AcMeStateMgr
  3
AcMeServices
 90
        0
280
     0
281
     0
  0
CLASS
  1
ACME_DATABASE
  2
AcMeDbDatabase
  3
AcMeServices
 90
        0
280
     0
281
     0
  0
CLASS
  1
ACRFINSADJUSTERMGR
  2
AcRfInsAdjusterMgr
  3
AcMeServices
 90
        0
280
     0
281
     0
  0
CLASS
  1
ACMDATADICTIONARY
  2
AcmDataDictionary
  3
"AcmSymBB|Product Description: AutoCAD Mechanical 2000|Company: Autodesk"
 90
        0
280
     0
281
     0
  0
CLASS
  1
ACMDATAENTRYBLOCK
  2
AcmDataEntryBlock
  3
"AcmSymBB|Product Description: AutoCAD Mechanical 2000|Company: Autodesk"
 90
        0
280
     0
281
     0
  0
CLASS
  1
AMGOBJPROPCFG
  2
AmgObjPropCfg
  3
"AmgLay|Product Description: AutoCAD Mechanical 2000|Company: Autodesk"
 90
        1
280
     0
281
     0
  0
CLASS
  1
ACAMGFILTERDAT
  2
AcAmgFilterDat
  3
"AcadM|Product Description: AutoCAD Mechanical 2000|Company: Autodesk"
 90
        0
280
     0
281
     0
  0
CLASS
  1
LAYER_INDEX
  2
AcDbLayerIndex
  3
AutoCAD 2000
 90
        0
280
     0
281
     0
  0
CLASS
  1
IDBUFFER
  2
AcDbIdBuffer
  3
AutoCAD 2000
 90
        0
280
     0
281
     0
  0
CLASS
  1
ACIMSTRSYSVAR
  2
AcImStrSysVar
  3
AcMeServices
 90
        0
280
     0
281
     0
  0
CLASS
  1
ACMSTANDARDJIS
  2
AcmStandardJIS
  3
"AcmSymBB|Product Description: AutoCAD Mechanical 2000|Company: Autodesk"
 90
        0
280
     0
281
     0
  0
CLASS
  1
ACMSURFSTANDARDJIS
  2
AcmSurfTextStdJIS
  3
"AcmSymBB|Product Description: AutoCAD Mechanical 2000|Company: Autodesk"
 90
        0
280
     0
281
     0
  0
CLASS
  1
ACMFCFSTANDARDJIS
  2
AcmFCFStdJIS
  3
"AcmSymBB|Product Description: AutoCAD Mechanical 2000|Company: Autodesk"
 90
        0
280
     0
281
     0
  0
CLASS
  1
ACMWELDSTANDARDJIS
  2
AcmWeldingStdJIS
  3
"AcmSymBB|Product Description: AutoCAD Mechanical 2000|Company: Autodesk"
 90
        0
280
     0
281
     0
  0
CLASS
  1
ACMIDSTANDARDJIS
  2
AcmIdStdJIS
  3
"AcmSymBB|Product Description: AutoCAD Mechanical 2000|Company: Autodesk"
 90
        0
280
     0
281
     0
  0
CLASS
  1
ACMDATUMSTANDARDJIS
  2
AcmDatumStdJIS
  3
"AcmSymBB|Product Description: AutoCAD Mechanical 2000|Company: Autodesk"
 90
        0
280
     0
281
     0
  0
CLASS
  1
ACMBOMSTANDARDJIS
  2
AcmBOMStdJIS
  3
"AcmSymBB|Product Description: AutoCAD Mechanical 2000|Company: Autodesk"
 90
        0
280
     0
281
     0
  0
CLASS
  1
ACMSTANDARDANSI
  2
AcmStandardANSI
  3
"AcmSymBB|Product Description: AutoCAD Mechanical 2000|Company: Autodesk"
 90
        0
280
     0
281
     0
  0
CLASS
  1
ACMSURFSTANDARDANSI
  2
AcmSurfTextStdANSI
  3
"AcmSymBB|Product Description: AutoCAD Mechanical 2000|Company: Autodesk"
 90
        0
280
     0
281
     0
  0
CLASS
  1
ACMFCFSTANDARDANSI
  2
AcmFCFStdANSI
  3
"AcmSymBB|Product Description: AutoCAD Mechanical 2000|Company: Autodesk"
 90
        0
280
     0
281
     0
  0
CLASS
  1
ACMWELDSTANDARDANSI
  2
AcmWeldingStdANSI
  3
"AcmSymBB|Product Description: AutoCAD Mechanical 2000|Company: Autodesk"
 90
        0
280
     0
281
     0
  0
CLASS
  1
ACMIDSTANDARDANSI
  2
AcmIdStdANSI
  3
"AcmSymBB|Product Description: AutoCAD Mechanical 2000|Company: Autodesk"
 90
        0
280
     0
281
     0
  0
CLASS
  1
ACMDATUMSTANDARDANSI
  2
AcmDatumStdANSI
  3
"AcmSymBB|Product Description: AutoCAD Mechanical 2000|Company: Autodesk"
 90
        0
280
     0
281
     0
  0
CLASS
  1
ACMBOMSTANDARDANSI
  2
AcmBOMStdANSI
  3
"AcmSymBB|Product Description: AutoCAD Mechanical 2000|Company: Autodesk"
 90
        0
280
     0
281
     0
  0
CLASS
  1
ACMSTANDARDBSI
  2
AcmStandardBSI
  3
"AcmSymBB|Product Description: AutoCAD Mechanical 2000|Company: Autodesk"
 90
        0
280
     0
281
     0
  0
CLASS
  1
ACMSURFSTANDARDBSI
  2
AcmSurfTextStdBSI
  3
"AcmSymBB|Product Description: AutoCAD Mechanical 2000|Company: Autodesk"
 90
        0
280
     0
281
     0
  0
CLASS
  1
ACMFCFSTANDARDBSI
  2
AcmFCFStdBSI
  3
"AcmSymBB|Product Description: AutoCAD Mechanical 2000|Company: Autodesk"
 90
        0
280
     0
281
     0
  0
CLASS
  1
ACMWELDSTANDARDBSI
  2
AcmWeldingStdBSI
  3
"AcmSymBB|Product Description: AutoCAD Mechanical 2000|Company: Autodesk"
 90
        0
280
     0
281
     0
  0
CLASS
  1
ACMIDSTANDARDBSI
  2
AcmIdStdBSI
  3
"AcmSymBB|Product Description: AutoCAD Mechanical 2000|Company: Autodesk"
 90
        0
280
     0
281
     0
  0
CLASS
  1
ACMDATUMSTANDARDBSI
  2
AcmDatumStdBSI
  3
"AcmSymBB|Product Description: AutoCAD Mechanical 2000|Company: Autodesk"
 90
        0
280
     0
281
     0
  0
CLASS
  1
ACMBOMSTANDARDBSI
  2
AcmBOMStdBSI
  3
"AcmSymBB|Product Description: AutoCAD Mechanical 2000|Company: Autodesk"
 90
        0
280
     0
281
     0
  0
CLASS
  1
LONG_TRANSACTION
  2
AcDbLongTransaction
  3
AutoCAD 2000
 90
        0
280
     0
281
     0
  0
CLASS
  1
LWPOLYLINE
  2
AcDbPolyline
  3
AutoCAD 2000
 90
        0
280
     0
281
     1
  0
CLASS
  1
HATCH
  2
AcDbHatch
  3
AutoCAD 2000
 90
        0
280
     0
281
     1
  0
CLASS
  1
XRECORD
  2
AcDbXrecord
  3
AutoCAD 2000
 90
        0
280
     0
281
     0
  0
ENDSEC
  0
SECTION
  2
TABLES
  0
TABLE
  2
VPORT
  5
8
330
0
100
AcDbSymbolTable
 70
     3
  0
VPORT
  5
7035
330
8
100
AcDbSymbolTableRecord
100
AcDbViewportTableRecord
  2
*ACTIVE
 70
     0
 10
0.0
 20
0.0
 11
1.0
 21
1.0
 12
-2.842431631327187
 22
-3.552020951371126
 13
0.0
 23
0.0
 14
2.5
 24
2.5
 15
10.0
 25
10.0
 16
0.0
 26
0.0
 36
1.0
 17
0.0
 27
0.0
 37
0.0
 40
71.55744361132578
 41
1.56570841889117
 42
50.0
 43
0.0
 44
0.0
 50
0.0
 51
0.0
 71
     0
 72
   100
 73
     1
 74
     3
 75
     0
 76
     0
 77
     0
 78
     0
  0
ENDTAB
  0
TABLE
  2
LTYPE
  5
5
330
0
100
AcDbSymbolTable
 70
    10
  0
LTYPE
  5
14
330
5
100
AcDbSymbolTableRecord
100
AcDbLinetypeTableRecord
  2
BYBLOCK
 70
     0
  3

 72
    65
 73
     0
 40
0.0
  0
LTYPE
  5
15
330
5
100
AcDbSymbolTableRecord
100
AcDbLinetypeTableRecord
  2
BYLAYER
 70
     0
  3

 72
    65
 73
     0
 40
0.0
  0
LTYPE
  5
16
330
5
100
AcDbSymbolTableRecord
100
AcDbLinetypeTableRecord
  2
CONTINUOUS
 70
     0
  3
Solid line
 72
    65
 73
     0
 40
0.0
  0
LTYPE
  5
4B
330
5
100
AcDbSymbolTableRecord
100
AcDbLinetypeTableRecord
  2
AM_ISO02W050
 70
     0
  3
__ __ __ __ __ __ __ __ __ __ __ __ __ __ __
 72
    65
 73
     2
 40
7.5
 49
6.0
 74
     0
 49
-1.5
 74
     0
  0
LTYPE
  5
4C
330
5
100
AcDbSymbolTableRecord
100
AcDbLinetypeTableRecord
  2
AM_ISO08W050
 70
     0
  3
____ . ____ . ____ . ____ . ____ . ____ . ____
 72
    65
 73
     4
 40
18.0
 49
12.0
 74
     0
 49
-1.5
 74
     0
 49
3.0
 74
     0
 49
-1.5
 74
     0
  0
LTYPE
  5
4D
330
5
100
AcDbSymbolTableRecord
100
AcDbLinetypeTableRecord
  2
AM_ISO09W050
 70
     0
  3
_____ . . _____ . . _____ . . ____ .. ____
 72
    65
 73
     6
 40
22.5
 49
12.0
 74
     0
 49
-1.5
 74
     0
 49
3.0
 74
     0
 49
-1.5
 74
     0
 49
3.0
 74
     0
 49
-1.5
 74
     0
  0
LTYPE
  5
4E
330
5
100
AcDbSymbolTableRecord
100
AcDbLinetypeTableRecord
  2
AMCONSTR
 70
     0
  3
_______________________
 72
    65
 73
     2
 40
9999.0
 49
9999.0
 74
     0
 49
0.0
 74
     0
  0
LTYPE
  5
4F
330
5
100
AcDbSymbolTableRecord
100
AcDbLinetypeTableRecord
  2
AM_ISO02W050X2
 70
     0
  3
 _ _ _ _ _ _ _ _ _ _ _ _
 72
    65
 73
     2
 40
3.75
 49
3.0
 74
     0
 49
-0.75
 74
     0
  0
LTYPE
  5
50
330
5
100
AcDbSymbolTableRecord
100
AcDbLinetypeTableRecord
  2
AM_ISO08W050X2
 70
     0
  3
__ . __ . __ . __ . __ . __
 72
    65
 73
     4
 40
9.0
 49
6.0
 74
     0
 49
-0.75
 74
     0
 49
1.5
 74
     0
 49
-0.75
 74
     0
  0
LTYPE
  5
53
330
5
100
AcDbSymbolTableRecord
100
AcDbLinetypeTableRecord
  2
AMZIGZAG
 70
     0
  3
/\/-/\/-/\/-/\/-/\/-/\/
 72
    65
 73
     2
 40
11.00009999999999
 49
0.0001
 74
     4
 75
   135
340
52
 46
0.04
 50
0.0
 44
0.0
 45
0.0
 49
-11.0
 74
     0
  0
LTYPE
  5
166
330
5
100
AcDbSymbolTableRecord
100
AcDbLinetypeTableRecord
  2
ACJISTGL
 70
     0
  3
_ _ _ _ _
 72
    65
 73
     2
 40
3.0
 49
2.0
 74
     0
 49
-1.0
 74
     0
  0
LTYPE
  5
26A
330
5
100
AcDbSymbolTableRecord
100
AcDbLinetypeTableRecord
  2
ACJISTGB
 70
     0
  3
__ . . __ . .
 72
    65
 73
     6
 40
9.0
 49
4.0
 74
     0
 49
-1.0
 74
     0
 49
1.0
 74
     0
 49
-1.0
 74
     0
 49
1.0
 74
     0
 49
-1.0
 74
     0
  0
ENDTAB
  0
TABLE
  2
LAYER
  5
2
330
0
100
AcDbSymbolTable
 70
    10
  0
LAYER
  5
10
330
2
100
AcDbSymbolTableRecord
100
AcDbLayerTableRecord
  2
0
 70
     0
 62
     7
  6
CONTINUOUS
  0
LAYER
  5
3F9
330
2
100
AcDbSymbolTableRecord
100
AcDbLayerTableRecord
  2
AM_0
 70
     0
 62
     7
  6
CONTINUOUS
  0
LAYER
  5
BD6
330
2
100
AcDbSymbolTableRecord
100
AcDbLayerTableRecord
  2
AM_11
 70
     0
 62
     3
  6
AM_ISO09W050
  0
LAYER
  5
BD7
330
2
100
AcDbSymbolTableRecord
100
AcDbLayerTableRecord
  2
AM_7
 70
     0
 62
     4
  6
AM_ISO08W050
  0
LAYER
  5
BD8
330
2
100
AcDbSymbolTableRecord
100
AcDbLayerTableRecord
  2
AM_5
 70
     0
 62
     3
  6
CONTINUOUS
  0
LAYER
  5
BD9
330
2
100
AcDbSymbolTableRecord
100
AcDbLayerTableRecord
  2
DEFPOINTS
 70
     0
 62
     7
  6
CONTINUOUS
  0
LAYER
  5
BDA
330
2
100
AcDbSymbolTableRecord
100
AcDbLayerTableRecord
  2
AM_6
 70
     0
 62
     2
  6
CONTINUOUS
  0
LAYER
  5
1E2E
330
2
100
AcDbSymbolTableRecord
100
AcDbLayerTableRecord
  2
AM_CL
 70
     0
 62
     1
  6
AMCONSTR
  0
LAYER
  5
6468
330
2
100
AcDbSymbolTableRecord
100
AcDbLayerTableRecord
  2
5
 70
     0
 62
     3
  6
CONTINUOUS
  0
LAYER
  5
6469
330
2
100
AcDbSymbolTableRecord
100
AcDbLayerTableRecord
  2
AM_4
 70
     0
 62
     3
  6
CONTINUOUS
  0
ENDTAB
  0
TABLE
  2
STYLE
  5
3
330
0
100
AcDbSymbolTable
 70
     5
  0
STYLE
  5
11
330
3
100
AcDbSymbolTableRecord
100
AcDbTextStyleTableRecord
  2
STANDARD
 70
     0
 40
0.0
 41
1.0
 50
0.0
 71
     0
 42
2.5
  3
simplex.shx
  4
EXTFONT.SHX
  0
STYLE
  5
52
330
3
100
AcDbSymbolTableRecord
100
AcDbTextStyleTableRecord
  2

 70
     1
 40
0.0
 41
1.0
 50
0.0
 71
     0
 42
2.5
  3
ltypeshp.shx
  4

  0
STYLE
  5
6B
330
3
100
AcDbSymbolTableRecord
100
AcDbTextStyleTableRecord
  2
ASAMI
 70
     0
 40
0.0
 41
1.0
 50
0.0
 71
     0
 42
2.5
  3
simplex.shx
  4
EXTFONT.SHX
  0
STYLE
  5
262
330
3
100
AcDbSymbolTableRecord
100
AcDbTextStyleTableRecord
  2
ACJISTS
 70
     0
 40
1.0
 41
1.0
 50
0.0
 71
     0
 42
2.5
  3
simplex.shx
  4
bigfont.shx
  0
STYLE
  5
269
330
3
100
AcDbSymbolTableRecord
100
AcDbTextStyleTableRecord
  2
ACJISGDT
 70
     0
 40
0.0
 41
1.0
 50
0.0
 71
     0
 42
2.5
  3
amgdtans.shx
  4

  0
ENDTAB
  0
TABLE
  2
VIEW
  5
6
330
0
100
AcDbSymbolTable
 70
     0
  0
ENDTAB
  0
TABLE
  2
UCS
  5
7
330
0
100
AcDbSymbolTable
 70
     0
  0
ENDTAB
  0
TABLE
  2
APPID
  5
9
330
0
100
AcDbSymbolTable
 70
    14
  0
APPID
  5
12
330
9
100
AcDbSymbolTableRecord
100
AcDbRegAppTableRecord
  2
ACAD
 70
     0
  0
APPID
  5
30
330
9
100
AcDbSymbolTableRecord
100
AcDbRegAppTableRecord
  2
MCAD_NO_VIS
 70
     0
  0
APPID
  5
31
330
9
100
AcDbSymbolTableRecord
100
AcDbRegAppTableRecord
  2
ACAD_TEMP_GRAPHIC
 70
     0
  0
APPID
  5
2C2
330
9
100
AcDbSymbolTableRecord
100
AcDbRegAppTableRecord
  2
GENIUS_GENDTOL_13
 70
     0
  0
APPID
  5
339
330
9
100
AcDbSymbolTableRecord
100
AcDbRegAppTableRecord
  2
GENIUS_GENODEF_13
 70
     0
  0
APPID
  5
33A
330
9
100
AcDbSymbolTableRecord
100
AcDbRegAppTableRecord
  2
GENIUS_GENOBJ-N-RSBK_13
 70
     0
  0
APPID
  5
33B
330
9
100
AcDbSymbolTableRecord
100
AcDbRegAppTableRecord
  2
GENIUS_GENOBJ-N-LIB_13
 70
     0
  0
APPID
  5
33C
330
9
100
AcDbSymbolTableRecord
100
AcDbRegAppTableRecord
  2
GENIUS_GENSCALE_13
 70
     0
  0
APPID
  5
378
330
9
100
AcDbSymbolTableRecord
100
AcDbRegAppTableRecord
  2
GENIUS_GENDIMSH_14
 70
     0
  0
APPID
  5
BDB
330
9
100
AcDbSymbolTableRecord
100
AcDbRegAppTableRecord
  2
GENIUS_GENOBJ-N-CEN_13
 70
     0
  0
APPID
  5
BDC
330
9
100
AcDbSymbolTableRecord
100
AcDbRegAppTableRecord
  2
GENIUS_GENFIL_13
 70
     0
  0
APPID
  5
BDD
330
9
100
AcDbSymbolTableRecord
100
AcDbRegAppTableRecord
  2
GENIUS_GENOBJ-N-FIL_13
 70
     0
  0
APPID
  5
12AD
330
9
100
AcDbSymbolTableRecord
100
AcDbRegAppTableRecord
  2
GENIUS_GENOREF_13
 70
     0
  0
APPID
  5
62E6
330
9
100
AcDbSymbolTableRecord
100
AcDbRegAppTableRecord
  2
GENIUS_GENOBJ-N-CHA_13
 70
     0
  0
ENDTAB
  0
TABLE
  2
DIMSTYLE
  5
A
330
0
100
AcDbSymbolTable
 70
     9
  0
DIMSTYLE
105
58
102
{ACAD_REACTORS
330
634F
330
640B
330
6418
330
63C1
330
7001
102
}
330
A
100
AcDbSymbolTableRecord
100
AcDbDimStyleTableRecord
  2
AM_JIS
 70
     0
  3

  4
"
  5
OPEN30
  6

  7

 40
0.3333333333333333
 41
2.5
 42
1.0
 43
12.0
 44
1.0
 45
0.0
 46
0.0
 47
0.1
 48
0.1
140
3.2
141
0.0
142
0.0
143
0.0393701
144
1.0
145
0.0
146
0.71
147
1.5
 71
     0
 72
     0
 73
     0
 74
     0
 75
     0
 76
     0
 77
     3
 78
     8
170
     0
171
     2
172
     1
173
     0
174
     0
175
     0
176
     3
177
     3
178
     2
270
     2
271
     3
272
     3
273
     2
274
     2
340
6B
275
     0
280
     0
281
     0
282
     0
283
     0
284
     0
285
     0
286
     0
287
     3
288
     0
  0
DIMSTYLE
105
5F
330
A
100
AcDbSymbolTableRecord
100
AcDbDimStyleTableRecord
  2
AM_JIS$3
 70
     0
  3

  4
"
  5
OPEN30
  6

  7

 40
0.3333333333333333
 41
2.5
 42
1.0
 43
10.0
 44
1.0
 45
0.0
 46
0.0
 47
0.1
 48
0.1
140
3.2
141
0.0
142
0.0
143
0.0393701
144
1.0
145
0.0
146
0.71
147
1.5
 71
     0
 72
     0
 73
     0
 74
     1
 75
     0
 76
     0
 77
     3
 78
     8
170
     0
171
     2
172
     0
173
     0
174
     0
175
     0
176
     3
177
     3
178
     2
270
     2
271
     2
272
     3
273
     2
274
     2
340
6B
275
     0
280
     0
281
     0
282
     0
283
     0
284
     0
285
     0
286
     0
287
     0
288
     1
  0
DIMSTYLE
105
60
330
A
100
AcDbSymbolTableRecord
100
AcDbDimStyleTableRecord
  2
AM_JIS$4
 70
     0
  3

  4
"
  5
OPEN30
  6

  7

 40
0.3333333333333333
 41
2.5
 42
1.0
 43
10.0
 44
1.0
 45
0.0
 46
0.0
 47
0.1
 48
0.1
140
3.2
141
0.0
142
0.0
143
0.0393701
144
1.0
145
0.0
146
0.71
147
1.5
 71
     0
 72
     0
 73
     0
 74
     1
 75
     0
 76
     0
 77
     3
 78
     8
170
     0
171
     2
172
     0
173
     0
174
     0
175
     0
176
     3
177
     3
178
     2
270
     2
271
     2
272
     3
273
     2
274
     2
340
6B
275
     0
280
     0
281
     0
282
     0
283
     0
284
     0
285
     0
286
     0
287
     0
288
     1
  0
DIMSTYLE
105
61
330
A
100
AcDbSymbolTableRecord
100
AcDbDimStyleTableRecord
  2
AM_JIS$6
 70
     0
  3

  4
"
  5
OPEN30
  6

  7

 40
0.3333333333333333
 41
2.5
 42
1.0
 43
10.0
 44
1.0
 45
0.0
 46
0.0
 47
0.1
 48
0.1
140
3.2
141
0.0
142
0.0
143
0.0393701
144
1.0
145
0.0
146
0.71
147
1.5
 71
     0
 72
     0
 73
     0
 74
     0
 75
     0
 76
     0
 77
     0
 78
     8
170
     0
171
     2
172
     1
173
     0
174
     0
175
     0
176
     3
177
     3
178
     2
270
     2
271
     2
272
     2
273
     2
274
     2
340
6B
275
     0
280
     0
281
     0
282
     0
283
     0
284
     0
285
     0
286
     0
287
     3
288
     0
  0
DIMSTYLE
105
62
330
A
100
AcDbSymbolTableRecord
100
AcDbDimStyleTableRecord
  2
AM_JIS$7
 70
     0
  3

  4
"
  5
OPEN30
  6

  7

 40
0.3333333333333333
 41
2.5
 42
1.0
 43
10.0
 44
1.0
 45
0.0
 46
0.0
 47
0.1
 48
0.1
140
3.2
141
0.0
142
0.0
143
0.0393701
144
1.0
145
0.0
146
0.71
147
1.5
 71
     0
 72
     0
 73
     0
 74
     0
 75
     0
 76
     0
 77
     3
 78
     8
170
     0
171
     2
172
     1
173
     0
174
     0
175
     0
176
     3
177
     3
178
     2
270
     2
271
     2
272
     3
273
     2
274
     2
340
6B
275
     0
280
     0
281
     0
282
     0
283
     0
284
     0
285
     0
286
     0
287
     3
288
     0
  0
DIMSTYLE
105
63
330
A
100
AcDbSymbolTableRecord
100
AcDbDimStyleTableRecord
  2
AM_JIS$SF
 70
     0
  3

  4
"
  5
OPEN30
  6

  7

 40
0.3333333333333333
 41
2.5
 42
1.0
 43
10.0
 44
1.0
 45
0.0
 46
0.0
 47
0.1
 48
0.1
140
3.2
141
0.0
142
0.0
143
0.0393701
144
1.0
145
0.0
146
0.71
147
1.5
 71
     0
 72
     0
 73
     0
 74
     0
 75
     1
 76
     1
 77
     3
 78
     8
170
     0
171
     2
172
     1
173
     0
174
     0
175
     0
176
   256
177
   256
178
     2
270
     2
271
     2
272
     2
273
     2
274
     2
340
6B
275
     0
280
     0
281
     0
282
     0
283
     0
284
     0
285
     0
286
     0
287
     3
288
     0
  0
DIMSTYLE
105
68
330
A
100
AcDbSymbolTableRecord
100
AcDbDimStyleTableRecord
  2
AM_JIS$SH
 70
     0
  3

  4
"
  5

  6
GENAXEH
  7
OPEN30
 40
0.3333333333333333
 41
2.5
 42
1.0
 43
10.0
 44
1.0
 45
0.0
 46
0.0
 47
0.1
 48
0.1
140
3.2
141
0.0
142
0.0
143
0.0393701
144
2.0
145
0.0
146
0.71
147
1.5
 71
     0
 72
     0
 73
     0
 74
     0
 75
     1
 76
     1
 77
     3
 78
     8
170
     0
171
     2
172
     1
173
     1
174
     0
175
     0
176
   256
177
   256
178
     2
270
     2
271
     2
272
     2
273
     2
274
     2
340
6B
275
     0
280
     0
281
     0
282
     0
283
     0
284
     0
285
     0
286
     0
287
     3
288
     0
  0
DIMSTYLE
105
B34
102
{ACAD_REACTORS
330
63DB
102
}
330
A
100
AcDbSymbolTableRecord
100
AcDbDimStyleTableRecord
  2
AM_JIS$2
 70
     0
  3

  4
"
  5
OPEN30
  6

  7

 40
0.3333333333333333
 41
2.5
 42
1.0
 43
12.0
 44
1.0
 45
0.0
 46
0.0
 47
0.1
 48
0.1
140
3.2
141
0.0
142
0.0
143
0.0393701
144
1.0
145
0.0
146
0.71
147
1.5
 71
     0
 72
     0
 73
     0
 74
     0
 75
     0
 76
     0
 77
     3
 78
     8
170
     0
171
     2
172
     1
173
     0
174
     0
175
     0
176
     3
177
     3
178
     2
270
     2
271
     3
272
     3
273
     2
274
     2
340
6B
275
     0
280
     0
281
     0
282
     0
283
     0
284
     0
285
     0
286
     0
287
     3
288
     0
  0
DIMSTYLE
105
62E5
330
A
100
AcDbSymbolTableRecord
100
AcDbDimStyleTableRecord
  2
ISO-25
 70
     0
  3

  4

  5

  6

  7

 40
1.0
 41
2.5
 42
0.625
 43
3.75
 44
1.25
 45
0.0
 46
0.0
 47
0.0
 48
0.0
140
2.5
141
2.5
142
0.0
143
0.03937007874016
144
1.0
145
0.0
146
1.0
147
0.625
 71
     0
 72
     0
 73
     0
 74
     0
 75
     0
 76
     0
 77
     1
 78
     8
170
     0
171
     3
172
     1
173
     0
174
     0
175
     0
176
     0
177
     0
178
     0
270
     2
271
     2
272
     2
273
     2
274
     3
340
11
275
     0
280
     0
281
     0
282
     0
283
     0
284
     8
285
     0
286
     0
287
     3
288
     0
  0
ENDTAB
  0
TABLE
  2
BLOCK_RECORD
  5
1
330
0
100
AcDbSymbolTable
 70
    11
  0
BLOCK_RECORD
  5
1F
102
{ACAD_XDICTIONARY
360
74
102
}
330
1
100
AcDbSymbolTableRecord
100
AcDbBlockTableRecord
  2
*MODEL_SPACE
  0
BLOCK_RECORD
  5
1B
102
{ACAD_XDICTIONARY
360
7057
102
}
330
1
100
AcDbSymbolTableRecord
100
AcDbBlockTableRecord
  2
*PAPER_SPACE
  0
BLOCK_RECORD
  5
59
330
1
100
AcDbSymbolTableRecord
100
AcDbBlockTableRecord
  2
_OPEN30
  0
BLOCK_RECORD
  5
64
330
1
100
AcDbSymbolTableRecord
100
AcDbBlockTableRecord
  2
GENAXEH
  0
BLOCK_RECORD
  5
6350
330
1
100
AcDbSymbolTableRecord
100
AcDbBlockTableRecord
  2
*D5
  0
BLOCK_RECORD
  5
63C2
330
1
100
AcDbSymbolTableRecord
100
AcDbBlockTableRecord
  2
*D6
  0
BLOCK_RECORD
  5
63DC
330
1
100
AcDbSymbolTableRecord
100
AcDbBlockTableRecord
  2
*D7
  0
BLOCK_RECORD
  5
640C
330
1
100
AcDbSymbolTableRecord
100
AcDbBlockTableRecord
  2
*D8
  0
BLOCK_RECORD
  5
6419
330
1
100
AcDbSymbolTableRecord
100
AcDbBlockTableRecord
  2
*D9
  0
BLOCK_RECORD
  5
7002
330
1
100
AcDbSymbolTableRecord
100
AcDbBlockTableRecord
  2
*D10
  0
ENDTAB
  0
ENDSEC
  0
SECTION
  2
BLOCKS
  0
BLOCK
  5
20
330
1F
100
AcDbEntity
  8
0
100
AcDbBlockBegin
  2
*MODEL_SPACE
 70
     0
 10
0.0
 20
0.0
 30
0.0
  3
*MODEL_SPACE
  1

  0
ENDBLK
  5
21
330
1F
100
AcDbEntity
  8
0
100
AcDbBlockEnd
  0
BLOCK
  5
1C
330
1B
100
AcDbEntity
 67
     1
  8
0
100
AcDbBlockBegin
  2
*PAPER_SPACE
 70
     0
 10
0.0
 20
0.0
 30
0.0
  3
*PAPER_SPACE
  1

  0
ENDBLK
  5
1D
330
1B
100
AcDbEntity
 67
     1
  8
0
100
AcDbBlockEnd
  0
BLOCK
  5
5D
330
59
100
AcDbEntity
  8
0
100
AcDbBlockBegin
  2
_OPEN30
 70
     0
 10
0.0
 20
0.0
 30
0.0
  3
_OPEN30
  1

  0
LINE
  5
5A
330
59
100
AcDbEntity
  8
0
 62
     0
100
AcDbLine
 10
-1.0
 20
0.26794919
 30
0.0
 11
0.0
 21
0.0
 31
0.0
  0
LINE
  5
5B
330
59
100
AcDbEntity
  8
0
 62
     0
100
AcDbLine
 10
0.0
 20
0.0
 30
0.0
 11
-1.0
 21
-0.26794919
 31
0.0
  0
LINE
  5
5C
330
59
100
AcDbEntity
  8
0
 62
     0
100
AcDbLine
 10
0.0
 20
0.0
 30
0.0
 11
-1.0
 21
0.0
 31
0.0
  0
ENDBLK
  5
5E
330
59
100
AcDbEntity
  8
0
100
AcDbBlockEnd
  0
BLOCK
  5
66
330
64
100
AcDbEntity
  8
0
100
AcDbBlockBegin
  2
GENAXEH
 70
     0
 10
0.0
 20
0.0
 30
0.0
  3
GENAXEH
  1

  0
LINE
  5
65
330
64
100
AcDbEntity
  8
0
100
AcDbLine
 10
-1.0
 20
0.0
 30
0.0
 11
1.0
 21
0.0
 31
0.0
  0
ENDBLK
  5
67
330
64
100
AcDbEntity
  8
0
100
AcDbBlockEnd
  0
BLOCK
  5
635A
330
6350
100
AcDbEntity
  8
0
100
AcDbBlockBegin
  2
*D5
 70
     1
 10
0.0
 20
0.0
 30
0.0
  3
*D5
  1

  0
LINE
  5
6FD1
330
6350
100
AcDbEntity
  8
AM_5
 62
     3
100
AcDbLine
 10
-42.03333333333513
 20
-0.9999999999999985
 30
0.0
 11
-46.28997664996066
 21
-0.9999999999999975
 31
0.0
  0
LINE
  5
6FD2
330
6350
100
AcDbEntity
  8
AM_5
 62
     3
100
AcDbLine
 10
-42.03333333333513
 20
1.000000000000001
 30
0.0
 11
-46.28997664996066
 21
1.000000000000002
 31
0.0
  0
LINE
  5
6FD3
330
6350
100
AcDbEntity
  8
AM_5
 62
     3
100
AcDbLine
 10
-45.95664331662732
 20
-1.83333333333333
 30
0.0
 11
-45.95664331662732
 21
-2.666666666666663
 31
0.0
  0
LINE
  5
6FD4
330
6350
100
AcDbEntity
  8
AM_5
 62
     3
100
AcDbLine
 10
-45.95664331662732
 20
1.833333333333335
 30
0.0
 11
-45.95664331662732
 21
2.666666666666669
 31
0.0
  0
LINE
  5
6FD5
330
6350
100
AcDbEntity
  8
AM_5
 62
     3
100
AcDbLine
 10
-45.95664331662732
 20
-0.9999999999999975
 30
0.0
 11
-45.95664331662732
 21
1.000000000000002
 31
0.0
  0
INSERT
  5
6FD6
330
6350
100
AcDbEntity
  8
AM_5
 62
     3
100
AcDbBlockReference
  2
_OPEN30
 10
-45.95664331662732
 20
-0.9999999999999975
 30
0.0
 41
0.8333333333333332
 42
0.8333333333333332
 43
0.8333333333333332
 50
90.0
  0
INSERT
  5
6FD7
330
6350
100
AcDbEntity
  8
AM_5
 62
     3
100
AcDbBlockReference
  2
_OPEN30
 10
-45.95664331662732
 20
1.000000000000002
 30
0.0
 41
0.8333333333333332
 42
0.8333333333333332
 43
0.8333333333333332
 50
270.0
  0
MTEXT
  5
6FD8
330
6350
100
AcDbEntity
  8
AM_5
 62
     2
100
AcDbMText
 10
-46.98997664996065
 20
-0.0000000000000048
 30
0.0
 40
1.066666666666666
 41
0.0
 71
     5
 72
     1
  1
%%C2.0
  7
ASAMI
 11
0.0000000000000001
 21
1.0
 31
0.0
1001
ACAD
1000
MTEXTBEGIN
1070
    73
1070
     1
1070
    44
1040
1.0
1070
    74
1070
     0
1000
MTEXTEND
  0
POINT
  5
6FD9
330
6350
100
AcDbEntity
  8
DEFPOINTS
 62
     0
100
AcDbPoint
 10
-41.7000000000018
 20
-0.9999999999999987
 30
0.0
  0
POINT
  5
6FDA
330
6350
100
AcDbEntity
  8
DEFPOINTS
 62
     0
100
AcDbPoint
 10
-41.7000000000018
 20
1.000000000000001
 30
0.0
  0
POINT
  5
6FDB
330
6350
100
AcDbEntity
  8
DEFPOINTS
 62
     0
100
AcDbPoint
 10
-45.95664331662732
 20
1.000000000000002
 30
0.0
  0
ENDBLK
  5
635B
330
6350
100
AcDbEntity
  8
0
100
AcDbBlockEnd
  0
BLOCK
  5
63CE
330
63C2
100
AcDbEntity
  8
0
100
AcDbBlockBegin
  2
*D6
 70
     1
 10
0.0
 20
0.0
 30
0.0
  3
*D6
  1

  0
LINE
  5
6FDC
330
63C2
100
AcDbEntity
  8
AM_5
 62
     3
100
AcDbLine
 10
0.0730929640237829
 20
-0.7000000000018105
 30
0.0
 11
5.949745679885103
 21
-0.7000000000018122
 31
0.0
  0
LINE
  5
6FDD
330
63C2
100
AcDbEntity
  8
AM_5
 62
     3
100
AcDbLine
 10
0.078358190268894
 20
0.6998599852797667
 30
0.0
 11
5.949745679885103
 21
0.699859985279765
 31
0.0
  0
LINE
  5
6FDE
330
63C2
100
AcDbEntity
  8
AM_5
 62
     3
100
AcDbLine
 10
5.61641234655177
 20
-1.533333333335145
 30
0.0
 11
5.616412346551769
 21
-2.366666666668478
 31
0.0
  0
LINE
  5
6FDF
330
63C2
100
AcDbEntity
  8
AM_5
 62
     3
100
AcDbLine
 10
5.61641234655177
 20
1.533193318613098
 30
0.0
 11
5.616412346551772
 21
7.379225064644844
 31
0.0
  0
LINE
  5
6FE0
330
63C2
100
AcDbEntity
  8
AM_5
 62
     3
100
AcDbLine
 10
5.61641234655177
 20
-0.7000000000018121
 30
0.0
 11
5.61641234655177
 21
0.6998599852797652
 31
0.0
  0
INSERT
  5
6FE1
330
63C2
100
AcDbEntity
  8
AM_5
 62
     3
100
AcDbBlockReference
  2
_OPEN30
 10
5.61641234655177
 20
-0.7000000000018121
 30
0.0
 41
0.8333333333333332
 42
0.8333333333333332
 43
0.8333333333333332
 50
90.0
  0
INSERT
  5
6FE2
330
63C2
100
AcDbEntity
  8
AM_5
 62
     3
100
AcDbBlockReference
  2
_OPEN30
 10
5.61641234655177
 20
0.6998599852797652
 30
0.0
 41
0.8333333333333332
 42
0.8333333333333332
 43
0.8333333333333332
 50
270.0
  0
MTEXT
  5
6FE3
330
63C2
100
AcDbEntity
  8
AM_5
 62
     2
100
AcDbMText
 10
4.583079013218437
 20
5.355415540835321
 30
0.0
 40
1.066666666666666
 41
0.0
 71
     5
 72
     1
  1
%%C1.4
  7
ASAMI
 11
0.0000000000000001
 21
1.0
 31
0.0
1001
ACAD
1000
MTEXTBEGIN
1070
    73
1070
     1
1070
    44
1040
1.0
1070
    74
1070
     0
1000
MTEXTEND
  0
POINT
  5
6FE4
330
63C2
100
AcDbEntity
  8
DEFPOINTS
 62
     0
100
AcDbPoint
 10
-0.2602403693095504
 20
-0.7000000000018104
 30
0.0
  0
POINT
  5
6FE5
330
63C2
100
AcDbEntity
  8
DEFPOINTS
 62
     0
100
AcDbPoint
 10
-0.2549751430644394
 20
0.6998599852797668
 30
0.0
  0
POINT
  5
6FE6
330
63C2
100
AcDbEntity
  8
DEFPOINTS
 62
     0
100
AcDbPoint
 10
5.61641234655177
 20
0.6998599852797652
 30
0.0
  0
ENDBLK
  5
63CF
330
63C2
100
AcDbEntity
  8
0
100
AcDbBlockEnd
  0
BLOCK
  5
63E8
330
63DC
100
AcDbEntity
  8
0
100
AcDbBlockBegin
  2
*D7
 70
     1
 10
0.0
 20
0.0
 30
0.0
  3
*D7
  1

  0
LINE
  5
7060
330
63DC
100
AcDbEntity
  8
AM_0
 62
     3
100
AcDbLine
 10
0.1140067144401308
 20
-0.3132308735952885
 30
0.0
 11
3.967740164655127
 21
-10.90127650865382
 31
0.0
  0
LINE
  5
7061
330
63DC
100
AcDbEntity
  8
AM_0
 62
     3
100
AcDbLine
 10
0.1140067144401309
 20
0.3132308735952885
 30
0.0
 11
3.96774016465513
 21
10.90127650865382
 31
0.0
  0
ARC
  5
7062
330
63DC
100
AcDbEntity
  8
AM_0
 62
     3
100
AcDbCircle
 10
-0.0000000000017979
 20
0.0
 30
0.0
 40
11.26756281879041
100
AcDbArc
 50
294.2384828353137
 51
65.76151716468624
  0
INSERT
  5
7063
330
63DC
100
AcDbEntity
  8
AM_0
 62
     3
100
AcDbBlockReference
  2
_OPEN30
 10
3.853733450213198
 20
-10.58804563505854
 30
0.0
 41
0.8333333333333332
 42
0.8333333333333332
 43
0.8333333333333332
 50
202.1192414176605
  0
INSERT
  5
7064
330
63DC
100
AcDbEntity
  8
AM_0
 62
     3
100
AcDbBlockReference
  2
_OPEN30
 10
3.853733450213202
 20
10.58804563505854
 30
0.0
 41
0.8333333333333332
 42
0.8333333333333332
 43
0.8333333333333332
 50
157.8807585823395
  0
MTEXT
  5
7065
330
63DC
100
AcDbEntity
  8
AM_0
 62
     2
100
AcDbMText
 10
10.23422948545528
 20
-0.0000000000000026
 30
0.0
 40
1.066666666666666
 41
0.0
 71
     5
 72
     1
  1
140°
  7
ASAMI
 11
0.0000000000000001
 21
1.0
 31
0.0
  0
POINT
  5
7066
330
63DC
100
AcDbEntity
  8
DEFPOINTS
 62
     0
100
AcDbPoint
 10
10.34605766549704
 20
-4.46285364509758
 30
0.0
  0
POINT
  5
7067
330
63DC
100
AcDbEntity
  8
DEFPOINTS
 62
     0
100
AcDbPoint
 10
-0.0000000000017979
 20
0.0
 30
0.0
  0
POINT
  5
7068
330
63DC
100
AcDbEntity
  8
DEFPOINTS
 62
     0
100
AcDbPoint
 10
-0.1819851171349699
 20
-0.5
 30
0.0
  0
POINT
  5
7069
330
63DC
100
AcDbEntity
  8
DEFPOINTS
 62
     0
100
AcDbPoint
 10
-0.0000000000017979
 20
0.0
 30
0.0
  0
POINT
  5
706A
330
63DC
100
AcDbEntity
  8
DEFPOINTS
 62
     0
100
AcDbPoint
 10
-0.1819851171349699
 20
0.5
 30
0.0
  0
ENDBLK
  5
63E9
330
63DC
100
AcDbEntity
  8
0
100
AcDbBlockEnd
  0
BLOCK
  5
6416
330
640C
100
AcDbEntity
  8
0
100
AcDbBlockBegin
  2
*D8
 70
     1
 10
0.0
 20
0.0
 30
0.0
  3
*D8
  1

  0
LINE
  5
6FF8
330
640C
100
AcDbEntity
  8
AM_5
 62
     3
100
AcDbLine
 10
-0.0000000000021122
 20
-0.3333333333333333
 30
0.0
 11
-0.0000000000021125
 21
-5.192245873080357
 31
0.0
  0
LINE
  5
6FF9
330
640C
100
AcDbEntity
  8
AM_5
 62
     3
100
AcDbLine
 10
-11.00000000000179
 20
0.3290696475014652
 30
0.0
 11
-11.00000000000179
 21
-5.192245873080357
 31
0.0
  0
LINE
  5
6FFA
330
640C
100
AcDbEntity
  8
AM_5
 62
     3
100
AcDbLine
 10
-0.8333333333354458
 20
-4.858912539747024
 30
0.0
 11
-10.16666666666846
 21
-4.858912539747024
 31
0.0
  0
INSERT
  5
6FFB
330
640C
100
AcDbEntity
  8
AM_5
 62
     3
100
AcDbBlockReference
  2
_OPEN30
 10
-0.0000000000021125
 20
-4.858912539747024
 30
0.0
 41
0.8333333333333332
 42
0.8333333333333332
 43
0.8333333333333332
  0
INSERT
  5
6FFC
330
640C
100
AcDbEntity
  8
AM_5
 62
     3
100
AcDbBlockReference
  2
_OPEN30
 10
-11.00000000000179
 20
-4.858912539747024
 30
0.0
 41
0.8333333333333332
 42
0.8333333333333332
 43
0.8333333333333332
 50
180.0
  0
MTEXT
  5
6FFD
330
640C
100
AcDbEntity
  8
AM_5
 62
     2
100
AcDbMText
 10
-5.500000000001954
 20
-3.82557920641369
 30
0.0
 40
1.066666666666666
 41
0.0
 71
     5
 72
     1
  1
11
  7
ASAMI
1001
ACAD
1000
MTEXTBEGIN
1070
    73
1070
     1
1070
    44
1040
1.0
1070
    74
1070
     0
1000
MTEXTEND
  0
POINT
  5
6FFE
330
640C
100
AcDbEntity
  8
DEFPOINTS
 62
     0
100
AcDbPoint
 10
-0.0000000000021122
 20
0.0
 30
0.0
  0
POINT
  5
6FFF
330
640C
100
AcDbEntity
  8
DEFPOINTS
 62
     0
100
AcDbPoint
 10
-11.00000000000179
 20
0.6624029808347986
 30
0.0
  0
POINT
  5
7000
330
640C
100
AcDbEntity
  8
DEFPOINTS
 62
     0
100
AcDbPoint
 10
-11.00000000000179
 20
-4.858912539747024
 30
0.0
  0
ENDBLK
  5
6417
330
640C
100
AcDbEntity
  8
0
100
AcDbBlockEnd
  0
BLOCK
  5
6423
330
6419
100
AcDbEntity
  8
0
100
AcDbBlockBegin
  2
*D9
 70
     1
 10
0.0
 20
0.0
 30
0.0
  3
*D9
  1

  0
LINE
  5
6FAC
330
6419
100
AcDbEntity
  8
AM_5
 62
     3
100
AcDbLine
 10
-0.0000000000017979
 20
-0.8333333333334213
 30
0.0
 11
-0.0000000000017985
 21
-10.60924448455766
 31
0.0
  0
LINE
  5
6FAD
330
6419
100
AcDbEntity
  8
AM_5
 62
     3
100
AcDbLine
 10
-42.00000000000179
 20
-1.033333333333331
 30
0.0
 11
-42.00000000000179
 21
-10.60924448455766
 31
0.0
  0
LINE
  5
6FAE
330
6419
100
AcDbEntity
  8
AM_5
 62
     3
100
AcDbLine
 10
-0.8333333333351317
 20
-10.27591115122432
 30
0.0
 11
-41.16666666666846
 21
-10.27591115122432
 31
0.0
  0
INSERT
  5
6FAF
330
6419
100
AcDbEntity
  8
AM_5
 62
     3
100
AcDbBlockReference
  2
_OPEN30
 10
-0.0000000000017985
 20
-10.27591115122432
 30
0.0
 41
0.8333333333333332
 42
0.8333333333333332
 43
0.8333333333333332
  0
INSERT
  5
6FB0
330
6419
100
AcDbEntity
  8
AM_5
 62
     3
100
AcDbBlockReference
  2
_OPEN30
 10
-42.00000000000179
 20
-10.27591115122432
 30
0.0
 41
0.8333333333333332
 42
0.8333333333333332
 43
0.8333333333333332
 50
180.0
  0
MTEXT
  5
6FB1
330
6419
100
AcDbEntity
  8
AM_5
 62
     2
100
AcDbMText
 10
-21.00000000000179
 20
-9.242577817890992
 30
0.0
 40
1.066666666666666
 41
0.0
 71
     5
 72
     1
  1
42
  7
ASAMI
1001
ACAD
1000
MTEXTBEGIN
1070
    73
1070
     1
1070
    44
1040
1.0
1070
    74
1070
     0
1000
MTEXTEND
  0
POINT
  5
6FB2
330
6419
100
AcDbEntity
  8
DEFPOINTS
 62
     0
100
AcDbPoint
 10
-0.0000000000017979
 20
-0.5000000000000881
 30
0.0
  0
POINT
  5
6FB3
330
6419
100
AcDbEntity
  8
DEFPOINTS
 62
     0
100
AcDbPoint
 10
-42.00000000000179
 20
-0.6999999999999986
 30
0.0
  0
POINT
  5
6FB4
330
6419
100
AcDbEntity
  8
DEFPOINTS
 62
     0
100
AcDbPoint
 10
-42.00000000000179
 20
-10.27591115122432
 30
0.0
  0
ENDBLK
  5
6424
330
6419
100
AcDbEntity
  8
0
100
AcDbBlockEnd
  0
BLOCK
  5
700C
330
7002
100
AcDbEntity
  8
0
100
AcDbBlockBegin
  2
*D10
 70
     1
 10
0.0
 20
0.0
 30
0.0
  3
*D10
  1

  0
LINE
  5
700E
330
7002
100
AcDbEntity
  8
AM_5
 62
     3
100
AcDbLine
 10
-12.00000000000179
 20
-1.333333333333331
 30
0.0
 11
-12.00000000000179
 21
-8.111570659714706
 31
0.0
  0
LINE
  5
700F
330
7002
100
AcDbEntity
  8
AM_5
 62
     3
100
AcDbLine
 10
-0.0000000000021123
 20
-1.333333333333332
 30
0.0
 11
-0.0000000000021127
 21
-8.111570659714704
 31
0.0
  0
LINE
  5
7010
330
7002
100
AcDbEntity
  8
AM_5
 62
     3
100
AcDbLine
 10
-11.16666666666846
 20
-7.778237326381372
 30
0.0
 11
-0.8333333333354458
 21
-7.778237326381372
 31
0.0
  0
INSERT
  5
7011
330
7002
100
AcDbEntity
  8
AM_5
 62
     3
100
AcDbBlockReference
  2
_OPEN30
 10
-12.00000000000179
 20
-7.778237326381372
 30
0.0
 41
0.8333333333333332
 42
0.8333333333333332
 43
0.8333333333333332
 50
180.0
  0
INSERT
  5
7012
330
7002
100
AcDbEntity
  8
AM_5
 62
     3
100
AcDbBlockReference
  2
_OPEN30
 10
-0.0000000000021127
 20
-7.778237326381372
 30
0.0
 41
0.8333333333333332
 42
0.8333333333333332
 43
0.8333333333333332
  0
MTEXT
  5
7013
330
7002
100
AcDbEntity
  8
AM_5
 62
     2
100
AcDbMText
 10
-6.000000000001954
 20
-6.744903993048039
 30
0.0
 40
1.066666666666666
 41
0.0
 71
     5
 72
     1
  1
12
  7
ASAMI
1001
ACAD
1000
MTEXTBEGIN
1070
    73
1070
     1
1070
    44
1040
1.0
1070
    74
1070
     0
1000
MTEXTEND
  0
POINT
  5
7014
330
7002
100
AcDbEntity
  8
DEFPOINTS
 62
     0
100
AcDbPoint
 10
-12.00000000000179
 20
-0.9999999999999985
 30
0.0
  0
POINT
  5
7015
330
7002
100
AcDbEntity
  8
DEFPOINTS
 62
     0
100
AcDbPoint
 10
-0.0000000000021123
 20
-0.9999999999999996
 30
0.0
  0
POINT
  5
7016
330
7002
100
AcDbEntity
  8
DEFPOINTS
 62
     0
100
AcDbPoint
 10
-0.0000000000021127
 20
-7.778237326381372
 30
0.0
  0
ENDBLK
  5
700D
330
7002
100
AcDbEntity
  8
0
100
AcDbBlockEnd
  0
ENDSEC
  0
SECTION
  2
ENTITIES
  0
TEXT
  5
C58
330
1F
100
AcDbEntity
  8
AM_6
100
AcDbText
 10
-27.15079365079544
 20
-17.77594448455768
 30
0.0
 40
1.666666666666666
  1
MDS014SK
 50
0.0000000000002036
 72
     4
 11
-21.00000000000179
 21
-16.94261115122432
 31
0.0
100
AcDbText
  0
LINE
  5
631C
330
1F
100
AcDbEntity
  8
AM_0
100
AcDbLine
 10
-12.00000000000179
 20
-0.9999999999999985
 30
0.0
 11
-41.7000000000018
 21
-0.9999999999999985
 31
0.0
  0
LINE
  5
631D
330
1F
100
AcDbEntity
  8
AM_0
100
AcDbLine
 10
-12.00000000000179
 20
1.000000000000001
 30
0.0
 11
-41.70000000000181
 21
1.000000000000001
 31
0.0
  0
LINE
  5
6320
330
1F
100
AcDbEntity
  8
AM_7
100
AcDbLine
 10
-42.53333082217728
 20
0.0000000000000076
 30
0.0
 11
0.2999999999981282
 21
0.0
 31
0.0
1001
GENIUS_GENODEF_13
1002
{
1000
HIER
1070
     0
1002
}
1002
{
1000
MANEDIT
1070
     0
1002
}
1002
{
1000
NOSEL
1070
     0
1002
}
1002
{
1000
BEHIND
1070
     0
1002
}
1002
{
1000
REACTOR
1002
}
1001
GENIUS_GENOBJ-N-CEN_13
1002
{
1000
OWNER
1000
GEN
1002
}
  0
LINE
  5
6343
330
1F
100
AcDbEntity
  8
AM_0
100
AcDbLine
 10
-42.00000000000179
 20
-0.6999999999999986
 30
0.0
 11
-42.00000000000179
 21
0.7000000000000015
 31
0.0
  0
LINE
  5
6348
330
1F
100
AcDbEntity
  8
AM_0
100
AcDbLine
 10
-42.00000000000179
 20
0.6710216682309625
 30
0.0
 11
-42.0000000000018
 21
0.7000000000000015
 31
0.0
  0
LINE
  5
6349
330
1F
100
AcDbEntity
  8
AM_0
100
AcDbLine
 10
-42.00000000000179
 20
0.6216980985741135
 30
0.0
 11
-42.00000000000179
 21
0.6710216682309625
 31
0.0
  0
LINE
  5
634B
330
1F
100
AcDbEntity
  8
AM_0
100
AcDbLine
 10
-42.00000000000179
 20
-0.6999999999999986
 30
0.0
 11
-42.00000000000179
 21
-0.6710216682221539
 31
0.0
  0
LINE
  5
634C
330
1F
100
AcDbEntity
  8
AM_0
100
AcDbLine
 10
-42.00000000000179
 20
-0.6710216682221539
 30
0.0
 11
-42.00000000000179
 21
-0.6216980985978762
 31
0.0
  0
DIMENSION
  5
634F
330
1F
100
AcDbEntity
  8
AM_5
100
AcDbDimension
  2
*D5
 10
-45.95664331662732
 20
1.000000000000002
 30
0.0
 11
-45.95664331662732
 21
-0.0000000000000049
 31
0.0
 70
   160
  1
%%C<>
  3
AM_JIS
100
AcDbAlignedDimension
 13
-41.7000000000018
 23
-0.9999999999999985
 33
0.0
 14
-41.7000000000018
 24
1.000000000000001
 34
0.0
 50
90.0
100
AcDbRotatedDimension
1001
ACAD
1000
DSTYLE
1002
{
1070
    78
1070
     0
1070
   271
1070
     1
1002
}
  0
LINE
  5
638E
330
1F
100
AcDbEntity
  8
AM_0
100
AcDbLine
 10
-41.7000000000018
 20
1.000000000000001
 30
0.0
 11
-41.7000000000018
 21
-0.9999999999999985
 31
0.0
  0
DIMENSION
  5
63C1
330
1F
100
AcDbEntity
  8
AM_5
100
AcDbDimension
  2
*D6
 10
5.61641234655177
 20
0.6998599852797652
 30
0.0
 11
5.61641234655177
 21
5.355415540835321
 31
0.0
 70
   160
  1
%%C<>
  3
AM_JIS
100
AcDbAlignedDimension
 13
-0.2602403693095504
 23
-0.7000000000018104
 33
0.0
 14
-0.2549751430644394
 24
0.6998599852797668
 34
0.0
 50
90.0
100
AcDbRotatedDimension
1001
ACAD
1000
DSTYLE
1002
{
1070
    78
1070
     0
1070
   271
1070
     1
1002
}
  0
DIMENSION
  5
63DB
330
1F
100
AcDbEntity
  8
AM_0
100
AcDbDimension
  2
*D7
 10
-0.1819851171349699
 20
0.5
 30
0.0
 11
10.23422948545528
 21
-0.0000000000000043
 31
0.0
 70
    34
  3
AM_JIS$2
100
AcDb2LineAngularDimension
 13
-0.1819851171349699
 23
-0.5
 33
0.0
 14
-0.0000000000017979
 24
0.0
 34
0.0
 15
-0.0000000000017979
 25
0.0
 35
0.0
 16
10.34605766549704
 26
-4.46285364509758
 36
0.0
1001
ACAD
1000
DSTYLE
1002
{
1070
   271
1070
     0
1002
}
  0
DIMENSION
  5
640B
330
1F
100
AcDbEntity
  8
AM_5
100
AcDbDimension
  2
*D8
 10
-11.00000000000179
 20
-4.858912539747024
 30
0.0
 11
-5.500000000001954
 21
-3.82557920641369
 31
0.0
 70
    32
  3
AM_JIS
100
AcDbAlignedDimension
 13
-0.0000000000021122
 23
0.0
 33
0.0
 14
-11.00000000000179
 24
0.6624029808347986
 34
0.0
100
AcDbRotatedDimension
  0
DIMENSION
  5
6418
330
1F
100
AcDbEntity
  8
AM_5
100
AcDbDimension
  2
*D9
 10
-42.00000000000179
 20
-10.27591115122432
 30
0.0
 11
-21.00000000000179
 21
-9.242577817890992
 31
0.0
 70
    32
  3
AM_JIS
100
AcDbAlignedDimension
 13
-0.0000000000017979
 23
-0.5000000000000881
 33
0.0
 14
-42.00000000000179
 24
-0.6999999999999986
 34
0.0
100
AcDbRotatedDimension
  0
LINE
  5
66ED
330
1F
100
AcDbEntity
  8
AM_0
100
AcDbLine
 10
-11.70000000000361
 20
-0.7000000000018104
 30
0.0
 11
-11.70000000000361
 21
0.7000000000018117
 31
0.0
  0
LINE
  5
6AED
330
1F
100
AcDbEntity
  8
AM_0
100
AcDbLine
 10
-0.0000000000006069
 20
-0.0000000000016712
 30
0.0
 11
-0.2547281941564925
 21
0.6998599615398132
 31
0.0
  0
LINE
  5
6AF1
330
1F
100
AcDbEntity
  8
AM_0
100
AcDbLine
 10
-0.2797890063572894
 20
-0.0548765104271026
 30
0.0
 11
-0.0000000000006987
 21
-0.0000000000016712
 31
0.0
  0
LINE
  5
6AF2
330
1F
100
AcDbEntity
  8
AM_0
100
AcDbLine
 10
-0.0000000000006987
 20
-0.0000000000016712
 30
0.0
 11
-0.1499720764470076
 21
0.1122034378754244
 31
0.0
  0
LINE
  5
6AF3
330
1F
100
AcDbEntity
  8
AM_0
100
AcDbLine
 10
-0.1499720764470076
 20
0.1122034378754244
 30
0.0
 11
-0.040838711570219
 21
0.1122034378754244
 31
0.0
  0
LINE
  5
6AF4
330
1F
100
AcDbEntity
  8
AM_0
100
AcDbLine
 10
-0.2547791639870953
 20
-0.7000000000018103
 30
0.0
 11
-0.0000000000006069
 21
-0.0000000000016712
 31
0.0
  0
LINE
  5
6BFA
330
1F
100
AcDbEntity
  8
AM_0
100
AcDbLine
 10
-41.70000000000181
 20
1.000000000000001
 30
0.0
 11
-42.0000000000018
 21
0.7000000000000015
 31
0.0
1001
GENIUS_GENFIL_13
1070
     0
1040
0.3
1040
0.3
1040
20.0
1040
0.0
1002
{
1002
}
1001
GENIUS_GENODEF_13
1002
{
1000
HIER
1070
     0
1002
}
1002
{
1000
MANEDIT
1070
     0
1002
}
1002
{
1000
NOSEL
1070
     0
1002
}
1002
{
1000
BEHIND
1070
     0
1002
}
1002
{
1000
REACTOR
1002
}
1001
GENIUS_GENOBJ-N-CHA_13
1002
{
1000
OWNER
1000
GEN
1002
}
  0
LINE
  5
6BFD
330
1F
100
AcDbEntity
  8
AM_0
100
AcDbLine
 10
-41.7000000000018
 20
-0.9999999999999985
 30
0.0
 11
-42.00000000000179
 21
-0.6999999999999986
 31
0.0
1001
GENIUS_GENFIL_13
1070
     0
1040
0.3
1040
0.3
1040
20.0
1040
0.0
1002
{
1002
}
1001
GENIUS_GENODEF_13
1002
{
1000
HIER
1070
     0
1002
}
1002
{
1000
MANEDIT
1070
     0
1002
}
1002
{
1000
NOSEL
1070
     0
1002
}
1002
{
1000
BEHIND
1070
     0
1002
}
1002
{
1000
REACTOR
1002
}
1001
GENIUS_GENOBJ-N-CHA_13
1002
{
1000
OWNER
1000
GEN
1002
}
  0
LINE
  5
6C10
330
1F
100
AcDbEntity
  8
AM_0
100
AcDbLine
 10
-8.735642549468192
 20
0.6999999999981893
 30
0.0
 11
-11.69999999999998
 21
0.6999999999981893
 31
0.0
  0
LINE
  5
6C11
330
1F
100
AcDbEntity
  8
AM_0
100
AcDbLine
 10
-8.923399875550382
 20
-0.7000000000018104
 30
0.0
 11
-11.70000000000361
 21
-0.7000000000018104
 31
0.0
  0
LINE
  5
6C13
330
1F
100
AcDbEntity
  8
AM_0
100
AcDbLine
 10
-11.69999999999998
 20
0.6999999999981894
 30
0.0
 11
-12.00000000000179
 21
1.000000000000001
 31
0.0
  0
LINE
  5
6C14
330
1F
100
AcDbEntity
  8
AM_0
100
AcDbLine
 10
-12.00000000000179
 20
1.000000000000001
 30
0.0
 11
-12.00000000000179
 21
-0.9999999999999985
 31
0.0
  0
SPLINE
  5
6F49
330
1F
100
AcDbEntity
  8
AM_0
100
AcDbSpline
210
0.0
220
0.0
230
1.0
 70
     8
 71
     3
 72
     8
 73
     4
 74
     0
 42
0.0000000001
 43
0.0000000001
 40
0.0
 40
0.0
 40
0.0
 40
0.0
 40
6.247244990626095
 40
6.247244990626095
 40
6.247244990626095
 40
6.247244990626095
 10
-0.2547281942048567
 20
0.6998594476575725
 30
0.0
 10
-0.4911428820630338
 20
0.6999999999981893
 30
0.0
 10
-0.742826651192153
 20
0.6349408244861024
 30
0.0
 10
-0.9885880749307029
 20
0.5328722115642222
 30
0.0
  0
SPLINE
  5
6F4A
330
1F
100
AcDbEntity
  8
AM_0
100
AcDbSpline
210
0.0
220
0.0
230
1.0
 70
     8
 71
     3
 72
     9
 73
     5
 74
     0
 42
0.0000000001
 43
0.0000000001
 40
0.0
 40
0.0
 40
0.0
 40
0.0
 40
0.1987770877846628
 40
5.759128114460802
 40
5.759128114460802
 40
5.759128114460802
 40
5.759128114460802
 10
-0.228027175280655
 20
0.626499515102046
 30
0.0
 10
-0.228027175280655
 20
0.626499515102046
 30
0.0
 10
-0.454109470065842
 20
0.6244034117892526
 30
0.0
 10
-0.6886807030250823
 20
0.5752940893927914
 30
0.0
 10
-0.9110695783080137
 20
0.4993971451896811
 30
0.0
  0
LINE
  5
6F4B
330
1F
100
AcDbEntity
  8
AM_0
100
AcDbLine
 10
-0.2547791639870953
 20
-0.7000000000018103
 30
0.0
 11
-0.2797890063572894
 21
-0.0548765104271026
 31
0.0
  0
LINE
  5
6F4C
330
1F
100
AcDbEntity
  8
AM_0
100
AcDbLine
 10
-0.2797890063572894
 20
-0.0548765104271027
 30
0.0
 11
-0.564457117394467
 21
0.3224891340979581
 31
0.0
  0
SPLINE
  5
6F4D
330
1F
100
AcDbEntity
  8
AM_0
100
AcDbSpline
210
0.0
220
0.0
230
1.0
 70
     8
 71
     3
 72
     9
 73
     5
 74
     0
 42
0.0000000001
 43
0.0000000001
 40
0.0
 40
0.0
 40
0.0
 40
0.0
 40
0.0353107615743204
 40
0.4098003053212364
 40
0.4098003053212364
 40
0.4098003053212364
 40
0.4098003053212364
 10
-0.1499720764470076
 20
0.1122034378754244
 30
0.0
 10
-0.149558883183835
 20
0.1038485549666348
 30
0.0
 10
-0.1397075510224255
 20
-0.1016294212010536
 30
0.0
 10
-0.4634674588472355
 20
0.1886138382343332
 30
0.0
 10
-0.564457117394467
 20
0.3224891340979581
 30
0.0
  0
SPLINE
  5
6F4E
330
1F
100
AcDbEntity
  8
AM_0
100
AcDbSpline
210
0.0
220
0.0
230
1.0
 70
     8
 71
     3
 72
     8
 73
     4
 74
     0
 42
0.0000000001
 43
0.0000000001
 40
0.0
 40
0.0
 40
0.0
 40
0.0
 40
6.870645942600294
 40
6.870645942600294
 40
6.870645942600294
 40
6.870645942600294
 10
-3.652465702477793
 20
0.6235410215699388
 30
0.0
 10
-3.364218539205128
 20
0.6245703757857283
 30
0.0
 10
-3.074874289022136
 20
0.5752446521890362
 30
0.0
 10
-2.792597062064494
 20
0.4890736031788293
 30
0.0
  0
LINE
  5
6F4F
330
1F
100
AcDbEntity
  8
AM_0
100
AcDbLine
 10
-1.748127973574091
 20
0.6999999999981893
 30
0.0
 11
-3.652465702477604
 21
0.6999999999981893
 31
0.0
  0
LINE
  5
6F50
330
1F
100
AcDbEntity
  8
AM_11
 48
0.1
100
AcDbLine
 10
-3.652465702477788
 20
0.6999999999981893
 30
0.0
 11
-5.171545499764696
 21
0.6999999999981893
 31
0.0
  0
SPLINE
  5
6F51
330
1F
100
AcDbEntity
  8
AM_0
100
AcDbSpline
210
0.0
220
0.0
230
1.0
 70
     8
 71
     3
 72
     8
 73
     4
 74
     0
 42
0.0000000001
 43
0.0000000001
 40
0.0
 40
0.0
 40
0.0
 40
0.0
 40
6.247244990625308
 40
6.247244990625308
 40
6.247244990625308
 40
6.247244990625308
 10
-3.652465702477793
 20
0.6999999999981893
 30
0.0
 10
-3.91456040825369
 20
0.6999999999981893
 30
0.0
 10
-4.166244177382774
 20
0.6349408244861224
 30
0.0
 10
-4.412005601121292
 20
0.532872211564272
 30
0.0
  0
SPLINE
  5
6F52
330
1F
100
AcDbEntity
  8
AM_0
100
AcDbSpline
210
0.0
220
0.0
230
1.0
 70
     8
 71
     3
 72
     9
 73
     5
 74
     0
 42
0.0000000001
 43
0.0000000001
 40
0.0
 40
0.0
 40
0.0
 40
0.0
 40
0.1987770877846628
 40
5.759128114445015
 40
5.759128114445015
 40
5.759128114445015
 40
5.759128114445015
 10
-3.627447431663412
 20
0.6235410215690336
 30
0.0
 10
-3.635786855267913
 20
0.6235410215690336
 30
0.0
 10
-3.877526996254982
 20
0.6244034117874519
 30
0.0
 10
-4.112098229213601
 20
0.5752940893912694
 30
0.0
 10
-4.334487104495933
 20
0.4993971451885272
 30
0.0
  0
LINE
  5
6F53
330
1F
100
AcDbEntity
  8
AM_0
100
AcDbLine
 10
-1.748127973574091
 20
-0.7000000000018104
 30
0.0
 11
-3.652465702477604
 21
-0.7000000000018104
 31
0.0
  0
SPLINE
  5
6F54
330
1F
100
AcDbEntity
  8
AM_0
100
AcDbSpline
210
0.0
220
0.0
230
1.0
 70
     8
 71
     3
 72
     8
 73
     4
 74
     0
 42
0.0000000001
 43
0.0000000001
 40
22.73274810806179
 40
22.73274810806179
 40
22.73274810806179
 40
22.73274810806179
 40
28.97999309868792
 40
28.97999309868792
 40
28.97999309868792
 40
28.97999309868792
 10
-4.673674901874835
 20
-0.532872211567863
 30
0.0
 10
-4.923329254321871
 20
-0.6349408244897333
 30
0.0
 10
-5.178999763743254
 20
-0.7000000000018104
 30
0.0
 10
-5.445246121918237
 20
-0.7000000000018104
 30
0.0
  0
SPLINE
  5
6F55
330
1F
100
AcDbEntity
  8
AM_0
100
AcDbSpline
210
0.0
220
0.0
230
1.0
 70
     8
 71
     3
 72
     9
 73
     5
 74
     0
 42
0.0000000001
 43
0.0000000001
 40
0.0
 40
0.0
 40
0.0
 40
0.0
 40
14.48999654934396
 40
16.92804852839734
 40
16.92804852839734
 40
16.92804852839734
 40
16.92804852839734
 10
-3.652465702477793
 20
-0.7000000000018104
 30
0.0
 10
-4.260373890485962
 20
-0.7000000000018104
 30
0.0
 10
-4.905135593400052
 20
-0.2911098415561014
 30
0.0
 10
-5.549897296314139
 20
0.1177803168896176
 30
0.0
 10
-5.643025504007441
 20
0.1750032585283193
 30
0.0
  0
LINE
  5
6F56
330
1F
100
AcDbEntity
  8
AM_11
 48
0.1
100
AcDbLine
 10
-3.841257110171054
 20
-0.7000000000018104
 30
0.0
 11
-5.171545499764633
 21
-0.7000000000018104
 31
0.0
  0
SPLINE
  5
6F57
330
1F
100
AcDbEntity
  8
AM_0
100
AcDbSpline
210
0.0
220
0.0
230
1.0
 70
     8
 71
     3
 72
     9
 73
     5
 74
     0
 42
0.0000000001
 43
0.0000000001
 40
0.0
 40
0.0
 40
0.0
 40
0.0
 40
1.448999654934392
 40
2.897999309868792
 40
2.897999309868792
 40
2.897999309868792
 40
2.897999309868792
 10
-3.841257110171054
 20
-0.7000000000018104
 30
0.0
 10
-4.449165298179223
 20
-0.7000000000018104
 30
0.0
 10
-5.5529658732664
 20
-0.0000000000018304
 30
0.0
 10
-6.656766448353571
 20
0.6999999999981893
 30
0.0
 10
-7.264674636361744
 20
0.6999999999981893
 30
0.0
  0
SPLINE
  5
6F58
330
1F
100
AcDbEntity
  8
AM_0
100
AcDbSpline
210
0.0
220
0.0
230
1.0
 70
     8
 71
     3
 72
     9
 73
     5
 74
     0
 42
0.0000000001
 43
0.0000000001
 40
0.0
 40
0.0
 40
0.0
 40
0.0
 40
1.448999654934399
 40
2.897999309868795
 40
2.897999309868795
 40
2.897999309868795
 40
2.897999309868795
 10
-1.748127973574095
 20
-0.7000000000018104
 30
0.0
 10
-2.356036161582268
 20
-0.7000000000018104
 30
0.0
 10
-3.459836736669443
 20
-0.0000000000018304
 30
0.0
 10
-4.563637311756618
 20
0.6999999999981893
 30
0.0
 10
-5.171545499764787
 20
0.6999999999981893
 30
0.0
  0
SPLINE
  5
6F59
330
1F
100
AcDbEntity
  8
AM_0
100
AcDbSpline
210
0.0
220
0.0
230
1.0
 70
     8
 71
     3
 72
     9
 73
     5
 74
     0
 42
0.0000000001
 43
0.0000000001
 40
1.521176736886217
 40
1.521176736886217
 40
1.521176736886217
 40
1.521176736886217
 40
14.48999654934396
 40
28.97999309868792
 40
28.97999309868792
 40
28.97999309868792
 40
28.97999309868792
 10
-3.842135438592938
 20
-0.6888328532335876
 30
0.0
 10
-4.37625216217848
 20
-0.6265131836182262
 30
0.0
 10
-5.422113601418867
 20
0.0367434081899816
 30
0.0
 10
-6.467975040659237
 20
0.6999999999981893
 30
0.0
 10
-7.075883228667401
 20
0.6999999999981893
 30
0.0
  0
SPLINE
  5
6F5A
330
1F
100
AcDbEntity
  8
AM_0
100
AcDbSpline
210
0.0
220
0.0
230
1.0
 70
     8
 71
     3
 72
     8
 73
     4
 74
     0
 42
0.0000000001
 43
0.0000000001
 40
22.73274810806179
 40
22.73274810806179
 40
22.73274810806179
 40
22.73274810806179
 40
28.97999309868792
 40
28.97999309868792
 40
28.97999309868792
 40
28.97999309868792
 10
-0.9885880749306899
 20
-0.532872211567863
 30
0.0
 10
-1.234349498669239
 20
-0.6349408244897333
 30
0.0
 10
-1.486033267798354
 20
-0.7000000000018104
 30
0.0
 10
-1.748127973574288
 20
-0.7000000000018104
 30
0.0
  0
SPLINE
  5
6F5B
330
1F
100
AcDbEntity
  8
AM_0
100
AcDbSpline
210
0.0
220
0.0
230
1.0
 70
     8
 71
     3
 72
     8
 73
     4
 74
     0
 42
0.0000000001
 43
0.0000000001
 40
19.09542421355049
 40
19.09542421355049
 40
19.09542421355049
 40
19.09542421355049
 40
28.97999309868792
 40
28.97999309868792
 40
28.97999309868792
 40
28.97999309868792
 10
-0.564457117394467
 20
0.3224891340979581
 30
0.0
 10
-0.9448037901948904
 20
0.5371278066482162
 30
0.0
 10
-1.333434268179451
 20
0.6999999999981893
 30
0.0
 10
-1.748127973574288
 20
0.6999999999981893
 30
0.0
  0
LINE
  5
6F5C
330
1F
100
AcDbEntity
  8
AM_11
 48
0.1
100
AcDbLine
 10
-0.2547281942048567
 20
0.6998594476575725
 30
0.0
 11
-1.748127973574091
 21
0.6999999999981893
 31
0.0
  0
SPLINE
  5
6F5D
330
1F
100
AcDbEntity
  8
AM_0
100
AcDbSpline
210
0.0
220
0.0
230
1.0
 70
     8
 71
     3
 72
     9
 73
     5
 74
     0
 42
0.0000000001
 43
0.0000000001
 40
0.0
 40
0.0
 40
0.0
 40
0.0
 40
1.448999654934392
 40
2.897999309868792
 40
2.897999309868792
 40
2.897999309868792
 40
2.897999309868792
 10
-0.2547791639870953
 20
-0.7000000000018103
 30
0.0
 10
-0.8369563642952737
 20
-0.7000000000018104
 30
0.0
 10
-1.940756939382445
 20
-0.0000000000018304
 30
0.0
 10
-3.04455751446962
 20
0.6999999999981893
 30
0.0
 10
-3.652465702477793
 20
0.6999999999981893
 30
0.0
  0
SPLINE
  5
6F5E
330
1F
100
AcDbEntity
  8
AM_0
100
AcDbSpline
210
0.0
220
0.0
230
1.0
 70
     8
 71
     3
 72
     9
 73
     5
 74
     0
 42
0.0000000001
 43
0.0000000001
 40
1.521176736886217
 40
1.521176736886217
 40
1.521176736886217
 40
1.521176736886217
 40
14.48999654934396
 40
28.97999309868792
 40
28.97999309868792
 40
28.97999309868792
 40
28.97999309868792
 10
-0.2554342136046552
 20
-0.6831031364042836
 30
0.0
 10
-0.7640432282945295
 20
-0.6265131836182262
 30
0.0
 10
-1.809904667534916
 20
0.0367434081899816
 30
0.0
 10
-2.855766106775284
 20
0.6999999999981893
 30
0.0
 10
-3.463674294783449
 20
0.6999999999981893
 30
0.0
  0
LINE
  5
6F5F
330
1F
100
AcDbEntity
  8
AM_11
 48
0.1
100
AcDbLine
 10
-0.2547791639870953
 20
-0.7000000000018104
 30
0.0
 11
-1.748127973574091
 21
-0.7000000000018104
 31
0.0
  0
SPLINE
  5
6F60
330
1F
100
AcDbEntity
  8
AM_0
100
AcDbSpline
210
0.0
220
0.0
230
1.0
 70
     8
 71
     3
 72
     8
 73
     4
 74
     0
 42
0.0000000001
 43
0.0000000001
 40
0.0
 40
0.0
 40
0.0
 40
0.0
 40
6.247244990625308
 40
6.247244990625308
 40
6.247244990625308
 40
6.247244990625308
 10
-7.37974908547383
 20
0.6999999999981893
 30
0.0
 10
-7.645995443648777
 20
0.6999999999981893
 30
0.0
 10
-7.901665953070124
 20
0.6349408244861224
 30
0.0
 10
-8.151320305517133
 20
0.532872211564272
 30
0.0
  0
SPLINE
  5
6F61
330
1F
100
AcDbEntity
  8
AM_0
100
AcDbSpline
210
0.0
220
0.0
230
1.0
 70
     8
 71
     3
 72
     9
 73
     5
 74
     0
 42
0.0000000001
 43
0.0000000001
 40
0.0
 40
0.0
 40
0.0
 40
0.0
 40
0.1987770877846628
 40
5.759128114445015
 40
5.759128114445015
 40
5.759128114445015
 40
5.759128114445015
 10
-7.35433451835221
 20
0.6235410215690336
 30
0.0
 10
-7.362806040725788
 20
0.6235410215690336
 30
0.0
 10
-7.608375412193891
 20
0.6244034117874519
 30
0.0
 10
-7.846662318153906
 20
0.5752940893912694
 30
0.0
 10
-8.072573894533363
 20
0.4993971451885272
 30
0.0
  0
LINE
  5
6F62
330
1F
100
AcDbEntity
  8
AM_11
 48
0.1
100
AcDbLine
 10
-7.379749085473825
 20
0.6999999999981893
 30
0.0
 11
-8.922891525560332
 21
0.6999999999981893
 31
0.0
  0
SPLINE
  5
6F64
330
1F
100
AcDbEntity
  8
AM_0
100
AcDbSpline
210
0.0
220
0.0
230
1.0
 70
     8
 71
     3
 72
     9
 73
     5
 74
     0
 42
0.0000000001
 43
0.0000000001
 40
0.0
 40
0.0
 40
0.0
 40
0.0
 40
1.448999654934392
 40
1.692872608825329
 40
1.692872608825329
 40
1.692872608825329
 40
1.692872608825329
 10
-7.571531000115128
 20
-0.7000000006258828
 30
0.0
 10
-8.189068621421744
 20
-0.7000000006258828
 30
0.0
 10
-8.84406974341082
 20
-0.2910934759961719
 30
0.0
 10
-9.499070865399898
 20
0.1178130486335391
 30
0.0
 10
-9.593700691537675
 20
0.1750509660595284
 30
0.0
  0
LINE
  5
6F65
330
1F
100
AcDbEntity
  8
AM_11
 48
0.1
100
AcDbLine
 10
-7.571531000115128
 20
-0.7000000006258828
 30
0.0
 11
-8.922891524560618
 21
-0.7000000006258828
 31
0.0
  0
SPLINE
  5
6F66
330
1F
100
AcDbEntity
  8
AM_0
100
AcDbSpline
210
0.0
220
0.0
230
1.0
 70
     8
 71
     3
 72
     8
 73
     4
 74
     0
 42
0.0000000001
 43
0.0000000001
 40
22.73274810806179
 40
22.73274810806179
 40
22.73274810806179
 40
22.73274810806179
 40
28.97999309868792
 40
28.97999309868792
 40
28.97999309868792
 40
28.97999309868792
 10
-8.343102220158515
 20
-0.5328722121919355
 30
0.0
 10
-8.592756572605555
 20
-0.6349408251138057
 30
0.0
 10
-8.848427082026937
 20
-0.7000000006258828
 30
0.0
 10
-9.114673440201919
 20
-0.7000000006258828
 30
0.0
  0
SPLINE
  5
6F67
330
1F
100
AcDbEntity
  8
AM_0
100
AcDbSpline
210
0.0
220
0.0
230
1.0
 70
     8
 71
     3
 72
     8
 73
     4
 74
     0
 42
0.0000000001
 43
0.0000000001
 40
0.0
 40
0.0
 40
0.0
 40
0.0
 40
10.77533687840354
 40
10.77533687840354
 40
10.77533687840354
 40
10.77533687840354
 10
-9.114673441202695
 20
-0.7000000000018104
 30
0.0
 10
-9.573898940809051
 20
-0.7000000000018104
 30
0.0
 10
-10.00166145928274
 20
-0.50644999192847
 30
0.0
 10
-10.42135811889008
 20
-0.2632814482777064
 30
0.0
  0
SPLINE
  5
6F68
330
1F
100
AcDbEntity
  8
AM_0
100
AcDbSpline
210
0.0
220
0.0
230
1.0
 70
     8
 71
     3
 72
     9
 73
     5
 74
     0
 42
0.0000000001
 43
0.0000000001
 40
1.521176736886217
 40
1.521176736886217
 40
1.521176736886217
 40
1.521176736886217
 40
14.48999654934396
 40
28.97999309868792
 40
28.97999309868792
 40
28.97999309868792
 40
28.97999309868792
 10
-7.572423241501372
 20
-0.6888328538576599
 30
0.0
 10
-8.115000521244585
 20
-0.6265131842422989
 30
0.0
 10
-9.17742869402673
 20
0.0367434075659091
 30
0.0
 10
-10.23985686680885
 20
0.699999999374117
 30
0.0
 10
-10.85739448811546
 20
0.699999999374117
 30
0.0
  0
SPLINE
  5
6F69
330
1F
100
AcDbEntity
  8
AM_0
100
AcDbSpline
210
0.0
220
0.0
230
1.0
 70
     8
 71
     3
 72
    10
 73
     6
 74
     0
 42
0.0000000001
 43
0.0000000001
 40
0.0
 40
0.0
 40
0.0
 40
0.0
 40
0.6447675857635071
 40
1.316546974011651
 40
1.777238964087921
 40
1.777238964087921
 40
1.777238964087921
 40
1.777238964087921
 10
-10.4213561936881
 20
-0.263282563722376
 30
0.0
 10
-10.66423941939687
 20
-0.1225582605975589
 30
0.0
 10
-11.42637800483354
 20
0.5865941443567208
 30
0.0
 10
-10.132379111135
 20
0.4729260701096864
 30
0.0
 10
-9.765477137023324
 20
0.278953861171739
 30
0.0
 10
-9.593642471449753
 20
0.1750157507294673
 30
0.0
  0
SPLINE
  5
6F6A
330
1F
100
AcDbEntity
  8
AM_0
100
AcDbSpline
210
0.0
220
0.0
230
1.0
 70
     8
 71
     3
 72
     9
 73
     5
 74
     0
 42
0.0000000001
 43
0.0000000001
 40
0.0
 40
0.0
 40
0.0
 40
0.0
 40
1.448999654934399
 40
2.897999309868795
 40
2.897999309868795
 40
2.897999309868795
 40
2.897999309868795
 10
-5.445246121918041
 20
-0.7000000000018104
 30
0.0
 10
-6.06278374322466
 20
-0.7000000000018104
 30
0.0
 10
-7.184068823739235
 20
-0.0000000000018304
 30
0.0
 10
-8.305353904253811
 20
0.6999999999981893
 30
0.0
 10
-8.92289152556043
 20
0.6999999999981893
 30
0.0
  0
LINE
  5
6F6B
330
1F
100
AcDbEntity
  8
AM_0
100
AcDbLine
 10
-5.253464206277233
 20
-0.7000000000018104
 30
0.0
 11
-7.571786406624487
 21
-0.7000000000018104
 31
0.0
  0
LINE
  5
6F6C
330
1F
100
AcDbEntity
  8
AM_0
100
AcDbLine
 10
-5.253464206277012
 20
0.6999999999981893
 30
0.0
 11
-7.379749085473451
 21
0.6999999999981893
 31
0.0
  0
SPLINE
  5
6F6D
330
1F
100
AcDbEntity
  8
AM_0
100
AcDbSpline
210
0.0
220
0.0
230
1.0
 70
     8
 71
     3
 72
     8
 73
     4
 74
     0
 42
0.0000000001
 43
0.0000000001
 40
0.0
 40
0.0
 40
0.0
 40
0.0
 40
6.870645942600294
 40
6.870645942600294
 40
6.870645942600294
 40
6.870645942600294
 10
-7.37974908547383
 20
0.6235410215699388
 30
0.0
 10
-7.086936007665131
 20
0.6245703757857283
 30
0.0
 10
-6.793008464786979
 20
0.5752446521890362
 30
0.0
 10
-6.506259888730448
 20
0.4890736031788293
 30
0.0
  0
DIMENSION
  5
7001
330
1F
100
AcDbEntity
  8
AM_5
100
AcDbDimension
  2
*D10
 10
-0.0000000000021127
 20
-7.778237326381372
 30
0.0
 11
-6.000000000001954
 21
-6.744903993048039
 31
0.0
 70
    32
  3
AM_JIS
100
AcDbAlignedDimension
 13
-12.00000000000179
 23
-0.9999999999999985
 33
0.0
 14
-0.0000000000021123
 24
-0.9999999999999996
 34
0.0
100
AcDbRotatedDimension
  0
LINE
  5
7017
330
1F
100
AcDbEntity
  8
AM_0
100
AcDbLine
 10
-11.70000000000361
 20
-0.7000000000018104
 30
0.0
 11
-12.00000000000179
 21
-0.9999999999999968
 31
0.0
  0
VIEWPORT
  5
E2
330
1B
100
AcDbEntity
 67
     1
  8
0
100
AcDbViewport
 10
158.659971393327
 20
148.5
 30
0.0
 40
581.809078125
 41
314.226
 68
     1
 69
     1
1001
ACAD
1000
MVIEW
1002
{
1070
    16
1010
0.0
1020
0.0
1030
0.0
1010
0.0
1020
0.0
1030
1.0
1040
0.0
1040
314.226
1040
158.659971393327
1040
148.5
1040
50.0
1040
0.0
1040
0.0
1070
     0
1070
   100
1070
     1
1070
     1
1070
     0
1070
     0
1070
     0
1070
     0
1040
0.0
1040
0.0
1040
0.0
1040
10.0
1040
10.0
1040
10.0
1040
10.0
1070
     0
1002
{
1002
}
1002
}
  0
ENDSEC
  0
SECTION
  2
OBJECTS
  0
DICTIONARY
  5
C
330
0
100
AcDbDictionary
  3
ACAD_GROUP
350
D
  3
ACAD_LAYOUT
350
1A
  3
ACAD_MLINESTYLE
350
17
  3
ACAD_PLOTSETTINGS
350
19
  3
ACAD_PLOTSTYLENAME
350
E
  3
ACDBVARIABLEDICTIONARY
350
34
  3
ACMDICTIONARY
350
43
  3
AMG
350
2B
  3
AMGSNAPSETTINGS
350
6E
  3
DWGPROPS
350
7027
  3
ACDBHEADERROUNDTRIPXREC
350
7036
  0
DICTIONARY
  5
74
330
1F
100
AcDbDictionary
280
     1
  3
ACAD_INDEX
360
7029
  3
ACAD_LAYOUTSELFREF
360
7059
  0
DICTIONARY
  5
7057
330
1B
100
AcDbDictionary
280
     1
  3
ACAD_LAYOUTSELFREF
360
7058
  0
DICTIONARY
  5
D
102
{ACAD_REACTORS
330
C
102
}
330
C
100
AcDbDictionary
  0
DICTIONARY
  5
1A
102
{ACAD_REACTORS
330
C
102
}
330
C
100
AcDbDictionary
  0
DICTIONARY
  5
17
102
{ACAD_REACTORS
330
C
102
}
330
C
100
AcDbDictionary
  3
STANDARD
350
18
  0
DICTIONARY
  5
19
102
{ACAD_REACTORS
330
C
102
}
330
C
100
AcDbDictionary
  0
ACDBDICTIONARYWDFLT
  5
E
102
{ACAD_REACTORS
330
C
102
}
330
C
100
AcDbDictionary
281
     1
  3
Normal
350
F
100
AcDbDictionaryWithDefault
340
F
  0
DICTIONARY
  5
34
102
{ACAD_REACTORS
330
C
102
}
330
C
100
AcDbDictionary
  3
INDEXCTL
350
35
  3
SORTENTS
350
B5E
  0
DICTIONARY
  5
43
102
{ACAD_REACTORS
330
C
102
}
330
C
100
AcDbDictionary
  3
ACMSTDDICTIONARY
350
260
  0
DICTIONARY
  5
2B
102
{ACAD_REACTORS
330
C
102
}
330
C
100
AcDbDictionary
  3
ACMGSETTINGS
350
2C
  0
DICTIONARY
  5
6E
102
{ACAD_REACTORS
330
C
102
}
330
C
100
AcDbDictionary
  0
XRECORD
  5
7027
102
{ACAD_REACTORS
330
C
102
}
330
C
100
AcDbXrecord
  1
DWGPROPS COOKIE
  2

  3

  4

  6

  7

  8

  9

300
AmdtFileType=82
301
=
302
=
303
=
304
=
305
=
306
=
307
=
308
=
309
=
 40
1.135150763888888
 41
2452838.620506898
 42
2452955.025663715
  1

 90
        1
  0
DICTIONARY
  5
7036
102
{ACAD_REACTORS
330
C
102
}
330
C
100
AcDbDictionary
  3
TSTACKALIGN
350
7037
  3
TSTACKSIZE
350
7038
  3
HYPERLINKBASE
350
7039
  3
STYLESHEET
350
703A
  3
LAYOUTDICT
350
703B
  3
PLOTSETDICT
350
703C
  3
PLOTSTYLNAMDICT
350
703D
  3
LWETCUNION
350
703E
  3
INSUNITS
350
703F
  3
CEPSNTYPE
350
7040
  3
FINGERPRINTGUID
350
7041
  3
VERSIONGUID
350
7042
  3
PSVPSCALE
350
7043
  3
DIMSTYLEDATA
350
7044
  3
PUCSORTHOREF
350
7045
  3
PUCSORTHOVIEW
350
7046
  3
PUCSBASE
350
7047
  3
PUCSORGTOP
350
7048
  3
PUCSORGBOTTOM
350
7049
  3
PUCSORGLEFT
350
704A
  3
PUCSORGRIGHT
350
704B
  3
PUCSORGFRONT
350
704C
  3
PUCSORGBACK
350
704D
  3
UCSORTHOREF
350
704E
  3
UCSORTHOVIEW
350
704F
  3
UCSBASE
350
7050
  3
UCSORGTOP
350
7051
  3
UCSORGBOTTOM
350
7052
  3
UCSORGLEFT
350
7053
  3
UCSORGRIGHT
350
7054
  3
UCSORGFRONT
350
7055
  3
UCSORGBACK
350
7056
  0
DICTIONARY
  5
7029
102
{ACAD_REACTORS
330
74
102
}
330
74
100
AcDbDictionary
  3
*A1
350
702A
  0
XRECORD
  5
7059
102
{ACAD_REACTORS
330
74
102
}
330
74
100
AcDbXrecord
340
1F
  0
XRECORD
  5
7058
102
{ACAD_REACTORS
330
7057
102
}
330
7057
100
AcDbXrecord
340
1B
  0
MLINESTYLE
  5
18
102
{ACAD_REACTORS
330
17
102
}
330
17
100
AcDbMlineStyle
  2
STANDARD
 70
     0
  3

 62
   256
 51
90.0
 52
90.0
 71
     2
 49
0.5
 62
   256
  6
BYLAYER
 49
-0.5
 62
   256
  6
BYLAYER
  0
ACDBPLACEHOLDER
  5
F
102
{ACAD_REACTORS
330
E
102
}
330
E
100
AcDbPlaceHolder
280
     0
  0
DICTIONARYVAR
  5
35
102
{ACAD_REACTORS
330
34
102
}
330
34
100
DictionaryVariables
280
     0
  1
1
  0
DICTIONARYVAR
  5
B5E
102
{ACAD_REACTORS
330
34
102
}
330
34
100
DictionaryVariables
280
     0
  1
96
  0
DICTIONARY
  5
260
102
{ACAD_REACTORS
330
43
102
}
330
43
100
AcDbDictionary
  0
DICTIONARY
  5
2C
102
{ACAD_REACTORS
330
2B
102
}
330
2B
100
AcDbDictionary
  3
DWGSETTINGS
350
2D
  0
XRECORD
  5
7037
102
{ACAD_REACTORS
330
7036
102
}
330
7036
100
AcDbXrecord
 90
        1
  0
XRECORD
  5
7038
102
{ACAD_REACTORS
330
7036
102
}
330
7036
100
AcDbXrecord
 90
       70
  0
XRECORD
  5
7039
102
{ACAD_REACTORS
330
7036
102
}
330
7036
100
AcDbXrecord
  1

  0
XRECORD
  5
703A
102
{ACAD_REACTORS
330
7036
102
}
330
7036
100
AcDbXrecord
  1
ASAMI.ctb
  0
XRECORD
  5
703B
102
{ACAD_REACTORS
330
7036
102
}
330
7036
100
AcDbXrecord
340
1A
  0
XRECORD
  5
703C
102
{ACAD_REACTORS
330
7036
102
}
330
7036
100
AcDbXrecord
340
19
  0
XRECORD
  5
703D
102
{ACAD_REACTORS
330
7036
102
}
330
7036
100
AcDbXrecord
340
E
  0
XRECORD
  5
703E
102
{ACAD_REACTORS
330
7036
102
}
330
7036
100
AcDbXrecord
 90
    10781
  0
XRECORD
  5
703F
102
{ACAD_REACTORS
330
7036
102
}
330
7036
100
AcDbXrecord
 90
        4
  0
XRECORD
  5
7040
102
{ACAD_REACTORS
330
7036
102
}
330
7036
100
AcDbXrecord
 90
        0
  0
XRECORD
  5
7041
102
{ACAD_REACTORS
330
7036
102
}
330
7036
100
AcDbXrecord
  1
{AFB28963-8C59-40AE-9337-C84526B81ACE}
  0
XRECORD
  5
7042
102
{ACAD_REACTORS
330
7036
102
}
330
7036
100
AcDbXrecord
  1
{4E3262F8-0EFA-4676-BD1D-01E7A5BB9090}
  0
XRECORD
  5
7043
102
{ACAD_REACTORS
330
7036
102
}
330
7036
100
AcDbXrecord
 40
0.0
  0
XRECORD
  5
7044
102
{ACAD_REACTORS
330
7036
102
}
330
7036
100
AcDbXrecord
1000
DSTYLE
1002
{
1070
    79
 70
     2
1070
   341
340
59
1070
   342
340
59
1070
   371
 70
    -1
1070
   372
 70
    -1
1002
}
  0
XRECORD
  5
7045
102
{ACAD_REACTORS
330
7036
102
}
330
7036
100
AcDbXrecord
340
0
  0
XRECORD
  5
7046
102
{ACAD_REACTORS
330
7036
102
}
330
7036
100
AcDbXrecord
 70
     0
  0
XRECORD
  5
7047
102
{ACAD_REACTORS
330
7036
102
}
330
7036
100
AcDbXrecord
340
0
  0
XRECORD
  5
7048
102
{ACAD_REACTORS
330
7036
102
}
330
7036
100
AcDbXrecord
 10
0.0
 20
0.0
 30
0.0
  0
XRECORD
  5
7049
102
{ACAD_REACTORS
330
7036
102
}
330
7036
100
AcDbXrecord
 10
0.0
 20
0.0
 30
0.0
  0
XRECORD
  5
704A
102
{ACAD_REACTORS
330
7036
102
}
330
7036
100
AcDbXrecord
 10
0.0
 20
0.0
 30
0.0
  0
XRECORD
  5
704B
102
{ACAD_REACTORS
330
7036
102
}
330
7036
100
AcDbXrecord
 10
0.0
 20
0.0
 30
0.0
  0
XRECORD
  5
704C
102
{ACAD_REACTORS
330
7036
102
}
330
7036
100
AcDbXrecord
 10
0.0
 20
0.0
 30
0.0
  0
XRECORD
  5
704D
102
{ACAD_REACTORS
330
7036
102
}
330
7036
100
AcDbXrecord
 10
0.0
 20
0.0
 30
0.0
  0
XRECORD
  5
704E
102
{ACAD_REACTORS
330
7036
102
}
330
7036
100
AcDbXrecord
340
0
  0
XRECORD
  5
704F
102
{ACAD_REACTORS
330
7036
102
}
330
7036
100
AcDbXrecord
 70
     0
  0
XRECORD
  5
7050
102
{ACAD_REACTORS
330
7036
102
}
330
7036
100
AcDbXrecord
340
0
  0
XRECORD
  5
7051
102
{ACAD_REACTORS
330
7036
102
}
330
7036
100
AcDbXrecord
 10
0.0
 20
0.0
 30
0.0
  0
XRECORD
  5
7052
102
{ACAD_REACTORS
330
7036
102
}
330
7036
100
AcDbXrecord
 10
0.0
 20
0.0
 30
0.0
  0
XRECORD
  5
7053
102
{ACAD_REACTORS
330
7036
102
}
330
7036
100
AcDbXrecord
 10
0.0
 20
0.0
 30
0.0
  0
XRECORD
  5
7054
102
{ACAD_REACTORS
330
7036
102
}
330
7036
100
AcDbXrecord
 10
0.0
 20
0.0
 30
0.0
  0
XRECORD
  5
7055
102
{ACAD_REACTORS
330
7036
102
}
330
7036
100
AcDbXrecord
 10
0.0
 20
0.0
 30
0.0
  0
XRECORD
  5
7056
102
{ACAD_REACTORS
330
7036
102
}
330
7036
100
AcDbXrecord
 10
0.0
 20
0.0
 30
0.0
  0
LAYER_INDEX
  5
702A
102
{ACAD_REACTORS
330
7029
102
}
330
7029
100
AcDbIndex
 40
2453151.592064143
100
AcDbLayerIndex
  8
0
360
702B
 90
        0
  8
AM_0
360
702C
 90
       52
  8
AM_11
360
702D
 90
        6
  8
AM_7
360
702E
 90
        1
  8
AM_5
360
702F
 90
        5
  8
Defpoints
360
7030
 90
        0
  8
AM_6
360
7031
 90
        1
  8
AM_CL
360
7032
 90
        0
  8
5
360
7033
 90
        0
  8
AM_4
360
7034
 90
        0
  0
XRECORD
  5
2D
102
{ACAD_REACTORS
330
2C
102
}
330
2C
100
AcDbXrecord
  1
VERSION
140
15.0
  1
PRODUCT
  2
AutoCAD Mechanical 2000
  0
IDBUFFER
  5
702B
330
0
100
AcDbIdBuffer
  0
IDBUFFER
  5
702C
330
0
100
AcDbIdBuffer
330
6F6B
330
6F6C
330
6F6D
330
7017
330
631C
330
631D
330
6343
330
6348
330
6349
330
634B
330
634C
330
638E
330
63DB
330
66ED
330
6AED
330
6AF1
330
6AF2
330
6AF3
330
6AF4
330
6BFA
330
6BFD
330
6C10
330
6C11
330
6C13
330
6C14
330
6F49
330
6F4A
330
6F4B
330
6F4C
330
6F4D
330
6F4E
330
6F4F
330
6F51
330
6F52
330
6F53
330
6F54
330
6F55
330
6F57
330
6F58
330
6F59
330
6F5A
330
6F5B
330
6F5D
330
6F5E
330
6F60
330
6F61
330
6F64
330
6F66
330
6F67
330
6F68
330
6F69
330
6F6A
  0
IDBUFFER
  5
702D
330
0
100
AcDbIdBuffer
330
6F50
330
6F56
330
6F5C
330
6F5F
330
6F62
330
6F65
  0
IDBUFFER
  5
702E
330
0
100
AcDbIdBuffer
330
6320
  0
IDBUFFER
  5
702F
330
0
100
AcDbIdBuffer
330
634F
330
63C1
330
640B
330
6418
330
7001
  0
IDBUFFER
  5
7030
330
0
100
AcDbIdBuffer
  0
IDBUFFER
  5
7031
330
0
100
AcDbIdBuffer
330
C58
  0
IDBUFFER
  5
7032
330
0
100
AcDbIdBuffer
  0
IDBUFFER
  5
7033
330
0
100
AcDbIdBuffer
  0
IDBUFFER
  5
7034
330
0
100
AcDbIdBuffer
  0
ENDSEC
  0
EOF
