  0
SECTION
  2
HEADER
  9
$ACADVER
  1
AC1014
  9
$ACADMAINTVER
 70
     9
  9
$DWGCODEPAGE
  3
ANSI_932
  9
$INSBASE
 10
0.0
 20
0.0
 30
0.0
  9
$EXTMIN
 10
-47.52330998329399
 20
-17.77594448455768
 30
-0.00000001
  9
$EXTMAX
 10
11.22367646040787
 20
10.90127650865382
 30
0.00000001
  9
$LIMMIN
 10
-56.86421368136478
 20
-24.00472159727374
  9
$LIMMAX
 10
18.94771978626653
 20
16.83458007609971
  9
$ORTHOMODE
 70
     0
  9
$REGENMODE
 70
     1
  9
$FILLMODE
 70
     1
  9
$QTEXTMODE
 70
     0
  9
$MIRRTEXT
 70
     0
  9
$DRAGMODE
 70
     2
  9
$LTSCALE
 40
0.3
  9
$OSMODE
 70
    55
  9
$ATTMODE
 70
     1
  9
$TEXTSIZE
 40
2.5
  9
$TRACEWID
 40
1.0
  9
$TEXTSTYLE
  7
STANDARD
  9
$CLAYER
  8
AM_0
  9
$CELTYPE
  6
BYLAYER
  9
$CECOLOR
 62
   256
  9
$CELTSCALE
 40
1.0
  9
$DELOBJ
 70
     1
  9
$DISPSILH
 70
     0
  9
$DIMSCALE
 40
0.3333333333333333
  9
$DIMASZ
 40
2.5
  9
$DIMEXO
 40
1.0
  9
$DIMDLI
 40
12.0
  9
$DIMRND
 40
0.0
  9
$DIMDLE
 40
0.0
  9
$DIMEXE
 40
1.0
  9
$DIMTP
 40
0.1
  9
$DIMTM
 40
0.1
  9
$DIMTXT
 40
3.2
  9
$DIMCEN
 40
0.0
  9
$DIMTSZ
 40
0.0
  9
$DIMTOL
 70
     0
  9
$DIMLIM
 70
     0
  9
$DIMTIH
 70
     0
  9
$DIMTOH
 70
     0
  9
$DIMSE1
 70
     0
  9
$DIMSE2
 70
     0
  9
$DIMTAD
 70
     3
  9
$DIMZIN
 70
     8
  9
$DIMBLK
  1
OPEN30
  9
$DIMASO
 70
     1
  9
$DIMSHO
 70
     1
  9
$DIMPOST
  1

  9
$DIMAPOST
  1
"
  9
$DIMALT
 70
     0
  9
$DIMALTD
 70
     2
  9
$DIMALTF
 40
0.0393701
  9
$DIMLFAC
 40
1.0
  9
$DIMTOFL
 70
     1
  9
$DIMTVP
 40
0.0
  9
$DIMTIX
 70
     0
  9
$DIMSOXD
 70
     0
  9
$DIMSAH
 70
     0
  9
$DIMBLK1
  1

  9
$DIMBLK2
  1

  9
$DIMSTYLE
  2
AM_JIS
  9
$DIMCLRD
 70
     3
  9
$DIMCLRE
 70
     3
  9
$DIMCLRT
 70
     2
  9
$DIMTFAC
 40
0.71
  9
$DIMGAP
 40
1.5
  9
$DIMJUST
 70
     0
  9
$DIMSD1
 70
     0
  9
$DIMSD2
 70
     0
  9
$DIMTOLJ
 70
     0
  9
$DIMTZIN
 70
     0
  9
$DIMALTZ
 70
     0
  9
$DIMALTTZ
 70
     0
  9
$DIMFIT
 70
     3
  9
$DIMUPT
 70
     0
  9
$DIMUNIT
 70
     2
  9
$DIMDEC
 70
     3
  9
$DIMTDEC
 70
     3
  9
$DIMALTU
 70
     2
  9
$DIMALTTD
 70
     2
  9
$DIMTXSTY
  7
ASAMI
  9
$DIMAUNIT
 70
     0
  9
$LUNITS
 70
     2
  9
$LUPREC
 70
     2
  9
$SKETCHINC
 40
1.0
  9
$FILLETRAD
 40
0.8
  9
$AUNITS
 70
     0
  9
$AUPREC
 70
     0
  9
$MENU
  1
.
  9
$ELEVATION
 40
0.0
  9
$PELEVATION
 40
0.0
  9
$THICKNESS
 40
0.0
  9
$LIMCHECK
 70
     0
  9
$BLIPMODE
 70
     0
  9
$CHAMFERA
 40
0.3
  9
$CHAMFERB
 40
0.3
  9
$CHAMFERC
 40
20.0
  9
$CHAMFERD
 40
0.0
  9
$SKPOLY
 70
     0
  9
$TDCREATE
 40
2452838.620506898
  9
$TDUPDATE
 40
2453151.592591852
  9
$TDINDWG
 40
1.1740855093
  9
$TDUSRTIMER
 40
1.1740855093
  9
$USRTIMER
 70
     1
  9
$ANGBASE
 50
0.0
  9
$ANGDIR
 70
     0
  9
$PDMODE
 70
     0
  9
$PDSIZE
 40
0.0
  9
$PLINEWID
 40
0.0
  9
$COORDS
 70
     1
  9
$SPLFRAME
 70
     0
  9
$SPLINETYPE
 70
     6
  9
$SPLINESEGS
 70
     8
  9
$ATTDIA
 70
     1
  9
$ATTREQ
 70
     1
  9
$HANDLING
 70
 12289
  9
$HANDSEED
  5
7425
  9
$SURFTAB1
 70
     6
  9
$SURFTAB2
 70
     6
  9
$SURFTYPE
 70
     6
  9
$SURFU
 70
     6
  9
$SURFV
 70
     6
  9
$UCSNAME
  2

  9
$UCSORG
 10
0.0
 20
0.0
 30
0.0
  9
$UCSXDIR
 10
1.0
 20
0.0
 30
0.0
  9
$UCSYDIR
 10
0.0
 20
1.0
 30
0.0
  9
$PUCSNAME
  2

  9
$PUCSORG
 10
0.0
 20
0.0
 30
0.0
  9
$PUCSXDIR
 10
1.0
 20
0.0
 30
0.0
  9
$PUCSYDIR
 10
0.0
 20
1.0
 30
0.0
  9
$USERI1
 70
     0
  9
$USERI2
 70
     0
  9
$USERI3
 70
     0
  9
$USERI4
 70
     0
  9
$USERI5
 70
     0
  9
$USERR1
 40
0.0
  9
$USERR2
 40
0.0
  9
$USERR3
 40
0.0
  9
$USERR4
 40
0.0
  9
$USERR5
 40
0.0
  9
$WORLDVIEW
 70
     1
  9
$SHADEDGE
 70
     3
  9
$SHADEDIF
 70
    70
  9
$TILEMODE
 70
     1
  9
$MAXACTVP
 70
    64
  9
$PINSBASE
 10
0.0
 20
0.0
 30
0.0
  9
$PLIMCHECK
 70
     0
  9
$PEXTMIN
 10
1.000000000000000E+20
 20
1.000000000000000E+20
 30
1.000000000000000E+20
  9
$PEXTMAX
 10
-1.000000000000000E+20
 20
-1.000000000000000E+20
 30
-1.000000000000000E+20
  9
$PLIMMIN
 10
0.0
 20
0.0
  9
$PLIMMAX
 10
210.0
 20
297.0
  9
$UNITMODE
 70
     0
  9
$VISRETAIN
 70
     1
  9
$PLINEGEN
 70
     0
  9
$PSLTSCALE
 70
     1
  9
$TREEDEPTH
 70
  3020
  9
$PICKSTYLE
 70
     0
  9
$CMLSTYLE
  2
STANDARD
  9
$CMLJUST
 70
     0
  9
$CMLSCALE
 40
20.0
  9
$PROXYGRAPHICS
 70
     1
  9
$MEASUREMENT
 70
     1
  0
ENDSEC
  0
SECTION
  2
CLASSES
  0
CLASS
  1
ACDBDICTIONARYWDFLT
  2
AcDbDictionaryWithDefault
  3
AutoCAD 2000
 90
        0
280
     0
281
     0
  0
CLASS
  1
ACDBPLACEHOLDER
  2
AcDbPlaceHolder
  3
AutoCAD 2000
 90
        0
280
     0
281
     0
  0
CLASS
  1
LAYOUT
  2
AcDbLayout
  3
AutoCAD 2000
 90
        0
280
     0
281
     0
  0
CLASS
  1
AMGSETTINGSOBJ
  2
AmgSettingsObj
  3
"AcadM|Product Description: AutoCAD Mechanical 2000|Company: Autodesk"
 90
        0
280
     0
281
     0
  0
CLASS
  1
ACME_DOCUMENT
  2
AcMeDbDoc
  3
AcMeServices
 90
        0
280
     0
281
     0
  0
CLASS
  1
ACMESCOPE
  2
AcMeScope
  3
AcMeServices
 90
        0
280
     0
281
     0
  0
CLASS
  1
ACMECOMMANDHISTORY
  2
AcMeCommandHistory
  3
AcMeServices
 90
        0
280
     0
281
     0
  0
CLASS
  1
DICTIONARYVAR
  2
AcDbDictionaryVar
  3
AutoCAD 2000
 90
        0
280
     0
281
     0
  0
CLASS
  1
ACIMSYSVARMAN
  2
AcImSysVarManager
  3
AcMeServices
 90
        0
280
     0
281
     0
  0
CLASS
  1
ACIMREALSYSVAR
  2
AcImRealSysVar
  3
AcMeServices
 90
        0
280
     0
281
     0
  0
CLASS
  1
ACIMINTSYSVAR
  2
AcImIntSysVar
  3
AcMeServices
 90
        0
280
     0
281
     0
  0
CLASS
  1
ACMEDRAWINGMAN
  2
AcMeDrawingMan
  3
AcMeServices
 90
        0
280
     0
281
     0
  0
CLASS
  1
ACMEVIEW
  2
AcMeView
  3
AcMeServices
 90
        0
280
     0
281
     0
  0
CLASS
  1
ACDBENTITYCACHE
  2
AcMeEntityCache
  3
AcMeServices
 90
        0
280
     0
281
     0
  0
CLASS
  1
GSMANAGER
  2
AcMeGSManager
  3
AcMeServices
 90
        0
280
     0
281
     0
  0
CLASS
  1
AmdtInternalReactor
  2
AmdtInternalReactor
  3
AcMeServices
 90
        0
280
     0
281
     0
  0
CLASS
  1
ACMESTATEMGR
  2
AcMeStateMgr
  3
AcMeServices
 90
        0
280
     0
281
     0
  0
CLASS
  1
ACME_DATABASE
  2
AcMeDbDatabase
  3
AcMeServices
 90
        0
280
     0
281
     0
  0
CLASS
  1
ACRFINSADJUSTERMGR
  2
AcRfInsAdjusterMgr
  3
AcMeServices
 90
        0
280
     0
281
     0
  0
CLASS
  1
ACMDATADICTIONARY
  2
AcmDataDictionary
  3
"AcmSymBB|Product Description: AutoCAD Mechanical 2000|Company: Autodesk"
 90
        0
280
     0
281
     0
  0
CLASS
  1
ACMDATAENTRYBLOCK
  2
AcmDataEntryBlock
  3
"AcmSymBB|Product Description: AutoCAD Mechanical 2000|Company: Autodesk"
 90
        0
280
     0
281
     0
  0
CLASS
  1
AMGOBJPROPCFG
  2
AmgObjPropCfg
  3
"AmgLay|Product Description: AutoCAD Mechanical 2000|Company: Autodesk"
 90
        1
280
     0
281
     0
  0
CLASS
  1
ACAMGFILTERDAT
  2
AcAmgFilterDat
  3
"AcadM|Product Description: AutoCAD Mechanical 2000|Company: Autodesk"
 90
        0
280
     0
281
     0
  0
CLASS
  1
LAYER_INDEX
  2
AcDbLayerIndex
  3
AutoCAD 2000
 90
        0
280
     0
281
     0
  0
CLASS
  1
IDBUFFER
  2
AcDbIdBuffer
  3
AutoCAD 2000
 90
        0
280
     0
281
     0
  0
CLASS
  1
ACIMSTRSYSVAR
  2
AcImStrSysVar
  3
AcMeServices
 90
        0
280
     0
281
     0
  0
CLASS
  1
ACMSTANDARDJIS
  2
AcmStandardJIS
  3
"AcmSymBB|Product Description: AutoCAD Mechanical 2000|Company: Autodesk"
 90
        0
280
     0
281
     0
  0
CLASS
  1
ACMSURFSTANDARDJIS
  2
AcmSurfTextStdJIS
  3
"AcmSymBB|Product Description: AutoCAD Mechanical 2000|Company: Autodesk"
 90
        0
280
     0
281
     0
  0
CLASS
  1
ACMFCFSTANDARDJIS
  2
AcmFCFStdJIS
  3
"AcmSymBB|Product Description: AutoCAD Mechanical 2000|Company: Autodesk"
 90
        0
280
     0
281
     0
  0
CLASS
  1
ACMWELDSTANDARDJIS
  2
AcmWeldingStdJIS
  3
"AcmSymBB|Product Description: AutoCAD Mechanical 2000|Company: Autodesk"
 90
        0
280
     0
281
     0
  0
CLASS
  1
ACMIDSTANDARDJIS
  2
AcmIdStdJIS
  3
"AcmSymBB|Product Description: AutoCAD Mechanical 2000|Company: Autodesk"
 90
        0
280
     0
281
     0
  0
CLASS
  1
ACMDATUMSTANDARDJIS
  2
AcmDatumStdJIS
  3
"AcmSymBB|Product Description: AutoCAD Mechanical 2000|Company: Autodesk"
 90
        0
280
     0
281
     0
  0
CLASS
  1
ACMBOMSTANDARDJIS
  2
AcmBOMStdJIS
  3
"AcmSymBB|Product Description: AutoCAD Mechanical 2000|Company: Autodesk"
 90
        0
280
     0
281
     0
  0
CLASS
  1
ACMSTANDARDANSI
  2
AcmStandardANSI
  3
"AcmSymBB|Product Description: AutoCAD Mechanical 2000|Company: Autodesk"
 90
        0
280
     0
281
     0
  0
CLASS
  1
ACMSURFSTANDARDANSI
  2
AcmSurfTextStdANSI
  3
"AcmSymBB|Product Description: AutoCAD Mechanical 2000|Company: Autodesk"
 90
        0
280
     0
281
     0
  0
CLASS
  1
ACMFCFSTANDARDANSI
  2
AcmFCFStdANSI
  3
"AcmSymBB|Product Description: AutoCAD Mechanical 2000|Company: Autodesk"
 90
        0
280
     0
281
     0
  0
CLASS
  1
ACMWELDSTANDARDANSI
  2
AcmWeldingStdANSI
  3
"AcmSymBB|Product Description: AutoCAD Mechanical 2000|Company: Autodesk"
 90
        0
280
     0
281
     0
  0
CLASS
  1
ACMIDSTANDARDANSI
  2
AcmIdStdANSI
  3
"AcmSymBB|Product Description: AutoCAD Mechanical 2000|Company: Autodesk"
 90
        0
280
     0
281
     0
  0
CLASS
  1
ACMDATUMSTANDARDANSI
  2
AcmDatumStdANSI
  3
"AcmSymBB|Product Description: AutoCAD Mechanical 2000|Company: Autodesk"
 90
        0
280
     0
281
     0
  0
CLASS
  1
ACMBOMSTANDARDANSI
  2
AcmBOMStdANSI
  3
"AcmSymBB|Product Description: AutoCAD Mechanical 2000|Company: Autodesk"
 90
        0
280
     0
281
     0
  0
CLASS
  1
ACMSTANDARDBSI
  2
AcmStandardBSI
  3
"AcmSymBB|Product Description: AutoCAD Mechanical 2000|Company: Autodesk"
 90
        0
280
     0
281
     0
  0
CLASS
  1
ACMSURFSTANDARDBSI
  2
AcmSurfTextStdBSI
  3
"AcmSymBB|Product Description: AutoCAD Mechanical 2000|Company: Autodesk"
 90
        0
280
     0
281
     0
  0
CLASS
  1
ACMFCFSTANDARDBSI
  2
AcmFCFStdBSI
  3
"AcmSymBB|Product Description: AutoCAD Mechanical 2000|Company: Autodesk"
 90
        0
280
     0
281
     0
  0
CLASS
  1
ACMWELDSTANDARDBSI
  2
AcmWeldingStdBSI
  3
"AcmSymBB|Product Description: AutoCAD Mechanical 2000|Company: Autodesk"
 90
        0
280
     0
281
     0
  0
CLASS
  1
ACMIDSTANDARDBSI
  2
AcmIdStdBSI
  3
"AcmSymBB|Product Description: AutoCAD Mechanical 2000|Company: Autodesk"
 90
        0
280
     0
281
     0
  0
CLASS
  1
ACMDATUMSTANDARDBSI
  2
AcmDatumStdBSI
  3
"AcmSymBB|Product Description: AutoCAD Mechanical 2000|Company: Autodesk"
 90
        0
280
     0
281
     0
  0
CLASS
  1
ACMBOMSTANDARDBSI
  2
AcmBOMStdBSI
  3
"AcmSymBB|Product Description: AutoCAD Mechanical 2000|Company: Autodesk"
 90
        0
280
     0
281
     0
  0
CLASS
  1
LONG_TRANSACTION
  2
AcDbLongTransaction
  3
AutoCAD 2000
 90
        0
280
     0
281
     0
  0
CLASS
  1
LWPOLYLINE
  2
AcDbPolyline
  3
AutoCAD 2000
 90
        0
280
     0
281
     1
  0
CLASS
  1
HATCH
  2
AcDbHatch
  3
AutoCAD 2000
 90
        0
280
     0
281
     1
  0
CLASS
  1
XRECORD
  2
AcDbXrecord
  3
AutoCAD 2000
 90
        0
280
     0
281
     0
  0
ENDSEC
  0
SECTION
  2
TABLES
  0
TABLE
  2
VPORT
  5
8
330
0
100
AcDbSymbolTable
 70
     3
  0
VPORT
  5
73EF
330
8
100
AcDbSymbolTableRecord
100
AcDbViewportTableRecord
  2
*ACTIVE
 70
     0
 10
0.0
 20
0.0
 11
1.0
 21
1.0
 12
-0.6541359482638285
 22
-1.236679841760626
 13
0.0
 23
0.0
 14
2.5
 24
2.5
 15
10.0
 25
10.0
 16
0.0
 26
0.0
 36
1.0
 17
0.0
 27
0.0
 37
0.0
 40
96.11649366802312
 41
1.56570841889117
 42
50.0
 43
0.0
 44
0.0
 50
0.0
 51
0.0
 71
     0
 72
   100
 73
     1
 74
     3
 75
     0
 76
     0
 77
     0
 78
     0
  0
ENDTAB
  0
TABLE
  2
LTYPE
  5
5
330
0
100
AcDbSymbolTable
 70
    10
  0
LTYPE
  5
14
330
5
100
AcDbSymbolTableRecord
100
AcDbLinetypeTableRecord
  2
BYBLOCK
 70
     0
  3

 72
    65
 73
     0
 40
0.0
  0
LTYPE
  5
15
330
5
100
AcDbSymbolTableRecord
100
AcDbLinetypeTableRecord
  2
BYLAYER
 70
     0
  3

 72
    65
 73
     0
 40
0.0
  0
LTYPE
  5
16
330
5
100
AcDbSymbolTableRecord
100
AcDbLinetypeTableRecord
  2
CONTINUOUS
 70
     0
  3
Solid line
 72
    65
 73
     0
 40
0.0
  0
LTYPE
  5
4B
330
5
100
AcDbSymbolTableRecord
100
AcDbLinetypeTableRecord
  2
AM_ISO02W050
 70
     0
  3
__ __ __ __ __ __ __ __ __ __ __ __ __ __ __
 72
    65
 73
     2
 40
7.5
 49
6.0
 74
     0
 49
-1.5
 74
     0
  0
LTYPE
  5
4C
330
5
100
AcDbSymbolTableRecord
100
AcDbLinetypeTableRecord
  2
AM_ISO08W050
 70
     0
  3
____ . ____ . ____ . ____ . ____ . ____ . ____
 72
    65
 73
     4
 40
18.0
 49
12.0
 74
     0
 49
-1.5
 74
     0
 49
3.0
 74
     0
 49
-1.5
 74
     0
  0
LTYPE
  5
4D
330
5
100
AcDbSymbolTableRecord
100
AcDbLinetypeTableRecord
  2
AM_ISO09W050
 70
     0
  3
_____ . . _____ . . _____ . . ____ .. ____
 72
    65
 73
     6
 40
22.5
 49
12.0
 74
     0
 49
-1.5
 74
     0
 49
3.0
 74
     0
 49
-1.5
 74
     0
 49
3.0
 74
     0
 49
-1.5
 74
     0
  0
LTYPE
  5
4E
330
5
100
AcDbSymbolTableRecord
100
AcDbLinetypeTableRecord
  2
AMCONSTR
 70
     0
  3
_______________________
 72
    65
 73
     2
 40
9999.0
 49
9999.0
 74
     0
 49
0.0
 74
     0
  0
LTYPE
  5
4F
330
5
100
AcDbSymbolTableRecord
100
AcDbLinetypeTableRecord
  2
AM_ISO02W050X2
 70
     0
  3
 _ _ _ _ _ _ _ _ _ _ _ _
 72
    65
 73
     2
 40
3.75
 49
3.0
 74
     0
 49
-0.75
 74
     0
  0
LTYPE
  5
50
330
5
100
AcDbSymbolTableRecord
100
AcDbLinetypeTableRecord
  2
AM_ISO08W050X2
 70
     0
  3
__ . __ . __ . __ . __ . __
 72
    65
 73
     4
 40
9.0
 49
6.0
 74
     0
 49
-0.75
 74
     0
 49
1.5
 74
     0
 49
-0.75
 74
     0
  0
LTYPE
  5
53
330
5
100
AcDbSymbolTableRecord
100
AcDbLinetypeTableRecord
  2
AMZIGZAG
 70
     0
  3
/\/-/\/-/\/-/\/-/\/-/\/
 72
    65
 73
     2
 40
11.00009999999999
 49
0.0001
 74
     4
 75
   135
340
52
 46
0.04
 50
0.0
 44
0.0
 45
0.0
 49
-11.0
 74
     0
  0
LTYPE
  5
166
330
5
100
AcDbSymbolTableRecord
100
AcDbLinetypeTableRecord
  2
ACJISTGL
 70
     0
  3
_ _ _ _ _
 72
    65
 73
     2
 40
3.0
 49
2.0
 74
     0
 49
-1.0
 74
     0
  0
LTYPE
  5
26A
330
5
100
AcDbSymbolTableRecord
100
AcDbLinetypeTableRecord
  2
ACJISTGB
 70
     0
  3
__ . . __ . .
 72
    65
 73
     6
 40
9.0
 49
4.0
 74
     0
 49
-1.0
 74
     0
 49
1.0
 74
     0
 49
-1.0
 74
     0
 49
1.0
 74
     0
 49
-1.0
 74
     0
  0
ENDTAB
  0
TABLE
  2
LAYER
  5
2
330
0
100
AcDbSymbolTable
 70
    10
  0
LAYER
  5
10
330
2
100
AcDbSymbolTableRecord
100
AcDbLayerTableRecord
  2
0
 70
     0
 62
     7
  6
CONTINUOUS
  0
LAYER
  5
3F9
330
2
100
AcDbSymbolTableRecord
100
AcDbLayerTableRecord
  2
AM_0
 70
     0
 62
     7
  6
CONTINUOUS
  0
LAYER
  5
BD6
330
2
100
AcDbSymbolTableRecord
100
AcDbLayerTableRecord
  2
AM_11
 70
     0
 62
     3
  6
AM_ISO09W050
  0
LAYER
  5
BD7
330
2
100
AcDbSymbolTableRecord
100
AcDbLayerTableRecord
  2
AM_7
 70
     0
 62
     4
  6
AM_ISO08W050
  0
LAYER
  5
BD8
330
2
100
AcDbSymbolTableRecord
100
AcDbLayerTableRecord
  2
AM_5
 70
     0
 62
     3
  6
CONTINUOUS
  0
LAYER
  5
BD9
330
2
100
AcDbSymbolTableRecord
100
AcDbLayerTableRecord
  2
DEFPOINTS
 70
     0
 62
     7
  6
CONTINUOUS
  0
LAYER
  5
BDA
330
2
100
AcDbSymbolTableRecord
100
AcDbLayerTableRecord
  2
AM_6
 70
     0
 62
     2
  6
CONTINUOUS
  0
LAYER
  5
1E2E
330
2
100
AcDbSymbolTableRecord
100
AcDbLayerTableRecord
  2
AM_CL
 70
     0
 62
     1
  6
AMCONSTR
  0
LAYER
  5
6468
330
2
100
AcDbSymbolTableRecord
100
AcDbLayerTableRecord
  2
5
 70
     0
 62
     3
  6
CONTINUOUS
  0
LAYER
  5
6469
330
2
100
AcDbSymbolTableRecord
100
AcDbLayerTableRecord
  2
AM_4
 70
     0
 62
     3
  6
CONTINUOUS
  0
ENDTAB
  0
TABLE
  2
STYLE
  5
3
330
0
100
AcDbSymbolTable
 70
     5
  0
STYLE
  5
11
330
3
100
AcDbSymbolTableRecord
100
AcDbTextStyleTableRecord
  2
STANDARD
 70
     0
 40
0.0
 41
1.0
 50
0.0
 71
     0
 42
2.5
  3
simplex.shx
  4
EXTFONT.SHX
  0
STYLE
  5
52
330
3
100
AcDbSymbolTableRecord
100
AcDbTextStyleTableRecord
  2

 70
     1
 40
0.0
 41
1.0
 50
0.0
 71
     0
 42
2.5
  3
ltypeshp.shx
  4

  0
STYLE
  5
6B
330
3
100
AcDbSymbolTableRecord
100
AcDbTextStyleTableRecord
  2
ASAMI
 70
     0
 40
0.0
 41
1.0
 50
0.0
 71
     0
 42
2.5
  3
simplex.shx
  4
EXTFONT.SHX
  0
STYLE
  5
262
330
3
100
AcDbSymbolTableRecord
100
AcDbTextStyleTableRecord
  2
ACJISTS
 70
     0
 40
1.0
 41
1.0
 50
0.0
 71
     0
 42
2.5
  3
simplex.shx
  4
bigfont.shx
  0
STYLE
  5
269
330
3
100
AcDbSymbolTableRecord
100
AcDbTextStyleTableRecord
  2
ACJISGDT
 70
     0
 40
0.0
 41
1.0
 50
0.0
 71
     0
 42
2.5
  3
amgdtans.shx
  4

  0
ENDTAB
  0
TABLE
  2
VIEW
  5
6
330
0
100
AcDbSymbolTable
 70
     0
  0
ENDTAB
  0
TABLE
  2
UCS
  5
7
330
0
100
AcDbSymbolTable
 70
     0
  0
ENDTAB
  0
TABLE
  2
APPID
  5
9
330
0
100
AcDbSymbolTable
 70
    14
  0
APPID
  5
12
330
9
100
AcDbSymbolTableRecord
100
AcDbRegAppTableRecord
  2
ACAD
 70
     0
  0
APPID
  5
30
330
9
100
AcDbSymbolTableRecord
100
AcDbRegAppTableRecord
  2
MCAD_NO_VIS
 70
     0
  0
APPID
  5
31
330
9
100
AcDbSymbolTableRecord
100
AcDbRegAppTableRecord
  2
ACAD_TEMP_GRAPHIC
 70
     0
  0
APPID
  5
2C2
330
9
100
AcDbSymbolTableRecord
100
AcDbRegAppTableRecord
  2
GENIUS_GENDTOL_13
 70
     0
  0
APPID
  5
339
330
9
100
AcDbSymbolTableRecord
100
AcDbRegAppTableRecord
  2
GENIUS_GENODEF_13
 70
     0
  0
APPID
  5
33A
330
9
100
AcDbSymbolTableRecord
100
AcDbRegAppTableRecord
  2
GENIUS_GENOBJ-N-RSBK_13
 70
     0
  0
APPID
  5
33B
330
9
100
AcDbSymbolTableRecord
100
AcDbRegAppTableRecord
  2
GENIUS_GENOBJ-N-LIB_13
 70
     0
  0
APPID
  5
33C
330
9
100
AcDbSymbolTableRecord
100
AcDbRegAppTableRecord
  2
GENIUS_GENSCALE_13
 70
     0
  0
APPID
  5
378
330
9
100
AcDbSymbolTableRecord
100
AcDbRegAppTableRecord
  2
GENIUS_GENDIMSH_14
 70
     0
  0
APPID
  5
BDB
330
9
100
AcDbSymbolTableRecord
100
AcDbRegAppTableRecord
  2
GENIUS_GENOBJ-N-CEN_13
 70
     0
  0
APPID
  5
BDC
330
9
100
AcDbSymbolTableRecord
100
AcDbRegAppTableRecord
  2
GENIUS_GENFIL_13
 70
     0
  0
APPID
  5
BDD
330
9
100
AcDbSymbolTableRecord
100
AcDbRegAppTableRecord
  2
GENIUS_GENOBJ-N-FIL_13
 70
     0
  0
APPID
  5
12AD
330
9
100
AcDbSymbolTableRecord
100
AcDbRegAppTableRecord
  2
GENIUS_GENOREF_13
 70
     0
  0
APPID
  5
62E6
330
9
100
AcDbSymbolTableRecord
100
AcDbRegAppTableRecord
  2
GENIUS_GENOBJ-N-CHA_13
 70
     0
  0
ENDTAB
  0
TABLE
  2
DIMSTYLE
  5
A
330
0
100
AcDbSymbolTable
 70
     9
  0
DIMSTYLE
105
58
102
{ACAD_REACTORS
330
634F
330
640B
330
6418
330
63C1
102
}
330
A
100
AcDbSymbolTableRecord
100
AcDbDimStyleTableRecord
  2
AM_JIS
 70
     0
  3

  4
"
  5
OPEN30
  6

  7

 40
0.3333333333333333
 41
2.5
 42
1.0
 43
12.0
 44
1.0
 45
0.0
 46
0.0
 47
0.1
 48
0.1
140
3.2
141
0.0
142
0.0
143
0.0393701
144
1.0
145
0.0
146
0.71
147
1.5
 71
     0
 72
     0
 73
     0
 74
     0
 75
     0
 76
     0
 77
     3
 78
     8
170
     0
171
     2
172
     1
173
     0
174
     0
175
     0
176
     3
177
     3
178
     2
270
     2
271
     3
272
     3
273
     2
274
     2
340
6B
275
     0
280
     0
281
     0
282
     0
283
     0
284
     0
285
     0
286
     0
287
     3
288
     0
  0
DIMSTYLE
105
5F
330
A
100
AcDbSymbolTableRecord
100
AcDbDimStyleTableRecord
  2
AM_JIS$3
 70
     0
  3

  4
"
  5
OPEN30
  6

  7

 40
0.3333333333333333
 41
2.5
 42
1.0
 43
10.0
 44
1.0
 45
0.0
 46
0.0
 47
0.1
 48
0.1
140
3.2
141
0.0
142
0.0
143
0.0393701
144
1.0
145
0.0
146
0.71
147
1.5
 71
     0
 72
     0
 73
     0
 74
     1
 75
     0
 76
     0
 77
     3
 78
     8
170
     0
171
     2
172
     0
173
     0
174
     0
175
     0
176
     3
177
     3
178
     2
270
     2
271
     2
272
     3
273
     2
274
     2
340
6B
275
     0
280
     0
281
     0
282
     0
283
     0
284
     0
285
     0
286
     0
287
     0
288
     1
  0
DIMSTYLE
105
60
330
A
100
AcDbSymbolTableRecord
100
AcDbDimStyleTableRecord
  2
AM_JIS$4
 70
     0
  3

  4
"
  5
OPEN30
  6

  7

 40
0.3333333333333333
 41
2.5
 42
1.0
 43
10.0
 44
1.0
 45
0.0
 46
0.0
 47
0.1
 48
0.1
140
3.2
141
0.0
142
0.0
143
0.0393701
144
1.0
145
0.0
146
0.71
147
1.5
 71
     0
 72
     0
 73
     0
 74
     1
 75
     0
 76
     0
 77
     3
 78
     8
170
     0
171
     2
172
     0
173
     0
174
     0
175
     0
176
     3
177
     3
178
     2
270
     2
271
     2
272
     3
273
     2
274
     2
340
6B
275
     0
280
     0
281
     0
282
     0
283
     0
284
     0
285
     0
286
     0
287
     0
288
     1
  0
DIMSTYLE
105
61
330
A
100
AcDbSymbolTableRecord
100
AcDbDimStyleTableRecord
  2
AM_JIS$6
 70
     0
  3

  4
"
  5
OPEN30
  6

  7

 40
0.3333333333333333
 41
2.5
 42
1.0
 43
10.0
 44
1.0
 45
0.0
 46
0.0
 47
0.1
 48
0.1
140
3.2
141
0.0
142
0.0
143
0.0393701
144
1.0
145
0.0
146
0.71
147
1.5
 71
     0
 72
     0
 73
     0
 74
     0
 75
     0
 76
     0
 77
     0
 78
     8
170
     0
171
     2
172
     1
173
     0
174
     0
175
     0
176
     3
177
     3
178
     2
270
     2
271
     2
272
     2
273
     2
274
     2
340
6B
275
     0
280
     0
281
     0
282
     0
283
     0
284
     0
285
     0
286
     0
287
     3
288
     0
  0
DIMSTYLE
105
62
330
A
100
AcDbSymbolTableRecord
100
AcDbDimStyleTableRecord
  2
AM_JIS$7
 70
     0
  3

  4
"
  5
OPEN30
  6

  7

 40
0.3333333333333333
 41
2.5
 42
1.0
 43
10.0
 44
1.0
 45
0.0
 46
0.0
 47
0.1
 48
0.1
140
3.2
141
0.0
142
0.0
143
0.0393701
144
1.0
145
0.0
146
0.71
147
1.5
 71
     0
 72
     0
 73
     0
 74
     0
 75
     0
 76
     0
 77
     3
 78
     8
170
     0
171
     2
172
     1
173
     0
174
     0
175
     0
176
     3
177
     3
178
     2
270
     2
271
     2
272
     3
273
     2
274
     2
340
6B
275
     0
280
     0
281
     0
282
     0
283
     0
284
     0
285
     0
286
     0
287
     3
288
     0
  0
DIMSTYLE
105
63
330
A
100
AcDbSymbolTableRecord
100
AcDbDimStyleTableRecord
  2
AM_JIS$SF
 70
     0
  3

  4
"
  5
OPEN30
  6

  7

 40
0.3333333333333333
 41
2.5
 42
1.0
 43
10.0
 44
1.0
 45
0.0
 46
0.0
 47
0.1
 48
0.1
140
3.2
141
0.0
142
0.0
143
0.0393701
144
1.0
145
0.0
146
0.71
147
1.5
 71
     0
 72
     0
 73
     0
 74
     0
 75
     1
 76
     1
 77
     3
 78
     8
170
     0
171
     2
172
     1
173
     0
174
     0
175
     0
176
   256
177
   256
178
     2
270
     2
271
     2
272
     2
273
     2
274
     2
340
6B
275
     0
280
     0
281
     0
282
     0
283
     0
284
     0
285
     0
286
     0
287
     3
288
     0
  0
DIMSTYLE
105
68
330
A
100
AcDbSymbolTableRecord
100
AcDbDimStyleTableRecord
  2
AM_JIS$SH
 70
     0
  3

  4
"
  5

  6
GENAXEH
  7
OPEN30
 40
0.3333333333333333
 41
2.5
 42
1.0
 43
10.0
 44
1.0
 45
0.0
 46
0.0
 47
0.1
 48
0.1
140
3.2
141
0.0
142
0.0
143
0.0393701
144
2.0
145
0.0
146
0.71
147
1.5
 71
     0
 72
     0
 73
     0
 74
     0
 75
     1
 76
     1
 77
     3
 78
     8
170
     0
171
     2
172
     1
173
     1
174
     0
175
     0
176
   256
177
   256
178
     2
270
     2
271
     2
272
     2
273
     2
274
     2
340
6B
275
     0
280
     0
281
     0
282
     0
283
     0
284
     0
285
     0
286
     0
287
     3
288
     0
  0
DIMSTYLE
105
B34
102
{ACAD_REACTORS
330
63DB
102
}
330
A
100
AcDbSymbolTableRecord
100
AcDbDimStyleTableRecord
  2
AM_JIS$2
 70
     0
  3

  4
"
  5
OPEN30
  6

  7

 40
0.3333333333333333
 41
2.5
 42
1.0
 43
12.0
 44
1.0
 45
0.0
 46
0.0
 47
0.1
 48
0.1
140
3.2
141
0.0
142
0.0
143
0.0393701
144
1.0
145
0.0
146
0.71
147
1.5
 71
     0
 72
     0
 73
     0
 74
     0
 75
     0
 76
     0
 77
     3
 78
     8
170
     0
171
     2
172
     1
173
     0
174
     0
175
     0
176
     3
177
     3
178
     2
270
     2
271
     3
272
     3
273
     2
274
     2
340
6B
275
     0
280
     0
281
     0
282
     0
283
     0
284
     0
285
     0
286
     0
287
     3
288
     0
  0
DIMSTYLE
105
62E5
330
A
100
AcDbSymbolTableRecord
100
AcDbDimStyleTableRecord
  2
ISO-25
 70
     0
  3

  4

  5

  6

  7

 40
1.0
 41
2.5
 42
0.625
 43
3.75
 44
1.25
 45
0.0
 46
0.0
 47
0.0
 48
0.0
140
2.5
141
2.5
142
0.0
143
0.03937007874016
144
1.0
145
0.0
146
1.0
147
0.625
 71
     0
 72
     0
 73
     0
 74
     0
 75
     0
 76
     0
 77
     1
 78
     8
170
     0
171
     3
172
     1
173
     0
174
     0
175
     0
176
     0
177
     0
178
     0
270
     2
271
     2
272
     2
273
     2
274
     3
340
11
275
     0
280
     0
281
     0
282
     0
283
     0
284
     8
285
     0
286
     0
287
     3
288
     0
  0
ENDTAB
  0
TABLE
  2
BLOCK_RECORD
  5
1
330
0
100
AcDbSymbolTable
 70
    10
  0
BLOCK_RECORD
  5
1F
102
{ACAD_XDICTIONARY
360
74
102
}
330
1
100
AcDbSymbolTableRecord
100
AcDbBlockTableRecord
  2
*MODEL_SPACE
  0
BLOCK_RECORD
  5
1B
102
{ACAD_XDICTIONARY
360
7411
102
}
330
1
100
AcDbSymbolTableRecord
100
AcDbBlockTableRecord
  2
*PAPER_SPACE
  0
BLOCK_RECORD
  5
59
330
1
100
AcDbSymbolTableRecord
100
AcDbBlockTableRecord
  2
_OPEN30
  0
BLOCK_RECORD
  5
64
330
1
100
AcDbSymbolTableRecord
100
AcDbBlockTableRecord
  2
GENAXEH
  0
BLOCK_RECORD
  5
6350
330
1
100
AcDbSymbolTableRecord
100
AcDbBlockTableRecord
  2
*D5
  0
BLOCK_RECORD
  5
63C2
330
1
100
AcDbSymbolTableRecord
100
AcDbBlockTableRecord
  2
*D6
  0
BLOCK_RECORD
  5
63DC
330
1
100
AcDbSymbolTableRecord
100
AcDbBlockTableRecord
  2
*D7
  0
BLOCK_RECORD
  5
640C
330
1
100
AcDbSymbolTableRecord
100
AcDbBlockTableRecord
  2
*D8
  0
BLOCK_RECORD
  5
6419
330
1
100
AcDbSymbolTableRecord
100
AcDbBlockTableRecord
  2
*D9
  0
ENDTAB
  0
ENDSEC
  0
SECTION
  2
BLOCKS
  0
BLOCK
  5
20
330
1F
100
AcDbEntity
  8
0
100
AcDbBlockBegin
  2
*MODEL_SPACE
 70
     0
 10
0.0
 20
0.0
 30
0.0
  3
*MODEL_SPACE
  1

  0
ENDBLK
  5
21
330
1F
100
AcDbEntity
  8
0
100
AcDbBlockEnd
  0
BLOCK
  5
1C
330
1B
100
AcDbEntity
 67
     1
  8
0
100
AcDbBlockBegin
  2
*PAPER_SPACE
 70
     0
 10
0.0
 20
0.0
 30
0.0
  3
*PAPER_SPACE
  1

  0
ENDBLK
  5
1D
330
1B
100
AcDbEntity
 67
     1
  8
0
100
AcDbBlockEnd
  0
BLOCK
  5
5D
330
59
100
AcDbEntity
  8
0
100
AcDbBlockBegin
  2
_OPEN30
 70
     0
 10
0.0
 20
0.0
 30
0.0
  3
_OPEN30
  1

  0
LINE
  5
5A
330
59
100
AcDbEntity
  8
0
 62
     0
100
AcDbLine
 10
-1.0
 20
0.26794919
 30
0.0
 11
0.0
 21
0.0
 31
0.0
  0
LINE
  5
5B
330
59
100
AcDbEntity
  8
0
 62
     0
100
AcDbLine
 10
0.0
 20
0.0
 30
0.0
 11
-1.0
 21
-0.26794919
 31
0.0
  0
LINE
  5
5C
330
59
100
AcDbEntity
  8
0
 62
     0
100
AcDbLine
 10
0.0
 20
0.0
 30
0.0
 11
-1.0
 21
0.0
 31
0.0
  0
ENDBLK
  5
5E
330
59
100
AcDbEntity
  8
0
100
AcDbBlockEnd
  0
BLOCK
  5
66
330
64
100
AcDbEntity
  8
0
100
AcDbBlockBegin
  2
GENAXEH
 70
     0
 10
0.0
 20
0.0
 30
0.0
  3
GENAXEH
  1

  0
LINE
  5
65
330
64
100
AcDbEntity
  8
0
100
AcDbLine
 10
-1.0
 20
0.0
 30
0.0
 11
1.0
 21
0.0
 31
0.0
  0
ENDBLK
  5
67
330
64
100
AcDbEntity
  8
0
100
AcDbBlockEnd
  0
BLOCK
  5
635A
330
6350
100
AcDbEntity
  8
0
100
AcDbBlockBegin
  2
*D5
 70
     1
 10
0.0
 20
0.0
 30
0.0
  3
*D5
  1

  0
LINE
  5
73C0
330
6350
100
AcDbEntity
  8
AM_5
 62
     3
100
AcDbLine
 10
-42.03333333333513
 20
-0.9999999999999985
 30
0.0
 11
-46.28997664996066
 21
-0.9999999999999975
 31
0.0
  0
LINE
  5
73C1
330
6350
100
AcDbEntity
  8
AM_5
 62
     3
100
AcDbLine
 10
-42.03333333333513
 20
1.000000000000001
 30
0.0
 11
-46.28997664996066
 21
1.000000000000002
 31
0.0
  0
LINE
  5
73C2
330
6350
100
AcDbEntity
  8
AM_5
 62
     3
100
AcDbLine
 10
-45.95664331662732
 20
-1.83333333333333
 30
0.0
 11
-45.95664331662732
 21
-2.666666666666663
 31
0.0
  0
LINE
  5
73C3
330
6350
100
AcDbEntity
  8
AM_5
 62
     3
100
AcDbLine
 10
-45.95664331662732
 20
1.833333333333335
 30
0.0
 11
-45.95664331662732
 21
2.666666666666669
 31
0.0
  0
LINE
  5
73C4
330
6350
100
AcDbEntity
  8
AM_5
 62
     3
100
AcDbLine
 10
-45.95664331662732
 20
-0.9999999999999975
 30
0.0
 11
-45.95664331662732
 21
1.000000000000002
 31
0.0
  0
INSERT
  5
73C5
330
6350
100
AcDbEntity
  8
AM_5
 62
     3
100
AcDbBlockReference
  2
_OPEN30
 10
-45.95664331662732
 20
-0.9999999999999975
 30
0.0
 41
0.8333333333333332
 42
0.8333333333333332
 43
0.8333333333333332
 50
90.0
  0
INSERT
  5
73C6
330
6350
100
AcDbEntity
  8
AM_5
 62
     3
100
AcDbBlockReference
  2
_OPEN30
 10
-45.95664331662732
 20
1.000000000000002
 30
0.0
 41
0.8333333333333332
 42
0.8333333333333332
 43
0.8333333333333332
 50
270.0
  0
MTEXT
  5
73C7
330
6350
100
AcDbEntity
  8
AM_5
 62
     2
100
AcDbMText
 10
-46.98997664996065
 20
-0.0000000000000048
 30
0.0
 40
1.066666666666666
 41
0.0
 71
     5
 72
     1
  1
%%C2.0
  7
ASAMI
 11
0.0000000000000001
 21
1.0
 31
0.0
1001
ACAD
1000
MTEXTBEGIN
1070
    73
1070
     1
1070
    44
1040
1.0
1070
    74
1070
     0
1000
MTEXTEND
  0
POINT
  5
73C8
330
6350
100
AcDbEntity
  8
DEFPOINTS
 62
     0
100
AcDbPoint
 10
-41.7000000000018
 20
-0.9999999999999987
 30
0.0
  0
POINT
  5
73C9
330
6350
100
AcDbEntity
  8
DEFPOINTS
 62
     0
100
AcDbPoint
 10
-41.7000000000018
 20
1.000000000000001
 30
0.0
  0
POINT
  5
73CA
330
6350
100
AcDbEntity
  8
DEFPOINTS
 62
     0
100
AcDbPoint
 10
-45.95664331662732
 20
1.000000000000002
 30
0.0
  0
ENDBLK
  5
635B
330
6350
100
AcDbEntity
  8
0
100
AcDbBlockEnd
  0
BLOCK
  5
63CE
330
63C2
100
AcDbEntity
  8
0
100
AcDbBlockBegin
  2
*D6
 70
     1
 10
0.0
 20
0.0
 30
0.0
  3
*D6
  1

  0
LINE
  5
73B5
330
63C2
100
AcDbEntity
  8
AM_5
 62
     3
100
AcDbLine
 10
0.0239586342061462
 20
-0.8999999999998584
 30
0.0
 11
6.698600659425339
 21
-0.8999999999998603
 31
0.0
  0
LINE
  5
73B6
330
63C2
100
AcDbEntity
  8
AM_5
 62
     3
100
AcDbLine
 10
0.0057601224935742
 20
0.9000000000001405
 30
0.0
 11
6.698600659425339
 21
0.9000000000001387
 31
0.0
  0
LINE
  5
73B7
330
63C2
100
AcDbEntity
  8
AM_5
 62
     3
100
AcDbLine
 10
6.365267326092006
 20
-1.733333333333193
 30
0.0
 11
6.365267326092006
 21
-2.566666666666526
 31
0.0
  0
LINE
  5
73B8
330
63C2
100
AcDbEntity
  8
AM_5
 62
     3
100
AcDbLine
 10
6.365267326092006
 20
1.733333333333471
 30
0.0
 11
6.365267326092008
 21
7.55396825396839
 31
0.0
  0
LINE
  5
73B9
330
63C2
100
AcDbEntity
  8
AM_5
 62
     3
100
AcDbLine
 10
6.365267326092006
 20
-0.8999999999998603
 30
0.0
 11
6.365267326092006
 21
0.9000000000001387
 31
0.0
  0
INSERT
  5
73BA
330
63C2
100
AcDbEntity
  8
AM_5
 62
     3
100
AcDbBlockReference
  2
_OPEN30
 10
6.365267326092006
 20
-0.8999999999998603
 30
0.0
 41
0.8333333333333332
 42
0.8333333333333332
 43
0.8333333333333332
 50
90.0
  0
INSERT
  5
73BB
330
63C2
100
AcDbEntity
  8
AM_5
 62
     3
100
AcDbBlockReference
  2
_OPEN30
 10
6.365267326092006
 20
0.9000000000001387
 30
0.0
 41
0.8333333333333332
 42
0.8333333333333332
 43
0.8333333333333332
 50
270.0
  0
MTEXT
  5
73BC
330
63C2
100
AcDbEntity
  8
AM_5
 62
     2
100
AcDbMText
 10
5.331933992758673
 20
5.555555555555694
 30
0.0
 40
1.066666666666666
 41
0.0
 71
     5
 72
     1
  1
%%C1.8
  7
ASAMI
 11
0.0000000000000001
 21
1.0
 31
0.0
1001
ACAD
1000
MTEXTBEGIN
1070
    73
1070
     1
1070
    44
1040
1.0
1070
    74
1070
     0
1000
MTEXTEND
  0
POINT
  5
73BD
330
63C2
100
AcDbEntity
  8
DEFPOINTS
 62
     0
100
AcDbPoint
 10
-0.3093746991271872
 20
-0.8999999999998584
 30
0.0
  0
POINT
  5
73BE
330
63C2
100
AcDbEntity
  8
DEFPOINTS
 62
     0
100
AcDbPoint
 10
-0.3275732108397591
 20
0.9000000000001406
 30
0.0
  0
POINT
  5
73BF
330
63C2
100
AcDbEntity
  8
DEFPOINTS
 62
     0
100
AcDbPoint
 10
6.365267326092006
 20
0.9000000000001387
 30
0.0
  0
ENDBLK
  5
63CF
330
63C2
100
AcDbEntity
  8
0
100
AcDbBlockEnd
  0
BLOCK
  5
63E8
330
63DC
100
AcDbEntity
  8
0
100
AcDbBlockBegin
  2
*D7
 70
     1
 10
0.0
 20
0.0
 30
0.0
  3
*D7
  1

  0
LINE
  5
741A
330
63DC
100
AcDbEntity
  8
AM_0
 62
     3
100
AcDbLine
 10
0.1140067144401308
 20
-0.3132308735952885
 30
0.0
 11
3.967740164655127
 21
-10.90127650865382
 31
0.0
  0
LINE
  5
741B
330
63DC
100
AcDbEntity
  8
AM_0
 62
     3
100
AcDbLine
 10
0.1140067144401309
 20
0.3132308735952885
 30
0.0
 11
3.96774016465513
 21
10.90127650865382
 31
0.0
  0
ARC
  5
741C
330
63DC
100
AcDbEntity
  8
AM_0
 62
     3
100
AcDbCircle
 10
-0.0000000000017979
 20
0.0
 30
0.0
 40
11.26756281879041
100
AcDbArc
 50
294.2384828353137
 51
65.76151716468624
  0
INSERT
  5
741D
330
63DC
100
AcDbEntity
  8
AM_0
 62
     3
100
AcDbBlockReference
  2
_OPEN30
 10
3.853733450213198
 20
-10.58804563505854
 30
0.0
 41
0.8333333333333332
 42
0.8333333333333332
 43
0.8333333333333332
 50
202.1192414176605
  0
INSERT
  5
741E
330
63DC
100
AcDbEntity
  8
AM_0
 62
     3
100
AcDbBlockReference
  2
_OPEN30
 10
3.853733450213202
 20
10.58804563505854
 30
0.0
 41
0.8333333333333332
 42
0.8333333333333332
 43
0.8333333333333332
 50
157.8807585823395
  0
MTEXT
  5
741F
330
63DC
100
AcDbEntity
  8
AM_0
 62
     2
100
AcDbMText
 10
10.23422948545528
 20
-0.0000000000000026
 30
0.0
 40
1.066666666666666
 41
0.0
 71
     5
 72
     1
  1
140°
  7
ASAMI
 11
0.0000000000000001
 21
1.0
 31
0.0
  0
POINT
  5
7420
330
63DC
100
AcDbEntity
  8
DEFPOINTS
 62
     0
100
AcDbPoint
 10
10.34605766549704
 20
-4.46285364509758
 30
0.0
  0
POINT
  5
7421
330
63DC
100
AcDbEntity
  8
DEFPOINTS
 62
     0
100
AcDbPoint
 10
-0.0000000000017979
 20
0.0
 30
0.0
  0
POINT
  5
7422
330
63DC
100
AcDbEntity
  8
DEFPOINTS
 62
     0
100
AcDbPoint
 10
-0.1819851171349699
 20
-0.5
 30
0.0
  0
POINT
  5
7423
330
63DC
100
AcDbEntity
  8
DEFPOINTS
 62
     0
100
AcDbPoint
 10
-0.0000000000017979
 20
0.0
 30
0.0
  0
POINT
  5
7424
330
63DC
100
AcDbEntity
  8
DEFPOINTS
 62
     0
100
AcDbPoint
 10
-0.1819851171349699
 20
0.5
 30
0.0
  0
ENDBLK
  5
63E9
330
63DC
100
AcDbEntity
  8
0
100
AcDbBlockEnd
  0
BLOCK
  5
6416
330
640C
100
AcDbEntity
  8
0
100
AcDbBlockBegin
  2
*D8
 70
     1
 10
0.0
 20
0.0
 30
0.0
  3
*D8
  1

  0
LINE
  5
70EE
330
640C
100
AcDbEntity
  8
AM_5
 62
     3
100
AcDbLine
 10
-0.0000000000021122
 20
-0.3333333333333333
 30
0.0
 11
-0.0000000000021126
 21
-6.772887510776361
 31
0.0
  0
LINE
  5
70EF
330
640C
100
AcDbEntity
  8
AM_5
 62
     3
100
AcDbLine
 10
-12.00000000000179
 20
-1.133333333335402
 30
0.0
 11
-12.00000000000179
 21
-6.772887510776362
 31
0.0
  0
LINE
  5
70F0
330
640C
100
AcDbEntity
  8
AM_5
 62
     3
100
AcDbLine
 10
-0.8333333333354458
 20
-6.439554177443028
 30
0.0
 11
-11.16666666666846
 21
-6.439554177443028
 31
0.0
  0
INSERT
  5
70F1
330
640C
100
AcDbEntity
  8
AM_5
 62
     3
100
AcDbBlockReference
  2
_OPEN30
 10
-0.0000000000021126
 20
-6.439554177443028
 30
0.0
 41
0.8333333333333332
 42
0.8333333333333332
 43
0.8333333333333332
  0
INSERT
  5
70F2
330
640C
100
AcDbEntity
  8
AM_5
 62
     3
100
AcDbBlockReference
  2
_OPEN30
 10
-12.00000000000179
 20
-6.439554177443028
 30
0.0
 41
0.8333333333333332
 42
0.8333333333333332
 43
0.8333333333333332
 50
180.0
  0
MTEXT
  5
70F3
330
640C
100
AcDbEntity
  8
AM_5
 62
     2
100
AcDbMText
 10
-6.000000000001954
 20
-5.406220844109695
 30
0.0
 40
1.066666666666666
 41
0.0
 71
     5
 72
     1
  1
12
  7
ASAMI
1001
ACAD
1000
MTEXTBEGIN
1070
    73
1070
     1
1070
    44
1040
1.0
1070
    74
1070
     0
1000
MTEXTEND
  0
POINT
  5
70F4
330
640C
100
AcDbEntity
  8
DEFPOINTS
 62
     0
100
AcDbPoint
 10
-0.0000000000021122
 20
0.0
 30
0.0
  0
POINT
  5
70F5
330
640C
100
AcDbEntity
  8
DEFPOINTS
 62
     0
100
AcDbPoint
 10
-12.00000000000179
 20
-0.8000000000020687
 30
0.0
  0
POINT
  5
70F6
330
640C
100
AcDbEntity
  8
DEFPOINTS
 62
     0
100
AcDbPoint
 10
-12.00000000000179
 20
-6.439554177443028
 30
0.0
  0
ENDBLK
  5
6417
330
640C
100
AcDbEntity
  8
0
100
AcDbBlockEnd
  0
BLOCK
  5
6423
330
6419
100
AcDbEntity
  8
0
100
AcDbBlockBegin
  2
*D9
 70
     1
 10
0.0
 20
0.0
 30
0.0
  3
*D9
  1

  0
LINE
  5
6FAC
330
6419
100
AcDbEntity
  8
AM_5
 62
     3
100
AcDbLine
 10
-0.0000000000017979
 20
-0.8333333333334213
 30
0.0
 11
-0.0000000000017985
 21
-10.60924448455766
 31
0.0
  0
LINE
  5
6FAD
330
6419
100
AcDbEntity
  8
AM_5
 62
     3
100
AcDbLine
 10
-42.00000000000179
 20
-1.033333333333331
 30
0.0
 11
-42.00000000000179
 21
-10.60924448455766
 31
0.0
  0
LINE
  5
6FAE
330
6419
100
AcDbEntity
  8
AM_5
 62
     3
100
AcDbLine
 10
-0.8333333333351317
 20
-10.27591115122432
 30
0.0
 11
-41.16666666666846
 21
-10.27591115122432
 31
0.0
  0
INSERT
  5
6FAF
330
6419
100
AcDbEntity
  8
AM_5
 62
     3
100
AcDbBlockReference
  2
_OPEN30
 10
-0.0000000000017985
 20
-10.27591115122432
 30
0.0
 41
0.8333333333333332
 42
0.8333333333333332
 43
0.8333333333333332
  0
INSERT
  5
6FB0
330
6419
100
AcDbEntity
  8
AM_5
 62
     3
100
AcDbBlockReference
  2
_OPEN30
 10
-42.00000000000179
 20
-10.27591115122432
 30
0.0
 41
0.8333333333333332
 42
0.8333333333333332
 43
0.8333333333333332
 50
180.0
  0
MTEXT
  5
6FB1
330
6419
100
AcDbEntity
  8
AM_5
 62
     2
100
AcDbMText
 10
-21.00000000000179
 20
-9.242577817890992
 30
0.0
 40
1.066666666666666
 41
0.0
 71
     5
 72
     1
  1
42
  7
ASAMI
1001
ACAD
1000
MTEXTBEGIN
1070
    73
1070
     1
1070
    44
1040
1.0
1070
    74
1070
     0
1000
MTEXTEND
  0
POINT
  5
6FB2
330
6419
100
AcDbEntity
  8
DEFPOINTS
 62
     0
100
AcDbPoint
 10
-0.0000000000017979
 20
-0.5000000000000881
 30
0.0
  0
POINT
  5
6FB3
330
6419
100
AcDbEntity
  8
DEFPOINTS
 62
     0
100
AcDbPoint
 10
-42.00000000000179
 20
-0.6999999999999986
 30
0.0
  0
POINT
  5
6FB4
330
6419
100
AcDbEntity
  8
DEFPOINTS
 62
     0
100
AcDbPoint
 10
-42.00000000000179
 20
-10.27591115122432
 30
0.0
  0
ENDBLK
  5
6424
330
6419
100
AcDbEntity
  8
0
100
AcDbBlockEnd
  0
ENDSEC
  0
SECTION
  2
ENTITIES
  0
TEXT
  5
C58
330
1F
100
AcDbEntity
  8
AM_6
100
AcDbText
 10
-27.15079365079544
 20
-17.77594448455768
 30
0.0
 40
1.666666666666666
  1
MDS018SK
 50
0.0000000000002036
 72
     4
 11
-21.00000000000179
 21
-16.94261115122432
 31
0.0
100
AcDbText
  0
LINE
  5
631C
330
1F
100
AcDbEntity
  8
AM_0
100
AcDbLine
 10
-12.00000000000179
 20
-0.9999999999999987
 30
0.0
 11
-41.7000000000018
 21
-0.9999999999999985
 31
0.0
  0
LINE
  5
631D
330
1F
100
AcDbEntity
  8
AM_0
100
AcDbLine
 10
-12.00000000000179
 20
1.0
 30
0.0
 11
-41.70000000000181
 21
1.000000000000001
 31
0.0
  0
LINE
  5
6320
330
1F
100
AcDbEntity
  8
AM_7
100
AcDbLine
 10
-43.25294814989317
 20
0.0000000000000077
 30
0.0
 11
0.3187499999980112
 21
0.0
 31
0.0
1001
GENIUS_GENODEF_13
1002
{
1000
HIER
1070
     0
1002
}
1002
{
1000
MANEDIT
1070
     0
1002
}
1002
{
1000
NOSEL
1070
     0
1002
}
1002
{
1000
BEHIND
1070
     0
1002
}
1002
{
1000
REACTOR
1002
}
1001
GENIUS_GENOBJ-N-CEN_13
1002
{
1000
OWNER
1000
GEN
1002
}
  0
LINE
  5
6343
330
1F
100
AcDbEntity
  8
AM_0
100
AcDbLine
 10
-42.00000000000179
 20
-0.6999999999999986
 30
0.0
 11
-42.00000000000179
 21
0.7000000000000015
 31
0.0
  0
LINE
  5
6348
330
1F
100
AcDbEntity
  8
AM_0
100
AcDbLine
 10
-42.00000000000179
 20
0.6710216682309625
 30
0.0
 11
-42.0000000000018
 21
0.7000000000000015
 31
0.0
  0
LINE
  5
6349
330
1F
100
AcDbEntity
  8
AM_0
100
AcDbLine
 10
-42.00000000000179
 20
0.6216980985741135
 30
0.0
 11
-42.00000000000179
 21
0.6710216682309625
 31
0.0
  0
LINE
  5
634B
330
1F
100
AcDbEntity
  8
AM_0
100
AcDbLine
 10
-42.00000000000179
 20
-0.6999999999999986
 30
0.0
 11
-42.00000000000179
 21
-0.6710216682221539
 31
0.0
  0
LINE
  5
634C
330
1F
100
AcDbEntity
  8
AM_0
100
AcDbLine
 10
-42.00000000000179
 20
-0.6710216682221539
 30
0.0
 11
-42.00000000000179
 21
-0.6216980985978762
 31
0.0
  0
DIMENSION
  5
634F
330
1F
100
AcDbEntity
  8
AM_5
100
AcDbDimension
  2
*D5
 10
-45.95664331662732
 20
1.000000000000002
 30
0.0
 11
-45.95664331662732
 21
-0.0000000000000049
 31
0.0
 70
   160
  1
%%C<>
  3
AM_JIS
100
AcDbAlignedDimension
 13
-41.7000000000018
 23
-0.9999999999999985
 33
0.0
 14
-41.7000000000018
 24
1.000000000000001
 34
0.0
 50
90.0
100
AcDbRotatedDimension
1001
ACAD
1000
DSTYLE
1002
{
1070
    78
1070
     0
1070
   271
1070
     1
1002
}
  0
LINE
  5
638E
330
1F
100
AcDbEntity
  8
AM_0
100
AcDbLine
 10
-41.7000000000018
 20
1.000000000000001
 30
0.0
 11
-41.7000000000018
 21
-0.9999999999999985
 31
0.0
  0
DIMENSION
  5
63C1
330
1F
100
AcDbEntity
  8
AM_5
100
AcDbDimension
  2
*D6
 10
6.365267326092006
 20
0.9000000000001387
 30
0.0
 11
6.365267326092006
 21
5.555555555555694
 31
0.0
 70
   160
  1
%%C<>
  3
AM_JIS
100
AcDbAlignedDimension
 13
-0.3093746991271872
 23
-0.8999999999998584
 33
0.0
 14
-0.3275732108397591
 24
0.9000000000001406
 34
0.0
 50
90.0
100
AcDbRotatedDimension
1001
ACAD
1000
DSTYLE
1002
{
1070
    78
1070
     0
1070
   271
1070
     1
1002
}
  0
DIMENSION
  5
63DB
330
1F
100
AcDbEntity
  8
AM_0
100
AcDbDimension
  2
*D7
 10
-0.1819851171349699
 20
0.5
 30
0.0
 11
10.23422948545528
 21
-0.0000000000000043
 31
0.0
 70
    34
  3
AM_JIS$2
100
AcDb2LineAngularDimension
 13
-0.1819851171349699
 23
-0.5
 33
0.0
 14
-0.0000000000017979
 24
0.0
 34
0.0
 15
-0.0000000000017979
 25
0.0
 35
0.0
 16
10.34605766549704
 26
-4.46285364509758
 36
0.0
1001
ACAD
1000
DSTYLE
1002
{
1070
   271
1070
     0
1002
}
  0
DIMENSION
  5
640B
330
1F
100
AcDbEntity
  8
AM_5
100
AcDbDimension
  2
*D8
 10
-12.00000000000179
 20
-6.439554177443028
 30
0.0
 11
-6.000000000001954
 21
-5.406220844109695
 31
0.0
 70
    32
  3
AM_JIS
100
AcDbAlignedDimension
 13
-0.0000000000021122
 23
0.0
 33
0.0
 14
-12.00000000000179
 24
-0.8000000000020687
 34
0.0
100
AcDbRotatedDimension
  0
DIMENSION
  5
6418
330
1F
100
AcDbEntity
  8
AM_5
100
AcDbDimension
  2
*D9
 10
-42.00000000000179
 20
-10.27591115122432
 30
0.0
 11
-21.00000000000179
 21
-9.242577817890992
 31
0.0
 70
    32
  3
AM_JIS
100
AcDbAlignedDimension
 13
-0.0000000000017979
 23
-0.5000000000000881
 33
0.0
 14
-42.00000000000179
 24
-0.6999999999999986
 34
0.0
100
AcDbRotatedDimension
  0
LINE
  5
66ED
330
1F
100
AcDbEntity
  8
AM_0
100
AcDbLine
 10
-12.00000000000179
 20
-0.9999999999999989
 30
0.0
 11
-12.00000000000179
 21
1.0
 31
0.0
  0
LINE
  5
6BFA
330
1F
100
AcDbEntity
  8
AM_0
100
AcDbLine
 10
-41.70000000000181
 20
1.000000000000001
 30
0.0
 11
-42.0000000000018
 21
0.7000000000000015
 31
0.0
1001
GENIUS_GENFIL_13
1070
     0
1040
0.3
1040
0.3
1040
20.0
1040
0.0
1002
{
1002
}
1001
GENIUS_GENODEF_13
1002
{
1000
HIER
1070
     0
1002
}
1002
{
1000
MANEDIT
1070
     0
1002
}
1002
{
1000
NOSEL
1070
     0
1002
}
1002
{
1000
BEHIND
1070
     0
1002
}
1002
{
1000
REACTOR
1002
}
1001
GENIUS_GENOBJ-N-CHA_13
1002
{
1000
OWNER
1000
GEN
1002
}
  0
LINE
  5
6BFD
330
1F
100
AcDbEntity
  8
AM_0
100
AcDbLine
 10
-41.7000000000018
 20
-0.9999999999999985
 30
0.0
 11
-42.00000000000179
 21
-0.6999999999999986
 31
0.0
1001
GENIUS_GENFIL_13
1070
     0
1040
0.3
1040
0.3
1040
20.0
1040
0.0
1002
{
1002
}
1001
GENIUS_GENODEF_13
1002
{
1000
HIER
1070
     0
1002
}
1002
{
1000
MANEDIT
1070
     0
1002
}
1002
{
1000
NOSEL
1070
     0
1002
}
1002
{
1000
BEHIND
1070
     0
1002
}
1002
{
1000
REACTOR
1002
}
1001
GENIUS_GENOBJ-N-CHA_13
1002
{
1000
OWNER
1000
GEN
1002
}
  0
SPLINE
  5
723E
330
1F
100
AcDbEntity
  8
AM_0
100
AcDbSpline
210
0.0
220
0.0
230
1.0
 70
     8
 71
     3
 72
     8
 73
     4
 74
     0
 42
0.0000000001
 43
0.0000000001
 40
2.893239258405414
 40
2.893239258405414
 40
2.893239258405414
 40
2.893239258405414
 40
2.897999309868792
 40
2.897999309868792
 40
2.897999309868792
 40
2.897999309868792
 10
-14.45528404209708
 20
0.8999854464608283
 30
0.0
 10
-14.45793791536602
 20
0.8999951429677857
 30
0.0
 10
-14.46059258970103
 20
0.8999999991977638
 30
0.0
 10
-14.46324806774236
 20
0.8999999991977638
 30
0.0
  0
LINE
  5
725C
330
1F
100
AcDbEntity
  8
AM_0
100
AcDbLine
 10
-0.0000000000000533
 20
0.0000000000001421
 30
0.0
 11
-0.3275732108397591
 21
0.9000000000001406
 31
0.0
  0
LINE
  5
725D
330
1F
100
AcDbEntity
  8
AM_0
100
AcDbLine
 10
-0.3275732108397591
 20
-0.8999999999998582
 30
0.0
 11
-0.0000000000000533
 21
0.0000000000001421
 31
0.0
  0
LINE
  5
725E
330
1F
100
AcDbEntity
  8
AM_0
100
AcDbLine
 10
-0.1640682081094231
 20
0.1562833599003817
 30
0.0
 11
-0.0568824911148695
 21
0.1562833599003817
 31
0.0
  0
LINE
  5
725F
330
1F
100
AcDbEntity
  8
AM_0
100
AcDbLine
 10
-0.0000000000001812
 20
0.0000000000001421
 30
0.0
 11
-0.1640682081094231
 21
0.1562833599003817
 31
0.0
  0
LINE
  5
7260
330
1F
100
AcDbEntity
  8
AM_0
100
AcDbLine
 10
-0.3052002756519466
 20
-0.0705555134038054
 30
0.0
 11
-0.0000000000001812
 21
0.0000000000001421
 31
0.0
  0
LINE
  5
7264
330
1F
100
AcDbEntity
  8
AM_0
100
AcDbLine
 10
-9.94249517861995
 20
-0.8999999999998582
 30
0.0
 11
-12.00000000000179
 21
-0.8999999999998582
 31
0.0
  0
LINE
  5
7265
330
1F
100
AcDbEntity
  8
AM_0
100
AcDbLine
 10
-9.581521123065256
 20
0.9000000000001406
 30
0.0
 11
-12.00000000000179
 21
0.9000000000001406
 31
0.0
  0
SPLINE
  5
72FC
330
1F
100
AcDbEntity
  8
AM_0
100
AcDbSpline
210
0.0
220
0.0
230
1.0
 70
     8
 71
     3
 72
     9
 73
     5
 74
     0
 42
0.0000000001
 43
0.0000000001
 40
0.0
 40
0.0
 40
0.0
 40
0.0
 40
0.0353107615743204
 40
0.4098003053212364
 40
0.4098003053212364
 40
0.4098003053212364
 40
0.4098003053212364
 10
-0.1640682081094231
 20
0.1562833599003817
 30
0.0
 10
-0.1631422655525204
 20
0.1335195706738581
 30
0.0
 10
-0.1523962061188373
 20
-0.1306663986845997
 30
0.0
 10
-0.5055609512239874
 20
0.2425035063037555
 30
0.0
 10
-0.6157227907757484
 20
0.4146288866998447
 30
0.0
  0
LINE
  5
72FD
330
1F
100
AcDbEntity
  8
AM_0
100
AcDbLine
 10
-0.3052002756519466
 20
-0.0705555134038054
 30
0.0
 11
-0.6157227907757484
 21
0.4146288866998447
 31
0.0
  0
LINE
  5
72FE
330
1F
100
AcDbEntity
  8
AM_0
100
AcDbLine
 10
-0.3275732108397591
 20
-0.8999999999998582
 30
0.0
 11
-0.3052002756519466
 21
-0.0705555134038054
 31
0.0
  0
LINE
  5
72FF
330
1F
100
AcDbEntity
  8
AM_11
 48
0.1
100
AcDbLine
 10
-3.984193495380687
 20
0.9000000000001406
 30
0.0
 11
-5.641240635675501
 21
0.9000000000001406
 31
0.0
  0
SPLINE
  5
7300
330
1F
100
AcDbEntity
  8
AM_0
100
AcDbSpline
210
0.0
220
0.0
230
1.0
 70
     8
 71
     3
 72
     8
 73
     4
 74
     0
 42
0.0000000001
 43
0.0000000001
 40
0.0
 40
0.0
 40
0.0
 40
0.0
 40
6.247244990625308
 40
6.247244990625308
 40
6.247244990625308
 40
6.247244990625308
 10
-3.984193495380693
 20
0.9000000000001406
 30
0.0
 10
-4.27009242147268
 20
0.9000000000001406
 30
0.0
 10
-4.544634858702652
 20
0.8163524886274835
 30
0.0
 10
-4.812717065528147
 20
0.6851214148708174
 30
0.0
  0
SPLINE
  5
7301
330
1F
100
AcDbEntity
  8
AM_0
100
AcDbSpline
210
0.0
220
0.0
230
1.0
 70
     8
 71
     3
 72
     9
 73
     5
 74
     0
 42
0.0000000001
 43
0.0000000001
 40
0.0
 40
0.0
 40
0.0
 40
0.0
 40
0.1987770877846628
 40
5.759128114445015
 40
5.759128114445015
 40
5.759128114445015
 40
5.759128114445015
 10
-3.956902990838316
 20
0.8016955991626559
 30
0.0
 10
-3.965999825685459
 20
0.8016955991626559
 30
0.0
 10
-4.229695524905811
 20
0.8028043865863345
 30
0.0
 10
-4.485571214559326
 20
0.7396638292198148
 30
0.0
 10
-4.728158108597494
 20
0.6420820438162913
 30
0.0
  0
SPLINE
  5
7302
330
1F
100
AcDbEntity
  8
AM_0
100
AcDbSpline
210
0.0
220
0.0
230
1.0
 70
     8
 71
     3
 72
     8
 73
     4
 74
     0
 42
0.0000000001
 43
0.0000000001
 40
0.0
 40
0.0
 40
0.0
 40
0.0
 40
6.870645942600294
 40
6.870645942600294
 40
6.870645942600294
 40
6.870645942600294
 10
-3.984193495380693
 20
0.8016955991638177
 30
0.0
 10
-3.669766867857812
 20
0.8030190545841193
 30
0.0
 10
-3.354143512730061
 20
0.7396002671026594
 30
0.0
 10
-3.046229028885361
 20
0.628808918375249
 30
0.0
  0
LINE
  5
7303
330
1F
100
AcDbEntity
  8
AM_0
100
AcDbLine
 10
-1.906898152850762
 20
0.9000000000001406
 30
0.0
 11
-3.984193495380482
 21
0.9000000000001406
 31
0.0
  0
SPLINE
  5
7304
330
1F
100
AcDbEntity
  8
AM_0
100
AcDbSpline
210
0.0
220
0.0
230
1.0
 70
     8
 71
     3
 72
     8
 73
     4
 74
     0
 42
0.0000000001
 43
0.0000000001
 40
22.73274810806179
 40
22.73274810806179
 40
22.73274810806179
 40
22.73274810806179
 40
28.97999309868792
 40
28.97999309868792
 40
28.97999309868792
 40
28.97999309868792
 10
-1.078374582703409
 20
-0.6851214148704976
 30
0.0
 10
-1.346456789528934
 20
-0.8163524886271886
 30
0.0
 10
-1.620999226758946
 20
-0.89999999999986
 30
0.0
 10
-1.906898152850976
 20
-0.89999999999986
 30
0.0
  0
SPLINE
  5
7305
330
1F
100
AcDbEntity
  8
AM_0
100
AcDbSpline
210
0.0
220
0.0
230
1.0
 70
     8
 71
     3
 72
     8
 73
     4
 74
     0
 42
0.0000000001
 43
0.0000000001
 40
22.73274810806179
 40
22.73274810806179
 40
22.73274810806179
 40
22.73274810806179
 40
28.97999309868792
 40
28.97999309868792
 40
28.97999309868792
 40
28.97999309868792
 10
-5.018655070094664
 20
-0.6851214148704976
 30
0.0
 10
-5.286737276920189
 20
-0.8163524886271886
 30
0.0
 10
-5.561279714150201
 20
-0.89999999999986
 30
0.0
 10
-5.847178640242225
 20
-0.89999999999986
 30
0.0
  0
LINE
  5
7306
330
1F
100
AcDbEntity
  8
AM_11
 48
0.1
100
AcDbLine
 10
-4.190131499947058
 20
-0.8999999999998582
 30
0.0
 11
-5.847178640242018
 21
-0.8999999999998582
 31
0.0
  0
LINE
  5
7307
330
1F
100
AcDbEntity
  8
AM_0
100
AcDbLine
 10
-1.906898152850762
 20
-0.8999999999998582
 30
0.0
 11
-4.190131499947058
 21
-0.8999999999998582
 31
0.0
  0
SPLINE
  5
7308
330
1F
100
AcDbEntity
  8
AM_0
100
AcDbSpline
210
0.0
220
0.0
230
1.0
 70
     8
 71
     3
 72
     9
 73
     5
 74
     0
 42
0.0000000001
 43
0.0000000001
 40
0.0
 40
0.0
 40
0.0
 40
0.0
 40
1.448999654934399
 40
2.897999309868795
 40
2.897999309868795
 40
2.897999309868795
 40
2.897999309868795
 10
-1.906898152850768
 20
-0.89999999999986
 30
0.0
 10
-2.57001836964244
 20
-0.89999999999986
 30
0.0
 10
-3.774069394263182
 20
0.0000000000001172
 30
0.0
 10
-4.97812041888393
 20
0.9000000000001406
 30
0.0
 10
-5.641240635675596
 20
0.9000000000001406
 30
0.0
  0
SPLINE
  5
7309
330
1F
100
AcDbEntity
  8
AM_0
100
AcDbSpline
210
0.0
220
0.0
230
1.0
 70
     8
 71
     3
 72
     9
 73
     5
 74
     0
 42
0.0000000001
 43
0.0000000001
 40
0.0
 40
0.0
 40
0.0
 40
0.0
 40
0.1987770877846628
 40
5.759128114460802
 40
5.759128114460802
 40
5.759128114460802
 40
5.759128114460802
 10
-0.2915735546273333
 20
0.8010917574484091
 30
0.0
 10
-0.291534974530542
 20
0.8009857595036343
 30
0.0
 10
-0.4953530420826714
 20
0.8028043865886509
 30
0.0
 10
-0.7512287317368559
 20
0.7396638292217724
 30
0.0
 10
-0.993815625775692
 20
0.6420820438177728
 30
0.0
  0
SPLINE
  5
730A
330
1F
100
AcDbEntity
  8
AM_0
100
AcDbSpline
210
0.0
220
0.0
230
1.0
 70
     8
 71
     3
 72
     8
 73
     4
 74
     0
 42
0.0000000001
 43
0.0000000001
 40
0.0
 40
0.0
 40
0.0
 40
0.0
 40
6.247244990626095
 40
6.247244990626095
 40
6.247244990626095
 40
6.247244990626095
 10
-0.3275732108397591
 20
0.9000000000001406
 30
0.0
 10
-0.535749938647883
 20
0.9000000000001406
 30
0.0
 10
-0.8102923758779015
 20
0.8163524886274586
 30
0.0
 10
-1.078374582703426
 20
0.6851214148707534
 30
0.0
  0
LINE
  5
730B
330
1F
100
AcDbEntity
  8
AM_11
 48
0.1
100
AcDbLine
 10
-0.327573230274371
 20
0.8998248042035385
 30
0.0
 11
-1.906898152850762
 21
0.9000000000001406
 31
0.0
  0
SPLINE
  5
730C
330
1F
100
AcDbEntity
  8
AM_0
100
AcDbSpline
210
0.0
220
0.0
230
1.0
 70
     8
 71
     3
 72
     8
 73
     4
 74
     0
 42
0.0000000001
 43
0.0000000001
 40
19.09542421355049
 40
19.09542421355049
 40
19.09542421355049
 40
19.09542421355049
 40
28.97999309868792
 40
28.97999309868792
 40
28.97999309868792
 40
28.97999309868792
 10
-0.6157227907757484
 20
0.4146288866998447
 30
0.0
 10
-1.030613679068927
 20
0.6905928942644622
 30
0.0
 10
-1.45454073235861
 20
0.9000000000001406
 30
0.0
 10
-1.906898152850976
 20
0.9000000000001406
 30
0.0
  0
LINE
  5
730D
330
1F
100
AcDbEntity
  8
AM_11
 48
0.1
100
AcDbLine
 10
-0.3275732108397591
 20
-0.8999999999998582
 30
0.0
 11
-1.906898152850762
 21
-0.8999999999998582
 31
0.0
  0
SPLINE
  5
730E
330
1F
100
AcDbEntity
  8
AM_0
100
AcDbSpline
210
0.0
220
0.0
230
1.0
 70
     8
 71
     3
 72
     9
 73
     5
 74
     0
 42
0.0000000001
 43
0.0000000001
 40
1.521176736886217
 40
1.521176736886217
 40
1.521176736886217
 40
1.521176736886217
 40
14.48999654934396
 40
28.97999309868792
 40
28.97999309868792
 40
28.97999309868792
 40
28.97999309868792
 10
-0.3268731438130122
 20
-0.874046018963916
 30
0.0
 10
-0.8334359055839273
 20
-0.8055169503638204
 30
0.0
 10
-1.974285589802713
 20
0.0472415248181584
 30
0.0
 10
-3.11513527402148
 20
0.9000000000001406
 30
0.0
 10
-3.77825549081314
 20
0.9000000000001406
 30
0.0
  0
SPLINE
  5
730F
330
1F
100
AcDbEntity
  8
AM_0
100
AcDbSpline
210
0.0
220
0.0
230
1.0
 70
     8
 71
     3
 72
     9
 73
     5
 74
     0
 42
0.0000000001
 43
0.0000000001
 40
0.0
 40
0.0
 40
0.0
 40
0.0
 40
1.448999654934392
 40
2.897999309868792
 40
2.897999309868792
 40
2.897999309868792
 40
2.897999309868792
 10
-0.3275732108397591
 20
-0.8999999999998582
 30
0.0
 10
-0.912971229347525
 20
-0.89999999999986
 30
0.0
 10
-2.117022253968273
 20
0.0000000000001172
 30
0.0
 10
-3.321073278589015
 20
0.9000000000001406
 30
0.0
 10
-3.984193495380693
 20
0.9000000000001406
 30
0.0
  0
SPLINE
  5
7310
330
1F
100
AcDbEntity
  8
AM_0
100
AcDbSpline
210
0.0
220
0.0
230
1.0
 70
     8
 71
     3
 72
     8
 73
     4
 74
     0
 42
0.0000000001
 43
0.0000000001
 40
0.0
 40
0.0
 40
0.0
 40
0.0
 40
6.870645942600294
 40
6.870645942600294
 40
6.870645942600294
 40
6.870645942600294
 10
-7.924473982771941
 20
0.8016955991638177
 30
0.0
 10
-7.610047355249061
 20
0.8030190545841193
 30
0.0
 10
-7.29442400012131
 20
0.7396002671026594
 30
0.0
 10
-6.986509516276616
 20
0.628808918375249
 30
0.0
  0
LINE
  5
7311
330
1F
100
AcDbEntity
  8
AM_11
 48
0.1
100
AcDbLine
 10
-8.049999835437509
 20
0.9000000000001406
 30
0.0
 11
-9.581521123066847
 21
0.9000000000001406
 31
0.0
  0
SPLINE
  5
7312
330
1F
100
AcDbEntity
  8
AM_0
100
AcDbSpline
210
0.0
220
0.0
230
1.0
 70
     8
 71
     3
 72
     8
 73
     4
 74
     0
 42
0.0000000001
 43
0.0000000001
 40
0.0
 40
0.0
 40
0.0
 40
0.0
 40
6.247244990625308
 40
6.247244990625308
 40
6.247244990625308
 40
6.247244990625308
 10
-7.924473982771941
 20
0.9000000000001406
 30
0.0
 10
-8.210372908863929
 20
0.9000000000001406
 30
0.0
 10
-8.484915346093906
 20
0.8163524886274835
 30
0.0
 10
-8.752997552919396
 20
0.6851214148708174
 30
0.0
  0
SPLINE
  5
7313
330
1F
100
AcDbEntity
  8
AM_0
100
AcDbSpline
210
0.0
220
0.0
230
1.0
 70
     8
 71
     3
 72
     9
 73
     5
 74
     0
 42
0.0000000001
 43
0.0000000001
 40
0.0
 40
0.0
 40
0.0
 40
0.0
 40
0.1987770877846628
 40
5.759128114445015
 40
5.759128114445015
 40
5.759128114445015
 40
5.759128114445015
 10
-7.897183478229565
 20
0.8016955991626559
 30
0.0
 10
-7.906280313076708
 20
0.8016955991626559
 30
0.0
 10
-8.169976012297061
 20
0.8028043865863345
 30
0.0
 10
-8.425851701950575
 20
0.7396638292198148
 30
0.0
 10
-8.668438595988749
 20
0.6420820438162913
 30
0.0
  0
LINE
  5
7314
330
1F
100
AcDbEntity
  8
AM_11
 48
0.1
100
AcDbLine
 10
-8.25919995368333
 20
-0.9000000008022368
 30
0.0
 11
-9.942495177528916
 21
-0.9000000008022368
 31
0.0
  0
SPLINE
  5
7315
330
1F
100
AcDbEntity
  8
AM_0
100
AcDbSpline
210
0.0
220
0.0
230
1.0
 70
     8
 71
     3
 72
     9
 73
     5
 74
     0
 42
0.0000000001
 43
0.0000000001
 40
0.0
 40
0.0
 40
0.0
 40
0.0
 40
1.448999654934392
 40
1.692872608825329
 40
1.692872608825329
 40
1.692872608825329
 40
1.692872608825329
 10
-8.259199953683328
 20
-0.9000000008022368
 30
0.0
 10
-8.932824177531344
 20
-0.9000000008022368
 30
0.0
 10
-9.647314448562777
 20
-0.3742630405640384
 30
0.0
 10
-10.36180471959421
 20
0.1514739196741637
 30
0.0
 10
-10.465029107851
 20
0.2250655277932907
 30
0.0
  0
SPLINE
  5
7316
330
1F
100
AcDbEntity
  8
AM_0
100
AcDbSpline
210
0.0
220
0.0
230
1.0
 70
     8
 71
     3
 72
     9
 73
     5
 74
     0
 42
0.0000000001
 43
0.0000000001
 40
1.521176736886217
 40
1.521176736886217
 40
1.521176736886217
 40
1.521176736886217
 40
14.48999654934396
 40
28.97999309868792
 40
28.97999309868792
 40
28.97999309868792
 40
28.97999309868792
 10
-8.259199953683328
 20
-0.9000000008022368
 30
0.0
 10
-8.852028992311424
 20
-0.8055169511662008
 30
0.0
 10
-10.0109500500607
 20
0.0472415240157815
 30
0.0
 10
-11.16987110780995
 20
0.8999999991977638
 30
0.0
 10
-11.84349533165796
 20
0.8999999991977638
 30
0.0
  0
SPLINE
  5
7317
330
1F
100
AcDbEntity
  8
AM_0
100
AcDbSpline
210
0.0
220
0.0
230
1.0
 70
     8
 71
     3
 72
     9
 73
     5
 74
     0
 42
0.0000000001
 43
0.0000000001
 40
0.0
 40
0.0
 40
0.0
 40
0.0
 40
1.448999654934399
 40
2.897999309868795
 40
2.897999309868795
 40
2.897999309868795
 40
2.897999309868795
 10
-5.847178640242018
 20
-0.89999999999986
 30
0.0
 10
-6.510298857033689
 20
-0.89999999999986
 30
0.0
 10
-7.714349881654437
 20
0.0000000000001172
 30
0.0
 10
-8.918400906275179
 20
0.9000000000001406
 30
0.0
 10
-9.581521123066851
 20
0.9000000000001406
 30
0.0
  0
LINE
  5
7318
330
1F
100
AcDbEntity
  8
AM_0
100
AcDbLine
 10
-5.730599442635931
 20
-0.8999999999998582
 30
0.0
 11
-8.259478556971123
 21
-0.8999999999998582
 31
0.0
  0
LINE
  5
7319
330
1F
100
AcDbEntity
  8
AM_0
100
AcDbLine
 10
-5.641240635668959
 20
0.9000000000001406
 30
0.0
 11
-8.049999835437509
 21
0.9000000000001406
 31
0.0
  0
SPLINE
  5
731A
330
1F
100
AcDbEntity
  8
AM_0
100
AcDbSpline
210
0.0
220
0.0
230
1.0
 70
     8
 71
     3
 72
     9
 73
     5
 74
     0
 42
0.0000000001
 43
0.0000000001
 40
1.521176736886217
 40
1.521176736886217
 40
1.521176736886217
 40
1.521176736886217
 40
14.48999654934396
 40
28.97999309868792
 40
28.97999309868792
 40
28.97999309868792
 40
28.97999309868792
 10
-4.191089600767256
 20
-0.8999999999998582
 30
0.0
 10
-4.773716392975129
 20
-0.8055169503638204
 30
0.0
 10
-5.914566077193915
 20
0.0472415248181584
 30
0.0
 10
-7.055415761412676
 20
0.9000000000001406
 30
0.0
 10
-7.718535978204342
 20
0.9000000000001406
 30
0.0
  0
SPLINE
  5
731B
330
1F
100
AcDbEntity
  8
AM_0
100
AcDbSpline
210
0.0
220
0.0
230
1.0
 70
     8
 71
     3
 72
     9
 73
     5
 74
     0
 42
0.0000000001
 43
0.0000000001
 40
0.0
 40
0.0
 40
0.0
 40
0.0
 40
1.448999654934392
 40
2.897999309868792
 40
2.897999309868792
 40
2.897999309868792
 40
2.897999309868792
 10
-4.213202930668881
 20
-0.8998187417433527
 30
0.0
 10
-4.853251716738785
 20
-0.89999999999986
 30
0.0
 10
-6.057302741359522
 20
0.0000000000001172
 30
0.0
 10
-7.26135376598027
 20
0.9000000000001406
 30
0.0
 10
-7.924473982771941
 20
0.9000000000001406
 30
0.0
  0
SPLINE
  5
7339
330
1F
100
AcDbEntity
  8
AM_0
100
AcDbSpline
210
0.0
220
0.0
230
1.0
 70
     8
 71
     3
 72
     8
 73
     4
 74
     0
 42
0.0000000001
 43
0.0000000001
 40
22.73274810806179
 40
22.73274810806179
 40
22.73274810806179
 40
22.73274810806179
 40
28.97999309868792
 40
28.97999309868792
 40
28.97999309868792
 40
28.97999309868792
 10
-9.100847565605532
 20
-0.685121415672878
 30
0.0
 10
-9.373176268497473
 20
-0.8163524894295655
 30
0.0
 10
-9.65206753362459
 20
-0.9000000008022368
 30
0.0
 10
-9.942495177528279
 20
-0.9000000008022368
 30
0.0
  0
SPLINE
  5
733A
330
1F
100
AcDbEntity
  8
AM_0
100
AcDbSpline
210
0.0
220
0.0
230
1.0
 70
     8
 71
     3
 72
     8
 73
     4
 74
     0
 42
0.0000000001
 43
0.0000000001
 40
0.0
 40
0.0
 40
0.0
 40
0.0
 40
10.77533687840354
 40
10.77533687840354
 40
10.77533687840354
 40
10.77533687840354
 10
-9.94249517861995
 20
-0.89999999999986
 30
0.0
 10
-10.44342890325522
 20
-0.89999999999986
 30
0.0
 10
-10.91004208528032
 20
-0.6511499896198494
 30
0.0
 10
-11.36785684315918
 20
-0.3385047192117234
 30
0.0
  0
SPLINE
  5
733B
330
1F
100
AcDbEntity
  8
AM_0
100
AcDbSpline
210
0.0
220
0.0
230
1.0
 70
     8
 71
     3
 72
    10
 73
     6
 74
     0
 42
0.0000000001
 43
0.0000000001
 40
0.0
 40
0.0
 40
0.0
 40
0.0
 40
0.6447675857635071
 40
1.316546974011651
 40
1.777238964087921
 40
1.777238964087921
 40
1.777238964087921
 40
1.777238964087921
 10
-11.36785474310464
 20
-0.3385061533548708
 30
0.0
 10
-11.6327973453992
 20
-0.1575749064801073
 30
0.0
 10
-12.46415562279953
 20
0.7541924713182518
 30
0.0
 10
-11.05263190286244
 20
0.6080478044292086
 30
0.0
 10
-10.65240680076044
 20
0.358654964366135
 30
0.0
 10
-10.46496560004094
 20
0.2250202509403572
 30
0.0
  0
VIEWPORT
  5
E2
330
1B
100
AcDbEntity
 67
     1
  8
0
100
AcDbViewport
 10
158.659971393327
 20
148.5
 30
0.0
 40
581.809078125
 41
314.226
 68
     1
 69
     1
1001
ACAD
1000
MVIEW
1002
{
1070
    16
1010
0.0
1020
0.0
1030
0.0
1010
0.0
1020
0.0
1030
1.0
1040
0.0
1040
314.226
1040
158.659971393327
1040
148.5
1040
50.0
1040
0.0
1040
0.0
1070
     0
1070
   100
1070
     1
1070
     1
1070
     0
1070
     0
1070
     0
1070
     0
1040
0.0
1040
0.0
1040
0.0
1040
10.0
1040
10.0
1040
10.0
1040
10.0
1070
     0
1002
{
1002
}
1002
}
  0
ENDSEC
  0
SECTION
  2
OBJECTS
  0
DICTIONARY
  5
C
330
0
100
AcDbDictionary
  3
ACAD_GROUP
350
D
  3
ACAD_LAYOUT
350
1A
  3
ACAD_MLINESTYLE
350
17
  3
ACAD_PLOTSETTINGS
350
19
  3
ACAD_PLOTSTYLENAME
350
E
  3
ACDBVARIABLEDICTIONARY
350
34
  3
ACMDICTIONARY
350
43
  3
AMG
350
2B
  3
AMGSNAPSETTINGS
350
6E
  3
DWGPROPS
350
73E1
  3
ACDBHEADERROUNDTRIPXREC
350
73F0
  0
DICTIONARY
  5
74
330
1F
100
AcDbDictionary
280
     1
  3
ACAD_INDEX
360
73E3
  3
ACAD_LAYOUTSELFREF
360
7413
  0
DICTIONARY
  5
7411
330
1B
100
AcDbDictionary
280
     1
  3
ACAD_LAYOUTSELFREF
360
7412
  0
DICTIONARY
  5
D
102
{ACAD_REACTORS
330
C
102
}
330
C
100
AcDbDictionary
  0
DICTIONARY
  5
1A
102
{ACAD_REACTORS
330
C
102
}
330
C
100
AcDbDictionary
  0
DICTIONARY
  5
17
102
{ACAD_REACTORS
330
C
102
}
330
C
100
AcDbDictionary
  3
STANDARD
350
18
  0
DICTIONARY
  5
19
102
{ACAD_REACTORS
330
C
102
}
330
C
100
AcDbDictionary
  0
ACDBDICTIONARYWDFLT
  5
E
102
{ACAD_REACTORS
330
C
102
}
330
C
100
AcDbDictionary
281
     1
  3
Normal
350
F
100
AcDbDictionaryWithDefault
340
F
  0
DICTIONARY
  5
34
102
{ACAD_REACTORS
330
C
102
}
330
C
100
AcDbDictionary
  3
INDEXCTL
350
35
  3
SORTENTS
350
B5E
  0
DICTIONARY
  5
43
102
{ACAD_REACTORS
330
C
102
}
330
C
100
AcDbDictionary
  3
ACMSTDDICTIONARY
350
260
  0
DICTIONARY
  5
2B
102
{ACAD_REACTORS
330
C
102
}
330
C
100
AcDbDictionary
  3
ACMGSETTINGS
350
2C
  0
DICTIONARY
  5
6E
102
{ACAD_REACTORS
330
C
102
}
330
C
100
AcDbDictionary
  0
XRECORD
  5
73E1
102
{ACAD_REACTORS
330
C
102
}
330
C
100
AcDbXrecord
  1
DWGPROPS COOKIE
  2

  3

  4

  6

  7

  8

  9

300
AmdtFileType=82
301
=
302
=
303
=
304
=
305
=
306
=
307
=
308
=
309
=
 40
1.17398568287037
 41
2452838.620506898
 42
2452955.021858252
  1

 90
        1
  0
DICTIONARY
  5
73F0
102
{ACAD_REACTORS
330
C
102
}
330
C
100
AcDbDictionary
  3
TSTACKALIGN
350
73F1
  3
TSTACKSIZE
350
73F2
  3
HYPERLINKBASE
350
73F3
  3
STYLESHEET
350
73F4
  3
LAYOUTDICT
350
73F5
  3
PLOTSETDICT
350
73F6
  3
PLOTSTYLNAMDICT
350
73F7
  3
LWETCUNION
350
73F8
  3
INSUNITS
350
73F9
  3
CEPSNTYPE
350
73FA
  3
FINGERPRINTGUID
350
73FB
  3
VERSIONGUID
350
73FC
  3
PSVPSCALE
350
73FD
  3
DIMSTYLEDATA
350
73FE
  3
PUCSORTHOREF
350
73FF
  3
PUCSORTHOVIEW
350
7400
  3
PUCSBASE
350
7401
  3
PUCSORGTOP
350
7402
  3
PUCSORGBOTTOM
350
7403
  3
PUCSORGLEFT
350
7404
  3
PUCSORGRIGHT
350
7405
  3
PUCSORGFRONT
350
7406
  3
PUCSORGBACK
350
7407
  3
UCSORTHOREF
350
7408
  3
UCSORTHOVIEW
350
7409
  3
UCSBASE
350
740A
  3
UCSORGTOP
350
740B
  3
UCSORGBOTTOM
350
740C
  3
UCSORGLEFT
350
740D
  3
UCSORGRIGHT
350
740E
  3
UCSORGFRONT
350
740F
  3
UCSORGBACK
350
7410
  0
DICTIONARY
  5
73E3
102
{ACAD_REACTORS
330
74
102
}
330
74
100
AcDbDictionary
  3
*A1
350
73E4
  0
XRECORD
  5
7413
102
{ACAD_REACTORS
330
74
102
}
330
74
100
AcDbXrecord
340
1F
  0
XRECORD
  5
7412
102
{ACAD_REACTORS
330
7411
102
}
330
7411
100
AcDbXrecord
340
1B
  0
MLINESTYLE
  5
18
102
{ACAD_REACTORS
330
17
102
}
330
17
100
AcDbMlineStyle
  2
STANDARD
 70
     0
  3

 62
   256
 51
90.0
 52
90.0
 71
     2
 49
0.5
 62
   256
  6
BYLAYER
 49
-0.5
 62
   256
  6
BYLAYER
  0
ACDBPLACEHOLDER
  5
F
102
{ACAD_REACTORS
330
E
102
}
330
E
100
AcDbPlaceHolder
280
     0
  0
DICTIONARYVAR
  5
35
102
{ACAD_REACTORS
330
34
102
}
330
34
100
DictionaryVariables
280
     0
  1
1
  0
DICTIONARYVAR
  5
B5E
102
{ACAD_REACTORS
330
34
102
}
330
34
100
DictionaryVariables
280
     0
  1
96
  0
DICTIONARY
  5
260
102
{ACAD_REACTORS
330
43
102
}
330
43
100
AcDbDictionary
  0
DICTIONARY
  5
2C
102
{ACAD_REACTORS
330
2B
102
}
330
2B
100
AcDbDictionary
  3
DWGSETTINGS
350
2D
  0
XRECORD
  5
73F1
102
{ACAD_REACTORS
330
73F0
102
}
330
73F0
100
AcDbXrecord
 90
        1
  0
XRECORD
  5
73F2
102
{ACAD_REACTORS
330
73F0
102
}
330
73F0
100
AcDbXrecord
 90
       70
  0
XRECORD
  5
73F3
102
{ACAD_REACTORS
330
73F0
102
}
330
73F0
100
AcDbXrecord
  1

  0
XRECORD
  5
73F4
102
{ACAD_REACTORS
330
73F0
102
}
330
73F0
100
AcDbXrecord
  1
ASAMI.ctb
  0
XRECORD
  5
73F5
102
{ACAD_REACTORS
330
73F0
102
}
330
73F0
100
AcDbXrecord
340
1A
  0
XRECORD
  5
73F6
102
{ACAD_REACTORS
330
73F0
102
}
330
73F0
100
AcDbXrecord
340
19
  0
XRECORD
  5
73F7
102
{ACAD_REACTORS
330
73F0
102
}
330
73F0
100
AcDbXrecord
340
E
  0
XRECORD
  5
73F8
102
{ACAD_REACTORS
330
73F0
102
}
330
73F0
100
AcDbXrecord
 90
    10781
  0
XRECORD
  5
73F9
102
{ACAD_REACTORS
330
73F0
102
}
330
73F0
100
AcDbXrecord
 90
        4
  0
XRECORD
  5
73FA
102
{ACAD_REACTORS
330
73F0
102
}
330
73F0
100
AcDbXrecord
 90
        0
  0
XRECORD
  5
73FB
102
{ACAD_REACTORS
330
73F0
102
}
330
73F0
100
AcDbXrecord
  1
{AFB28963-8C59-40AE-9337-C84526B81ACE}
  0
XRECORD
  5
73FC
102
{ACAD_REACTORS
330
73F0
102
}
330
73F0
100
AcDbXrecord
  1
{60382AFC-FF0A-44EB-9DF0-03BC0498752C}
  0
XRECORD
  5
73FD
102
{ACAD_REACTORS
330
73F0
102
}
330
73F0
100
AcDbXrecord
 40
0.0
  0
XRECORD
  5
73FE
102
{ACAD_REACTORS
330
73F0
102
}
330
73F0
100
AcDbXrecord
1000
DSTYLE
1002
{
1070
    79
 70
     2
1070
   341
340
59
1070
   342
340
59
1070
   371
 70
    -1
1070
   372
 70
    -1
1002
}
  0
XRECORD
  5
73FF
102
{ACAD_REACTORS
330
73F0
102
}
330
73F0
100
AcDbXrecord
340
0
  0
XRECORD
  5
7400
102
{ACAD_REACTORS
330
73F0
102
}
330
73F0
100
AcDbXrecord
 70
     0
  0
XRECORD
  5
7401
102
{ACAD_REACTORS
330
73F0
102
}
330
73F0
100
AcDbXrecord
340
0
  0
XRECORD
  5
7402
102
{ACAD_REACTORS
330
73F0
102
}
330
73F0
100
AcDbXrecord
 10
0.0
 20
0.0
 30
0.0
  0
XRECORD
  5
7403
102
{ACAD_REACTORS
330
73F0
102
}
330
73F0
100
AcDbXrecord
 10
0.0
 20
0.0
 30
0.0
  0
XRECORD
  5
7404
102
{ACAD_REACTORS
330
73F0
102
}
330
73F0
100
AcDbXrecord
 10
0.0
 20
0.0
 30
0.0
  0
XRECORD
  5
7405
102
{ACAD_REACTORS
330
73F0
102
}
330
73F0
100
AcDbXrecord
 10
0.0
 20
0.0
 30
0.0
  0
XRECORD
  5
7406
102
{ACAD_REACTORS
330
73F0
102
}
330
73F0
100
AcDbXrecord
 10
0.0
 20
0.0
 30
0.0
  0
XRECORD
  5
7407
102
{ACAD_REACTORS
330
73F0
102
}
330
73F0
100
AcDbXrecord
 10
0.0
 20
0.0
 30
0.0
  0
XRECORD
  5
7408
102
{ACAD_REACTORS
330
73F0
102
}
330
73F0
100
AcDbXrecord
340
0
  0
XRECORD
  5
7409
102
{ACAD_REACTORS
330
73F0
102
}
330
73F0
100
AcDbXrecord
 70
     0
  0
XRECORD
  5
740A
102
{ACAD_REACTORS
330
73F0
102
}
330
73F0
100
AcDbXrecord
340
0
  0
XRECORD
  5
740B
102
{ACAD_REACTORS
330
73F0
102
}
330
73F0
100
AcDbXrecord
 10
0.0
 20
0.0
 30
0.0
  0
XRECORD
  5
740C
102
{ACAD_REACTORS
330
73F0
102
}
330
73F0
100
AcDbXrecord
 10
0.0
 20
0.0
 30
0.0
  0
XRECORD
  5
740D
102
{ACAD_REACTORS
330
73F0
102
}
330
73F0
100
AcDbXrecord
 10
0.0
 20
0.0
 30
0.0
  0
XRECORD
  5
740E
102
{ACAD_REACTORS
330
73F0
102
}
330
73F0
100
AcDbXrecord
 10
0.0
 20
0.0
 30
0.0
  0
XRECORD
  5
740F
102
{ACAD_REACTORS
330
73F0
102
}
330
73F0
100
AcDbXrecord
 10
0.0
 20
0.0
 30
0.0
  0
XRECORD
  5
7410
102
{ACAD_REACTORS
330
73F0
102
}
330
73F0
100
AcDbXrecord
 10
0.0
 20
0.0
 30
0.0
  0
LAYER_INDEX
  5
73E4
102
{ACAD_REACTORS
330
73E3
102
}
330
73E3
100
AcDbIndex
 40
2453151.592591852
100
AcDbLayerIndex
  8
0
360
73E5
 90
        0
  8
AM_0
360
73E6
 90
       49
  8
AM_11
360
73E7
 90
        6
  8
AM_7
360
73E8
 90
        1
  8
AM_5
360
73E9
 90
        4
  8
Defpoints
360
73EA
 90
        0
  8
AM_6
360
73EB
 90
        1
  8
AM_CL
360
73EC
 90
        0
  8
5
360
73ED
 90
        0
  8
AM_4
360
73EE
 90
        0
  0
XRECORD
  5
2D
102
{ACAD_REACTORS
330
2C
102
}
330
2C
100
AcDbXrecord
  1
VERSION
140
15.0
  1
PRODUCT
  2
AutoCAD Mechanical 2000
  0
IDBUFFER
  5
73E5
330
0
100
AcDbIdBuffer
  0
IDBUFFER
  5
73E6
330
0
100
AcDbIdBuffer
330
733B
330
631C
330
631D
330
6343
330
6348
330
6349
330
634B
330
634C
330
638E
330
63DB
330
66ED
330
6BFA
330
6BFD
330
723E
330
725C
330
725D
330
725E
330
725F
330
7260
330
7264
330
7265
330
72FC
330
72FD
330
72FE
330
7300
330
7301
330
7302
330
7303
330
7304
330
7305
330
7307
330
7308
330
7309
330
730A
330
730C
330
730E
330
730F
330
7310
330
7312
330
7313
330
7315
330
7316
330
7317
330
7318
330
7319
330
731A
330
731B
330
7339
330
733A
  0
IDBUFFER
  5
73E7
330
0
100
AcDbIdBuffer
330
72FF
330
7306
330
730B
330
730D
330
7311
330
7314
  0
IDBUFFER
  5
73E8
330
0
100
AcDbIdBuffer
330
6320
  0
IDBUFFER
  5
73E9
330
0
100
AcDbIdBuffer
330
634F
330
63C1
330
640B
330
6418
  0
IDBUFFER
  5
73EA
330
0
100
AcDbIdBuffer
  0
IDBUFFER
  5
73EB
330
0
100
AcDbIdBuffer
330
C58
  0
IDBUFFER
  5
73EC
330
0
100
AcDbIdBuffer
  0
IDBUFFER
  5
73ED
330
0
100
AcDbIdBuffer
  0
IDBUFFER
  5
73EE
330
0
100
AcDbIdBuffer
  0
ENDSEC
  0
EOF
