  0
SECTION
  2
HEADER
  9
$ACADVER
  1
AC1014
  9
$ACADMAINTVER
 70
     9
  9
$DWGCODEPAGE
  3
ANSI_932
  9
$INSBASE
 10
0.0
 20
0.0
 30
0.0
  9
$EXTMIN
 10
-51.05013981412124
 20
-27.15474464579464
 30
-0.00000001
  9
$EXTMAX
 10
17.48739900330372
 20
16.95107639034304
 30
0.00000001
  9
$LIMMIN
 10
-66.3686454431176
 20
-34.81668149412366
  9
$LIMMAX
 10
25.44717331512095
 20
25.8574469386121
  9
$ORTHOMODE
 70
     0
  9
$REGENMODE
 70
     1
  9
$FILLMODE
 70
     1
  9
$QTEXTMODE
 70
     0
  9
$MIRRTEXT
 70
     0
  9
$DRAGMODE
 70
     2
  9
$LTSCALE
 40
0.3
  9
$OSMODE
 70
    55
  9
$ATTMODE
 70
     1
  9
$TEXTSIZE
 40
2.5
  9
$TRACEWID
 40
1.0
  9
$TEXTSTYLE
  7
STANDARD
  9
$CLAYER
  8
AM_0
  9
$CELTYPE
  6
BYLAYER
  9
$CECOLOR
 62
   256
  9
$CELTSCALE
 40
1.0
  9
$DELOBJ
 70
     1
  9
$DISPSILH
 70
     0
  9
$DIMSCALE
 40
0.5
  9
$DIMASZ
 40
2.5
  9
$DIMEXO
 40
1.0
  9
$DIMDLI
 40
12.0
  9
$DIMRND
 40
0.0
  9
$DIMDLE
 40
0.0
  9
$DIMEXE
 40
1.0
  9
$DIMTP
 40
0.1
  9
$DIMTM
 40
0.1
  9
$DIMTXT
 40
3.2
  9
$DIMCEN
 40
0.0
  9
$DIMTSZ
 40
0.0
  9
$DIMTOL
 70
     0
  9
$DIMLIM
 70
     0
  9
$DIMTIH
 70
     0
  9
$DIMTOH
 70
     0
  9
$DIMSE1
 70
     0
  9
$DIMSE2
 70
     0
  9
$DIMTAD
 70
     3
  9
$DIMZIN
 70
     8
  9
$DIMBLK
  1
OPEN30
  9
$DIMASO
 70
     1
  9
$DIMSHO
 70
     1
  9
$DIMPOST
  1

  9
$DIMAPOST
  1
"
  9
$DIMALT
 70
     0
  9
$DIMALTD
 70
     2
  9
$DIMALTF
 40
0.0393701
  9
$DIMLFAC
 40
1.0
  9
$DIMTOFL
 70
     1
  9
$DIMTVP
 40
0.0
  9
$DIMTIX
 70
     0
  9
$DIMSOXD
 70
     0
  9
$DIMSAH
 70
     0
  9
$DIMBLK1
  1

  9
$DIMBLK2
  1

  9
$DIMSTYLE
  2
AM_JIS
  9
$DIMCLRD
 70
     3
  9
$DIMCLRE
 70
     3
  9
$DIMCLRT
 70
     2
  9
$DIMTFAC
 40
0.71
  9
$DIMGAP
 40
1.5
  9
$DIMJUST
 70
     0
  9
$DIMSD1
 70
     0
  9
$DIMSD2
 70
     0
  9
$DIMTOLJ
 70
     0
  9
$DIMTZIN
 70
     0
  9
$DIMALTZ
 70
     0
  9
$DIMALTTZ
 70
     0
  9
$DIMFIT
 70
     3
  9
$DIMUPT
 70
     0
  9
$DIMUNIT
 70
     2
  9
$DIMDEC
 70
     3
  9
$DIMTDEC
 70
     3
  9
$DIMALTU
 70
     2
  9
$DIMALTTD
 70
     2
  9
$DIMTXSTY
  7
ASAMI
  9
$DIMAUNIT
 70
     0
  9
$LUNITS
 70
     2
  9
$LUPREC
 70
     2
  9
$SKETCHINC
 40
1.0
  9
$FILLETRAD
 40
0.8
  9
$AUNITS
 70
     0
  9
$AUPREC
 70
     0
  9
$MENU
  1
.
  9
$ELEVATION
 40
0.0
  9
$PELEVATION
 40
0.0
  9
$THICKNESS
 40
0.0
  9
$LIMCHECK
 70
     0
  9
$BLIPMODE
 70
     0
  9
$CHAMFERA
 40
0.3
  9
$CHAMFERB
 40
0.3
  9
$CHAMFERC
 40
20.0
  9
$CHAMFERD
 40
0.0
  9
$SKPOLY
 70
     0
  9
$TDCREATE
 40
2452838.620506898
  9
$TDUPDATE
 40
2453151.593256817
  9
$TDINDWG
 40
1.3568431597
  9
$TDUSRTIMER
 40
1.3568431597
  9
$USRTIMER
 70
     1
  9
$ANGBASE
 50
0.0
  9
$ANGDIR
 70
     0
  9
$PDMODE
 70
     0
  9
$PDSIZE
 40
0.0
  9
$PLINEWID
 40
0.0
  9
$COORDS
 70
     1
  9
$SPLFRAME
 70
     0
  9
$SPLINETYPE
 70
     6
  9
$SPLINESEGS
 70
     8
  9
$ATTDIA
 70
     1
  9
$ATTREQ
 70
     1
  9
$HANDLING
 70
 12289
  9
$HANDSEED
  5
7A3C
  9
$SURFTAB1
 70
     6
  9
$SURFTAB2
 70
     6
  9
$SURFTYPE
 70
     6
  9
$SURFU
 70
     6
  9
$SURFV
 70
     6
  9
$UCSNAME
  2

  9
$UCSORG
 10
0.0
 20
0.0
 30
0.0
  9
$UCSXDIR
 10
1.0
 20
0.0
 30
0.0
  9
$UCSYDIR
 10
0.0
 20
1.0
 30
0.0
  9
$PUCSNAME
  2

  9
$PUCSORG
 10
0.0
 20
0.0
 30
0.0
  9
$PUCSXDIR
 10
1.0
 20
0.0
 30
0.0
  9
$PUCSYDIR
 10
0.0
 20
1.0
 30
0.0
  9
$USERI1
 70
     0
  9
$USERI2
 70
     0
  9
$USERI3
 70
     0
  9
$USERI4
 70
     0
  9
$USERI5
 70
     0
  9
$USERR1
 40
0.0
  9
$USERR2
 40
0.0
  9
$USERR3
 40
0.0
  9
$USERR4
 40
0.0
  9
$USERR5
 40
0.0
  9
$WORLDVIEW
 70
     1
  9
$SHADEDGE
 70
     3
  9
$SHADEDIF
 70
    70
  9
$TILEMODE
 70
     1
  9
$MAXACTVP
 70
    64
  9
$PINSBASE
 10
0.0
 20
0.0
 30
0.0
  9
$PLIMCHECK
 70
     0
  9
$PEXTMIN
 10
1.000000000000000E+20
 20
1.000000000000000E+20
 30
1.000000000000000E+20
  9
$PEXTMAX
 10
-1.000000000000000E+20
 20
-1.000000000000000E+20
 30
-1.000000000000000E+20
  9
$PLIMMIN
 10
0.0
 20
0.0
  9
$PLIMMAX
 10
210.0
 20
297.0
  9
$UNITMODE
 70
     0
  9
$VISRETAIN
 70
     1
  9
$PLINEGEN
 70
     0
  9
$PSLTSCALE
 70
     1
  9
$TREEDEPTH
 70
  3020
  9
$PICKSTYLE
 70
     0
  9
$CMLSTYLE
  2
STANDARD
  9
$CMLJUST
 70
     0
  9
$CMLSCALE
 40
20.0
  9
$PROXYGRAPHICS
 70
     1
  9
$MEASUREMENT
 70
     1
  0
ENDSEC
  0
SECTION
  2
CLASSES
  0
CLASS
  1
ACDBDICTIONARYWDFLT
  2
AcDbDictionaryWithDefault
  3
AutoCAD 2000
 90
        0
280
     0
281
     0
  0
CLASS
  1
ACDBPLACEHOLDER
  2
AcDbPlaceHolder
  3
AutoCAD 2000
 90
        0
280
     0
281
     0
  0
CLASS
  1
LAYOUT
  2
AcDbLayout
  3
AutoCAD 2000
 90
        0
280
     0
281
     0
  0
CLASS
  1
AMGSETTINGSOBJ
  2
AmgSettingsObj
  3
"AcadM|Product Description: AutoCAD Mechanical 2000|Company: Autodesk"
 90
        0
280
     0
281
     0
  0
CLASS
  1
ACME_DOCUMENT
  2
AcMeDbDoc
  3
AcMeServices
 90
        0
280
     0
281
     0
  0
CLASS
  1
ACMESCOPE
  2
AcMeScope
  3
AcMeServices
 90
        0
280
     0
281
     0
  0
CLASS
  1
ACMECOMMANDHISTORY
  2
AcMeCommandHistory
  3
AcMeServices
 90
        0
280
     0
281
     0
  0
CLASS
  1
DICTIONARYVAR
  2
AcDbDictionaryVar
  3
AutoCAD 2000
 90
        0
280
     0
281
     0
  0
CLASS
  1
ACIMSYSVARMAN
  2
AcImSysVarManager
  3
AcMeServices
 90
        0
280
     0
281
     0
  0
CLASS
  1
ACIMREALSYSVAR
  2
AcImRealSysVar
  3
AcMeServices
 90
        0
280
     0
281
     0
  0
CLASS
  1
ACIMINTSYSVAR
  2
AcImIntSysVar
  3
AcMeServices
 90
        0
280
     0
281
     0
  0
CLASS
  1
ACMEDRAWINGMAN
  2
AcMeDrawingMan
  3
AcMeServices
 90
        0
280
     0
281
     0
  0
CLASS
  1
ACMEVIEW
  2
AcMeView
  3
AcMeServices
 90
        0
280
     0
281
     0
  0
CLASS
  1
ACDBENTITYCACHE
  2
AcMeEntityCache
  3
AcMeServices
 90
        0
280
     0
281
     0
  0
CLASS
  1
GSMANAGER
  2
AcMeGSManager
  3
AcMeServices
 90
        0
280
     0
281
     0
  0
CLASS
  1
AmdtInternalReactor
  2
AmdtInternalReactor
  3
AcMeServices
 90
        0
280
     0
281
     0
  0
CLASS
  1
ACMESTATEMGR
  2
AcMeStateMgr
  3
AcMeServices
 90
        0
280
     0
281
     0
  0
CLASS
  1
ACME_DATABASE
  2
AcMeDbDatabase
  3
AcMeServices
 90
        0
280
     0
281
     0
  0
CLASS
  1
ACRFINSADJUSTERMGR
  2
AcRfInsAdjusterMgr
  3
AcMeServices
 90
        0
280
     0
281
     0
  0
CLASS
  1
ACMDATADICTIONARY
  2
AcmDataDictionary
  3
"AcmSymBB|Product Description: AutoCAD Mechanical 2000|Company: Autodesk"
 90
        0
280
     0
281
     0
  0
CLASS
  1
ACMDATAENTRYBLOCK
  2
AcmDataEntryBlock
  3
"AcmSymBB|Product Description: AutoCAD Mechanical 2000|Company: Autodesk"
 90
        0
280
     0
281
     0
  0
CLASS
  1
AMGOBJPROPCFG
  2
AmgObjPropCfg
  3
"AmgLay|Product Description: AutoCAD Mechanical 2000|Company: Autodesk"
 90
        1
280
     0
281
     0
  0
CLASS
  1
ACAMGFILTERDAT
  2
AcAmgFilterDat
  3
"AcadM|Product Description: AutoCAD Mechanical 2000|Company: Autodesk"
 90
        0
280
     0
281
     0
  0
CLASS
  1
LAYER_INDEX
  2
AcDbLayerIndex
  3
AutoCAD 2000
 90
        0
280
     0
281
     0
  0
CLASS
  1
IDBUFFER
  2
AcDbIdBuffer
  3
AutoCAD 2000
 90
        0
280
     0
281
     0
  0
CLASS
  1
ACIMSTRSYSVAR
  2
AcImStrSysVar
  3
AcMeServices
 90
        0
280
     0
281
     0
  0
CLASS
  1
ACMSTANDARDJIS
  2
AcmStandardJIS
  3
"AcmSymBB|Product Description: AutoCAD Mechanical 2000|Company: Autodesk"
 90
        0
280
     0
281
     0
  0
CLASS
  1
ACMSURFSTANDARDJIS
  2
AcmSurfTextStdJIS
  3
"AcmSymBB|Product Description: AutoCAD Mechanical 2000|Company: Autodesk"
 90
        0
280
     0
281
     0
  0
CLASS
  1
ACMFCFSTANDARDJIS
  2
AcmFCFStdJIS
  3
"AcmSymBB|Product Description: AutoCAD Mechanical 2000|Company: Autodesk"
 90
        0
280
     0
281
     0
  0
CLASS
  1
ACMWELDSTANDARDJIS
  2
AcmWeldingStdJIS
  3
"AcmSymBB|Product Description: AutoCAD Mechanical 2000|Company: Autodesk"
 90
        0
280
     0
281
     0
  0
CLASS
  1
ACMIDSTANDARDJIS
  2
AcmIdStdJIS
  3
"AcmSymBB|Product Description: AutoCAD Mechanical 2000|Company: Autodesk"
 90
        0
280
     0
281
     0
  0
CLASS
  1
ACMDATUMSTANDARDJIS
  2
AcmDatumStdJIS
  3
"AcmSymBB|Product Description: AutoCAD Mechanical 2000|Company: Autodesk"
 90
        0
280
     0
281
     0
  0
CLASS
  1
ACMBOMSTANDARDJIS
  2
AcmBOMStdJIS
  3
"AcmSymBB|Product Description: AutoCAD Mechanical 2000|Company: Autodesk"
 90
        0
280
     0
281
     0
  0
CLASS
  1
ACMSTANDARDANSI
  2
AcmStandardANSI
  3
"AcmSymBB|Product Description: AutoCAD Mechanical 2000|Company: Autodesk"
 90
        0
280
     0
281
     0
  0
CLASS
  1
ACMSURFSTANDARDANSI
  2
AcmSurfTextStdANSI
  3
"AcmSymBB|Product Description: AutoCAD Mechanical 2000|Company: Autodesk"
 90
        0
280
     0
281
     0
  0
CLASS
  1
ACMFCFSTANDARDANSI
  2
AcmFCFStdANSI
  3
"AcmSymBB|Product Description: AutoCAD Mechanical 2000|Company: Autodesk"
 90
        0
280
     0
281
     0
  0
CLASS
  1
ACMWELDSTANDARDANSI
  2
AcmWeldingStdANSI
  3
"AcmSymBB|Product Description: AutoCAD Mechanical 2000|Company: Autodesk"
 90
        0
280
     0
281
     0
  0
CLASS
  1
ACMIDSTANDARDANSI
  2
AcmIdStdANSI
  3
"AcmSymBB|Product Description: AutoCAD Mechanical 2000|Company: Autodesk"
 90
        0
280
     0
281
     0
  0
CLASS
  1
ACMDATUMSTANDARDANSI
  2
AcmDatumStdANSI
  3
"AcmSymBB|Product Description: AutoCAD Mechanical 2000|Company: Autodesk"
 90
        0
280
     0
281
     0
  0
CLASS
  1
ACMBOMSTANDARDANSI
  2
AcmBOMStdANSI
  3
"AcmSymBB|Product Description: AutoCAD Mechanical 2000|Company: Autodesk"
 90
        0
280
     0
281
     0
  0
CLASS
  1
ACMSTANDARDBSI
  2
AcmStandardBSI
  3
"AcmSymBB|Product Description: AutoCAD Mechanical 2000|Company: Autodesk"
 90
        0
280
     0
281
     0
  0
CLASS
  1
ACMSURFSTANDARDBSI
  2
AcmSurfTextStdBSI
  3
"AcmSymBB|Product Description: AutoCAD Mechanical 2000|Company: Autodesk"
 90
        0
280
     0
281
     0
  0
CLASS
  1
ACMFCFSTANDARDBSI
  2
AcmFCFStdBSI
  3
"AcmSymBB|Product Description: AutoCAD Mechanical 2000|Company: Autodesk"
 90
        0
280
     0
281
     0
  0
CLASS
  1
ACMWELDSTANDARDBSI
  2
AcmWeldingStdBSI
  3
"AcmSymBB|Product Description: AutoCAD Mechanical 2000|Company: Autodesk"
 90
        0
280
     0
281
     0
  0
CLASS
  1
ACMIDSTANDARDBSI
  2
AcmIdStdBSI
  3
"AcmSymBB|Product Description: AutoCAD Mechanical 2000|Company: Autodesk"
 90
        0
280
     0
281
     0
  0
CLASS
  1
ACMDATUMSTANDARDBSI
  2
AcmDatumStdBSI
  3
"AcmSymBB|Product Description: AutoCAD Mechanical 2000|Company: Autodesk"
 90
        0
280
     0
281
     0
  0
CLASS
  1
ACMBOMSTANDARDBSI
  2
AcmBOMStdBSI
  3
"AcmSymBB|Product Description: AutoCAD Mechanical 2000|Company: Autodesk"
 90
        0
280
     0
281
     0
  0
CLASS
  1
LONG_TRANSACTION
  2
AcDbLongTransaction
  3
AutoCAD 2000
 90
        0
280
     0
281
     0
  0
CLASS
  1
LWPOLYLINE
  2
AcDbPolyline
  3
AutoCAD 2000
 90
        0
280
     0
281
     1
  0
CLASS
  1
HATCH
  2
AcDbHatch
  3
AutoCAD 2000
 90
        0
280
     0
281
     1
  0
CLASS
  1
XRECORD
  2
AcDbXrecord
  3
AutoCAD 2000
 90
        0
280
     0
281
     0
  0
ENDSEC
  0
SECTION
  2
TABLES
  0
TABLE
  2
VPORT
  5
8
330
0
100
AcDbSymbolTable
 70
     3
  0
VPORT
  5
7A06
330
8
100
AcDbSymbolTableRecord
100
AcDbViewportTableRecord
  2
*ACTIVE
 70
     0
 10
0.0
 20
0.0
 11
1.0
 21
1.0
 12
-6.724511312600995
 22
5.061562134386427
 13
0.0
 23
0.0
 14
2.5
 24
2.5
 15
10.0
 25
10.0
 16
0.0
 26
0.0
 36
1.0
 17
0.0
 27
0.0
 37
0.0
 40
109.566278606947
 41
1.56570841889117
 42
50.0
 43
0.0
 44
0.0
 50
0.0
 51
0.0
 71
     0
 72
   100
 73
     1
 74
     3
 75
     0
 76
     0
 77
     0
 78
     0
  0
ENDTAB
  0
TABLE
  2
LTYPE
  5
5
330
0
100
AcDbSymbolTable
 70
    10
  0
LTYPE
  5
14
330
5
100
AcDbSymbolTableRecord
100
AcDbLinetypeTableRecord
  2
BYBLOCK
 70
     0
  3

 72
    65
 73
     0
 40
0.0
  0
LTYPE
  5
15
330
5
100
AcDbSymbolTableRecord
100
AcDbLinetypeTableRecord
  2
BYLAYER
 70
     0
  3

 72
    65
 73
     0
 40
0.0
  0
LTYPE
  5
16
330
5
100
AcDbSymbolTableRecord
100
AcDbLinetypeTableRecord
  2
CONTINUOUS
 70
     0
  3
Solid line
 72
    65
 73
     0
 40
0.0
  0
LTYPE
  5
4B
330
5
100
AcDbSymbolTableRecord
100
AcDbLinetypeTableRecord
  2
AM_ISO02W050
 70
     0
  3
__ __ __ __ __ __ __ __ __ __ __ __ __ __ __
 72
    65
 73
     2
 40
7.5
 49
6.0
 74
     0
 49
-1.5
 74
     0
  0
LTYPE
  5
4C
330
5
100
AcDbSymbolTableRecord
100
AcDbLinetypeTableRecord
  2
AM_ISO08W050
 70
     0
  3
____ . ____ . ____ . ____ . ____ . ____ . ____
 72
    65
 73
     4
 40
18.0
 49
12.0
 74
     0
 49
-1.5
 74
     0
 49
3.0
 74
     0
 49
-1.5
 74
     0
  0
LTYPE
  5
4D
330
5
100
AcDbSymbolTableRecord
100
AcDbLinetypeTableRecord
  2
AM_ISO09W050
 70
     0
  3
_____ . . _____ . . _____ . . ____ .. ____
 72
    65
 73
     6
 40
22.5
 49
12.0
 74
     0
 49
-1.5
 74
     0
 49
3.0
 74
     0
 49
-1.5
 74
     0
 49
3.0
 74
     0
 49
-1.5
 74
     0
  0
LTYPE
  5
4E
330
5
100
AcDbSymbolTableRecord
100
AcDbLinetypeTableRecord
  2
AMCONSTR
 70
     0
  3
_______________________
 72
    65
 73
     2
 40
9999.0
 49
9999.0
 74
     0
 49
0.0
 74
     0
  0
LTYPE
  5
4F
330
5
100
AcDbSymbolTableRecord
100
AcDbLinetypeTableRecord
  2
AM_ISO02W050X2
 70
     0
  3
 _ _ _ _ _ _ _ _ _ _ _ _
 72
    65
 73
     2
 40
3.75
 49
3.0
 74
     0
 49
-0.75
 74
     0
  0
LTYPE
  5
50
330
5
100
AcDbSymbolTableRecord
100
AcDbLinetypeTableRecord
  2
AM_ISO08W050X2
 70
     0
  3
__ . __ . __ . __ . __ . __
 72
    65
 73
     4
 40
9.0
 49
6.0
 74
     0
 49
-0.75
 74
     0
 49
1.5
 74
     0
 49
-0.75
 74
     0
  0
LTYPE
  5
53
330
5
100
AcDbSymbolTableRecord
100
AcDbLinetypeTableRecord
  2
AMZIGZAG
 70
     0
  3
/\/-/\/-/\/-/\/-/\/-/\/
 72
    65
 73
     2
 40
11.00009999999999
 49
0.0001
 74
     4
 75
   135
340
52
 46
0.04
 50
0.0
 44
0.0
 45
0.0
 49
-11.0
 74
     0
  0
LTYPE
  5
166
330
5
100
AcDbSymbolTableRecord
100
AcDbLinetypeTableRecord
  2
ACJISTGL
 70
     0
  3
_ _ _ _ _
 72
    65
 73
     2
 40
3.0
 49
2.0
 74
     0
 49
-1.0
 74
     0
  0
LTYPE
  5
26A
330
5
100
AcDbSymbolTableRecord
100
AcDbLinetypeTableRecord
  2
ACJISTGB
 70
     0
  3
__ . . __ . .
 72
    65
 73
     6
 40
9.0
 49
4.0
 74
     0
 49
-1.0
 74
     0
 49
1.0
 74
     0
 49
-1.0
 74
     0
 49
1.0
 74
     0
 49
-1.0
 74
     0
  0
ENDTAB
  0
TABLE
  2
LAYER
  5
2
330
0
100
AcDbSymbolTable
 70
    10
  0
LAYER
  5
10
330
2
100
AcDbSymbolTableRecord
100
AcDbLayerTableRecord
  2
0
 70
     0
 62
     7
  6
CONTINUOUS
  0
LAYER
  5
3F9
330
2
100
AcDbSymbolTableRecord
100
AcDbLayerTableRecord
  2
AM_0
 70
     0
 62
     7
  6
CONTINUOUS
  0
LAYER
  5
BD6
330
2
100
AcDbSymbolTableRecord
100
AcDbLayerTableRecord
  2
AM_11
 70
     0
 62
     3
  6
AM_ISO09W050
  0
LAYER
  5
BD7
330
2
100
AcDbSymbolTableRecord
100
AcDbLayerTableRecord
  2
AM_7
 70
     0
 62
     4
  6
AM_ISO08W050
  0
LAYER
  5
BD8
330
2
100
AcDbSymbolTableRecord
100
AcDbLayerTableRecord
  2
AM_5
 70
     0
 62
     3
  6
CONTINUOUS
  0
LAYER
  5
BD9
330
2
100
AcDbSymbolTableRecord
100
AcDbLayerTableRecord
  2
DEFPOINTS
 70
     0
 62
     7
  6
CONTINUOUS
  0
LAYER
  5
BDA
330
2
100
AcDbSymbolTableRecord
100
AcDbLayerTableRecord
  2
AM_6
 70
     0
 62
     2
  6
CONTINUOUS
  0
LAYER
  5
1E2E
330
2
100
AcDbSymbolTableRecord
100
AcDbLayerTableRecord
  2
AM_CL
 70
     0
 62
     1
  6
AMCONSTR
  0
LAYER
  5
6468
330
2
100
AcDbSymbolTableRecord
100
AcDbLayerTableRecord
  2
5
 70
     0
 62
     3
  6
CONTINUOUS
  0
LAYER
  5
6469
330
2
100
AcDbSymbolTableRecord
100
AcDbLayerTableRecord
  2
AM_4
 70
     0
 62
     3
  6
CONTINUOUS
  0
ENDTAB
  0
TABLE
  2
STYLE
  5
3
330
0
100
AcDbSymbolTable
 70
     5
  0
STYLE
  5
11
330
3
100
AcDbSymbolTableRecord
100
AcDbTextStyleTableRecord
  2
STANDARD
 70
     0
 40
0.0
 41
1.0
 50
0.0
 71
     0
 42
2.5
  3
simplex.shx
  4
EXTFONT.SHX
  0
STYLE
  5
52
330
3
100
AcDbSymbolTableRecord
100
AcDbTextStyleTableRecord
  2

 70
     1
 40
0.0
 41
1.0
 50
0.0
 71
     0
 42
2.5
  3
ltypeshp.shx
  4

  0
STYLE
  5
6B
330
3
100
AcDbSymbolTableRecord
100
AcDbTextStyleTableRecord
  2
ASAMI
 70
     0
 40
0.0
 41
1.0
 50
0.0
 71
     0
 42
2.5
  3
simplex.shx
  4
EXTFONT.SHX
  0
STYLE
  5
262
330
3
100
AcDbSymbolTableRecord
100
AcDbTextStyleTableRecord
  2
ACJISTS
 70
     0
 40
1.0
 41
1.0
 50
0.0
 71
     0
 42
2.5
  3
simplex.shx
  4
bigfont.shx
  0
STYLE
  5
269
330
3
100
AcDbSymbolTableRecord
100
AcDbTextStyleTableRecord
  2
ACJISGDT
 70
     0
 40
0.0
 41
1.0
 50
0.0
 71
     0
 42
2.5
  3
amgdtans.shx
  4

  0
ENDTAB
  0
TABLE
  2
VIEW
  5
6
330
0
100
AcDbSymbolTable
 70
     0
  0
ENDTAB
  0
TABLE
  2
UCS
  5
7
330
0
100
AcDbSymbolTable
 70
     0
  0
ENDTAB
  0
TABLE
  2
APPID
  5
9
330
0
100
AcDbSymbolTable
 70
    14
  0
APPID
  5
12
330
9
100
AcDbSymbolTableRecord
100
AcDbRegAppTableRecord
  2
ACAD
 70
     0
  0
APPID
  5
30
330
9
100
AcDbSymbolTableRecord
100
AcDbRegAppTableRecord
  2
MCAD_NO_VIS
 70
     0
  0
APPID
  5
31
330
9
100
AcDbSymbolTableRecord
100
AcDbRegAppTableRecord
  2
ACAD_TEMP_GRAPHIC
 70
     0
  0
APPID
  5
2C2
330
9
100
AcDbSymbolTableRecord
100
AcDbRegAppTableRecord
  2
GENIUS_GENDTOL_13
 70
     0
  0
APPID
  5
339
330
9
100
AcDbSymbolTableRecord
100
AcDbRegAppTableRecord
  2
GENIUS_GENODEF_13
 70
     0
  0
APPID
  5
33A
330
9
100
AcDbSymbolTableRecord
100
AcDbRegAppTableRecord
  2
GENIUS_GENOBJ-N-RSBK_13
 70
     0
  0
APPID
  5
33B
330
9
100
AcDbSymbolTableRecord
100
AcDbRegAppTableRecord
  2
GENIUS_GENOBJ-N-LIB_13
 70
     0
  0
APPID
  5
33C
330
9
100
AcDbSymbolTableRecord
100
AcDbRegAppTableRecord
  2
GENIUS_GENSCALE_13
 70
     0
  0
APPID
  5
378
330
9
100
AcDbSymbolTableRecord
100
AcDbRegAppTableRecord
  2
GENIUS_GENDIMSH_14
 70
     0
  0
APPID
  5
BDB
330
9
100
AcDbSymbolTableRecord
100
AcDbRegAppTableRecord
  2
GENIUS_GENOBJ-N-CEN_13
 70
     0
  0
APPID
  5
BDC
330
9
100
AcDbSymbolTableRecord
100
AcDbRegAppTableRecord
  2
GENIUS_GENFIL_13
 70
     0
  0
APPID
  5
BDD
330
9
100
AcDbSymbolTableRecord
100
AcDbRegAppTableRecord
  2
GENIUS_GENOBJ-N-FIL_13
 70
     0
  0
APPID
  5
12AD
330
9
100
AcDbSymbolTableRecord
100
AcDbRegAppTableRecord
  2
GENIUS_GENOREF_13
 70
     0
  0
APPID
  5
62E6
330
9
100
AcDbSymbolTableRecord
100
AcDbRegAppTableRecord
  2
GENIUS_GENOBJ-N-CHA_13
 70
     0
  0
ENDTAB
  0
TABLE
  2
DIMSTYLE
  5
A
330
0
100
AcDbSymbolTable
 70
     9
  0
DIMSTYLE
105
58
102
{ACAD_REACTORS
330
634F
330
640B
330
6418
330
63C1
102
}
330
A
100
AcDbSymbolTableRecord
100
AcDbDimStyleTableRecord
  2
AM_JIS
 70
     0
  3

  4
"
  5
OPEN30
  6

  7

 40
0.5
 41
2.5
 42
1.0
 43
12.0
 44
1.0
 45
0.0
 46
0.0
 47
0.1
 48
0.1
140
3.2
141
0.0
142
0.0
143
0.0393701
144
1.0
145
0.0
146
0.71
147
1.5
 71
     0
 72
     0
 73
     0
 74
     0
 75
     0
 76
     0
 77
     3
 78
     8
170
     0
171
     2
172
     1
173
     0
174
     0
175
     0
176
     3
177
     3
178
     2
270
     2
271
     3
272
     3
273
     2
274
     2
340
6B
275
     0
280
     0
281
     0
282
     0
283
     0
284
     0
285
     0
286
     0
287
     3
288
     0
  0
DIMSTYLE
105
5F
330
A
100
AcDbSymbolTableRecord
100
AcDbDimStyleTableRecord
  2
AM_JIS$3
 70
     0
  3

  4
"
  5
OPEN30
  6

  7

 40
0.5
 41
2.5
 42
1.0
 43
10.0
 44
1.0
 45
0.0
 46
0.0
 47
0.1
 48
0.1
140
3.2
141
0.0
142
0.0
143
0.0393701
144
1.0
145
0.0
146
0.71
147
1.5
 71
     0
 72
     0
 73
     0
 74
     1
 75
     0
 76
     0
 77
     3
 78
     8
170
     0
171
     2
172
     0
173
     0
174
     0
175
     0
176
     3
177
     3
178
     2
270
     2
271
     2
272
     3
273
     2
274
     2
340
6B
275
     0
280
     0
281
     0
282
     0
283
     0
284
     0
285
     0
286
     0
287
     0
288
     1
  0
DIMSTYLE
105
60
330
A
100
AcDbSymbolTableRecord
100
AcDbDimStyleTableRecord
  2
AM_JIS$4
 70
     0
  3

  4
"
  5
OPEN30
  6

  7

 40
0.5
 41
2.5
 42
1.0
 43
10.0
 44
1.0
 45
0.0
 46
0.0
 47
0.1
 48
0.1
140
3.2
141
0.0
142
0.0
143
0.0393701
144
1.0
145
0.0
146
0.71
147
1.5
 71
     0
 72
     0
 73
     0
 74
     1
 75
     0
 76
     0
 77
     3
 78
     8
170
     0
171
     2
172
     0
173
     0
174
     0
175
     0
176
     3
177
     3
178
     2
270
     2
271
     2
272
     3
273
     2
274
     2
340
6B
275
     0
280
     0
281
     0
282
     0
283
     0
284
     0
285
     0
286
     0
287
     0
288
     1
  0
DIMSTYLE
105
61
330
A
100
AcDbSymbolTableRecord
100
AcDbDimStyleTableRecord
  2
AM_JIS$6
 70
     0
  3

  4
"
  5
OPEN30
  6

  7

 40
0.5
 41
2.5
 42
1.0
 43
10.0
 44
1.0
 45
0.0
 46
0.0
 47
0.1
 48
0.1
140
3.2
141
0.0
142
0.0
143
0.0393701
144
1.0
145
0.0
146
0.71
147
1.5
 71
     0
 72
     0
 73
     0
 74
     0
 75
     0
 76
     0
 77
     0
 78
     8
170
     0
171
     2
172
     1
173
     0
174
     0
175
     0
176
     3
177
     3
178
     2
270
     2
271
     2
272
     2
273
     2
274
     2
340
6B
275
     0
280
     0
281
     0
282
     0
283
     0
284
     0
285
     0
286
     0
287
     3
288
     0
  0
DIMSTYLE
105
62
330
A
100
AcDbSymbolTableRecord
100
AcDbDimStyleTableRecord
  2
AM_JIS$7
 70
     0
  3

  4
"
  5
OPEN30
  6

  7

 40
0.5
 41
2.5
 42
1.0
 43
10.0
 44
1.0
 45
0.0
 46
0.0
 47
0.1
 48
0.1
140
3.2
141
0.0
142
0.0
143
0.0393701
144
1.0
145
0.0
146
0.71
147
1.5
 71
     0
 72
     0
 73
     0
 74
     0
 75
     0
 76
     0
 77
     3
 78
     8
170
     0
171
     2
172
     1
173
     0
174
     0
175
     0
176
     3
177
     3
178
     2
270
     2
271
     2
272
     3
273
     2
274
     2
340
6B
275
     0
280
     0
281
     0
282
     0
283
     0
284
     0
285
     0
286
     0
287
     3
288
     0
  0
DIMSTYLE
105
63
330
A
100
AcDbSymbolTableRecord
100
AcDbDimStyleTableRecord
  2
AM_JIS$SF
 70
     0
  3

  4
"
  5
OPEN30
  6

  7

 40
0.5
 41
2.5
 42
1.0
 43
10.0
 44
1.0
 45
0.0
 46
0.0
 47
0.1
 48
0.1
140
3.2
141
0.0
142
0.0
143
0.0393701
144
1.0
145
0.0
146
0.71
147
1.5
 71
     0
 72
     0
 73
     0
 74
     0
 75
     1
 76
     1
 77
     3
 78
     8
170
     0
171
     2
172
     1
173
     0
174
     0
175
     0
176
   256
177
   256
178
     2
270
     2
271
     2
272
     2
273
     2
274
     2
340
6B
275
     0
280
     0
281
     0
282
     0
283
     0
284
     0
285
     0
286
     0
287
     3
288
     0
  0
DIMSTYLE
105
68
330
A
100
AcDbSymbolTableRecord
100
AcDbDimStyleTableRecord
  2
AM_JIS$SH
 70
     0
  3

  4
"
  5

  6
GENAXEH
  7
OPEN30
 40
0.5
 41
2.5
 42
1.0
 43
10.0
 44
1.0
 45
0.0
 46
0.0
 47
0.1
 48
0.1
140
3.2
141
0.0
142
0.0
143
0.0393701
144
2.0
145
0.0
146
0.71
147
1.5
 71
     0
 72
     0
 73
     0
 74
     0
 75
     1
 76
     1
 77
     3
 78
     8
170
     0
171
     2
172
     1
173
     1
174
     0
175
     0
176
   256
177
   256
178
     2
270
     2
271
     2
272
     2
273
     2
274
     2
340
6B
275
     0
280
     0
281
     0
282
     0
283
     0
284
     0
285
     0
286
     0
287
     3
288
     0
  0
DIMSTYLE
105
B34
102
{ACAD_REACTORS
330
63DB
102
}
330
A
100
AcDbSymbolTableRecord
100
AcDbDimStyleTableRecord
  2
AM_JIS$2
 70
     0
  3

  4
"
  5
OPEN30
  6

  7

 40
0.5
 41
2.5
 42
1.0
 43
12.0
 44
1.0
 45
0.0
 46
0.0
 47
0.1
 48
0.1
140
3.2
141
0.0
142
0.0
143
0.0393701
144
1.0
145
0.0
146
0.71
147
1.5
 71
     0
 72
     0
 73
     0
 74
     0
 75
     0
 76
     0
 77
     3
 78
     8
170
     0
171
     2
172
     1
173
     0
174
     0
175
     0
176
     3
177
     3
178
     2
270
     2
271
     3
272
     3
273
     2
274
     2
340
6B
275
     0
280
     0
281
     0
282
     0
283
     0
284
     0
285
     0
286
     0
287
     3
288
     0
  0
DIMSTYLE
105
62E5
330
A
100
AcDbSymbolTableRecord
100
AcDbDimStyleTableRecord
  2
ISO-25
 70
     0
  3

  4

  5

  6

  7

 40
1.0
 41
2.5
 42
0.625
 43
3.75
 44
1.25
 45
0.0
 46
0.0
 47
0.0
 48
0.0
140
2.5
141
2.5
142
0.0
143
0.03937007874016
144
1.0
145
0.0
146
1.0
147
0.625
 71
     0
 72
     0
 73
     0
 74
     0
 75
     0
 76
     0
 77
     1
 78
     8
170
     0
171
     3
172
     1
173
     0
174
     0
175
     0
176
     0
177
     0
178
     0
270
     2
271
     2
272
     2
273
     2
274
     3
340
11
275
     0
280
     0
281
     0
282
     0
283
     0
284
     8
285
     0
286
     0
287
     3
288
     0
  0
ENDTAB
  0
TABLE
  2
BLOCK_RECORD
  5
1
330
0
100
AcDbSymbolTable
 70
    10
  0
BLOCK_RECORD
  5
1F
102
{ACAD_XDICTIONARY
360
74
102
}
330
1
100
AcDbSymbolTableRecord
100
AcDbBlockTableRecord
  2
*MODEL_SPACE
  0
BLOCK_RECORD
  5
1B
102
{ACAD_XDICTIONARY
360
7A28
102
}
330
1
100
AcDbSymbolTableRecord
100
AcDbBlockTableRecord
  2
*PAPER_SPACE
  0
BLOCK_RECORD
  5
59
330
1
100
AcDbSymbolTableRecord
100
AcDbBlockTableRecord
  2
_OPEN30
  0
BLOCK_RECORD
  5
64
330
1
100
AcDbSymbolTableRecord
100
AcDbBlockTableRecord
  2
GENAXEH
  0
BLOCK_RECORD
  5
6350
330
1
100
AcDbSymbolTableRecord
100
AcDbBlockTableRecord
  2
*D5
  0
BLOCK_RECORD
  5
63C2
330
1
100
AcDbSymbolTableRecord
100
AcDbBlockTableRecord
  2
*D6
  0
BLOCK_RECORD
  5
63DC
330
1
100
AcDbSymbolTableRecord
100
AcDbBlockTableRecord
  2
*D7
  0
BLOCK_RECORD
  5
640C
330
1
100
AcDbSymbolTableRecord
100
AcDbBlockTableRecord
  2
*D8
  0
BLOCK_RECORD
  5
6419
330
1
100
AcDbSymbolTableRecord
100
AcDbBlockTableRecord
  2
*D9
  0
ENDTAB
  0
ENDSEC
  0
SECTION
  2
BLOCKS
  0
BLOCK
  5
20
330
1F
100
AcDbEntity
  8
0
100
AcDbBlockBegin
  2
*MODEL_SPACE
 70
     0
 10
0.0
 20
0.0
 30
0.0
  3
*MODEL_SPACE
  1

  0
ENDBLK
  5
21
330
1F
100
AcDbEntity
  8
0
100
AcDbBlockEnd
  0
BLOCK
  5
1C
330
1B
100
AcDbEntity
 67
     1
  8
0
100
AcDbBlockBegin
  2
*PAPER_SPACE
 70
     0
 10
0.0
 20
0.0
 30
0.0
  3
*PAPER_SPACE
  1

  0
ENDBLK
  5
1D
330
1B
100
AcDbEntity
 67
     1
  8
0
100
AcDbBlockEnd
  0
BLOCK
  5
5D
330
59
100
AcDbEntity
  8
0
100
AcDbBlockBegin
  2
_OPEN30
 70
     0
 10
0.0
 20
0.0
 30
0.0
  3
_OPEN30
  1

  0
LINE
  5
5A
330
59
100
AcDbEntity
  8
0
 62
     0
100
AcDbLine
 10
-1.0
 20
0.26794919
 30
0.0
 11
0.0
 21
0.0
 31
0.0
  0
LINE
  5
5B
330
59
100
AcDbEntity
  8
0
 62
     0
100
AcDbLine
 10
0.0
 20
0.0
 30
0.0
 11
-1.0
 21
-0.26794919
 31
0.0
  0
LINE
  5
5C
330
59
100
AcDbEntity
  8
0
 62
     0
100
AcDbLine
 10
0.0
 20
0.0
 30
0.0
 11
-1.0
 21
0.0
 31
0.0
  0
ENDBLK
  5
5E
330
59
100
AcDbEntity
  8
0
100
AcDbBlockEnd
  0
BLOCK
  5
66
330
64
100
AcDbEntity
  8
0
100
AcDbBlockBegin
  2
GENAXEH
 70
     0
 10
0.0
 20
0.0
 30
0.0
  3
GENAXEH
  1

  0
LINE
  5
65
330
64
100
AcDbEntity
  8
0
100
AcDbLine
 10
-1.0
 20
0.0
 30
0.0
 11
1.0
 21
0.0
 31
0.0
  0
ENDBLK
  5
67
330
64
100
AcDbEntity
  8
0
100
AcDbBlockEnd
  0
BLOCK
  5
635A
330
6350
100
AcDbEntity
  8
0
100
AcDbBlockBegin
  2
*D5
 70
     1
 10
0.0
 20
0.0
 30
0.0
  3
*D5
  1

  0
LINE
  5
79CA
330
6350
100
AcDbEntity
  8
AM_5
 62
     3
100
AcDbLine
 10
-43.15500000000187
 20
-1.15
 30
0.0
 11
-49.20013981412123
 21
-1.149999999999998
 31
0.0
  0
LINE
  5
79CB
330
6350
100
AcDbEntity
  8
AM_5
 62
     3
100
AcDbLine
 10
-43.15500000000187
 20
1.149999999999999
 30
0.0
 11
-49.20013981412123
 21
1.150000000000001
 31
0.0
  0
LINE
  5
79CC
330
6350
100
AcDbEntity
  8
AM_5
 62
     3
100
AcDbLine
 10
-48.70013981412123
 20
-2.399999999999998
 30
0.0
 11
-48.70013981412123
 21
-3.649999999999998
 31
0.0
  0
LINE
  5
79CD
330
6350
100
AcDbEntity
  8
AM_5
 62
     3
100
AcDbLine
 10
-48.70013981412123
 20
2.400000000000001
 30
0.0
 11
-48.70013981412123
 21
3.650000000000001
 31
0.0
  0
LINE
  5
79CE
330
6350
100
AcDbEntity
  8
AM_5
 62
     3
100
AcDbLine
 10
-48.70013981412123
 20
-1.149999999999998
 30
0.0
 11
-48.70013981412123
 21
1.150000000000001
 31
0.0
  0
INSERT
  5
79CF
330
6350
100
AcDbEntity
  8
AM_5
 62
     3
100
AcDbBlockReference
  2
_OPEN30
 10
-48.70013981412123
 20
-1.149999999999998
 30
0.0
 41
1.25
 42
1.25
 43
1.25
 50
90.0
  0
INSERT
  5
79D0
330
6350
100
AcDbEntity
  8
AM_5
 62
     3
100
AcDbBlockReference
  2
_OPEN30
 10
-48.70013981412123
 20
1.150000000000001
 30
0.0
 41
1.25
 42
1.25
 43
1.25
 50
270.0
  0
MTEXT
  5
79D1
330
6350
100
AcDbEntity
  8
AM_5
 62
     2
100
AcDbMText
 10
-50.25013981412122
 20
-0.0000000000000062
 30
0.0
 40
1.6
 41
0.0
 71
     5
 72
     1
  1
%%C2.3
  7
ASAMI
 11
0.0000000000000001
 21
1.0
 31
0.0
1001
ACAD
1000
MTEXTBEGIN
1070
    73
1070
     1
1070
    44
1040
1.0
1070
    74
1070
     0
1000
MTEXTEND
  0
POINT
  5
79D2
330
6350
100
AcDbEntity
  8
DEFPOINTS
 62
     0
100
AcDbPoint
 10
-42.65500000000187
 20
-1.15
 30
0.0
  0
POINT
  5
79D3
330
6350
100
AcDbEntity
  8
DEFPOINTS
 62
     0
100
AcDbPoint
 10
-42.65500000000187
 20
1.149999999999999
 30
0.0
  0
POINT
  5
79D4
330
6350
100
AcDbEntity
  8
DEFPOINTS
 62
     0
100
AcDbPoint
 10
-48.70013981412123
 20
1.150000000000001
 30
0.0
  0
ENDBLK
  5
635B
330
6350
100
AcDbEntity
  8
0
100
AcDbBlockEnd
  0
BLOCK
  5
63CE
330
63C2
100
AcDbEntity
  8
0
100
AcDbBlockBegin
  2
*D6
 70
     1
 10
0.0
 20
0.0
 30
0.0
  3
*D6
  1

  0
LINE
  5
79D5
330
63C2
100
AcDbEntity
  8
AM_5
 62
     3
100
AcDbLine
 10
0.1046878844485941
 20
-1.149999999999819
 30
0.0
 11
10.36167345723999
 21
-1.149999999999822
 31
0.0
  0
LINE
  5
79D6
330
63C2
100
AcDbEntity
  8
AM_5
 62
     3
100
AcDbLine
 10
0.0814342305936411
 20
1.150000000000179
 30
0.0
 11
10.36167345723999
 21
1.150000000000176
 31
0.0
  0
LINE
  5
79D7
330
63C2
100
AcDbEntity
  8
AM_5
 62
     3
100
AcDbLine
 10
9.861673457239998
 20
-2.399999999999822
 30
0.0
 11
9.861673457239998
 21
-3.649999999999822
 31
0.0
  0
LINE
  5
79D8
330
63C2
100
AcDbEntity
  8
AM_5
 62
     3
100
AcDbLine
 10
9.861673457239998
 20
2.400000000000176
 30
0.0
 11
9.86167345724
 21
11.43571428571446
 31
0.0
  0
LINE
  5
79D9
330
63C2
100
AcDbEntity
  8
AM_5
 62
     3
100
AcDbLine
 10
9.861673457239998
 20
-1.149999999999822
 30
0.0
 11
9.861673457239998
 21
1.150000000000176
 31
0.0
  0
INSERT
  5
79DA
330
63C2
100
AcDbEntity
  8
AM_5
 62
     3
100
AcDbBlockReference
  2
_OPEN30
 10
9.861673457239998
 20
-1.149999999999822
 30
0.0
 41
1.25
 42
1.25
 43
1.25
 50
90.0
  0
INSERT
  5
79DB
330
63C2
100
AcDbEntity
  8
AM_5
 62
     3
100
AcDbBlockReference
  2
_OPEN30
 10
9.861673457239998
 20
1.150000000000176
 30
0.0
 41
1.25
 42
1.25
 43
1.25
 50
270.0
  0
MTEXT
  5
79DC
330
63C2
100
AcDbEntity
  8
AM_5
 62
     2
100
AcDbMText
 10
8.311673457239997
 20
8.285714285714465
 30
0.0
 40
1.6
 41
0.0
 71
     5
 72
     1
  1
%%C2.3
  7
ASAMI
 11
0.0000000000000001
 21
1.0
 31
0.0
1001
ACAD
1000
MTEXTBEGIN
1070
    73
1070
     1
1070
    44
1040
1.0
1070
    74
1070
     0
1000
MTEXTEND
  0
POINT
  5
79DD
330
63C2
100
AcDbEntity
  8
DEFPOINTS
 62
     0
100
AcDbPoint
 10
-0.3953121155514059
 20
-1.149999999999819
 30
0.0
  0
POINT
  5
79DE
330
63C2
100
AcDbEntity
  8
DEFPOINTS
 62
     0
100
AcDbPoint
 10
-0.4185657694063589
 20
1.150000000000179
 30
0.0
  0
POINT
  5
79DF
330
63C2
100
AcDbEntity
  8
DEFPOINTS
 62
     0
100
AcDbPoint
 10
9.861673457239998
 20
1.150000000000176
 30
0.0
  0
ENDBLK
  5
63CF
330
63C2
100
AcDbEntity
  8
0
100
AcDbBlockEnd
  0
BLOCK
  5
63E8
330
63DC
100
AcDbEntity
  8
0
100
AcDbBlockBegin
  2
*D7
 70
     1
 10
0.0
 20
0.0
 30
0.0
  3
*D7
  1

  0
LINE
  5
7A31
330
63DC
100
AcDbEntity
  8
AM_0
 62
     3
100
AcDbLine
 10
0.1710100716610096
 20
-0.4698463103929329
 30
0.0
 11
6.169687244857962
 21
-16.95107639034303
 31
0.0
  0
LINE
  5
7A32
330
63DC
100
AcDbEntity
  8
AM_0
 62
     3
100
AcDbLine
 10
0.1710100716610098
 20
0.4698463103929328
 30
0.0
 11
6.169687244857968
 21
16.95107639034303
 31
0.0
  0
ARC
  5
7A33
330
63DC
100
AcDbEntity
  8
AM_0
 62
     3
100
AcDbCircle
 10
-0.0000000000018835
 20
0.0
 30
0.0
 40
17.5389587141451
100
AcDbArc
 50
294.084329745283
 51
65.91567025471701
  0
INSERT
  5
7A34
330
63DC
100
AcDbEntity
  8
AM_0
 62
     3
100
AcDbBlockReference
  2
_OPEN30
 10
5.998677173195068
 20
-16.4812300799501
 30
0.0
 41
1.25
 42
1.25
 43
1.25
 50
202.0421648726451
  0
INSERT
  5
7A35
330
63DC
100
AcDbEntity
  8
AM_0
 62
     3
100
AcDbBlockReference
  2
_OPEN30
 10
5.998677173195074
 20
16.4812300799501
 30
0.0
 41
1.25
 42
1.25
 43
1.25
 50
157.9578351273549
  0
MTEXT
  5
7A36
330
63DC
100
AcDbEntity
  8
AM_0
 62
     2
100
AcDbMText
 10
15.98895871414321
 20
-0.0000000000000041
 30
0.0
 40
1.6
 41
0.0
 71
     5
 72
     1
  1
140°
  7
ASAMI
 11
0.0000000000000001
 21
1.0
 31
0.0
  0
POINT
  5
7A37
330
63DC
100
AcDbEntity
  8
DEFPOINTS
 62
     0
100
AcDbPoint
 10
16.10455438923457
 20
-6.946826664068352
 30
0.0
  0
POINT
  5
7A38
330
63DC
100
AcDbEntity
  8
DEFPOINTS
 62
     0
100
AcDbPoint
 10
-0.0000000000018835
 20
0.0
 30
0.0
  0
POINT
  5
7A39
330
63DC
100
AcDbEntity
  8
DEFPOINTS
 62
     0
100
AcDbPoint
 10
-0.190651075093778
 20
-0.5238095238095239
 30
0.0
  0
POINT
  5
7A3A
330
63DC
100
AcDbEntity
  8
DEFPOINTS
 62
     0
100
AcDbPoint
 10
-0.0000000000018835
 20
0.0
 30
0.0
  0
POINT
  5
7A3B
330
63DC
100
AcDbEntity
  8
DEFPOINTS
 62
     0
100
AcDbPoint
 10
-0.190651075093778
 20
0.5238095238095239
 30
0.0
  0
ENDBLK
  5
63E9
330
63DC
100
AcDbEntity
  8
0
100
AcDbBlockEnd
  0
BLOCK
  5
6416
330
640C
100
AcDbEntity
  8
0
100
AcDbBlockBegin
  2
*D8
 70
     1
 10
0.0
 20
0.0
 30
0.0
  3
*D8
  1

  0
LINE
  5
78AA
330
640C
100
AcDbEntity
  8
AM_5
 62
     3
100
AcDbLine
 10
-0.0000000000022128
 20
-0.5
 30
0.0
 11
-0.0000000000022135
 21
-11.11133768170135
 31
0.0
  0
LINE
  5
78AB
330
640C
100
AcDbEntity
  8
AM_5
 62
     3
100
AcDbLine
 10
-13.00000000002121
 20
-1.338095238097405
 30
0.0
 11
-13.00000000002121
 21
-11.11133768170135
 31
0.0
  0
LINE
  5
78AC
330
640C
100
AcDbEntity
  8
AM_5
 62
     3
100
AcDbLine
 10
-1.250000000002213
 20
-10.61133768170136
 30
0.0
 11
-11.75000000002121
 21
-10.61133768170136
 31
0.0
  0
INSERT
  5
78AD
330
640C
100
AcDbEntity
  8
AM_5
 62
     3
100
AcDbBlockReference
  2
_OPEN30
 10
-0.0000000000022134
 20
-10.61133768170136
 30
0.0
 41
1.25
 42
1.25
 43
1.25
  0
INSERT
  5
78AE
330
640C
100
AcDbEntity
  8
AM_5
 62
     3
100
AcDbBlockReference
  2
_OPEN30
 10
-13.00000000002121
 20
-10.61133768170136
 30
0.0
 41
1.25
 42
1.25
 43
1.25
 50
180.0
  0
MTEXT
  5
78AF
330
640C
100
AcDbEntity
  8
AM_5
 62
     2
100
AcDbMText
 10
-6.500000000011715
 20
-9.061337681701358
 30
0.0
 40
1.6
 41
0.0
 71
     5
 72
     1
  1
13
  7
ASAMI
1001
ACAD
1000
MTEXTBEGIN
1070
    73
1070
     1
1070
    44
1040
1.0
1070
    74
1070
     0
1000
MTEXTEND
  0
POINT
  5
78B0
330
640C
100
AcDbEntity
  8
DEFPOINTS
 62
     0
100
AcDbPoint
 10
-0.0000000000022128
 20
0.0
 30
0.0
  0
POINT
  5
78B1
330
640C
100
AcDbEntity
  8
DEFPOINTS
 62
     0
100
AcDbPoint
 10
-13.00000000002121
 20
-0.8380952380974054
 30
0.0
  0
POINT
  5
78B2
330
640C
100
AcDbEntity
  8
DEFPOINTS
 62
     0
100
AcDbPoint
 10
-13.00000000002121
 20
-10.61133768170136
 30
0.0
  0
ENDBLK
  5
6417
330
640C
100
AcDbEntity
  8
0
100
AcDbBlockEnd
  0
BLOCK
  5
6423
330
6419
100
AcDbEntity
  8
0
100
AcDbBlockBegin
  2
*D9
 70
     1
 10
0.0
 20
0.0
 30
0.0
  3
*D9
  1

  0
LINE
  5
7851
330
6419
100
AcDbEntity
  8
AM_5
 62
     3
100
AcDbLine
 10
-0.0000000000018836
 20
-1.023809523809616
 30
0.0
 11
-0.0000000000018845
 21
-17.1621134384515
 31
0.0
  0
LINE
  5
7852
330
6419
100
AcDbEntity
  8
AM_5
 62
     3
100
AcDbLine
 10
-43.00000000000188
 20
-1.270000000000003
 30
0.0
 11
-43.00000000000188
 21
-17.16211343845149
 31
0.0
  0
LINE
  5
7853
330
6419
100
AcDbEntity
  8
AM_5
 62
     3
100
AcDbLine
 10
-1.250000000001884
 20
-16.66211343845149
 30
0.0
 11
-41.75000000000188
 21
-16.66211343845149
 31
0.0
  0
INSERT
  5
7854
330
6419
100
AcDbEntity
  8
AM_5
 62
     3
100
AcDbBlockReference
  2
_OPEN30
 10
-0.0000000000018845
 20
-16.66211343845149
 30
0.0
 41
1.25
 42
1.25
 43
1.25
  0
INSERT
  5
7855
330
6419
100
AcDbEntity
  8
AM_5
 62
     3
100
AcDbBlockReference
  2
_OPEN30
 10
-43.00000000000188
 20
-16.66211343845149
 30
0.0
 41
1.25
 42
1.25
 43
1.25
 50
180.0
  0
MTEXT
  5
7856
330
6419
100
AcDbEntity
  8
AM_5
 62
     2
100
AcDbMText
 10
-21.50000000000188
 20
-15.11211343845149
 30
0.0
 40
1.6
 41
0.0
 71
     5
 72
     1
  1
43
  7
ASAMI
1001
ACAD
1000
MTEXTBEGIN
1070
    73
1070
     1
1070
    44
1040
1.0
1070
    74
1070
     0
1000
MTEXTEND
  0
POINT
  5
7857
330
6419
100
AcDbEntity
  8
DEFPOINTS
 62
     0
100
AcDbPoint
 10
-0.0000000000018835
 20
-0.5238095238096161
 30
0.0
  0
POINT
  5
7858
330
6419
100
AcDbEntity
  8
DEFPOINTS
 62
     0
100
AcDbPoint
 10
-43.00000000000188
 20
-0.7700000000000032
 30
0.0
  0
POINT
  5
7859
330
6419
100
AcDbEntity
  8
DEFPOINTS
 62
     0
100
AcDbPoint
 10
-43.00000000000188
 20
-16.66211343845149
 30
0.0
  0
ENDBLK
  5
6424
330
6419
100
AcDbEntity
  8
0
100
AcDbBlockEnd
  0
ENDSEC
  0
SECTION
  2
ENTITIES
  0
TEXT
  5
C58
330
1F
100
AcDbEntity
  8
AM_6
100
AcDbText
 10
-30.4642857142875
 20
-27.15474464579464
 30
0.0
 40
2.5
  1
MDS023SK
 50
0.0000000000002036
 72
     4
 11
-21.00000000000179
 21
-25.90474464579461
 31
0.0
100
AcDbText
  0
LINE
  5
631C
330
1F
100
AcDbEntity
  8
AM_0
100
AcDbLine
 10
-9.671267100216368
 20
-1.149999999999999
 30
0.0
 11
-42.65500000000187
 21
-1.149999999999998
 31
0.0
  0
LINE
  5
631D
330
1F
100
AcDbEntity
  8
AM_0
100
AcDbLine
 10
-9.56552311965035
 20
1.15
 30
0.0
 11
-42.65500000000187
 21
1.150000000000001
 31
0.0
  0
LINE
  5
6320
330
1F
100
AcDbEntity
  8
AM_7
100
AcDbLine
 10
-44.85611861473461
 20
0.000000000000008
 30
0.0
 11
0.3491071428549647
 21
0.0
 31
0.0
1001
GENIUS_GENODEF_13
1002
{
1000
HIER
1070
     0
1002
}
1002
{
1000
MANEDIT
1070
     0
1002
}
1002
{
1000
NOSEL
1070
     0
1002
}
1002
{
1000
BEHIND
1070
     0
1002
}
1002
{
1000
REACTOR
1002
}
1001
GENIUS_GENOBJ-N-CEN_13
1002
{
1000
OWNER
1000
GEN
1002
}
  0
LINE
  5
6343
330
1F
100
AcDbEntity
  8
AM_0
100
AcDbLine
 10
-43.00000000000188
 20
-0.805
 30
0.0
 11
-43.00000000000188
 21
0.805
 31
0.0
  0
LINE
  5
6348
330
1F
100
AcDbEntity
  8
AM_0
100
AcDbLine
 10
-43.00000000000188
 20
0.7716749184656051
 30
0.0
 11
-43.00000000000188
 21
0.805
 31
0.0
  0
LINE
  5
6349
330
1F
100
AcDbEntity
  8
AM_0
100
AcDbLine
 10
-43.00000000000188
 20
0.7149528133602288
 30
0.0
 11
-43.00000000000188
 21
0.7716749184656051
 31
0.0
  0
LINE
  5
634B
330
1F
100
AcDbEntity
  8
AM_0
100
AcDbLine
 10
-43.00000000000188
 20
-0.805
 30
0.0
 11
-43.00000000000188
 21
-0.7716749184554788
 31
0.0
  0
LINE
  5
634C
330
1F
100
AcDbEntity
  8
AM_0
100
AcDbLine
 10
-43.00000000000188
 20
-0.7716749184554788
 30
0.0
 11
-43.00000000000188
 21
-0.7149528133875594
 31
0.0
  0
DIMENSION
  5
634F
330
1F
100
AcDbEntity
  8
AM_5
100
AcDbDimension
  2
*D5
 10
-48.70013981412123
 20
1.150000000000001
 30
0.0
 11
-48.70013981412123
 21
-0.0000000000000063
 31
0.0
 70
   160
  1
%%C<>
  3
AM_JIS
100
AcDbAlignedDimension
 13
-42.65500000000187
 23
-1.15
 33
0.0
 14
-42.65500000000187
 24
1.149999999999999
 34
0.0
 50
90.0
100
AcDbRotatedDimension
1001
ACAD
1000
DSTYLE
1002
{
1070
    78
1070
     0
1070
   271
1070
     1
1002
}
  0
LINE
  5
638E
330
1F
100
AcDbEntity
  8
AM_0
100
AcDbLine
 10
-42.65500000000187
 20
1.15
 30
0.0
 11
-42.65500000000187
 21
-1.149999999999999
 31
0.0
  0
DIMENSION
  5
63C1
330
1F
100
AcDbEntity
  8
AM_5
100
AcDbDimension
  2
*D6
 10
9.861673457239998
 20
1.150000000000176
 30
0.0
 11
9.861673457239998
 21
8.285714285714465
 31
0.0
 70
   160
  1
%%C<>
  3
AM_JIS
100
AcDbAlignedDimension
 13
-0.3953121155514059
 23
-1.149999999999819
 33
0.0
 14
-0.4185657694063589
 24
1.150000000000179
 34
0.0
 50
90.0
100
AcDbRotatedDimension
1001
ACAD
1000
DSTYLE
1002
{
1070
    78
1070
     0
1070
   271
1070
     1
1002
}
  0
DIMENSION
  5
63DB
330
1F
100
AcDbEntity
  8
AM_0
100
AcDbDimension
  2
*D7
 10
-0.190651075093778
 20
0.5238095238095239
 30
0.0
 11
15.98895871414321
 21
-0.0000000000000067
 31
0.0
 70
    34
  3
AM_JIS$2
100
AcDb2LineAngularDimension
 13
-0.190651075093778
 23
-0.5238095238095239
 33
0.0
 14
-0.0000000000018835
 24
0.0
 34
0.0
 15
-0.0000000000018835
 25
0.0
 35
0.0
 16
16.10455438923457
 26
-6.946826664068352
 36
0.0
1001
ACAD
1000
DSTYLE
1002
{
1070
   271
1070
     0
1002
}
  0
DIMENSION
  5
640B
330
1F
100
AcDbEntity
  8
AM_5
100
AcDbDimension
  2
*D8
 10
-13.00000000002121
 20
-10.61133768170136
 30
0.0
 11
-6.500000000011715
 21
-9.061337681701358
 31
0.0
 70
    32
  3
AM_JIS
100
AcDbAlignedDimension
 13
-0.0000000000022128
 23
0.0
 33
0.0
 14
-13.00000000002121
 24
-0.8380952380974054
 34
0.0
100
AcDbRotatedDimension
  0
DIMENSION
  5
6418
330
1F
100
AcDbEntity
  8
AM_5
100
AcDbDimension
  2
*D9
 10
-43.00000000000188
 20
-16.66211343845149
 30
0.0
 11
-21.50000000000188
 21
-15.11211343845149
 31
0.0
 70
    32
  3
AM_JIS
100
AcDbAlignedDimension
 13
-0.0000000000018835
 23
-0.5238095238096161
 33
0.0
 14
-43.00000000000188
 24
-0.7700000000000032
 34
0.0
100
AcDbRotatedDimension
  0
LINE
  5
6BFA
330
1F
100
AcDbEntity
  8
AM_0
100
AcDbLine
 10
-42.65500000000189
 20
1.15
 30
0.0
 11
-43.00000000000188
 21
0.805
 31
0.0
1001
GENIUS_GENFIL_13
1070
     0
1040
0.3
1040
0.3
1040
20.0
1040
0.0
1002
{
1002
}
1001
GENIUS_GENODEF_13
1002
{
1000
HIER
1070
     0
1002
}
1002
{
1000
MANEDIT
1070
     0
1002
}
1002
{
1000
NOSEL
1070
     0
1002
}
1002
{
1000
BEHIND
1070
     0
1002
}
1002
{
1000
REACTOR
1002
}
1001
GENIUS_GENOBJ-N-CHA_13
1002
{
1000
OWNER
1000
GEN
1002
}
  0
LINE
  5
6BFD
330
1F
100
AcDbEntity
  8
AM_0
100
AcDbLine
 10
-42.65500000000187
 20
-1.149999999999999
 30
0.0
 11
-43.00000000000188
 21
-0.805
 31
0.0
1001
GENIUS_GENFIL_13
1070
     0
1040
0.3
1040
0.3
1040
20.0
1040
0.0
1002
{
1002
}
1001
GENIUS_GENODEF_13
1002
{
1000
HIER
1070
     0
1002
}
1002
{
1000
MANEDIT
1070
     0
1002
}
1002
{
1000
NOSEL
1070
     0
1002
}
1002
{
1000
BEHIND
1070
     0
1002
}
1002
{
1000
REACTOR
1002
}
1001
GENIUS_GENOBJ-N-CHA_13
1002
{
1000
OWNER
1000
GEN
1002
}
  0
LINE
  5
7660
330
1F
100
AcDbEntity
  8
AM_0
100
AcDbLine
 10
-0.0000000000010735
 20
0.0000000000029498
 30
0.0
 11
-0.4185657694073694
 21
1.150000000002949
 31
0.0
  0
LINE
  5
7661
330
1F
100
AcDbEntity
  8
AM_0
100
AcDbLine
 10
-0.5175103282097365
 20
-0.0901542671243242
 30
0.0
 11
-0.000000000001243
 21
0.0000000000029498
 31
0.0
  0
LINE
  5
7662
330
1F
100
AcDbEntity
  8
AM_0
100
AcDbLine
 10
-0.4185657694073694
 20
-1.14999999999705
 30
0.0
 11
-0.0000000000010735
 21
0.0000000000029498
 31
0.0
  0
LINE
  5
7664
330
1F
100
AcDbEntity
  8
AM_0
100
AcDbLine
 10
-0.000000000001243
 20
0.0000000000029498
 30
0.0
 11
-0.2782098373738079
 21
0.1998609264109945
 31
0.0
  0
LINE
  5
7665
330
1F
100
AcDbEntity
  8
AM_0
100
AcDbLine
 10
-0.2782098373738079
 20
0.1998609264109945
 30
0.0
 11
-0.0726831830922285
 21
0.1996954043199153
 31
0.0
  0
SPLINE
  5
799B
330
1F
100
AcDbEntity
  8
AM_0
100
AcDbSpline
210
0.0
220
0.0
230
1.0
 70
     8
 71
     3
 72
     9
 73
     5
 74
     0
 42
0.0000000001
 43
0.0000000001
 40
0.0
 40
0.0
 40
0.0
 40
0.0
 40
0.0706215231486265
 40
0.819600610642454
 40
0.819600610642454
 40
0.819600610642454
 40
0.819600610642454
 10
-0.2782009028211851
 20
0.1996954043199072
 30
0.0
 10
-0.2766308359675481
 20
0.1706083403082486
 30
0.0
 10
-0.2584093689895249
 20
-0.166962620538623
 30
0.0
 10
-0.8572502539155488
 20
0.3098655913908839
 30
0.0
 10
-1.044045267847678
 20
0.5298035774525535
 30
0.0
  0
SPLINE
  5
799C
330
1F
100
AcDbEntity
  8
AM_0
100
AcDbSpline
210
0.0
220
0.0
230
1.0
 70
     8
 71
     3
 72
     9
 73
     5
 74
     0
 42
0.0000000001
 43
0.0000000001
 40
0.0
 40
0.0
 40
0.0
 40
0.0
 40
0.1987770877846628
 40
5.759128114445015
 40
5.759128114445015
 40
5.759128114445015
 40
5.759128114445015
 10
-6.709489895133592
 20
1.024388821155042
 30
0.0
 10
-6.724914868054563
 20
1.024388821155042
 30
0.0
 10
-7.17204830382627
 20
1.025805605085301
 30
0.0
 10
-7.605921804924305
 20
0.9451260040058503
 30
0.0
 10
-8.017262269426277
 20
0.8204381671013617
 30
0.0
  0
SPLINE
  5
799D
330
1F
100
AcDbEntity
  8
AM_0
100
AcDbSpline
210
0.0
220
0.0
230
1.0
 70
     8
 71
     3
 72
     8
 73
     4
 74
     0
 42
0.0000000001
 43
0.0000000001
 40
0.0
 40
0.0
 40
0.0
 40
0.0
 40
6.247244990625308
 40
6.247244990625308
 40
6.247244990625308
 40
6.247244990625308
 10
-6.755764813898114
 20
1.150000000002941
 30
0.0
 10
-7.240546968043624
 20
1.150000000002941
 30
0.0
 10
-7.706072585589622
 20
1.043117068804545
 30
0.0
 10
-8.160643966774618
 20
0.8754329190043709
 30
0.0
  0
SPLINE
  5
799E
330
1F
100
AcDbEntity
  8
AM_0
100
AcDbSpline
210
0.0
220
0.0
230
1.0
 70
     8
 71
     3
 72
     8
 73
     4
 74
     0
 42
0.0000000001
 43
0.0000000001
 40
0.0
 40
0.0
 40
0.0
 40
0.0
 40
6.870645942600294
 40
6.870645942600294
 40
6.870645942600294
 40
6.870645942600294
 10
-6.755764813898114
 20
1.024388821156538
 30
0.0
 10
-6.22260989829621
 20
1.02607990308247
 30
0.0
 10
-5.687425761409192
 20
0.9450447857450386
 30
0.0
 10
-5.165313108482303
 20
0.8034780623711355
 30
0.0
  0
LINE
  5
799F
330
1F
100
AcDbEntity
  8
AM_0
100
AcDbLine
 10
-3.233416112860728
 20
1.150000000002949
 30
0.0
 11
-6.755764813897769
 21
1.150000000002949
 31
0.0
  0
SPLINE
  5
79A0
330
1F
100
AcDbEntity
  8
AM_0
100
AcDbSpline
210
0.0
220
0.0
230
1.0
 70
     8
 71
     3
 72
     8
 73
     4
 74
     0
 42
0.0000000001
 43
0.0000000001
 40
0.0
 40
0.0
 40
0.0
 40
0.0
 40
6.247244990626095
 40
6.247244990626095
 40
6.247244990626095
 40
6.247244990626095
 10
-0.4185657694073694
 20
1.150000000002949
 30
0.0
 10
-0.9084399612533074
 20
1.150000000002941
 30
0.0
 10
-1.373965578799354
 20
1.043117068804521
 30
0.0
 10
-1.828536959984419
 20
0.8754329190042891
 30
0.0
  0
LINE
  5
79A1
330
1F
100
AcDbEntity
  8
AM_11
 48
0.2
100
AcDbLine
 10
-0.4185657694073695
 20
1.150000000002949
 30
0.0
 11
-3.233416112860728
 21
1.150000000002949
 31
0.0
  0
SPLINE
  5
79A2
330
1F
100
AcDbEntity
  8
AM_0
100
AcDbSpline
210
0.0
220
0.0
230
1.0
 70
     8
 71
     3
 72
     8
 73
     4
 74
     0
 42
0.0000000001
 43
0.0000000001
 40
19.09542421355049
 40
19.09542421355049
 40
19.09542421355049
 40
19.09542421355049
 40
28.97999309868792
 40
28.97999309868792
 40
28.97999309868792
 40
28.97999309868792
 10
-1.044045267847678
 20
0.5298035774525535
 30
0.0
 10
-1.747551577967219
 20
0.8824242537851283
 30
0.0
 10
-2.466379986676272
 20
1.150000000002941
 30
0.0
 10
-3.233416112861085
 20
1.150000000002941
 30
0.0
  0
SPLINE
  5
79A3
330
1F
100
AcDbEntity
  8
AM_0
100
AcDbSpline
210
0.0
220
0.0
230
1.0
 70
     8
 71
     3
 72
     9
 73
     5
 74
     0
 42
0.0000000001
 43
0.0000000001
 40
0.0
 40
0.0
 40
0.0
 40
0.0
 40
0.1987770877846628
 40
5.759128114460802
 40
5.759128114460802
 40
5.759128114460802
 40
5.759128114460802
 10
-0.3728480010662617
 20
1.024391463817948
 30
0.0
 10
-0.392807861265804
 20
1.024388821158
 30
0.0
 10
-0.8399412970387416
 20
1.025805605088259
 30
0.0
 10
-1.273814798137929
 20
0.9451260040083671
 30
0.0
 10
-1.685155262641015
 20
0.8204381671032411
 30
0.0
  0
LINE
  5
79A4
330
1F
100
AcDbEntity
  8
AM_0
100
AcDbLine
 10
-0.4185657694073694
 20
-1.14999999999705
 30
0.0
 11
-0.5175103282097365
 21
-0.0901542671243242
 31
0.0
  0
SPLINE
  5
79A5
330
1F
100
AcDbEntity
  8
AM_0
100
AcDbSpline
210
0.0
220
0.0
230
1.0
 70
     8
 71
     3
 72
     8
 73
     4
 74
     0
 42
0.0000000001
 43
0.0000000001
 40
22.73274810806179
 40
22.73274810806179
 40
22.73274810806179
 40
22.73274810806179
 40
28.97999309868792
 40
28.97999309868792
 40
28.97999309868792
 40
28.97999309868792
 10
-1.828536959984394
 20
-0.8754329189984305
 30
0.0
 10
-2.283108341169459
 20
-1.043117068798645
 30
0.0
 10
-2.748633958715507
 20
-1.149999999997058
 30
0.0
 10
-3.233416112861085
 20
-1.149999999997058
 30
0.0
  0
LINE
  5
79A6
330
1F
100
AcDbEntity
  8
AM_0
100
AcDbLine
 10
-3.233416112860728
 20
-1.14999999999705
 30
0.0
 11
-6.755764813897769
 21
-1.14999999999705
 31
0.0
  0
LINE
  5
79A7
330
1F
100
AcDbEntity
  8
AM_11
 48
0.2
100
AcDbLine
 10
-0.4185657694073695
 20
-1.14999999999705
 30
0.0
 11
-3.233416112860728
 21
-1.14999999999705
 31
0.0
  0
SPLINE
  5
79A8
330
1F
100
AcDbEntity
  8
AM_0
100
AcDbSpline
210
0.0
220
0.0
230
1.0
 70
     8
 71
     3
 72
     9
 73
     5
 74
     0
 42
0.0000000001
 43
0.0000000001
 40
1.521176736886217
 40
1.521176736886217
 40
1.521176736886217
 40
1.521176736886217
 40
14.48999654934396
 40
28.97999309868792
 40
28.97999309868792
 40
28.97999309868792
 40
28.97999309868792
 10
-0.4204095684750766
 20
-1.130250125948015
 30
0.0
 10
-1.413208713912814
 20
-1.029271658795447
 30
0.0
 10
-3.347681064095269
 20
0.0603641706037511
 30
0.0
 10
-5.282153414277698
 20
1.150000000002941
 30
0.0
 10
-6.406567736317761
 20
1.150000000002941
 30
0.0
  0
SPLINE
  5
79A9
330
1F
100
AcDbEntity
  8
AM_0
100
AcDbSpline
210
0.0
220
0.0
230
1.0
 70
     8
 71
     3
 72
     9
 73
     5
 74
     0
 42
0.0000000001
 43
0.0000000001
 40
0.0
 40
0.0
 40
0.0
 40
0.0
 40
2.897999309868785
 40
5.795998619737583
 40
5.795998619737583
 40
5.795998619737583
 40
5.795998619737583
 10
-0.4185657694073694
 20
-1.14999999999705
 30
0.0
 10
-1.548072129147792
 20
-1.149999999997058
 30
0.0
 10
-3.589711310502917
 20
0.0000000000029539
 30
0.0
 10
-5.631350491858046
 20
1.150000000002941
 30
0.0
 10
-6.755764813898114
 20
1.150000000002941
 30
0.0
  0
LINE
  5
79AA
330
1F
100
AcDbEntity
  8
AM_0
100
AcDbLine
 10
-0.5175103282097365
 20
-0.0901542671243242
 30
0.0
 11
-1.044045267847678
 21
0.5298035774525616
 31
0.0
  0
LINE
  5
79AB
330
1F
100
AcDbEntity
  8
AM_0
100
AcDbLine
 10
-10.08839643771128
 20
0.2875052318381947
 30
0.0
 11
-11.71926723569066
 21
1.150000000002949
 31
0.0
  0
SPLINE
  5
79AC
330
1F
100
AcDbEntity
  8
AM_0
100
AcDbSpline
210
0.0
220
0.0
230
1.0
 70
     8
 71
     3
 72
     8
 73
     4
 74
     0
 42
0.0000000001
 43
0.0000000001
 40
0.0
 40
0.0
 40
0.0
 40
0.0
 40
10.77533687840354
 40
10.77533687840354
 40
10.77533687840354
 40
10.77533687840354
 10
-9.565523119651127
 20
-1.149999999997058
 30
0.0
 10
-10.40168226362498
 20
-1.149999999997058
 30
0.0
 10
-11.18055351876578
 20
-0.832024986733705
 30
0.0
 10
-11.94473843429589
 20
-0.4325338078788957
 30
0.0
  0
SPLINE
  5
79AD
330
1F
100
AcDbEntity
  8
AM_0
100
AcDbSpline
210
0.0
220
0.0
230
1.0
 70
     8
 71
     3
 72
    10
 73
     6
 74
     0
 42
0.0000000001
 43
0.0000000001
 40
0.0
 40
0.0
 40
0.0
 40
0.0
 40
1.289535171527021
 40
2.633093948023314
 40
3.554477928175853
 40
3.554477928175853
 40
3.554477928175853
 40
3.554477928175853
 10
-11.94473492888245
 20
-0.4325356403951304
 30
0.0
 10
-12.38697742253392
 20
-0.2013457138329267
 30
0.0
 10
-13.77468160650114
 20
0.9636903800205859
 30
0.0
 10
-11.41856460475458
 20
0.7769499723289883
 30
0.0
 10
-10.75050840827046
 20
0.4582813433594913
 30
0.0
 10
-10.43758392893856
 20
0.2875000000029417
 30
0.0
  0
LINE
  5
79AE
330
1F
100
AcDbEntity
  8
AM_0
100
AcDbLine
 10
-13.00000000002134
 20
-1.14999999999705
 30
0.0
 11
-13.00000000002134
 21
1.150000000002949
 31
0.0
  0
LINE
  5
79AF
330
1F
100
AcDbEntity
  8
AM_11
 48
0.2
100
AcDbLine
 10
-6.755764813898114
 20
1.150000000002949
 30
0.0
 11
-9.565523119650961
 21
1.150000000002949
 31
0.0
  0
LINE
  5
79B0
330
1F
100
AcDbEntity
  8
AM_11
 48
0.2
100
AcDbLine
 10
-6.406567736317617
 20
-1.14999999999705
 30
0.0
 11
-9.565523119650837
 21
-1.14999999999705
 31
0.0
  0
SPLINE
  5
79B1
330
1F
100
AcDbEntity
  8
AM_0
100
AcDbSpline
210
0.0
220
0.0
230
1.0
 70
     8
 71
     3
 72
     8
 73
     4
 74
     0
 42
0.0000000001
 43
0.0000000001
 40
22.73274810806259
 40
22.73274810806259
 40
22.73274810806259
 40
22.73274810806259
 40
28.97999309868794
 40
28.97999309868794
 40
28.97999309868794
 40
28.97999309868794
 10
-8.160643966774607
 20
-0.8754329189984794
 30
0.0
 10
-8.615215347959608
 20
-1.04311706879867
 30
0.0
 10
-9.080740965505603
 20
-1.149999999997058
 30
0.0
 10
-9.565523119651127
 20
-1.149999999997058
 30
0.0
  0
SPLINE
  5
79B2
330
1F
100
AcDbEntity
  8
AM_0
100
AcDbSpline
210
0.0
220
0.0
230
1.0
 70
     8
 71
     3
 72
     9
 73
     5
 74
     0
 42
0.0000000001
 43
0.0000000001
 40
0.0
 40
0.0
 40
0.0
 40
0.0
 40
2.897999309868796
 40
5.795998619737594
 40
5.795998619737594
 40
5.795998619737594
 40
5.795998619737594
 10
-3.23341611286073
 20
-1.149999999997058
 30
0.0
 10
-4.357830434900797
 20
-1.149999999997058
 30
0.0
 10
-6.399469616255931
 20
0.0000000000029498
 30
0.0
 10
-8.441108797611059
 20
1.150000000002941
 30
0.0
 10
-9.565523119651127
 20
1.150000000002941
 30
0.0
  0
SPLINE
  5
79B3
330
1F
100
AcDbEntity
  8
AM_0
100
AcDbSpline
210
0.0
220
0.0
230
1.0
 70
     8
 71
     3
 72
     9
 73
     5
 74
     0
 42
0.0000000001
 43
0.0000000001
 40
0.0
 40
0.0
 40
0.0
 40
0.0
 40
14.48999654934396
 40
16.92804852839734
 40
16.92804852839734
 40
16.92804852839734
 40
16.92804852839734
 10
-6.755764813898114
 20
-1.149999999997058
 30
0.0
 10
-7.880179135938174
 20
-1.149999999997058
 30
0.0
 10
-9.072759376442855
 20
-0.4782518825505282
 30
0.0
 10
-10.26533961694752
 20
0.1934962348960021
 30
0.0
 10
-10.43759373785247
 20
0.2875053533024406
 30
0.0
  0
SPLINE
  5
79B4
330
1F
100
AcDbEntity
  8
AM_0
100
AcDbSpline
210
0.0
220
0.0
230
1.0
 70
     8
 71
     3
 72
     9
 73
     5
 74
     0
 42
0.0000000001
 43
0.0000000001
 40
0.0
 40
0.0
 40
0.0
 40
0.0
 40
14.48999654934396
 40
16.9280474783711
 40
16.9280474783711
 40
16.9280474783711
 40
16.9280474783711
 10
-6.755764813897772
 20
-1.149999999997058
 30
0.0
 10
-7.880179135937831
 20
-1.149999999997058
 30
0.0
 10
-9.072759302468202
 20
-0.4782519242182623
 30
0.0
 10
-10.26533946899857
 20
0.1934961515605582
 30
0.0
 10
-10.43759351529164
 20
0.2875052318382028
 30
0.0
  0
SPLINE
  5
79B5
330
1F
100
AcDbEntity
  8
AM_0
100
AcDbSpline
210
0.0
220
0.0
230
1.0
 70
     8
 71
     3
 72
     9
 73
     5
 74
     0
 42
0.0000000001
 43
0.0000000001
 40
0.0
 40
0.0
 40
0.0
 40
0.0
 40
14.48999654934396
 40
16.9280474783711
 40
16.9280474783711
 40
16.9280474783711
 40
16.9280474783711
 10
-6.406567736317417
 20
-1.149999999997058
 30
0.0
 10
-7.530982058357478
 20
-1.149999999997058
 30
0.0
 10
-8.723562224887848
 20
-0.4782519242182623
 30
0.0
 10
-9.91614239141823
 20
0.1934961515605582
 30
0.0
 10
-10.08839643771128
 20
0.2875052318382028
 30
0.0
  0
VIEWPORT
  5
E2
330
1B
100
AcDbEntity
 67
     1
  8
0
100
AcDbViewport
 10
158.659971393327
 20
148.5
 30
0.0
 40
581.809078125
 41
314.226
 68
     1
 69
     1
1001
ACAD
1000
MVIEW
1002
{
1070
    16
1010
0.0
1020
0.0
1030
0.0
1010
0.0
1020
0.0
1030
1.0
1040
0.0
1040
314.226
1040
158.659971393327
1040
148.5
1040
50.0
1040
0.0
1040
0.0
1070
     0
1070
   100
1070
     1
1070
     1
1070
     0
1070
     0
1070
     0
1070
     0
1040
0.0
1040
0.0
1040
0.0
1040
10.0
1040
10.0
1040
10.0
1040
10.0
1070
     0
1002
{
1002
}
1002
}
  0
ENDSEC
  0
SECTION
  2
OBJECTS
  0
DICTIONARY
  5
C
330
0
100
AcDbDictionary
  3
ACAD_GROUP
350
D
  3
ACAD_LAYOUT
350
1A
  3
ACAD_MLINESTYLE
350
17
  3
ACAD_PLOTSETTINGS
350
19
  3
ACAD_PLOTSTYLENAME
350
E
  3
ACDBVARIABLEDICTIONARY
350
34
  3
ACMDICTIONARY
350
43
  3
AMG
350
2B
  3
AMGSNAPSETTINGS
350
6E
  3
DWGPROPS
350
79F8
  3
ACDBHEADERROUNDTRIPXREC
350
7A07
  0
DICTIONARY
  5
74
330
1F
100
AcDbDictionary
280
     1
  3
ACAD_INDEX
360
79FA
  3
ACAD_LAYOUTSELFREF
360
7A2A
  0
DICTIONARY
  5
7A28
330
1B
100
AcDbDictionary
280
     1
  3
ACAD_LAYOUTSELFREF
360
7A29
  0
DICTIONARY
  5
D
102
{ACAD_REACTORS
330
C
102
}
330
C
100
AcDbDictionary
  0
DICTIONARY
  5
1A
102
{ACAD_REACTORS
330
C
102
}
330
C
100
AcDbDictionary
  0
DICTIONARY
  5
17
102
{ACAD_REACTORS
330
C
102
}
330
C
100
AcDbDictionary
  3
STANDARD
350
18
  0
DICTIONARY
  5
19
102
{ACAD_REACTORS
330
C
102
}
330
C
100
AcDbDictionary
  0
ACDBDICTIONARYWDFLT
  5
E
102
{ACAD_REACTORS
330
C
102
}
330
C
100
AcDbDictionary
281
     1
  3
Normal
350
F
100
AcDbDictionaryWithDefault
340
F
  0
DICTIONARY
  5
34
102
{ACAD_REACTORS
330
C
102
}
330
C
100
AcDbDictionary
  3
INDEXCTL
350
35
  3
SORTENTS
350
B5E
  0
DICTIONARY
  5
43
102
{ACAD_REACTORS
330
C
102
}
330
C
100
AcDbDictionary
  3
ACMSTDDICTIONARY
350
260
  0
DICTIONARY
  5
2B
102
{ACAD_REACTORS
330
C
102
}
330
C
100
AcDbDictionary
  3
ACMGSETTINGS
350
2C
  0
DICTIONARY
  5
6E
102
{ACAD_REACTORS
330
C
102
}
330
C
100
AcDbDictionary
  0
XRECORD
  5
79F8
102
{ACAD_REACTORS
330
C
102
}
330
C
100
AcDbXrecord
  1
DWGPROPS COOKIE
  2

  3

  4

  6

  7

  8

  9

300
AmdtFileType=82
301
=
302
=
303
=
304
=
305
=
306
=
307
=
308
=
309
=
 40
1.356741712962962
 41
2452838.620506898
 42
2452954.558420937
  1

 90
        1
  0
DICTIONARY
  5
7A07
102
{ACAD_REACTORS
330
C
102
}
330
C
100
AcDbDictionary
  3
TSTACKALIGN
350
7A08
  3
TSTACKSIZE
350
7A09
  3
HYPERLINKBASE
350
7A0A
  3
STYLESHEET
350
7A0B
  3
LAYOUTDICT
350
7A0C
  3
PLOTSETDICT
350
7A0D
  3
PLOTSTYLNAMDICT
350
7A0E
  3
LWETCUNION
350
7A0F
  3
INSUNITS
350
7A10
  3
CEPSNTYPE
350
7A11
  3
FINGERPRINTGUID
350
7A12
  3
VERSIONGUID
350
7A13
  3
PSVPSCALE
350
7A14
  3
DIMSTYLEDATA
350
7A15
  3
PUCSORTHOREF
350
7A16
  3
PUCSORTHOVIEW
350
7A17
  3
PUCSBASE
350
7A18
  3
PUCSORGTOP
350
7A19
  3
PUCSORGBOTTOM
350
7A1A
  3
PUCSORGLEFT
350
7A1B
  3
PUCSORGRIGHT
350
7A1C
  3
PUCSORGFRONT
350
7A1D
  3
PUCSORGBACK
350
7A1E
  3
UCSORTHOREF
350
7A1F
  3
UCSORTHOVIEW
350
7A20
  3
UCSBASE
350
7A21
  3
UCSORGTOP
350
7A22
  3
UCSORGBOTTOM
350
7A23
  3
UCSORGLEFT
350
7A24
  3
UCSORGRIGHT
350
7A25
  3
UCSORGFRONT
350
7A26
  3
UCSORGBACK
350
7A27
  0
DICTIONARY
  5
79FA
102
{ACAD_REACTORS
330
74
102
}
330
74
100
AcDbDictionary
  3
*A1
350
79FB
  0
XRECORD
  5
7A2A
102
{ACAD_REACTORS
330
74
102
}
330
74
100
AcDbXrecord
340
1F
  0
XRECORD
  5
7A29
102
{ACAD_REACTORS
330
7A28
102
}
330
7A28
100
AcDbXrecord
340
1B
  0
MLINESTYLE
  5
18
102
{ACAD_REACTORS
330
17
102
}
330
17
100
AcDbMlineStyle
  2
STANDARD
 70
     0
  3

 62
   256
 51
90.0
 52
90.0
 71
     2
 49
0.5
 62
   256
  6
BYLAYER
 49
-0.5
 62
   256
  6
BYLAYER
  0
ACDBPLACEHOLDER
  5
F
102
{ACAD_REACTORS
330
E
102
}
330
E
100
AcDbPlaceHolder
280
     0
  0
DICTIONARYVAR
  5
35
102
{ACAD_REACTORS
330
34
102
}
330
34
100
DictionaryVariables
280
     0
  1
1
  0
DICTIONARYVAR
  5
B5E
102
{ACAD_REACTORS
330
34
102
}
330
34
100
DictionaryVariables
280
     0
  1
96
  0
DICTIONARY
  5
260
102
{ACAD_REACTORS
330
43
102
}
330
43
100
AcDbDictionary
  0
DICTIONARY
  5
2C
102
{ACAD_REACTORS
330
2B
102
}
330
2B
100
AcDbDictionary
  3
DWGSETTINGS
350
2D
  0
XRECORD
  5
7A08
102
{ACAD_REACTORS
330
7A07
102
}
330
7A07
100
AcDbXrecord
 90
        1
  0
XRECORD
  5
7A09
102
{ACAD_REACTORS
330
7A07
102
}
330
7A07
100
AcDbXrecord
 90
       70
  0
XRECORD
  5
7A0A
102
{ACAD_REACTORS
330
7A07
102
}
330
7A07
100
AcDbXrecord
  1

  0
XRECORD
  5
7A0B
102
{ACAD_REACTORS
330
7A07
102
}
330
7A07
100
AcDbXrecord
  1
C:\Program Files\ACAD LT 2000\Plot Styles\ASAMI.ctb
  0
XRECORD
  5
7A0C
102
{ACAD_REACTORS
330
7A07
102
}
330
7A07
100
AcDbXrecord
340
1A
  0
XRECORD
  5
7A0D
102
{ACAD_REACTORS
330
7A07
102
}
330
7A07
100
AcDbXrecord
340
19
  0
XRECORD
  5
7A0E
102
{ACAD_REACTORS
330
7A07
102
}
330
7A07
100
AcDbXrecord
340
E
  0
XRECORD
  5
7A0F
102
{ACAD_REACTORS
330
7A07
102
}
330
7A07
100
AcDbXrecord
 90
    10781
  0
XRECORD
  5
7A10
102
{ACAD_REACTORS
330
7A07
102
}
330
7A07
100
AcDbXrecord
 90
        4
  0
XRECORD
  5
7A11
102
{ACAD_REACTORS
330
7A07
102
}
330
7A07
100
AcDbXrecord
 90
        0
  0
XRECORD
  5
7A12
102
{ACAD_REACTORS
330
7A07
102
}
330
7A07
100
AcDbXrecord
  1
{AFB28963-8C59-40AE-9337-C84526B81ACE}
  0
XRECORD
  5
7A13
102
{ACAD_REACTORS
330
7A07
102
}
330
7A07
100
AcDbXrecord
  1
{E3DABBF5-9E4C-435A-9B80-2C0F94D1F29B}
  0
XRECORD
  5
7A14
102
{ACAD_REACTORS
330
7A07
102
}
330
7A07
100
AcDbXrecord
 40
0.0
  0
XRECORD
  5
7A15
102
{ACAD_REACTORS
330
7A07
102
}
330
7A07
100
AcDbXrecord
1000
DSTYLE
1002
{
1070
    79
 70
     2
1070
   341
340
59
1070
   342
340
59
1070
   371
 70
    -1
1070
   372
 70
    -1
1002
}
  0
XRECORD
  5
7A16
102
{ACAD_REACTORS
330
7A07
102
}
330
7A07
100
AcDbXrecord
340
0
  0
XRECORD
  5
7A17
102
{ACAD_REACTORS
330
7A07
102
}
330
7A07
100
AcDbXrecord
 70
     0
  0
XRECORD
  5
7A18
102
{ACAD_REACTORS
330
7A07
102
}
330
7A07
100
AcDbXrecord
340
0
  0
XRECORD
  5
7A19
102
{ACAD_REACTORS
330
7A07
102
}
330
7A07
100
AcDbXrecord
 10
0.0
 20
0.0
 30
0.0
  0
XRECORD
  5
7A1A
102
{ACAD_REACTORS
330
7A07
102
}
330
7A07
100
AcDbXrecord
 10
0.0
 20
0.0
 30
0.0
  0
XRECORD
  5
7A1B
102
{ACAD_REACTORS
330
7A07
102
}
330
7A07
100
AcDbXrecord
 10
0.0
 20
0.0
 30
0.0
  0
XRECORD
  5
7A1C
102
{ACAD_REACTORS
330
7A07
102
}
330
7A07
100
AcDbXrecord
 10
0.0
 20
0.0
 30
0.0
  0
XRECORD
  5
7A1D
102
{ACAD_REACTORS
330
7A07
102
}
330
7A07
100
AcDbXrecord
 10
0.0
 20
0.0
 30
0.0
  0
XRECORD
  5
7A1E
102
{ACAD_REACTORS
330
7A07
102
}
330
7A07
100
AcDbXrecord
 10
0.0
 20
0.0
 30
0.0
  0
XRECORD
  5
7A1F
102
{ACAD_REACTORS
330
7A07
102
}
330
7A07
100
AcDbXrecord
340
0
  0
XRECORD
  5
7A20
102
{ACAD_REACTORS
330
7A07
102
}
330
7A07
100
AcDbXrecord
 70
     0
  0
XRECORD
  5
7A21
102
{ACAD_REACTORS
330
7A07
102
}
330
7A07
100
AcDbXrecord
340
0
  0
XRECORD
  5
7A22
102
{ACAD_REACTORS
330
7A07
102
}
330
7A07
100
AcDbXrecord
 10
0.0
 20
0.0
 30
0.0
  0
XRECORD
  5
7A23
102
{ACAD_REACTORS
330
7A07
102
}
330
7A07
100
AcDbXrecord
 10
0.0
 20
0.0
 30
0.0
  0
XRECORD
  5
7A24
102
{ACAD_REACTORS
330
7A07
102
}
330
7A07
100
AcDbXrecord
 10
0.0
 20
0.0
 30
0.0
  0
XRECORD
  5
7A25
102
{ACAD_REACTORS
330
7A07
102
}
330
7A07
100
AcDbXrecord
 10
0.0
 20
0.0
 30
0.0
  0
XRECORD
  5
7A26
102
{ACAD_REACTORS
330
7A07
102
}
330
7A07
100
AcDbXrecord
 10
0.0
 20
0.0
 30
0.0
  0
XRECORD
  5
7A27
102
{ACAD_REACTORS
330
7A07
102
}
330
7A07
100
AcDbXrecord
 10
0.0
 20
0.0
 30
0.0
  0
LAYER_INDEX
  5
79FB
102
{ACAD_REACTORS
330
79FA
102
}
330
79FA
100
AcDbIndex
 40
2453151.593256817
100
AcDbLayerIndex
  8
0
360
79FC
 90
        0
  8
AM_0
360
79FD
 90
       39
  8
AM_11
360
79FE
 90
        4
  8
AM_7
360
79FF
 90
        1
  8
AM_5
360
7A00
 90
        4
  8
Defpoints
360
7A01
 90
        0
  8
AM_6
360
7A02
 90
        1
  8
AM_CL
360
7A03
 90
        0
  8
5
360
7A04
 90
        0
  8
AM_4
360
7A05
 90
        0
  0
XRECORD
  5
2D
102
{ACAD_REACTORS
330
2C
102
}
330
2C
100
AcDbXrecord
  1
VERSION
140
15.0
  1
PRODUCT
  2
AutoCAD Mechanical 2000
  0
IDBUFFER
  5
79FC
330
0
100
AcDbIdBuffer
  0
IDBUFFER
  5
79FD
330
0
100
AcDbIdBuffer
330
799B
330
799C
330
799D
330
799E
330
799F
330
79A0
330
79A2
330
79A3
330
79A4
330
79A5
330
79A6
330
79A8
330
79A9
330
79AA
330
79AB
330
79AC
330
79AD
330
79AE
330
79B1
330
79B2
330
79B3
330
79B4
330
79B5
330
631C
330
631D
330
6343
330
6348
330
6349
330
634B
330
634C
330
638E
330
63DB
330
6BFA
330
6BFD
330
7660
330
7661
330
7662
330
7664
330
7665
  0
IDBUFFER
  5
79FE
330
0
100
AcDbIdBuffer
330
79A1
330
79A7
330
79AF
330
79B0
  0
IDBUFFER
  5
79FF
330
0
100
AcDbIdBuffer
330
6320
  0
IDBUFFER
  5
7A00
330
0
100
AcDbIdBuffer
330
634F
330
63C1
330
640B
330
6418
  0
IDBUFFER
  5
7A01
330
0
100
AcDbIdBuffer
  0
IDBUFFER
  5
7A02
330
0
100
AcDbIdBuffer
330
C58
  0
IDBUFFER
  5
7A03
330
0
100
AcDbIdBuffer
  0
IDBUFFER
  5
7A04
330
0
100
AcDbIdBuffer
  0
IDBUFFER
  5
7A05
330
0
100
AcDbIdBuffer
  0
ENDSEC
  0
EOF
