  0
SECTION
  2
HEADER
  9
$ACADVER
  1
AC1014
  9
$ACADMAINTVER
 70
     9
  9
$DWGCODEPAGE
  3
ANSI_932
  9
$INSBASE
 10
0.0
 20
0.0
 30
0.0
  9
$EXTMIN
 10
-55.0414684774465
 20
-28.6365531531668
 30
-0.00000001
  9
$EXTMAX
 10
17.47032527910189
 20
16.95107639034304
 30
0.00000001
  9
$LIMMIN
 10
-63.8778248462238
 20
-39.13421022924737
  9
$LIMMAX
 10
28.27457533470738
 20
26.10729215561332
  9
$ORTHOMODE
 70
     0
  9
$REGENMODE
 70
     1
  9
$FILLMODE
 70
     1
  9
$QTEXTMODE
 70
     0
  9
$MIRRTEXT
 70
     0
  9
$DRAGMODE
 70
     2
  9
$LTSCALE
 40
0.3
  9
$OSMODE
 70
    55
  9
$ATTMODE
 70
     1
  9
$TEXTSIZE
 40
2.5
  9
$TRACEWID
 40
1.0
  9
$TEXTSTYLE
  7
STANDARD
  9
$CLAYER
  8
AM_0
  9
$CELTYPE
  6
BYLAYER
  9
$CECOLOR
 62
   256
  9
$CELTSCALE
 40
1.0
  9
$DELOBJ
 70
     1
  9
$DISPSILH
 70
     0
  9
$DIMSCALE
 40
0.5
  9
$DIMASZ
 40
2.5
  9
$DIMEXO
 40
1.0
  9
$DIMDLI
 40
12.0
  9
$DIMRND
 40
0.0
  9
$DIMDLE
 40
0.0
  9
$DIMEXE
 40
1.0
  9
$DIMTP
 40
0.1
  9
$DIMTM
 40
0.1
  9
$DIMTXT
 40
3.2
  9
$DIMCEN
 40
0.0
  9
$DIMTSZ
 40
0.0
  9
$DIMTOL
 70
     0
  9
$DIMLIM
 70
     0
  9
$DIMTIH
 70
     0
  9
$DIMTOH
 70
     0
  9
$DIMSE1
 70
     0
  9
$DIMSE2
 70
     0
  9
$DIMTAD
 70
     3
  9
$DIMZIN
 70
     8
  9
$DIMBLK
  1
OPEN30
  9
$DIMASO
 70
     1
  9
$DIMSHO
 70
     1
  9
$DIMPOST
  1

  9
$DIMAPOST
  1
"
  9
$DIMALT
 70
     0
  9
$DIMALTD
 70
     2
  9
$DIMALTF
 40
0.0393701
  9
$DIMLFAC
 40
1.0
  9
$DIMTOFL
 70
     1
  9
$DIMTVP
 40
0.0
  9
$DIMTIX
 70
     0
  9
$DIMSOXD
 70
     0
  9
$DIMSAH
 70
     0
  9
$DIMBLK1
  1

  9
$DIMBLK2
  1

  9
$DIMSTYLE
  2
AM_JIS
  9
$DIMCLRD
 70
     3
  9
$DIMCLRE
 70
     3
  9
$DIMCLRT
 70
     2
  9
$DIMTFAC
 40
0.71
  9
$DIMGAP
 40
1.5
  9
$DIMJUST
 70
     0
  9
$DIMSD1
 70
     0
  9
$DIMSD2
 70
     0
  9
$DIMTOLJ
 70
     0
  9
$DIMTZIN
 70
     0
  9
$DIMALTZ
 70
     0
  9
$DIMALTTZ
 70
     0
  9
$DIMFIT
 70
     3
  9
$DIMUPT
 70
     0
  9
$DIMUNIT
 70
     2
  9
$DIMDEC
 70
     3
  9
$DIMTDEC
 70
     3
  9
$DIMALTU
 70
     2
  9
$DIMALTTD
 70
     2
  9
$DIMTXSTY
  7
ASAMI
  9
$DIMAUNIT
 70
     0
  9
$LUNITS
 70
     2
  9
$LUPREC
 70
     2
  9
$SKETCHINC
 40
1.0
  9
$FILLETRAD
 40
0.8
  9
$AUNITS
 70
     0
  9
$AUPREC
 70
     0
  9
$MENU
  1
.
  9
$ELEVATION
 40
0.0
  9
$PELEVATION
 40
0.0
  9
$THICKNESS
 40
0.0
  9
$LIMCHECK
 70
     0
  9
$BLIPMODE
 70
     0
  9
$CHAMFERA
 40
0.3
  9
$CHAMFERB
 40
0.3
  9
$CHAMFERC
 40
20.0
  9
$CHAMFERD
 40
0.0
  9
$SKPOLY
 70
     0
  9
$TDCREATE
 40
2452838.620506898
  9
$TDUPDATE
 40
2453151.593787778
  9
$TDINDWG
 40
1.3874051273
  9
$TDUSRTIMER
 40
1.3874051273
  9
$USRTIMER
 70
     1
  9
$ANGBASE
 50
0.0
  9
$ANGDIR
 70
     0
  9
$PDMODE
 70
     0
  9
$PDSIZE
 40
0.0
  9
$PLINEWID
 40
0.0
  9
$COORDS
 70
     1
  9
$SPLFRAME
 70
     0
  9
$SPLINETYPE
 70
     6
  9
$SPLINESEGS
 70
     8
  9
$ATTDIA
 70
     1
  9
$ATTREQ
 70
     1
  9
$HANDLING
 70
 12289
  9
$HANDSEED
  5
7CD0
  9
$SURFTAB1
 70
     6
  9
$SURFTAB2
 70
     6
  9
$SURFTYPE
 70
     6
  9
$SURFU
 70
     6
  9
$SURFV
 70
     6
  9
$UCSNAME
  2

  9
$UCSORG
 10
0.0
 20
0.0
 30
0.0
  9
$UCSXDIR
 10
1.0
 20
0.0
 30
0.0
  9
$UCSYDIR
 10
0.0
 20
1.0
 30
0.0
  9
$PUCSNAME
  2

  9
$PUCSORG
 10
0.0
 20
0.0
 30
0.0
  9
$PUCSXDIR
 10
1.0
 20
0.0
 30
0.0
  9
$PUCSYDIR
 10
0.0
 20
1.0
 30
0.0
  9
$USERI1
 70
     0
  9
$USERI2
 70
     0
  9
$USERI3
 70
     0
  9
$USERI4
 70
     0
  9
$USERI5
 70
     0
  9
$USERR1
 40
0.0
  9
$USERR2
 40
0.0
  9
$USERR3
 40
0.0
  9
$USERR4
 40
0.0
  9
$USERR5
 40
0.0
  9
$WORLDVIEW
 70
     1
  9
$SHADEDGE
 70
     3
  9
$SHADEDIF
 70
    70
  9
$TILEMODE
 70
     1
  9
$MAXACTVP
 70
    64
  9
$PINSBASE
 10
0.0
 20
0.0
 30
0.0
  9
$PLIMCHECK
 70
     0
  9
$PEXTMIN
 10
1.000000000000000E+20
 20
1.000000000000000E+20
 30
1.000000000000000E+20
  9
$PEXTMAX
 10
-1.000000000000000E+20
 20
-1.000000000000000E+20
 30
-1.000000000000000E+20
  9
$PLIMMIN
 10
0.0
 20
0.0
  9
$PLIMMAX
 10
210.0
 20
297.0
  9
$UNITMODE
 70
     0
  9
$VISRETAIN
 70
     1
  9
$PLINEGEN
 70
     0
  9
$PSLTSCALE
 70
     1
  9
$TREEDEPTH
 70
  3020
  9
$PICKSTYLE
 70
     0
  9
$CMLSTYLE
  2
STANDARD
  9
$CMLJUST
 70
     0
  9
$CMLSCALE
 40
20.0
  9
$PROXYGRAPHICS
 70
     1
  9
$MEASUREMENT
 70
     1
  0
ENDSEC
  0
SECTION
  2
CLASSES
  0
CLASS
  1
ACDBDICTIONARYWDFLT
  2
AcDbDictionaryWithDefault
  3
AutoCAD 2000
 90
        0
280
     0
281
     0
  0
CLASS
  1
ACDBPLACEHOLDER
  2
AcDbPlaceHolder
  3
AutoCAD 2000
 90
        0
280
     0
281
     0
  0
CLASS
  1
LAYOUT
  2
AcDbLayout
  3
AutoCAD 2000
 90
        0
280
     0
281
     0
  0
CLASS
  1
AMGSETTINGSOBJ
  2
AmgSettingsObj
  3
"AcadM|Product Description: AutoCAD Mechanical 2000|Company: Autodesk"
 90
        0
280
     0
281
     0
  0
CLASS
  1
ACME_DOCUMENT
  2
AcMeDbDoc
  3
AcMeServices
 90
        0
280
     0
281
     0
  0
CLASS
  1
ACMESCOPE
  2
AcMeScope
  3
AcMeServices
 90
        0
280
     0
281
     0
  0
CLASS
  1
ACMECOMMANDHISTORY
  2
AcMeCommandHistory
  3
AcMeServices
 90
        0
280
     0
281
     0
  0
CLASS
  1
DICTIONARYVAR
  2
AcDbDictionaryVar
  3
AutoCAD 2000
 90
        0
280
     0
281
     0
  0
CLASS
  1
ACIMSYSVARMAN
  2
AcImSysVarManager
  3
AcMeServices
 90
        0
280
     0
281
     0
  0
CLASS
  1
ACIMREALSYSVAR
  2
AcImRealSysVar
  3
AcMeServices
 90
        0
280
     0
281
     0
  0
CLASS
  1
ACIMINTSYSVAR
  2
AcImIntSysVar
  3
AcMeServices
 90
        0
280
     0
281
     0
  0
CLASS
  1
ACMEDRAWINGMAN
  2
AcMeDrawingMan
  3
AcMeServices
 90
        0
280
     0
281
     0
  0
CLASS
  1
ACMEVIEW
  2
AcMeView
  3
AcMeServices
 90
        0
280
     0
281
     0
  0
CLASS
  1
ACDBENTITYCACHE
  2
AcMeEntityCache
  3
AcMeServices
 90
        0
280
     0
281
     0
  0
CLASS
  1
GSMANAGER
  2
AcMeGSManager
  3
AcMeServices
 90
        0
280
     0
281
     0
  0
CLASS
  1
AmdtInternalReactor
  2
AmdtInternalReactor
  3
AcMeServices
 90
        0
280
     0
281
     0
  0
CLASS
  1
ACMESTATEMGR
  2
AcMeStateMgr
  3
AcMeServices
 90
        0
280
     0
281
     0
  0
CLASS
  1
ACME_DATABASE
  2
AcMeDbDatabase
  3
AcMeServices
 90
        0
280
     0
281
     0
  0
CLASS
  1
ACRFINSADJUSTERMGR
  2
AcRfInsAdjusterMgr
  3
AcMeServices
 90
        0
280
     0
281
     0
  0
CLASS
  1
ACMDATADICTIONARY
  2
AcmDataDictionary
  3
"AcmSymBB|Product Description: AutoCAD Mechanical 2000|Company: Autodesk"
 90
        0
280
     0
281
     0
  0
CLASS
  1
ACMDATAENTRYBLOCK
  2
AcmDataEntryBlock
  3
"AcmSymBB|Product Description: AutoCAD Mechanical 2000|Company: Autodesk"
 90
        0
280
     0
281
     0
  0
CLASS
  1
AMGOBJPROPCFG
  2
AmgObjPropCfg
  3
"AmgLay|Product Description: AutoCAD Mechanical 2000|Company: Autodesk"
 90
        1
280
     0
281
     0
  0
CLASS
  1
ACAMGFILTERDAT
  2
AcAmgFilterDat
  3
"AcadM|Product Description: AutoCAD Mechanical 2000|Company: Autodesk"
 90
        0
280
     0
281
     0
  0
CLASS
  1
LAYER_INDEX
  2
AcDbLayerIndex
  3
AutoCAD 2000
 90
        0
280
     0
281
     0
  0
CLASS
  1
IDBUFFER
  2
AcDbIdBuffer
  3
AutoCAD 2000
 90
        0
280
     0
281
     0
  0
CLASS
  1
ACIMSTRSYSVAR
  2
AcImStrSysVar
  3
AcMeServices
 90
        0
280
     0
281
     0
  0
CLASS
  1
ACMSTANDARDJIS
  2
AcmStandardJIS
  3
"AcmSymBB|Product Description: AutoCAD Mechanical 2000|Company: Autodesk"
 90
        0
280
     0
281
     0
  0
CLASS
  1
ACMSURFSTANDARDJIS
  2
AcmSurfTextStdJIS
  3
"AcmSymBB|Product Description: AutoCAD Mechanical 2000|Company: Autodesk"
 90
        0
280
     0
281
     0
  0
CLASS
  1
ACMFCFSTANDARDJIS
  2
AcmFCFStdJIS
  3
"AcmSymBB|Product Description: AutoCAD Mechanical 2000|Company: Autodesk"
 90
        0
280
     0
281
     0
  0
CLASS
  1
ACMWELDSTANDARDJIS
  2
AcmWeldingStdJIS
  3
"AcmSymBB|Product Description: AutoCAD Mechanical 2000|Company: Autodesk"
 90
        0
280
     0
281
     0
  0
CLASS
  1
ACMIDSTANDARDJIS
  2
AcmIdStdJIS
  3
"AcmSymBB|Product Description: AutoCAD Mechanical 2000|Company: Autodesk"
 90
        0
280
     0
281
     0
  0
CLASS
  1
ACMDATUMSTANDARDJIS
  2
AcmDatumStdJIS
  3
"AcmSymBB|Product Description: AutoCAD Mechanical 2000|Company: Autodesk"
 90
        0
280
     0
281
     0
  0
CLASS
  1
ACMBOMSTANDARDJIS
  2
AcmBOMStdJIS
  3
"AcmSymBB|Product Description: AutoCAD Mechanical 2000|Company: Autodesk"
 90
        0
280
     0
281
     0
  0
CLASS
  1
ACMSTANDARDANSI
  2
AcmStandardANSI
  3
"AcmSymBB|Product Description: AutoCAD Mechanical 2000|Company: Autodesk"
 90
        0
280
     0
281
     0
  0
CLASS
  1
ACMSURFSTANDARDANSI
  2
AcmSurfTextStdANSI
  3
"AcmSymBB|Product Description: AutoCAD Mechanical 2000|Company: Autodesk"
 90
        0
280
     0
281
     0
  0
CLASS
  1
ACMFCFSTANDARDANSI
  2
AcmFCFStdANSI
  3
"AcmSymBB|Product Description: AutoCAD Mechanical 2000|Company: Autodesk"
 90
        0
280
     0
281
     0
  0
CLASS
  1
ACMWELDSTANDARDANSI
  2
AcmWeldingStdANSI
  3
"AcmSymBB|Product Description: AutoCAD Mechanical 2000|Company: Autodesk"
 90
        0
280
     0
281
     0
  0
CLASS
  1
ACMIDSTANDARDANSI
  2
AcmIdStdANSI
  3
"AcmSymBB|Product Description: AutoCAD Mechanical 2000|Company: Autodesk"
 90
        0
280
     0
281
     0
  0
CLASS
  1
ACMDATUMSTANDARDANSI
  2
AcmDatumStdANSI
  3
"AcmSymBB|Product Description: AutoCAD Mechanical 2000|Company: Autodesk"
 90
        0
280
     0
281
     0
  0
CLASS
  1
ACMBOMSTANDARDANSI
  2
AcmBOMStdANSI
  3
"AcmSymBB|Product Description: AutoCAD Mechanical 2000|Company: Autodesk"
 90
        0
280
     0
281
     0
  0
CLASS
  1
ACMSTANDARDBSI
  2
AcmStandardBSI
  3
"AcmSymBB|Product Description: AutoCAD Mechanical 2000|Company: Autodesk"
 90
        0
280
     0
281
     0
  0
CLASS
  1
ACMSURFSTANDARDBSI
  2
AcmSurfTextStdBSI
  3
"AcmSymBB|Product Description: AutoCAD Mechanical 2000|Company: Autodesk"
 90
        0
280
     0
281
     0
  0
CLASS
  1
ACMFCFSTANDARDBSI
  2
AcmFCFStdBSI
  3
"AcmSymBB|Product Description: AutoCAD Mechanical 2000|Company: Autodesk"
 90
        0
280
     0
281
     0
  0
CLASS
  1
ACMWELDSTANDARDBSI
  2
AcmWeldingStdBSI
  3
"AcmSymBB|Product Description: AutoCAD Mechanical 2000|Company: Autodesk"
 90
        0
280
     0
281
     0
  0
CLASS
  1
ACMIDSTANDARDBSI
  2
AcmIdStdBSI
  3
"AcmSymBB|Product Description: AutoCAD Mechanical 2000|Company: Autodesk"
 90
        0
280
     0
281
     0
  0
CLASS
  1
ACMDATUMSTANDARDBSI
  2
AcmDatumStdBSI
  3
"AcmSymBB|Product Description: AutoCAD Mechanical 2000|Company: Autodesk"
 90
        0
280
     0
281
     0
  0
CLASS
  1
ACMBOMSTANDARDBSI
  2
AcmBOMStdBSI
  3
"AcmSymBB|Product Description: AutoCAD Mechanical 2000|Company: Autodesk"
 90
        0
280
     0
281
     0
  0
CLASS
  1
LONG_TRANSACTION
  2
AcDbLongTransaction
  3
AutoCAD 2000
 90
        0
280
     0
281
     0
  0
CLASS
  1
LWPOLYLINE
  2
AcDbPolyline
  3
AutoCAD 2000
 90
        0
280
     0
281
     1
  0
CLASS
  1
HATCH
  2
AcDbHatch
  3
AutoCAD 2000
 90
        0
280
     0
281
     1
  0
CLASS
  1
XRECORD
  2
AcDbXrecord
  3
AutoCAD 2000
 90
        0
280
     0
281
     0
  0
ENDSEC
  0
SECTION
  2
TABLES
  0
TABLE
  2
VPORT
  5
8
330
0
100
AcDbSymbolTable
 70
     3
  0
VPORT
  5
7C9A
330
8
100
AcDbSymbolTableRecord
100
AcDbViewportTableRecord
  2
*ACTIVE
 70
     0
 10
0.0
 20
0.0
 11
1.0
 21
1.0
 12
-8.545699325969621
 22
12.25895893118406
 13
0.0
 23
0.0
 14
2.5
 24
2.5
 15
10.0
 25
10.0
 16
0.0
 26
0.0
 36
1.0
 17
0.0
 27
0.0
 37
0.0
 40
123.3898443103581
 41
1.56570841889117
 42
50.0
 43
0.0
 44
0.0
 50
0.0
 51
0.0
 71
     0
 72
   100
 73
     1
 74
     3
 75
     0
 76
     0
 77
     0
 78
     0
  0
ENDTAB
  0
TABLE
  2
LTYPE
  5
5
330
0
100
AcDbSymbolTable
 70
    10
  0
LTYPE
  5
14
330
5
100
AcDbSymbolTableRecord
100
AcDbLinetypeTableRecord
  2
BYBLOCK
 70
     0
  3

 72
    65
 73
     0
 40
0.0
  0
LTYPE
  5
15
330
5
100
AcDbSymbolTableRecord
100
AcDbLinetypeTableRecord
  2
BYLAYER
 70
     0
  3

 72
    65
 73
     0
 40
0.0
  0
LTYPE
  5
16
330
5
100
AcDbSymbolTableRecord
100
AcDbLinetypeTableRecord
  2
CONTINUOUS
 70
     0
  3
Solid line
 72
    65
 73
     0
 40
0.0
  0
LTYPE
  5
4B
330
5
100
AcDbSymbolTableRecord
100
AcDbLinetypeTableRecord
  2
AM_ISO02W050
 70
     0
  3
__ __ __ __ __ __ __ __ __ __ __ __ __ __ __
 72
    65
 73
     2
 40
7.5
 49
6.0
 74
     0
 49
-1.5
 74
     0
  0
LTYPE
  5
4C
330
5
100
AcDbSymbolTableRecord
100
AcDbLinetypeTableRecord
  2
AM_ISO08W050
 70
     0
  3
____ . ____ . ____ . ____ . ____ . ____ . ____
 72
    65
 73
     4
 40
18.0
 49
12.0
 74
     0
 49
-1.5
 74
     0
 49
3.0
 74
     0
 49
-1.5
 74
     0
  0
LTYPE
  5
4D
330
5
100
AcDbSymbolTableRecord
100
AcDbLinetypeTableRecord
  2
AM_ISO09W050
 70
     0
  3
_____ . . _____ . . _____ . . ____ .. ____
 72
    65
 73
     6
 40
22.5
 49
12.0
 74
     0
 49
-1.5
 74
     0
 49
3.0
 74
     0
 49
-1.5
 74
     0
 49
3.0
 74
     0
 49
-1.5
 74
     0
  0
LTYPE
  5
4E
330
5
100
AcDbSymbolTableRecord
100
AcDbLinetypeTableRecord
  2
AMCONSTR
 70
     0
  3
_______________________
 72
    65
 73
     2
 40
9999.0
 49
9999.0
 74
     0
 49
0.0
 74
     0
  0
LTYPE
  5
4F
330
5
100
AcDbSymbolTableRecord
100
AcDbLinetypeTableRecord
  2
AM_ISO02W050X2
 70
     0
  3
 _ _ _ _ _ _ _ _ _ _ _ _
 72
    65
 73
     2
 40
3.75
 49
3.0
 74
     0
 49
-0.75
 74
     0
  0
LTYPE
  5
50
330
5
100
AcDbSymbolTableRecord
100
AcDbLinetypeTableRecord
  2
AM_ISO08W050X2
 70
     0
  3
__ . __ . __ . __ . __ . __
 72
    65
 73
     4
 40
9.0
 49
6.0
 74
     0
 49
-0.75
 74
     0
 49
1.5
 74
     0
 49
-0.75
 74
     0
  0
LTYPE
  5
53
330
5
100
AcDbSymbolTableRecord
100
AcDbLinetypeTableRecord
  2
AMZIGZAG
 70
     0
  3
/\/-/\/-/\/-/\/-/\/-/\/
 72
    65
 73
     2
 40
11.00009999999999
 49
0.0001
 74
     4
 75
   135
340
52
 46
0.04
 50
0.0
 44
0.0
 45
0.0
 49
-11.0
 74
     0
  0
LTYPE
  5
166
330
5
100
AcDbSymbolTableRecord
100
AcDbLinetypeTableRecord
  2
ACJISTGL
 70
     0
  3
_ _ _ _ _
 72
    65
 73
     2
 40
3.0
 49
2.0
 74
     0
 49
-1.0
 74
     0
  0
LTYPE
  5
26A
330
5
100
AcDbSymbolTableRecord
100
AcDbLinetypeTableRecord
  2
ACJISTGB
 70
     0
  3
__ . . __ . .
 72
    65
 73
     6
 40
9.0
 49
4.0
 74
     0
 49
-1.0
 74
     0
 49
1.0
 74
     0
 49
-1.0
 74
     0
 49
1.0
 74
     0
 49
-1.0
 74
     0
  0
ENDTAB
  0
TABLE
  2
LAYER
  5
2
330
0
100
AcDbSymbolTable
 70
    10
  0
LAYER
  5
10
330
2
100
AcDbSymbolTableRecord
100
AcDbLayerTableRecord
  2
0
 70
     0
 62
     7
  6
CONTINUOUS
  0
LAYER
  5
3F9
330
2
100
AcDbSymbolTableRecord
100
AcDbLayerTableRecord
  2
AM_0
 70
     0
 62
     7
  6
CONTINUOUS
  0
LAYER
  5
BD6
330
2
100
AcDbSymbolTableRecord
100
AcDbLayerTableRecord
  2
AM_11
 70
     0
 62
     3
  6
AM_ISO09W050
  0
LAYER
  5
BD7
330
2
100
AcDbSymbolTableRecord
100
AcDbLayerTableRecord
  2
AM_7
 70
     0
 62
     4
  6
AM_ISO08W050
  0
LAYER
  5
BD8
330
2
100
AcDbSymbolTableRecord
100
AcDbLayerTableRecord
  2
AM_5
 70
     0
 62
     3
  6
CONTINUOUS
  0
LAYER
  5
BD9
330
2
100
AcDbSymbolTableRecord
100
AcDbLayerTableRecord
  2
DEFPOINTS
 70
     0
 62
     7
  6
CONTINUOUS
  0
LAYER
  5
BDA
330
2
100
AcDbSymbolTableRecord
100
AcDbLayerTableRecord
  2
AM_6
 70
     0
 62
     2
  6
CONTINUOUS
  0
LAYER
  5
1E2E
330
2
100
AcDbSymbolTableRecord
100
AcDbLayerTableRecord
  2
AM_CL
 70
     0
 62
     1
  6
AMCONSTR
  0
LAYER
  5
6468
330
2
100
AcDbSymbolTableRecord
100
AcDbLayerTableRecord
  2
5
 70
     0
 62
     3
  6
CONTINUOUS
  0
LAYER
  5
6469
330
2
100
AcDbSymbolTableRecord
100
AcDbLayerTableRecord
  2
AM_4
 70
     0
 62
     3
  6
CONTINUOUS
  0
ENDTAB
  0
TABLE
  2
STYLE
  5
3
330
0
100
AcDbSymbolTable
 70
     5
  0
STYLE
  5
11
330
3
100
AcDbSymbolTableRecord
100
AcDbTextStyleTableRecord
  2
STANDARD
 70
     0
 40
0.0
 41
1.0
 50
0.0
 71
     0
 42
2.5
  3
simplex.shx
  4
EXTFONT.SHX
  0
STYLE
  5
52
330
3
100
AcDbSymbolTableRecord
100
AcDbTextStyleTableRecord
  2

 70
     1
 40
0.0
 41
1.0
 50
0.0
 71
     0
 42
2.5
  3
ltypeshp.shx
  4

  0
STYLE
  5
6B
330
3
100
AcDbSymbolTableRecord
100
AcDbTextStyleTableRecord
  2
ASAMI
 70
     0
 40
0.0
 41
1.0
 50
0.0
 71
     0
 42
2.5
  3
simplex.shx
  4
EXTFONT.SHX
  0
STYLE
  5
262
330
3
100
AcDbSymbolTableRecord
100
AcDbTextStyleTableRecord
  2
ACJISTS
 70
     0
 40
1.0
 41
1.0
 50
0.0
 71
     0
 42
2.5
  3
simplex.shx
  4
bigfont.shx
  0
STYLE
  5
269
330
3
100
AcDbSymbolTableRecord
100
AcDbTextStyleTableRecord
  2
ACJISGDT
 70
     0
 40
0.0
 41
1.0
 50
0.0
 71
     0
 42
2.5
  3
amgdtans.shx
  4

  0
ENDTAB
  0
TABLE
  2
VIEW
  5
6
330
0
100
AcDbSymbolTable
 70
     0
  0
ENDTAB
  0
TABLE
  2
UCS
  5
7
330
0
100
AcDbSymbolTable
 70
     0
  0
ENDTAB
  0
TABLE
  2
APPID
  5
9
330
0
100
AcDbSymbolTable
 70
    14
  0
APPID
  5
12
330
9
100
AcDbSymbolTableRecord
100
AcDbRegAppTableRecord
  2
ACAD
 70
     0
  0
APPID
  5
30
330
9
100
AcDbSymbolTableRecord
100
AcDbRegAppTableRecord
  2
MCAD_NO_VIS
 70
     0
  0
APPID
  5
31
330
9
100
AcDbSymbolTableRecord
100
AcDbRegAppTableRecord
  2
ACAD_TEMP_GRAPHIC
 70
     0
  0
APPID
  5
2C2
330
9
100
AcDbSymbolTableRecord
100
AcDbRegAppTableRecord
  2
GENIUS_GENDTOL_13
 70
     0
  0
APPID
  5
339
330
9
100
AcDbSymbolTableRecord
100
AcDbRegAppTableRecord
  2
GENIUS_GENODEF_13
 70
     0
  0
APPID
  5
33A
330
9
100
AcDbSymbolTableRecord
100
AcDbRegAppTableRecord
  2
GENIUS_GENOBJ-N-RSBK_13
 70
     0
  0
APPID
  5
33B
330
9
100
AcDbSymbolTableRecord
100
AcDbRegAppTableRecord
  2
GENIUS_GENOBJ-N-LIB_13
 70
     0
  0
APPID
  5
33C
330
9
100
AcDbSymbolTableRecord
100
AcDbRegAppTableRecord
  2
GENIUS_GENSCALE_13
 70
     0
  0
APPID
  5
378
330
9
100
AcDbSymbolTableRecord
100
AcDbRegAppTableRecord
  2
GENIUS_GENDIMSH_14
 70
     0
  0
APPID
  5
BDB
330
9
100
AcDbSymbolTableRecord
100
AcDbRegAppTableRecord
  2
GENIUS_GENOBJ-N-CEN_13
 70
     0
  0
APPID
  5
BDC
330
9
100
AcDbSymbolTableRecord
100
AcDbRegAppTableRecord
  2
GENIUS_GENFIL_13
 70
     0
  0
APPID
  5
BDD
330
9
100
AcDbSymbolTableRecord
100
AcDbRegAppTableRecord
  2
GENIUS_GENOBJ-N-FIL_13
 70
     0
  0
APPID
  5
12AD
330
9
100
AcDbSymbolTableRecord
100
AcDbRegAppTableRecord
  2
GENIUS_GENOREF_13
 70
     0
  0
APPID
  5
62E6
330
9
100
AcDbSymbolTableRecord
100
AcDbRegAppTableRecord
  2
GENIUS_GENOBJ-N-CHA_13
 70
     0
  0
ENDTAB
  0
TABLE
  2
DIMSTYLE
  5
A
330
0
100
AcDbSymbolTable
 70
     9
  0
DIMSTYLE
105
58
102
{ACAD_REACTORS
330
634F
330
640B
330
6418
330
63C1
102
}
330
A
100
AcDbSymbolTableRecord
100
AcDbDimStyleTableRecord
  2
AM_JIS
 70
     0
  3

  4
"
  5
OPEN30
  6

  7

 40
0.5
 41
2.5
 42
1.0
 43
12.0
 44
1.0
 45
0.0
 46
0.0
 47
0.1
 48
0.1
140
3.2
141
0.0
142
0.0
143
0.0393701
144
1.0
145
0.0
146
0.71
147
1.5
 71
     0
 72
     0
 73
     0
 74
     0
 75
     0
 76
     0
 77
     3
 78
     8
170
     0
171
     2
172
     1
173
     0
174
     0
175
     0
176
     3
177
     3
178
     2
270
     2
271
     3
272
     3
273
     2
274
     2
340
6B
275
     0
280
     0
281
     0
282
     0
283
     0
284
     0
285
     0
286
     0
287
     3
288
     0
  0
DIMSTYLE
105
5F
330
A
100
AcDbSymbolTableRecord
100
AcDbDimStyleTableRecord
  2
AM_JIS$3
 70
     0
  3

  4
"
  5
OPEN30
  6

  7

 40
0.5
 41
2.5
 42
1.0
 43
10.0
 44
1.0
 45
0.0
 46
0.0
 47
0.1
 48
0.1
140
3.2
141
0.0
142
0.0
143
0.0393701
144
1.0
145
0.0
146
0.71
147
1.5
 71
     0
 72
     0
 73
     0
 74
     1
 75
     0
 76
     0
 77
     3
 78
     8
170
     0
171
     2
172
     0
173
     0
174
     0
175
     0
176
     3
177
     3
178
     2
270
     2
271
     2
272
     3
273
     2
274
     2
340
6B
275
     0
280
     0
281
     0
282
     0
283
     0
284
     0
285
     0
286
     0
287
     0
288
     1
  0
DIMSTYLE
105
60
330
A
100
AcDbSymbolTableRecord
100
AcDbDimStyleTableRecord
  2
AM_JIS$4
 70
     0
  3

  4
"
  5
OPEN30
  6

  7

 40
0.5
 41
2.5
 42
1.0
 43
10.0
 44
1.0
 45
0.0
 46
0.0
 47
0.1
 48
0.1
140
3.2
141
0.0
142
0.0
143
0.0393701
144
1.0
145
0.0
146
0.71
147
1.5
 71
     0
 72
     0
 73
     0
 74
     1
 75
     0
 76
     0
 77
     3
 78
     8
170
     0
171
     2
172
     0
173
     0
174
     0
175
     0
176
     3
177
     3
178
     2
270
     2
271
     2
272
     3
273
     2
274
     2
340
6B
275
     0
280
     0
281
     0
282
     0
283
     0
284
     0
285
     0
286
     0
287
     0
288
     1
  0
DIMSTYLE
105
61
330
A
100
AcDbSymbolTableRecord
100
AcDbDimStyleTableRecord
  2
AM_JIS$6
 70
     0
  3

  4
"
  5
OPEN30
  6

  7

 40
0.5
 41
2.5
 42
1.0
 43
10.0
 44
1.0
 45
0.0
 46
0.0
 47
0.1
 48
0.1
140
3.2
141
0.0
142
0.0
143
0.0393701
144
1.0
145
0.0
146
0.71
147
1.5
 71
     0
 72
     0
 73
     0
 74
     0
 75
     0
 76
     0
 77
     0
 78
     8
170
     0
171
     2
172
     1
173
     0
174
     0
175
     0
176
     3
177
     3
178
     2
270
     2
271
     2
272
     2
273
     2
274
     2
340
6B
275
     0
280
     0
281
     0
282
     0
283
     0
284
     0
285
     0
286
     0
287
     3
288
     0
  0
DIMSTYLE
105
62
330
A
100
AcDbSymbolTableRecord
100
AcDbDimStyleTableRecord
  2
AM_JIS$7
 70
     0
  3

  4
"
  5
OPEN30
  6

  7

 40
0.5
 41
2.5
 42
1.0
 43
10.0
 44
1.0
 45
0.0
 46
0.0
 47
0.1
 48
0.1
140
3.2
141
0.0
142
0.0
143
0.0393701
144
1.0
145
0.0
146
0.71
147
1.5
 71
     0
 72
     0
 73
     0
 74
     0
 75
     0
 76
     0
 77
     3
 78
     8
170
     0
171
     2
172
     1
173
     0
174
     0
175
     0
176
     3
177
     3
178
     2
270
     2
271
     2
272
     3
273
     2
274
     2
340
6B
275
     0
280
     0
281
     0
282
     0
283
     0
284
     0
285
     0
286
     0
287
     3
288
     0
  0
DIMSTYLE
105
63
330
A
100
AcDbSymbolTableRecord
100
AcDbDimStyleTableRecord
  2
AM_JIS$SF
 70
     0
  3

  4
"
  5
OPEN30
  6

  7

 40
0.5
 41
2.5
 42
1.0
 43
10.0
 44
1.0
 45
0.0
 46
0.0
 47
0.1
 48
0.1
140
3.2
141
0.0
142
0.0
143
0.0393701
144
1.0
145
0.0
146
0.71
147
1.5
 71
     0
 72
     0
 73
     0
 74
     0
 75
     1
 76
     1
 77
     3
 78
     8
170
     0
171
     2
172
     1
173
     0
174
     0
175
     0
176
   256
177
   256
178
     2
270
     2
271
     2
272
     2
273
     2
274
     2
340
6B
275
     0
280
     0
281
     0
282
     0
283
     0
284
     0
285
     0
286
     0
287
     3
288
     0
  0
DIMSTYLE
105
68
330
A
100
AcDbSymbolTableRecord
100
AcDbDimStyleTableRecord
  2
AM_JIS$SH
 70
     0
  3

  4
"
  5

  6
GENAXEH
  7
OPEN30
 40
0.5
 41
2.5
 42
1.0
 43
10.0
 44
1.0
 45
0.0
 46
0.0
 47
0.1
 48
0.1
140
3.2
141
0.0
142
0.0
143
0.0393701
144
2.0
145
0.0
146
0.71
147
1.5
 71
     0
 72
     0
 73
     0
 74
     0
 75
     1
 76
     1
 77
     3
 78
     8
170
     0
171
     2
172
     1
173
     1
174
     0
175
     0
176
   256
177
   256
178
     2
270
     2
271
     2
272
     2
273
     2
274
     2
340
6B
275
     0
280
     0
281
     0
282
     0
283
     0
284
     0
285
     0
286
     0
287
     3
288
     0
  0
DIMSTYLE
105
B34
102
{ACAD_REACTORS
330
63DB
102
}
330
A
100
AcDbSymbolTableRecord
100
AcDbDimStyleTableRecord
  2
AM_JIS$2
 70
     0
  3

  4
"
  5
OPEN30
  6

  7

 40
0.5
 41
2.5
 42
1.0
 43
12.0
 44
1.0
 45
0.0
 46
0.0
 47
0.1
 48
0.1
140
3.2
141
0.0
142
0.0
143
0.0393701
144
1.0
145
0.0
146
0.71
147
1.5
 71
     0
 72
     0
 73
     0
 74
     0
 75
     0
 76
     0
 77
     3
 78
     8
170
     0
171
     2
172
     1
173
     0
174
     0
175
     0
176
     3
177
     3
178
     2
270
     2
271
     3
272
     3
273
     2
274
     2
340
6B
275
     0
280
     0
281
     0
282
     0
283
     0
284
     0
285
     0
286
     0
287
     3
288
     0
  0
DIMSTYLE
105
62E5
330
A
100
AcDbSymbolTableRecord
100
AcDbDimStyleTableRecord
  2
ISO-25
 70
     0
  3

  4

  5

  6

  7

 40
1.0
 41
2.5
 42
0.625
 43
3.75
 44
1.25
 45
0.0
 46
0.0
 47
0.0
 48
0.0
140
2.5
141
2.5
142
0.0
143
0.03937007874016
144
1.0
145
0.0
146
1.0
147
0.625
 71
     0
 72
     0
 73
     0
 74
     0
 75
     0
 76
     0
 77
     1
 78
     8
170
     0
171
     3
172
     1
173
     0
174
     0
175
     0
176
     0
177
     0
178
     0
270
     2
271
     2
272
     2
273
     2
274
     3
340
11
275
     0
280
     0
281
     0
282
     0
283
     0
284
     8
285
     0
286
     0
287
     3
288
     0
  0
ENDTAB
  0
TABLE
  2
BLOCK_RECORD
  5
1
330
0
100
AcDbSymbolTable
 70
    10
  0
BLOCK_RECORD
  5
1F
102
{ACAD_XDICTIONARY
360
74
102
}
330
1
100
AcDbSymbolTableRecord
100
AcDbBlockTableRecord
  2
*MODEL_SPACE
  0
BLOCK_RECORD
  5
1B
102
{ACAD_XDICTIONARY
360
7CBC
102
}
330
1
100
AcDbSymbolTableRecord
100
AcDbBlockTableRecord
  2
*PAPER_SPACE
  0
BLOCK_RECORD
  5
59
330
1
100
AcDbSymbolTableRecord
100
AcDbBlockTableRecord
  2
_OPEN30
  0
BLOCK_RECORD
  5
64
330
1
100
AcDbSymbolTableRecord
100
AcDbBlockTableRecord
  2
GENAXEH
  0
BLOCK_RECORD
  5
6350
330
1
100
AcDbSymbolTableRecord
100
AcDbBlockTableRecord
  2
*D5
  0
BLOCK_RECORD
  5
63C2
330
1
100
AcDbSymbolTableRecord
100
AcDbBlockTableRecord
  2
*D6
  0
BLOCK_RECORD
  5
63DC
330
1
100
AcDbSymbolTableRecord
100
AcDbBlockTableRecord
  2
*D7
  0
BLOCK_RECORD
  5
640C
330
1
100
AcDbSymbolTableRecord
100
AcDbBlockTableRecord
  2
*D8
  0
BLOCK_RECORD
  5
6419
330
1
100
AcDbSymbolTableRecord
100
AcDbBlockTableRecord
  2
*D9
  0
ENDTAB
  0
ENDSEC
  0
SECTION
  2
BLOCKS
  0
BLOCK
  5
20
330
1F
100
AcDbEntity
  8
0
100
AcDbBlockBegin
  2
*MODEL_SPACE
 70
     0
 10
0.0
 20
0.0
 30
0.0
  3
*MODEL_SPACE
  1

  0
ENDBLK
  5
21
330
1F
100
AcDbEntity
  8
0
100
AcDbBlockEnd
  0
BLOCK
  5
1C
330
1B
100
AcDbEntity
 67
     1
  8
0
100
AcDbBlockBegin
  2
*PAPER_SPACE
 70
     0
 10
0.0
 20
0.0
 30
0.0
  3
*PAPER_SPACE
  1

  0
ENDBLK
  5
1D
330
1B
100
AcDbEntity
 67
     1
  8
0
100
AcDbBlockEnd
  0
BLOCK
  5
5D
330
59
100
AcDbEntity
  8
0
100
AcDbBlockBegin
  2
_OPEN30
 70
     0
 10
0.0
 20
0.0
 30
0.0
  3
_OPEN30
  1

  0
LINE
  5
5A
330
59
100
AcDbEntity
  8
0
 62
     0
100
AcDbLine
 10
-1.0
 20
0.26794919
 30
0.0
 11
0.0
 21
0.0
 31
0.0
  0
LINE
  5
5B
330
59
100
AcDbEntity
  8
0
 62
     0
100
AcDbLine
 10
0.0
 20
0.0
 30
0.0
 11
-1.0
 21
-0.26794919
 31
0.0
  0
LINE
  5
5C
330
59
100
AcDbEntity
  8
0
 62
     0
100
AcDbLine
 10
0.0
 20
0.0
 30
0.0
 11
-1.0
 21
0.0
 31
0.0
  0
ENDBLK
  5
5E
330
59
100
AcDbEntity
  8
0
100
AcDbBlockEnd
  0
BLOCK
  5
66
330
64
100
AcDbEntity
  8
0
100
AcDbBlockBegin
  2
GENAXEH
 70
     0
 10
0.0
 20
0.0
 30
0.0
  3
GENAXEH
  1

  0
LINE
  5
65
330
64
100
AcDbEntity
  8
0
100
AcDbLine
 10
-1.0
 20
0.0
 30
0.0
 11
1.0
 21
0.0
 31
0.0
  0
ENDBLK
  5
67
330
64
100
AcDbEntity
  8
0
100
AcDbBlockEnd
  0
BLOCK
  5
635A
330
6350
100
AcDbEntity
  8
0
100
AcDbBlockBegin
  2
*D5
 70
     1
 10
0.0
 20
0.0
 30
0.0
  3
*D5
  1

  0
LINE
  5
7C5E
330
6350
100
AcDbEntity
  8
AM_5
 62
     3
100
AcDbLine
 10
-46.09500000000203
 20
-1.349999999999993
 30
0.0
 11
-53.1914684774465
 21
-1.349999999999991
 31
0.0
  0
LINE
  5
7C5F
330
6350
100
AcDbEntity
  8
AM_5
 62
     3
100
AcDbLine
 10
-46.09500000000203
 20
1.350000000000007
 30
0.0
 11
-53.1914684774465
 21
1.350000000000009
 31
0.0
  0
LINE
  5
7C60
330
6350
100
AcDbEntity
  8
AM_5
 62
     3
100
AcDbLine
 10
-52.6914684774465
 20
-2.599999999999991
 30
0.0
 11
-52.6914684774465
 21
-3.849999999999991
 31
0.0
  0
LINE
  5
7C61
330
6350
100
AcDbEntity
  8
AM_5
 62
     3
100
AcDbLine
 10
-52.6914684774465
 20
2.600000000000009
 30
0.0
 11
-52.6914684774465
 21
3.850000000000009
 31
0.0
  0
LINE
  5
7C62
330
6350
100
AcDbEntity
  8
AM_5
 62
     3
100
AcDbLine
 10
-52.6914684774465
 20
-1.349999999999991
 30
0.0
 11
-52.6914684774465
 21
1.350000000000009
 31
0.0
  0
INSERT
  5
7C63
330
6350
100
AcDbEntity
  8
AM_5
 62
     3
100
AcDbBlockReference
  2
_OPEN30
 10
-52.6914684774465
 20
-1.349999999999991
 30
0.0
 41
1.25
 42
1.25
 43
1.25
 50
90.0
  0
INSERT
  5
7C64
330
6350
100
AcDbEntity
  8
AM_5
 62
     3
100
AcDbBlockReference
  2
_OPEN30
 10
-52.6914684774465
 20
1.350000000000009
 30
0.0
 41
1.25
 42
1.25
 43
1.25
 50
270.0
  0
MTEXT
  5
7C65
330
6350
100
AcDbEntity
  8
AM_5
 62
     2
100
AcDbMText
 10
-54.24146847744649
 20
0.0000000000000008
 30
0.0
 40
1.6
 41
0.0
 71
     5
 72
     1
  1
%%C2.7
  7
ASAMI
 11
0.0000000000000001
 21
1.0
 31
0.0
1001
ACAD
1000
MTEXTBEGIN
1070
    73
1070
     1
1070
    44
1040
1.0
1070
    74
1070
     0
1000
MTEXTEND
  0
POINT
  5
7C66
330
6350
100
AcDbEntity
  8
DEFPOINTS
 62
     0
100
AcDbPoint
 10
-45.59500000000204
 20
-1.349999999999993
 30
0.0
  0
POINT
  5
7C67
330
6350
100
AcDbEntity
  8
DEFPOINTS
 62
     0
100
AcDbPoint
 10
-45.59500000000204
 20
1.350000000000007
 30
0.0
  0
POINT
  5
7C68
330
6350
100
AcDbEntity
  8
DEFPOINTS
 62
     0
100
AcDbPoint
 10
-52.6914684774465
 20
1.350000000000009
 30
0.0
  0
ENDBLK
  5
635B
330
6350
100
AcDbEntity
  8
0
100
AcDbBlockEnd
  0
BLOCK
  5
63CE
330
63C2
100
AcDbEntity
  8
0
100
AcDbBlockBegin
  2
*D6
 70
     1
 10
0.0
 20
0.0
 30
0.0
  3
*D6
  1

  0
LINE
  5
7C69
330
63C2
100
AcDbEntity
  8
AM_5
 62
     3
100
AcDbLine
 10
0.0359379513092191
 20
-1.349999999999788
 30
0.0
 11
10.03059908346199
 21
-1.34999999999979
 31
0.0
  0
LINE
  5
7C6A
330
63C2
100
AcDbEntity
  8
AM_5
 62
     3
100
AcDbLine
 10
0.0086401837403613
 20
1.350000000000211
 30
0.0
 11
10.03059908346199
 21
1.350000000000208
 31
0.0
  0
LINE
  5
7C6B
330
63C2
100
AcDbEntity
  8
AM_5
 62
     3
100
AcDbLine
 10
9.530599083461998
 20
-2.59999999999979
 30
0.0
 11
9.530599083461998
 21
-3.84999999999979
 31
0.0
  0
LINE
  5
7C6C
330
63C2
100
AcDbEntity
  8
AM_5
 62
     3
100
AcDbLine
 10
9.530599083461998
 20
2.600000000000208
 30
0.0
 11
9.530599083462
 21
11.91016483516504
 31
0.0
  0
LINE
  5
7C6D
330
63C2
100
AcDbEntity
  8
AM_5
 62
     3
100
AcDbLine
 10
9.530599083461998
 20
-1.34999999999979
 30
0.0
 11
9.530599083461998
 21
1.350000000000208
 31
0.0
  0
INSERT
  5
7C6E
330
63C2
100
AcDbEntity
  8
AM_5
 62
     3
100
AcDbBlockReference
  2
_OPEN30
 10
9.530599083461998
 20
-1.34999999999979
 30
0.0
 41
1.25
 42
1.25
 43
1.25
 50
90.0
  0
INSERT
  5
7C6F
330
63C2
100
AcDbEntity
  8
AM_5
 62
     3
100
AcDbBlockReference
  2
_OPEN30
 10
9.530599083461998
 20
1.350000000000208
 30
0.0
 41
1.25
 42
1.25
 43
1.25
 50
270.0
  0
MTEXT
  5
7C70
330
63C2
100
AcDbEntity
  8
AM_5
 62
     2
100
AcDbMText
 10
7.980599083461998
 20
8.760164835165047
 30
0.0
 40
1.6
 41
0.0
 71
     5
 72
     1
  1
%%C2.7
  7
ASAMI
 11
0.0000000000000001
 21
1.0
 31
0.0
1001
ACAD
1000
MTEXTBEGIN
1070
    73
1070
     1
1070
    44
1040
1.0
1070
    74
1070
     0
1000
MTEXTEND
  0
POINT
  5
7C71
330
63C2
100
AcDbEntity
  8
DEFPOINTS
 62
     0
100
AcDbPoint
 10
-0.4640620486907809
 20
-1.349999999999788
 30
0.0
  0
POINT
  5
7C72
330
63C2
100
AcDbEntity
  8
DEFPOINTS
 62
     0
100
AcDbPoint
 10
-0.4913598162596388
 20
1.350000000000211
 30
0.0
  0
POINT
  5
7C73
330
63C2
100
AcDbEntity
  8
DEFPOINTS
 62
     0
100
AcDbPoint
 10
9.530599083461998
 20
1.350000000000208
 30
0.0
  0
ENDBLK
  5
63CF
330
63C2
100
AcDbEntity
  8
0
100
AcDbBlockEnd
  0
BLOCK
  5
63E8
330
63DC
100
AcDbEntity
  8
0
100
AcDbBlockBegin
  2
*D7
 70
     1
 10
0.0
 20
0.0
 30
0.0
  3
*D7
  1

  0
LINE
  5
7CC5
330
63DC
100
AcDbEntity
  8
AM_0
 62
     3
100
AcDbLine
 10
0.1710100716610096
 20
-0.4698463103929329
 30
0.0
 11
6.169687244857962
 21
-16.95107639034303
 31
0.0
  0
LINE
  5
7CC6
330
63DC
100
AcDbEntity
  8
AM_0
 62
     3
100
AcDbLine
 10
0.1710100716610098
 20
0.4698463103929328
 30
0.0
 11
6.169687244857968
 21
16.95107639034303
 31
0.0
  0
ARC
  5
7CC7
330
63DC
100
AcDbEntity
  8
AM_0
 62
     3
100
AcDbCircle
 10
-0.0000000000018835
 20
0.0
 30
0.0
 40
17.5389587141451
100
AcDbArc
 50
294.084329745283
 51
65.91567025471701
  0
INSERT
  5
7CC8
330
63DC
100
AcDbEntity
  8
AM_0
 62
     3
100
AcDbBlockReference
  2
_OPEN30
 10
5.998677173195068
 20
-16.4812300799501
 30
0.0
 41
1.25
 42
1.25
 43
1.25
 50
202.0421648726451
  0
INSERT
  5
7CC9
330
63DC
100
AcDbEntity
  8
AM_0
 62
     3
100
AcDbBlockReference
  2
_OPEN30
 10
5.998677173195074
 20
16.4812300799501
 30
0.0
 41
1.25
 42
1.25
 43
1.25
 50
157.9578351273549
  0
MTEXT
  5
7CCA
330
63DC
100
AcDbEntity
  8
AM_0
 62
     2
100
AcDbMText
 10
15.98895871414321
 20
-0.0000000000000041
 30
0.0
 40
1.6
 41
0.0
 71
     5
 72
     1
  1
140°
  7
ASAMI
 11
0.0000000000000001
 21
1.0
 31
0.0
  0
POINT
  5
7CCB
330
63DC
100
AcDbEntity
  8
DEFPOINTS
 62
     0
100
AcDbPoint
 10
16.10455438923457
 20
-6.946826664068352
 30
0.0
  0
POINT
  5
7CCC
330
63DC
100
AcDbEntity
  8
DEFPOINTS
 62
     0
100
AcDbPoint
 10
-0.0000000000018835
 20
0.0
 30
0.0
  0
POINT
  5
7CCD
330
63DC
100
AcDbEntity
  8
DEFPOINTS
 62
     0
100
AcDbPoint
 10
-0.190651075093778
 20
-0.5238095238095239
 30
0.0
  0
POINT
  5
7CCE
330
63DC
100
AcDbEntity
  8
DEFPOINTS
 62
     0
100
AcDbPoint
 10
-0.0000000000018835
 20
0.0
 30
0.0
  0
POINT
  5
7CCF
330
63DC
100
AcDbEntity
  8
DEFPOINTS
 62
     0
100
AcDbPoint
 10
-0.190651075093778
 20
0.5238095238095239
 30
0.0
  0
ENDBLK
  5
63E9
330
63DC
100
AcDbEntity
  8
0
100
AcDbBlockEnd
  0
BLOCK
  5
6416
330
640C
100
AcDbEntity
  8
0
100
AcDbBlockBegin
  2
*D8
 70
     1
 10
0.0
 20
0.0
 30
0.0
  3
*D8
  1

  0
LINE
  5
7C4E
330
640C
100
AcDbEntity
  8
AM_5
 62
     3
100
AcDbLine
 10
-0.0000000000023978
 20
-0.5
 30
0.0
 11
-0.0000000000023985
 21
-11.99857327381685
 31
0.0
  0
LINE
  5
7C4F
330
640C
100
AcDbEntity
  8
AM_5
 62
     3
100
AcDbLine
 10
-16.00000000000172
 20
-1.746153846150649
 30
0.0
 11
-16.00000000000172
 21
-11.99857327381685
 31
0.0
  0
LINE
  5
7C50
330
640C
100
AcDbEntity
  8
AM_5
 62
     3
100
AcDbLine
 10
-1.250000000002398
 20
-11.49857327381685
 30
0.0
 11
-14.75000000000172
 21
-11.49857327381685
 31
0.0
  0
INSERT
  5
7C51
330
640C
100
AcDbEntity
  8
AM_5
 62
     3
100
AcDbBlockReference
  2
_OPEN30
 10
-0.0000000000023985
 20
-11.49857327381685
 30
0.0
 41
1.25
 42
1.25
 43
1.25
  0
INSERT
  5
7C52
330
640C
100
AcDbEntity
  8
AM_5
 62
     3
100
AcDbBlockReference
  2
_OPEN30
 10
-16.00000000000172
 20
-11.49857327381685
 30
0.0
 41
1.25
 42
1.25
 43
1.25
 50
180.0
  0
MTEXT
  5
7C53
330
640C
100
AcDbEntity
  8
AM_5
 62
     2
100
AcDbMText
 10
-8.000000000002062
 20
-9.948573273816856
 30
0.0
 40
1.6
 41
0.0
 71
     5
 72
     1
  1
16
  7
ASAMI
1001
ACAD
1000
MTEXTBEGIN
1070
    73
1070
     1
1070
    44
1040
1.0
1070
    74
1070
     0
1000
MTEXTEND
  0
POINT
  5
7C54
330
640C
100
AcDbEntity
  8
DEFPOINTS
 62
     0
100
AcDbPoint
 10
-0.0000000000023978
 20
0.0
 30
0.0
  0
POINT
  5
7C55
330
640C
100
AcDbEntity
  8
DEFPOINTS
 62
     0
100
AcDbPoint
 10
-16.00000000000172
 20
-1.246153846150649
 30
0.0
  0
POINT
  5
7C56
330
640C
100
AcDbEntity
  8
DEFPOINTS
 62
     0
100
AcDbPoint
 10
-16.00000000000172
 20
-11.49857327381685
 30
0.0
  0
ENDBLK
  5
6417
330
640C
100
AcDbEntity
  8
0
100
AcDbBlockEnd
  0
BLOCK
  5
6423
330
6419
100
AcDbEntity
  8
0
100
AcDbBlockBegin
  2
*D9
 70
     1
 10
0.0
 20
0.0
 30
0.0
  3
*D9
  1

  0
LINE
  5
7BF5
330
6419
100
AcDbEntity
  8
AM_5
 62
     3
100
AcDbLine
 10
-0.000000000002041
 20
-1.067606306736841
 30
0.0
 11
-0.0000000000020421
 21
-18.55526673598088
 31
0.0
  0
LINE
  5
7BF6
330
6419
100
AcDbEntity
  8
AM_5
 62
     3
100
AcDbLine
 10
-46.00000000000203
 20
-1.334381270903013
 30
0.0
 11
-46.00000000000203
 21
-18.55526673598088
 31
0.0
  0
LINE
  5
7BF7
330
6419
100
AcDbEntity
  8
AM_5
 62
     3
100
AcDbLine
 10
-1.250000000002042
 20
-18.05526673598088
 30
0.0
 11
-44.75000000000203
 21
-18.05526673598088
 31
0.0
  0
INSERT
  5
7BF8
330
6419
100
AcDbEntity
  8
AM_5
 62
     3
100
AcDbBlockReference
  2
_OPEN30
 10
-0.0000000000020421
 20
-18.05526673598088
 30
0.0
 41
1.25
 42
1.25
 43
1.25
  0
INSERT
  5
7BF9
330
6419
100
AcDbEntity
  8
AM_5
 62
     3
100
AcDbBlockReference
  2
_OPEN30
 10
-46.00000000000203
 20
-18.05526673598088
 30
0.0
 41
1.25
 42
1.25
 43
1.25
 50
180.0
  0
MTEXT
  5
7BFA
330
6419
100
AcDbEntity
  8
AM_5
 62
     2
100
AcDbMText
 10
-23.00000000000204
 20
-16.50526673598088
 30
0.0
 40
1.6
 41
0.0
 71
     5
 72
     1
  1
46
  7
ASAMI
1001
ACAD
1000
MTEXTBEGIN
1070
    73
1070
     1
1070
    44
1040
1.0
1070
    74
1070
     0
1000
MTEXTEND
  0
POINT
  5
7BFB
330
6419
100
AcDbEntity
  8
DEFPOINTS
 62
     0
100
AcDbPoint
 10
-0.000000000002041
 20
-0.5676063067368416
 30
0.0
  0
POINT
  5
7BFC
330
6419
100
AcDbEntity
  8
DEFPOINTS
 62
     0
100
AcDbPoint
 10
-46.00000000000203
 20
-0.8343812709030133
 30
0.0
  0
POINT
  5
7BFD
330
6419
100
AcDbEntity
  8
DEFPOINTS
 62
     0
100
AcDbPoint
 10
-46.00000000000203
 20
-18.05526673598088
 30
0.0
  0
ENDBLK
  5
6424
330
6419
100
AcDbEntity
  8
0
100
AcDbBlockEnd
  0
ENDSEC
  0
SECTION
  2
ENTITIES
  0
TEXT
  5
C58
330
1F
100
AcDbEntity
  8
AM_6
100
AcDbText
 10
-31.46428571428767
 20
-28.6365531531668
 30
0.0
 40
2.5
  1
MDS027SK
 50
0.0000000000002036
 72
     4
 11
-22.00000000000196
 21
-27.38655315316677
 31
0.0
100
AcDbText
  0
LINE
  5
631C
330
1F
100
AcDbEntity
  8
AM_0
100
AcDbLine
 10
-10.6975376899735
 20
-1.349999999999998
 30
0.0
 11
-45.59500000000203
 21
-1.349999999999998
 31
0.0
  0
LINE
  5
631D
330
1F
100
AcDbEntity
  8
AM_0
100
AcDbLine
 10
-10.69753768998971
 20
1.35
 30
0.0
 11
-45.59500000000205
 21
1.350000000000001
 31
0.0
  0
LINE
  5
6320
330
1F
100
AcDbEntity
  8
AM_7
100
AcDbLine
 10
-49.42734471472864
 20
0.0000000000000088
 30
0.0
 11
0.4098214285688717
 21
0.0
 31
0.0
1001
GENIUS_GENODEF_13
1002
{
1000
HIER
1070
     0
1002
}
1002
{
1000
MANEDIT
1070
     0
1002
}
1002
{
1000
NOSEL
1070
     0
1002
}
1002
{
1000
BEHIND
1070
     0
1002
}
1002
{
1000
REACTOR
1002
}
1001
GENIUS_GENOBJ-N-CEN_13
1002
{
1000
OWNER
1000
GEN
1002
}
  0
LINE
  5
6343
330
1F
100
AcDbEntity
  8
AM_0
100
AcDbLine
 10
-46.00000000000203
 20
-0.9449999999999933
 30
0.0
 11
-46.00000000000203
 21
0.9450000000000075
 31
0.0
  0
LINE
  5
6348
330
1F
100
AcDbEntity
  8
AM_0
100
AcDbLine
 10
-46.00000000000203
 20
0.9058792521118046
 30
0.0
 11
-46.00000000000204
 21
0.9450000000000075
 31
0.0
  0
LINE
  5
6349
330
1F
100
AcDbEntity
  8
AM_0
100
AcDbLine
 10
-46.00000000000203
 20
0.8392924330750584
 30
0.0
 11
-46.00000000000203
 21
0.9058792521118046
 31
0.0
  0
LINE
  5
634B
330
1F
100
AcDbEntity
  8
AM_0
100
AcDbLine
 10
-46.00000000000203
 20
-0.9449999999999933
 30
0.0
 11
-46.00000000000203
 21
-0.905879252099903
 31
0.0
  0
LINE
  5
634C
330
1F
100
AcDbEntity
  8
AM_0
100
AcDbLine
 10
-46.00000000000203
 20
-0.905879252099903
 30
0.0
 11
-46.00000000000203
 21
-0.8392924331071277
 31
0.0
  0
DIMENSION
  5
634F
330
1F
100
AcDbEntity
  8
AM_5
100
AcDbDimension
  2
*D5
 10
-52.6914684774465
 20
1.350000000000009
 30
0.0
 11
-52.6914684774465
 21
0.0000000000000006
 31
0.0
 70
   160
  1
%%C<>
  3
AM_JIS
100
AcDbAlignedDimension
 13
-45.59500000000204
 23
-1.349999999999993
 33
0.0
 14
-45.59500000000204
 24
1.350000000000007
 34
0.0
 50
90.0
100
AcDbRotatedDimension
1001
ACAD
1000
DSTYLE
1002
{
1070
    78
1070
     0
1070
   271
1070
     1
1002
}
  0
LINE
  5
638E
330
1F
100
AcDbEntity
  8
AM_0
100
AcDbLine
 10
-45.59500000000204
 20
1.350000000000007
 30
0.0
 11
-45.59500000000204
 21
-1.349999999999992
 31
0.0
  0
DIMENSION
  5
63C1
330
1F
100
AcDbEntity
  8
AM_5
100
AcDbDimension
  2
*D6
 10
9.530599083461998
 20
1.350000000000208
 30
0.0
 11
9.530599083461998
 21
8.760164835165047
 31
0.0
 70
   160
  1
%%C<>
  3
AM_JIS
100
AcDbAlignedDimension
 13
-0.4640620486907809
 23
-1.349999999999788
 33
0.0
 14
-0.4913598162596388
 24
1.350000000000211
 34
0.0
 50
90.0
100
AcDbRotatedDimension
1001
ACAD
1000
DSTYLE
1002
{
1070
    78
1070
     0
1070
   271
1070
     1
1002
}
  0
DIMENSION
  5
63DB
330
1F
100
AcDbEntity
  8
AM_0
100
AcDbDimension
  2
*D7
 10
-0.190651075093778
 20
0.5238095238095239
 30
0.0
 11
15.98895871414321
 21
-0.0000000000000067
 31
0.0
 70
    34
  3
AM_JIS$2
100
AcDb2LineAngularDimension
 13
-0.190651075093778
 23
-0.5238095238095239
 33
0.0
 14
-0.0000000000018835
 24
0.0
 34
0.0
 15
-0.0000000000018835
 25
0.0
 35
0.0
 16
16.10455438923457
 26
-6.946826664068352
 36
0.0
1001
ACAD
1000
DSTYLE
1002
{
1070
   271
1070
     0
1002
}
  0
DIMENSION
  5
640B
330
1F
100
AcDbEntity
  8
AM_5
100
AcDbDimension
  2
*D8
 10
-16.00000000000172
 20
-11.49857327381685
 30
0.0
 11
-8.000000000002062
 21
-9.948573273816856
 31
0.0
 70
    32
  3
AM_JIS
100
AcDbAlignedDimension
 13
-0.0000000000023978
 23
0.0
 33
0.0
 14
-16.00000000000172
 24
-1.246153846150649
 34
0.0
100
AcDbRotatedDimension
  0
DIMENSION
  5
6418
330
1F
100
AcDbEntity
  8
AM_5
100
AcDbDimension
  2
*D9
 10
-46.00000000000203
 20
-18.05526673598088
 30
0.0
 11
-23.00000000000204
 21
-16.50526673598088
 31
0.0
 70
    32
  3
AM_JIS
100
AcDbAlignedDimension
 13
-0.000000000002041
 23
-0.5676063067368416
 33
0.0
 14
-46.00000000000203
 24
-0.8343812709030133
 34
0.0
100
AcDbRotatedDimension
  0
LINE
  5
6BFA
330
1F
100
AcDbEntity
  8
AM_0
100
AcDbLine
 10
-45.59500000000205
 20
1.350000000000007
 30
0.0
 11
-46.00000000000204
 21
0.9450000000000075
 31
0.0
1001
GENIUS_GENFIL_13
1070
     0
1040
0.3
1040
0.3
1040
20.0
1040
0.0
1002
{
1002
}
1001
GENIUS_GENODEF_13
1002
{
1000
HIER
1070
     0
1002
}
1002
{
1000
MANEDIT
1070
     0
1002
}
1002
{
1000
NOSEL
1070
     0
1002
}
1002
{
1000
BEHIND
1070
     0
1002
}
1002
{
1000
REACTOR
1002
}
1001
GENIUS_GENOBJ-N-CHA_13
1002
{
1000
OWNER
1000
GEN
1002
}
  0
LINE
  5
6BFD
330
1F
100
AcDbEntity
  8
AM_0
100
AcDbLine
 10
-45.59500000000204
 20
-1.349999999999992
 30
0.0
 11
-46.00000000000203
 21
-0.9449999999999933
 31
0.0
1001
GENIUS_GENFIL_13
1070
     0
1040
0.3
1040
0.3
1040
20.0
1040
0.0
1002
{
1002
}
1001
GENIUS_GENODEF_13
1002
{
1000
HIER
1070
     0
1002
}
1002
{
1000
MANEDIT
1070
     0
1002
}
1002
{
1000
NOSEL
1070
     0
1002
}
1002
{
1000
BEHIND
1070
     0
1002
}
1002
{
1000
REACTOR
1002
}
1001
GENIUS_GENOBJ-N-CHA_13
1002
{
1000
OWNER
1000
GEN
1002
}
  0
LINE
  5
7660
330
1F
100
AcDbEntity
  8
AM_0
100
AcDbLine
 10
-0.0000000000012602
 20
0.0000000000034628
 30
0.0
 11
-0.4913598162608251
 21
1.350000000003463
 31
0.0
  0
LINE
  5
7661
330
1F
100
AcDbEntity
  8
AM_0
100
AcDbLine
 10
-0.6369357885648523
 20
-0.1058332701024675
 30
0.0
 11
-0.0000000000014592
 21
0.0000000000034628
 31
0.0
  0
LINE
  5
7662
330
1F
100
AcDbEntity
  8
AM_0
100
AcDbLine
 10
-0.4913598162608251
 20
-1.349999999996537
 30
0.0
 11
-0.0000000000012602
 21
0.0000000000034628
 31
0.0
  0
LINE
  5
7664
330
1F
100
AcDbEntity
  8
AM_0
100
AcDbLine
 10
-0.0000000000014592
 20
0.0000000000034628
 30
0.0
 11
-0.3424011111640104
 21
0.2344250398538041
 31
0.0
  0
LINE
  5
7665
330
1F
100
AcDbEntity
  8
AM_0
100
AcDbLine
 10
-0.3424011111640104
 20
0.2344250398538041
 30
0.0
 11
-0.0853237366734856
 21
0.2344250398538137
 31
0.0
  0
SPLINE
  5
7C33
330
1F
100
AcDbEntity
  8
AM_0
100
AcDbSpline
210
0.0
220
0.0
230
1.0
 70
     8
 71
     3
 72
     9
 73
     5
 74
     0
 42
0.0000000001
 43
0.0000000001
 40
0.0
 40
0.0
 40
0.0
 40
0.0
 40
0.0706215231486265
 40
0.819600610642454
 40
0.819600610642454
 40
0.819600610642454
 40
0.819600610642454
 10
-0.3424011111640104
 20
0.2344250398538041
 30
0.0
 10
-0.3404687211903063
 20
0.200279356014031
 30
0.0
 10
-0.3180423002943121
 20
-0.1959995980236009
 30
0.0
 10
-1.055077235586749
 20
0.3637552594588638
 30
0.0
 10
-1.284978791195172
 20
0.6219433300529977
 30
0.0
  0
SPLINE
  5
7C34
330
1F
100
AcDbEntity
  8
AM_0
100
AcDbSpline
210
0.0
220
0.0
230
1.0
 70
     8
 71
     3
 72
     8
 73
     4
 74
     0
 42
0.0000000001
 43
0.0000000001
 40
0.0
 40
0.0
 40
0.0
 40
0.0
 40
6.870645942600294
 40
6.870645942600294
 40
6.870645942600294
 40
6.870645942600294
 10
-8.314787463246464
 20
1.202543398748979
 30
0.0
 10
-7.658596797891281
 20
1.204528581879421
 30
0.0
 10
-6.99990862941596
 20
1.109400400657219
 30
0.0
 10
-6.357308441199236
 20
0.9432133775661158
 30
0.0
  0
SPLINE
  5
7C35
330
1F
100
AcDbEntity
  8
AM_0
100
AcDbSpline
210
0.0
220
0.0
230
1.0
 70
     8
 71
     3
 72
     9
 73
     5
 74
     0
 42
0.0000000001
 43
0.0000000001
 40
0.0
 40
0.0
 40
0.0
 40
0.0
 40
0.1987770877846628
 40
5.759128114445015
 40
5.759128114445015
 40
5.759128114445015
 40
5.759128114445015
 10
-8.257833717074831
 20
1.202543398747224
 30
0.0
 10
-8.276818299131383
 20
1.202543398747224
 30
0.0
 10
-8.827136373926483
 20
1.204206579882745
 30
0.0
 10
-9.361134529123244
 20
1.109495743832955
 30
0.0
 10
-9.867399716201825
 20
0.9631230657276859
 30
0.0
  0
SPLINE
  5
7C36
330
1F
100
AcDbEntity
  8
AM_0
100
AcDbSpline
210
0.0
220
0.0
230
1.0
 70
     8
 71
     3
 72
     8
 73
     4
 74
     0
 42
0.0000000001
 43
0.0000000001
 40
0.0
 40
0.0
 40
0.0
 40
0.0
 40
6.247244990625308
 40
6.247244990625308
 40
6.247244990625308
 40
6.247244990625308
 10
-8.314787463246464
 20
1.350000000003453
 30
0.0
 10
-8.911442422193871
 20
1.350000000003453
 30
0.0
 10
-9.484397028403449
 20
1.224528732944466
 30
0.0
 10
-10.04386949755335
 20
1.027682122309478
 30
0.0
  0
LINE
  5
7C37
330
1F
100
AcDbEntity
  8
AM_0
100
AcDbLine
 10
-3.97958906197633
 20
1.350000000003463
 30
0.0
 11
-8.314787463246037
 21
1.350000000003463
 31
0.0
  0
LINE
  5
7C38
330
1F
100
AcDbEntity
  8
AM_11
 48
0.2
100
AcDbLine
 10
-0.4913598162608248
 20
1.350000000003463
 30
0.0
 11
-3.97958906197633
 21
1.350000000003463
 31
0.0
  0
SPLINE
  5
7C39
330
1F
100
AcDbEntity
  8
AM_0
100
AcDbSpline
210
0.0
220
0.0
230
1.0
 70
     8
 71
     3
 72
     9
 73
     5
 74
     0
 42
0.0000000001
 43
0.0000000001
 40
0.0
 40
0.0
 40
0.0
 40
0.0
 40
0.1987770877846628
 40
5.759128114460802
 40
5.759128114460802
 40
5.759128114460802
 40
5.759128114460802
 10
-0.437695305202184
 20
1.202557967643831
 30
0.0
 10
-0.4834558292494786
 20
1.202543398750696
 30
0.0
 10
-1.033773904046096
 20
1.204206579886217
 30
0.0
 10
-1.567772059244277
 20
1.109495743835909
 30
0.0
 10
-2.074037246324222
 20
0.9631230657298919
 30
0.0
  0
SPLINE
  5
7C3A
330
1F
100
AcDbEntity
  8
AM_0
100
AcDbSpline
210
0.0
220
0.0
230
1.0
 70
     8
 71
     3
 72
     8
 73
     4
 74
     0
 42
0.0000000001
 43
0.0000000001
 40
0.0
 40
0.0
 40
0.0
 40
0.0
 40
6.247244990626095
 40
6.247244990626095
 40
6.247244990626095
 40
6.247244990626095
 10
-0.4913598162596388
 20
1.350000000000211
 30
0.0
 10
-1.118079952310048
 20
1.350000000003453
 30
0.0
 10
-1.691034558519688
 20
1.224528732944437
 30
0.0
 10
-2.25050702766968
 20
1.027682122309383
 30
0.0
  0
SPLINE
  5
7C3B
330
1F
100
AcDbEntity
  8
AM_0
100
AcDbSpline
210
0.0
220
0.0
230
1.0
 70
     8
 71
     3
 72
     8
 73
     4
 74
     0
 42
0.0000000001
 43
0.0000000001
 40
19.09542421355049
 40
19.09542421355049
 40
19.09542421355049
 40
19.09542421355049
 40
28.97999309868792
 40
28.97999309868792
 40
28.97999309868792
 40
28.97999309868792
 10
-1.284978791195172
 20
0.6219433300529977
 30
0.0
 10
-2.15083271134097
 20
1.035889341399933
 30
0.0
 10
-3.035544598981524
 20
1.350000000003453
 30
0.0
 10
-3.979589061976769
 20
1.350000000003453
 30
0.0
  0
LINE
  5
7C3C
330
1F
100
AcDbEntity
  8
AM_0
100
AcDbLine
 10
-0.4913598162608251
 20
-1.349999999996537
 30
0.0
 11
-0.6369357885648523
 21
-0.1058332701024675
 31
0.0
  0
SPLINE
  5
7C3D
330
1F
100
AcDbEntity
  8
AM_0
100
AcDbSpline
210
0.0
220
0.0
230
1.0
 70
     8
 71
     3
 72
     8
 73
     4
 74
     0
 42
0.0000000001
 43
0.0000000001
 40
22.73274810806179
 40
22.73274810806179
 40
22.73274810806179
 40
22.73274810806179
 40
28.97999309868792
 40
28.97999309868792
 40
28.97999309868792
 40
28.97999309868792
 10
-2.250507027669649
 20
-1.027682122302505
 30
0.0
 10
-2.809979496819639
 20
-1.224528732937541
 30
0.0
 10
-3.382934103029282
 20
-1.349999999996547
 30
0.0
 10
-3.979589061976769
 20
-1.349999999996547
 30
0.0
  0
LINE
  5
7C3E
330
1F
100
AcDbEntity
  8
AM_0
100
AcDbLine
 10
-3.97958906197633
 20
-1.349999999996537
 30
0.0
 11
-8.314787463246037
 21
-1.349999999996537
 31
0.0
  0
LINE
  5
7C3F
330
1F
100
AcDbEntity
  8
AM_11
 48
0.2
100
AcDbLine
 10
-0.4913598162609208
 20
-1.349999999996537
 30
0.0
 11
-3.97958906197633
 21
-1.349999999996537
 31
0.0
  0
SPLINE
  5
7C40
330
1F
100
AcDbEntity
  8
AM_0
100
AcDbSpline
210
0.0
220
0.0
230
1.0
 70
     8
 71
     3
 72
     9
 73
     5
 74
     0
 42
0.0000000001
 43
0.0000000001
 40
1.521176736886217
 40
1.521176736886217
 40
1.521176736886217
 40
1.521176736886217
 40
14.48999654934396
 40
28.97999309868792
 40
28.97999309868792
 40
28.97999309868792
 40
28.97999309868792
 10
-0.495383749084321
 20
-1.315609411611068
 30
0.0
 10
-1.73933380173618
 20
-1.208275425542482
 30
0.0
 10
-4.120222848110935
 20
0.0708622872304904
 30
0.0
 10
-6.501111894485656
 20
1.350000000003453
 30
0.0
 10
-7.885006444686688
 20
1.350000000003453
 30
0.0
  0
SPLINE
  5
7C41
330
1F
100
AcDbEntity
  8
AM_0
100
AcDbSpline
210
0.0
220
0.0
230
1.0
 70
     8
 71
     3
 72
     9
 73
     5
 74
     0
 42
0.0000000001
 43
0.0000000001
 40
0.0
 40
0.0
 40
0.0
 40
0.0
 40
2.897999309868785
 40
5.795998619737583
 40
5.795998619737583
 40
5.795998619737583
 40
5.795998619737583
 10
-0.4913598162608251
 20
-1.349999999996537
 30
0.0
 10
-1.905319543563591
 20
-1.349999999996547
 30
0.0
 10
-4.418106228304505
 20
0.0000000000034676
 30
0.0
 10
-6.930892913045424
 20
1.350000000003453
 30
0.0
 10
-8.314787463246464
 20
1.350000000003453
 30
0.0
  0
LINE
  5
7C42
330
1F
100
AcDbEntity
  8
AM_0
100
AcDbLine
 10
-0.6369357885648523
 20
-0.1058332701024675
 30
0.0
 11
-1.284978791195172
 21
0.6219433300530071
 31
0.0
  0
LINE
  5
7C43
330
1F
100
AcDbEntity
  8
AM_0
100
AcDbLine
 10
-12.41648792331791
 20
0.3375061417230982
 30
0.0
 11
-14.42371352082792
 21
1.350000000003463
 31
0.0
  0
SPLINE
  5
7C44
330
1F
100
AcDbEntity
  8
AM_0
100
AcDbSpline
210
0.0
220
0.0
230
1.0
 70
     8
 71
     3
 72
     8
 73
     4
 74
     0
 42
0.0000000001
 43
0.0000000001
 40
0.0
 40
0.0
 40
0.0
 40
0.0
 40
10.77533687840354
 40
10.77533687840354
 40
10.77533687840354
 40
10.77533687840354
 10
-11.77295153186024
 20
-1.349999999996547
 30
0.0
 10
-12.80207047828803
 20
-1.349999999996547
 30
0.0
 10
-13.76068125384447
 20
-0.9767249844265235
 30
0.0
 10
-14.70121653449547
 20
-0.5077570788143558
 30
0.0
  0
SPLINE
  5
7C45
330
1F
100
AcDbEntity
  8
AM_0
100
AcDbSpline
210
0.0
220
0.0
230
1.0
 70
     8
 71
     3
 72
    10
 73
     6
 74
     0
 42
0.0000000001
 43
0.0000000001
 40
0.0
 40
0.0
 40
0.0
 40
0.0
 40
1.289535171527021
 40
2.633093948023314
 40
3.554477928175853
 40
3.554477928175853
 40
3.554477928175853
 40
3.554477928175853
 10
-14.70121222014046
 20
-0.5077592300290662
 30
0.0
 10
-15.24551067386451
 20
-0.236362359716914
 30
0.0
 10
-16.95345428489847
 20
1.131288706980688
 30
0.0
 10
-14.053617975061
 20
0.9120717066470735
 30
0.0
 10
-13.23139496400489
 20
0.5379824465524463
 30
0.0
 10
-12.8462571432893
 20
0.3375000000034533
 30
0.0
  0
LINE
  5
7C46
330
1F
100
AcDbEntity
  8
AM_0
100
AcDbLine
 10
-16.00000000000172
 20
-1.349999999996537
 30
0.0
 11
-16.00000000000172
 21
1.350000000003463
 31
0.0
  0
LINE
  5
7C47
330
1F
100
AcDbEntity
  8
AM_11
 48
0.2
100
AcDbLine
 10
-8.314787463246464
 20
1.350000000003463
 30
0.0
 11
-11.77295153186004
 21
1.350000000003463
 31
0.0
  0
LINE
  5
7C48
330
1F
100
AcDbEntity
  8
AM_11
 48
0.2
100
AcDbLine
 10
-7.88500644468651
 20
-1.349999999996537
 30
0.0
 11
-11.77295153185989
 21
-1.349999999996537
 31
0.0
  0
SPLINE
  5
7C49
330
1F
100
AcDbEntity
  8
AM_0
100
AcDbSpline
210
0.0
220
0.0
230
1.0
 70
     8
 71
     3
 72
     8
 73
     4
 74
     0
 42
0.0000000001
 43
0.0000000001
 40
22.73274810806259
 40
22.73274810806259
 40
22.73274810806259
 40
22.73274810806259
 40
28.97999309868794
 40
28.97999309868794
 40
28.97999309868794
 40
28.97999309868794
 10
-10.04386949755334
 20
-1.027682122302563
 30
0.0
 10
-10.60334196670325
 20
-1.224528732937569
 30
0.0
 10
-11.17629657291282
 20
-1.349999999996547
 30
0.0
 10
-11.77295153186024
 20
-1.349999999996547
 30
0.0
  0
SPLINE
  5
7C4A
330
1F
100
AcDbEntity
  8
AM_0
100
AcDbSpline
210
0.0
220
0.0
230
1.0
 70
     8
 71
     3
 72
     9
 73
     5
 74
     0
 42
0.0000000001
 43
0.0000000001
 40
0.0
 40
0.0
 40
0.0
 40
0.0
 40
2.897999309868796
 40
5.795998619737594
 40
5.795998619737594
 40
5.795998619737594
 40
5.795998619737594
 10
-3.979589061976333
 20
-1.349999999996547
 30
0.0
 10
-5.363483612177371
 20
-1.349999999996547
 30
0.0
 10
-7.876270296918297
 20
0.0000000000034628
 30
0.0
 10
-10.38905698165921
 20
1.350000000003453
 30
0.0
 10
-11.77295153186024
 20
1.350000000003453
 30
0.0
  0
SPLINE
  5
7C4B
330
1F
100
AcDbEntity
  8
AM_0
100
AcDbSpline
210
0.0
220
0.0
230
1.0
 70
     8
 71
     3
 72
     9
 73
     5
 74
     0
 42
0.0000000001
 43
0.0000000001
 40
0.0
 40
0.0
 40
0.0
 40
0.0
 40
14.48999654934396
 40
16.92804852839734
 40
16.92804852839734
 40
16.92804852839734
 40
16.92804852839734
 10
-8.314787463246464
 20
-1.349999999996547
 30
0.0
 10
-9.698682013447495
 20
-1.349999999996547
 30
0.0
 10
-11.16647307868177
 20
-0.5614261229940985
 30
0.0
 10
-12.63426414391603
 20
0.2271477540083503
 30
0.0
 10
-12.84626921579873
 20
0.3375062843115608
 30
0.0
  0
SPLINE
  5
7C4C
330
1F
100
AcDbEntity
  8
AM_0
100
AcDbSpline
210
0.0
220
0.0
230
1.0
 70
     8
 71
     3
 72
     9
 73
     5
 74
     0
 42
0.0000000001
 43
0.0000000001
 40
0.0
 40
0.0
 40
0.0
 40
0.0
 40
14.48999654934396
 40
16.9280474783711
 40
16.9280474783711
 40
16.9280474783711
 40
16.9280474783711
 10
-8.314787463246039
 20
-1.349999999996547
 30
0.0
 10
-9.698682013447069
 20
-1.349999999996547
 30
0.0
 10
-11.16647298763604
 20
-0.5614261719083952
 30
0.0
 10
-12.63426396182502
 20
0.2271476561797859
 30
0.0
 10
-12.84626894187769
 20
0.3375061417231078
 30
0.0
  0
SPLINE
  5
7C4D
330
1F
100
AcDbEntity
  8
AM_0
100
AcDbSpline
210
0.0
220
0.0
230
1.0
 70
     8
 71
     3
 72
     9
 73
     5
 74
     0
 42
0.0000000001
 43
0.0000000001
 40
0.0
 40
0.0
 40
0.0
 40
0.0
 40
14.48999654934396
 40
16.9280474783711
 40
16.9280474783711
 40
16.9280474783711
 40
16.9280474783711
 10
-7.885006444686267
 20
-1.349999999996547
 30
0.0
 10
-9.268900994887296
 20
-1.349999999996547
 30
0.0
 10
-10.73669196907627
 20
-0.5614261719083952
 30
0.0
 10
-12.20448294326525
 20
0.2271476561797859
 30
0.0
 10
-12.41648792331792
 20
0.3375061417231078
 30
0.0
  0
VIEWPORT
  5
E2
330
1B
100
AcDbEntity
 67
     1
  8
0
100
AcDbViewport
 10
158.659971393327
 20
148.5
 30
0.0
 40
581.809078125
 41
314.226
 68
     1
 69
     1
1001
ACAD
1000
MVIEW
1002
{
1070
    16
1010
0.0
1020
0.0
1030
0.0
1010
0.0
1020
0.0
1030
1.0
1040
0.0
1040
314.226
1040
158.659971393327
1040
148.5
1040
50.0
1040
0.0
1040
0.0
1070
     0
1070
   100
1070
     1
1070
     1
1070
     0
1070
     0
1070
     0
1070
     0
1040
0.0
1040
0.0
1040
0.0
1040
10.0
1040
10.0
1040
10.0
1040
10.0
1070
     0
1002
{
1002
}
1002
}
  0
ENDSEC
  0
SECTION
  2
OBJECTS
  0
DICTIONARY
  5
C
330
0
100
AcDbDictionary
  3
ACAD_GROUP
350
D
  3
ACAD_LAYOUT
350
1A
  3
ACAD_MLINESTYLE
350
17
  3
ACAD_PLOTSETTINGS
350
19
  3
ACAD_PLOTSTYLENAME
350
E
  3
ACDBVARIABLEDICTIONARY
350
34
  3
ACMDICTIONARY
350
43
  3
AMG
350
2B
  3
AMGSNAPSETTINGS
350
6E
  3
DWGPROPS
350
7C8C
  3
ACDBHEADERROUNDTRIPXREC
350
7C9B
  0
DICTIONARY
  5
74
330
1F
100
AcDbDictionary
280
     1
  3
ACAD_INDEX
360
7C8E
  3
ACAD_LAYOUTSELFREF
360
7CBE
  0
DICTIONARY
  5
7CBC
330
1B
100
AcDbDictionary
280
     1
  3
ACAD_LAYOUTSELFREF
360
7CBD
  0
DICTIONARY
  5
D
102
{ACAD_REACTORS
330
C
102
}
330
C
100
AcDbDictionary
  0
DICTIONARY
  5
1A
102
{ACAD_REACTORS
330
C
102
}
330
C
100
AcDbDictionary
  0
DICTIONARY
  5
17
102
{ACAD_REACTORS
330
C
102
}
330
C
100
AcDbDictionary
  3
STANDARD
350
18
  0
DICTIONARY
  5
19
102
{ACAD_REACTORS
330
C
102
}
330
C
100
AcDbDictionary
  0
ACDBDICTIONARYWDFLT
  5
E
102
{ACAD_REACTORS
330
C
102
}
330
C
100
AcDbDictionary
281
     1
  3
Normal
350
F
100
AcDbDictionaryWithDefault
340
F
  0
DICTIONARY
  5
34
102
{ACAD_REACTORS
330
C
102
}
330
C
100
AcDbDictionary
  3
INDEXCTL
350
35
  3
SORTENTS
350
B5E
  0
DICTIONARY
  5
43
102
{ACAD_REACTORS
330
C
102
}
330
C
100
AcDbDictionary
  3
ACMSTDDICTIONARY
350
260
  0
DICTIONARY
  5
2B
102
{ACAD_REACTORS
330
C
102
}
330
C
100
AcDbDictionary
  3
ACMGSETTINGS
350
2C
  0
DICTIONARY
  5
6E
102
{ACAD_REACTORS
330
C
102
}
330
C
100
AcDbDictionary
  0
XRECORD
  5
7C8C
102
{ACAD_REACTORS
330
C
102
}
330
C
100
AcDbXrecord
  1
DWGPROPS COOKIE
  2

  3

  4

  6

  7

  8

  9

300
AmdtFileType=82
301
=
302
=
303
=
304
=
305
=
306
=
307
=
308
=
309
=
 40
1.387302951388888
 41
2452838.620506898
 42
2452954.558607546
  1

 90
        1
  0
DICTIONARY
  5
7C9B
102
{ACAD_REACTORS
330
C
102
}
330
C
100
AcDbDictionary
  3
TSTACKALIGN
350
7C9C
  3
TSTACKSIZE
350
7C9D
  3
HYPERLINKBASE
350
7C9E
  3
STYLESHEET
350
7C9F
  3
LAYOUTDICT
350
7CA0
  3
PLOTSETDICT
350
7CA1
  3
PLOTSTYLNAMDICT
350
7CA2
  3
LWETCUNION
350
7CA3
  3
INSUNITS
350
7CA4
  3
CEPSNTYPE
350
7CA5
  3
FINGERPRINTGUID
350
7CA6
  3
VERSIONGUID
350
7CA7
  3
PSVPSCALE
350
7CA8
  3
DIMSTYLEDATA
350
7CA9
  3
PUCSORTHOREF
350
7CAA
  3
PUCSORTHOVIEW
350
7CAB
  3
PUCSBASE
350
7CAC
  3
PUCSORGTOP
350
7CAD
  3
PUCSORGBOTTOM
350
7CAE
  3
PUCSORGLEFT
350
7CAF
  3
PUCSORGRIGHT
350
7CB0
  3
PUCSORGFRONT
350
7CB1
  3
PUCSORGBACK
350
7CB2
  3
UCSORTHOREF
350
7CB3
  3
UCSORTHOVIEW
350
7CB4
  3
UCSBASE
350
7CB5
  3
UCSORGTOP
350
7CB6
  3
UCSORGBOTTOM
350
7CB7
  3
UCSORGLEFT
350
7CB8
  3
UCSORGRIGHT
350
7CB9
  3
UCSORGFRONT
350
7CBA
  3
UCSORGBACK
350
7CBB
  0
DICTIONARY
  5
7C8E
102
{ACAD_REACTORS
330
74
102
}
330
74
100
AcDbDictionary
  3
*A1
350
7C8F
  0
XRECORD
  5
7CBE
102
{ACAD_REACTORS
330
74
102
}
330
74
100
AcDbXrecord
340
1F
  0
XRECORD
  5
7CBD
102
{ACAD_REACTORS
330
7CBC
102
}
330
7CBC
100
AcDbXrecord
340
1B
  0
MLINESTYLE
  5
18
102
{ACAD_REACTORS
330
17
102
}
330
17
100
AcDbMlineStyle
  2
STANDARD
 70
     0
  3

 62
   256
 51
90.0
 52
90.0
 71
     2
 49
0.5
 62
   256
  6
BYLAYER
 49
-0.5
 62
   256
  6
BYLAYER
  0
ACDBPLACEHOLDER
  5
F
102
{ACAD_REACTORS
330
E
102
}
330
E
100
AcDbPlaceHolder
280
     0
  0
DICTIONARYVAR
  5
35
102
{ACAD_REACTORS
330
34
102
}
330
34
100
DictionaryVariables
280
     0
  1
1
  0
DICTIONARYVAR
  5
B5E
102
{ACAD_REACTORS
330
34
102
}
330
34
100
DictionaryVariables
280
     0
  1
96
  0
DICTIONARY
  5
260
102
{ACAD_REACTORS
330
43
102
}
330
43
100
AcDbDictionary
  0
DICTIONARY
  5
2C
102
{ACAD_REACTORS
330
2B
102
}
330
2B
100
AcDbDictionary
  3
DWGSETTINGS
350
2D
  0
XRECORD
  5
7C9C
102
{ACAD_REACTORS
330
7C9B
102
}
330
7C9B
100
AcDbXrecord
 90
        1
  0
XRECORD
  5
7C9D
102
{ACAD_REACTORS
330
7C9B
102
}
330
7C9B
100
AcDbXrecord
 90
       70
  0
XRECORD
  5
7C9E
102
{ACAD_REACTORS
330
7C9B
102
}
330
7C9B
100
AcDbXrecord
  1

  0
XRECORD
  5
7C9F
102
{ACAD_REACTORS
330
7C9B
102
}
330
7C9B
100
AcDbXrecord
  1
C:\Program Files\ACAD LT 2000\Plot Styles\ASAMI.ctb
  0
XRECORD
  5
7CA0
102
{ACAD_REACTORS
330
7C9B
102
}
330
7C9B
100
AcDbXrecord
340
1A
  0
XRECORD
  5
7CA1
102
{ACAD_REACTORS
330
7C9B
102
}
330
7C9B
100
AcDbXrecord
340
19
  0
XRECORD
  5
7CA2
102
{ACAD_REACTORS
330
7C9B
102
}
330
7C9B
100
AcDbXrecord
340
E
  0
XRECORD
  5
7CA3
102
{ACAD_REACTORS
330
7C9B
102
}
330
7C9B
100
AcDbXrecord
 90
    10781
  0
XRECORD
  5
7CA4
102
{ACAD_REACTORS
330
7C9B
102
}
330
7C9B
100
AcDbXrecord
 90
        4
  0
XRECORD
  5
7CA5
102
{ACAD_REACTORS
330
7C9B
102
}
330
7C9B
100
AcDbXrecord
 90
        0
  0
XRECORD
  5
7CA6
102
{ACAD_REACTORS
330
7C9B
102
}
330
7C9B
100
AcDbXrecord
  1
{AFB28963-8C59-40AE-9337-C84526B81ACE}
  0
XRECORD
  5
7CA7
102
{ACAD_REACTORS
330
7C9B
102
}
330
7C9B
100
AcDbXrecord
  1
{0E130D98-50F8-4289-996B-AFF2E355A9BD}
  0
XRECORD
  5
7CA8
102
{ACAD_REACTORS
330
7C9B
102
}
330
7C9B
100
AcDbXrecord
 40
0.0
  0
XRECORD
  5
7CA9
102
{ACAD_REACTORS
330
7C9B
102
}
330
7C9B
100
AcDbXrecord
1000
DSTYLE
1002
{
1070
    79
 70
     2
1070
   341
340
59
1070
   342
340
59
1070
   371
 70
    -1
1070
   372
 70
    -1
1002
}
  0
XRECORD
  5
7CAA
102
{ACAD_REACTORS
330
7C9B
102
}
330
7C9B
100
AcDbXrecord
340
0
  0
XRECORD
  5
7CAB
102
{ACAD_REACTORS
330
7C9B
102
}
330
7C9B
100
AcDbXrecord
 70
     0
  0
XRECORD
  5
7CAC
102
{ACAD_REACTORS
330
7C9B
102
}
330
7C9B
100
AcDbXrecord
340
0
  0
XRECORD
  5
7CAD
102
{ACAD_REACTORS
330
7C9B
102
}
330
7C9B
100
AcDbXrecord
 10
0.0
 20
0.0
 30
0.0
  0
XRECORD
  5
7CAE
102
{ACAD_REACTORS
330
7C9B
102
}
330
7C9B
100
AcDbXrecord
 10
0.0
 20
0.0
 30
0.0
  0
XRECORD
  5
7CAF
102
{ACAD_REACTORS
330
7C9B
102
}
330
7C9B
100
AcDbXrecord
 10
0.0
 20
0.0
 30
0.0
  0
XRECORD
  5
7CB0
102
{ACAD_REACTORS
330
7C9B
102
}
330
7C9B
100
AcDbXrecord
 10
0.0
 20
0.0
 30
0.0
  0
XRECORD
  5
7CB1
102
{ACAD_REACTORS
330
7C9B
102
}
330
7C9B
100
AcDbXrecord
 10
0.0
 20
0.0
 30
0.0
  0
XRECORD
  5
7CB2
102
{ACAD_REACTORS
330
7C9B
102
}
330
7C9B
100
AcDbXrecord
 10
0.0
 20
0.0
 30
0.0
  0
XRECORD
  5
7CB3
102
{ACAD_REACTORS
330
7C9B
102
}
330
7C9B
100
AcDbXrecord
340
0
  0
XRECORD
  5
7CB4
102
{ACAD_REACTORS
330
7C9B
102
}
330
7C9B
100
AcDbXrecord
 70
     0
  0
XRECORD
  5
7CB5
102
{ACAD_REACTORS
330
7C9B
102
}
330
7C9B
100
AcDbXrecord
340
0
  0
XRECORD
  5
7CB6
102
{ACAD_REACTORS
330
7C9B
102
}
330
7C9B
100
AcDbXrecord
 10
0.0
 20
0.0
 30
0.0
  0
XRECORD
  5
7CB7
102
{ACAD_REACTORS
330
7C9B
102
}
330
7C9B
100
AcDbXrecord
 10
0.0
 20
0.0
 30
0.0
  0
XRECORD
  5
7CB8
102
{ACAD_REACTORS
330
7C9B
102
}
330
7C9B
100
AcDbXrecord
 10
0.0
 20
0.0
 30
0.0
  0
XRECORD
  5
7CB9
102
{ACAD_REACTORS
330
7C9B
102
}
330
7C9B
100
AcDbXrecord
 10
0.0
 20
0.0
 30
0.0
  0
XRECORD
  5
7CBA
102
{ACAD_REACTORS
330
7C9B
102
}
330
7C9B
100
AcDbXrecord
 10
0.0
 20
0.0
 30
0.0
  0
XRECORD
  5
7CBB
102
{ACAD_REACTORS
330
7C9B
102
}
330
7C9B
100
AcDbXrecord
 10
0.0
 20
0.0
 30
0.0
  0
LAYER_INDEX
  5
7C8F
102
{ACAD_REACTORS
330
7C8E
102
}
330
7C8E
100
AcDbIndex
 40
2453151.593787778
100
AcDbLayerIndex
  8
0
360
7C90
 90
        0
  8
AM_0
360
7C91
 90
       39
  8
AM_11
360
7C92
 90
        4
  8
AM_7
360
7C93
 90
        1
  8
AM_5
360
7C94
 90
        4
  8
Defpoints
360
7C95
 90
        0
  8
AM_6
360
7C96
 90
        1
  8
AM_CL
360
7C97
 90
        0
  8
5
360
7C98
 90
        0
  8
AM_4
360
7C99
 90
        0
  0
XRECORD
  5
2D
102
{ACAD_REACTORS
330
2C
102
}
330
2C
100
AcDbXrecord
  1
VERSION
140
15.0
  1
PRODUCT
  2
AutoCAD Mechanical 2000
  0
IDBUFFER
  5
7C90
330
0
100
AcDbIdBuffer
  0
IDBUFFER
  5
7C91
330
0
100
AcDbIdBuffer
330
7C33
330
7C34
330
7C35
330
7C36
330
7C37
330
7C39
330
7C3A
330
7C3B
330
7C3C
330
7C3D
330
7C3E
330
7C40
330
7C41
330
7C42
330
7C43
330
7C44
330
7C45
330
7C46
330
7C49
330
7C4A
330
7C4B
330
7C4C
330
7C4D
330
631C
330
631D
330
6343
330
6348
330
6349
330
634B
330
634C
330
638E
330
63DB
330
6BFA
330
6BFD
330
7660
330
7661
330
7662
330
7664
330
7665
  0
IDBUFFER
  5
7C92
330
0
100
AcDbIdBuffer
330
7C38
330
7C3F
330
7C47
330
7C48
  0
IDBUFFER
  5
7C93
330
0
100
AcDbIdBuffer
330
6320
  0
IDBUFFER
  5
7C94
330
0
100
AcDbIdBuffer
330
634F
330
63C1
330
640B
330
6418
  0
IDBUFFER
  5
7C95
330
0
100
AcDbIdBuffer
  0
IDBUFFER
  5
7C96
330
0
100
AcDbIdBuffer
330
C58
  0
IDBUFFER
  5
7C97
330
0
100
AcDbIdBuffer
  0
IDBUFFER
  5
7C98
330
0
100
AcDbIdBuffer
  0
IDBUFFER
  5
7C99
330
0
100
AcDbIdBuffer
  0
ENDSEC
  0
EOF
