  0
SECTION
  2
HEADER
  9
$ACADVER
  1
AC1014
  9
$ACADMAINTVER
 70
     9
  9
$DWGCODEPAGE
  3
ANSI_932
  9
$INSBASE
 10
0.0
 20
0.0
 30
0.0
  9
$EXTMIN
 10
-59.25524077522134
 20
-23.51863199469301
 30
-0.00000001
  9
$EXTMAX
 10
13.31750480922051
 20
13.03148104715853
 30
0.00000001
  9
$LIMMIN
 10
-62.48017384710442
 20
-31.70505062964966
  9
$LIMMAX
 10
17.00303752580765
 20
24.26881132815021
  9
$ORTHOMODE
 70
     0
  9
$REGENMODE
 70
     1
  9
$FILLMODE
 70
     1
  9
$QTEXTMODE
 70
     0
  9
$MIRRTEXT
 70
     0
  9
$DRAGMODE
 70
     2
  9
$LTSCALE
 40
0.1
  9
$OSMODE
 70
    55
  9
$ATTMODE
 70
     1
  9
$TEXTSIZE
 40
2.5
  9
$TRACEWID
 40
1.0
  9
$TEXTSTYLE
  7
STANDARD
  9
$CLAYER
  8
AM_5
  9
$CELTYPE
  6
BYLAYER
  9
$CECOLOR
 62
   256
  9
$CELTSCALE
 40
1.0
  9
$DELOBJ
 70
     1
  9
$DISPSILH
 70
     0
  9
$DIMSCALE
 40
0.5
  9
$DIMASZ
 40
2.5
  9
$DIMEXO
 40
1.0
  9
$DIMDLI
 40
12.0
  9
$DIMRND
 40
0.0
  9
$DIMDLE
 40
0.0
  9
$DIMEXE
 40
1.0
  9
$DIMTP
 40
0.1
  9
$DIMTM
 40
0.1
  9
$DIMTXT
 40
3.2
  9
$DIMCEN
 40
0.0
  9
$DIMTSZ
 40
0.0
  9
$DIMTOL
 70
     0
  9
$DIMLIM
 70
     0
  9
$DIMTIH
 70
     0
  9
$DIMTOH
 70
     0
  9
$DIMSE1
 70
     0
  9
$DIMSE2
 70
     0
  9
$DIMTAD
 70
     3
  9
$DIMZIN
 70
     1
  9
$DIMBLK
  1
OPEN30
  9
$DIMASO
 70
     1
  9
$DIMSHO
 70
     1
  9
$DIMPOST
  1

  9
$DIMAPOST
  1
"
  9
$DIMALT
 70
     0
  9
$DIMALTD
 70
     2
  9
$DIMALTF
 40
0.0393701
  9
$DIMLFAC
 40
1.0
  9
$DIMTOFL
 70
     1
  9
$DIMTVP
 40
0.0
  9
$DIMTIX
 70
     0
  9
$DIMSOXD
 70
     0
  9
$DIMSAH
 70
     0
  9
$DIMBLK1
  1

  9
$DIMBLK2
  1

  9
$DIMSTYLE
  2
AM_JIS
  9
$DIMCLRD
 70
     3
  9
$DIMCLRE
 70
     3
  9
$DIMCLRT
 70
     2
  9
$DIMTFAC
 40
0.71
  9
$DIMGAP
 40
1.5
  9
$DIMJUST
 70
     0
  9
$DIMSD1
 70
     0
  9
$DIMSD2
 70
     0
  9
$DIMTOLJ
 70
     0
  9
$DIMTZIN
 70
     0
  9
$DIMALTZ
 70
     0
  9
$DIMALTTZ
 70
     0
  9
$DIMFIT
 70
     3
  9
$DIMUPT
 70
     0
  9
$DIMUNIT
 70
     2
  9
$DIMDEC
 70
     1
  9
$DIMTDEC
 70
     1
  9
$DIMALTU
 70
     2
  9
$DIMALTTD
 70
     2
  9
$DIMTXSTY
  7
ASAMI
  9
$DIMAUNIT
 70
     0
  9
$LUNITS
 70
     2
  9
$LUPREC
 70
     2
  9
$SKETCHINC
 40
1.0
  9
$FILLETRAD
 40
0.8
  9
$AUNITS
 70
     0
  9
$AUPREC
 70
     0
  9
$MENU
  1
.
  9
$ELEVATION
 40
0.0
  9
$PELEVATION
 40
0.0
  9
$THICKNESS
 40
0.0
  9
$LIMCHECK
 70
     0
  9
$BLIPMODE
 70
     0
  9
$CHAMFERA
 40
0.5
  9
$CHAMFERB
 40
0.5
  9
$CHAMFERC
 40
20.0
  9
$CHAMFERD
 40
0.0
  9
$SKPOLY
 70
     0
  9
$TDCREATE
 40
2452838.620506898
  9
$TDUPDATE
 40
2453151.612143715
  9
$TDINDWG
 40
1.1669882523
  9
$TDUSRTIMER
 40
1.1669882523
  9
$USRTIMER
 70
     1
  9
$ANGBASE
 50
0.0
  9
$ANGDIR
 70
     0
  9
$PDMODE
 70
     0
  9
$PDSIZE
 40
0.0
  9
$PLINEWID
 40
0.0
  9
$COORDS
 70
     1
  9
$SPLFRAME
 70
     0
  9
$SPLINETYPE
 70
     6
  9
$SPLINESEGS
 70
     8
  9
$ATTDIA
 70
     1
  9
$ATTREQ
 70
     1
  9
$HANDLING
 70
 12289
  9
$HANDSEED
  5
68CC
  9
$SURFTAB1
 70
     6
  9
$SURFTAB2
 70
     6
  9
$SURFTYPE
 70
     6
  9
$SURFU
 70
     6
  9
$SURFV
 70
     6
  9
$UCSNAME
  2

  9
$UCSORG
 10
0.0
 20
0.0
 30
0.0
  9
$UCSXDIR
 10
1.0
 20
0.0
 30
0.0
  9
$UCSYDIR
 10
0.0
 20
1.0
 30
0.0
  9
$PUCSNAME
  2

  9
$PUCSORG
 10
0.0
 20
0.0
 30
0.0
  9
$PUCSXDIR
 10
1.0
 20
0.0
 30
0.0
  9
$PUCSYDIR
 10
0.0
 20
1.0
 30
0.0
  9
$USERI1
 70
     0
  9
$USERI2
 70
     0
  9
$USERI3
 70
     0
  9
$USERI4
 70
     0
  9
$USERI5
 70
     0
  9
$USERR1
 40
0.0
  9
$USERR2
 40
0.0
  9
$USERR3
 40
0.0
  9
$USERR4
 40
0.0
  9
$USERR5
 40
0.0
  9
$WORLDVIEW
 70
     1
  9
$SHADEDGE
 70
     3
  9
$SHADEDIF
 70
    70
  9
$TILEMODE
 70
     1
  9
$MAXACTVP
 70
    64
  9
$PINSBASE
 10
0.0
 20
0.0
 30
0.0
  9
$PLIMCHECK
 70
     0
  9
$PEXTMIN
 10
1.000000000000000E+20
 20
1.000000000000000E+20
 30
1.000000000000000E+20
  9
$PEXTMAX
 10
-1.000000000000000E+20
 20
-1.000000000000000E+20
 30
-1.000000000000000E+20
  9
$PLIMMIN
 10
0.0
 20
0.0
  9
$PLIMMAX
 10
210.0
 20
297.0
  9
$UNITMODE
 70
     0
  9
$VISRETAIN
 70
     1
  9
$PLINEGEN
 70
     0
  9
$PSLTSCALE
 70
     1
  9
$TREEDEPTH
 70
  3020
  9
$PICKSTYLE
 70
     0
  9
$CMLSTYLE
  2
STANDARD
  9
$CMLJUST
 70
     0
  9
$CMLSCALE
 40
20.0
  9
$PROXYGRAPHICS
 70
     1
  9
$MEASUREMENT
 70
     1
  0
ENDSEC
  0
SECTION
  2
CLASSES
  0
CLASS
  1
ACDBDICTIONARYWDFLT
  2
AcDbDictionaryWithDefault
  3
AutoCAD 2000
 90
        0
280
     0
281
     0
  0
CLASS
  1
ACDBPLACEHOLDER
  2
AcDbPlaceHolder
  3
AutoCAD 2000
 90
        0
280
     0
281
     0
  0
CLASS
  1
LAYOUT
  2
AcDbLayout
  3
AutoCAD 2000
 90
        0
280
     0
281
     0
  0
CLASS
  1
AMGSETTINGSOBJ
  2
AmgSettingsObj
  3
"AcadM|Product Description: AutoCAD Mechanical 2000|Company: Autodesk"
 90
        0
280
     0
281
     0
  0
CLASS
  1
ACME_DOCUMENT
  2
AcMeDbDoc
  3
AcMeServices
 90
        0
280
     0
281
     0
  0
CLASS
  1
ACMESCOPE
  2
AcMeScope
  3
AcMeServices
 90
        0
280
     0
281
     0
  0
CLASS
  1
ACMECOMMANDHISTORY
  2
AcMeCommandHistory
  3
AcMeServices
 90
        0
280
     0
281
     0
  0
CLASS
  1
DICTIONARYVAR
  2
AcDbDictionaryVar
  3
AutoCAD 2000
 90
        0
280
     0
281
     0
  0
CLASS
  1
ACIMSYSVARMAN
  2
AcImSysVarManager
  3
AcMeServices
 90
        0
280
     0
281
     0
  0
CLASS
  1
ACIMREALSYSVAR
  2
AcImRealSysVar
  3
AcMeServices
 90
        0
280
     0
281
     0
  0
CLASS
  1
ACIMINTSYSVAR
  2
AcImIntSysVar
  3
AcMeServices
 90
        0
280
     0
281
     0
  0
CLASS
  1
ACMEDRAWINGMAN
  2
AcMeDrawingMan
  3
AcMeServices
 90
        0
280
     0
281
     0
  0
CLASS
  1
ACMEVIEW
  2
AcMeView
  3
AcMeServices
 90
        0
280
     0
281
     0
  0
CLASS
  1
ACDBENTITYCACHE
  2
AcMeEntityCache
  3
AcMeServices
 90
        0
280
     0
281
     0
  0
CLASS
  1
GSMANAGER
  2
AcMeGSManager
  3
AcMeServices
 90
        0
280
     0
281
     0
  0
CLASS
  1
AmdtInternalReactor
  2
AmdtInternalReactor
  3
AcMeServices
 90
        0
280
     0
281
     0
  0
CLASS
  1
ACMESTATEMGR
  2
AcMeStateMgr
  3
AcMeServices
 90
        0
280
     0
281
     0
  0
CLASS
  1
ACME_DATABASE
  2
AcMeDbDatabase
  3
AcMeServices
 90
        0
280
     0
281
     0
  0
CLASS
  1
ACRFINSADJUSTERMGR
  2
AcRfInsAdjusterMgr
  3
AcMeServices
 90
        0
280
     0
281
     0
  0
CLASS
  1
ACMDATADICTIONARY
  2
AcmDataDictionary
  3
"AcmSymBB|Product Description: AutoCAD Mechanical 2000|Company: Autodesk"
 90
        0
280
     0
281
     0
  0
CLASS
  1
ACMDATAENTRYBLOCK
  2
AcmDataEntryBlock
  3
"AcmSymBB|Product Description: AutoCAD Mechanical 2000|Company: Autodesk"
 90
        0
280
     0
281
     0
  0
CLASS
  1
AMGOBJPROPCFG
  2
AmgObjPropCfg
  3
"AmgLay|Product Description: AutoCAD Mechanical 2000|Company: Autodesk"
 90
        1
280
     0
281
     0
  0
CLASS
  1
ACAMGFILTERDAT
  2
AcAmgFilterDat
  3
"AcadM|Product Description: AutoCAD Mechanical 2000|Company: Autodesk"
 90
        0
280
     0
281
     0
  0
CLASS
  1
LAYER_INDEX
  2
AcDbLayerIndex
  3
AutoCAD 2000
 90
        0
280
     0
281
     0
  0
CLASS
  1
IDBUFFER
  2
AcDbIdBuffer
  3
AutoCAD 2000
 90
        0
280
     0
281
     0
  0
CLASS
  1
ACIMSTRSYSVAR
  2
AcImStrSysVar
  3
AcMeServices
 90
        0
280
     0
281
     0
  0
CLASS
  1
ACMSTANDARDJIS
  2
AcmStandardJIS
  3
"AcmSymBB|Product Description: AutoCAD Mechanical 2000|Company: Autodesk"
 90
        0
280
     0
281
     0
  0
CLASS
  1
ACMSURFSTANDARDJIS
  2
AcmSurfTextStdJIS
  3
"AcmSymBB|Product Description: AutoCAD Mechanical 2000|Company: Autodesk"
 90
        0
280
     0
281
     0
  0
CLASS
  1
ACMFCFSTANDARDJIS
  2
AcmFCFStdJIS
  3
"AcmSymBB|Product Description: AutoCAD Mechanical 2000|Company: Autodesk"
 90
        0
280
     0
281
     0
  0
CLASS
  1
ACMWELDSTANDARDJIS
  2
AcmWeldingStdJIS
  3
"AcmSymBB|Product Description: AutoCAD Mechanical 2000|Company: Autodesk"
 90
        0
280
     0
281
     0
  0
CLASS
  1
ACMIDSTANDARDJIS
  2
AcmIdStdJIS
  3
"AcmSymBB|Product Description: AutoCAD Mechanical 2000|Company: Autodesk"
 90
        0
280
     0
281
     0
  0
CLASS
  1
ACMDATUMSTANDARDJIS
  2
AcmDatumStdJIS
  3
"AcmSymBB|Product Description: AutoCAD Mechanical 2000|Company: Autodesk"
 90
        0
280
     0
281
     0
  0
CLASS
  1
ACMBOMSTANDARDJIS
  2
AcmBOMStdJIS
  3
"AcmSymBB|Product Description: AutoCAD Mechanical 2000|Company: Autodesk"
 90
        0
280
     0
281
     0
  0
CLASS
  1
ACMSTANDARDANSI
  2
AcmStandardANSI
  3
"AcmSymBB|Product Description: AutoCAD Mechanical 2000|Company: Autodesk"
 90
        0
280
     0
281
     0
  0
CLASS
  1
ACMSURFSTANDARDANSI
  2
AcmSurfTextStdANSI
  3
"AcmSymBB|Product Description: AutoCAD Mechanical 2000|Company: Autodesk"
 90
        0
280
     0
281
     0
  0
CLASS
  1
ACMFCFSTANDARDANSI
  2
AcmFCFStdANSI
  3
"AcmSymBB|Product Description: AutoCAD Mechanical 2000|Company: Autodesk"
 90
        0
280
     0
281
     0
  0
CLASS
  1
ACMWELDSTANDARDANSI
  2
AcmWeldingStdANSI
  3
"AcmSymBB|Product Description: AutoCAD Mechanical 2000|Company: Autodesk"
 90
        0
280
     0
281
     0
  0
CLASS
  1
ACMIDSTANDARDANSI
  2
AcmIdStdANSI
  3
"AcmSymBB|Product Description: AutoCAD Mechanical 2000|Company: Autodesk"
 90
        0
280
     0
281
     0
  0
CLASS
  1
ACMDATUMSTANDARDANSI
  2
AcmDatumStdANSI
  3
"AcmSymBB|Product Description: AutoCAD Mechanical 2000|Company: Autodesk"
 90
        0
280
     0
281
     0
  0
CLASS
  1
ACMBOMSTANDARDANSI
  2
AcmBOMStdANSI
  3
"AcmSymBB|Product Description: AutoCAD Mechanical 2000|Company: Autodesk"
 90
        0
280
     0
281
     0
  0
CLASS
  1
ACMSTANDARDBSI
  2
AcmStandardBSI
  3
"AcmSymBB|Product Description: AutoCAD Mechanical 2000|Company: Autodesk"
 90
        0
280
     0
281
     0
  0
CLASS
  1
ACMSURFSTANDARDBSI
  2
AcmSurfTextStdBSI
  3
"AcmSymBB|Product Description: AutoCAD Mechanical 2000|Company: Autodesk"
 90
        0
280
     0
281
     0
  0
CLASS
  1
ACMFCFSTANDARDBSI
  2
AcmFCFStdBSI
  3
"AcmSymBB|Product Description: AutoCAD Mechanical 2000|Company: Autodesk"
 90
        0
280
     0
281
     0
  0
CLASS
  1
ACMWELDSTANDARDBSI
  2
AcmWeldingStdBSI
  3
"AcmSymBB|Product Description: AutoCAD Mechanical 2000|Company: Autodesk"
 90
        0
280
     0
281
     0
  0
CLASS
  1
ACMIDSTANDARDBSI
  2
AcmIdStdBSI
  3
"AcmSymBB|Product Description: AutoCAD Mechanical 2000|Company: Autodesk"
 90
        0
280
     0
281
     0
  0
CLASS
  1
ACMDATUMSTANDARDBSI
  2
AcmDatumStdBSI
  3
"AcmSymBB|Product Description: AutoCAD Mechanical 2000|Company: Autodesk"
 90
        0
280
     0
281
     0
  0
CLASS
  1
ACMBOMSTANDARDBSI
  2
AcmBOMStdBSI
  3
"AcmSymBB|Product Description: AutoCAD Mechanical 2000|Company: Autodesk"
 90
        0
280
     0
281
     0
  0
CLASS
  1
LONG_TRANSACTION
  2
AcDbLongTransaction
  3
AutoCAD 2000
 90
        0
280
     0
281
     0
  0
CLASS
  1
LWPOLYLINE
  2
AcDbPolyline
  3
AutoCAD 2000
 90
        0
280
     0
281
     1
  0
CLASS
  1
HATCH
  2
AcDbHatch
  3
AutoCAD 2000
 90
        0
280
     0
281
     1
  0
CLASS
  1
XRECORD
  2
AcDbXrecord
  3
AutoCAD 2000
 90
        0
280
     0
281
     0
  0
ENDSEC
  0
SECTION
  2
TABLES
  0
TABLE
  2
VPORT
  5
8
330
0
100
AcDbSymbolTable
 70
     3
  0
VPORT
  5
688B
330
8
100
AcDbSymbolTableRecord
100
AcDbViewportTableRecord
  2
*ACTIVE
 70
     0
 10
0.0
 20
0.0
 11
1.0
 21
1.0
 12
6.108186664667215
 22
25.25890976497044
 13
0.0
 23
0.0
 14
2.5
 24
2.5
 15
10.0
 25
10.0
 16
0.0
 26
0.0
 36
1.0
 17
0.0
 27
0.0
 37
0.0
 40
113.1125945150159
 41
1.56570841889117
 42
50.0
 43
0.0
 44
0.0
 50
0.0
 51
0.0
 71
     0
 72
   100
 73
     1
 74
     3
 75
     0
 76
     0
 77
     0
 78
     0
  0
ENDTAB
  0
TABLE
  2
LTYPE
  5
5
330
0
100
AcDbSymbolTable
 70
    10
  0
LTYPE
  5
14
330
5
100
AcDbSymbolTableRecord
100
AcDbLinetypeTableRecord
  2
BYBLOCK
 70
     0
  3

 72
    65
 73
     0
 40
0.0
  0
LTYPE
  5
15
330
5
100
AcDbSymbolTableRecord
100
AcDbLinetypeTableRecord
  2
BYLAYER
 70
     0
  3

 72
    65
 73
     0
 40
0.0
  0
LTYPE
  5
16
330
5
100
AcDbSymbolTableRecord
100
AcDbLinetypeTableRecord
  2
CONTINUOUS
 70
     0
  3
Solid line
 72
    65
 73
     0
 40
0.0
  0
LTYPE
  5
4B
330
5
100
AcDbSymbolTableRecord
100
AcDbLinetypeTableRecord
  2
AM_ISO02W050
 70
     0
  3
__ __ __ __ __ __ __ __ __ __ __ __ __ __ __
 72
    65
 73
     2
 40
7.5
 49
6.0
 74
     0
 49
-1.5
 74
     0
  0
LTYPE
  5
4C
330
5
100
AcDbSymbolTableRecord
100
AcDbLinetypeTableRecord
  2
AM_ISO08W050
 70
     0
  3
____ . ____ . ____ . ____ . ____ . ____ . ____
 72
    65
 73
     4
 40
18.0
 49
12.0
 74
     0
 49
-1.5
 74
     0
 49
3.0
 74
     0
 49
-1.5
 74
     0
  0
LTYPE
  5
4D
330
5
100
AcDbSymbolTableRecord
100
AcDbLinetypeTableRecord
  2
AM_ISO09W050
 70
     0
  3
_____ . . _____ . . _____ . . ____ .. ____
 72
    65
 73
     6
 40
22.5
 49
12.0
 74
     0
 49
-1.5
 74
     0
 49
3.0
 74
     0
 49
-1.5
 74
     0
 49
3.0
 74
     0
 49
-1.5
 74
     0
  0
LTYPE
  5
4E
330
5
100
AcDbSymbolTableRecord
100
AcDbLinetypeTableRecord
  2
AMCONSTR
 70
     0
  3
_______________________
 72
    65
 73
     2
 40
9999.0
 49
9999.0
 74
     0
 49
0.0
 74
     0
  0
LTYPE
  5
4F
330
5
100
AcDbSymbolTableRecord
100
AcDbLinetypeTableRecord
  2
AM_ISO02W050X2
 70
     0
  3
 _ _ _ _ _ _ _ _ _ _ _ _
 72
    65
 73
     2
 40
3.75
 49
3.0
 74
     0
 49
-0.75
 74
     0
  0
LTYPE
  5
50
330
5
100
AcDbSymbolTableRecord
100
AcDbLinetypeTableRecord
  2
AM_ISO08W050X2
 70
     0
  3
__ . __ . __ . __ . __ . __
 72
    65
 73
     4
 40
9.0
 49
6.0
 74
     0
 49
-0.75
 74
     0
 49
1.5
 74
     0
 49
-0.75
 74
     0
  0
LTYPE
  5
53
330
5
100
AcDbSymbolTableRecord
100
AcDbLinetypeTableRecord
  2
AMZIGZAG
 70
     0
  3
/\/-/\/-/\/-/\/-/\/-/\/
 72
    65
 73
     2
 40
11.00009999999999
 49
0.0001
 74
     4
 75
   135
340
52
 46
0.04
 50
0.0
 44
0.0
 45
0.0
 49
-11.0
 74
     0
  0
LTYPE
  5
166
330
5
100
AcDbSymbolTableRecord
100
AcDbLinetypeTableRecord
  2
ACJISTGL
 70
     0
  3
_ _ _ _ _
 72
    65
 73
     2
 40
3.0
 49
2.0
 74
     0
 49
-1.0
 74
     0
  0
LTYPE
  5
26A
330
5
100
AcDbSymbolTableRecord
100
AcDbLinetypeTableRecord
  2
ACJISTGB
 70
     0
  3
__ . . __ . .
 72
    65
 73
     6
 40
9.0
 49
4.0
 74
     0
 49
-1.0
 74
     0
 49
1.0
 74
     0
 49
-1.0
 74
     0
 49
1.0
 74
     0
 49
-1.0
 74
     0
  0
ENDTAB
  0
TABLE
  2
LAYER
  5
2
330
0
100
AcDbSymbolTable
 70
     8
  0
LAYER
  5
10
330
2
100
AcDbSymbolTableRecord
100
AcDbLayerTableRecord
  2
0
 70
     0
 62
     7
  6
CONTINUOUS
  0
LAYER
  5
3F9
330
2
100
AcDbSymbolTableRecord
100
AcDbLayerTableRecord
  2
AM_0
 70
     0
 62
     7
  6
CONTINUOUS
  0
LAYER
  5
BD6
330
2
100
AcDbSymbolTableRecord
100
AcDbLayerTableRecord
  2
AM_11
 70
     0
 62
     3
  6
AM_ISO09W050
  0
LAYER
  5
BD7
330
2
100
AcDbSymbolTableRecord
100
AcDbLayerTableRecord
  2
AM_7
 70
     0
 62
     4
  6
AM_ISO08W050
  0
LAYER
  5
BD8
330
2
100
AcDbSymbolTableRecord
100
AcDbLayerTableRecord
  2
AM_5
 70
     0
 62
     3
  6
CONTINUOUS
  0
LAYER
  5
BD9
330
2
100
AcDbSymbolTableRecord
100
AcDbLayerTableRecord
  2
DEFPOINTS
 70
     0
 62
     7
  6
CONTINUOUS
  0
LAYER
  5
BDA
330
2
100
AcDbSymbolTableRecord
100
AcDbLayerTableRecord
  2
AM_6
 70
     0
 62
     2
  6
CONTINUOUS
  0
LAYER
  5
1E2E
330
2
100
AcDbSymbolTableRecord
100
AcDbLayerTableRecord
  2
AM_CL
 70
     0
 62
     1
  6
AMCONSTR
  0
ENDTAB
  0
TABLE
  2
STYLE
  5
3
330
0
100
AcDbSymbolTable
 70
     5
  0
STYLE
  5
11
330
3
100
AcDbSymbolTableRecord
100
AcDbTextStyleTableRecord
  2
STANDARD
 70
     0
 40
0.0
 41
1.0
 50
0.0
 71
     0
 42
2.5
  3
simplex.shx
  4
EXTFONT.SHX
  0
STYLE
  5
52
330
3
100
AcDbSymbolTableRecord
100
AcDbTextStyleTableRecord
  2

 70
     1
 40
0.0
 41
1.0
 50
0.0
 71
     0
 42
2.5
  3
ltypeshp.shx
  4

  0
STYLE
  5
6B
330
3
100
AcDbSymbolTableRecord
100
AcDbTextStyleTableRecord
  2
ASAMI
 70
     0
 40
0.0
 41
1.0
 50
0.0
 71
     0
 42
2.5
  3
simplex.shx
  4
EXTFONT.SHX
  0
STYLE
  5
262
330
3
100
AcDbSymbolTableRecord
100
AcDbTextStyleTableRecord
  2
ACJISTS
 70
     0
 40
1.0
 41
1.0
 50
0.0
 71
     0
 42
2.5
  3
simplex.shx
  4
bigfont.shx
  0
STYLE
  5
269
330
3
100
AcDbSymbolTableRecord
100
AcDbTextStyleTableRecord
  2
ACJISGDT
 70
     0
 40
0.0
 41
1.0
 50
0.0
 71
     0
 42
2.5
  3
amgdtans.shx
  4

  0
ENDTAB
  0
TABLE
  2
VIEW
  5
6
330
0
100
AcDbSymbolTable
 70
     0
  0
ENDTAB
  0
TABLE
  2
UCS
  5
7
330
0
100
AcDbSymbolTable
 70
     0
  0
ENDTAB
  0
TABLE
  2
APPID
  5
9
330
0
100
AcDbSymbolTable
 70
    14
  0
APPID
  5
12
330
9
100
AcDbSymbolTableRecord
100
AcDbRegAppTableRecord
  2
ACAD
 70
     0
  0
APPID
  5
30
330
9
100
AcDbSymbolTableRecord
100
AcDbRegAppTableRecord
  2
MCAD_NO_VIS
 70
     0
  0
APPID
  5
31
330
9
100
AcDbSymbolTableRecord
100
AcDbRegAppTableRecord
  2
ACAD_TEMP_GRAPHIC
 70
     0
  0
APPID
  5
2C2
330
9
100
AcDbSymbolTableRecord
100
AcDbRegAppTableRecord
  2
GENIUS_GENDTOL_13
 70
     0
  0
APPID
  5
339
330
9
100
AcDbSymbolTableRecord
100
AcDbRegAppTableRecord
  2
GENIUS_GENODEF_13
 70
     0
  0
APPID
  5
33A
330
9
100
AcDbSymbolTableRecord
100
AcDbRegAppTableRecord
  2
GENIUS_GENOBJ-N-RSBK_13
 70
     0
  0
APPID
  5
33B
330
9
100
AcDbSymbolTableRecord
100
AcDbRegAppTableRecord
  2
GENIUS_GENOBJ-N-LIB_13
 70
     0
  0
APPID
  5
33C
330
9
100
AcDbSymbolTableRecord
100
AcDbRegAppTableRecord
  2
GENIUS_GENSCALE_13
 70
     0
  0
APPID
  5
378
330
9
100
AcDbSymbolTableRecord
100
AcDbRegAppTableRecord
  2
GENIUS_GENDIMSH_14
 70
     0
  0
APPID
  5
BDB
330
9
100
AcDbSymbolTableRecord
100
AcDbRegAppTableRecord
  2
GENIUS_GENOBJ-N-CEN_13
 70
     0
  0
APPID
  5
BDC
330
9
100
AcDbSymbolTableRecord
100
AcDbRegAppTableRecord
  2
GENIUS_GENFIL_13
 70
     0
  0
APPID
  5
BDD
330
9
100
AcDbSymbolTableRecord
100
AcDbRegAppTableRecord
  2
GENIUS_GENOBJ-N-FIL_13
 70
     0
  0
APPID
  5
12AD
330
9
100
AcDbSymbolTableRecord
100
AcDbRegAppTableRecord
  2
GENIUS_GENOREF_13
 70
     0
  0
APPID
  5
62E6
330
9
100
AcDbSymbolTableRecord
100
AcDbRegAppTableRecord
  2
GENIUS_GENOBJ-N-CHA_13
 70
     0
  0
ENDTAB
  0
TABLE
  2
DIMSTYLE
  5
A
330
0
100
AcDbSymbolTable
 70
     9
  0
DIMSTYLE
105
58
102
{ACAD_REACTORS
330
63C1
330
640B
330
6418
330
6663
102
}
330
A
100
AcDbSymbolTableRecord
100
AcDbDimStyleTableRecord
  2
AM_JIS
 70
     0
  3

  4
"
  5
OPEN30
  6

  7

 40
0.5
 41
2.5
 42
1.0
 43
12.0
 44
1.0
 45
0.0
 46
0.0
 47
0.1
 48
0.1
140
3.2
141
0.0
142
0.0
143
0.0393701
144
1.0
145
0.0
146
0.71
147
1.5
 71
     0
 72
     0
 73
     0
 74
     0
 75
     0
 76
     0
 77
     3
 78
     1
170
     0
171
     2
172
     1
173
     0
174
     0
175
     0
176
     3
177
     3
178
     2
270
     2
271
     1
272
     1
273
     2
274
     2
340
6B
275
     0
280
     0
281
     0
282
     0
283
     0
284
     0
285
     0
286
     0
287
     3
288
     0
  0
DIMSTYLE
105
5F
330
A
100
AcDbSymbolTableRecord
100
AcDbDimStyleTableRecord
  2
AM_JIS$3
 70
     0
  3

  4
"
  5
OPEN30
  6

  7

 40
0.5
 41
2.5
 42
1.0
 43
10.0
 44
1.0
 45
0.0
 46
0.0
 47
0.1
 48
0.1
140
3.2
141
0.0
142
0.0
143
0.0393701
144
1.0
145
0.0
146
0.71
147
1.5
 71
     0
 72
     0
 73
     0
 74
     1
 75
     0
 76
     0
 77
     3
 78
     1
170
     0
171
     2
172
     0
173
     0
174
     0
175
     0
176
     3
177
     3
178
     2
270
     2
271
     2
272
     1
273
     2
274
     2
340
6B
275
     0
280
     0
281
     0
282
     0
283
     0
284
     0
285
     0
286
     0
287
     0
288
     1
  0
DIMSTYLE
105
60
330
A
100
AcDbSymbolTableRecord
100
AcDbDimStyleTableRecord
  2
AM_JIS$4
 70
     0
  3

  4
"
  5
OPEN30
  6

  7

 40
0.5
 41
2.5
 42
1.0
 43
10.0
 44
1.0
 45
0.0
 46
0.0
 47
0.1
 48
0.1
140
3.2
141
0.0
142
0.0
143
0.0393701
144
1.0
145
0.0
146
0.71
147
1.5
 71
     0
 72
     0
 73
     0
 74
     1
 75
     0
 76
     0
 77
     3
 78
     1
170
     0
171
     2
172
     0
173
     0
174
     0
175
     0
176
     3
177
     3
178
     2
270
     2
271
     2
272
     1
273
     2
274
     2
340
6B
275
     0
280
     0
281
     0
282
     0
283
     0
284
     0
285
     0
286
     0
287
     0
288
     1
  0
DIMSTYLE
105
61
330
A
100
AcDbSymbolTableRecord
100
AcDbDimStyleTableRecord
  2
AM_JIS$6
 70
     0
  3

  4
"
  5
OPEN30
  6

  7

 40
0.5
 41
2.5
 42
1.0
 43
10.0
 44
1.0
 45
0.0
 46
0.0
 47
0.1
 48
0.1
140
3.2
141
0.0
142
0.0
143
0.0393701
144
1.0
145
0.0
146
0.71
147
1.5
 71
     0
 72
     0
 73
     0
 74
     0
 75
     0
 76
     0
 77
     0
 78
     1
170
     0
171
     2
172
     1
173
     0
174
     0
175
     0
176
     3
177
     3
178
     2
270
     2
271
     2
272
     2
273
     2
274
     2
340
6B
275
     0
280
     0
281
     0
282
     0
283
     0
284
     0
285
     0
286
     0
287
     3
288
     0
  0
DIMSTYLE
105
62
330
A
100
AcDbSymbolTableRecord
100
AcDbDimStyleTableRecord
  2
AM_JIS$7
 70
     0
  3

  4
"
  5
OPEN30
  6

  7

 40
0.5
 41
2.5
 42
1.0
 43
10.0
 44
1.0
 45
0.0
 46
0.0
 47
0.1
 48
0.1
140
3.2
141
0.0
142
0.0
143
0.0393701
144
1.0
145
0.0
146
0.71
147
1.5
 71
     0
 72
     0
 73
     0
 74
     0
 75
     0
 76
     0
 77
     3
 78
     1
170
     0
171
     2
172
     1
173
     0
174
     0
175
     0
176
     3
177
     3
178
     2
270
     2
271
     2
272
     1
273
     2
274
     2
340
6B
275
     0
280
     0
281
     0
282
     0
283
     0
284
     0
285
     0
286
     0
287
     3
288
     0
  0
DIMSTYLE
105
63
330
A
100
AcDbSymbolTableRecord
100
AcDbDimStyleTableRecord
  2
AM_JIS$SF
 70
     0
  3

  4
"
  5
OPEN30
  6

  7

 40
1.0
 41
2.5
 42
1.0
 43
10.0
 44
1.0
 45
0.0
 46
0.0
 47
0.1
 48
0.1
140
3.2
141
0.0
142
0.0
143
0.0393701
144
1.0
145
0.0
146
0.71
147
1.5
 71
     0
 72
     0
 73
     0
 74
     0
 75
     1
 76
     1
 77
     3
 78
     8
170
     0
171
     2
172
     1
173
     0
174
     0
175
     0
176
   256
177
   256
178
     2
270
     2
271
     2
272
     2
273
     2
274
     2
340
6B
275
     0
280
     0
281
     0
282
     0
283
     0
284
     0
285
     0
286
     0
287
     3
288
     0
  0
DIMSTYLE
105
68
330
A
100
AcDbSymbolTableRecord
100
AcDbDimStyleTableRecord
  2
AM_JIS$SH
 70
     0
  3

  4
"
  5

  6
GENAXEH
  7
OPEN30
 40
1.0
 41
2.5
 42
1.0
 43
10.0
 44
1.0
 45
0.0
 46
0.0
 47
0.1
 48
0.1
140
3.2
141
0.0
142
0.0
143
0.0393701
144
2.0
145
0.0
146
0.71
147
1.5
 71
     0
 72
     0
 73
     0
 74
     0
 75
     1
 76
     1
 77
     3
 78
     8
170
     0
171
     2
172
     1
173
     1
174
     0
175
     0
176
   256
177
   256
178
     2
270
     2
271
     2
272
     2
273
     2
274
     2
340
6B
275
     0
280
     0
281
     0
282
     0
283
     0
284
     0
285
     0
286
     0
287
     3
288
     0
  0
DIMSTYLE
105
B34
102
{ACAD_REACTORS
330
63DB
102
}
330
A
100
AcDbSymbolTableRecord
100
AcDbDimStyleTableRecord
  2
AM_JIS$2
 70
     0
  3

  4
"
  5
OPEN30
  6

  7

 40
0.5
 41
2.5
 42
1.0
 43
12.0
 44
1.0
 45
0.0
 46
0.0
 47
0.1
 48
0.1
140
3.2
141
0.0
142
0.0
143
0.0393701
144
1.0
145
0.0
146
0.71
147
1.5
 71
     0
 72
     0
 73
     0
 74
     0
 75
     0
 76
     0
 77
     3
 78
     1
170
     0
171
     2
172
     1
173
     0
174
     0
175
     0
176
     3
177
     3
178
     2
270
     2
271
     1
272
     1
273
     2
274
     2
340
6B
275
     0
280
     0
281
     0
282
     0
283
     0
284
     0
285
     0
286
     0
287
     3
288
     0
  0
DIMSTYLE
105
62E5
330
A
100
AcDbSymbolTableRecord
100
AcDbDimStyleTableRecord
  2
ISO-25
 70
     0
  3

  4

  5

  6

  7

 40
1.0
 41
2.5
 42
0.625
 43
3.75
 44
1.25
 45
0.0
 46
0.0
 47
0.0
 48
0.0
140
2.5
141
2.5
142
0.0
143
0.03937007874016
144
1.0
145
0.0
146
1.0
147
0.625
 71
     0
 72
     0
 73
     0
 74
     0
 75
     0
 76
     0
 77
     1
 78
     8
170
     0
171
     3
172
     1
173
     0
174
     0
175
     0
176
     0
177
     0
178
     0
270
     2
271
     2
272
     2
273
     2
274
     3
340
11
275
     0
280
     0
281
     0
282
     0
283
     0
284
     8
285
     0
286
     0
287
     3
288
     0
  0
ENDTAB
  0
TABLE
  2
BLOCK_RECORD
  5
1
330
0
100
AcDbSymbolTable
 70
    10
  0
BLOCK_RECORD
  5
1F
102
{ACAD_XDICTIONARY
360
74
102
}
330
1
100
AcDbSymbolTableRecord
100
AcDbBlockTableRecord
  2
*MODEL_SPACE
  0
BLOCK_RECORD
  5
1B
102
{ACAD_XDICTIONARY
360
68AD
102
}
330
1
100
AcDbSymbolTableRecord
100
AcDbBlockTableRecord
  2
*PAPER_SPACE
  0
BLOCK_RECORD
  5
59
330
1
100
AcDbSymbolTableRecord
100
AcDbBlockTableRecord
  2
_OPEN30
  0
BLOCK_RECORD
  5
64
330
1
100
AcDbSymbolTableRecord
100
AcDbBlockTableRecord
  2
GENAXEH
  0
BLOCK_RECORD
  5
63C2
330
1
100
AcDbSymbolTableRecord
100
AcDbBlockTableRecord
  2
*D5
  0
BLOCK_RECORD
  5
63DC
330
1
100
AcDbSymbolTableRecord
100
AcDbBlockTableRecord
  2
*D6
  0
BLOCK_RECORD
  5
640C
330
1
100
AcDbSymbolTableRecord
100
AcDbBlockTableRecord
  2
*D7
  0
BLOCK_RECORD
  5
6419
330
1
100
AcDbSymbolTableRecord
100
AcDbBlockTableRecord
  2
*D8
  0
BLOCK_RECORD
  5
6664
330
1
100
AcDbSymbolTableRecord
100
AcDbBlockTableRecord
  2
*D9
  0
ENDTAB
  0
ENDSEC
  0
SECTION
  2
BLOCKS
  0
BLOCK
  5
20
330
1F
100
AcDbEntity
  8
0
100
AcDbBlockBegin
  2
*MODEL_SPACE
 70
     0
 10
0.0
 20
0.0
 30
0.0
  3
*MODEL_SPACE
  1

  0
ENDBLK
  5
21
330
1F
100
AcDbEntity
  8
0
100
AcDbBlockEnd
  0
BLOCK
  5
1C
330
1B
100
AcDbEntity
 67
     1
  8
0
100
AcDbBlockBegin
  2
*PAPER_SPACE
 70
     0
 10
0.0
 20
0.0
 30
0.0
  3
*PAPER_SPACE
  1

  0
ENDBLK
  5
1D
330
1B
100
AcDbEntity
 67
     1
  8
0
100
AcDbBlockEnd
  0
BLOCK
  5
5D
330
59
100
AcDbEntity
  8
0
100
AcDbBlockBegin
  2
_OPEN30
 70
     0
 10
0.0
 20
0.0
 30
0.0
  3
_OPEN30
  1

  0
LINE
  5
5A
330
59
100
AcDbEntity
  8
0
 62
     0
100
AcDbLine
 10
-1.0
 20
0.26794919
 30
0.0
 11
0.0
 21
0.0
 31
0.0
  0
LINE
  5
5B
330
59
100
AcDbEntity
  8
0
 62
     0
100
AcDbLine
 10
0.0
 20
0.0
 30
0.0
 11
-1.0
 21
-0.26794919
 31
0.0
  0
LINE
  5
5C
330
59
100
AcDbEntity
  8
0
 62
     0
100
AcDbLine
 10
0.0
 20
0.0
 30
0.0
 11
-1.0
 21
0.0
 31
0.0
  0
ENDBLK
  5
5E
330
59
100
AcDbEntity
  8
0
100
AcDbBlockEnd
  0
BLOCK
  5
66
330
64
100
AcDbEntity
  8
0
100
AcDbBlockBegin
  2
GENAXEH
 70
     0
 10
0.0
 20
0.0
 30
0.0
  3
GENAXEH
  1

  0
LINE
  5
65
330
64
100
AcDbEntity
  8
0
100
AcDbLine
 10
-1.0
 20
0.0
 30
0.0
 11
1.0
 21
0.0
 31
0.0
  0
ENDBLK
  5
67
330
64
100
AcDbEntity
  8
0
100
AcDbBlockEnd
  0
BLOCK
  5
63CE
330
63C2
100
AcDbEntity
  8
0
100
AcDbBlockBegin
  2
*D5
 70
     1
 10
0.0
 20
0.0
 30
0.0
  3
*D5
  1

  0
LINE
  5
68B6
330
63C2
100
AcDbEntity
  8
AM_5
 62
     3
100
AcDbLine
 10
-0.4623868396451806
 20
-1.750000000000299
 30
0.0
 11
8.284194765245372
 21
-1.750000000000301
 31
0.0
  0
LINE
  5
68B7
330
63C2
100
AcDbEntity
  8
AM_5
 62
     3
100
AcDbLine
 10
-0.4623868396451806
 20
1.749999999999701
 30
0.0
 11
8.284194765245374
 21
1.749999999999698
 31
0.0
  0
LINE
  5
68B8
330
63C2
100
AcDbEntity
  8
AM_5
 62
     3
100
AcDbLine
 10
7.784194765245372
 20
-3.000000000000301
 30
0.0
 11
7.784194765245372
 21
-4.250000000000301
 31
0.0
  0
LINE
  5
68B9
330
63C2
100
AcDbEntity
  8
AM_5
 62
     3
100
AcDbLine
 10
7.784194765245374
 20
2.999999999999698
 30
0.0
 11
7.784194765245374
 21
4.249999999999698
 31
0.0
  0
MTEXT
  5
68BA
330
63C2
100
AcDbEntity
  8
AM_5
 62
     2
100
AcDbMText
 10
6.234194765245373
 20
4.249999999999699
 30
0.0
 40
1.6
 41
0.0
 71
     5
 72
     1
  1
%%C3.5
  7
ASAMI
 11
0.0000000000000001
 21
1.0
 31
0.0
  0
LINE
  5
68BB
330
63C2
100
AcDbEntity
  8
AM_5
 62
     3
100
AcDbLine
 10
7.784194765245373
 20
-1.750000000000301
 30
0.0
 11
7.784194765245373
 21
1.749999999999699
 31
0.0
  0
INSERT
  5
68BC
330
63C2
100
AcDbEntity
  8
AM_5
 62
     3
100
AcDbBlockReference
  2
_OPEN30
 10
7.784194765245373
 20
-1.750000000000301
 30
0.0
 41
1.25
 42
1.25
 43
1.25
 50
90.0
  0
INSERT
  5
68BD
330
63C2
100
AcDbEntity
  8
AM_5
 62
     3
100
AcDbBlockReference
  2
_OPEN30
 10
7.784194765245373
 20
1.749999999999699
 30
0.0
 41
1.25
 42
1.25
 43
1.25
 50
270.0
  0
POINT
  5
68BE
330
63C2
100
AcDbEntity
  8
DEFPOINTS
 62
     0
100
AcDbPoint
 10
-0.9623868396451806
 20
-1.750000000000298
 30
0.0
  0
POINT
  5
68BF
330
63C2
100
AcDbEntity
  8
DEFPOINTS
 62
     0
100
AcDbPoint
 10
-0.9623868396451806
 20
1.749999999999701
 30
0.0
  0
POINT
  5
68C0
330
63C2
100
AcDbEntity
  8
DEFPOINTS
 62
     0
100
AcDbPoint
 10
7.784194765245373
 20
1.749999999999699
 30
0.0
  0
ENDBLK
  5
63CF
330
63C2
100
AcDbEntity
  8
0
100
AcDbBlockEnd
  0
BLOCK
  5
63E8
330
63DC
100
AcDbEntity
  8
0
100
AcDbBlockBegin
  2
*D6
 70
     1
 10
0.0
 20
0.0
 30
0.0
  3
*D6
  1

  0
LINE
  5
68C1
330
63DC
100
AcDbEntity
  8
AM_0
 62
     3
100
AcDbLine
 10
0.1710100716578273
 20
-0.4698463103929243
 30
0.0
 11
4.743071209566642
 21
-13.03148104715851
 31
0.0
  0
LINE
  5
68C2
330
63DC
100
AcDbEntity
  8
AM_0
 62
     3
100
AcDbLine
 10
0.1710100716578275
 20
0.4698463103929413
 30
0.0
 11
4.743071209566647
 21
13.03148104715853
 31
0.0
  0
ARC
  5
68C3
330
63DC
100
AcDbEntity
  8
AM_0
 62
     3
100
AcDbCircle
 10
-0.0000000000050657
 20
0.0000000000000086
 30
0.0
 40
13.36781247282785
100
AcDbArc
 50
295.359578692527
 51
64.64042130747303
  0
INSERT
  5
68C4
330
63DC
100
AcDbEntity
  8
AM_0
 62
     3
100
AcDbBlockReference
  2
_OPEN30
 10
4.572061137903749
 20
-12.56163473676558
 30
0.0
 41
1.25
 42
1.25
 43
1.25
 50
202.6797893462671
  0
INSERT
  5
68C5
330
63DC
100
AcDbEntity
  8
AM_0
 62
     3
100
AcDbBlockReference
  2
_OPEN30
 10
4.572061137903753
 20
12.56163473676559
 30
0.0
 41
1.25
 42
1.25
 43
1.25
 50
157.3202106537328
  0
MTEXT
  5
68C6
330
63DC
100
AcDbEntity
  8
AM_0
 62
     2
100
AcDbMText
 10
11.81781247282278
 20
0.0000000000000055
 30
0.0
 40
1.6
 41
0.0
 71
     5
 72
     1
  1
140°
  7
ASAMI
 11
0.0000000000000001
 21
1.0
 31
0.0
  0
POINT
  5
68C7
330
63DC
100
AcDbEntity
  8
DEFPOINTS
 62
     0
100
AcDbPoint
 10
12.27454072630071
 20
-5.294720036692461
 30
0.0
  0
POINT
  5
68C8
330
63DC
100
AcDbEntity
  8
DEFPOINTS
 62
     0
100
AcDbPoint
 10
-0.0000000000050657
 20
0.0000000000000086
 30
0.0
  0
POINT
  5
68C9
330
63DC
100
AcDbEntity
  8
DEFPOINTS
 62
     0
100
AcDbPoint
 10
-0.6170432877847273
 20
-1.695312499999991
 30
0.0
  0
POINT
  5
68CA
330
63DC
100
AcDbEntity
  8
DEFPOINTS
 62
     0
100
AcDbPoint
 10
-0.0000000000050657
 20
0.0000000000000086
 30
0.0
  0
POINT
  5
68CB
330
63DC
100
AcDbEntity
  8
DEFPOINTS
 62
     0
100
AcDbPoint
 10
-0.6170432877847273
 20
1.695312500000008
 30
0.0
  0
ENDBLK
  5
63E9
330
63DC
100
AcDbEntity
  8
0
100
AcDbBlockEnd
  0
BLOCK
  5
6416
330
640C
100
AcDbEntity
  8
0
100
AcDbBlockBegin
  2
*D7
 70
     1
 10
0.0
 20
0.0
 30
0.0
  3
*D7
  1

  0
LINE
  5
680D
330
640C
100
AcDbEntity
  8
AM_5
 62
     3
100
AcDbLine
 10
-0.0000000000051167
 20
-0.4999999999999914
 30
0.0
 11
-0.0000000000051173
 21
-9.651350331717285
 31
0.0
  0
LINE
  5
680E
330
640C
100
AcDbEntity
  8
AM_5
 62
     3
100
AcDbLine
 10
-20.000000000005
 20
-2.249999999999987
 30
0.0
 11
-20.000000000005
 21
-9.651350331717285
 31
0.0
  0
LINE
  5
680F
330
640C
100
AcDbEntity
  8
AM_5
 62
     3
100
AcDbLine
 10
-1.250000000005117
 20
-9.151350331717285
 30
0.0
 11
-18.750000000005
 21
-9.151350331717285
 31
0.0
  0
INSERT
  5
6810
330
640C
100
AcDbEntity
  8
AM_5
 62
     3
100
AcDbBlockReference
  2
_OPEN30
 10
-0.0000000000051173
 20
-9.151350331717285
 30
0.0
 41
1.25
 42
1.25
 43
1.25
  0
INSERT
  5
6811
330
640C
100
AcDbEntity
  8
AM_5
 62
     3
100
AcDbBlockReference
  2
_OPEN30
 10
-20.000000000005
 20
-9.151350331717285
 30
0.0
 41
1.25
 42
1.25
 43
1.25
 50
180.0
  0
MTEXT
  5
6812
330
640C
100
AcDbEntity
  8
AM_5
 62
     2
100
AcDbMText
 10
-10.00000000000506
 20
-7.601350331717285
 30
0.0
 40
1.6
 41
0.0
 71
     5
 72
     1
  1
20
  7
ASAMI
1001
ACAD
1000
MTEXTBEGIN
1070
    73
1070
     1
1070
    44
1040
1.0
1070
    74
1070
     0
1000
MTEXTEND
  0
POINT
  5
6813
330
640C
100
AcDbEntity
  8
DEFPOINTS
 62
     0
100
AcDbPoint
 10
-0.0000000000051167
 20
0.0000000000000086
 30
0.0
  0
POINT
  5
6814
330
640C
100
AcDbEntity
  8
DEFPOINTS
 62
     0
100
AcDbPoint
 10
-20.000000000005
 20
-1.749999999999987
 30
0.0
  0
POINT
  5
6815
330
640C
100
AcDbEntity
  8
DEFPOINTS
 62
     0
100
AcDbPoint
 10
-20.000000000005
 20
-9.151350331717285
 30
0.0
  0
ENDBLK
  5
6417
330
640C
100
AcDbEntity
  8
0
100
AcDbBlockEnd
  0
BLOCK
  5
6423
330
6419
100
AcDbEntity
  8
0
100
AcDbBlockBegin
  2
*D8
 70
     1
 10
0.0
 20
0.0
 30
0.0
  3
*D8
  1

  0
LINE
  5
6822
330
6419
100
AcDbEntity
  8
AM_5
 62
     3
100
AcDbLine
 10
-0.0000000000050659
 20
-2.195312500000289
 30
0.0
 11
-0.0000000000050667
 21
-15.35654655607352
 31
0.0
  0
LINE
  5
6823
330
6419
100
AcDbEntity
  8
AM_5
 62
     3
100
AcDbLine
 10
-52.00000000000506
 20
-1.372563781416127
 30
0.0
 11
-52.00000000000506
 21
-15.35654655607352
 31
0.0
  0
LINE
  5
6824
330
6419
100
AcDbEntity
  8
AM_5
 62
     3
100
AcDbLine
 10
-1.250000000005066
 20
-14.85654655607352
 30
0.0
 11
-50.75000000000506
 21
-14.85654655607352
 31
0.0
  0
INSERT
  5
6825
330
6419
100
AcDbEntity
  8
AM_5
 62
     3
100
AcDbBlockReference
  2
_OPEN30
 10
-0.0000000000050666
 20
-14.85654655607352
 30
0.0
 41
1.25
 42
1.25
 43
1.25
  0
INSERT
  5
6826
330
6419
100
AcDbEntity
  8
AM_5
 62
     3
100
AcDbBlockReference
  2
_OPEN30
 10
-52.00000000000506
 20
-14.85654655607352
 30
0.0
 41
1.25
 42
1.25
 43
1.25
 50
180.0
  0
MTEXT
  5
6827
330
6419
100
AcDbEntity
  8
AM_5
 62
     2
100
AcDbMText
 10
-26.00000000000506
 20
-13.30654655607352
 30
0.0
 40
1.6
 41
0.0
 71
     5
 72
     1
  1
52
  7
ASAMI
1001
ACAD
1000
MTEXTBEGIN
1070
    73
1070
     1
1070
    44
1040
1.0
1070
    74
1070
     0
1000
MTEXTEND
  0
POINT
  5
6828
330
6419
100
AcDbEntity
  8
DEFPOINTS
 62
     0
100
AcDbPoint
 10
-0.0000000000050658
 20
-1.695312500000289
 30
0.0
  0
POINT
  5
6829
330
6419
100
AcDbEntity
  8
DEFPOINTS
 62
     0
100
AcDbPoint
 10
-52.00000000000506
 20
-0.8725637814161277
 30
0.0
  0
POINT
  5
682A
330
6419
100
AcDbEntity
  8
DEFPOINTS
 62
     0
100
AcDbPoint
 10
-52.00000000000506
 20
-14.85654655607352
 30
0.0
  0
ENDBLK
  5
6424
330
6419
100
AcDbEntity
  8
0
100
AcDbBlockEnd
  0
BLOCK
  5
6670
330
6664
100
AcDbEntity
  8
0
100
AcDbBlockBegin
  2
*D9
 70
     1
 10
0.0
 20
0.0
 30
0.0
  3
*D9
  1

  0
LINE
  5
6852
330
6664
100
AcDbEntity
  8
AM_5
 62
     3
100
AcDbLine
 10
-52.15000000000507
 20
-1.749999999958699
 30
0.0
 11
-57.40524077522134
 21
-1.749999999958698
 31
0.0
  0
LINE
  5
6853
330
6664
100
AcDbEntity
  8
AM_5
 62
     3
100
AcDbLine
 10
-52.15000000000507
 20
1.7500000000413
 30
0.0
 11
-57.40524077522134
 21
1.750000000041302
 31
0.0
  0
LINE
  5
6854
330
6664
100
AcDbEntity
  8
AM_5
 62
     3
100
AcDbLine
 10
-56.90524077522134
 20
-2.999999999958698
 30
0.0
 11
-56.90524077522134
 21
-4.249999999958698
 31
0.0
  0
LINE
  5
6855
330
6664
100
AcDbEntity
  8
AM_5
 62
     3
100
AcDbLine
 10
-56.90524077522134
 20
3.000000000041302
 30
0.0
 11
-56.90524077522134
 21
4.250000000041302
 31
0.0
  0
LINE
  5
6856
330
6664
100
AcDbEntity
  8
AM_5
 62
     3
100
AcDbLine
 10
-56.90524077522134
 20
-1.749999999958698
 30
0.0
 11
-56.90524077522134
 21
1.750000000041302
 31
0.0
  0
INSERT
  5
6857
330
6664
100
AcDbEntity
  8
AM_5
 62
     3
100
AcDbBlockReference
  2
_OPEN30
 10
-56.90524077522134
 20
-1.749999999958698
 30
0.0
 41
1.25
 42
1.25
 43
1.25
 50
90.0
  0
INSERT
  5
6858
330
6664
100
AcDbEntity
  8
AM_5
 62
     3
100
AcDbBlockReference
  2
_OPEN30
 10
-56.90524077522134
 20
1.750000000041302
 30
0.0
 41
1.25
 42
1.25
 43
1.25
 50
270.0
  0
MTEXT
  5
6859
330
6664
100
AcDbEntity
  8
AM_5
 62
     2
100
AcDbMText
 10
-58.45524077522133
 20
0.0000000000412929
 30
0.0
 40
1.6
 41
0.0
 71
     5
 72
     1
  1
%%C3.5
  7
ASAMI
 11
0.0000000000000001
 21
1.0
 31
0.0
1001
ACAD
1000
MTEXTBEGIN
1070
    73
1070
     1
1070
    44
1040
1.0
1070
    74
1070
     0
1000
MTEXTEND
  0
POINT
  5
685A
330
6664
100
AcDbEntity
  8
DEFPOINTS
 62
     0
100
AcDbPoint
 10
-51.65000000000507
 20
-1.749999999958699
 30
0.0
  0
POINT
  5
685B
330
6664
100
AcDbEntity
  8
DEFPOINTS
 62
     0
100
AcDbPoint
 10
-51.65000000000507
 20
1.7500000000413
 30
0.0
  0
POINT
  5
685C
330
6664
100
AcDbEntity
  8
DEFPOINTS
 62
     0
100
AcDbPoint
 10
-56.90524077522134
 20
1.750000000041302
 30
0.0
  0
ENDBLK
  5
6671
330
6664
100
AcDbEntity
  8
0
100
AcDbBlockEnd
  0
ENDSEC
  0
SECTION
  2
ENTITIES
  0
TEXT
  5
C58
330
1F
100
AcDbEntity
  8
AM_6
100
AcDbText
 10
-32.52380952381459
 20
-23.51863199469301
 30
0.0
 40
2.5
  1
MDS035SG
 50
0.0000000000002036
 72
     4
 11
-23.00000000000508
 21
-22.26863199469298
 31
0.0
100
AcDbText
  0
LINE
  5
631C
330
1F
100
AcDbEntity
  8
AM_0
100
AcDbLine
 10
-14.25419225245266
 20
-1.750000000000286
 30
0.0
 11
-51.39655172414299
 21
-1.750000000000001
 31
0.0
  0
LINE
  5
631D
330
1F
100
AcDbEntity
  8
AM_0
100
AcDbLine
 10
-13.92769455324928
 20
1.749999999999718
 30
0.0
 11
-51.396551724143
 21
1.75
 31
0.0
  0
LINE
  5
6320
330
1F
100
AcDbEntity
  8
AM_7
100
AcDbLine
 10
-54.42983824054706
 20
0.0000000000000184
 30
0.0
 11
1.017187499994683
 21
0.0000000000000086
 31
0.0
1001
GENIUS_GENODEF_13
1002
{
1000
HIER
1070
     0
1002
}
1002
{
1000
MANEDIT
1070
     0
1002
}
1002
{
1000
NOSEL
1070
     0
1002
}
1002
{
1000
BEHIND
1070
     0
1002
}
1002
{
1000
REACTOR
1002
}
1001
GENIUS_GENOBJ-N-CEN_13
1002
{
1000
OWNER
1000
GEN
1002
}
  0
DIMENSION
  5
63C1
330
1F
100
AcDbEntity
  8
AM_5
100
AcDbDimension
  2
*D5
 10
7.784194765245373
 20
1.749999999999699
 30
0.0
 11
7.784194765245374
 21
4.249999999999698
 31
0.0
 70
   160
  1
%%C<>
  3
AM_JIS
100
AcDbAlignedDimension
 13
-0.9623868396451806
 23
-1.750000000000298
 33
0.0
 14
-0.9623868396451806
 24
1.749999999999701
 34
0.0
 50
90.0
100
AcDbRotatedDimension
1001
ACAD
1000
DSTYLE
1002
{
1070
   287
1070
     4
1070
   271
1070
     1
1070
   279
1070
     1
1002
}
  0
DIMENSION
  5
63DB
330
1F
100
AcDbEntity
  8
AM_0
100
AcDbDimension
  2
*D6
 10
-0.6170432877847273
 20
1.695312500000008
 30
0.0
 11
11.81781247282278
 21
0.0000000000000036
 31
0.0
 70
    34
  3
AM_JIS$2
100
AcDb2LineAngularDimension
 13
-0.6170432877847273
 23
-1.695312499999991
 33
0.0
 14
-0.0000000000050657
 24
0.0000000000000086
 34
0.0
 15
-0.0000000000050657
 25
0.0000000000000086
 35
0.0
 16
12.27454072630071
 26
-5.294720036692461
 36
0.0
1001
ACAD
1000
DSTYLE
1002
{
1070
   271
1070
     0
1002
}
  0
DIMENSION
  5
640B
330
1F
100
AcDbEntity
  8
AM_5
100
AcDbDimension
  2
*D7
 10
-20.000000000005
 20
-9.151350331717285
 30
0.0
 11
-10.00000000000506
 21
-7.601350331717285
 31
0.0
 70
    32
  3
AM_JIS
100
AcDbAlignedDimension
 13
-0.0000000000051167
 23
0.0000000000000086
 33
0.0
 14
-20.000000000005
 24
-1.749999999999987
 34
0.0
100
AcDbRotatedDimension
1001
ACAD
1000
DSTYLE
1002
{
1070
    78
1070
     9
1002
}
  0
DIMENSION
  5
6418
330
1F
100
AcDbEntity
  8
AM_5
100
AcDbDimension
  2
*D8
 10
-52.00000000000506
 20
-14.85654655607352
 30
0.0
 11
-26.00000000000506
 21
-13.30654655607352
 31
0.0
 70
    32
  3
AM_JIS
100
AcDbAlignedDimension
 13
-0.0000000000050658
 23
-1.695312500000289
 33
0.0
 14
-52.00000000000506
 24
-0.8725637814161277
 34
0.0
100
AcDbRotatedDimension
1001
ACAD
1000
DSTYLE
1002
{
1070
    78
1070
     9
1002
}
  0
LINE
  5
665B
330
1F
100
AcDbEntity
  8
AM_0
100
AcDbLine
 10
-51.396551724143
 20
1.750000000041612
 30
0.0
 11
-51.39655172414299
 21
-1.749999999958388
 31
0.0
  0
LINE
  5
665C
330
1F
100
AcDbEntity
  8
AM_0
100
AcDbLine
 10
-52.00000000000507
 20
0.5985758388499712
 30
0.0
 11
-52.00000000000507
 21
1.146551724179543
 31
0.0
  0
LINE
  5
665D
330
1F
100
AcDbEntity
  8
AM_0
100
AcDbLine
 10
-52.00000000000505
 20
-1.146551724096319
 30
0.0
 11
-51.39655172414299
 21
-1.749999999958388
 31
0.0
  0
LINE
  5
665E
330
1F
100
AcDbEntity
  8
AM_0
100
AcDbLine
 10
-52.00000000000507
 20
-0.5985758387359362
 30
0.0
 11
-52.00000000000507
 21
-0.4259433450509642
 31
0.0
  0
LINE
  5
665F
330
1F
100
AcDbEntity
  8
AM_0
100
AcDbLine
 10
-52.00000000000505
 20
-1.146551724096319
 30
0.0
 11
-52.00000000000507
 21
-0.5985758387359362
 31
0.0
  0
LINE
  5
6660
330
1F
100
AcDbEntity
  8
AM_0
100
AcDbLine
 10
-52.00000000000507
 20
0.4259433450509997
 30
0.0
 11
-52.00000000000507
 21
0.5985758388499712
 31
0.0
  0
LINE
  5
6661
330
1F
100
AcDbEntity
  8
AM_0
100
AcDbLine
 10
-52.00000000000507
 20
-0.4259433450509642
 30
0.0
 11
-52.00000000000507
 21
0.4259433450509997
 31
0.0
  0
LINE
  5
6662
330
1F
100
AcDbEntity
  8
AM_0
100
AcDbLine
 10
-51.396551724143
 20
1.750000000041612
 30
0.0
 11
-52.00000000000507
 21
1.146551724179543
 31
0.0
  0
DIMENSION
  5
6663
330
1F
100
AcDbEntity
  8
AM_5
100
AcDbDimension
  2
*D9
 10
-56.90524077522134
 20
1.750000000041302
 30
0.0
 11
-56.90524077522134
 21
0.0000000000412927
 31
0.0
 70
   160
  1
%%C<>
  3
AM_JIS
100
AcDbAlignedDimension
 13
-51.65000000000507
 23
-1.749999999958699
 33
0.0
 14
-51.65000000000507
 24
1.7500000000413
 34
0.0
 50
90.0
100
AcDbRotatedDimension
  0
LINE
  5
67B1
330
1F
100
AcDbEntity
  8
AM_0
100
AcDbLine
 10
-0.0000000000080257
 20
0.0000000000000108
 30
0.0
 11
-0.6369479099741292
 21
1.750000000000009
 31
0.0
  0
SPLINE
  5
67B4
330
1F
100
AcDbEntity
  8
AM_0
100
AcDbSpline
210
0.0
220
0.0
230
1.0
 70
     8
 71
     3
 72
     9
 73
     5
 74
     0
 42
0.0000000001
 43
0.0000000001
 40
0.0
 40
0.0
 40
0.0
 40
0.0
 40
0.0988701324080829
 40
1.147440854899445
 40
1.147440854899445
 40
1.147440854899445
 40
1.147440854899445
 10
-0.4330776746495345
 20
0.3038843109171304
 30
0.0
 10
-0.4306335384331793
 20
0.2596213874211291
 30
0.0
 10
-0.4022680282302559
 20
-0.2540735529980668
 30
0.0
 10
-1.334488647556347
 20
0.4715345955903613
 30
0.0
 10
-1.62527400967528
 20
0.8062228352494235
 30
0.0
  0
LINE
  5
67B7
330
1F
100
AcDbEntity
  8
AM_0
100
AcDbLine
 10
-0.6369479099741292
 20
-1.749999999999987
 30
0.0
 11
-0.0000000000080257
 21
0.0000000000000108
 31
0.0
  0
LINE
  5
67B9
330
1F
100
AcDbEntity
  8
AM_0
100
AcDbLine
 10
-0.7959883875584215
 20
-0.1390452362918973
 30
0.0
 11
-0.0000000000051167
 21
0.0000000000000086
 31
0.0
  0
LINE
  5
67BA
330
1F
100
AcDbEntity
  8
AM_0
100
AcDbLine
 10
-0.0000000000051167
 20
0.0000000000000086
 30
0.0
 11
-0.433032640297269
 21
0.3030687180668001
 31
0.0
  0
LINE
  5
67BB
330
1F
100
AcDbEntity
  8
AM_0
100
AcDbLine
 10
-0.433032640297269
 20
0.3030687180668001
 30
0.0
 11
-0.1106048438423955
 21
0.3038843109171304
 31
0.0
  0
SPLINE
  5
67F3
330
1F
100
AcDbEntity
  8
AM_0
100
AcDbSpline
210
0.0
220
0.0
230
1.0
 70
     8
 71
     3
 72
     9
 73
     5
 74
     0
 42
0.0000000001
 43
0.0000000001
 40
0.0
 40
0.0
 40
0.0
 40
0.0
 40
0.1987770877846628
 40
5.759128114460802
 40
5.759128114460802
 40
5.759128114460802
 40
5.759128114460802
 10
-0.5665256096323602
 20
1.556516319985023
 30
0.0
 10
-0.6043275785667028
 20
1.558852553931615
 30
0.0
 10
-1.292234041699391
 20
1.561008529477662
 30
0.0
 10
-1.959740342301133
 20
1.438235223486518
 30
0.0
 10
-2.592579985774736
 20
1.248492862978729
 30
0.0
  0
SPLINE
  5
67F4
330
1F
100
AcDbEntity
  8
AM_0
100
AcDbSpline
210
0.0
220
0.0
230
1.0
 70
     8
 71
     3
 72
     8
 73
     4
 74
     0
 42
0.0000000001
 43
0.0000000001
 40
0.0
 40
0.0
 40
0.0
 40
0.0
 40
6.247244990626095
 40
6.247244990626095
 40
6.247244990626095
 40
6.247244990626095
 10
-0.6369479099741292
 20
1.750000000000009
 30
0.0
 10
-1.397617960814497
 20
1.750000000000009
 30
0.0
 10
-2.113820453053048
 20
1.587352061219801
 30
0.0
 10
-2.813170056671498
 20
1.332180528915103
 30
0.0
  0
LINE
  5
67F5
330
1F
100
AcDbEntity
  8
AM_0
100
AcDbLine
 10
-0.6369459881561168
 20
-1.749994719848394
 30
0.0
 11
-0.796180001392191
 21
-0.1371912760632358
 31
0.0
  0
LINE
  5
67F6
330
1F
100
AcDbEntity
  8
AM_0
100
AcDbLine
 10
-0.796180001392191
 20
-0.1371912760632358
 30
0.0
 11
-1.606244199378172
 21
0.8062228352494235
 31
0.0
  0
SPLINE
  5
67F7
330
1F
100
AcDbEntity
  8
AM_0
100
AcDbSpline
210
0.0
220
0.0
230
1.0
 70
     8
 71
     3
 72
     8
 73
     4
 74
     0
 42
0.0000000001
 43
0.0000000001
 40
0.0
 40
0.0
 40
0.0
 40
0.0
 40
6.870645942600294
 40
6.870645942600294
 40
6.870645942600294
 40
6.870645942600294
 10
-10.39361834091895
 20
1.558852553929385
 30
0.0
 10
-9.573369433208636
 20
1.561425939468856
 30
0.0
 10
-8.749998606345165
 20
1.438111630477118
 30
0.0
 10
-7.946738014099607
 20
1.222684007951608
 30
0.0
  0
LINE
  5
67F8
330
1F
100
AcDbEntity
  8
AM_0
100
AcDbLine
 10
-4.97455046767426
 20
1.750000000000009
 30
0.0
 11
-10.39361834091842
 21
1.750000000000009
 31
0.0
  0
LINE
  5
67F9
330
1F
100
AcDbEntity
  8
AM_0
100
AcDbLine
 10
-4.97455046767426
 20
-1.749999999999987
 30
0.0
 11
-10.39361834091842
 21
-1.749999999999987
 31
0.0
  0
LINE
  5
67FA
330
1F
100
AcDbEntity
  8
AM_0
100
AcDbLine
 10
-15.52081002431088
 20
0.4375079614884322
 30
0.0
 11
-18.02987437223875
 21
1.750000000000017
 31
0.0
  0
SPLINE
  5
67FB
330
1F
100
AcDbEntity
  8
AM_0
100
AcDbSpline
210
0.0
220
0.0
230
1.0
 70
     8
 71
     3
 72
     8
 73
     4
 74
     0
 42
0.0000000001
 43
0.0000000001
 40
22.73274810806259
 40
22.73274810806259
 40
22.73274810806259
 40
22.73274810806259
 40
28.97999309868794
 40
28.97999309868794
 40
28.97999309868794
 40
28.97999309868794
 10
-12.55499875192199
 20
-1.332180528915205
 30
0.0
 10
-13.25434835554034
 20
-1.587352061219842
 30
0.0
 10
-13.9705508477788
 20
-1.749999999999987
 30
0.0
 10
-14.71637916292508
 20
-1.749999999999987
 30
0.0
  0
SPLINE
  5
67FC
330
1F
100
AcDbEntity
  8
AM_0
100
AcDbSpline
210
0.0
220
0.0
230
1.0
 70
     8
 71
     3
 72
     8
 73
     4
 74
     0
 42
0.0000000001
 43
0.0000000001
 40
0.0
 40
0.0
 40
0.0
 40
0.0
 40
10.77533687840354
 40
10.77533687840354
 40
10.77533687840354
 40
10.77533687840354
 10
-14.71637916292508
 20
-1.749999999999987
 30
0.0
 10
-16.00279443257002
 20
-1.749999999999987
 30
0.0
 10
-17.20107335222502
 20
-1.266124979816634
 30
0.0
 10
-18.37675761192019
 20
-0.6582036206897327
 30
0.0
  0
SPLINE
  5
67FD
330
1F
100
AcDbEntity
  8
AM_0
100
AcDbSpline
210
0.0
220
0.0
230
1.0
 70
     8
 71
     3
 72
     9
 73
     5
 74
     0
 42
0.0000000001
 43
0.0000000001
 40
0.0
 40
0.0
 40
0.0
 40
0.0
 40
4.057199033816316
 40
8.114398067632626
 40
8.114398067632626
 40
8.114398067632626
 40
8.114398067632626
 10
-4.97455046767426
 20
-1.749999999999987
 30
0.0
 10
-6.70444096005765
 20
-1.749999999999987
 30
0.0
 10
-9.845464815299669
 20
0.0000000000000108
 30
0.0
 10
-12.98648867054169
 20
1.750000000000009
 30
0.0
 10
-14.71637916292508
 20
1.750000000000009
 30
0.0
  0
LINE
  5
67FE
330
1F
100
AcDbEntity
  8
AM_5
  6
AM_ISO09W050
 62
     3
100
AcDbLine
 10
-9.85638514081299
 20
-1.749999999999987
 30
0.0
 11
-14.71637916292463
 21
-1.749999999999987
 31
0.0
  0
SPLINE
  5
67FF
330
1F
100
AcDbEntity
  8
AM_0
100
AcDbSpline
210
0.0
220
0.0
230
1.0
 70
     8
 71
     3
 72
     9
 73
     5
 74
     0
 42
0.0000000001
 43
0.0000000001
 40
0.0
 40
0.0
 40
0.0
 40
0.0
 40
14.48999654934396
 40
16.9280474783711
 40
16.9280474783711
 40
16.9280474783711
 40
16.9280474783711
 10
-9.856385140812678
 20
-1.749999999999987
 30
0.0
 10
-11.58627563319605
 20
-1.749999999999987
 30
0.0
 10
-13.42103800774749
 20
-0.727774667293131
 30
0.0
 10
-15.25580038229895
 20
0.2944506654137698
 30
0.0
 10
-15.52081002431088
 20
0.43750796148845
 30
0.0
  0
LINE
  5
6800
330
1F
100
AcDbEntity
  8
AM_5
  6
AM_ISO09W050
 62
     3
100
AcDbLine
 10
-10.39361834091895
 20
1.750000000000009
 30
0.0
 11
-14.71637916292482
 21
1.750000000000009
 31
0.0
  0
SPLINE
  5
6801
330
1F
100
AcDbEntity
  8
AM_0
100
AcDbSpline
210
0.0
220
0.0
230
1.0
 70
     8
 71
     3
 72
     9
 73
     5
 74
     0
 42
0.0000000001
 43
0.0000000001
 40
0.0
 40
0.0
 40
0.0
 40
0.0
 40
14.48999654934396
 40
16.9280474783711
 40
16.9280474783711
 40
16.9280474783711
 40
16.9280474783711
 10
-10.39361834091842
 20
-1.749999999999987
 30
0.0
 10
-12.1235088333018
 20
-1.749999999999987
 30
0.0
 10
-13.95827120785323
 20
-0.727774667293131
 30
0.0
 10
-15.79303358240469
 20
0.2944506654137698
 30
0.0
 10
-16.05804322441662
 20
0.43750796148845
 30
0.0
  0
SPLINE
  5
6802
330
1F
100
AcDbEntity
  8
AM_0
100
AcDbSpline
210
0.0
220
0.0
230
1.0
 70
     8
 71
     3
 72
     9
 73
     5
 74
     0
 42
0.0000000001
 43
0.0000000001
 40
0.0
 40
0.0
 40
0.0
 40
0.0
 40
14.48999654934396
 40
16.92804852839734
 40
16.92804852839734
 40
16.92804852839734
 40
16.92804852839734
 10
-10.39361834091895
 20
-1.749999999999987
 30
0.0
 10
-12.12350883330232
 20
-1.749999999999987
 30
0.0
 10
-13.95827132166185
 20
-0.7277746038857094
 30
0.0
 10
-15.79303381002137
 20
0.2944507922285774
 30
0.0
 10
-16.05804356682234
 20
0.4375081463253335
 30
0.0
  0
SPLINE
  5
6803
330
1F
100
AcDbEntity
  8
AM_0
100
AcDbSpline
210
0.0
220
0.0
230
1.0
 70
     8
 71
     3
 72
     8
 73
     4
 74
     0
 42
0.0000000001
 43
0.0000000001
 40
0.0
 40
0.0
 40
0.0
 40
0.0
 40
6.247244990625308
 40
6.247244990625308
 40
6.247244990625308
 40
6.247244990625308
 10
-10.39361834091895
 20
1.750000000000009
 30
0.0
 10
-11.1394466560652
 20
1.750000000000009
 30
0.0
 10
-11.85564914830366
 20
1.587352061219846
 30
0.0
 10
-12.55499875192201
 20
1.332180528915218
 30
0.0
  0
SPLINE
  5
6804
330
1F
100
AcDbEntity
  8
AM_0
100
AcDbSpline
210
0.0
220
0.0
230
1.0
 70
     8
 71
     3
 72
     9
 73
     5
 74
     0
 42
0.0000000001
 43
0.0000000001
 40
0.0
 40
0.0
 40
0.0
 40
0.0
 40
0.1987770877846628
 40
5.759128114445015
 40
5.759128114445015
 40
5.759128114445015
 40
5.759128114445015
 10
-10.32242524026427
 20
1.558852553927121
 30
0.0
 10
-10.346156273815
 20
1.558852553927121
 30
0.0
 10
-11.03406273694579
 20
1.561008529473168
 30
0.0
 10
-11.70156903754576
 20
1.438235223482699
 30
0.0
 10
-12.33440868101766
 20
1.248492862975869
 30
0.0
  0
LINE
  5
6805
330
1F
100
AcDbEntity
  8
AM_5
  6
AM_ISO09W050
 62
     3
100
AcDbLine
 10
-0.6517896456684113
 20
1.750000000000009
 30
0.0
 11
-4.97455046767426
 21
1.750000000000009
 31
0.0
  0
SPLINE
  5
6806
330
1F
100
AcDbEntity
  8
AM_0
100
AcDbSpline
210
0.0
220
0.0
230
1.0
 70
     8
 71
     3
 72
     8
 73
     4
 74
     0
 42
0.0000000001
 43
0.0000000001
 40
22.73274810806179
 40
22.73274810806179
 40
22.73274810806179
 40
22.73274810806179
 40
28.97999309868792
 40
28.97999309868792
 40
28.97999309868792
 40
28.97999309868792
 10
-2.813170056671459
 20
-1.332180528915116
 30
0.0
 10
-3.512519660289908
 20
-1.587352061219806
 30
0.0
 10
-4.228722152528455
 20
-1.749999999999987
 30
0.0
 10
-4.974550467674809
 20
-1.749999999999987
 30
0.0
  0
LINE
  5
6807
330
1F
100
AcDbEntity
  8
AM_5
  6
AM_ISO09W050
 62
     3
100
AcDbLine
 10
-0.6517896456684113
 20
-1.749999999999987
 30
0.0
 11
-4.97455046767426
 21
-1.749999999999987
 31
0.0
  0
SPLINE
  5
6808
330
1F
100
AcDbEntity
  8
AM_0
100
AcDbSpline
210
0.0
220
0.0
230
1.0
 70
     8
 71
     3
 72
     8
 73
     4
 74
     0
 42
0.0000000001
 43
0.0000000001
 40
19.09542421355049
 40
19.09542421355049
 40
19.09542421355049
 40
19.09542421355049
 40
28.97999309868792
 40
28.97999309868792
 40
28.97999309868792
 40
28.97999309868792
 10
-1.606244199378172
 20
0.8062228352494235
 30
0.0
 10
-2.688575554780584
 20
1.342819516625077
 30
0.0
 10
-3.794479673490802
 20
1.750000000000009
 30
0.0
 10
-4.974550467674809
 20
1.750000000000009
 30
0.0
  0
SPLINE
  5
6809
330
1F
100
AcDbEntity
  8
AM_0
100
AcDbSpline
210
0.0
220
0.0
230
1.0
 70
     8
 71
     3
 72
     9
 73
     5
 74
     0
 42
0.0000000001
 43
0.0000000001
 40
1.521176736886217
 40
1.521176736886217
 40
1.521176736886217
 40
1.521176736886217
 40
14.48999654934396
 40
28.97999309868792
 40
28.97999309868792
 40
28.97999309868792
 40
28.97999309868792
 10
-0.6394652018193289
 20
-1.724478836720865
 30
0.0
 10
-2.174195285526654
 20
-1.566282959041014
 30
0.0
 10
-5.150344966978264
 20
0.0918585204794928
 30
0.0
 10
-8.126494648429835
 20
1.750000000000009
 30
0.0
 10
-9.856385140813211
 20
1.750000000000009
 30
0.0
  0
SPLINE
  5
680A
330
1F
100
AcDbEntity
  8
AM_0
100
AcDbSpline
210
0.0
220
0.0
230
1.0
 70
     8
 71
     3
 72
     9
 73
     5
 74
     0
 42
0.0000000001
 43
0.0000000001
 40
0.0
 40
0.0
 40
0.0
 40
0.0
 40
4.057199033816302
 40
8.114398067632619
 40
8.114398067632619
 40
8.114398067632619
 40
8.114398067632619
 10
-0.6369459881561168
 20
-1.749994719848394
 30
0.0
 10
-2.381680138051524
 20
-1.749999999999987
 30
0.0
 10
-5.522703993293543
 20
0.0000000000000108
 30
0.0
 10
-8.663727848535561
 20
1.750000000000009
 30
0.0
 10
-10.39361834091895
 20
1.750000000000009
 30
0.0
  0
LINE
  5
680B
330
1F
100
AcDbEntity
  8
AM_0
100
AcDbLine
 10
-20.000000000005
 20
-1.749999999999987
 30
0.0
 11
-20.000000000005
 21
1.750000000000017
 31
0.0
  0
SPLINE
  5
680C
330
1F
100
AcDbEntity
  8
AM_0
100
AcDbSpline
210
0.0
220
0.0
230
1.0
 70
     8
 71
     3
 72
    10
 73
     6
 74
     0
 42
0.0000000001
 43
0.0000000001
 40
0.0
 40
0.0
 40
0.0
 40
0.0
 40
1.805349240137826
 40
3.686331527232636
 40
4.976269099446192
 40
4.976269099446192
 40
4.976269099446192
 40
4.976269099446192
 10
-18.37675221890691
 20
-0.6582064093014031
 30
0.0
 10
-19.0571340586789
 20
-0.3063956514893532
 30
0.0
 10
-21.19209109989666
 20
1.46648536089642
 30
0.0
 10
-17.56724897509226
 20
1.182315175278765
 30
0.0
 10
-16.53945695926403
 20
0.6973846529338898
 30
0.0
 10
-16.05802847599097
 20
0.4375000000000126
 30
0.0
  0
VIEWPORT
  5
E2
330
1B
100
AcDbEntity
 67
     1
  8
0
100
AcDbViewport
 10
158.659971393327
 20
148.5
 30
0.0
 40
581.809078125
 41
314.226
 68
     1
 69
     1
1001
ACAD
1000
MVIEW
1002
{
1070
    16
1010
0.0
1020
0.0
1030
0.0
1010
0.0
1020
0.0
1030
1.0
1040
0.0
1040
314.226
1040
158.659971393327
1040
148.5
1040
50.0
1040
0.0
1040
0.0
1070
     0
1070
   100
1070
     1
1070
     1
1070
     0
1070
     0
1070
     0
1070
     0
1040
0.0
1040
0.0
1040
0.0
1040
10.0
1040
10.0
1040
10.0
1040
10.0
1070
     0
1002
{
1002
}
1002
}
  0
ENDSEC
  0
SECTION
  2
OBJECTS
  0
DICTIONARY
  5
C
330
0
100
AcDbDictionary
  3
ACAD_GROUP
350
D
  3
ACAD_LAYOUT
350
1A
  3
ACAD_MLINESTYLE
350
17
  3
ACAD_PLOTSETTINGS
350
19
  3
ACAD_PLOTSTYLENAME
350
E
  3
ACDBVARIABLEDICTIONARY
350
34
  3
ACMDICTIONARY
350
43
  3
AMG
350
2B
  3
AMGSNAPSETTINGS
350
6E
  3
DWGPROPS
350
687F
  3
ACDBHEADERROUNDTRIPXREC
350
688C
  0
DICTIONARY
  5
74
330
1F
100
AcDbDictionary
280
     1
  3
ACAD_INDEX
360
6881
  3
ACAD_LAYOUTSELFREF
360
68AF
  0
DICTIONARY
  5
68AD
330
1B
100
AcDbDictionary
280
     1
  3
ACAD_LAYOUTSELFREF
360
68AE
  0
DICTIONARY
  5
D
102
{ACAD_REACTORS
330
C
102
}
330
C
100
AcDbDictionary
  0
DICTIONARY
  5
1A
102
{ACAD_REACTORS
330
C
102
}
330
C
100
AcDbDictionary
  0
DICTIONARY
  5
17
102
{ACAD_REACTORS
330
C
102
}
330
C
100
AcDbDictionary
  3
STANDARD
350
18
  0
DICTIONARY
  5
19
102
{ACAD_REACTORS
330
C
102
}
330
C
100
AcDbDictionary
  0
ACDBDICTIONARYWDFLT
  5
E
102
{ACAD_REACTORS
330
C
102
}
330
C
100
AcDbDictionary
281
     1
  3
Normal
350
F
100
AcDbDictionaryWithDefault
340
F
  0
DICTIONARY
  5
34
102
{ACAD_REACTORS
330
C
102
}
330
C
100
AcDbDictionary
  3
INDEXCTL
350
35
  3
SORTENTS
350
B5E
  0
DICTIONARY
  5
43
102
{ACAD_REACTORS
330
C
102
}
330
C
100
AcDbDictionary
  3
ACMSTDDICTIONARY
350
260
  0
DICTIONARY
  5
2B
102
{ACAD_REACTORS
330
C
102
}
330
C
100
AcDbDictionary
  3
ACMGSETTINGS
350
2C
  0
DICTIONARY
  5
6E
102
{ACAD_REACTORS
330
C
102
}
330
C
100
AcDbDictionary
  0
XRECORD
  5
687F
102
{ACAD_REACTORS
330
C
102
}
330
C
100
AcDbXrecord
  1
DWGPROPS COOKIE
  2

  3

  4

  6

  7

  8

  9

300
AmdtFileType=82
301
=
302
=
303
=
304
=
305
=
306
=
307
=
308
=
309
=
 40
1.166872152777777
 41
2452838.620506898
 42
2452954.594069305
  1

 90
        1
  0
DICTIONARY
  5
688C
102
{ACAD_REACTORS
330
C
102
}
330
C
100
AcDbDictionary
  3
TSTACKALIGN
350
688D
  3
TSTACKSIZE
350
688E
  3
HYPERLINKBASE
350
688F
  3
STYLESHEET
350
6890
  3
LAYOUTDICT
350
6891
  3
PLOTSETDICT
350
6892
  3
PLOTSTYLNAMDICT
350
6893
  3
LWETCUNION
350
6894
  3
INSUNITS
350
6895
  3
CEPSNTYPE
350
6896
  3
FINGERPRINTGUID
350
6897
  3
VERSIONGUID
350
6898
  3
PSVPSCALE
350
6899
  3
DIMSTYLEDATA
350
689A
  3
PUCSORTHOREF
350
689B
  3
PUCSORTHOVIEW
350
689C
  3
PUCSBASE
350
689D
  3
PUCSORGTOP
350
689E
  3
PUCSORGBOTTOM
350
689F
  3
PUCSORGLEFT
350
68A0
  3
PUCSORGRIGHT
350
68A1
  3
PUCSORGFRONT
350
68A2
  3
PUCSORGBACK
350
68A3
  3
UCSORTHOREF
350
68A4
  3
UCSORTHOVIEW
350
68A5
  3
UCSBASE
350
68A6
  3
UCSORGTOP
350
68A7
  3
UCSORGBOTTOM
350
68A8
  3
UCSORGLEFT
350
68A9
  3
UCSORGRIGHT
350
68AA
  3
UCSORGFRONT
350
68AB
  3
UCSORGBACK
350
68AC
  0
DICTIONARY
  5
6881
102
{ACAD_REACTORS
330
74
102
}
330
74
100
AcDbDictionary
  3
*A1
350
6882
  0
XRECORD
  5
68AF
102
{ACAD_REACTORS
330
74
102
}
330
74
100
AcDbXrecord
340
1F
  0
XRECORD
  5
68AE
102
{ACAD_REACTORS
330
68AD
102
}
330
68AD
100
AcDbXrecord
340
1B
  0
MLINESTYLE
  5
18
102
{ACAD_REACTORS
330
17
102
}
330
17
100
AcDbMlineStyle
  2
STANDARD
 70
     0
  3

 62
   256
 51
90.0
 52
90.0
 71
     2
 49
0.5
 62
   256
  6
BYLAYER
 49
-0.5
 62
   256
  6
BYLAYER
  0
ACDBPLACEHOLDER
  5
F
102
{ACAD_REACTORS
330
E
102
}
330
E
100
AcDbPlaceHolder
280
     0
  0
DICTIONARYVAR
  5
35
102
{ACAD_REACTORS
330
34
102
}
330
34
100
DictionaryVariables
280
     0
  1
1
  0
DICTIONARYVAR
  5
B5E
102
{ACAD_REACTORS
330
34
102
}
330
34
100
DictionaryVariables
280
     0
  1
96
  0
DICTIONARY
  5
260
102
{ACAD_REACTORS
330
43
102
}
330
43
100
AcDbDictionary
  0
DICTIONARY
  5
2C
102
{ACAD_REACTORS
330
2B
102
}
330
2B
100
AcDbDictionary
  3
DWGSETTINGS
350
2D
  0
XRECORD
  5
688D
102
{ACAD_REACTORS
330
688C
102
}
330
688C
100
AcDbXrecord
 90
        1
  0
XRECORD
  5
688E
102
{ACAD_REACTORS
330
688C
102
}
330
688C
100
AcDbXrecord
 90
       70
  0
XRECORD
  5
688F
102
{ACAD_REACTORS
330
688C
102
}
330
688C
100
AcDbXrecord
  1

  0
XRECORD
  5
6890
102
{ACAD_REACTORS
330
688C
102
}
330
688C
100
AcDbXrecord
  1
C:\Program Files\ACAD LT 2000\Plot Styles\ASAMI.ctb
  0
XRECORD
  5
6891
102
{ACAD_REACTORS
330
688C
102
}
330
688C
100
AcDbXrecord
340
1A
  0
XRECORD
  5
6892
102
{ACAD_REACTORS
330
688C
102
}
330
688C
100
AcDbXrecord
340
19
  0
XRECORD
  5
6893
102
{ACAD_REACTORS
330
688C
102
}
330
688C
100
AcDbXrecord
340
E
  0
XRECORD
  5
6894
102
{ACAD_REACTORS
330
688C
102
}
330
688C
100
AcDbXrecord
 90
    10781
  0
XRECORD
  5
6895
102
{ACAD_REACTORS
330
688C
102
}
330
688C
100
AcDbXrecord
 90
        4
  0
XRECORD
  5
6896
102
{ACAD_REACTORS
330
688C
102
}
330
688C
100
AcDbXrecord
 90
        0
  0
XRECORD
  5
6897
102
{ACAD_REACTORS
330
688C
102
}
330
688C
100
AcDbXrecord
  1
{AFB28963-8C59-40AE-9337-C84526B81ACE}
  0
XRECORD
  5
6898
102
{ACAD_REACTORS
330
688C
102
}
330
688C
100
AcDbXrecord
  1
{08716895-B68C-4CE4-AFD3-94000E879E41}
  0
XRECORD
  5
6899
102
{ACAD_REACTORS
330
688C
102
}
330
688C
100
AcDbXrecord
 40
0.0
  0
XRECORD
  5
689A
102
{ACAD_REACTORS
330
688C
102
}
330
688C
100
AcDbXrecord
1000
DSTYLE
1002
{
1070
    79
 70
     2
1070
   341
340
59
1070
   342
340
59
1070
   371
 70
    -1
1070
   372
 70
    -1
1002
}
  0
XRECORD
  5
689B
102
{ACAD_REACTORS
330
688C
102
}
330
688C
100
AcDbXrecord
340
0
  0
XRECORD
  5
689C
102
{ACAD_REACTORS
330
688C
102
}
330
688C
100
AcDbXrecord
 70
     0
  0
XRECORD
  5
689D
102
{ACAD_REACTORS
330
688C
102
}
330
688C
100
AcDbXrecord
340
0
  0
XRECORD
  5
689E
102
{ACAD_REACTORS
330
688C
102
}
330
688C
100
AcDbXrecord
 10
0.0
 20
0.0
 30
0.0
  0
XRECORD
  5
689F
102
{ACAD_REACTORS
330
688C
102
}
330
688C
100
AcDbXrecord
 10
0.0
 20
0.0
 30
0.0
  0
XRECORD
  5
68A0
102
{ACAD_REACTORS
330
688C
102
}
330
688C
100
AcDbXrecord
 10
0.0
 20
0.0
 30
0.0
  0
XRECORD
  5
68A1
102
{ACAD_REACTORS
330
688C
102
}
330
688C
100
AcDbXrecord
 10
0.0
 20
0.0
 30
0.0
  0
XRECORD
  5
68A2
102
{ACAD_REACTORS
330
688C
102
}
330
688C
100
AcDbXrecord
 10
0.0
 20
0.0
 30
0.0
  0
XRECORD
  5
68A3
102
{ACAD_REACTORS
330
688C
102
}
330
688C
100
AcDbXrecord
 10
0.0
 20
0.0
 30
0.0
  0
XRECORD
  5
68A4
102
{ACAD_REACTORS
330
688C
102
}
330
688C
100
AcDbXrecord
340
0
  0
XRECORD
  5
68A5
102
{ACAD_REACTORS
330
688C
102
}
330
688C
100
AcDbXrecord
 70
     0
  0
XRECORD
  5
68A6
102
{ACAD_REACTORS
330
688C
102
}
330
688C
100
AcDbXrecord
340
0
  0
XRECORD
  5
68A7
102
{ACAD_REACTORS
330
688C
102
}
330
688C
100
AcDbXrecord
 10
0.0
 20
0.0
 30
0.0
  0
XRECORD
  5
68A8
102
{ACAD_REACTORS
330
688C
102
}
330
688C
100
AcDbXrecord
 10
0.0
 20
0.0
 30
0.0
  0
XRECORD
  5
68A9
102
{ACAD_REACTORS
330
688C
102
}
330
688C
100
AcDbXrecord
 10
0.0
 20
0.0
 30
0.0
  0
XRECORD
  5
68AA
102
{ACAD_REACTORS
330
688C
102
}
330
688C
100
AcDbXrecord
 10
0.0
 20
0.0
 30
0.0
  0
XRECORD
  5
68AB
102
{ACAD_REACTORS
330
688C
102
}
330
688C
100
AcDbXrecord
 10
0.0
 20
0.0
 30
0.0
  0
XRECORD
  5
68AC
102
{ACAD_REACTORS
330
688C
102
}
330
688C
100
AcDbXrecord
 10
0.0
 20
0.0
 30
0.0
  0
LAYER_INDEX
  5
6882
102
{ACAD_REACTORS
330
6881
102
}
330
6881
100
AcDbIndex
 40
2453151.612143715
100
AcDbLayerIndex
  8
0
360
6883
 90
        0
  8
AM_0
360
6884
 90
       39
  8
AM_11
360
6885
 90
        0
  8
AM_7
360
6886
 90
        1
  8
AM_5
360
6887
 90
        8
  8
Defpoints
360
6888
 90
        0
  8
AM_6
360
6889
 90
        1
  8
AM_CL
360
688A
 90
        0
  0
XRECORD
  5
2D
102
{ACAD_REACTORS
330
2C
102
}
330
2C
100
AcDbXrecord
  1
VERSION
140
15.0
  1
PRODUCT
  2
AutoCAD Mechanical 2000
  0
IDBUFFER
  5
6883
330
0
100
AcDbIdBuffer
  0
IDBUFFER
  5
6884
330
0
100
AcDbIdBuffer
330
67BB
330
67F3
330
67F4
330
67F5
330
67F6
330
67F7
330
67F8
330
67F9
330
67FA
330
67FB
330
67FC
330
67FD
330
67FF
330
6801
330
6802
330
6803
330
6804
330
6806
330
6808
330
6809
330
680A
330
680B
330
680C
330
631C
330
631D
330
63DB
330
665B
330
665C
330
665D
330
665E
330
665F
330
6660
330
6661
330
6662
330
67B1
330
67B4
330
67B7
330
67B9
330
67BA
  0
IDBUFFER
  5
6885
330
0
100
AcDbIdBuffer
  0
IDBUFFER
  5
6886
330
0
100
AcDbIdBuffer
330
6320
  0
IDBUFFER
  5
6887
330
0
100
AcDbIdBuffer
330
63C1
330
640B
330
6418
330
6663
330
67FE
330
6800
330
6805
330
6807
  0
IDBUFFER
  5
6888
330
0
100
AcDbIdBuffer
  0
IDBUFFER
  5
6889
330
0
100
AcDbIdBuffer
330
C58
  0
IDBUFFER
  5
688A
330
0
100
AcDbIdBuffer
  0
ENDSEC
  0
EOF
