  0
SECTION
  2
HEADER
  9
$ACADVER
  1
AC1014
  9
$ACADMAINTVER
 70
     9
  9
$DWGCODEPAGE
  3
ANSI_932
  9
$INSBASE
 10
0.0
 20
0.0
 30
0.0
  9
$EXTMIN
 10
-92.33140437667115
 20
-29.66254175944327
 30
-0.00000001
  9
$EXTMAX
 10
16.2023397473405
 20
15.75429764368663
 30
0.00000001
  9
$LIMMIN
 10
-97.2011401160401
 20
-39.88773665665823
  9
$LIMMAX
 10
27.04413828674251
 20
27.82888887563482
  9
$ORTHOMODE
 70
     0
  9
$REGENMODE
 70
     1
  9
$FILLMODE
 70
     1
  9
$QTEXTMODE
 70
     0
  9
$MIRRTEXT
 70
     0
  9
$DRAGMODE
 70
     2
  9
$LTSCALE
 40
0.3
  9
$OSMODE
 70
    55
  9
$ATTMODE
 70
     1
  9
$TEXTSIZE
 40
2.5
  9
$TRACEWID
 40
1.0
  9
$TEXTSTYLE
  7
STANDARD
  9
$CLAYER
  8
AM_0
  9
$CELTYPE
  6
BYLAYER
  9
$CECOLOR
 62
   256
  9
$CELTSCALE
 40
1.0
  9
$DELOBJ
 70
     1
  9
$DISPSILH
 70
     0
  9
$DIMSCALE
 40
0.5
  9
$DIMASZ
 40
2.5
  9
$DIMEXO
 40
1.0
  9
$DIMDLI
 40
12.0
  9
$DIMRND
 40
0.0
  9
$DIMDLE
 40
0.0
  9
$DIMEXE
 40
1.0
  9
$DIMTP
 40
0.1
  9
$DIMTM
 40
0.1
  9
$DIMTXT
 40
3.2
  9
$DIMCEN
 40
0.0
  9
$DIMTSZ
 40
0.0
  9
$DIMTOL
 70
     0
  9
$DIMLIM
 70
     0
  9
$DIMTIH
 70
     0
  9
$DIMTOH
 70
     0
  9
$DIMSE1
 70
     0
  9
$DIMSE2
 70
     0
  9
$DIMTAD
 70
     3
  9
$DIMZIN
 70
     1
  9
$DIMBLK
  1
OPEN30
  9
$DIMASO
 70
     1
  9
$DIMSHO
 70
     1
  9
$DIMPOST
  1

  9
$DIMAPOST
  1
"
  9
$DIMALT
 70
     0
  9
$DIMALTD
 70
     2
  9
$DIMALTF
 40
0.0393701
  9
$DIMLFAC
 40
1.0
  9
$DIMTOFL
 70
     1
  9
$DIMTVP
 40
0.0
  9
$DIMTIX
 70
     0
  9
$DIMSOXD
 70
     0
  9
$DIMSAH
 70
     0
  9
$DIMBLK1
  1

  9
$DIMBLK2
  1

  9
$DIMSTYLE
  2
AM_JIS
  9
$DIMCLRD
 70
     3
  9
$DIMCLRE
 70
     3
  9
$DIMCLRT
 70
     2
  9
$DIMTFAC
 40
0.71
  9
$DIMGAP
 40
1.5
  9
$DIMJUST
 70
     0
  9
$DIMSD1
 70
     0
  9
$DIMSD2
 70
     0
  9
$DIMTOLJ
 70
     0
  9
$DIMTZIN
 70
     0
  9
$DIMALTZ
 70
     0
  9
$DIMALTTZ
 70
     0
  9
$DIMFIT
 70
     3
  9
$DIMUPT
 70
     0
  9
$DIMUNIT
 70
     2
  9
$DIMDEC
 70
     1
  9
$DIMTDEC
 70
     1
  9
$DIMALTU
 70
     2
  9
$DIMALTTD
 70
     2
  9
$DIMTXSTY
  7
ASAMI
  9
$DIMAUNIT
 70
     0
  9
$LUNITS
 70
     2
  9
$LUPREC
 70
     2
  9
$SKETCHINC
 40
1.0
  9
$FILLETRAD
 40
0.8
  9
$AUNITS
 70
     0
  9
$AUPREC
 70
     0
  9
$MENU
  1
.
  9
$ELEVATION
 40
0.0
  9
$PELEVATION
 40
0.0
  9
$THICKNESS
 40
0.0
  9
$LIMCHECK
 70
     0
  9
$BLIPMODE
 70
     0
  9
$CHAMFERA
 40
0.5
  9
$CHAMFERB
 40
0.5
  9
$CHAMFERC
 40
20.0
  9
$CHAMFERD
 40
0.0
  9
$SKPOLY
 70
     0
  9
$TDCREATE
 40
2452838.620506898
  9
$TDUPDATE
 40
2453151.622694027
  9
$TDINDWG
 40
1.4237629282
  9
$TDUSRTIMER
 40
1.4237629282
  9
$USRTIMER
 70
     1
  9
$ANGBASE
 50
0.0
  9
$ANGDIR
 70
     0
  9
$PDMODE
 70
     0
  9
$PDSIZE
 40
0.0
  9
$PLINEWID
 40
0.0
  9
$COORDS
 70
     1
  9
$SPLFRAME
 70
     0
  9
$SPLINETYPE
 70
     6
  9
$SPLINESEGS
 70
     8
  9
$ATTDIA
 70
     1
  9
$ATTREQ
 70
     1
  9
$HANDLING
 70
 12289
  9
$HANDSEED
  5
79FA
  9
$SURFTAB1
 70
     6
  9
$SURFTAB2
 70
     6
  9
$SURFTYPE
 70
     6
  9
$SURFU
 70
     6
  9
$SURFV
 70
     6
  9
$UCSNAME
  2

  9
$UCSORG
 10
0.0
 20
0.0000000000000002
 30
0.0
  9
$UCSXDIR
 10
1.0
 20
0.0
 30
0.0
  9
$UCSYDIR
 10
0.0
 20
1.0
 30
0.0
  9
$PUCSNAME
  2

  9
$PUCSORG
 10
0.0
 20
0.0
 30
0.0
  9
$PUCSXDIR
 10
1.0
 20
0.0
 30
0.0
  9
$PUCSYDIR
 10
0.0
 20
1.0
 30
0.0
  9
$USERI1
 70
     0
  9
$USERI2
 70
     0
  9
$USERI3
 70
     0
  9
$USERI4
 70
     0
  9
$USERI5
 70
     0
  9
$USERR1
 40
0.0
  9
$USERR2
 40
0.0
  9
$USERR3
 40
0.0
  9
$USERR4
 40
0.0
  9
$USERR5
 40
0.0
  9
$WORLDVIEW
 70
     1
  9
$SHADEDGE
 70
     3
  9
$SHADEDIF
 70
    70
  9
$TILEMODE
 70
     1
  9
$MAXACTVP
 70
    64
  9
$PINSBASE
 10
0.0
 20
0.0
 30
0.0
  9
$PLIMCHECK
 70
     0
  9
$PEXTMIN
 10
1.000000000000000E+20
 20
1.000000000000000E+20
 30
1.000000000000000E+20
  9
$PEXTMAX
 10
-1.000000000000000E+20
 20
-1.000000000000000E+20
 30
-1.000000000000000E+20
  9
$PLIMMIN
 10
0.0
 20
0.0
  9
$PLIMMAX
 10
210.0
 20
297.0
  9
$UNITMODE
 70
     0
  9
$VISRETAIN
 70
     1
  9
$PLINEGEN
 70
     0
  9
$PSLTSCALE
 70
     1
  9
$TREEDEPTH
 70
  3020
  9
$PICKSTYLE
 70
     0
  9
$CMLSTYLE
  2
STANDARD
  9
$CMLJUST
 70
     0
  9
$CMLSCALE
 40
20.0
  9
$PROXYGRAPHICS
 70
     1
  9
$MEASUREMENT
 70
     1
  0
ENDSEC
  0
SECTION
  2
CLASSES
  0
CLASS
  1
ACDBDICTIONARYWDFLT
  2
AcDbDictionaryWithDefault
  3
AutoCAD 2000
 90
        0
280
     0
281
     0
  0
CLASS
  1
ACDBPLACEHOLDER
  2
AcDbPlaceHolder
  3
AutoCAD 2000
 90
        0
280
     0
281
     0
  0
CLASS
  1
LAYOUT
  2
AcDbLayout
  3
AutoCAD 2000
 90
        0
280
     0
281
     0
  0
CLASS
  1
AMGSETTINGSOBJ
  2
AmgSettingsObj
  3
"AcadM|Product Description: AutoCAD Mechanical 2000|Company: Autodesk"
 90
        0
280
     0
281
     0
  0
CLASS
  1
ACME_DOCUMENT
  2
AcMeDbDoc
  3
AcMeServices
 90
        0
280
     0
281
     0
  0
CLASS
  1
ACMESCOPE
  2
AcMeScope
  3
AcMeServices
 90
        0
280
     0
281
     0
  0
CLASS
  1
ACMECOMMANDHISTORY
  2
AcMeCommandHistory
  3
AcMeServices
 90
        0
280
     0
281
     0
  0
CLASS
  1
DICTIONARYVAR
  2
AcDbDictionaryVar
  3
AutoCAD 2000
 90
        0
280
     0
281
     0
  0
CLASS
  1
ACIMSYSVARMAN
  2
AcImSysVarManager
  3
AcMeServices
 90
        0
280
     0
281
     0
  0
CLASS
  1
ACIMREALSYSVAR
  2
AcImRealSysVar
  3
AcMeServices
 90
        0
280
     0
281
     0
  0
CLASS
  1
ACIMINTSYSVAR
  2
AcImIntSysVar
  3
AcMeServices
 90
        0
280
     0
281
     0
  0
CLASS
  1
ACMEDRAWINGMAN
  2
AcMeDrawingMan
  3
AcMeServices
 90
        0
280
     0
281
     0
  0
CLASS
  1
ACMEVIEW
  2
AcMeView
  3
AcMeServices
 90
        0
280
     0
281
     0
  0
CLASS
  1
ACDBENTITYCACHE
  2
AcMeEntityCache
  3
AcMeServices
 90
        0
280
     0
281
     0
  0
CLASS
  1
GSMANAGER
  2
AcMeGSManager
  3
AcMeServices
 90
        0
280
     0
281
     0
  0
CLASS
  1
AmdtInternalReactor
  2
AmdtInternalReactor
  3
AcMeServices
 90
        0
280
     0
281
     0
  0
CLASS
  1
ACMESTATEMGR
  2
AcMeStateMgr
  3
AcMeServices
 90
        0
280
     0
281
     0
  0
CLASS
  1
ACME_DATABASE
  2
AcMeDbDatabase
  3
AcMeServices
 90
        0
280
     0
281
     0
  0
CLASS
  1
ACRFINSADJUSTERMGR
  2
AcRfInsAdjusterMgr
  3
AcMeServices
 90
        0
280
     0
281
     0
  0
CLASS
  1
ACMDATADICTIONARY
  2
AcmDataDictionary
  3
"AcmSymBB|Product Description: AutoCAD Mechanical 2000|Company: Autodesk"
 90
        0
280
     0
281
     0
  0
CLASS
  1
ACMDATAENTRYBLOCK
  2
AcmDataEntryBlock
  3
"AcmSymBB|Product Description: AutoCAD Mechanical 2000|Company: Autodesk"
 90
        0
280
     0
281
     0
  0
CLASS
  1
AMGOBJPROPCFG
  2
AmgObjPropCfg
  3
"AmgLay|Product Description: AutoCAD Mechanical 2000|Company: Autodesk"
 90
        1
280
     0
281
     0
  0
CLASS
  1
ACAMGFILTERDAT
  2
AcAmgFilterDat
  3
"AcadM|Product Description: AutoCAD Mechanical 2000|Company: Autodesk"
 90
        0
280
     0
281
     0
  0
CLASS
  1
LAYER_INDEX
  2
AcDbLayerIndex
  3
AutoCAD 2000
 90
        0
280
     0
281
     0
  0
CLASS
  1
IDBUFFER
  2
AcDbIdBuffer
  3
AutoCAD 2000
 90
        0
280
     0
281
     0
  0
CLASS
  1
ACIMSTRSYSVAR
  2
AcImStrSysVar
  3
AcMeServices
 90
        0
280
     0
281
     0
  0
CLASS
  1
ACMSTANDARDJIS
  2
AcmStandardJIS
  3
"AcmSymBB|Product Description: AutoCAD Mechanical 2000|Company: Autodesk"
 90
        0
280
     0
281
     0
  0
CLASS
  1
ACMSURFSTANDARDJIS
  2
AcmSurfTextStdJIS
  3
"AcmSymBB|Product Description: AutoCAD Mechanical 2000|Company: Autodesk"
 90
        0
280
     0
281
     0
  0
CLASS
  1
ACMFCFSTANDARDJIS
  2
AcmFCFStdJIS
  3
"AcmSymBB|Product Description: AutoCAD Mechanical 2000|Company: Autodesk"
 90
        0
280
     0
281
     0
  0
CLASS
  1
ACMWELDSTANDARDJIS
  2
AcmWeldingStdJIS
  3
"AcmSymBB|Product Description: AutoCAD Mechanical 2000|Company: Autodesk"
 90
        0
280
     0
281
     0
  0
CLASS
  1
ACMIDSTANDARDJIS
  2
AcmIdStdJIS
  3
"AcmSymBB|Product Description: AutoCAD Mechanical 2000|Company: Autodesk"
 90
        0
280
     0
281
     0
  0
CLASS
  1
ACMDATUMSTANDARDJIS
  2
AcmDatumStdJIS
  3
"AcmSymBB|Product Description: AutoCAD Mechanical 2000|Company: Autodesk"
 90
        0
280
     0
281
     0
  0
CLASS
  1
ACMBOMSTANDARDJIS
  2
AcmBOMStdJIS
  3
"AcmSymBB|Product Description: AutoCAD Mechanical 2000|Company: Autodesk"
 90
        0
280
     0
281
     0
  0
CLASS
  1
ACMSTANDARDANSI
  2
AcmStandardANSI
  3
"AcmSymBB|Product Description: AutoCAD Mechanical 2000|Company: Autodesk"
 90
        0
280
     0
281
     0
  0
CLASS
  1
ACMSURFSTANDARDANSI
  2
AcmSurfTextStdANSI
  3
"AcmSymBB|Product Description: AutoCAD Mechanical 2000|Company: Autodesk"
 90
        0
280
     0
281
     0
  0
CLASS
  1
ACMFCFSTANDARDANSI
  2
AcmFCFStdANSI
  3
"AcmSymBB|Product Description: AutoCAD Mechanical 2000|Company: Autodesk"
 90
        0
280
     0
281
     0
  0
CLASS
  1
ACMWELDSTANDARDANSI
  2
AcmWeldingStdANSI
  3
"AcmSymBB|Product Description: AutoCAD Mechanical 2000|Company: Autodesk"
 90
        0
280
     0
281
     0
  0
CLASS
  1
ACMIDSTANDARDANSI
  2
AcmIdStdANSI
  3
"AcmSymBB|Product Description: AutoCAD Mechanical 2000|Company: Autodesk"
 90
        0
280
     0
281
     0
  0
CLASS
  1
ACMDATUMSTANDARDANSI
  2
AcmDatumStdANSI
  3
"AcmSymBB|Product Description: AutoCAD Mechanical 2000|Company: Autodesk"
 90
        0
280
     0
281
     0
  0
CLASS
  1
ACMBOMSTANDARDANSI
  2
AcmBOMStdANSI
  3
"AcmSymBB|Product Description: AutoCAD Mechanical 2000|Company: Autodesk"
 90
        0
280
     0
281
     0
  0
CLASS
  1
ACMSTANDARDBSI
  2
AcmStandardBSI
  3
"AcmSymBB|Product Description: AutoCAD Mechanical 2000|Company: Autodesk"
 90
        0
280
     0
281
     0
  0
CLASS
  1
ACMSURFSTANDARDBSI
  2
AcmSurfTextStdBSI
  3
"AcmSymBB|Product Description: AutoCAD Mechanical 2000|Company: Autodesk"
 90
        0
280
     0
281
     0
  0
CLASS
  1
ACMFCFSTANDARDBSI
  2
AcmFCFStdBSI
  3
"AcmSymBB|Product Description: AutoCAD Mechanical 2000|Company: Autodesk"
 90
        0
280
     0
281
     0
  0
CLASS
  1
ACMWELDSTANDARDBSI
  2
AcmWeldingStdBSI
  3
"AcmSymBB|Product Description: AutoCAD Mechanical 2000|Company: Autodesk"
 90
        0
280
     0
281
     0
  0
CLASS
  1
ACMIDSTANDARDBSI
  2
AcmIdStdBSI
  3
"AcmSymBB|Product Description: AutoCAD Mechanical 2000|Company: Autodesk"
 90
        0
280
     0
281
     0
  0
CLASS
  1
ACMDATUMSTANDARDBSI
  2
AcmDatumStdBSI
  3
"AcmSymBB|Product Description: AutoCAD Mechanical 2000|Company: Autodesk"
 90
        0
280
     0
281
     0
  0
CLASS
  1
ACMBOMSTANDARDBSI
  2
AcmBOMStdBSI
  3
"AcmSymBB|Product Description: AutoCAD Mechanical 2000|Company: Autodesk"
 90
        0
280
     0
281
     0
  0
CLASS
  1
LONG_TRANSACTION
  2
AcDbLongTransaction
  3
AutoCAD 2000
 90
        0
280
     0
281
     0
  0
CLASS
  1
LWPOLYLINE
  2
AcDbPolyline
  3
AutoCAD 2000
 90
        0
280
     0
281
     1
  0
CLASS
  1
HATCH
  2
AcDbHatch
  3
AutoCAD 2000
 90
        0
280
     0
281
     1
  0
CLASS
  1
XRECORD
  2
AcDbXrecord
  3
AutoCAD 2000
 90
        0
280
     0
281
     0
  0
ENDSEC
  0
SECTION
  2
TABLES
  0
TABLE
  2
VPORT
  5
8
330
0
100
AcDbSymbolTable
 70
     3
  0
VPORT
  5
79BB
330
8
100
AcDbSymbolTableRecord
100
AcDbViewportTableRecord
  2
*ACTIVE
 70
     0
 10
0.0
 20
0.0
 11
1.0
 21
1.0
 12
-15.31704766749554
 22
6.908028412253926
 13
0.0
 23
0.0
 14
2.5
 24
2.5
 15
10.0
 25
10.0
 16
0.0
 26
0.0
 36
1.0
 17
0.0
 27
0.0
 37
0.0
 40
116.1514969711726
 41
1.56570841889117
 42
50.0
 43
0.0
 44
0.0
 50
0.0
 51
0.0
 71
     0
 72
   100
 73
     1
 74
     3
 75
     0
 76
     0
 77
     0
 78
     0
  0
ENDTAB
  0
TABLE
  2
LTYPE
  5
5
330
0
100
AcDbSymbolTable
 70
    10
  0
LTYPE
  5
14
330
5
100
AcDbSymbolTableRecord
100
AcDbLinetypeTableRecord
  2
BYBLOCK
 70
     0
  3

 72
    65
 73
     0
 40
0.0
  0
LTYPE
  5
15
330
5
100
AcDbSymbolTableRecord
100
AcDbLinetypeTableRecord
  2
BYLAYER
 70
     0
  3

 72
    65
 73
     0
 40
0.0
  0
LTYPE
  5
16
330
5
100
AcDbSymbolTableRecord
100
AcDbLinetypeTableRecord
  2
CONTINUOUS
 70
     0
  3
Solid line
 72
    65
 73
     0
 40
0.0
  0
LTYPE
  5
4B
330
5
100
AcDbSymbolTableRecord
100
AcDbLinetypeTableRecord
  2
AM_ISO02W050
 70
     0
  3
__ __ __ __ __ __ __ __ __ __ __ __ __ __ __
 72
    65
 73
     2
 40
7.5
 49
6.0
 74
     0
 49
-1.5
 74
     0
  0
LTYPE
  5
4C
330
5
100
AcDbSymbolTableRecord
100
AcDbLinetypeTableRecord
  2
AM_ISO08W050
 70
     0
  3
____ . ____ . ____ . ____ . ____ . ____ . ____
 72
    65
 73
     4
 40
18.0
 49
12.0
 74
     0
 49
-1.5
 74
     0
 49
3.0
 74
     0
 49
-1.5
 74
     0
  0
LTYPE
  5
4D
330
5
100
AcDbSymbolTableRecord
100
AcDbLinetypeTableRecord
  2
AM_ISO09W050
 70
     0
  3
_____ . . _____ . . _____ . . ____ .. ____
 72
    65
 73
     6
 40
22.5
 49
12.0
 74
     0
 49
-1.5
 74
     0
 49
3.0
 74
     0
 49
-1.5
 74
     0
 49
3.0
 74
     0
 49
-1.5
 74
     0
  0
LTYPE
  5
4E
330
5
100
AcDbSymbolTableRecord
100
AcDbLinetypeTableRecord
  2
AMCONSTR
 70
     0
  3
_______________________
 72
    65
 73
     2
 40
9999.0
 49
9999.0
 74
     0
 49
0.0
 74
     0
  0
LTYPE
  5
4F
330
5
100
AcDbSymbolTableRecord
100
AcDbLinetypeTableRecord
  2
AM_ISO02W050X2
 70
     0
  3
 _ _ _ _ _ _ _ _ _ _ _ _
 72
    65
 73
     2
 40
3.75
 49
3.0
 74
     0
 49
-0.75
 74
     0
  0
LTYPE
  5
50
330
5
100
AcDbSymbolTableRecord
100
AcDbLinetypeTableRecord
  2
AM_ISO08W050X2
 70
     0
  3
__ . __ . __ . __ . __ . __
 72
    65
 73
     4
 40
9.0
 49
6.0
 74
     0
 49
-0.75
 74
     0
 49
1.5
 74
     0
 49
-0.75
 74
     0
  0
LTYPE
  5
53
330
5
100
AcDbSymbolTableRecord
100
AcDbLinetypeTableRecord
  2
AMZIGZAG
 70
     0
  3
/\/-/\/-/\/-/\/-/\/-/\/
 72
    65
 73
     2
 40
11.00009999999999
 49
0.0001
 74
     4
 75
   135
340
52
 46
0.04
 50
0.0
 44
0.0
 45
0.0
 49
-11.0
 74
     0
  0
LTYPE
  5
166
330
5
100
AcDbSymbolTableRecord
100
AcDbLinetypeTableRecord
  2
ACJISTGL
 70
     0
  3
_ _ _ _ _
 72
    65
 73
     2
 40
3.0
 49
2.0
 74
     0
 49
-1.0
 74
     0
  0
LTYPE
  5
26A
330
5
100
AcDbSymbolTableRecord
100
AcDbLinetypeTableRecord
  2
ACJISTGB
 70
     0
  3
__ . . __ . .
 72
    65
 73
     6
 40
9.0
 49
4.0
 74
     0
 49
-1.0
 74
     0
 49
1.0
 74
     0
 49
-1.0
 74
     0
 49
1.0
 74
     0
 49
-1.0
 74
     0
  0
ENDTAB
  0
TABLE
  2
LAYER
  5
2
330
0
100
AcDbSymbolTable
 70
     8
  0
LAYER
  5
10
330
2
100
AcDbSymbolTableRecord
100
AcDbLayerTableRecord
  2
0
 70
     0
 62
     7
  6
CONTINUOUS
  0
LAYER
  5
3F9
330
2
100
AcDbSymbolTableRecord
100
AcDbLayerTableRecord
  2
AM_0
 70
     0
 62
     7
  6
CONTINUOUS
  0
LAYER
  5
BD6
330
2
100
AcDbSymbolTableRecord
100
AcDbLayerTableRecord
  2
AM_11
 70
     0
 62
     3
  6
AM_ISO09W050
  0
LAYER
  5
BD7
330
2
100
AcDbSymbolTableRecord
100
AcDbLayerTableRecord
  2
AM_7
 70
     0
 62
     4
  6
AM_ISO08W050
  0
LAYER
  5
BD8
330
2
100
AcDbSymbolTableRecord
100
AcDbLayerTableRecord
  2
AM_5
 70
     0
 62
     3
  6
CONTINUOUS
  0
LAYER
  5
BD9
330
2
100
AcDbSymbolTableRecord
100
AcDbLayerTableRecord
  2
DEFPOINTS
 70
     0
 62
     7
  6
CONTINUOUS
  0
LAYER
  5
BDA
330
2
100
AcDbSymbolTableRecord
100
AcDbLayerTableRecord
  2
AM_6
 70
     0
 62
     2
  6
CONTINUOUS
  0
LAYER
  5
1E2E
330
2
100
AcDbSymbolTableRecord
100
AcDbLayerTableRecord
  2
AM_CL
 70
     0
 62
     1
  6
AMCONSTR
  0
ENDTAB
  0
TABLE
  2
STYLE
  5
3
330
0
100
AcDbSymbolTable
 70
     5
  0
STYLE
  5
11
330
3
100
AcDbSymbolTableRecord
100
AcDbTextStyleTableRecord
  2
STANDARD
 70
     0
 40
0.0
 41
1.0
 50
0.0
 71
     0
 42
2.5
  3
simplex.shx
  4
EXTFONT.SHX
  0
STYLE
  5
52
330
3
100
AcDbSymbolTableRecord
100
AcDbTextStyleTableRecord
  2

 70
     1
 40
0.0
 41
1.0
 50
0.0
 71
     0
 42
2.5
  3
ltypeshp.shx
  4

  0
STYLE
  5
6B
330
3
100
AcDbSymbolTableRecord
100
AcDbTextStyleTableRecord
  2
ASAMI
 70
     0
 40
0.0
 41
1.0
 50
0.0
 71
     0
 42
2.5
  3
simplex.shx
  4
EXTFONT.SHX
  0
STYLE
  5
262
330
3
100
AcDbSymbolTableRecord
100
AcDbTextStyleTableRecord
  2
ACJISTS
 70
     0
 40
1.0
 41
1.0
 50
0.0
 71
     0
 42
2.5
  3
simplex.shx
  4
bigfont.shx
  0
STYLE
  5
269
330
3
100
AcDbSymbolTableRecord
100
AcDbTextStyleTableRecord
  2
ACJISGDT
 70
     0
 40
0.0
 41
1.0
 50
0.0
 71
     0
 42
2.5
  3
amgdtans.shx
  4

  0
ENDTAB
  0
TABLE
  2
VIEW
  5
6
330
0
100
AcDbSymbolTable
 70
     0
  0
ENDTAB
  0
TABLE
  2
UCS
  5
7
330
0
100
AcDbSymbolTable
 70
     0
  0
ENDTAB
  0
TABLE
  2
APPID
  5
9
330
0
100
AcDbSymbolTable
 70
    14
  0
APPID
  5
12
330
9
100
AcDbSymbolTableRecord
100
AcDbRegAppTableRecord
  2
ACAD
 70
     0
  0
APPID
  5
30
330
9
100
AcDbSymbolTableRecord
100
AcDbRegAppTableRecord
  2
MCAD_NO_VIS
 70
     0
  0
APPID
  5
31
330
9
100
AcDbSymbolTableRecord
100
AcDbRegAppTableRecord
  2
ACAD_TEMP_GRAPHIC
 70
     0
  0
APPID
  5
2C2
330
9
100
AcDbSymbolTableRecord
100
AcDbRegAppTableRecord
  2
GENIUS_GENDTOL_13
 70
     0
  0
APPID
  5
339
330
9
100
AcDbSymbolTableRecord
100
AcDbRegAppTableRecord
  2
GENIUS_GENODEF_13
 70
     0
  0
APPID
  5
33A
330
9
100
AcDbSymbolTableRecord
100
AcDbRegAppTableRecord
  2
GENIUS_GENOBJ-N-RSBK_13
 70
     0
  0
APPID
  5
33B
330
9
100
AcDbSymbolTableRecord
100
AcDbRegAppTableRecord
  2
GENIUS_GENOBJ-N-LIB_13
 70
     0
  0
APPID
  5
33C
330
9
100
AcDbSymbolTableRecord
100
AcDbRegAppTableRecord
  2
GENIUS_GENSCALE_13
 70
     0
  0
APPID
  5
378
330
9
100
AcDbSymbolTableRecord
100
AcDbRegAppTableRecord
  2
GENIUS_GENDIMSH_14
 70
     0
  0
APPID
  5
BDB
330
9
100
AcDbSymbolTableRecord
100
AcDbRegAppTableRecord
  2
GENIUS_GENOBJ-N-CEN_13
 70
     0
  0
APPID
  5
BDC
330
9
100
AcDbSymbolTableRecord
100
AcDbRegAppTableRecord
  2
GENIUS_GENFIL_13
 70
     0
  0
APPID
  5
BDD
330
9
100
AcDbSymbolTableRecord
100
AcDbRegAppTableRecord
  2
GENIUS_GENOBJ-N-FIL_13
 70
     0
  0
APPID
  5
12AD
330
9
100
AcDbSymbolTableRecord
100
AcDbRegAppTableRecord
  2
GENIUS_GENOREF_13
 70
     0
  0
APPID
  5
62E6
330
9
100
AcDbSymbolTableRecord
100
AcDbRegAppTableRecord
  2
GENIUS_GENOBJ-N-CHA_13
 70
     0
  0
ENDTAB
  0
TABLE
  2
DIMSTYLE
  5
A
330
0
100
AcDbSymbolTable
 70
     9
  0
DIMSTYLE
105
58
102
{ACAD_REACTORS
330
634F
330
63C1
330
640B
330
6418
102
}
330
A
100
AcDbSymbolTableRecord
100
AcDbDimStyleTableRecord
  2
AM_JIS
 70
     0
  3

  4
"
  5
OPEN30
  6

  7

 40
0.5
 41
2.5
 42
1.0
 43
12.0
 44
1.0
 45
0.0
 46
0.0
 47
0.1
 48
0.1
140
3.2
141
0.0
142
0.0
143
0.0393701
144
1.0
145
0.0
146
0.71
147
1.5
 71
     0
 72
     0
 73
     0
 74
     0
 75
     0
 76
     0
 77
     3
 78
     1
170
     0
171
     2
172
     1
173
     0
174
     0
175
     0
176
     3
177
     3
178
     2
270
     2
271
     1
272
     1
273
     2
274
     2
340
6B
275
     0
280
     0
281
     0
282
     0
283
     0
284
     0
285
     0
286
     0
287
     3
288
     0
  0
DIMSTYLE
105
5F
330
A
100
AcDbSymbolTableRecord
100
AcDbDimStyleTableRecord
  2
AM_JIS$3
 70
     0
  3

  4
"
  5
OPEN30
  6

  7

 40
0.5
 41
2.5
 42
1.0
 43
10.0
 44
1.0
 45
0.0
 46
0.0
 47
0.1
 48
0.1
140
3.2
141
0.0
142
0.0
143
0.0393701
144
1.0
145
0.0
146
0.71
147
1.5
 71
     0
 72
     0
 73
     0
 74
     1
 75
     0
 76
     0
 77
     3
 78
     1
170
     0
171
     2
172
     0
173
     0
174
     0
175
     0
176
     3
177
     3
178
     2
270
     2
271
     2
272
     1
273
     2
274
     2
340
6B
275
     0
280
     0
281
     0
282
     0
283
     0
284
     0
285
     0
286
     0
287
     0
288
     1
  0
DIMSTYLE
105
60
330
A
100
AcDbSymbolTableRecord
100
AcDbDimStyleTableRecord
  2
AM_JIS$4
 70
     0
  3

  4
"
  5
OPEN30
  6

  7

 40
0.5
 41
2.5
 42
1.0
 43
10.0
 44
1.0
 45
0.0
 46
0.0
 47
0.1
 48
0.1
140
3.2
141
0.0
142
0.0
143
0.0393701
144
1.0
145
0.0
146
0.71
147
1.5
 71
     0
 72
     0
 73
     0
 74
     1
 75
     0
 76
     0
 77
     3
 78
     1
170
     0
171
     2
172
     0
173
     0
174
     0
175
     0
176
     3
177
     3
178
     2
270
     2
271
     2
272
     1
273
     2
274
     2
340
6B
275
     0
280
     0
281
     0
282
     0
283
     0
284
     0
285
     0
286
     0
287
     0
288
     1
  0
DIMSTYLE
105
61
330
A
100
AcDbSymbolTableRecord
100
AcDbDimStyleTableRecord
  2
AM_JIS$6
 70
     0
  3

  4
"
  5
OPEN30
  6

  7

 40
0.5
 41
2.5
 42
1.0
 43
10.0
 44
1.0
 45
0.0
 46
0.0
 47
0.1
 48
0.1
140
3.2
141
0.0
142
0.0
143
0.0393701
144
1.0
145
0.0
146
0.71
147
1.5
 71
     0
 72
     0
 73
     0
 74
     0
 75
     0
 76
     0
 77
     0
 78
     1
170
     0
171
     2
172
     1
173
     0
174
     0
175
     0
176
     3
177
     3
178
     2
270
     2
271
     2
272
     2
273
     2
274
     2
340
6B
275
     0
280
     0
281
     0
282
     0
283
     0
284
     0
285
     0
286
     0
287
     3
288
     0
  0
DIMSTYLE
105
62
330
A
100
AcDbSymbolTableRecord
100
AcDbDimStyleTableRecord
  2
AM_JIS$7
 70
     0
  3

  4
"
  5
OPEN30
  6

  7

 40
0.5
 41
2.5
 42
1.0
 43
10.0
 44
1.0
 45
0.0
 46
0.0
 47
0.1
 48
0.1
140
3.2
141
0.0
142
0.0
143
0.0393701
144
1.0
145
0.0
146
0.71
147
1.5
 71
     0
 72
     0
 73
     0
 74
     0
 75
     0
 76
     0
 77
     3
 78
     1
170
     0
171
     2
172
     1
173
     0
174
     0
175
     0
176
     3
177
     3
178
     2
270
     2
271
     2
272
     1
273
     2
274
     2
340
6B
275
     0
280
     0
281
     0
282
     0
283
     0
284
     0
285
     0
286
     0
287
     3
288
     0
  0
DIMSTYLE
105
63
330
A
100
AcDbSymbolTableRecord
100
AcDbDimStyleTableRecord
  2
AM_JIS$SF
 70
     0
  3

  4
"
  5
OPEN30
  6

  7

 40
0.5
 41
2.5
 42
1.0
 43
10.0
 44
1.0
 45
0.0
 46
0.0
 47
0.1
 48
0.1
140
3.2
141
0.0
142
0.0
143
0.0393701
144
1.0
145
0.0
146
0.71
147
1.5
 71
     0
 72
     0
 73
     0
 74
     0
 75
     1
 76
     1
 77
     3
 78
     8
170
     0
171
     2
172
     1
173
     0
174
     0
175
     0
176
   256
177
   256
178
     2
270
     2
271
     2
272
     2
273
     2
274
     2
340
6B
275
     0
280
     0
281
     0
282
     0
283
     0
284
     0
285
     0
286
     0
287
     3
288
     0
  0
DIMSTYLE
105
68
330
A
100
AcDbSymbolTableRecord
100
AcDbDimStyleTableRecord
  2
AM_JIS$SH
 70
     0
  3

  4
"
  5

  6
GENAXEH
  7
OPEN30
 40
0.5
 41
2.5
 42
1.0
 43
10.0
 44
1.0
 45
0.0
 46
0.0
 47
0.1
 48
0.1
140
3.2
141
0.0
142
0.0
143
0.0393701
144
2.0
145
0.0
146
0.71
147
1.5
 71
     0
 72
     0
 73
     0
 74
     0
 75
     1
 76
     1
 77
     3
 78
     8
170
     0
171
     2
172
     1
173
     1
174
     0
175
     0
176
   256
177
   256
178
     2
270
     2
271
     2
272
     2
273
     2
274
     2
340
6B
275
     0
280
     0
281
     0
282
     0
283
     0
284
     0
285
     0
286
     0
287
     3
288
     0
  0
DIMSTYLE
105
B34
102
{ACAD_REACTORS
330
63DB
102
}
330
A
100
AcDbSymbolTableRecord
100
AcDbDimStyleTableRecord
  2
AM_JIS$2
 70
     0
  3

  4
"
  5
OPEN30
  6

  7

 40
0.5
 41
2.5
 42
1.0
 43
12.0
 44
1.0
 45
0.0
 46
0.0
 47
0.1
 48
0.1
140
3.2
141
0.0
142
0.0
143
0.0393701
144
1.0
145
0.0
146
0.71
147
1.5
 71
     0
 72
     0
 73
     0
 74
     0
 75
     0
 76
     0
 77
     3
 78
     1
170
     0
171
     2
172
     1
173
     0
174
     0
175
     0
176
     3
177
     3
178
     2
270
     2
271
     1
272
     1
273
     2
274
     2
340
6B
275
     0
280
     0
281
     0
282
     0
283
     0
284
     0
285
     0
286
     0
287
     3
288
     0
  0
DIMSTYLE
105
62E5
330
A
100
AcDbSymbolTableRecord
100
AcDbDimStyleTableRecord
  2
ISO-25
 70
     0
  3

  4

  5

  6

  7

 40
1.0
 41
2.5
 42
0.625
 43
3.75
 44
1.25
 45
0.0
 46
0.0
 47
0.0
 48
0.0
140
2.5
141
2.5
142
0.0
143
0.03937007874016
144
1.0
145
0.0
146
1.0
147
0.625
 71
     0
 72
     0
 73
     0
 74
     0
 75
     0
 76
     0
 77
     1
 78
     8
170
     0
171
     3
172
     1
173
     0
174
     0
175
     0
176
     0
177
     0
178
     0
270
     2
271
     2
272
     2
273
     2
274
     3
340
11
275
     0
280
     0
281
     0
282
     0
283
     0
284
     8
285
     0
286
     0
287
     3
288
     0
  0
ENDTAB
  0
TABLE
  2
BLOCK_RECORD
  5
1
330
0
100
AcDbSymbolTable
 70
    10
  0
BLOCK_RECORD
  5
1F
102
{ACAD_XDICTIONARY
360
74
102
}
330
1
100
AcDbSymbolTableRecord
100
AcDbBlockTableRecord
  2
*MODEL_SPACE
  0
BLOCK_RECORD
  5
1B
102
{ACAD_XDICTIONARY
360
79DD
102
}
330
1
100
AcDbSymbolTableRecord
100
AcDbBlockTableRecord
  2
*PAPER_SPACE
  0
BLOCK_RECORD
  5
59
330
1
100
AcDbSymbolTableRecord
100
AcDbBlockTableRecord
  2
_OPEN30
  0
BLOCK_RECORD
  5
64
330
1
100
AcDbSymbolTableRecord
100
AcDbBlockTableRecord
  2
GENAXEH
  0
BLOCK_RECORD
  5
6350
330
1
100
AcDbSymbolTableRecord
100
AcDbBlockTableRecord
  2
*D5
  0
BLOCK_RECORD
  5
63C2
330
1
100
AcDbSymbolTableRecord
100
AcDbBlockTableRecord
  2
*D6
  0
BLOCK_RECORD
  5
63DC
330
1
100
AcDbSymbolTableRecord
100
AcDbBlockTableRecord
  2
*D7
  0
BLOCK_RECORD
  5
640C
330
1
100
AcDbSymbolTableRecord
100
AcDbBlockTableRecord
  2
*D8
  0
BLOCK_RECORD
  5
6419
330
1
100
AcDbSymbolTableRecord
100
AcDbBlockTableRecord
  2
*D9
  0
ENDTAB
  0
ENDSEC
  0
SECTION
  2
BLOCKS
  0
BLOCK
  5
20
330
1F
100
AcDbEntity
  8
0
100
AcDbBlockBegin
  2
*MODEL_SPACE
 70
     0
 10
0.0
 20
0.0
 30
0.0
  3
*MODEL_SPACE
  1

  0
ENDBLK
  5
21
330
1F
100
AcDbEntity
  8
0
100
AcDbBlockEnd
  0
BLOCK
  5
1C
330
1B
100
AcDbEntity
 67
     1
  8
0
100
AcDbBlockBegin
  2
*PAPER_SPACE
 70
     0
 10
0.0
 20
0.0
 30
0.0
  3
*PAPER_SPACE
  1

  0
ENDBLK
  5
1D
330
1B
100
AcDbEntity
 67
     1
  8
0
100
AcDbBlockEnd
  0
BLOCK
  5
5D
330
59
100
AcDbEntity
  8
0
100
AcDbBlockBegin
  2
_OPEN30
 70
     0
 10
0.0
 20
0.0
 30
0.0
  3
_OPEN30
  1

  0
LINE
  5
5A
330
59
100
AcDbEntity
  8
0
 62
     0
100
AcDbLine
 10
-1.0
 20
0.26794919
 30
0.0
 11
0.0
 21
0.0
 31
0.0
  0
LINE
  5
5B
330
59
100
AcDbEntity
  8
0
 62
     0
100
AcDbLine
 10
0.0
 20
0.0
 30
0.0
 11
-1.0
 21
-0.26794919
 31
0.0
  0
LINE
  5
5C
330
59
100
AcDbEntity
  8
0
 62
     0
100
AcDbLine
 10
0.0
 20
0.0
 30
0.0
 11
-1.0
 21
0.0
 31
0.0
  0
ENDBLK
  5
5E
330
59
100
AcDbEntity
  8
0
100
AcDbBlockEnd
  0
BLOCK
  5
66
330
64
100
AcDbEntity
  8
0
100
AcDbBlockBegin
  2
GENAXEH
 70
     0
 10
0.0
 20
0.0
 30
0.0
  3
GENAXEH
  1

  0
LINE
  5
65
330
64
100
AcDbEntity
  8
0
100
AcDbLine
 10
-1.0
 20
0.0
 30
0.0
 11
1.0
 21
0.0
 31
0.0
  0
ENDBLK
  5
67
330
64
100
AcDbEntity
  8
0
100
AcDbBlockEnd
  0
BLOCK
  5
635A
330
6350
100
AcDbEntity
  8
0
100
AcDbBlockBegin
  2
*D5
 70
     1
 10
0.0
 20
0.0
 30
0.0
  3
*D5
  1

  0
LINE
  5
7985
330
6350
100
AcDbEntity
  8
AM_5
 62
     3
100
AcDbLine
 10
-81.95731516766176
 20
-2.899999999931575
 30
0.0
 11
-90.48140437667115
 21
-2.899999999931572
 31
0.0
  0
LINE
  5
7986
330
6350
100
AcDbEntity
  8
AM_5
 62
     3
100
AcDbLine
 10
-81.95731516766176
 20
2.900000000068424
 30
0.0
 11
-90.48140437667115
 21
2.900000000068427
 31
0.0
  0
LINE
  5
7987
330
6350
100
AcDbEntity
  8
AM_5
 62
     3
100
AcDbLine
 10
-89.98140437667116
 20
-1.649999999931572
 30
0.0
 11
-89.98140437667116
 21
1.650000000068426
 31
0.0
  0
INSERT
  5
7988
330
6350
100
AcDbEntity
  8
AM_5
 62
     3
100
AcDbBlockReference
  2
_OPEN30
 10
-89.98140437667116
 20
-2.899999999931572
 30
0.0
 41
1.25
 42
1.25
 43
1.25
 50
270.0
  0
INSERT
  5
7989
330
6350
100
AcDbEntity
  8
AM_5
 62
     3
100
AcDbBlockReference
  2
_OPEN30
 10
-89.98140437667116
 20
2.900000000068427
 30
0.0
 41
1.25
 42
1.25
 43
1.25
 50
90.0
  0
MTEXT
  5
798A
330
6350
100
AcDbEntity
  8
AM_5
 62
     2
100
AcDbMText
 10
-91.53140437667115
 20
0.0000000000684128
 30
0.0
 40
1.6
 41
0.0
 71
     5
 72
     1
  1
%%C5.8
  7
ASAMI
 11
0.0000000000000001
 21
1.0
 31
0.0
1001
ACAD
1000
MTEXTBEGIN
1070
    73
1070
     1
1070
    44
1040
1.0
1070
    74
1070
     0
1000
MTEXTEND
  0
POINT
  5
798B
330
6350
100
AcDbEntity
  8
DEFPOINTS
 62
     0
100
AcDbPoint
 10
-81.45731516766176
 20
-2.899999999931575
 30
0.0
  0
POINT
  5
798C
330
6350
100
AcDbEntity
  8
DEFPOINTS
 62
     0
100
AcDbPoint
 10
-81.45731516766176
 20
2.900000000068424
 30
0.0
  0
POINT
  5
798D
330
6350
100
AcDbEntity
  8
DEFPOINTS
 62
     0
100
AcDbPoint
 10
-89.98140437667116
 20
2.900000000068427
 30
0.0
  0
ENDBLK
  5
635B
330
6350
100
AcDbEntity
  8
0
100
AcDbBlockEnd
  0
BLOCK
  5
63CE
330
63C2
100
AcDbEntity
  8
0
100
AcDbBlockBegin
  2
*D6
 70
     1
 10
0.0
 20
0.0
 30
0.0
  3
*D6
  1

  0
LINE
  5
79E6
330
63C2
100
AcDbEntity
  8
AM_5
 62
     3
100
AcDbLine
 10
-0.5356854079145333
 20
-2.9000000000075
 30
0.0
 11
9.991886101526459
 21
-2.900000000007503
 31
0.0
  0
LINE
  5
79E7
330
63C2
100
AcDbEntity
  8
AM_5
 62
     3
100
AcDbLine
 10
-0.5576999533608636
 20
2.899999999992498
 30
0.0
 11
9.991886101526459
 21
2.899999999992495
 31
0.0
  0
LINE
  5
79E8
330
63C2
100
AcDbEntity
  8
AM_5
 62
     3
100
AcDbLine
 10
9.491886101526459
 20
-1.650000000007502
 30
0.0
 11
9.491886101526459
 21
1.649999999992496
 31
0.0
  0
MTEXT
  5
79E9
330
63C2
100
AcDbEntity
  8
AM_5
 62
     2
100
AcDbMText
 10
7.941886101526458
 20
-0.0000000000075031
 30
0.0
 40
1.6
 41
0.0
 71
     5
 72
     1
  1
%%C5.8
  7
ASAMI
 11
0.0000000000000001
 21
1.0
 31
0.0
  0
INSERT
  5
79EA
330
63C2
100
AcDbEntity
  8
AM_5
 62
     3
100
AcDbBlockReference
  2
_OPEN30
 10
9.491886101526459
 20
-2.900000000007503
 30
0.0
 41
1.25
 42
1.25
 43
1.25
 50
270.0
  0
INSERT
  5
79EB
330
63C2
100
AcDbEntity
  8
AM_5
 62
     3
100
AcDbBlockReference
  2
_OPEN30
 10
9.491886101526459
 20
2.899999999992496
 30
0.0
 41
1.25
 42
1.25
 43
1.25
 50
90.0
  0
POINT
  5
79EC
330
63C2
100
AcDbEntity
  8
DEFPOINTS
 62
     0
100
AcDbPoint
 10
-1.035685407914533
 20
-2.9000000000075
 30
0.0
  0
POINT
  5
79ED
330
63C2
100
AcDbEntity
  8
DEFPOINTS
 62
     0
100
AcDbPoint
 10
-1.057699953360863
 20
2.899999999992499
 30
0.0
  0
POINT
  5
79EE
330
63C2
100
AcDbEntity
  8
DEFPOINTS
 62
     0
100
AcDbPoint
 10
9.491886101526459
 20
2.899999999992496
 30
0.0
  0
ENDBLK
  5
63CF
330
63C2
100
AcDbEntity
  8
0
100
AcDbBlockEnd
  0
BLOCK
  5
63E8
330
63DC
100
AcDbEntity
  8
0
100
AcDbBlockBegin
  2
*D7
 70
     1
 10
0.0
 20
0.0
 30
0.0
  3
*D7
  1

  0
LINE
  5
79EF
330
63DC
100
AcDbEntity
  8
AM_0
 62
     3
100
AcDbLine
 10
0.1710100716577658
 20
-0.4698463103929329
 30
0.0
 11
5.734095404069204
 21
-15.75429764368663
 31
0.0
  0
LINE
  5
79F0
330
63DC
100
AcDbEntity
  8
AM_0
 62
     3
100
AcDbLine
 10
0.171010071657766
 20
0.4698463103929328
 30
0.0
 11
5.73409540406921
 21
15.75429764368663
 31
0.0
  0
ARC
  5
79F1
330
63DC
100
AcDbEntity
  8
AM_0
 62
     3
100
AcDbCircle
 10
-0.0000000000051273
 20
0.0
 30
0.0
 40
16.26537337338171
100
AcDbArc
 50
294.4042862605939
 51
65.59571373940612
  0
INSERT
  5
79F2
330
63DC
100
AcDbEntity
  8
AM_0
 62
     3
100
AcDbBlockReference
  2
_OPEN30
 10
5.563085332406311
 20
-15.2844513332937
 30
0.0
 41
1.25
 42
1.25
 43
1.25
 50
202.2021431303005
  0
INSERT
  5
79F3
330
63DC
100
AcDbEntity
  8
AM_0
 62
     3
100
AcDbBlockReference
  2
_OPEN30
 10
5.563085332406317
 20
15.28445133329369
 30
0.0
 41
1.25
 42
1.25
 43
1.25
 50
157.7978568696994
  0
MTEXT
  5
79F4
330
63DC
100
AcDbEntity
  8
AM_0
 62
     2
100
AcDbMText
 10
14.71537337337658
 20
-0.0000000000000038
 30
0.0
 40
1.6
 41
0.0
 71
     5
 72
     1
  1
140°
  7
ASAMI
 11
0.0000000000000001
 21
1.0
 31
0.0
  0
POINT
  5
79F5
330
63DC
100
AcDbEntity
  8
DEFPOINTS
 62
     0
100
AcDbPoint
 10
14.93512781585576
 20
-6.44238528026794
 30
0.0
  0
POINT
  5
79F6
330
63DC
100
AcDbEntity
  8
DEFPOINTS
 62
     0
100
AcDbPoint
 10
-0.0000000000051273
 20
0.0
 30
0.0
  0
POINT
  5
79F7
330
63DC
100
AcDbEntity
  8
DEFPOINTS
 62
     0
100
AcDbPoint
 10
-0.5459553514046434
 20
-1.5
 30
0.0
  0
POINT
  5
79F8
330
63DC
100
AcDbEntity
  8
DEFPOINTS
 62
     0
100
AcDbPoint
 10
-0.0000000000051273
 20
0.0
 30
0.0
  0
POINT
  5
79F9
330
63DC
100
AcDbEntity
  8
DEFPOINTS
 62
     0
100
AcDbPoint
 10
-0.5459553514046434
 20
1.5
 30
0.0
  0
ENDBLK
  5
63E9
330
63DC
100
AcDbEntity
  8
0
100
AcDbBlockEnd
  0
BLOCK
  5
6416
330
640C
100
AcDbEntity
  8
0
100
AcDbBlockBegin
  2
*D8
 70
     1
 10
0.0
 20
0.0
 30
0.0
  3
*D8
  1

  0
LINE
  5
7935
330
640C
100
AcDbEntity
  8
AM_5
 62
     3
100
AcDbLine
 10
-1.0555136793751
 20
-4.366666666666661
 30
0.0
 11
-1.0555136793751
 21
-12.1186561062831
 31
0.0
  0
LINE
  5
7936
330
640C
100
AcDbEntity
  8
AM_5
 62
     3
100
AcDbLine
 10
-42.03731516766179
 20
-3.400000000000369
 30
0.0
 11
-42.03731516766179
 21
-12.1186561062831
 31
0.0
  0
LINE
  5
7937
330
640C
100
AcDbEntity
  8
AM_5
 62
     3
100
AcDbLine
 10
-2.3055136793751
 20
-11.6186561062831
 30
0.0
 11
-40.78731516766179
 21
-11.6186561062831
 31
0.0
  0
INSERT
  5
7938
330
640C
100
AcDbEntity
  8
AM_5
 62
     3
100
AcDbBlockReference
  2
_OPEN30
 10
-1.0555136793751
 20
-11.6186561062831
 30
0.0
 41
1.25
 42
1.25
 43
1.25
  0
INSERT
  5
7939
330
640C
100
AcDbEntity
  8
AM_5
 62
     3
100
AcDbBlockReference
  2
_OPEN30
 10
-42.03731516766179
 20
-11.6186561062831
 30
0.0
 41
1.25
 42
1.25
 43
1.25
 50
180.0
  0
MTEXT
  5
793A
330
640C
100
AcDbEntity
  8
AM_5
 62
     2
100
AcDbMText
 10
-21.54641442351845
 20
-10.0686561062831
 30
0.0
 40
1.6
 41
0.0
 71
     5
 72
     1
  1
41
  7
ASAMI
1001
ACAD
1000
MTEXTBEGIN
1070
    73
1070
     1
1070
    44
1040
1.0
1070
    74
1070
     0
1000
MTEXTEND
  0
POINT
  5
793B
330
640C
100
AcDbEntity
  8
DEFPOINTS
 62
     0
100
AcDbPoint
 10
-1.0555136793751
 20
-3.866666666666661
 30
0.0
  0
POINT
  5
793C
330
640C
100
AcDbEntity
  8
DEFPOINTS
 62
     0
100
AcDbPoint
 10
-42.03731516766179
 20
-2.900000000000369
 30
0.0
  0
POINT
  5
793D
330
640C
100
AcDbEntity
  8
DEFPOINTS
 62
     0
100
AcDbPoint
 10
-42.03731516766179
 20
-11.6186561062831
 30
0.0
  0
ENDBLK
  5
6417
330
640C
100
AcDbEntity
  8
0
100
AcDbBlockEnd
  0
BLOCK
  5
6423
330
6419
100
AcDbEntity
  8
0
100
AcDbBlockBegin
  2
*D9
 70
     1
 10
0.0
 20
0.0
 30
0.0
  3
*D9
  1

  0
LINE
  5
792C
330
6419
100
AcDbEntity
  8
AM_5
 62
     3
100
AcDbLine
 10
-1.0555136793751
 20
-3.399999999999995
 30
0.0
 11
-1.055513679375101
 21
-17.99462646601128
 31
0.0
  0
LINE
  5
792D
330
6419
100
AcDbEntity
  8
AM_5
 62
     3
100
AcDbLine
 10
-82.03731516766172
 20
-2.399999999931058
 30
0.0
 11
-82.03731516766172
 21
-17.99462646601128
 31
0.0
  0
LINE
  5
792E
330
6419
100
AcDbEntity
  8
AM_5
 62
     3
100
AcDbLine
 10
-2.305513679375101
 20
-17.49462646601128
 30
0.0
 11
-80.78731516766172
 21
-17.49462646601128
 31
0.0
  0
INSERT
  5
792F
330
6419
100
AcDbEntity
  8
AM_5
 62
     3
100
AcDbBlockReference
  2
_OPEN30
 10
-1.055513679375101
 20
-17.49462646601128
 30
0.0
 41
1.25
 42
1.25
 43
1.25
  0
INSERT
  5
7930
330
6419
100
AcDbEntity
  8
AM_5
 62
     3
100
AcDbBlockReference
  2
_OPEN30
 10
-82.03731516766172
 20
-17.49462646601128
 30
0.0
 41
1.25
 42
1.25
 43
1.25
 50
180.0
  0
MTEXT
  5
7931
330
6419
100
AcDbEntity
  8
AM_5
 62
     2
100
AcDbMText
 10
-41.54641442351841
 20
-15.94462646601128
 30
0.0
 40
1.6
 41
0.0
 71
     5
 72
     1
  1
81
  7
ASAMI
1001
ACAD
1000
MTEXTBEGIN
1070
    73
1070
     1
1070
    44
1040
1.0
1070
    74
1070
     0
1000
MTEXTEND
  0
POINT
  5
7932
330
6419
100
AcDbEntity
  8
DEFPOINTS
 62
     0
100
AcDbPoint
 10
-1.0555136793751
 20
-2.899999999999995
 30
0.0
  0
POINT
  5
7933
330
6419
100
AcDbEntity
  8
DEFPOINTS
 62
     0
100
AcDbPoint
 10
-82.03731516766172
 20
-1.899999999931058
 30
0.0
  0
POINT
  5
7934
330
6419
100
AcDbEntity
  8
DEFPOINTS
 62
     0
100
AcDbPoint
 10
-82.03731516766172
 20
-17.49462646601128
 30
0.0
  0
ENDBLK
  5
6424
330
6419
100
AcDbEntity
  8
0
100
AcDbBlockEnd
  0
ENDSEC
  0
SECTION
  2
ENTITIES
  0
TEXT
  5
C58
330
1F
100
AcDbEntity
  8
AM_6
100
AcDbText
 10
-51.22149760832931
 20
-29.66254175944327
 30
0.0
 40
2.5
  1
MDS058MK
 50
0.0000000000002036
 72
     4
 11
-41.51911665594837
 21
-28.41254175944323
 31
0.0
100
AcDbText
  0
LINE
  5
631C
330
1F
100
AcDbEntity
  8
AM_0
100
AcDbLine
 10
-34.0692684823591
 20
-2.900000000000429
 30
0.0
 11
-81.03731516766172
 21
-2.900000000000069
 31
0.0
  0
LINE
  5
631D
330
1F
100
AcDbEntity
  8
AM_0
100
AcDbLine
 10
-32.83234336879448
 20
2.899999999999569
 30
0.0
 11
-81.03731516766174
 21
2.899999999999932
 31
0.0
  0
LINE
  5
6320
330
1F
100
AcDbEntity
  8
AM_7
100
AcDbLine
 10
-85.28529947379007
 20
0.0000000000000152
 30
0.0
 11
1.739999999989658
 21
-0.0000000000000001
 31
0.0
1001
GENIUS_GENODEF_13
1002
{
1000
HIER
1070
     0
1002
}
1002
{
1000
MANEDIT
1070
     0
1002
}
1002
{
1000
NOSEL
1070
     0
1002
}
1002
{
1000
BEHIND
1070
     0
1002
}
1002
{
1000
REACTOR
1002
}
1001
GENIUS_GENOBJ-N-CEN_13
1002
{
1000
OWNER
1000
GEN
1002
}
  0
LINE
  5
6343
330
1F
100
AcDbEntity
  8
AM_0
100
AcDbLine
 10
-82.03731516766172
 20
-0.7058489717987548
 30
0.0
 11
-82.03731516766172
 21
0.7058489717987846
 31
0.0
  0
LINE
  5
6348
330
1F
100
AcDbEntity
  8
AM_0
100
AcDbLine
 10
-82.03731516766172
 20
0.991925675808509
 30
0.0
 11
-82.03731516766172
 21
1.900000000068943
 31
0.0
  0
LINE
  5
6349
330
1F
100
AcDbEntity
  8
AM_0
100
AcDbLine
 10
-82.03731516766172
 20
0.7058489717987846
 30
0.0
 11
-82.03731516766172
 21
0.991925675808509
 31
0.0
  0
LINE
  5
634B
330
1F
100
AcDbEntity
  8
AM_0
100
AcDbLine
 10
-82.03731516766172
 20
-1.899999999931057
 30
0.0
 11
-82.03731516766172
 21
-0.9919256756195654
 31
0.0
  0
LINE
  5
634C
330
1F
100
AcDbEntity
  8
AM_0
100
AcDbLine
 10
-82.03731516766172
 20
-0.9919256756195654
 30
0.0
 11
-82.03731516766172
 21
-0.7058489717987548
 31
0.0
  0
DIMENSION
  5
634F
330
1F
100
AcDbEntity
  8
AM_5
100
AcDbDimension
  2
*D5
 10
-89.98140437667116
 20
2.900000000068427
 30
0.0
 11
-89.98140437667116
 21
0.0000000000684126
 31
0.0
 70
   160
  1
%%C<>
  3
AM_JIS
100
AcDbAlignedDimension
 13
-81.45731516766176
 23
-2.899999999931575
 33
0.0
 14
-81.45731516766176
 24
2.900000000068424
 34
0.0
 50
90.0
100
AcDbRotatedDimension
  0
DIMENSION
  5
63C1
330
1F
100
AcDbEntity
  8
AM_5
100
AcDbDimension
  2
*D6
 10
9.491886101526459
 20
2.899999999992496
 30
0.0
 11
9.491886101526459
 21
-0.0000000000075033
 31
0.0
 70
   160
  1
%%C<>
  3
AM_JIS
100
AcDbAlignedDimension
 13
-1.035685407914533
 23
-2.9000000000075
 33
0.0
 14
-1.057699953360863
 24
2.899999999992499
 34
0.0
 50
90.0
100
AcDbRotatedDimension
1001
ACAD
1000
DSTYLE
1002
{
1070
   287
1070
     4
1070
   271
1070
     1
1070
   279
1070
     1
1002
}
  0
DIMENSION
  5
63DB
330
1F
100
AcDbEntity
  8
AM_0
100
AcDbDimension
  2
*D7
 10
-0.5459553514046434
 20
1.5
 30
0.0
 11
14.71537337337658
 21
-0.0000000000000062
 31
0.0
 70
    34
  3
AM_JIS$2
100
AcDb2LineAngularDimension
 13
-0.5459553514046434
 23
-1.5
 33
0.0
 14
-0.0000000000051273
 24
0.0
 34
0.0
 15
-0.0000000000051273
 25
0.0
 35
0.0
 16
14.93512781585576
 26
-6.44238528026794
 36
0.0
1001
ACAD
1000
DSTYLE
1002
{
1070
   271
1070
     0
1002
}
  0
DIMENSION
  5
640B
330
1F
100
AcDbEntity
  8
AM_5
100
AcDbDimension
  2
*D8
 10
-42.03731516766179
 20
-11.6186561062831
 30
0.0
 11
-21.54641442351845
 21
-10.0686561062831
 31
0.0
 70
    32
  3
AM_JIS
100
AcDbAlignedDimension
 13
-1.0555136793751
 23
-3.866666666666661
 33
0.0
 14
-42.03731516766179
 24
-2.900000000000369
 34
0.0
100
AcDbRotatedDimension
1001
ACAD
1000
DSTYLE
1002
{
1070
    78
1070
     9
1002
}
  0
DIMENSION
  5
6418
330
1F
100
AcDbEntity
  8
AM_5
100
AcDbDimension
  2
*D9
 10
-82.03731516766172
 20
-17.49462646601128
 30
0.0
 11
-41.54641442351841
 21
-15.94462646601128
 31
0.0
 70
    32
  3
AM_JIS
100
AcDbAlignedDimension
 13
-1.0555136793751
 23
-2.899999999999995
 33
0.0
 14
-82.03731516766172
 24
-1.899999999931058
 34
0.0
100
AcDbRotatedDimension
1001
ACAD
1000
DSTYLE
1002
{
1070
    78
1070
     9
1002
}
  0
LINE
  5
647D
330
1F
100
AcDbEntity
  8
AM_0
100
AcDbLine
 10
-81.03731516766174
 20
2.900000000068938
 30
0.0
 11
-82.03731516766172
 21
1.900000000068943
 31
0.0
  0
LINE
  5
647E
330
1F
100
AcDbEntity
  8
AM_0
100
AcDbLine
 10
-82.03731516766172
 20
-1.899999999931057
 30
0.0
 11
-81.03731516766172
 21
-2.899999999931059
 31
0.0
  0
LINE
  5
647F
330
1F
100
AcDbEntity
  8
AM_0
100
AcDbLine
 10
-81.03731516766174
 20
2.900000000068938
 30
0.0
 11
-81.03731516766172
 21
-2.899999999931059
 31
0.0
  0
LINE
  5
6CBA
330
1F
100
AcDbEntity
  8
AM_0
100
AcDbLine
 10
-1.05551367940717
 20
-2.9000000000075
 30
0.0
 11
-0.0000000000347795
 21
-0.0000000000075006
 31
0.0
  0
LINE
  5
6CBE
330
1F
100
AcDbEntity
  8
AM_0
100
AcDbLine
 10
-0.0000000000347795
 20
-0.0000000000075006
 30
0.0
 11
-1.055513679407171
 21
2.8999999999925
 31
0.0
  0
LINE
  5
6CC0
330
1F
100
AcDbEntity
  8
AM_0
100
AcDbLine
 10
-0.0000000000351917
 20
-0.0000000000075006
 30
0.0
 11
-0.5749360697302253
 21
0.5044826089409895
 31
0.0
  0
LINE
  5
6CC1
330
1F
100
AcDbEntity
  8
AM_0
100
AcDbLine
 10
-1.069423870100411
 20
-0.2273455431979969
 30
0.0
 11
-0.0000000000351917
 21
-0.0000000000075006
 31
0.0
  0
LINE
  5
6FB4
330
1F
100
AcDbEntity
  8
AM_0
100
AcDbLine
 10
-0.5749360697302253
 20
0.5044826089409895
 30
0.0
 11
-0.1870078064482147
 21
0.5035797152266067
 31
0.0
  0
LINE
  5
78FE
330
1F
100
AcDbEntity
  8
AM_5
  6
AM_ISO09W050
 62
     3
 48
0.5
100
AcDbLine
 10
-1.055513679407173
 20
2.899999999992499
 30
0.0
 11
-6.681784274615425
 21
2.899999999992499
 31
0.0
  0
SPLINE
  5
78FF
330
1F
100
AcDbEntity
  8
AM_0
100
AcDbSpline
210
0.0
220
0.0
230
1.0
 70
     8
 71
     3
 72
     9
 73
     5
 74
     0
 42
0.0000000001
 43
0.0000000001
 40
0.0
 40
0.0
 40
0.0
 40
0.0
 40
0.1987770877846628
 40
5.759128114460802
 40
5.759128114460802
 40
5.759128114460802
 40
5.759128114460802
 10
-0.9397835650195148
 20
2.582034123961635
 30
0.0
 10
-0.9397835650195148
 20
2.582034123961635
 30
0.0
 10
-1.735720474670548
 20
2.586814134555474
 30
0.0
 10
-2.632310655338502
 20
2.38336122748442
 30
0.0
 10
-3.482336804551406
 20
2.068931030071541
 30
0.0
  0
SPLINE
  5
7900
330
1F
100
AcDbEntity
  8
AM_0
100
AcDbSpline
210
0.0
220
0.0
230
1.0
 70
     8
 71
     3
 72
     8
 73
     4
 74
     0
 42
0.0000000001
 43
0.0000000001
 40
0.0
 40
0.0
 40
0.0
 40
0.0
 40
6.247244990626095
 40
6.247244990626095
 40
6.247244990626095
 40
6.247244990626095
 10
-1.055513679407173
 20
2.899999999992499
 30
0.0
 10
-1.877271478749053
 20
2.899999999992505
 30
0.0
 10
-2.839270071619468
 20
2.630469130013858
 30
0.0
 10
-3.778631972612881
 20
2.207613447908925
 30
0.0
  0
SPLINE
  5
7901
330
1F
100
AcDbEntity
  8
AM_0
100
AcDbSpline
210
0.0
220
0.0
230
1.0
 70
     8
 71
     3
 72
     8
 73
     4
 74
     0
 42
0.0000000001
 43
0.0000000001
 40
19.09542421355049
 40
19.09542421355049
 40
19.09542421355049
 40
19.09542421355049
 40
28.97999309868792
 40
28.97999309868792
 40
28.97999309868792
 40
28.97999309868792
 10
-2.157496903973139
 20
1.336026412691546
 30
0.0
 10
-3.611277436992903
 20
2.225243770399752
 30
0.0
 10
-5.096720754459698
 20
2.899999999992505
 30
0.0
 10
-6.681784274616187
 20
2.899999999992505
 30
0.0
  0
LINE
  5
7902
330
1F
100
AcDbEntity
  8
AM_0
100
AcDbLine
 10
-1.05551367940717
 20
-2.9000000000075
 30
0.0
 11
-1.069423870100411
 21
-0.2273455431979969
 31
0.0
  0
SPLINE
  5
7903
330
1F
100
AcDbEntity
  8
AM_0
100
AcDbSpline
210
0.0
220
0.0
230
1.0
 70
     8
 71
     3
 72
     8
 73
     4
 74
     0
 42
0.0000000001
 43
0.0000000001
 40
22.73274810806179
 40
22.73274810806179
 40
22.73274810806179
 40
22.73274810806179
 40
28.97999309868792
 40
28.97999309868792
 40
28.97999309868792
 40
28.97999309868792
 10
-3.778631972612828
 20
-2.207613447923997
 30
0.0
 10
-4.717993873606239
 20
-2.630469130028894
 30
0.0
 10
-5.679992466476642
 20
-2.900000000007493
 30
0.0
 10
-6.681784274616187
 20
-2.900000000007493
 30
0.0
  0
LINE
  5
7904
330
1F
100
AcDbEntity
  8
AM_5
  6
AM_ISO09W050
 62
     3
 48
0.5
100
AcDbLine
 10
-1.05551318645515
 20
-2.9000000000075
 30
0.0
 11
-6.681784274615425
 21
-2.9000000000075
 31
0.0
  0
LINE
  5
7905
330
1F
100
AcDbEntity
  8
AM_0
100
AcDbLine
 10
-1.069423870100411
 20
-0.2273455431979969
 30
0.0
 11
-2.157496903973141
 21
1.33602641269154
 31
0.0
  0
SPLINE
  5
7906
330
1F
100
AcDbEntity
  8
AM_0
100
AcDbSpline
210
0.0
220
0.0
230
1.0
 70
     8
 71
     3
 72
     9
 73
     5
 74
     0
 42
0.0000000001
 43
0.0000000001
 40
0.0
 40
0.0
 40
0.0
 40
0.0
 40
0.0353107615743204
 40
0.4098003053212364
 40
0.4098003053212364
 40
0.4098003053212364
 40
0.4098003053212364
 10
-0.5748961324047844
 20
0.5035797152266128
 30
0.0
 10
-0.5716516233015653
 20
0.4302297277189212
 30
0.0
 10
-0.5339973569578649
 20
-0.4210361735472161
 30
0.0
 10
-1.771489058679554
 20
0.7814001869708093
 30
0.0
 10
-2.157496903973139
 20
1.336026412691546
 30
0.0
  0
SPLINE
  5
7907
330
1F
100
AcDbEntity
  8
AM_0
100
AcDbSpline
210
0.0
220
0.0
230
1.0
 70
     8
 71
     3
 72
     9
 73
     5
 74
     0
 42
0.0000000001
 43
0.0000000001
 40
0.0
 40
0.0
 40
0.0
 40
0.0
 40
0.1987770877846628
 40
5.759128114445015
 40
5.759128114445015
 40
5.759128114445015
 40
5.759128114445015
 10
-13.86501536055975
 20
2.583241375071716
 30
0.0
 10
-13.89689073258172
 20
2.583241375071716
 30
0.0
 10
-14.8208822806841
 20
2.58681413454802
 30
0.0
 10
-15.71747246134967
 20
2.383361227478121
 30
0.0
 10
-16.56749861056028
 20
2.068931030066761
 30
0.0
  0
SPLINE
  5
7908
330
1F
100
AcDbEntity
  8
AM_0
100
AcDbSpline
210
0.0
220
0.0
230
1.0
 70
     8
 71
     3
 72
     8
 73
     4
 74
     0
 42
0.0000000001
 43
0.0000000001
 40
0.0
 40
0.0
 40
0.0
 40
0.0
 40
6.870645942600294
 40
6.870645942600294
 40
6.870645942600294
 40
6.870645942600294
 10
-13.96064147662899
 20
2.58324137507546
 30
0.0
 10
-12.85888840599322
 20
2.58750584254088
 30
0.0
 10
-11.75294199357921
 20
2.383156416211726
 30
0.0
 10
-10.67400751928935
 20
2.026162070312298
 30
0.0
  0
SPLINE
  5
7909
330
1F
100
AcDbEntity
  8
AM_0
100
AcDbSpline
210
0.0
220
0.0
230
1.0
 70
     8
 71
     3
 72
     8
 73
     4
 74
     0
 42
0.0000000001
 43
0.0000000001
 40
0.0
 40
0.0
 40
0.0
 40
0.0
 40
6.247244990625308
 40
6.247244990625308
 40
6.247244990625308
 40
6.247244990625308
 10
-13.96064147662899
 20
2.899999999992505
 30
0.0
 10
-14.96243328476839
 20
2.899999999992505
 30
0.0
 10
-15.92443187763868
 20
2.630469130013941
 30
0.0
 10
-16.86379377863196
 20
2.207613447909126
 30
0.0
  0
LINE
  5
790A
330
1F
100
AcDbEntity
  8
AM_5
  6
AM_ISO09W050
 62
     3
 48
0.5
100
AcDbLine
 10
-13.96064147662898
 20
2.899999999992499
 30
0.0
 11
-19.76694608063457
 21
2.899999999992499
 31
0.0
  0
SPLINE
  5
790B
330
1F
100
AcDbEntity
  8
AM_0
100
AcDbSpline
210
0.0
220
0.0
230
1.0
 70
     8
 71
     3
 72
     8
 73
     4
 74
     0
 42
0.0000000001
 43
0.0000000001
 40
22.73274810806179
 40
22.73274810806179
 40
22.73274810806179
 40
22.73274810806179
 40
28.97999309868792
 40
28.97999309868792
 40
28.97999309868792
 40
28.97999309868792
 10
-17.58540196646032
 20
-2.207613447923997
 30
0.0
 10
-18.52476386745372
 20
-2.630469130028894
 30
0.0
 10
-19.48676246032412
 20
-2.900000000007493
 30
0.0
 10
-20.48855426846366
 20
-2.900000000007493
 30
0.0
  0
LINE
  5
790C
330
1F
100
AcDbEntity
  8
AM_5
  6
AM_ISO09W050
 62
     3
 48
0.5
100
AcDbLine
 10
-14.68224966445683
 20
-2.9000000000075
 30
0.0
 11
-20.31618430850069
 21
-2.9000000000075
 31
0.0
  0
SPLINE
  5
790D
330
1F
100
AcDbEntity
  8
AM_0
100
AcDbSpline
210
0.0
220
0.0
230
1.0
 70
     8
 71
     3
 72
     9
 73
     5
 74
     0
 42
0.0000000001
 43
0.0000000001
 40
0.0
 40
0.0
 40
0.0
 40
0.0
 40
0.1987770877846628
 40
5.759128114445015
 40
5.759128114445015
 40
5.759128114445015
 40
5.759128114445015
 10
-27.67178535440724
 20
2.583241375071716
 30
0.0
 10
-27.70366072642918
 20
2.583241375071716
 30
0.0
 10
-28.62765227453158
 20
2.58681413454802
 30
0.0
 10
-29.52424245519715
 20
2.383361227478121
 30
0.0
 10
-30.37426860440777
 20
2.068931030066761
 30
0.0
  0
SPLINE
  5
790E
330
1F
100
AcDbEntity
  8
AM_0
100
AcDbSpline
210
0.0
220
0.0
230
1.0
 70
     8
 71
     3
 72
     8
 73
     4
 74
     0
 42
0.0000000001
 43
0.0000000001
 40
0.0
 40
0.0
 40
0.0
 40
0.0
 40
6.870645942600294
 40
6.870645942600294
 40
6.870645942600294
 40
6.870645942600294
 10
-27.76741147047649
 20
2.58324137507546
 30
0.0
 10
-26.66565839984071
 20
2.58750584254088
 30
0.0
 10
-25.55971198742669
 20
2.383156416211726
 30
0.0
 10
-24.48077751313684
 20
2.026162070312298
 30
0.0
  0
LINE
  5
790F
330
1F
100
AcDbEntity
  8
AM_5
  6
AM_ISO09W050
 62
     3
 48
0.5
100
AcDbLine
 10
-28.20725492364713
 20
2.899999999992499
 30
0.0
 11
-33.57371607448242
 21
2.899999999992499
 31
0.0
  0
SPLINE
  5
7910
330
1F
100
AcDbEntity
  8
AM_0
100
AcDbSpline
210
0.0
220
0.0
230
1.0
 70
     8
 71
     3
 72
     8
 73
     4
 74
     0
 42
0.0000000001
 43
0.0000000001
 40
0.0
 40
0.0
 40
0.0
 40
0.0
 40
6.247244990625308
 40
6.247244990625308
 40
6.247244990625308
 40
6.247244990625308
 10
-27.76741147047649
 20
2.899999999992505
 30
0.0
 10
-28.76920327861589
 20
2.899999999992505
 30
0.0
 10
-29.73120187148616
 20
2.630469130013941
 30
0.0
 10
-30.67056377247943
 20
2.207613447909126
 30
0.0
  0
SPLINE
  5
7911
330
1F
100
AcDbEntity
  8
AM_0
100
AcDbSpline
210
0.0
220
0.0
230
1.0
 70
     8
 71
     3
 72
     8
 73
     4
 74
     0
 42
0.0000000001
 43
0.0000000001
 40
22.73274810806179
 40
22.73274810806179
 40
22.73274810806179
 40
22.73274810806179
 40
28.97999309868792
 40
28.97999309868792
 40
28.97999309868792
 40
28.97999309868792
 10
-31.88943261516485
 20
-2.207613450509441
 30
0.0
 10
-32.84367426765224
 20
-2.630469132614337
 30
0.0
 10
-33.82091118345691
 20
-2.900000002592937
 30
0.0
 10
-34.83857165003155
 20
-2.900000002592937
 30
0.0
  0
LINE
  5
7912
330
1F
100
AcDbEntity
  8
AM_5
  6
AM_ISO09W050
 62
     3
 48
0.5
100
AcDbLine
 10
-28.9402935802982
 20
-2.900000002592943
 30
0.0
 11
-34.83857165003155
 21
-2.900000002592943
 31
0.0
  0
SPLINE
  5
7913
330
1F
100
AcDbEntity
  8
AM_0
100
AcDbSpline
210
0.0
220
0.0
230
1.0
 70
     8
 71
     3
 72
     9
 73
     5
 74
     0
 42
0.0000000001
 43
0.0000000001
 40
0.0
 40
0.0
 40
0.0
 40
0.0
 40
1.448999654934392
 40
1.692872608825329
 40
1.692872608825329
 40
1.692872608825329
 40
1.692872608825329
 10
-28.9402935802982
 20
-2.900000002592937
 30
0.0
 10
-31.30067750492362
 20
-2.900000002592937
 30
0.0
 10
-33.80425634062828
 20
-1.205958686269849
 30
0.0
 10
-36.30783517633293
 20
0.4880826300532391
 30
0.0
 10
-36.66953414445909
 20
0.7252111451037604
 30
0.0
  0
LINE
  5
7914
330
1F
100
AcDbEntity
  8
AM_0
100
AcDbLine
 10
-19.76694608061166
 20
2.899999999992499
 30
0.0
 11
-28.20725492364713
 21
2.899999999992499
 31
0.0
  0
LINE
  5
7915
330
1F
100
AcDbEntity
  8
AM_0
100
AcDbLine
 10
-20.08005995630288
 20
-2.9000000000075
 30
0.0
 11
-28.94126980813945
 21
-2.9000000000075
 31
0.0
  0
SPLINE
  5
7916
330
1F
100
AcDbEntity
  8
AM_0
100
AcDbSpline
210
0.0
220
0.0
230
1.0
 70
     8
 71
     3
 72
     9
 73
     5
 74
     0
 42
0.0000000001
 43
0.0000000001
 40
0.0
 40
0.0
 40
0.0
 40
0.0
 40
1.448999654934392
 40
2.897999309868792
 40
2.897999309868792
 40
2.897999309868792
 40
2.897999309868792
 10
-14.76309211677071
 20
-2.899415945625417
 30
0.0
 10
-17.00582747593776
 20
-2.900000000007493
 30
0.0
 10
-21.22483056746673
 20
-0.0000000000075771
 30
0.0
 10
-25.44383365899571
 20
2.899999999992505
 30
0.0
 10
-27.76741147047649
 20
2.899999999992505
 30
0.0
  0
SPLINE
  5
7917
330
1F
100
AcDbEntity
  8
AM_0
100
AcDbSpline
210
0.0
220
0.0
230
1.0
 70
     8
 71
     3
 72
     9
 73
     5
 74
     0
 42
0.0000000001
 43
0.0000000001
 40
1.521176736886217
 40
1.521176736886217
 40
1.521176736886217
 40
1.521176736886217
 40
14.48999654934396
 40
28.97999309868792
 40
28.97999309868792
 40
28.97999309868792
 40
28.97999309868792
 10
-14.68224966445683
 20
-2.900000000007493
 30
0.0
 10
-16.72713515311838
 20
-2.595554617846931
 30
0.0
 10
-20.72468031214102
 20
0.1522226910727809
 30
0.0
 10
-24.72222547116359
 20
2.899999999992505
 30
0.0
 10
-27.04580328264434
 20
2.899999999992505
 30
0.0
  0
SPLINE
  5
7918
330
1F
100
AcDbEntity
  8
AM_0
100
AcDbSpline
210
0.0
220
0.0
230
1.0
 70
     8
 71
     3
 72
     9
 73
     5
 74
     0
 42
0.0000000001
 43
0.0000000001
 40
0.0
 40
0.0
 40
0.0
 40
0.0
 40
1.448999654934399
 40
2.897999309868795
 40
2.897999309868795
 40
2.897999309868795
 40
2.897999309868795
 10
-20.48855426846293
 20
-2.900000000007493
 30
0.0
 10
-22.81213207994368
 20
-2.900000000007493
 30
0.0
 10
-27.03113517147268
 20
-0.0000000000075771
 30
0.0
 10
-31.25013826300165
 20
2.899999999992505
 30
0.0
 10
-33.57371607448241
 20
2.899999999992505
 30
0.0
  0
SPLINE
  5
7919
330
1F
100
AcDbEntity
  8
AM_0
100
AcDbSpline
210
0.0
220
0.0
230
1.0
 70
     8
 71
     3
 72
     8
 73
     4
 74
     0
 42
0.0000000001
 43
0.0000000001
 40
2.893239258405414
 40
2.893239258405414
 40
2.893239258405414
 40
2.893239258405414
 40
2.897999309868792
 40
2.897999309868792
 40
2.897999309868792
 40
2.897999309868792
 10
-42.20947297801493
 20
2.899953105254708
 30
0.0
 10
-42.21722229596024
 20
2.899984349554909
 30
0.0
 10
-42.22497395302094
 20
2.89999999740706
 30
0.0
 10
-42.23272795690649
 20
2.89999999740706
 30
0.0
  0
LINE
  5
791A
330
1F
100
AcDbEntity
  8
AM_0
100
AcDbLine
 10
-42.03731516761723
 20
-2.900000000000378
 30
0.0
 11
-42.03731516761716
 21
2.89999999999963
 31
0.0
  0
SPLINE
  5
791B
330
1F
100
AcDbEntity
  8
AM_0
100
AcDbSpline
210
0.0
220
0.0
230
1.0
 70
     8
 71
     3
 72
     8
 73
     4
 74
     0
 42
0.0000000001
 43
0.0000000001
 40
0.0
 40
0.0
 40
0.0
 40
0.0
 40
10.77533687840354
 40
10.77533687840354
 40
10.77533687840354
 40
10.77533687840354
 10
-34.83857165385677
 20
-2.900000000007493
 30
0.0
 10
-36.59384687863653
 20
-2.900000000007493
 30
0.0
 10
-38.22886268548931
 20
-2.098149966560803
 30
0.0
 10
-39.83304875347347
 20
-1.090737428579063
 30
0.0
  0
SPLINE
  5
791C
330
1F
100
AcDbEntity
  8
AM_0
100
AcDbSpline
210
0.0
220
0.0
230
1.0
 70
     8
 71
     3
 72
     9
 73
     5
 74
     0
 42
0.0000000001
 43
0.0000000001
 40
1.521176736886217
 40
1.521176736886217
 40
1.521176736886217
 40
1.521176736886217
 40
14.48999654934396
 40
28.97999309868792
 40
28.97999309868792
 40
28.97999309868792
 40
28.97999309868792
 10
-28.9402935802982
 20
-2.900000002592937
 30
0.0
 10
-31.01757061887544
 20
-2.595554620432373
 30
0.0
 10
-35.07843799534093
 20
0.1522226884873375
 30
0.0
 10
-39.13930537180635
 20
2.89999999740706
 30
0.0
 10
-41.49968929643176
 20
2.89999999740706
 30
0.0
  0
SPLINE
  5
791D
330
1F
100
AcDbEntity
  8
AM_0
100
AcDbSpline
210
0.0
220
0.0
230
1.0
 70
     8
 71
     3
 72
    10
 73
     6
 74
     0
 42
0.0000000001
 43
0.0000000001
 40
0.0
 40
0.0
 40
0.0
 40
0.0
 40
0.6447675857635071
 40
1.316546974011651
 40
1.777238964087921
 40
1.777238964087921
 40
1.777238964087921
 40
1.777238964087921
 10
-39.83304139486786
 20
-1.090742049706979
 30
0.0
 10
-40.76140209993901
 20
-0.507741365332744
 30
0.0
 10
-43.65507297093599
 20
2.363581187594506
 30
0.0
 10
-38.72849838937409
 20
1.95926514759727
 30
0.0
 10
-37.32610687228052
 20
1.155665996282918
 30
0.0
 10
-36.66931161265718
 20
0.7250652530220791
 30
0.0
  0
SPLINE
  5
791E
330
1F
100
AcDbEntity
  8
AM_0
100
AcDbSpline
210
0.0
220
0.0
230
1.0
 70
     8
 71
     3
 72
     9
 73
     5
 74
     0
 42
0.0000000001
 43
0.0000000001
 40
1.521176736886217
 40
1.521176736886217
 40
1.521176736886217
 40
1.521176736886217
 40
14.48999654934396
 40
28.97999309868792
 40
28.97999309868792
 40
28.97999309868792
 40
28.97999309868792
 10
-1.056005015815818
 20
-2.805596373822628
 30
0.0
 10
-2.920365159271082
 20
-2.595554617846931
 30
0.0
 10
-6.91791031829372
 20
0.1522226910727809
 30
0.0
 10
-10.91545547731629
 20
2.899999999992505
 30
0.0
 10
-13.23903328879703
 20
2.899999999992505
 30
0.0
  0
SPLINE
  5
791F
330
1F
100
AcDbEntity
  8
AM_0
100
AcDbSpline
210
0.0
220
0.0
230
1.0
 70
     8
 71
     3
 72
     9
 73
     5
 74
     0
 42
0.0000000001
 43
0.0000000001
 40
0.0
 40
0.0
 40
0.0
 40
0.0
 40
1.448999654934392
 40
2.897999309868792
 40
2.897999309868792
 40
2.897999309868792
 40
2.897999309868792
 10
-1.05551367940717
 20
-2.9000000000075
 30
0.0
 10
-3.199057482090279
 20
-2.900000000007493
 30
0.0
 10
-7.418060573619255
 20
-0.0000000000075771
 30
0.0
 10
-11.63706366514823
 20
2.899999999992505
 30
0.0
 10
-13.96064147662899
 20
2.899999999992505
 30
0.0
  0
SPLINE
  5
7920
330
1F
100
AcDbEntity
  8
AM_0
100
AcDbSpline
210
0.0
220
0.0
230
1.0
 70
     8
 71
     3
 72
     9
 73
     5
 74
     0
 42
0.0000000001
 43
0.0000000001
 40
0.0
 40
0.0
 40
0.0
 40
0.0
 40
1.448999654934399
 40
2.897999309868795
 40
2.897999309868795
 40
2.897999309868795
 40
2.897999309868795
 10
-6.681784274615449
 20
-2.900000000007493
 30
0.0
 10
-9.005362086096209
 20
-2.900000000007493
 30
0.0
 10
-13.22436517762518
 20
-0.0000000000075771
 30
0.0
 10
-17.44336826915417
 20
2.899999999992505
 30
0.0
 10
-19.76694608063493
 20
2.899999999992505
 30
0.0
  0
LINE
  5
7921
330
1F
100
AcDbEntity
  8
AM_0
100
AcDbLine
 10
-6.681784274615425
 20
-2.9000000000075
 30
0.0
 11
-14.68224966445683
 21
-2.9000000000075
 31
0.0
  0
LINE
  5
7922
330
1F
100
AcDbEntity
  8
AM_0
100
AcDbLine
 10
-6.681784274615425
 20
2.899999999992499
 30
0.0
 11
-13.96064147662828
 21
2.899999999992499
 31
0.0
  0
VIEWPORT
  5
E2
330
1B
100
AcDbEntity
 67
     1
  8
0
100
AcDbViewport
 10
158.659971393327
 20
148.5
 30
0.0
 40
581.809078125
 41
314.226
 68
     1
 69
     1
1001
ACAD
1000
MVIEW
1002
{
1070
    16
1010
0.0
1020
0.0
1030
0.0
1010
0.0
1020
0.0
1030
1.0
1040
0.0
1040
314.226
1040
158.659971393327
1040
148.5
1040
50.0
1040
0.0
1040
0.0
1070
     0
1070
   100
1070
     1
1070
     1
1070
     0
1070
     0
1070
     0
1070
     0
1040
0.0
1040
0.0
1040
0.0
1040
10.0
1040
10.0
1040
10.0
1040
10.0
1070
     0
1002
{
1002
}
1002
}
  0
ENDSEC
  0
SECTION
  2
OBJECTS
  0
DICTIONARY
  5
C
330
0
100
AcDbDictionary
  3
ACAD_GROUP
350
D
  3
ACAD_LAYOUT
350
1A
  3
ACAD_MLINESTYLE
350
17
  3
ACAD_PLOTSETTINGS
350
19
  3
ACAD_PLOTSTYLENAME
350
E
  3
ACDBVARIABLEDICTIONARY
350
34
  3
ACMDICTIONARY
350
43
  3
AMG
350
2B
  3
AMGSNAPSETTINGS
350
6E
  3
DWGPROPS
350
79AF
  3
ACDBHEADERROUNDTRIPXREC
350
79BC
  0
DICTIONARY
  5
74
330
1F
100
AcDbDictionary
280
     1
  3
ACAD_INDEX
360
79B1
  3
ACAD_LAYOUTSELFREF
360
79DF
  0
DICTIONARY
  5
79DD
330
1B
100
AcDbDictionary
280
     1
  3
ACAD_LAYOUTSELFREF
360
79DE
  0
DICTIONARY
  5
D
102
{ACAD_REACTORS
330
C
102
}
330
C
100
AcDbDictionary
  0
DICTIONARY
  5
1A
102
{ACAD_REACTORS
330
C
102
}
330
C
100
AcDbDictionary
  0
DICTIONARY
  5
17
102
{ACAD_REACTORS
330
C
102
}
330
C
100
AcDbDictionary
  3
STANDARD
350
18
  0
DICTIONARY
  5
19
102
{ACAD_REACTORS
330
C
102
}
330
C
100
AcDbDictionary
  0
ACDBDICTIONARYWDFLT
  5
E
102
{ACAD_REACTORS
330
C
102
}
330
C
100
AcDbDictionary
281
     1
  3
Normal
350
F
100
AcDbDictionaryWithDefault
340
F
  0
DICTIONARY
  5
34
102
{ACAD_REACTORS
330
C
102
}
330
C
100
AcDbDictionary
  3
INDEXCTL
350
35
  3
SORTENTS
350
B5E
  0
DICTIONARY
  5
43
102
{ACAD_REACTORS
330
C
102
}
330
C
100
AcDbDictionary
  3
ACMSTDDICTIONARY
350
260
  0
DICTIONARY
  5
2B
102
{ACAD_REACTORS
330
C
102
}
330
C
100
AcDbDictionary
  3
ACMGSETTINGS
350
2C
  0
DICTIONARY
  5
6E
102
{ACAD_REACTORS
330
C
102
}
330
C
100
AcDbDictionary
  0
XRECORD
  5
79AF
102
{ACAD_REACTORS
330
C
102
}
330
C
100
AcDbXrecord
  1
DWGPROPS COOKIE
  2

  3

  4

  6

  7

  8

  9

300
AmdtFileType=82
301
=
302
=
303
=
304
=
305
=
306
=
307
=
308
=
309
=
 40
1.423641944444444
 41
2452838.620506898
 42
2452950.788475174
  1

 90
        1
  0
DICTIONARY
  5
79BC
102
{ACAD_REACTORS
330
C
102
}
330
C
100
AcDbDictionary
  3
TSTACKALIGN
350
79BD
  3
TSTACKSIZE
350
79BE
  3
HYPERLINKBASE
350
79BF
  3
STYLESHEET
350
79C0
  3
LAYOUTDICT
350
79C1
  3
PLOTSETDICT
350
79C2
  3
PLOTSTYLNAMDICT
350
79C3
  3
LWETCUNION
350
79C4
  3
INSUNITS
350
79C5
  3
CEPSNTYPE
350
79C6
  3
FINGERPRINTGUID
350
79C7
  3
VERSIONGUID
350
79C8
  3
PSVPSCALE
350
79C9
  3
DIMSTYLEDATA
350
79CA
  3
PUCSORTHOREF
350
79CB
  3
PUCSORTHOVIEW
350
79CC
  3
PUCSBASE
350
79CD
  3
PUCSORGTOP
350
79CE
  3
PUCSORGBOTTOM
350
79CF
  3
PUCSORGLEFT
350
79D0
  3
PUCSORGRIGHT
350
79D1
  3
PUCSORGFRONT
350
79D2
  3
PUCSORGBACK
350
79D3
  3
UCSORTHOREF
350
79D4
  3
UCSORTHOVIEW
350
79D5
  3
UCSBASE
350
79D6
  3
UCSORGTOP
350
79D7
  3
UCSORGBOTTOM
350
79D8
  3
UCSORGLEFT
350
79D9
  3
UCSORGRIGHT
350
79DA
  3
UCSORGFRONT
350
79DB
  3
UCSORGBACK
350
79DC
  0
DICTIONARY
  5
79B1
102
{ACAD_REACTORS
330
74
102
}
330
74
100
AcDbDictionary
  3
*A1
350
79B2
  0
XRECORD
  5
79DF
102
{ACAD_REACTORS
330
74
102
}
330
74
100
AcDbXrecord
340
1F
  0
XRECORD
  5
79DE
102
{ACAD_REACTORS
330
79DD
102
}
330
79DD
100
AcDbXrecord
340
1B
  0
MLINESTYLE
  5
18
102
{ACAD_REACTORS
330
17
102
}
330
17
100
AcDbMlineStyle
  2
STANDARD
 70
     0
  3

 62
   256
 51
90.0
 52
90.0
 71
     2
 49
0.5
 62
   256
  6
BYLAYER
 49
-0.5
 62
   256
  6
BYLAYER
  0
ACDBPLACEHOLDER
  5
F
102
{ACAD_REACTORS
330
E
102
}
330
E
100
AcDbPlaceHolder
280
     0
  0
DICTIONARYVAR
  5
35
102
{ACAD_REACTORS
330
34
102
}
330
34
100
DictionaryVariables
280
     0
  1
1
  0
DICTIONARYVAR
  5
B5E
102
{ACAD_REACTORS
330
34
102
}
330
34
100
DictionaryVariables
280
     0
  1
96
  0
DICTIONARY
  5
260
102
{ACAD_REACTORS
330
43
102
}
330
43
100
AcDbDictionary
  0
DICTIONARY
  5
2C
102
{ACAD_REACTORS
330
2B
102
}
330
2B
100
AcDbDictionary
  3
DWGSETTINGS
350
2D
  0
XRECORD
  5
79BD
102
{ACAD_REACTORS
330
79BC
102
}
330
79BC
100
AcDbXrecord
 90
        1
  0
XRECORD
  5
79BE
102
{ACAD_REACTORS
330
79BC
102
}
330
79BC
100
AcDbXrecord
 90
       70
  0
XRECORD
  5
79BF
102
{ACAD_REACTORS
330
79BC
102
}
330
79BC
100
AcDbXrecord
  1

  0
XRECORD
  5
79C0
102
{ACAD_REACTORS
330
79BC
102
}
330
79BC
100
AcDbXrecord
  1
ASAMI.ctb
  0
XRECORD
  5
79C1
102
{ACAD_REACTORS
330
79BC
102
}
330
79BC
100
AcDbXrecord
340
1A
  0
XRECORD
  5
79C2
102
{ACAD_REACTORS
330
79BC
102
}
330
79BC
100
AcDbXrecord
340
19
  0
XRECORD
  5
79C3
102
{ACAD_REACTORS
330
79BC
102
}
330
79BC
100
AcDbXrecord
340
E
  0
XRECORD
  5
79C4
102
{ACAD_REACTORS
330
79BC
102
}
330
79BC
100
AcDbXrecord
 90
    10781
  0
XRECORD
  5
79C5
102
{ACAD_REACTORS
330
79BC
102
}
330
79BC
100
AcDbXrecord
 90
        4
  0
XRECORD
  5
79C6
102
{ACAD_REACTORS
330
79BC
102
}
330
79BC
100
AcDbXrecord
 90
        0
  0
XRECORD
  5
79C7
102
{ACAD_REACTORS
330
79BC
102
}
330
79BC
100
AcDbXrecord
  1
{AFB28963-8C59-40AE-9337-C84526B81ACE}
  0
XRECORD
  5
79C8
102
{ACAD_REACTORS
330
79BC
102
}
330
79BC
100
AcDbXrecord
  1
{1304258C-44D0-440C-A903-06DBAB8D6704}
  0
XRECORD
  5
79C9
102
{ACAD_REACTORS
330
79BC
102
}
330
79BC
100
AcDbXrecord
 40
0.0
  0
XRECORD
  5
79CA
102
{ACAD_REACTORS
330
79BC
102
}
330
79BC
100
AcDbXrecord
1000
DSTYLE
1002
{
1070
    79
 70
     2
1070
   341
340
59
1070
   342
340
59
1070
   371
 70
    -1
1070
   372
 70
    -1
1002
}
  0
XRECORD
  5
79CB
102
{ACAD_REACTORS
330
79BC
102
}
330
79BC
100
AcDbXrecord
340
0
  0
XRECORD
  5
79CC
102
{ACAD_REACTORS
330
79BC
102
}
330
79BC
100
AcDbXrecord
 70
     0
  0
XRECORD
  5
79CD
102
{ACAD_REACTORS
330
79BC
102
}
330
79BC
100
AcDbXrecord
340
0
  0
XRECORD
  5
79CE
102
{ACAD_REACTORS
330
79BC
102
}
330
79BC
100
AcDbXrecord
 10
0.0
 20
0.0
 30
0.0
  0
XRECORD
  5
79CF
102
{ACAD_REACTORS
330
79BC
102
}
330
79BC
100
AcDbXrecord
 10
0.0
 20
0.0
 30
0.0
  0
XRECORD
  5
79D0
102
{ACAD_REACTORS
330
79BC
102
}
330
79BC
100
AcDbXrecord
 10
0.0
 20
0.0
 30
0.0
  0
XRECORD
  5
79D1
102
{ACAD_REACTORS
330
79BC
102
}
330
79BC
100
AcDbXrecord
 10
0.0
 20
0.0
 30
0.0
  0
XRECORD
  5
79D2
102
{ACAD_REACTORS
330
79BC
102
}
330
79BC
100
AcDbXrecord
 10
0.0
 20
0.0
 30
0.0
  0
XRECORD
  5
79D3
102
{ACAD_REACTORS
330
79BC
102
}
330
79BC
100
AcDbXrecord
 10
0.0
 20
0.0
 30
0.0
  0
XRECORD
  5
79D4
102
{ACAD_REACTORS
330
79BC
102
}
330
79BC
100
AcDbXrecord
340
0
  0
XRECORD
  5
79D5
102
{ACAD_REACTORS
330
79BC
102
}
330
79BC
100
AcDbXrecord
 70
     0
  0
XRECORD
  5
79D6
102
{ACAD_REACTORS
330
79BC
102
}
330
79BC
100
AcDbXrecord
340
0
  0
XRECORD
  5
79D7
102
{ACAD_REACTORS
330
79BC
102
}
330
79BC
100
AcDbXrecord
 10
0.0
 20
0.0
 30
0.0
  0
XRECORD
  5
79D8
102
{ACAD_REACTORS
330
79BC
102
}
330
79BC
100
AcDbXrecord
 10
0.0
 20
0.0
 30
0.0
  0
XRECORD
  5
79D9
102
{ACAD_REACTORS
330
79BC
102
}
330
79BC
100
AcDbXrecord
 10
0.0
 20
0.0
 30
0.0
  0
XRECORD
  5
79DA
102
{ACAD_REACTORS
330
79BC
102
}
330
79BC
100
AcDbXrecord
 10
0.0
 20
0.0
 30
0.0
  0
XRECORD
  5
79DB
102
{ACAD_REACTORS
330
79BC
102
}
330
79BC
100
AcDbXrecord
 10
0.0
 20
0.0
 30
0.0
  0
XRECORD
  5
79DC
102
{ACAD_REACTORS
330
79BC
102
}
330
79BC
100
AcDbXrecord
 10
0.0
 20
0.0
 30
0.0
  0
LAYER_INDEX
  5
79B2
102
{ACAD_REACTORS
330
79B1
102
}
330
79B1
100
AcDbIndex
 40
2453151.622694027
100
AcDbLayerIndex
  8
0
360
79B3
 90
        0
  8
AM_0
360
79B4
 90
       47
  8
AM_11
360
79B5
 90
        0
  8
AM_7
360
79B6
 90
        1
  8
AM_5
360
79B7
 90
       10
  8
Defpoints
360
79B8
 90
        0
  8
AM_6
360
79B9
 90
        1
  8
AM_CL
360
79BA
 90
        0
  0
XRECORD
  5
2D
102
{ACAD_REACTORS
330
2C
102
}
330
2C
100
AcDbXrecord
  1
VERSION
140
15.0
  1
PRODUCT
  2
AutoCAD Mechanical 2000
  0
IDBUFFER
  5
79B3
330
0
100
AcDbIdBuffer
  0
IDBUFFER
  5
79B4
330
0
100
AcDbIdBuffer
330
78FF
330
7900
330
7901
330
7902
330
7903
330
7905
330
7906
330
7907
330
7908
330
7909
330
790B
330
790D
330
790E
330
7910
330
7911
330
7913
330
7914
330
7915
330
7916
330
7917
330
7918
330
7919
330
791A
330
791B
330
791C
330
791D
330
791E
330
791F
330
7920
330
7921
330
7922
330
631C
330
631D
330
6343
330
6348
330
6349
330
634B
330
634C
330
63DB
330
647D
330
647E
330
647F
330
6CBA
330
6CBE
330
6CC0
330
6CC1
330
6FB4
  0
IDBUFFER
  5
79B5
330
0
100
AcDbIdBuffer
  0
IDBUFFER
  5
79B6
330
0
100
AcDbIdBuffer
330
6320
  0
IDBUFFER
  5
79B7
330
0
100
AcDbIdBuffer
330
634F
330
63C1
330
640B
330
6418
330
78FE
330
7904
330
790A
330
790C
330
790F
330
7912
  0
IDBUFFER
  5
79B8
330
0
100
AcDbIdBuffer
  0
IDBUFFER
  5
79B9
330
0
100
AcDbIdBuffer
330
C58
  0
IDBUFFER
  5
79BA
330
0
100
AcDbIdBuffer
  0
ENDSEC
  0
EOF
