  0
SECTION
  2
HEADER
  9
$ACADVER
  1
AC1014
  9
$ACADMAINTVER
 70
     9
  9
$DWGCODEPAGE
  3
ANSI_932
  9
$INSBASE
 10
0.0
 20
0.0
 30
0.0
  9
$EXTMIN
 10
-81.88517110031609
 20
-31.34338786225658
 30
-0.00000001
  9
$EXTMAX
 10
20.27015204268865
 20
19.59368056864974
 30
0.00000001
  9
$LIMMIN
 10
-93.83179124755054
 20
-40.96412906809905
  9
$LIMMAX
 10
34.20836598827247
 20
28.73879528264547
  9
$ORTHOMODE
 70
     0
  9
$REGENMODE
 70
     1
  9
$FILLMODE
 70
     1
  9
$QTEXTMODE
 70
     0
  9
$MIRRTEXT
 70
     0
  9
$DRAGMODE
 70
     2
  9
$LTSCALE
 40
0.2
  9
$OSMODE
 70
    55
  9
$ATTMODE
 70
     1
  9
$TEXTSIZE
 40
2.5
  9
$TRACEWID
 40
1.0
  9
$TEXTSTYLE
  7
STANDARD
  9
$CLAYER
  8
AM_5
  9
$CELTYPE
  6
BYLAYER
  9
$CECOLOR
 62
   256
  9
$CELTSCALE
 40
1.0
  9
$DELOBJ
 70
     1
  9
$DISPSILH
 70
     0
  9
$DIMSCALE
 40
0.5
  9
$DIMASZ
 40
2.5
  9
$DIMEXO
 40
1.0
  9
$DIMDLI
 40
12.0
  9
$DIMRND
 40
0.0
  9
$DIMDLE
 40
0.0
  9
$DIMEXE
 40
1.0
  9
$DIMTP
 40
0.1
  9
$DIMTM
 40
0.1
  9
$DIMTXT
 40
3.2
  9
$DIMCEN
 40
0.0
  9
$DIMTSZ
 40
0.0
  9
$DIMTOL
 70
     0
  9
$DIMLIM
 70
     0
  9
$DIMTIH
 70
     0
  9
$DIMTOH
 70
     0
  9
$DIMSE1
 70
     0
  9
$DIMSE2
 70
     0
  9
$DIMTAD
 70
     3
  9
$DIMZIN
 70
     1
  9
$DIMBLK
  1
OPEN30
  9
$DIMASO
 70
     1
  9
$DIMSHO
 70
     1
  9
$DIMPOST
  1

  9
$DIMAPOST
  1
"
  9
$DIMALT
 70
     0
  9
$DIMALTD
 70
     2
  9
$DIMALTF
 40
0.0393701
  9
$DIMLFAC
 40
1.0
  9
$DIMTOFL
 70
     1
  9
$DIMTVP
 40
0.0
  9
$DIMTIX
 70
     0
  9
$DIMSOXD
 70
     0
  9
$DIMSAH
 70
     0
  9
$DIMBLK1
  1

  9
$DIMBLK2
  1

  9
$DIMSTYLE
  2
AM_JIS
  9
$DIMCLRD
 70
     3
  9
$DIMCLRE
 70
     3
  9
$DIMCLRT
 70
     2
  9
$DIMTFAC
 40
0.71
  9
$DIMGAP
 40
1.5
  9
$DIMJUST
 70
     0
  9
$DIMSD1
 70
     0
  9
$DIMSD2
 70
     0
  9
$DIMTOLJ
 70
     0
  9
$DIMTZIN
 70
     0
  9
$DIMALTZ
 70
     0
  9
$DIMALTTZ
 70
     0
  9
$DIMFIT
 70
     3
  9
$DIMUPT
 70
     0
  9
$DIMUNIT
 70
     2
  9
$DIMDEC
 70
     1
  9
$DIMTDEC
 70
     1
  9
$DIMALTU
 70
     2
  9
$DIMALTTD
 70
     2
  9
$DIMTXSTY
  7
ASAMI
  9
$DIMAUNIT
 70
     0
  9
$LUNITS
 70
     2
  9
$LUPREC
 70
     2
  9
$SKETCHINC
 40
1.0
  9
$FILLETRAD
 40
0.8
  9
$AUNITS
 70
     0
  9
$AUPREC
 70
     0
  9
$MENU
  1
.
  9
$ELEVATION
 40
0.0
  9
$PELEVATION
 40
0.0
  9
$THICKNESS
 40
0.0
  9
$LIMCHECK
 70
     0
  9
$BLIPMODE
 70
     0
  9
$CHAMFERA
 40
1.0
  9
$CHAMFERB
 40
1.0
  9
$CHAMFERC
 40
20.0
  9
$CHAMFERD
 40
0.0
  9
$SKPOLY
 70
     0
  9
$TDCREATE
 40
2452838.620506898
  9
$TDUPDATE
 40
2453151.598732083
  9
$TDINDWG
 40
1.3584849306
  9
$TDUSRTIMER
 40
1.3584849306
  9
$USRTIMER
 70
     1
  9
$ANGBASE
 50
0.0
  9
$ANGDIR
 70
     0
  9
$PDMODE
 70
     0
  9
$PDSIZE
 40
0.0
  9
$PLINEWID
 40
0.0
  9
$COORDS
 70
     1
  9
$SPLFRAME
 70
     0
  9
$SPLINETYPE
 70
     6
  9
$SPLINESEGS
 70
     8
  9
$ATTDIA
 70
     1
  9
$ATTREQ
 70
     1
  9
$HANDLING
 70
 12289
  9
$HANDSEED
  5
7C99
  9
$SURFTAB1
 70
     6
  9
$SURFTAB2
 70
     6
  9
$SURFTYPE
 70
     6
  9
$SURFU
 70
     6
  9
$SURFV
 70
     6
  9
$UCSNAME
  2

  9
$UCSORG
 10
0.0
 20
0.0
 30
0.0
  9
$UCSXDIR
 10
1.0
 20
0.0
 30
0.0
  9
$UCSYDIR
 10
0.0
 20
1.0
 30
0.0
  9
$PUCSNAME
  2

  9
$PUCSORG
 10
0.0
 20
0.0
 30
0.0
  9
$PUCSXDIR
 10
1.0
 20
0.0
 30
0.0
  9
$PUCSYDIR
 10
0.0
 20
1.0
 30
0.0
  9
$USERI1
 70
     0
  9
$USERI2
 70
     0
  9
$USERI3
 70
     0
  9
$USERI4
 70
     0
  9
$USERI5
 70
     0
  9
$USERR1
 40
0.0
  9
$USERR2
 40
0.0
  9
$USERR3
 40
0.0
  9
$USERR4
 40
0.0
  9
$USERR5
 40
0.0
  9
$WORLDVIEW
 70
     1
  9
$SHADEDGE
 70
     3
  9
$SHADEDIF
 70
    70
  9
$TILEMODE
 70
     1
  9
$MAXACTVP
 70
    64
  9
$PINSBASE
 10
0.0
 20
0.0
 30
0.0
  9
$PLIMCHECK
 70
     0
  9
$PEXTMIN
 10
1.000000000000000E+20
 20
1.000000000000000E+20
 30
1.000000000000000E+20
  9
$PEXTMAX
 10
-1.000000000000000E+20
 20
-1.000000000000000E+20
 30
-1.000000000000000E+20
  9
$PLIMMIN
 10
0.0
 20
0.0
  9
$PLIMMAX
 10
210.0
 20
297.0
  9
$UNITMODE
 70
     0
  9
$VISRETAIN
 70
     1
  9
$PLINEGEN
 70
     0
  9
$PSLTSCALE
 70
     1
  9
$TREEDEPTH
 70
  3020
  9
$PICKSTYLE
 70
     0
  9
$CMLSTYLE
  2
STANDARD
  9
$CMLJUST
 70
     0
  9
$CMLSCALE
 40
20.0
  9
$PROXYGRAPHICS
 70
     1
  9
$MEASUREMENT
 70
     1
  0
ENDSEC
  0
SECTION
  2
CLASSES
  0
CLASS
  1
ACDBDICTIONARYWDFLT
  2
AcDbDictionaryWithDefault
  3
AutoCAD 2000
 90
        0
280
     0
281
     0
  0
CLASS
  1
ACDBPLACEHOLDER
  2
AcDbPlaceHolder
  3
AutoCAD 2000
 90
        0
280
     0
281
     0
  0
CLASS
  1
LAYOUT
  2
AcDbLayout
  3
AutoCAD 2000
 90
        0
280
     0
281
     0
  0
CLASS
  1
AMGSETTINGSOBJ
  2
AmgSettingsObj
  3
"AcadM|Product Description: AutoCAD Mechanical 2000|Company: Autodesk"
 90
        0
280
     0
281
     0
  0
CLASS
  1
ACME_DOCUMENT
  2
AcMeDbDoc
  3
AcMeServices
 90
        0
280
     0
281
     0
  0
CLASS
  1
ACMESCOPE
  2
AcMeScope
  3
AcMeServices
 90
        0
280
     0
281
     0
  0
CLASS
  1
ACMECOMMANDHISTORY
  2
AcMeCommandHistory
  3
AcMeServices
 90
        0
280
     0
281
     0
  0
CLASS
  1
DICTIONARYVAR
  2
AcDbDictionaryVar
  3
AutoCAD 2000
 90
        0
280
     0
281
     0
  0
CLASS
  1
ACIMSYSVARMAN
  2
AcImSysVarManager
  3
AcMeServices
 90
        0
280
     0
281
     0
  0
CLASS
  1
ACIMREALSYSVAR
  2
AcImRealSysVar
  3
AcMeServices
 90
        0
280
     0
281
     0
  0
CLASS
  1
ACIMINTSYSVAR
  2
AcImIntSysVar
  3
AcMeServices
 90
        0
280
     0
281
     0
  0
CLASS
  1
ACMEDRAWINGMAN
  2
AcMeDrawingMan
  3
AcMeServices
 90
        0
280
     0
281
     0
  0
CLASS
  1
ACMEVIEW
  2
AcMeView
  3
AcMeServices
 90
        0
280
     0
281
     0
  0
CLASS
  1
ACDBENTITYCACHE
  2
AcMeEntityCache
  3
AcMeServices
 90
        0
280
     0
281
     0
  0
CLASS
  1
GSMANAGER
  2
AcMeGSManager
  3
AcMeServices
 90
        0
280
     0
281
     0
  0
CLASS
  1
AmdtInternalReactor
  2
AmdtInternalReactor
  3
AcMeServices
 90
        0
280
     0
281
     0
  0
CLASS
  1
ACMESTATEMGR
  2
AcMeStateMgr
  3
AcMeServices
 90
        0
280
     0
281
     0
  0
CLASS
  1
ACME_DATABASE
  2
AcMeDbDatabase
  3
AcMeServices
 90
        0
280
     0
281
     0
  0
CLASS
  1
ACRFINSADJUSTERMGR
  2
AcRfInsAdjusterMgr
  3
AcMeServices
 90
        0
280
     0
281
     0
  0
CLASS
  1
ACMDATADICTIONARY
  2
AcmDataDictionary
  3
"AcmSymBB|Product Description: AutoCAD Mechanical 2000|Company: Autodesk"
 90
        0
280
     0
281
     0
  0
CLASS
  1
ACMDATAENTRYBLOCK
  2
AcmDataEntryBlock
  3
"AcmSymBB|Product Description: AutoCAD Mechanical 2000|Company: Autodesk"
 90
        0
280
     0
281
     0
  0
CLASS
  1
AMGOBJPROPCFG
  2
AmgObjPropCfg
  3
"AmgLay|Product Description: AutoCAD Mechanical 2000|Company: Autodesk"
 90
        1
280
     0
281
     0
  0
CLASS
  1
ACAMGFILTERDAT
  2
AcAmgFilterDat
  3
"AcadM|Product Description: AutoCAD Mechanical 2000|Company: Autodesk"
 90
        0
280
     0
281
     0
  0
CLASS
  1
LAYER_INDEX
  2
AcDbLayerIndex
  3
AutoCAD 2000
 90
        0
280
     0
281
     0
  0
CLASS
  1
IDBUFFER
  2
AcDbIdBuffer
  3
AutoCAD 2000
 90
        0
280
     0
281
     0
  0
CLASS
  1
ACIMSTRSYSVAR
  2
AcImStrSysVar
  3
AcMeServices
 90
        0
280
     0
281
     0
  0
CLASS
  1
ACMSTANDARDJIS
  2
AcmStandardJIS
  3
"AcmSymBB|Product Description: AutoCAD Mechanical 2000|Company: Autodesk"
 90
        0
280
     0
281
     0
  0
CLASS
  1
ACMSURFSTANDARDJIS
  2
AcmSurfTextStdJIS
  3
"AcmSymBB|Product Description: AutoCAD Mechanical 2000|Company: Autodesk"
 90
        0
280
     0
281
     0
  0
CLASS
  1
ACMFCFSTANDARDJIS
  2
AcmFCFStdJIS
  3
"AcmSymBB|Product Description: AutoCAD Mechanical 2000|Company: Autodesk"
 90
        0
280
     0
281
     0
  0
CLASS
  1
ACMWELDSTANDARDJIS
  2
AcmWeldingStdJIS
  3
"AcmSymBB|Product Description: AutoCAD Mechanical 2000|Company: Autodesk"
 90
        0
280
     0
281
     0
  0
CLASS
  1
ACMIDSTANDARDJIS
  2
AcmIdStdJIS
  3
"AcmSymBB|Product Description: AutoCAD Mechanical 2000|Company: Autodesk"
 90
        0
280
     0
281
     0
  0
CLASS
  1
ACMDATUMSTANDARDJIS
  2
AcmDatumStdJIS
  3
"AcmSymBB|Product Description: AutoCAD Mechanical 2000|Company: Autodesk"
 90
        0
280
     0
281
     0
  0
CLASS
  1
ACMBOMSTANDARDJIS
  2
AcmBOMStdJIS
  3
"AcmSymBB|Product Description: AutoCAD Mechanical 2000|Company: Autodesk"
 90
        0
280
     0
281
     0
  0
CLASS
  1
ACMSTANDARDANSI
  2
AcmStandardANSI
  3
"AcmSymBB|Product Description: AutoCAD Mechanical 2000|Company: Autodesk"
 90
        0
280
     0
281
     0
  0
CLASS
  1
ACMSURFSTANDARDANSI
  2
AcmSurfTextStdANSI
  3
"AcmSymBB|Product Description: AutoCAD Mechanical 2000|Company: Autodesk"
 90
        0
280
     0
281
     0
  0
CLASS
  1
ACMFCFSTANDARDANSI
  2
AcmFCFStdANSI
  3
"AcmSymBB|Product Description: AutoCAD Mechanical 2000|Company: Autodesk"
 90
        0
280
     0
281
     0
  0
CLASS
  1
ACMWELDSTANDARDANSI
  2
AcmWeldingStdANSI
  3
"AcmSymBB|Product Description: AutoCAD Mechanical 2000|Company: Autodesk"
 90
        0
280
     0
281
     0
  0
CLASS
  1
ACMIDSTANDARDANSI
  2
AcmIdStdANSI
  3
"AcmSymBB|Product Description: AutoCAD Mechanical 2000|Company: Autodesk"
 90
        0
280
     0
281
     0
  0
CLASS
  1
ACMDATUMSTANDARDANSI
  2
AcmDatumStdANSI
  3
"AcmSymBB|Product Description: AutoCAD Mechanical 2000|Company: Autodesk"
 90
        0
280
     0
281
     0
  0
CLASS
  1
ACMBOMSTANDARDANSI
  2
AcmBOMStdANSI
  3
"AcmSymBB|Product Description: AutoCAD Mechanical 2000|Company: Autodesk"
 90
        0
280
     0
281
     0
  0
CLASS
  1
ACMSTANDARDBSI
  2
AcmStandardBSI
  3
"AcmSymBB|Product Description: AutoCAD Mechanical 2000|Company: Autodesk"
 90
        0
280
     0
281
     0
  0
CLASS
  1
ACMSURFSTANDARDBSI
  2
AcmSurfTextStdBSI
  3
"AcmSymBB|Product Description: AutoCAD Mechanical 2000|Company: Autodesk"
 90
        0
280
     0
281
     0
  0
CLASS
  1
ACMFCFSTANDARDBSI
  2
AcmFCFStdBSI
  3
"AcmSymBB|Product Description: AutoCAD Mechanical 2000|Company: Autodesk"
 90
        0
280
     0
281
     0
  0
CLASS
  1
ACMWELDSTANDARDBSI
  2
AcmWeldingStdBSI
  3
"AcmSymBB|Product Description: AutoCAD Mechanical 2000|Company: Autodesk"
 90
        0
280
     0
281
     0
  0
CLASS
  1
ACMIDSTANDARDBSI
  2
AcmIdStdBSI
  3
"AcmSymBB|Product Description: AutoCAD Mechanical 2000|Company: Autodesk"
 90
        0
280
     0
281
     0
  0
CLASS
  1
ACMDATUMSTANDARDBSI
  2
AcmDatumStdBSI
  3
"AcmSymBB|Product Description: AutoCAD Mechanical 2000|Company: Autodesk"
 90
        0
280
     0
281
     0
  0
CLASS
  1
ACMBOMSTANDARDBSI
  2
AcmBOMStdBSI
  3
"AcmSymBB|Product Description: AutoCAD Mechanical 2000|Company: Autodesk"
 90
        0
280
     0
281
     0
  0
CLASS
  1
LONG_TRANSACTION
  2
AcDbLongTransaction
  3
AutoCAD 2000
 90
        0
280
     0
281
     0
  0
CLASS
  1
LWPOLYLINE
  2
AcDbPolyline
  3
AutoCAD 2000
 90
        0
280
     0
281
     1
  0
CLASS
  1
HATCH
  2
AcDbHatch
  3
AutoCAD 2000
 90
        0
280
     0
281
     1
  0
CLASS
  1
XRECORD
  2
AcDbXrecord
  3
AutoCAD 2000
 90
        0
280
     0
281
     0
  0
ENDSEC
  0
SECTION
  2
TABLES
  0
TABLE
  2
VPORT
  5
8
330
0
100
AcDbSymbolTable
 70
     3
  0
VPORT
  5
7C5A
330
8
100
AcDbSymbolTableRecord
100
AcDbViewportTableRecord
  2
*ACTIVE
 70
     0
 10
0.0
 20
0.0
 11
1.0
 21
1.0
 12
0.5567863879388142
 22
2.724473906272351
 13
0.0
 23
0.0
 14
2.5
 24
2.5
 15
10.0
 25
10.0
 16
0.0
 26
0.0
 36
1.0
 17
0.0
 27
0.0
 37
0.0
 40
165.8271632661979
 41
1.56570841889117
 42
50.0
 43
0.0
 44
0.0
 50
0.0
 51
0.0
 71
     0
 72
   100
 73
     1
 74
     3
 75
     0
 76
     0
 77
     0
 78
     0
  0
ENDTAB
  0
TABLE
  2
LTYPE
  5
5
330
0
100
AcDbSymbolTable
 70
    10
  0
LTYPE
  5
14
330
5
100
AcDbSymbolTableRecord
100
AcDbLinetypeTableRecord
  2
BYBLOCK
 70
     0
  3

 72
    65
 73
     0
 40
0.0
  0
LTYPE
  5
15
330
5
100
AcDbSymbolTableRecord
100
AcDbLinetypeTableRecord
  2
BYLAYER
 70
     0
  3

 72
    65
 73
     0
 40
0.0
  0
LTYPE
  5
16
330
5
100
AcDbSymbolTableRecord
100
AcDbLinetypeTableRecord
  2
CONTINUOUS
 70
     0
  3
Solid line
 72
    65
 73
     0
 40
0.0
  0
LTYPE
  5
4B
330
5
100
AcDbSymbolTableRecord
100
AcDbLinetypeTableRecord
  2
AM_ISO02W050
 70
     0
  3
__ __ __ __ __ __ __ __ __ __ __ __ __ __ __
 72
    65
 73
     2
 40
7.5
 49
6.0
 74
     0
 49
-1.5
 74
     0
  0
LTYPE
  5
4C
330
5
100
AcDbSymbolTableRecord
100
AcDbLinetypeTableRecord
  2
AM_ISO08W050
 70
     0
  3
____ . ____ . ____ . ____ . ____ . ____ . ____
 72
    65
 73
     4
 40
18.0
 49
12.0
 74
     0
 49
-1.5
 74
     0
 49
3.0
 74
     0
 49
-1.5
 74
     0
  0
LTYPE
  5
4D
330
5
100
AcDbSymbolTableRecord
100
AcDbLinetypeTableRecord
  2
AM_ISO09W050
 70
     0
  3
_____ . . _____ . . _____ . . ____ .. ____
 72
    65
 73
     6
 40
22.5
 49
12.0
 74
     0
 49
-1.5
 74
     0
 49
3.0
 74
     0
 49
-1.5
 74
     0
 49
3.0
 74
     0
 49
-1.5
 74
     0
  0
LTYPE
  5
4E
330
5
100
AcDbSymbolTableRecord
100
AcDbLinetypeTableRecord
  2
AMCONSTR
 70
     0
  3
_______________________
 72
    65
 73
     2
 40
9999.0
 49
9999.0
 74
     0
 49
0.0
 74
     0
  0
LTYPE
  5
4F
330
5
100
AcDbSymbolTableRecord
100
AcDbLinetypeTableRecord
  2
AM_ISO02W050X2
 70
     0
  3
 _ _ _ _ _ _ _ _ _ _ _ _
 72
    65
 73
     2
 40
3.75
 49
3.0
 74
     0
 49
-0.75
 74
     0
  0
LTYPE
  5
50
330
5
100
AcDbSymbolTableRecord
100
AcDbLinetypeTableRecord
  2
AM_ISO08W050X2
 70
     0
  3
__ . __ . __ . __ . __ . __
 72
    65
 73
     4
 40
9.0
 49
6.0
 74
     0
 49
-0.75
 74
     0
 49
1.5
 74
     0
 49
-0.75
 74
     0
  0
LTYPE
  5
53
330
5
100
AcDbSymbolTableRecord
100
AcDbLinetypeTableRecord
  2
AMZIGZAG
 70
     0
  3
/\/-/\/-/\/-/\/-/\/-/\/
 72
    65
 73
     2
 40
11.00009999999999
 49
0.0001
 74
     4
 75
   135
340
52
 46
0.04
 50
0.0
 44
0.0
 45
0.0
 49
-11.0
 74
     0
  0
LTYPE
  5
166
330
5
100
AcDbSymbolTableRecord
100
AcDbLinetypeTableRecord
  2
ACJISTGL
 70
     0
  3
_ _ _ _ _
 72
    65
 73
     2
 40
3.0
 49
2.0
 74
     0
 49
-1.0
 74
     0
  0
LTYPE
  5
26A
330
5
100
AcDbSymbolTableRecord
100
AcDbLinetypeTableRecord
  2
ACJISTGB
 70
     0
  3
__ . . __ . .
 72
    65
 73
     6
 40
9.0
 49
4.0
 74
     0
 49
-1.0
 74
     0
 49
1.0
 74
     0
 49
-1.0
 74
     0
 49
1.0
 74
     0
 49
-1.0
 74
     0
  0
ENDTAB
  0
TABLE
  2
LAYER
  5
2
330
0
100
AcDbSymbolTable
 70
     8
  0
LAYER
  5
10
330
2
100
AcDbSymbolTableRecord
100
AcDbLayerTableRecord
  2
0
 70
     0
 62
     7
  6
CONTINUOUS
  0
LAYER
  5
3F9
330
2
100
AcDbSymbolTableRecord
100
AcDbLayerTableRecord
  2
AM_0
 70
     0
 62
     7
  6
CONTINUOUS
  0
LAYER
  5
BD6
330
2
100
AcDbSymbolTableRecord
100
AcDbLayerTableRecord
  2
AM_11
 70
     0
 62
     3
  6
AM_ISO09W050
  0
LAYER
  5
BD7
330
2
100
AcDbSymbolTableRecord
100
AcDbLayerTableRecord
  2
AM_7
 70
     0
 62
     4
  6
AM_ISO08W050
  0
LAYER
  5
BD8
330
2
100
AcDbSymbolTableRecord
100
AcDbLayerTableRecord
  2
AM_5
 70
     0
 62
     3
  6
CONTINUOUS
  0
LAYER
  5
BD9
330
2
100
AcDbSymbolTableRecord
100
AcDbLayerTableRecord
  2
DEFPOINTS
 70
     0
 62
     7
  6
CONTINUOUS
  0
LAYER
  5
BDA
330
2
100
AcDbSymbolTableRecord
100
AcDbLayerTableRecord
  2
AM_6
 70
     0
 62
     2
  6
CONTINUOUS
  0
LAYER
  5
1E2E
330
2
100
AcDbSymbolTableRecord
100
AcDbLayerTableRecord
  2
AM_CL
 70
     0
 62
     1
  6
AMCONSTR
  0
ENDTAB
  0
TABLE
  2
STYLE
  5
3
330
0
100
AcDbSymbolTable
 70
     5
  0
STYLE
  5
11
330
3
100
AcDbSymbolTableRecord
100
AcDbTextStyleTableRecord
  2
STANDARD
 70
     0
 40
0.0
 41
1.0
 50
0.0
 71
     0
 42
2.5
  3
simplex.shx
  4
EXTFONT.SHX
  0
STYLE
  5
52
330
3
100
AcDbSymbolTableRecord
100
AcDbTextStyleTableRecord
  2

 70
     1
 40
0.0
 41
1.0
 50
0.0
 71
     0
 42
2.5
  3
ltypeshp.shx
  4

  0
STYLE
  5
6B
330
3
100
AcDbSymbolTableRecord
100
AcDbTextStyleTableRecord
  2
ASAMI
 70
     0
 40
0.0
 41
1.0
 50
0.0
 71
     0
 42
2.5
  3
simplex.shx
  4
EXTFONT.SHX
  0
STYLE
  5
262
330
3
100
AcDbSymbolTableRecord
100
AcDbTextStyleTableRecord
  2
ACJISTS
 70
     0
 40
1.0
 41
1.0
 50
0.0
 71
     0
 42
2.5
  3
simplex.shx
  4
bigfont.shx
  0
STYLE
  5
269
330
3
100
AcDbSymbolTableRecord
100
AcDbTextStyleTableRecord
  2
ACJISGDT
 70
     0
 40
0.0
 41
1.0
 50
0.0
 71
     0
 42
2.5
  3
amgdtans.shx
  4

  0
ENDTAB
  0
TABLE
  2
VIEW
  5
6
330
0
100
AcDbSymbolTable
 70
     0
  0
ENDTAB
  0
TABLE
  2
UCS
  5
7
330
0
100
AcDbSymbolTable
 70
     0
  0
ENDTAB
  0
TABLE
  2
APPID
  5
9
330
0
100
AcDbSymbolTable
 70
    14
  0
APPID
  5
12
330
9
100
AcDbSymbolTableRecord
100
AcDbRegAppTableRecord
  2
ACAD
 70
     0
  0
APPID
  5
30
330
9
100
AcDbSymbolTableRecord
100
AcDbRegAppTableRecord
  2
MCAD_NO_VIS
 70
     0
  0
APPID
  5
31
330
9
100
AcDbSymbolTableRecord
100
AcDbRegAppTableRecord
  2
ACAD_TEMP_GRAPHIC
 70
     0
  0
APPID
  5
2C2
330
9
100
AcDbSymbolTableRecord
100
AcDbRegAppTableRecord
  2
GENIUS_GENDTOL_13
 70
     0
  0
APPID
  5
339
330
9
100
AcDbSymbolTableRecord
100
AcDbRegAppTableRecord
  2
GENIUS_GENODEF_13
 70
     0
  0
APPID
  5
33A
330
9
100
AcDbSymbolTableRecord
100
AcDbRegAppTableRecord
  2
GENIUS_GENOBJ-N-RSBK_13
 70
     0
  0
APPID
  5
33B
330
9
100
AcDbSymbolTableRecord
100
AcDbRegAppTableRecord
  2
GENIUS_GENOBJ-N-LIB_13
 70
     0
  0
APPID
  5
33C
330
9
100
AcDbSymbolTableRecord
100
AcDbRegAppTableRecord
  2
GENIUS_GENSCALE_13
 70
     0
  0
APPID
  5
378
330
9
100
AcDbSymbolTableRecord
100
AcDbRegAppTableRecord
  2
GENIUS_GENDIMSH_14
 70
     0
  0
APPID
  5
BDB
330
9
100
AcDbSymbolTableRecord
100
AcDbRegAppTableRecord
  2
GENIUS_GENOBJ-N-CEN_13
 70
     0
  0
APPID
  5
BDC
330
9
100
AcDbSymbolTableRecord
100
AcDbRegAppTableRecord
  2
GENIUS_GENFIL_13
 70
     0
  0
APPID
  5
BDD
330
9
100
AcDbSymbolTableRecord
100
AcDbRegAppTableRecord
  2
GENIUS_GENOBJ-N-FIL_13
 70
     0
  0
APPID
  5
12AD
330
9
100
AcDbSymbolTableRecord
100
AcDbRegAppTableRecord
  2
GENIUS_GENOREF_13
 70
     0
  0
APPID
  5
62E6
330
9
100
AcDbSymbolTableRecord
100
AcDbRegAppTableRecord
  2
GENIUS_GENOBJ-N-CHA_13
 70
     0
  0
ENDTAB
  0
TABLE
  2
DIMSTYLE
  5
A
330
0
100
AcDbSymbolTable
 70
     9
  0
DIMSTYLE
105
58
102
{ACAD_REACTORS
330
63C1
330
640B
330
6418
330
6663
102
}
330
A
100
AcDbSymbolTableRecord
100
AcDbDimStyleTableRecord
  2
AM_JIS
 70
     0
  3

  4
"
  5
OPEN30
  6

  7

 40
0.5
 41
2.5
 42
1.0
 43
12.0
 44
1.0
 45
0.0
 46
0.0
 47
0.1
 48
0.1
140
3.2
141
0.0
142
0.0
143
0.0393701
144
1.0
145
0.0
146
0.71
147
1.5
 71
     0
 72
     0
 73
     0
 74
     0
 75
     0
 76
     0
 77
     3
 78
     1
170
     0
171
     2
172
     1
173
     0
174
     0
175
     0
176
     3
177
     3
178
     2
270
     2
271
     1
272
     1
273
     2
274
     2
340
6B
275
     0
280
     0
281
     0
282
     0
283
     0
284
     0
285
     0
286
     0
287
     3
288
     0
  0
DIMSTYLE
105
5F
330
A
100
AcDbSymbolTableRecord
100
AcDbDimStyleTableRecord
  2
AM_JIS$3
 70
     0
  3

  4
"
  5
OPEN30
  6

  7

 40
0.5
 41
2.5
 42
1.0
 43
10.0
 44
1.0
 45
0.0
 46
0.0
 47
0.1
 48
0.1
140
3.2
141
0.0
142
0.0
143
0.0393701
144
1.0
145
0.0
146
0.71
147
1.5
 71
     0
 72
     0
 73
     0
 74
     1
 75
     0
 76
     0
 77
     3
 78
     1
170
     0
171
     2
172
     0
173
     0
174
     0
175
     0
176
     3
177
     3
178
     2
270
     2
271
     2
272
     1
273
     2
274
     2
340
6B
275
     0
280
     0
281
     0
282
     0
283
     0
284
     0
285
     0
286
     0
287
     0
288
     1
  0
DIMSTYLE
105
60
330
A
100
AcDbSymbolTableRecord
100
AcDbDimStyleTableRecord
  2
AM_JIS$4
 70
     0
  3

  4
"
  5
OPEN30
  6

  7

 40
0.5
 41
2.5
 42
1.0
 43
10.0
 44
1.0
 45
0.0
 46
0.0
 47
0.1
 48
0.1
140
3.2
141
0.0
142
0.0
143
0.0393701
144
1.0
145
0.0
146
0.71
147
1.5
 71
     0
 72
     0
 73
     0
 74
     1
 75
     0
 76
     0
 77
     3
 78
     1
170
     0
171
     2
172
     0
173
     0
174
     0
175
     0
176
     3
177
     3
178
     2
270
     2
271
     2
272
     1
273
     2
274
     2
340
6B
275
     0
280
     0
281
     0
282
     0
283
     0
284
     0
285
     0
286
     0
287
     0
288
     1
  0
DIMSTYLE
105
61
330
A
100
AcDbSymbolTableRecord
100
AcDbDimStyleTableRecord
  2
AM_JIS$6
 70
     0
  3

  4
"
  5
OPEN30
  6

  7

 40
0.5
 41
2.5
 42
1.0
 43
10.0
 44
1.0
 45
0.0
 46
0.0
 47
0.1
 48
0.1
140
3.2
141
0.0
142
0.0
143
0.0393701
144
1.0
145
0.0
146
0.71
147
1.5
 71
     0
 72
     0
 73
     0
 74
     0
 75
     0
 76
     0
 77
     0
 78
     1
170
     0
171
     2
172
     1
173
     0
174
     0
175
     0
176
     3
177
     3
178
     2
270
     2
271
     2
272
     2
273
     2
274
     2
340
6B
275
     0
280
     0
281
     0
282
     0
283
     0
284
     0
285
     0
286
     0
287
     3
288
     0
  0
DIMSTYLE
105
62
330
A
100
AcDbSymbolTableRecord
100
AcDbDimStyleTableRecord
  2
AM_JIS$7
 70
     0
  3

  4
"
  5
OPEN30
  6

  7

 40
0.5
 41
2.5
 42
1.0
 43
10.0
 44
1.0
 45
0.0
 46
0.0
 47
0.1
 48
0.1
140
3.2
141
0.0
142
0.0
143
0.0393701
144
1.0
145
0.0
146
0.71
147
1.5
 71
     0
 72
     0
 73
     0
 74
     0
 75
     0
 76
     0
 77
     3
 78
     1
170
     0
171
     2
172
     1
173
     0
174
     0
175
     0
176
     3
177
     3
178
     2
270
     2
271
     2
272
     1
273
     2
274
     2
340
6B
275
     0
280
     0
281
     0
282
     0
283
     0
284
     0
285
     0
286
     0
287
     3
288
     0
  0
DIMSTYLE
105
63
330
A
100
AcDbSymbolTableRecord
100
AcDbDimStyleTableRecord
  2
AM_JIS$SF
 70
     0
  3

  4
"
  5
OPEN30
  6

  7

 40
0.5
 41
2.5
 42
1.0
 43
10.0
 44
1.0
 45
0.0
 46
0.0
 47
0.1
 48
0.1
140
3.2
141
0.0
142
0.0
143
0.0393701
144
1.0
145
0.0
146
0.71
147
1.5
 71
     0
 72
     0
 73
     0
 74
     0
 75
     1
 76
     1
 77
     3
 78
     8
170
     0
171
     2
172
     1
173
     0
174
     0
175
     0
176
   256
177
   256
178
     2
270
     2
271
     2
272
     2
273
     2
274
     2
340
6B
275
     0
280
     0
281
     0
282
     0
283
     0
284
     0
285
     0
286
     0
287
     3
288
     0
  0
DIMSTYLE
105
68
330
A
100
AcDbSymbolTableRecord
100
AcDbDimStyleTableRecord
  2
AM_JIS$SH
 70
     0
  3

  4
"
  5

  6
GENAXEH
  7
OPEN30
 40
0.5
 41
2.5
 42
1.0
 43
10.0
 44
1.0
 45
0.0
 46
0.0
 47
0.1
 48
0.1
140
3.2
141
0.0
142
0.0
143
0.0393701
144
2.0
145
0.0
146
0.71
147
1.5
 71
     0
 72
     0
 73
     0
 74
     0
 75
     1
 76
     1
 77
     3
 78
     8
170
     0
171
     2
172
     1
173
     1
174
     0
175
     0
176
   256
177
   256
178
     2
270
     2
271
     2
272
     2
273
     2
274
     2
340
6B
275
     0
280
     0
281
     0
282
     0
283
     0
284
     0
285
     0
286
     0
287
     3
288
     0
  0
DIMSTYLE
105
B34
102
{ACAD_REACTORS
330
63DB
102
}
330
A
100
AcDbSymbolTableRecord
100
AcDbDimStyleTableRecord
  2
AM_JIS$2
 70
     0
  3

  4
"
  5
OPEN30
  6

  7

 40
0.5
 41
2.5
 42
1.0
 43
12.0
 44
1.0
 45
0.0
 46
0.0
 47
0.1
 48
0.1
140
3.2
141
0.0
142
0.0
143
0.0393701
144
1.0
145
0.0
146
0.71
147
1.5
 71
     0
 72
     0
 73
     0
 74
     0
 75
     0
 76
     0
 77
     3
 78
     1
170
     0
171
     2
172
     1
173
     0
174
     0
175
     0
176
     3
177
     3
178
     2
270
     2
271
     1
272
     1
273
     2
274
     2
340
6B
275
     0
280
     0
281
     0
282
     0
283
     0
284
     0
285
     0
286
     0
287
     3
288
     0
  0
DIMSTYLE
105
62E5
330
A
100
AcDbSymbolTableRecord
100
AcDbDimStyleTableRecord
  2
ISO-25
 70
     0
  3

  4

  5

  6

  7

 40
1.0
 41
2.5
 42
0.625
 43
3.75
 44
1.25
 45
0.0
 46
0.0
 47
0.0
 48
0.0
140
2.5
141
2.5
142
0.0
143
0.03937007874016
144
1.0
145
0.0
146
1.0
147
0.625
 71
     0
 72
     0
 73
     0
 74
     0
 75
     0
 76
     0
 77
     1
 78
     8
170
     0
171
     3
172
     1
173
     0
174
     0
175
     0
176
     0
177
     0
178
     0
270
     2
271
     2
272
     2
273
     2
274
     3
340
11
275
     0
280
     0
281
     0
282
     0
283
     0
284
     8
285
     0
286
     0
287
     3
288
     0
  0
ENDTAB
  0
TABLE
  2
BLOCK_RECORD
  5
1
330
0
100
AcDbSymbolTable
 70
    10
  0
BLOCK_RECORD
  5
1F
102
{ACAD_XDICTIONARY
360
74
102
}
330
1
100
AcDbSymbolTableRecord
100
AcDbBlockTableRecord
  2
*MODEL_SPACE
  0
BLOCK_RECORD
  5
1B
102
{ACAD_XDICTIONARY
360
7C7C
102
}
330
1
100
AcDbSymbolTableRecord
100
AcDbBlockTableRecord
  2
*PAPER_SPACE
  0
BLOCK_RECORD
  5
59
330
1
100
AcDbSymbolTableRecord
100
AcDbBlockTableRecord
  2
_OPEN30
  0
BLOCK_RECORD
  5
64
330
1
100
AcDbSymbolTableRecord
100
AcDbBlockTableRecord
  2
GENAXEH
  0
BLOCK_RECORD
  5
63C2
330
1
100
AcDbSymbolTableRecord
100
AcDbBlockTableRecord
  2
*D5
  0
BLOCK_RECORD
  5
63DC
330
1
100
AcDbSymbolTableRecord
100
AcDbBlockTableRecord
  2
*D6
  0
BLOCK_RECORD
  5
640C
330
1
100
AcDbSymbolTableRecord
100
AcDbBlockTableRecord
  2
*D7
  0
BLOCK_RECORD
  5
6419
330
1
100
AcDbSymbolTableRecord
100
AcDbBlockTableRecord
  2
*D8
  0
BLOCK_RECORD
  5
6664
330
1
100
AcDbSymbolTableRecord
100
AcDbBlockTableRecord
  2
*D9
  0
ENDTAB
  0
ENDSEC
  0
SECTION
  2
BLOCKS
  0
BLOCK
  5
20
330
1F
100
AcDbEntity
  8
0
100
AcDbBlockBegin
  2
*MODEL_SPACE
 70
     0
 10
0.0
 20
0.0
 30
0.0
  3
*MODEL_SPACE
  1

  0
ENDBLK
  5
21
330
1F
100
AcDbEntity
  8
0
100
AcDbBlockEnd
  0
BLOCK
  5
1C
330
1B
100
AcDbEntity
 67
     1
  8
0
100
AcDbBlockBegin
  2
*PAPER_SPACE
 70
     0
 10
0.0
 20
0.0
 30
0.0
  3
*PAPER_SPACE
  1

  0
ENDBLK
  5
1D
330
1B
100
AcDbEntity
 67
     1
  8
0
100
AcDbBlockEnd
  0
BLOCK
  5
5D
330
59
100
AcDbEntity
  8
0
100
AcDbBlockBegin
  2
_OPEN30
 70
     0
 10
0.0
 20
0.0
 30
0.0
  3
_OPEN30
  1

  0
LINE
  5
5A
330
59
100
AcDbEntity
  8
0
 62
     0
100
AcDbLine
 10
-1.0
 20
0.26794919
 30
0.0
 11
0.0
 21
0.0
 31
0.0
  0
LINE
  5
5B
330
59
100
AcDbEntity
  8
0
 62
     0
100
AcDbLine
 10
0.0
 20
0.0
 30
0.0
 11
-1.0
 21
-0.26794919
 31
0.0
  0
LINE
  5
5C
330
59
100
AcDbEntity
  8
0
 62
     0
100
AcDbLine
 10
0.0
 20
0.0
 30
0.0
 11
-1.0
 21
0.0
 31
0.0
  0
ENDBLK
  5
5E
330
59
100
AcDbEntity
  8
0
100
AcDbBlockEnd
  0
BLOCK
  5
66
330
64
100
AcDbEntity
  8
0
100
AcDbBlockBegin
  2
GENAXEH
 70
     0
 10
0.0
 20
0.0
 30
0.0
  3
GENAXEH
  1

  0
LINE
  5
65
330
64
100
AcDbEntity
  8
0
100
AcDbLine
 10
-1.0
 20
0.0
 30
0.0
 11
1.0
 21
0.0
 31
0.0
  0
ENDBLK
  5
67
330
64
100
AcDbEntity
  8
0
100
AcDbBlockEnd
  0
BLOCK
  5
63CE
330
63C2
100
AcDbEntity
  8
0
100
AcDbBlockBegin
  2
*D5
 70
     1
 10
0.0
 20
0.0
 30
0.0
  3
*D5
  1

  0
LINE
  5
7C85
330
63C2
100
AcDbEntity
  8
AM_5
 62
     3
100
AcDbLine
 10
-0.6465062379534317
 20
-3.149999999999975
 30
0.0
 11
14.51155057744166
 21
-3.149999999999979
 31
0.0
  0
LINE
  5
7C86
330
63C2
100
AcDbEntity
  8
AM_5
 62
     3
100
AcDbLine
 10
-0.6465062379534317
 20
3.150000000000015
 30
0.0
 11
14.51155057744166
 21
3.150000000000011
 31
0.0
  0
LINE
  5
7C87
330
63C2
100
AcDbEntity
  8
AM_5
 62
     3
100
AcDbLine
 10
14.01155057744166
 20
-1.899999999999979
 30
0.0
 11
14.01155057744166
 21
1.900000000000011
 31
0.0
  0
MTEXT
  5
7C88
330
63C2
100
AcDbEntity
  8
AM_5
 62
     2
100
AcDbMText
 10
12.46155057744166
 20
0.000000000000016
 30
0.0
 40
1.6
 41
0.0
 71
     5
 72
     1
  1
%%C6.3
  7
ASAMI
 11
0.0000000000000001
 21
1.0
 31
0.0
  0
INSERT
  5
7C89
330
63C2
100
AcDbEntity
  8
AM_5
 62
     3
100
AcDbBlockReference
  2
_OPEN30
 10
14.01155057744166
 20
-3.149999999999979
 30
0.0
 41
1.25
 42
1.25
 43
1.25
 50
270.0
  0
INSERT
  5
7C8A
330
63C2
100
AcDbEntity
  8
AM_5
 62
     3
100
AcDbBlockReference
  2
_OPEN30
 10
14.01155057744166
 20
3.150000000000011
 30
0.0
 41
1.25
 42
1.25
 43
1.25
 50
90.0
  0
POINT
  5
7C8B
330
63C2
100
AcDbEntity
  8
DEFPOINTS
 62
     0
100
AcDbPoint
 10
-1.146506237953431
 20
-3.149999999999975
 30
0.0
  0
POINT
  5
7C8C
330
63C2
100
AcDbEntity
  8
DEFPOINTS
 62
     0
100
AcDbPoint
 10
-1.146506237953431
 20
3.150000000000015
 30
0.0
  0
POINT
  5
7C8D
330
63C2
100
AcDbEntity
  8
DEFPOINTS
 62
     0
100
AcDbPoint
 10
14.01155057744166
 20
3.150000000000011
 30
0.0
  0
ENDBLK
  5
63CF
330
63C2
100
AcDbEntity
  8
0
100
AcDbBlockEnd
  0
BLOCK
  5
63E8
330
63DC
100
AcDbEntity
  8
0
100
AcDbBlockBegin
  2
*D6
 70
     1
 10
0.0
 20
0.0
 30
0.0
  3
*D6
  1

  0
LINE
  5
7C8E
330
63DC
100
AcDbEntity
  8
AM_0
 62
     3
100
AcDbLine
 10
0.1710100716540642
 20
-0.4698463103929179
 30
0.0
 11
7.131516506702523
 21
-19.59368056864971
 31
0.0
  0
LINE
  5
7C8F
330
63DC
100
AcDbEntity
  8
AM_0
 62
     3
100
AcDbLine
 10
0.1710100716540644
 20
0.4698463103929478
 30
0.0
 11
7.13151650670253
 21
19.59368056864974
 31
0.0
  0
ARC
  5
7C90
330
63DC
100
AcDbEntity
  8
AM_0
 62
     3
100
AcDbCircle
 10
-0.0000000000088288
 20
0.000000000000015
 30
0.0
 40
20.35115934215118
100
AcDbArc
 50
293.5197497113875
 51
66.48025028861244
  0
INSERT
  5
7C91
330
63DC
100
AcDbEntity
  8
AM_0
 62
     3
100
AcDbBlockReference
  2
_OPEN30
 10
6.960506435039629
 20
-19.12383425825678
 30
0.0
 41
1.25
 42
1.25
 43
1.25
 50
201.7598748556973
  0
INSERT
  5
7C92
330
63DC
100
AcDbEntity
  8
AM_0
 62
     3
100
AcDbBlockReference
  2
_OPEN30
 10
6.960506435039636
 20
19.12383425825681
 30
0.0
 41
1.25
 42
1.25
 43
1.25
 50
158.2401251443026
  0
MTEXT
  5
7C93
330
63DC
100
AcDbEntity
  8
AM_0
 62
     2
100
AcDbMText
 10
18.80115934214235
 20
0.0000000000000102
 30
0.0
 40
1.6
 41
0.0
 71
     5
 72
     1
  1
140°
  7
ASAMI
 11
0.0000000000000001
 21
1.0
 31
0.0
  0
POINT
  5
7C94
330
63DC
100
AcDbEntity
  8
DEFPOINTS
 62
     0
100
AcDbPoint
 10
18.68676230164167
 20
-8.06068243086405
 30
0.0
  0
POINT
  5
7C95
330
63DC
100
AcDbEntity
  8
DEFPOINTS
 62
     0
100
AcDbPoint
 10
-0.0000000000088288
 20
0.000000000000015
 30
0.0
  0
POINT
  5
7C96
330
63DC
100
AcDbEntity
  8
DEFPOINTS
 62
     0
100
AcDbPoint
 10
-1.075418301567666
 20
-2.954687499999982
 30
0.0
  0
POINT
  5
7C97
330
63DC
100
AcDbEntity
  8
DEFPOINTS
 62
     0
100
AcDbPoint
 10
-0.0000000000088288
 20
0.000000000000015
 30
0.0
  0
POINT
  5
7C98
330
63DC
100
AcDbEntity
  8
DEFPOINTS
 62
     0
100
AcDbPoint
 10
-1.075418301567666
 20
2.954687500000013
 30
0.0
  0
ENDBLK
  5
63E9
330
63DC
100
AcDbEntity
  8
0
100
AcDbBlockEnd
  0
BLOCK
  5
6416
330
640C
100
AcDbEntity
  8
0
100
AcDbBlockBegin
  2
*D7
 70
     1
 10
0.0
 20
0.0
 30
0.0
  3
*D7
  1

  0
LINE
  5
7AEB
330
640C
100
AcDbEntity
  8
AM_5
 62
     3
100
AcDbLine
 10
-0.0000000000089177
 20
-0.499999999999985
 30
0.0
 11
-0.0000000000089185
 21
-12.88238869595518
 31
0.0
  0
LINE
  5
7AEC
330
640C
100
AcDbEntity
  8
AM_5
 62
     3
100
AcDbLine
 10
-31.00000000000882
 20
-3.550000000000469
 30
0.0
 11
-31.00000000000882
 21
-12.88238869595518
 31
0.0
  0
LINE
  5
7AED
330
640C
100
AcDbEntity
  8
AM_5
 62
     3
100
AcDbLine
 10
-1.250000000008918
 20
-12.38238869595518
 30
0.0
 11
-29.75000000000882
 21
-12.38238869595518
 31
0.0
  0
INSERT
  5
7AEE
330
640C
100
AcDbEntity
  8
AM_5
 62
     3
100
AcDbBlockReference
  2
_OPEN30
 10
-0.0000000000089184
 20
-12.38238869595518
 30
0.0
 41
1.25
 42
1.25
 43
1.25
  0
INSERT
  5
7AEF
330
640C
100
AcDbEntity
  8
AM_5
 62
     3
100
AcDbBlockReference
  2
_OPEN30
 10
-31.00000000000882
 20
-12.38238869595518
 30
0.0
 41
1.25
 42
1.25
 43
1.25
 50
180.0
  0
MTEXT
  5
7AF0
330
640C
100
AcDbEntity
  8
AM_5
 62
     2
100
AcDbMText
 10
-15.50000000000887
 20
-10.83238869595518
 30
0.0
 40
1.6
 41
0.0
 71
     5
 72
     1
  1
31
  7
ASAMI
1001
ACAD
1000
MTEXTBEGIN
1070
    73
1070
     1
1070
    44
1040
1.0
1070
    74
1070
     0
1000
MTEXTEND
  0
POINT
  5
7AF1
330
640C
100
AcDbEntity
  8
DEFPOINTS
 62
     0
100
AcDbPoint
 10
-0.0000000000089177
 20
0.000000000000015
 30
0.0
  0
POINT
  5
7AF2
330
640C
100
AcDbEntity
  8
DEFPOINTS
 62
     0
100
AcDbPoint
 10
-31.00000000000882
 20
-3.050000000000469
 30
0.0
  0
POINT
  5
7AF3
330
640C
100
AcDbEntity
  8
DEFPOINTS
 62
     0
100
AcDbPoint
 10
-31.00000000000882
 20
-12.38238869595518
 30
0.0
  0
ENDBLK
  5
6417
330
640C
100
AcDbEntity
  8
0
100
AcDbBlockEnd
  0
BLOCK
  5
6423
330
6419
100
AcDbEntity
  8
0
100
AcDbBlockBegin
  2
*D8
 70
     1
 10
0.0
 20
0.0
 30
0.0
  3
*D8
  1

  0
LINE
  5
7AF4
330
6419
100
AcDbEntity
  8
AM_5
 62
     3
100
AcDbLine
 10
-0.000000000008829
 20
-3.454687500000502
 30
0.0
 11
-0.0000000000088301
 21
-20.59338786225655
 31
0.0
  0
LINE
  5
7AF5
330
6419
100
AcDbEntity
  8
AM_5
 62
     3
100
AcDbLine
 10
-70.0000000000088
 20
-2.498275861996452
 30
0.0
 11
-70.0000000000088
 21
-20.59338786225655
 31
0.0
  0
LINE
  5
7AF6
330
6419
100
AcDbEntity
  8
AM_5
 62
     3
100
AcDbLine
 10
-1.25000000000883
 20
-20.09338786225654
 30
0.0
 11
-68.7500000000088
 21
-20.09338786225654
 31
0.0
  0
INSERT
  5
7AF7
330
6419
100
AcDbEntity
  8
AM_5
 62
     3
100
AcDbBlockReference
  2
_OPEN30
 10
-0.0000000000088301
 20
-20.09338786225654
 30
0.0
 41
1.25
 42
1.25
 43
1.25
  0
INSERT
  5
7AF8
330
6419
100
AcDbEntity
  8
AM_5
 62
     3
100
AcDbBlockReference
  2
_OPEN30
 10
-70.0000000000088
 20
-20.09338786225654
 30
0.0
 41
1.25
 42
1.25
 43
1.25
 50
180.0
  0
MTEXT
  5
7AF9
330
6419
100
AcDbEntity
  8
AM_5
 62
     2
100
AcDbMText
 10
-35.00000000000881
 20
-18.54338786225654
 30
0.0
 40
1.6
 41
0.0
 71
     5
 72
     1
  1
70
  7
ASAMI
1001
ACAD
1000
MTEXTBEGIN
1070
    73
1070
     1
1070
    44
1040
1.0
1070
    74
1070
     0
1000
MTEXTEND
  0
POINT
  5
7AFA
330
6419
100
AcDbEntity
  8
DEFPOINTS
 62
     0
100
AcDbPoint
 10
-0.000000000008829
 20
-2.954687500000502
 30
0.0
  0
POINT
  5
7AFB
330
6419
100
AcDbEntity
  8
DEFPOINTS
 62
     0
100
AcDbPoint
 10
-70.0000000000088
 20
-1.998275861996452
 30
0.0
  0
POINT
  5
7AFC
330
6419
100
AcDbEntity
  8
DEFPOINTS
 62
     0
100
AcDbPoint
 10
-70.0000000000088
 20
-20.09338786225654
 30
0.0
  0
ENDBLK
  5
6424
330
6419
100
AcDbEntity
  8
0
100
AcDbBlockEnd
  0
BLOCK
  5
6670
330
6664
100
AcDbEntity
  8
0
100
AcDbBlockBegin
  2
*D9
 70
     1
 10
0.0
 20
0.0
 30
0.0
  3
*D9
  1

  0
LINE
  5
7C1B
330
6664
100
AcDbEntity
  8
AM_5
 62
     3
100
AcDbLine
 10
-69.41379310338202
 20
-3.150000000000162
 30
0.0
 11
-80.0351711003161
 21
-3.150000000000158
 31
0.0
  0
LINE
  5
7C1C
330
6664
100
AcDbEntity
  8
AM_5
 62
     3
100
AcDbLine
 10
-69.41379310345708
 20
3.150000000074899
 30
0.0
 11
-80.0351711003161
 21
3.150000000074903
 31
0.0
  0
LINE
  5
7C1D
330
6664
100
AcDbEntity
  8
AM_5
 62
     3
100
AcDbLine
 10
-79.53517110031611
 20
-4.400000000000159
 30
0.0
 11
-79.53517110031611
 21
-5.650000000000159
 31
0.0
  0
LINE
  5
7C1E
330
6664
100
AcDbEntity
  8
AM_5
 62
     3
100
AcDbLine
 10
-79.53517110031611
 20
4.400000000074902
 30
0.0
 11
-79.53517110031611
 21
5.650000000074902
 31
0.0
  0
LINE
  5
7C1F
330
6664
100
AcDbEntity
  8
AM_5
 62
     3
100
AcDbLine
 10
-79.53517110031611
 20
-3.150000000000159
 30
0.0
 11
-79.53517110031611
 21
3.150000000074902
 31
0.0
  0
INSERT
  5
7C20
330
6664
100
AcDbEntity
  8
AM_5
 62
     3
100
AcDbBlockReference
  2
_OPEN30
 10
-79.53517110031611
 20
-3.150000000000159
 30
0.0
 41
1.25
 42
1.25
 43
1.25
 50
90.0
  0
INSERT
  5
7C21
330
6664
100
AcDbEntity
  8
AM_5
 62
     3
100
AcDbBlockReference
  2
_OPEN30
 10
-79.53517110031611
 20
3.150000000074902
 30
0.0
 41
1.25
 42
1.25
 43
1.25
 50
270.0
  0
MTEXT
  5
7C22
330
6664
100
AcDbEntity
  8
AM_5
 62
     2
100
AcDbMText
 10
-81.08517110031611
 20
0.000000000037359
 30
0.0
 40
1.6
 41
0.0
 71
     5
 72
     1
  1
%%C6.3
  7
ASAMI
 11
0.0000000000000001
 21
1.0
 31
0.0
1001
ACAD
1000
MTEXTBEGIN
1070
    73
1070
     1
1070
    44
1040
1.0
1070
    74
1070
     0
1000
MTEXTEND
  0
POINT
  5
7C23
330
6664
100
AcDbEntity
  8
DEFPOINTS
 62
     0
100
AcDbPoint
 10
-68.91379310338201
 20
-3.150000000000162
 30
0.0
  0
POINT
  5
7C24
330
6664
100
AcDbEntity
  8
DEFPOINTS
 62
     0
100
AcDbPoint
 10
-68.91379310345708
 20
3.150000000074899
 30
0.0
  0
POINT
  5
7C25
330
6664
100
AcDbEntity
  8
DEFPOINTS
 62
     0
100
AcDbPoint
 10
-79.53517110031611
 20
3.150000000074902
 30
0.0
  0
ENDBLK
  5
6671
330
6664
100
AcDbEntity
  8
0
100
AcDbBlockEnd
  0
ENDSEC
  0
SECTION
  2
ENTITIES
  0
TEXT
  5
C58
330
1F
100
AcDbEntity
  8
AM_6
100
AcDbText
 10
-44.46428571429452
 20
-31.34338786225658
 30
0.0
 40
2.5
  1
MDS063SK
 50
0.0000000000002036
 72
     4
 11
-35.00000000000881
 21
-30.09338786225654
 31
0.0
100
AcDbText
  0
LINE
  5
631C
330
1F
100
AcDbEntity
  8
AM_0
100
AcDbLine
 10
-21.63307736946593
 20
-3.150000000000544
 30
0.0
 11
-68.91379310338201
 21
-3.15000000000018
 31
0.0
  0
LINE
  5
631D
330
1F
100
AcDbEntity
  8
AM_0
100
AcDbLine
 10
-21.63307736950092
 20
3.149999999999465
 30
0.0
 11
-68.9672131147629
 21
3.14999999999982
 31
0.0
  0
LINE
  5
6320
330
1F
100
AcDbEntity
  8
AM_7
100
AcDbLine
 10
-74.72891127024009
 20
0.0000000000000291
 30
0.0
 11
1.830937499990431
 21
0.0000000000000155
 31
0.0
1001
GENIUS_GENODEF_13
1002
{
1000
HIER
1070
     0
1002
}
1002
{
1000
MANEDIT
1070
     0
1002
}
1002
{
1000
NOSEL
1070
     0
1002
}
1002
{
1000
BEHIND
1070
     0
1002
}
1002
{
1000
REACTOR
1002
}
1001
GENIUS_GENOBJ-N-CEN_13
1002
{
1000
OWNER
1000
GEN
1002
}
  0
DIMENSION
  5
63C1
330
1F
100
AcDbEntity
  8
AM_5
100
AcDbDimension
  2
*D5
 10
14.01155057744166
 20
3.150000000000011
 30
0.0
 11
14.01155057744166
 21
0.0000000000000158
 31
0.0
 70
   160
  1
%%C<>
  3
AM_JIS
100
AcDbAlignedDimension
 13
-1.146506237953431
 23
-3.149999999999975
 33
0.0
 14
-1.146506237953431
 24
3.150000000000015
 34
0.0
 50
90.0
100
AcDbRotatedDimension
1001
ACAD
1000
DSTYLE
1002
{
1070
   287
1070
     4
1070
   271
1070
     1
1070
   279
1070
     1
1002
}
  0
DIMENSION
  5
63DB
330
1F
100
AcDbEntity
  8
AM_0
100
AcDbDimension
  2
*D6
 10
-1.075418301567666
 20
2.954687500000013
 30
0.0
 11
18.80115934214235
 21
0.0000000000000072
 31
0.0
 70
    34
  3
AM_JIS$2
100
AcDb2LineAngularDimension
 13
-1.075418301567666
 23
-2.954687499999982
 33
0.0
 14
-0.0000000000088288
 24
0.000000000000015
 34
0.0
 15
-0.0000000000088288
 25
0.000000000000015
 35
0.0
 16
18.68676230164167
 26
-8.06068243086405
 36
0.0
1001
ACAD
1000
DSTYLE
1002
{
1070
   271
1070
     0
1002
}
  0
DIMENSION
  5
640B
330
1F
100
AcDbEntity
  8
AM_5
100
AcDbDimension
  2
*D7
 10
-31.00000000000882
 20
-12.38238869595518
 30
0.0
 11
-15.50000000000887
 21
-10.83238869595518
 31
0.0
 70
    32
  3
AM_JIS
100
AcDbAlignedDimension
 13
-0.0000000000089177
 23
0.000000000000015
 33
0.0
 14
-31.00000000000882
 24
-3.050000000000469
 34
0.0
100
AcDbRotatedDimension
1001
ACAD
1000
DSTYLE
1002
{
1070
    78
1070
     9
1002
}
  0
DIMENSION
  5
6418
330
1F
100
AcDbEntity
  8
AM_5
100
AcDbDimension
  2
*D8
 10
-70.0000000000088
 20
-20.09338786225654
 30
0.0
 11
-35.00000000000881
 21
-18.54338786225654
 31
0.0
 70
    32
  3
AM_JIS
100
AcDbAlignedDimension
 13
-0.000000000008829
 23
-2.954687500000502
 33
0.0
 14
-70.0000000000088
 24
-1.998275861996452
 34
0.0
100
AcDbRotatedDimension
1001
ACAD
1000
DSTYLE
1002
{
1070
    78
1070
     9
1002
}
  0
LINE
  5
665B
330
1F
100
AcDbEntity
  8
AM_0
100
AcDbLine
 10
-68.9672131147629
 20
3.150000000074899
 30
0.0
 11
-68.96721311476288
 21
-3.149999999925098
 31
0.0
  0
LINE
  5
665E
330
1F
100
AcDbEntity
  8
AM_0
100
AcDbLine
 10
-70.0000000000088
 20
-1.077436509724684
 30
0.0
 11
-70.0000000000088
 21
-0.7666980210917362
 31
0.0
  0
LINE
  5
665F
330
1F
100
AcDbEntity
  8
AM_0
100
AcDbLine
 10
-70.00000000000877
 20
-2.117213114754252
 30
0.0
 11
-70.0000000000088
 21
-1.077436509724684
 31
0.0
  0
LINE
  5
6661
330
1F
100
AcDbEntity
  8
AM_0
100
AcDbLine
 10
-70.0000000000088
 20
-0.7666980210917362
 30
0.0
 11
-70.0000000000088
 21
2.117213114753945
 31
0.0
  0
DIMENSION
  5
6663
330
1F
100
AcDbEntity
  8
AM_5
100
AcDbDimension
  2
*D9
 10
-79.53517110031611
 20
3.150000000074902
 30
0.0
 11
-79.53517110031611
 21
0.0000000000373588
 31
0.0
 70
   160
  1
%%C<>
  3
AM_JIS
100
AcDbAlignedDimension
 13
-68.91379310338201
 23
-3.150000000000162
 33
0.0
 14
-68.91379310345708
 24
3.150000000074899
 34
0.0
 50
90.0
100
AcDbRotatedDimension
  0
LINE
  5
67B1
330
1F
100
AcDbEntity
  8
AM_0
100
AcDbLine
 10
-0.0000000000144462
 20
0.0000000000000194
 30
0.0
 11
-1.146506237953431
 21
3.150000000000015
 31
0.0
  0
LINE
  5
67B7
330
1F
100
AcDbEntity
  8
AM_0
100
AcDbLine
 10
-1.146506237953431
 20
-3.149999999999975
 30
0.0
 11
-0.0000000000144462
 21
0.0000000000000194
 31
0.0
  0
LINE
  5
67B9
330
1F
100
AcDbEntity
  8
AM_0
100
AcDbLine
 10
-1.23660887623577
 20
-0.2435227488762197
 30
0.0
 11
-0.0000000000092101
 21
0.0000000000000155
 31
0.0
  0
LINE
  5
67BA
330
1F
100
AcDbEntity
  8
AM_0
100
AcDbLine
 10
-0.0000000000092101
 20
0.0000000000000155
 30
0.0
 11
-0.7066786927109121
 21
0.5456865120495329
 31
0.0
  0
LINE
  5
7571
330
1F
100
AcDbEntity
  8
AM_0
100
AcDbLine
 10
-0.7066786927109121
 20
0.5456865120495329
 30
0.0
 11
-0.1951850185454049
 21
0.5469917596508344
 31
0.0
  0
LINE
  5
7ABA
330
1F
100
AcDbEntity
  8
AM_0
100
AcDbLine
 10
-68.9672131147629
 20
3.149999999999839
 30
0.0
 11
-70.0000000000088
 21
2.117213114753945
 31
0.0
1001
GENIUS_GENFIL_13
1070
     0
1040
1.0
1040
1.0
1040
20.0
1040
0.0
1002
{
1002
}
1001
GENIUS_GENODEF_13
1002
{
1000
HIER
1070
     0
1002
}
1002
{
1000
MANEDIT
1070
     0
1002
}
1002
{
1000
NOSEL
1070
     0
1002
}
1002
{
1000
BEHIND
1070
     0
1002
}
1002
{
1000
REACTOR
1002
}
1001
GENIUS_GENOBJ-N-CHA_13
1002
{
1000
OWNER
1000
GEN
1002
}
  0
LINE
  5
7ABC
330
1F
100
AcDbEntity
  8
AM_0
100
AcDbLine
 10
-68.96721311476283
 20
-3.150000000000161
 30
0.0
 11
-70.00000000000877
 21
-2.117213114754252
 31
0.0
1001
GENIUS_GENFIL_13
1070
     0
1040
1.0
1040
1.0
1040
20.0
1040
0.0
1002
{
1002
}
1001
GENIUS_GENODEF_13
1002
{
1000
HIER
1070
     0
1002
}
1002
{
1000
MANEDIT
1070
     0
1002
}
1002
{
1000
NOSEL
1070
     0
1002
}
1002
{
1000
BEHIND
1070
     0
1002
}
1002
{
1000
REACTOR
1002
}
1001
GENIUS_GENOBJ-N-CHA_13
1002
{
1000
OWNER
1000
GEN
1002
}
  0
LINE
  5
7BF9
330
1F
100
AcDbEntity
  8
AM_5
  6
AM_ISO09W050
 62
     3
100
AcDbLine
 10
-1.130996256633999
 20
3.149960956512772
 30
0.0
 11
-7.710553224895336
 21
3.150000000000015
 31
0.0
  0
SPLINE
  5
7BFA
330
1F
100
AcDbEntity
  8
AM_0
100
AcDbSpline
210
0.0
220
0.0
230
1.0
 70
     8
 71
     3
 72
     9
 73
     5
 74
     0
 42
0.0000000001
 43
0.0000000001
 40
0.0
 40
0.0
 40
0.0
 40
0.0
 40
0.1987770877846628
 40
5.759128114460802
 40
5.759128114460802
 40
5.759128114460802
 40
5.759128114460802
 10
-1.025814395562171
 20
2.818401888317782
 30
0.0
 10
-1.025814395562171
 20
2.818401888317782
 30
0.0
 10
-2.002962764634117
 20
2.809815353059791
 30
0.0
 10
-3.037597530566848
 20
2.588823402275733
 30
0.0
 10
-4.018498977950963
 20
2.24728715336171
 30
0.0
  0
SPLINE
  5
7BFB
330
1F
100
AcDbEntity
  8
AM_0
100
AcDbSpline
210
0.0
220
0.0
230
1.0
 70
     8
 71
     3
 72
     8
 73
     4
 74
     0
 42
0.0000000001
 43
0.0000000001
 40
0.0
 40
0.0
 40
0.0
 40
0.0
 40
6.247244990626095
 40
6.247244990626095
 40
6.247244990626095
 40
6.247244990626095
 10
-1.1464920607544
 20
3.149961048465806
 30
0.0
 10
-2.166307839262535
 20
3.150000000000015
 30
0.0
 10
-3.276421702232322
 20
2.857233710195642
 30
0.0
 10
-4.360413587840954
 20
2.397924952047183
 30
0.0
  0
SPLINE
  5
7BFC
330
1F
100
AcDbEntity
  8
AM_0
100
AcDbSpline
210
0.0
220
0.0
230
1.0
 70
     8
 71
     3
 72
     8
 73
     4
 74
     0
 42
0.0000000001
 43
0.0000000001
 40
19.09542421355049
 40
19.09542421355049
 40
19.09542421355049
 40
19.09542421355049
 40
28.97999309868792
 40
28.97999309868792
 40
28.97999309868792
 40
28.97999309868792
 10
-2.489678509036241
 20
1.451201103448962
 30
0.0
 10
-4.167292109910031
 20
2.41707512992514
 30
0.0
 10
-5.881443493910919
 20
3.150000000000015
 30
0.0
 10
-7.710553224896187
 20
3.150000000000015
 30
0.0
  0
LINE
  5
7BFD
330
1F
100
AcDbEntity
  8
AM_0
100
AcDbLine
 10
-1.146506237953431
 20
-3.149999999999975
 30
0.0
 11
-1.234079002157933
 21
-0.2469442969138242
 31
0.0
  0
SPLINE
  5
7BFE
330
1F
100
AcDbEntity
  8
AM_0
100
AcDbSpline
210
0.0
220
0.0
230
1.0
 70
     8
 71
     3
 72
     8
 73
     4
 74
     0
 42
0.0000000001
 43
0.0000000001
 40
22.73274810806179
 40
22.73274810806179
 40
22.73274810806179
 40
22.73274810806179
 40
28.97999309868792
 40
28.97999309868792
 40
28.97999309868792
 40
28.97999309868792
 10
-4.36041358784089
 20
-2.397924952047209
 30
0.0
 10
-5.444405473449519
 20
-2.857233710195649
 30
0.0
 10
-6.554519336419303
 20
-3.149999999999975
 30
0.0
 10
-7.710553224896187
 20
-3.149999999999975
 30
0.0
  0
LINE
  5
7BFF
330
1F
100
AcDbEntity
  8
AM_5
  6
AM_ISO09W050
 62
     3
100
AcDbLine
 10
-1.146506237953431
 20
-3.149999999999975
 30
0.0
 11
-7.710553224895336
 21
-3.149999999999975
 31
0.0
  0
LINE
  5
7C00
330
1F
100
AcDbEntity
  8
AM_0
100
AcDbLine
 10
-1.234079002157933
 20
-0.2469442969138242
 30
0.0
 11
-2.489678509036241
 21
1.451201103448961
 31
0.0
  0
SPLINE
  5
7C01
330
1F
100
AcDbEntity
  8
AM_0
100
AcDbSpline
210
0.0
220
0.0
230
1.0
 70
     8
 71
     3
 72
     9
 73
     5
 74
     0
 42
0.0000000001
 43
0.0000000001
 40
0.0
 40
0.0
 40
0.0
 40
0.0
 40
0.0988701324080829
 40
1.147440854899445
 40
1.147440854899445
 40
1.147440854899445
 40
1.147440854899445
 10
-0.706744034504303
 20
0.5469917596508344
 30
0.0
 10
-0.702755422780499
 20
0.4673184973580322
 30
0.0
 10
-0.6564654468822721
 20
-0.4573323953965201
 30
0.0
 10
-2.09607998622285
 20
0.9188756943964342
 30
0.0
 10
-2.489678509036241
 20
1.451201103448962
 30
0.0
  0
SPLINE
  5
7C02
330
1F
100
AcDbEntity
  8
AM_0
100
AcDbSpline
210
0.0
220
0.0
230
1.0
 70
     8
 71
     3
 72
     8
 73
     4
 74
     0
 42
0.0000000001
 43
0.0000000001
 40
0.0
 40
0.0
 40
0.0
 40
0.0
 40
6.247244990625308
 40
6.247244990625308
 40
6.247244990625308
 40
6.247244990625308
 10
-16.11010842842485
 20
3.150000000000015
 30
0.0
 10
-17.26614231690158
 20
3.150000000000015
 30
0.0
 10
-18.37625617987124
 20
2.857233710195723
 30
0.0
 10
-19.46024806547971
 20
2.397924952047391
 30
0.0
  0
SPLINE
  5
7C03
330
1F
100
AcDbEntity
  8
AM_0
100
AcDbSpline
210
0.0
220
0.0
230
1.0
 70
     8
 71
     3
 72
     9
 73
     5
 74
     0
 42
0.0000000001
 43
0.0000000001
 40
0.0
 40
0.0
 40
0.0
 40
0.0
 40
0.1987770877846628
 40
5.759128114445015
 40
5.759128114445015
 40
5.759128114445015
 40
5.759128114445015
 10
-15.99975912241011
 20
2.805934597068817
 30
0.0
 10
-16.03654222441374
 20
2.805934597068817
 30
0.0
 10
-17.10279724226649
 20
2.8098153530517
 30
0.0
 10
-18.13743200819647
 20
2.588823402268857
 30
0.0
 10
-19.11833345557795
 20
2.247287153356562
 30
0.0
  0
SPLINE
  5
7C04
330
1F
100
AcDbEntity
  8
AM_0
100
AcDbSpline
210
0.0
220
0.0
230
1.0
 70
     8
 71
     3
 72
     8
 73
     4
 74
     0
 42
0.0000000001
 43
0.0000000001
 40
0.0
 40
0.0
 40
0.0
 40
0.0
 40
6.870645942600294
 40
6.870645942600294
 40
6.870645942600294
 40
6.870645942600294
 10
-16.11010842842485
 20
2.805934597072891
 30
0.0
 10
-14.83872262147382
 20
2.81056669104394
 30
0.0
 10
-13.56249783983541
 20
2.588600934858813
 30
0.0
 10
-12.31744392185476
 20
2.200831214312893
 30
0.0
  0
LINE
  5
7C05
330
1F
100
AcDbEntity
  8
AM_5
  6
AM_ISO09W050
 62
     3
100
AcDbLine
 10
-16.11010842842485
 20
3.150000000000015
 30
0.0
 11
-22.81038770253414
 21
3.150000000000015
 31
0.0
  0
LINE
  5
7C06
330
1F
100
AcDbEntity
  8
AM_5
  6
AM_ISO09W050
 62
     3
100
AcDbLine
 10
-15.27739696826059
 20
-3.149999999999975
 30
0.0
 11
-22.81038770253387
 21
-3.149999999999975
 31
0.0
  0
SPLINE
  5
7C07
330
1F
100
AcDbEntity
  8
AM_0
100
AcDbSpline
210
0.0
220
0.0
230
1.0
 70
     8
 71
     3
 72
     9
 73
     5
 74
     0
 42
0.0000000001
 43
0.0000000001
 40
0.0
 40
0.0
 40
0.0
 40
0.0
 40
14.48999654934396
 40
16.9280474783711
 40
16.9280474783711
 40
16.9280474783711
 40
16.9280474783711
 10
-16.11010842842403
 20
-3.149999999999975
 30
0.0
 10
-18.79143869161834
 20
-3.149999999999975
 30
0.0
 10
-21.63532037217315
 20
-1.309994401127635
 30
0.0
 10
-24.47920205272802
 20
0.5300111977447858
 30
0.0
 10
-24.88996699784651
 20
0.787514330679209
 30
0.0
  0
SPLINE
  5
7C08
330
1F
100
AcDbEntity
  8
AM_0
100
AcDbSpline
210
0.0
220
0.0
230
1.0
 70
     8
 71
     3
 72
     9
 73
     5
 74
     0
 42
0.0000000001
 43
0.0000000001
 40
0.0
 40
0.0
 40
0.0
 40
0.0
 40
14.48999654934396
 40
16.92804852839734
 40
16.92804852839734
 40
16.92804852839734
 40
16.92804852839734
 10
-16.11010842842485
 20
-3.149999999999975
 30
0.0
 10
-18.79143869161916
 20
-3.149999999999975
 30
0.0
 10
-21.63532054857652
 20
-1.309994286994276
 30
0.0
 10
-24.47920240553385
 20
0.5300114260114394
 30
0.0
 10
-24.88996752857538
 20
0.7875146633855995
 30
0.0
  0
SPLINE
  5
7C09
330
1F
100
AcDbEntity
  8
AM_0
100
AcDbSpline
210
0.0
220
0.0
230
1.0
 70
     8
 71
     3
 72
     9
 73
     5
 74
     0
 42
0.0000000001
 43
0.0000000001
 40
0.0
 40
0.0
 40
0.0
 40
0.0
 40
14.48999654934396
 40
16.9280474783711
 40
16.9280474783711
 40
16.9280474783711
 40
16.9280474783711
 10
-15.27739696826011
 20
-3.149999999999975
 30
0.0
 10
-17.95872723145442
 20
-3.149999999999975
 30
0.0
 10
-20.80260891200924
 20
-1.309994401127635
 30
0.0
 10
-23.64649059256407
 20
0.5300111977447858
 30
0.0
 10
-24.05725553768259
 20
0.787514330679209
 30
0.0
  0
SPLINE
  5
7C0A
330
1F
100
AcDbEntity
  8
AM_0
100
AcDbSpline
210
0.0
220
0.0
230
1.0
 70
     8
 71
     3
 72
     8
 73
     4
 74
     0
 42
0.0000000001
 43
0.0000000001
 40
22.73274810806259
 40
22.73274810806259
 40
22.73274810806259
 40
22.73274810806259
 40
28.97999309868794
 40
28.97999309868794
 40
28.97999309868794
 40
28.97999309868794
 10
-19.46024806547966
 20
-2.397924952047369
 30
0.0
 10
-20.54423995108814
 20
-2.857233710195713
 30
0.0
 10
-21.65435381405779
 20
-3.149999999999975
 30
0.0
 10
-22.81038770253454
 20
-3.149999999999975
 30
0.0
  0
LINE
  5
7C0B
330
1F
100
AcDbEntity
  8
AM_0
100
AcDbLine
 10
-24.05725553768259
 20
0.7875143306791772
 30
0.0
 11
-27.94630527697091
 21
3.15000000000003
 31
0.0
  0
SPLINE
  5
7C0C
330
1F
100
AcDbEntity
  8
AM_0
100
AcDbSpline
210
0.0
220
0.0
230
1.0
 70
     8
 71
     3
 72
     9
 73
     5
 74
     0
 42
0.0000000001
 43
0.0000000001
 40
1.521176736886217
 40
1.521176736886217
 40
1.521176736886217
 40
1.521176736886217
 40
14.48999654934396
 40
28.97999309868792
 40
28.97999309868792
 40
28.97999309868792
 40
28.97999309868792
 10
-1.149346703797912
 20
-3.055837954937823
 30
0.0
 10
-3.370002692566418
 20
-2.819309326273823
 30
0.0
 10
-7.983034698816545
 20
0.1653453368630868
 30
0.0
 10
-12.59606670506662
 20
3.150000000000015
 30
0.0
 10
-15.27739696826093
 20
3.150000000000015
 30
0.0
  0
SPLINE
  5
7C0D
330
1F
100
AcDbEntity
  8
AM_0
100
AcDbSpline
210
0.0
220
0.0
230
1.0
 70
     8
 71
     3
 72
     9
 73
     5
 74
     0
 42
0.0000000001
 43
0.0000000001
 40
0.0
 40
0.0
 40
0.0
 40
0.0
 40
4.057199033816302
 40
8.114398067632619
 40
8.114398067632619
 40
8.114398067632619
 40
8.114398067632619
 10
-1.146506237953431
 20
-3.149999999999975
 30
0.0
 10
-3.691604213979975
 20
-3.149999999999975
 30
0.0
 10
-8.56019118960525
 20
0.0000000000000194
 30
0.0
 10
-13.42877816523052
 20
3.150000000000015
 30
0.0
 10
-16.11010842842485
 20
3.150000000000015
 30
0.0
  0
LINE
  5
7C0E
330
1F
100
AcDbEntity
  8
AM_0
100
AcDbLine
 10
-7.710553224895336
 20
3.150000000000015
 30
0.0
 11
-16.11010842842403
 21
3.150000000000015
 31
0.0
  0
LINE
  5
7C0F
330
1F
100
AcDbEntity
  8
AM_0
100
AcDbLine
 10
-7.710553224895336
 20
-3.149999999999975
 30
0.0
 11
-16.11010842842403
 21
-3.149999999999975
 31
0.0
  0
SPLINE
  5
7C10
330
1F
100
AcDbEntity
  8
AM_0
100
AcDbSpline
210
0.0
220
0.0
230
1.0
 70
     8
 71
     3
 72
     9
 73
     5
 74
     0
 42
0.0000000001
 43
0.0000000001
 40
0.0
 40
0.0
 40
0.0
 40
0.0
 40
4.057199033816316
 40
8.114398067632626
 40
8.114398067632626
 40
8.114398067632626
 40
8.114398067632626
 10
-7.710553224895336
 20
-3.149999999999975
 30
0.0
 10
-10.39188348808966
 20
-3.149999999999975
 30
0.0
 10
-15.26047046371495
 20
0.0000000000000194
 30
0.0
 10
-20.12905743934023
 20
3.150000000000015
 30
0.0
 10
-22.81038770253454
 20
3.150000000000015
 30
0.0
  0
LINE
  5
7C11
330
1F
100
AcDbEntity
  8
AM_0
100
AcDbLine
 10
-31.00000000000868
 20
-3.149999999999975
 30
0.0
 11
-31.00000000000868
 21
3.15000000000003
 31
0.0
  0
SPLINE
  5
7C12
330
1F
100
AcDbEntity
  8
AM_0
100
AcDbSpline
210
0.0
220
0.0
230
1.0
 70
     8
 71
     3
 72
    10
 73
     6
 74
     0
 42
0.0000000001
 43
0.0000000001
 40
0.0
 40
0.0
 40
0.0
 40
0.0
 40
1.805349240137826
 40
3.686331527232636
 40
4.976269099446192
 40
4.976269099446192
 40
4.976269099446192
 40
4.976269099446192
 10
-28.48396593930657
 20
-1.184771536742525
 30
0.0
 10
-29.53855779095319
 20
-0.5515121726808356
 30
0.0
 10
-32.84774120484081
 20
2.639673649613555
 30
0.0
 10
-27.22923591139384
 20
2.128167315501777
 30
0.0
 10
-25.63615828686002
 20
1.255292375281001
 30
0.0
 10
-24.88994413778675
 20
0.7875000000000221
 30
0.0
  0
SPLINE
  5
7C13
330
1F
100
AcDbEntity
  8
AM_0
100
AcDbSpline
210
0.0
220
0.0
230
1.0
 70
     8
 71
     3
 72
     8
 73
     4
 74
     0
 42
0.0000000001
 43
0.0000000001
 40
0.0
 40
0.0
 40
0.0
 40
0.0
 40
10.77533687840354
 40
10.77533687840354
 40
10.77533687840354
 40
10.77533687840354
 10
-22.81038770253454
 20
-3.149999999999975
 30
0.0
 10
-24.80433137048427
 20
-3.149999999999975
 30
0.0
 10
-26.66166369594958
 20
-2.27902496366994
 30
0.0
 10
-28.48397429847715
 20
-1.184766517241517
 30
0.0
  0
VIEWPORT
  5
E2
330
1B
100
AcDbEntity
 67
     1
  8
0
100
AcDbViewport
 10
158.659971393327
 20
148.5
 30
0.0
 40
581.809078125
 41
314.226
 68
     1
 69
     1
1001
ACAD
1000
MVIEW
1002
{
1070
    16
1010
0.0
1020
0.0
1030
0.0
1010
0.0
1020
0.0
1030
1.0
1040
0.0
1040
314.226
1040
158.659971393327
1040
148.5
1040
50.0
1040
0.0
1040
0.0
1070
     0
1070
   100
1070
     1
1070
     1
1070
     0
1070
     0
1070
     0
1070
     0
1040
0.0
1040
0.0
1040
0.0
1040
10.0
1040
10.0
1040
10.0
1040
10.0
1070
     0
1002
{
1002
}
1002
}
  0
ENDSEC
  0
SECTION
  2
OBJECTS
  0
DICTIONARY
  5
C
330
0
100
AcDbDictionary
  3
ACAD_GROUP
350
D
  3
ACAD_LAYOUT
350
1A
  3
ACAD_MLINESTYLE
350
17
  3
ACAD_PLOTSETTINGS
350
19
  3
ACAD_PLOTSTYLENAME
350
E
  3
ACDBVARIABLEDICTIONARY
350
34
  3
ACMDICTIONARY
350
43
  3
AMG
350
2B
  3
AMGSNAPSETTINGS
350
6E
  3
DWGPROPS
350
7C4E
  3
ACDBHEADERROUNDTRIPXREC
350
7C5B
  0
DICTIONARY
  5
74
330
1F
100
AcDbDictionary
280
     1
  3
ACAD_INDEX
360
7C50
  3
ACAD_LAYOUTSELFREF
360
7C7E
  0
DICTIONARY
  5
7C7C
330
1B
100
AcDbDictionary
280
     1
  3
ACAD_LAYOUTSELFREF
360
7C7D
  0
DICTIONARY
  5
D
102
{ACAD_REACTORS
330
C
102
}
330
C
100
AcDbDictionary
  0
DICTIONARY
  5
1A
102
{ACAD_REACTORS
330
C
102
}
330
C
100
AcDbDictionary
  0
DICTIONARY
  5
17
102
{ACAD_REACTORS
330
C
102
}
330
C
100
AcDbDictionary
  3
STANDARD
350
18
  0
DICTIONARY
  5
19
102
{ACAD_REACTORS
330
C
102
}
330
C
100
AcDbDictionary
  0
ACDBDICTIONARYWDFLT
  5
E
102
{ACAD_REACTORS
330
C
102
}
330
C
100
AcDbDictionary
281
     1
  3
Normal
350
F
100
AcDbDictionaryWithDefault
340
F
  0
DICTIONARY
  5
34
102
{ACAD_REACTORS
330
C
102
}
330
C
100
AcDbDictionary
  3
INDEXCTL
350
35
  3
SORTENTS
350
B5E
  0
DICTIONARY
  5
43
102
{ACAD_REACTORS
330
C
102
}
330
C
100
AcDbDictionary
  3
ACMSTDDICTIONARY
350
260
  0
DICTIONARY
  5
2B
102
{ACAD_REACTORS
330
C
102
}
330
C
100
AcDbDictionary
  3
ACMGSETTINGS
350
2C
  0
DICTIONARY
  5
6E
102
{ACAD_REACTORS
330
C
102
}
330
C
100
AcDbDictionary
  0
XRECORD
  5
7C4E
102
{ACAD_REACTORS
330
C
102
}
330
C
100
AcDbXrecord
  1
DWGPROPS COOKIE
  2

  3

  4

  6

  7

  8

  9

300
AmdtFileType=82
301
=
302
=
303
=
304
=
305
=
306
=
307
=
308
=
309
=
 40
1.358375347222222
 41
2452838.620506898
 42
2452954.465895301
  1

 90
        1
  0
DICTIONARY
  5
7C5B
102
{ACAD_REACTORS
330
C
102
}
330
C
100
AcDbDictionary
  3
TSTACKALIGN
350
7C5C
  3
TSTACKSIZE
350
7C5D
  3
HYPERLINKBASE
350
7C5E
  3
STYLESHEET
350
7C5F
  3
LAYOUTDICT
350
7C60
  3
PLOTSETDICT
350
7C61
  3
PLOTSTYLNAMDICT
350
7C62
  3
LWETCUNION
350
7C63
  3
INSUNITS
350
7C64
  3
CEPSNTYPE
350
7C65
  3
FINGERPRINTGUID
350
7C66
  3
VERSIONGUID
350
7C67
  3
PSVPSCALE
350
7C68
  3
DIMSTYLEDATA
350
7C69
  3
PUCSORTHOREF
350
7C6A
  3
PUCSORTHOVIEW
350
7C6B
  3
PUCSBASE
350
7C6C
  3
PUCSORGTOP
350
7C6D
  3
PUCSORGBOTTOM
350
7C6E
  3
PUCSORGLEFT
350
7C6F
  3
PUCSORGRIGHT
350
7C70
  3
PUCSORGFRONT
350
7C71
  3
PUCSORGBACK
350
7C72
  3
UCSORTHOREF
350
7C73
  3
UCSORTHOVIEW
350
7C74
  3
UCSBASE
350
7C75
  3
UCSORGTOP
350
7C76
  3
UCSORGBOTTOM
350
7C77
  3
UCSORGLEFT
350
7C78
  3
UCSORGRIGHT
350
7C79
  3
UCSORGFRONT
350
7C7A
  3
UCSORGBACK
350
7C7B
  0
DICTIONARY
  5
7C50
102
{ACAD_REACTORS
330
74
102
}
330
74
100
AcDbDictionary
  3
*A1
350
7C51
  0
XRECORD
  5
7C7E
102
{ACAD_REACTORS
330
74
102
}
330
74
100
AcDbXrecord
340
1F
  0
XRECORD
  5
7C7D
102
{ACAD_REACTORS
330
7C7C
102
}
330
7C7C
100
AcDbXrecord
340
1B
  0
MLINESTYLE
  5
18
102
{ACAD_REACTORS
330
17
102
}
330
17
100
AcDbMlineStyle
  2
STANDARD
 70
     0
  3

 62
   256
 51
90.0
 52
90.0
 71
     2
 49
0.5
 62
   256
  6
BYLAYER
 49
-0.5
 62
   256
  6
BYLAYER
  0
ACDBPLACEHOLDER
  5
F
102
{ACAD_REACTORS
330
E
102
}
330
E
100
AcDbPlaceHolder
280
     0
  0
DICTIONARYVAR
  5
35
102
{ACAD_REACTORS
330
34
102
}
330
34
100
DictionaryVariables
280
     0
  1
1
  0
DICTIONARYVAR
  5
B5E
102
{ACAD_REACTORS
330
34
102
}
330
34
100
DictionaryVariables
280
     0
  1
96
  0
DICTIONARY
  5
260
102
{ACAD_REACTORS
330
43
102
}
330
43
100
AcDbDictionary
  0
DICTIONARY
  5
2C
102
{ACAD_REACTORS
330
2B
102
}
330
2B
100
AcDbDictionary
  3
DWGSETTINGS
350
2D
  0
XRECORD
  5
7C5C
102
{ACAD_REACTORS
330
7C5B
102
}
330
7C5B
100
AcDbXrecord
 90
        1
  0
XRECORD
  5
7C5D
102
{ACAD_REACTORS
330
7C5B
102
}
330
7C5B
100
AcDbXrecord
 90
       70
  0
XRECORD
  5
7C5E
102
{ACAD_REACTORS
330
7C5B
102
}
330
7C5B
100
AcDbXrecord
  1

  0
XRECORD
  5
7C5F
102
{ACAD_REACTORS
330
7C5B
102
}
330
7C5B
100
AcDbXrecord
  1
C:\Program Files\ACAD LT 2000\Plot Styles\ASAMI.ctb
  0
XRECORD
  5
7C60
102
{ACAD_REACTORS
330
7C5B
102
}
330
7C5B
100
AcDbXrecord
340
1A
  0
XRECORD
  5
7C61
102
{ACAD_REACTORS
330
7C5B
102
}
330
7C5B
100
AcDbXrecord
340
19
  0
XRECORD
  5
7C62
102
{ACAD_REACTORS
330
7C5B
102
}
330
7C5B
100
AcDbXrecord
340
E
  0
XRECORD
  5
7C63
102
{ACAD_REACTORS
330
7C5B
102
}
330
7C5B
100
AcDbXrecord
 90
    10781
  0
XRECORD
  5
7C64
102
{ACAD_REACTORS
330
7C5B
102
}
330
7C5B
100
AcDbXrecord
 90
        4
  0
XRECORD
  5
7C65
102
{ACAD_REACTORS
330
7C5B
102
}
330
7C5B
100
AcDbXrecord
 90
        0
  0
XRECORD
  5
7C66
102
{ACAD_REACTORS
330
7C5B
102
}
330
7C5B
100
AcDbXrecord
  1
{AFB28963-8C59-40AE-9337-C84526B81ACE}
  0
XRECORD
  5
7C67
102
{ACAD_REACTORS
330
7C5B
102
}
330
7C5B
100
AcDbXrecord
  1
{EBE7009D-CA25-4E8C-8DC3-15EF6012C135}
  0
XRECORD
  5
7C68
102
{ACAD_REACTORS
330
7C5B
102
}
330
7C5B
100
AcDbXrecord
 40
0.0
  0
XRECORD
  5
7C69
102
{ACAD_REACTORS
330
7C5B
102
}
330
7C5B
100
AcDbXrecord
1000
DSTYLE
1002
{
1070
    79
 70
     2
1070
   341
340
59
1070
   342
340
59
1070
   371
 70
    -1
1070
   372
 70
    -1
1002
}
  0
XRECORD
  5
7C6A
102
{ACAD_REACTORS
330
7C5B
102
}
330
7C5B
100
AcDbXrecord
340
0
  0
XRECORD
  5
7C6B
102
{ACAD_REACTORS
330
7C5B
102
}
330
7C5B
100
AcDbXrecord
 70
     0
  0
XRECORD
  5
7C6C
102
{ACAD_REACTORS
330
7C5B
102
}
330
7C5B
100
AcDbXrecord
340
0
  0
XRECORD
  5
7C6D
102
{ACAD_REACTORS
330
7C5B
102
}
330
7C5B
100
AcDbXrecord
 10
0.0
 20
0.0
 30
0.0
  0
XRECORD
  5
7C6E
102
{ACAD_REACTORS
330
7C5B
102
}
330
7C5B
100
AcDbXrecord
 10
0.0
 20
0.0
 30
0.0
  0
XRECORD
  5
7C6F
102
{ACAD_REACTORS
330
7C5B
102
}
330
7C5B
100
AcDbXrecord
 10
0.0
 20
0.0
 30
0.0
  0
XRECORD
  5
7C70
102
{ACAD_REACTORS
330
7C5B
102
}
330
7C5B
100
AcDbXrecord
 10
0.0
 20
0.0
 30
0.0
  0
XRECORD
  5
7C71
102
{ACAD_REACTORS
330
7C5B
102
}
330
7C5B
100
AcDbXrecord
 10
0.0
 20
0.0
 30
0.0
  0
XRECORD
  5
7C72
102
{ACAD_REACTORS
330
7C5B
102
}
330
7C5B
100
AcDbXrecord
 10
0.0
 20
0.0
 30
0.0
  0
XRECORD
  5
7C73
102
{ACAD_REACTORS
330
7C5B
102
}
330
7C5B
100
AcDbXrecord
340
0
  0
XRECORD
  5
7C74
102
{ACAD_REACTORS
330
7C5B
102
}
330
7C5B
100
AcDbXrecord
 70
     0
  0
XRECORD
  5
7C75
102
{ACAD_REACTORS
330
7C5B
102
}
330
7C5B
100
AcDbXrecord
340
0
  0
XRECORD
  5
7C76
102
{ACAD_REACTORS
330
7C5B
102
}
330
7C5B
100
AcDbXrecord
 10
0.0
 20
0.0
 30
0.0
  0
XRECORD
  5
7C77
102
{ACAD_REACTORS
330
7C5B
102
}
330
7C5B
100
AcDbXrecord
 10
0.0
 20
0.0
 30
0.0
  0
XRECORD
  5
7C78
102
{ACAD_REACTORS
330
7C5B
102
}
330
7C5B
100
AcDbXrecord
 10
0.0
 20
0.0
 30
0.0
  0
XRECORD
  5
7C79
102
{ACAD_REACTORS
330
7C5B
102
}
330
7C5B
100
AcDbXrecord
 10
0.0
 20
0.0
 30
0.0
  0
XRECORD
  5
7C7A
102
{ACAD_REACTORS
330
7C5B
102
}
330
7C5B
100
AcDbXrecord
 10
0.0
 20
0.0
 30
0.0
  0
XRECORD
  5
7C7B
102
{ACAD_REACTORS
330
7C5B
102
}
330
7C5B
100
AcDbXrecord
 10
0.0
 20
0.0
 30
0.0
  0
LAYER_INDEX
  5
7C51
102
{ACAD_REACTORS
330
7C50
102
}
330
7C50
100
AcDbIndex
 40
2453151.598732083
100
AcDbLayerIndex
  8
0
360
7C52
 90
        0
  8
AM_0
360
7C53
 90
       37
  8
AM_11
360
7C54
 90
        0
  8
AM_7
360
7C55
 90
        1
  8
AM_5
360
7C56
 90
        8
  8
Defpoints
360
7C57
 90
        0
  8
AM_6
360
7C58
 90
        1
  8
AM_CL
360
7C59
 90
        0
  0
XRECORD
  5
2D
102
{ACAD_REACTORS
330
2C
102
}
330
2C
100
AcDbXrecord
  1
VERSION
140
15.0
  1
PRODUCT
  2
AutoCAD Mechanical 2000
  0
IDBUFFER
  5
7C52
330
0
100
AcDbIdBuffer
  0
IDBUFFER
  5
7C53
330
0
100
AcDbIdBuffer
330
7BFC
330
7BFD
330
7BFE
330
7C00
330
7C01
330
7C02
330
7C03
330
7C04
330
7C07
330
7C08
330
7C09
330
7C0A
330
7C0B
330
7C0C
330
7C0D
330
7C0E
330
7C0F
330
7C10
330
7C11
330
7C12
330
7C13
330
631C
330
631D
330
63DB
330
665B
330
665E
330
665F
330
6661
330
67B1
330
67B7
330
67B9
330
67BA
330
7571
330
7ABA
330
7ABC
330
7BFA
330
7BFB
  0
IDBUFFER
  5
7C54
330
0
100
AcDbIdBuffer
  0
IDBUFFER
  5
7C55
330
0
100
AcDbIdBuffer
330
6320
  0
IDBUFFER
  5
7C56
330
0
100
AcDbIdBuffer
330
63C1
330
640B
330
6418
330
6663
330
7BF9
330
7BFF
330
7C05
330
7C06
  0
IDBUFFER
  5
7C57
330
0
100
AcDbIdBuffer
  0
IDBUFFER
  5
7C58
330
0
100
AcDbIdBuffer
330
C58
  0
IDBUFFER
  5
7C59
330
0
100
AcDbIdBuffer
  0
ENDSEC
  0
EOF
