  0
SECTION
  2
HEADER
  9
$ACADVER
  1
AC1014
  9
$ACADMAINTVER
 70
     9
  9
$DWGCODEPAGE
  3
ANSI_932
  9
$INSBASE
 10
0.0
 20
0.0
 30
0.0
  9
$EXTMIN
 10
-169.0241845496782
 20
-58.75396133965956
 30
-0.00000001
  9
$EXTMAX
 10
33.31623128380615
 20
32.33844422313201
 30
0.00000001
  9
$LIMMIN
 10
-199.1616383933703
 20
-82.46477423987101
  9
$LIMMAX
 10
53.82318209278981
 20
49.75708227080565
  9
$ORTHOMODE
 70
     0
  9
$REGENMODE
 70
     1
  9
$FILLMODE
 70
     1
  9
$QTEXTMODE
 70
     0
  9
$MIRRTEXT
 70
     0
  9
$DRAGMODE
 70
     2
  9
$LTSCALE
 40
0.5
  9
$OSMODE
 70
    55
  9
$ATTMODE
 70
     1
  9
$TEXTSIZE
 40
2.5
  9
$TRACEWID
 40
1.0
  9
$TEXTSTYLE
  7
STANDARD
  9
$CLAYER
  8
AM_0
  9
$CELTYPE
  6
BYLAYER
  9
$CECOLOR
 62
   256
  9
$CELTSCALE
 40
1.0
  9
$DELOBJ
 70
     1
  9
$DISPSILH
 70
     0
  9
$DIMSCALE
 40
1.0
  9
$DIMASZ
 40
2.5
  9
$DIMEXO
 40
1.0
  9
$DIMDLI
 40
12.0
  9
$DIMRND
 40
0.0
  9
$DIMDLE
 40
0.0
  9
$DIMEXE
 40
1.0
  9
$DIMTP
 40
0.1
  9
$DIMTM
 40
0.1
  9
$DIMTXT
 40
3.2
  9
$DIMCEN
 40
0.0
  9
$DIMTSZ
 40
0.0
  9
$DIMTOL
 70
     0
  9
$DIMLIM
 70
     0
  9
$DIMTIH
 70
     0
  9
$DIMTOH
 70
     0
  9
$DIMSE1
 70
     0
  9
$DIMSE2
 70
     0
  9
$DIMTAD
 70
     3
  9
$DIMZIN
 70
     1
  9
$DIMBLK
  1
OPEN30
  9
$DIMASO
 70
     1
  9
$DIMSHO
 70
     1
  9
$DIMPOST
  1

  9
$DIMAPOST
  1
"
  9
$DIMALT
 70
     0
  9
$DIMALTD
 70
     2
  9
$DIMALTF
 40
0.0393701
  9
$DIMLFAC
 40
1.0
  9
$DIMTOFL
 70
     1
  9
$DIMTVP
 40
0.0
  9
$DIMTIX
 70
     0
  9
$DIMSOXD
 70
     0
  9
$DIMSAH
 70
     0
  9
$DIMBLK1
  1

  9
$DIMBLK2
  1

  9
$DIMSTYLE
  2
AM_JIS
  9
$DIMCLRD
 70
     3
  9
$DIMCLRE
 70
     3
  9
$DIMCLRT
 70
     2
  9
$DIMTFAC
 40
0.71
  9
$DIMGAP
 40
1.5
  9
$DIMJUST
 70
     0
  9
$DIMSD1
 70
     0
  9
$DIMSD2
 70
     0
  9
$DIMTOLJ
 70
     0
  9
$DIMTZIN
 70
     0
  9
$DIMALTZ
 70
     0
  9
$DIMALTTZ
 70
     0
  9
$DIMFIT
 70
     3
  9
$DIMUPT
 70
     0
  9
$DIMUNIT
 70
     2
  9
$DIMDEC
 70
     1
  9
$DIMTDEC
 70
     1
  9
$DIMALTU
 70
     2
  9
$DIMALTTD
 70
     2
  9
$DIMTXSTY
  7
ASAMI
  9
$DIMAUNIT
 70
     0
  9
$LUNITS
 70
     2
  9
$LUPREC
 70
     2
  9
$SKETCHINC
 40
1.0
  9
$FILLETRAD
 40
0.8
  9
$AUNITS
 70
     0
  9
$AUPREC
 70
     0
  9
$MENU
  1
.
  9
$ELEVATION
 40
0.0
  9
$PELEVATION
 40
0.0
  9
$THICKNESS
 40
0.0
  9
$LIMCHECK
 70
     0
  9
$BLIPMODE
 70
     0
  9
$CHAMFERA
 40
1.0
  9
$CHAMFERB
 40
1.0
  9
$CHAMFERC
 40
20.0
  9
$CHAMFERD
 40
0.0
  9
$SKPOLY
 70
     0
  9
$TDCREATE
 40
2452838.620506898
  9
$TDUPDATE
 40
2453151.655720833
  9
$TDINDWG
 40
2.0011242130
  9
$TDUSRTIMER
 40
2.0011242130
  9
$USRTIMER
 70
     1
  9
$ANGBASE
 50
0.0
  9
$ANGDIR
 70
     0
  9
$PDMODE
 70
     0
  9
$PDSIZE
 40
0.0
  9
$PLINEWID
 40
0.0
  9
$COORDS
 70
     1
  9
$SPLFRAME
 70
     0
  9
$SPLINETYPE
 70
     6
  9
$SPLINESEGS
 70
     8
  9
$ATTDIA
 70
     1
  9
$ATTREQ
 70
     1
  9
$HANDLING
 70
 12289
  9
$HANDSEED
  5
C8C6
  9
$SURFTAB1
 70
     6
  9
$SURFTAB2
 70
     6
  9
$SURFTYPE
 70
     6
  9
$SURFU
 70
     6
  9
$SURFV
 70
     6
  9
$UCSNAME
  2

  9
$UCSORG
 10
0.0
 20
0.0000000000000002
 30
0.0
  9
$UCSXDIR
 10
1.0
 20
0.0
 30
0.0
  9
$UCSYDIR
 10
0.0
 20
1.0
 30
0.0
  9
$PUCSNAME
  2

  9
$PUCSORG
 10
0.0
 20
0.0
 30
0.0
  9
$PUCSXDIR
 10
1.0
 20
0.0
 30
0.0
  9
$PUCSYDIR
 10
0.0
 20
1.0
 30
0.0
  9
$USERI1
 70
     0
  9
$USERI2
 70
     0
  9
$USERI3
 70
     0
  9
$USERI4
 70
     0
  9
$USERI5
 70
     0
  9
$USERR1
 40
0.0
  9
$USERR2
 40
0.0
  9
$USERR3
 40
0.0
  9
$USERR4
 40
0.0
  9
$USERR5
 40
0.0
  9
$WORLDVIEW
 70
     1
  9
$SHADEDGE
 70
     3
  9
$SHADEDIF
 70
    70
  9
$TILEMODE
 70
     1
  9
$MAXACTVP
 70
    64
  9
$PINSBASE
 10
0.0
 20
0.0
 30
0.0
  9
$PLIMCHECK
 70
     0
  9
$PEXTMIN
 10
1.000000000000000E+20
 20
1.000000000000000E+20
 30
1.000000000000000E+20
  9
$PEXTMAX
 10
-1.000000000000000E+20
 20
-1.000000000000000E+20
 30
-1.000000000000000E+20
  9
$PLIMMIN
 10
0.0
 20
0.0
  9
$PLIMMAX
 10
210.0
 20
297.0
  9
$UNITMODE
 70
     0
  9
$VISRETAIN
 70
     1
  9
$PLINEGEN
 70
     0
  9
$PSLTSCALE
 70
     1
  9
$TREEDEPTH
 70
  3020
  9
$PICKSTYLE
 70
     0
  9
$CMLSTYLE
  2
STANDARD
  9
$CMLJUST
 70
     0
  9
$CMLSCALE
 40
20.0
  9
$PROXYGRAPHICS
 70
     1
  9
$MEASUREMENT
 70
     1
  0
ENDSEC
  0
SECTION
  2
CLASSES
  0
CLASS
  1
ACDBDICTIONARYWDFLT
  2
AcDbDictionaryWithDefault
  3
AutoCAD 2000
 90
        0
280
     0
281
     0
  0
CLASS
  1
ACDBPLACEHOLDER
  2
AcDbPlaceHolder
  3
AutoCAD 2000
 90
        0
280
     0
281
     0
  0
CLASS
  1
LAYOUT
  2
AcDbLayout
  3
AutoCAD 2000
 90
        0
280
     0
281
     0
  0
CLASS
  1
AMGSETTINGSOBJ
  2
AmgSettingsObj
  3
"AcadM|Product Description: AutoCAD Mechanical 2000|Company: Autodesk"
 90
        0
280
     0
281
     0
  0
CLASS
  1
ACME_DOCUMENT
  2
AcMeDbDoc
  3
AcMeServices
 90
        0
280
     0
281
     0
  0
CLASS
  1
ACMESCOPE
  2
AcMeScope
  3
AcMeServices
 90
        0
280
     0
281
     0
  0
CLASS
  1
ACMECOMMANDHISTORY
  2
AcMeCommandHistory
  3
AcMeServices
 90
        0
280
     0
281
     0
  0
CLASS
  1
DICTIONARYVAR
  2
AcDbDictionaryVar
  3
AutoCAD 2000
 90
        0
280
     0
281
     0
  0
CLASS
  1
ACIMSYSVARMAN
  2
AcImSysVarManager
  3
AcMeServices
 90
        0
280
     0
281
     0
  0
CLASS
  1
ACIMREALSYSVAR
  2
AcImRealSysVar
  3
AcMeServices
 90
        0
280
     0
281
     0
  0
CLASS
  1
ACIMINTSYSVAR
  2
AcImIntSysVar
  3
AcMeServices
 90
        0
280
     0
281
     0
  0
CLASS
  1
ACMEDRAWINGMAN
  2
AcMeDrawingMan
  3
AcMeServices
 90
        0
280
     0
281
     0
  0
CLASS
  1
ACMEVIEW
  2
AcMeView
  3
AcMeServices
 90
        0
280
     0
281
     0
  0
CLASS
  1
ACDBENTITYCACHE
  2
AcMeEntityCache
  3
AcMeServices
 90
        0
280
     0
281
     0
  0
CLASS
  1
GSMANAGER
  2
AcMeGSManager
  3
AcMeServices
 90
        0
280
     0
281
     0
  0
CLASS
  1
AmdtInternalReactor
  2
AmdtInternalReactor
  3
AcMeServices
 90
        0
280
     0
281
     0
  0
CLASS
  1
ACMESTATEMGR
  2
AcMeStateMgr
  3
AcMeServices
 90
        0
280
     0
281
     0
  0
CLASS
  1
ACME_DATABASE
  2
AcMeDbDatabase
  3
AcMeServices
 90
        0
280
     0
281
     0
  0
CLASS
  1
ACRFINSADJUSTERMGR
  2
AcRfInsAdjusterMgr
  3
AcMeServices
 90
        0
280
     0
281
     0
  0
CLASS
  1
ACMDATADICTIONARY
  2
AcmDataDictionary
  3
"AcmSymBB|Product Description: AutoCAD Mechanical 2000|Company: Autodesk"
 90
        0
280
     0
281
     0
  0
CLASS
  1
ACMDATAENTRYBLOCK
  2
AcmDataEntryBlock
  3
"AcmSymBB|Product Description: AutoCAD Mechanical 2000|Company: Autodesk"
 90
        0
280
     0
281
     0
  0
CLASS
  1
AMGOBJPROPCFG
  2
AmgObjPropCfg
  3
"AmgLay|Product Description: AutoCAD Mechanical 2000|Company: Autodesk"
 90
        1
280
     0
281
     0
  0
CLASS
  1
ACAMGFILTERDAT
  2
AcAmgFilterDat
  3
"AcadM|Product Description: AutoCAD Mechanical 2000|Company: Autodesk"
 90
        0
280
     0
281
     0
  0
CLASS
  1
LAYER_INDEX
  2
AcDbLayerIndex
  3
AutoCAD 2000
 90
        0
280
     0
281
     0
  0
CLASS
  1
IDBUFFER
  2
AcDbIdBuffer
  3
AutoCAD 2000
 90
        0
280
     0
281
     0
  0
CLASS
  1
ACIMSTRSYSVAR
  2
AcImStrSysVar
  3
AcMeServices
 90
        0
280
     0
281
     0
  0
CLASS
  1
ACMSTANDARDJIS
  2
AcmStandardJIS
  3
"AcmSymBB|Product Description: AutoCAD Mechanical 2000|Company: Autodesk"
 90
        0
280
     0
281
     0
  0
CLASS
  1
ACMSURFSTANDARDJIS
  2
AcmSurfTextStdJIS
  3
"AcmSymBB|Product Description: AutoCAD Mechanical 2000|Company: Autodesk"
 90
        0
280
     0
281
     0
  0
CLASS
  1
ACMFCFSTANDARDJIS
  2
AcmFCFStdJIS
  3
"AcmSymBB|Product Description: AutoCAD Mechanical 2000|Company: Autodesk"
 90
        0
280
     0
281
     0
  0
CLASS
  1
ACMWELDSTANDARDJIS
  2
AcmWeldingStdJIS
  3
"AcmSymBB|Product Description: AutoCAD Mechanical 2000|Company: Autodesk"
 90
        0
280
     0
281
     0
  0
CLASS
  1
ACMIDSTANDARDJIS
  2
AcmIdStdJIS
  3
"AcmSymBB|Product Description: AutoCAD Mechanical 2000|Company: Autodesk"
 90
        0
280
     0
281
     0
  0
CLASS
  1
ACMDATUMSTANDARDJIS
  2
AcmDatumStdJIS
  3
"AcmSymBB|Product Description: AutoCAD Mechanical 2000|Company: Autodesk"
 90
        0
280
     0
281
     0
  0
CLASS
  1
ACMBOMSTANDARDJIS
  2
AcmBOMStdJIS
  3
"AcmSymBB|Product Description: AutoCAD Mechanical 2000|Company: Autodesk"
 90
        0
280
     0
281
     0
  0
CLASS
  1
ACMSTANDARDANSI
  2
AcmStandardANSI
  3
"AcmSymBB|Product Description: AutoCAD Mechanical 2000|Company: Autodesk"
 90
        0
280
     0
281
     0
  0
CLASS
  1
ACMSURFSTANDARDANSI
  2
AcmSurfTextStdANSI
  3
"AcmSymBB|Product Description: AutoCAD Mechanical 2000|Company: Autodesk"
 90
        0
280
     0
281
     0
  0
CLASS
  1
ACMFCFSTANDARDANSI
  2
AcmFCFStdANSI
  3
"AcmSymBB|Product Description: AutoCAD Mechanical 2000|Company: Autodesk"
 90
        0
280
     0
281
     0
  0
CLASS
  1
ACMWELDSTANDARDANSI
  2
AcmWeldingStdANSI
  3
"AcmSymBB|Product Description: AutoCAD Mechanical 2000|Company: Autodesk"
 90
        0
280
     0
281
     0
  0
CLASS
  1
ACMIDSTANDARDANSI
  2
AcmIdStdANSI
  3
"AcmSymBB|Product Description: AutoCAD Mechanical 2000|Company: Autodesk"
 90
        0
280
     0
281
     0
  0
CLASS
  1
ACMDATUMSTANDARDANSI
  2
AcmDatumStdANSI
  3
"AcmSymBB|Product Description: AutoCAD Mechanical 2000|Company: Autodesk"
 90
        0
280
     0
281
     0
  0
CLASS
  1
ACMBOMSTANDARDANSI
  2
AcmBOMStdANSI
  3
"AcmSymBB|Product Description: AutoCAD Mechanical 2000|Company: Autodesk"
 90
        0
280
     0
281
     0
  0
CLASS
  1
ACMSTANDARDBSI
  2
AcmStandardBSI
  3
"AcmSymBB|Product Description: AutoCAD Mechanical 2000|Company: Autodesk"
 90
        0
280
     0
281
     0
  0
CLASS
  1
ACMSURFSTANDARDBSI
  2
AcmSurfTextStdBSI
  3
"AcmSymBB|Product Description: AutoCAD Mechanical 2000|Company: Autodesk"
 90
        0
280
     0
281
     0
  0
CLASS
  1
ACMFCFSTANDARDBSI
  2
AcmFCFStdBSI
  3
"AcmSymBB|Product Description: AutoCAD Mechanical 2000|Company: Autodesk"
 90
        0
280
     0
281
     0
  0
CLASS
  1
ACMWELDSTANDARDBSI
  2
AcmWeldingStdBSI
  3
"AcmSymBB|Product Description: AutoCAD Mechanical 2000|Company: Autodesk"
 90
        0
280
     0
281
     0
  0
CLASS
  1
ACMIDSTANDARDBSI
  2
AcmIdStdBSI
  3
"AcmSymBB|Product Description: AutoCAD Mechanical 2000|Company: Autodesk"
 90
        0
280
     0
281
     0
  0
CLASS
  1
ACMDATUMSTANDARDBSI
  2
AcmDatumStdBSI
  3
"AcmSymBB|Product Description: AutoCAD Mechanical 2000|Company: Autodesk"
 90
        0
280
     0
281
     0
  0
CLASS
  1
ACMBOMSTANDARDBSI
  2
AcmBOMStdBSI
  3
"AcmSymBB|Product Description: AutoCAD Mechanical 2000|Company: Autodesk"
 90
        0
280
     0
281
     0
  0
CLASS
  1
LONG_TRANSACTION
  2
AcDbLongTransaction
  3
AutoCAD 2000
 90
        0
280
     0
281
     0
  0
CLASS
  1
LWPOLYLINE
  2
AcDbPolyline
  3
AutoCAD 2000
 90
        0
280
     0
281
     1
  0
CLASS
  1
HATCH
  2
AcDbHatch
  3
AutoCAD 2000
 90
        0
280
     0
281
     1
  0
CLASS
  1
XRECORD
  2
AcDbXrecord
  3
AutoCAD 2000
 90
        0
280
     0
281
     0
  0
ENDSEC
  0
SECTION
  2
TABLES
  0
TABLE
  2
VPORT
  5
8
330
0
100
AcDbSymbolTable
 70
     3
  0
VPORT
  5
C887
330
8
100
AcDbSymbolTableRecord
100
AcDbViewportTableRecord
  2
*ACTIVE
 70
     0
 10
0.0
 20
0.0
 11
1.0
 21
1.0
 12
-24.22009540851798
 22
9.81616939786214
 13
0.0
 23
0.0
 14
2.5
 24
2.5
 15
10.0
 25
10.0
 16
0.0
 26
0.0
 36
1.0
 17
0.0
 27
0.0
 37
0.0
 40
198.2230883755807
 41
1.56570841889117
 42
50.0
 43
0.0
 44
0.0
 50
0.0
 51
0.0
 71
     0
 72
   100
 73
     1
 74
     3
 75
     0
 76
     0
 77
     0
 78
     0
  0
ENDTAB
  0
TABLE
  2
LTYPE
  5
5
330
0
100
AcDbSymbolTable
 70
    10
  0
LTYPE
  5
14
330
5
100
AcDbSymbolTableRecord
100
AcDbLinetypeTableRecord
  2
BYBLOCK
 70
     0
  3

 72
    65
 73
     0
 40
0.0
  0
LTYPE
  5
15
330
5
100
AcDbSymbolTableRecord
100
AcDbLinetypeTableRecord
  2
BYLAYER
 70
     0
  3

 72
    65
 73
     0
 40
0.0
  0
LTYPE
  5
16
330
5
100
AcDbSymbolTableRecord
100
AcDbLinetypeTableRecord
  2
CONTINUOUS
 70
     0
  3
Solid line
 72
    65
 73
     0
 40
0.0
  0
LTYPE
  5
4B
330
5
100
AcDbSymbolTableRecord
100
AcDbLinetypeTableRecord
  2
AM_ISO02W050
 70
     0
  3
__ __ __ __ __ __ __ __ __ __ __ __ __ __ __
 72
    65
 73
     2
 40
7.5
 49
6.0
 74
     0
 49
-1.5
 74
     0
  0
LTYPE
  5
4C
330
5
100
AcDbSymbolTableRecord
100
AcDbLinetypeTableRecord
  2
AM_ISO08W050
 70
     0
  3
____ . ____ . ____ . ____ . ____ . ____ . ____
 72
    65
 73
     4
 40
18.0
 49
12.0
 74
     0
 49
-1.5
 74
     0
 49
3.0
 74
     0
 49
-1.5
 74
     0
  0
LTYPE
  5
4D
330
5
100
AcDbSymbolTableRecord
100
AcDbLinetypeTableRecord
  2
AM_ISO09W050
 70
     0
  3
_____ . . _____ . . _____ . . ____ .. ____
 72
    65
 73
     6
 40
22.5
 49
12.0
 74
     0
 49
-1.5
 74
     0
 49
3.0
 74
     0
 49
-1.5
 74
     0
 49
3.0
 74
     0
 49
-1.5
 74
     0
  0
LTYPE
  5
4E
330
5
100
AcDbSymbolTableRecord
100
AcDbLinetypeTableRecord
  2
AMCONSTR
 70
     0
  3
_______________________
 72
    65
 73
     2
 40
9999.0
 49
9999.0
 74
     0
 49
0.0
 74
     0
  0
LTYPE
  5
4F
330
5
100
AcDbSymbolTableRecord
100
AcDbLinetypeTableRecord
  2
AM_ISO02W050X2
 70
     0
  3
 _ _ _ _ _ _ _ _ _ _ _ _
 72
    65
 73
     2
 40
3.75
 49
3.0
 74
     0
 49
-0.75
 74
     0
  0
LTYPE
  5
50
330
5
100
AcDbSymbolTableRecord
100
AcDbLinetypeTableRecord
  2
AM_ISO08W050X2
 70
     0
  3
__ . __ . __ . __ . __ . __
 72
    65
 73
     4
 40
9.0
 49
6.0
 74
     0
 49
-0.75
 74
     0
 49
1.5
 74
     0
 49
-0.75
 74
     0
  0
LTYPE
  5
53
330
5
100
AcDbSymbolTableRecord
100
AcDbLinetypeTableRecord
  2
AMZIGZAG
 70
     0
  3
/\/-/\/-/\/-/\/-/\/-/\/
 72
    65
 73
     2
 40
11.00009999999999
 49
0.0001
 74
     4
 75
   135
340
52
 46
0.04
 50
0.0
 44
0.0
 45
0.0
 49
-11.0
 74
     0
  0
LTYPE
  5
166
330
5
100
AcDbSymbolTableRecord
100
AcDbLinetypeTableRecord
  2
ACJISTGL
 70
     0
  3
_ _ _ _ _
 72
    65
 73
     2
 40
3.0
 49
2.0
 74
     0
 49
-1.0
 74
     0
  0
LTYPE
  5
26A
330
5
100
AcDbSymbolTableRecord
100
AcDbLinetypeTableRecord
  2
ACJISTGB
 70
     0
  3
__ . . __ . .
 72
    65
 73
     6
 40
9.0
 49
4.0
 74
     0
 49
-1.0
 74
     0
 49
1.0
 74
     0
 49
-1.0
 74
     0
 49
1.0
 74
     0
 49
-1.0
 74
     0
  0
ENDTAB
  0
TABLE
  2
LAYER
  5
2
330
0
100
AcDbSymbolTable
 70
     8
  0
LAYER
  5
10
330
2
100
AcDbSymbolTableRecord
100
AcDbLayerTableRecord
  2
0
 70
     0
 62
     7
  6
CONTINUOUS
  0
LAYER
  5
3F9
330
2
100
AcDbSymbolTableRecord
100
AcDbLayerTableRecord
  2
AM_0
 70
     0
 62
     7
  6
CONTINUOUS
  0
LAYER
  5
BD6
330
2
100
AcDbSymbolTableRecord
100
AcDbLayerTableRecord
  2
AM_11
 70
     0
 62
     3
  6
AM_ISO09W050
  0
LAYER
  5
BD7
330
2
100
AcDbSymbolTableRecord
100
AcDbLayerTableRecord
  2
AM_7
 70
     0
 62
     4
  6
AM_ISO08W050
  0
LAYER
  5
BD8
330
2
100
AcDbSymbolTableRecord
100
AcDbLayerTableRecord
  2
AM_5
 70
     0
 62
     3
  6
CONTINUOUS
  0
LAYER
  5
BD9
330
2
100
AcDbSymbolTableRecord
100
AcDbLayerTableRecord
  2
DEFPOINTS
 70
     0
 62
     7
  6
CONTINUOUS
  0
LAYER
  5
BDA
330
2
100
AcDbSymbolTableRecord
100
AcDbLayerTableRecord
  2
AM_6
 70
     0
 62
     2
  6
CONTINUOUS
  0
LAYER
  5
1E2E
330
2
100
AcDbSymbolTableRecord
100
AcDbLayerTableRecord
  2
AM_CL
 70
     0
 62
     1
  6
AMCONSTR
  0
ENDTAB
  0
TABLE
  2
STYLE
  5
3
330
0
100
AcDbSymbolTable
 70
     5
  0
STYLE
  5
11
330
3
100
AcDbSymbolTableRecord
100
AcDbTextStyleTableRecord
  2
STANDARD
 70
     0
 40
0.0
 41
1.0
 50
0.0
 71
     0
 42
2.5
  3
simplex.shx
  4
EXTFONT.SHX
  0
STYLE
  5
52
330
3
100
AcDbSymbolTableRecord
100
AcDbTextStyleTableRecord
  2

 70
     1
 40
0.0
 41
1.0
 50
0.0
 71
     0
 42
2.5
  3
ltypeshp.shx
  4

  0
STYLE
  5
6B
330
3
100
AcDbSymbolTableRecord
100
AcDbTextStyleTableRecord
  2
ASAMI
 70
     0
 40
0.0
 41
1.0
 50
0.0
 71
     0
 42
2.5
  3
simplex.shx
  4
EXTFONT.SHX
  0
STYLE
  5
262
330
3
100
AcDbSymbolTableRecord
100
AcDbTextStyleTableRecord
  2
ACJISTS
 70
     0
 40
1.0
 41
1.0
 50
0.0
 71
     0
 42
2.5
  3
simplex.shx
  4
bigfont.shx
  0
STYLE
  5
269
330
3
100
AcDbSymbolTableRecord
100
AcDbTextStyleTableRecord
  2
ACJISGDT
 70
     0
 40
0.0
 41
1.0
 50
0.0
 71
     0
 42
2.5
  3
amgdtans.shx
  4

  0
ENDTAB
  0
TABLE
  2
VIEW
  5
6
330
0
100
AcDbSymbolTable
 70
     0
  0
ENDTAB
  0
TABLE
  2
UCS
  5
7
330
0
100
AcDbSymbolTable
 70
     0
  0
ENDTAB
  0
TABLE
  2
APPID
  5
9
330
0
100
AcDbSymbolTable
 70
    14
  0
APPID
  5
12
330
9
100
AcDbSymbolTableRecord
100
AcDbRegAppTableRecord
  2
ACAD
 70
     0
  0
APPID
  5
30
330
9
100
AcDbSymbolTableRecord
100
AcDbRegAppTableRecord
  2
MCAD_NO_VIS
 70
     0
  0
APPID
  5
31
330
9
100
AcDbSymbolTableRecord
100
AcDbRegAppTableRecord
  2
ACAD_TEMP_GRAPHIC
 70
     0
  0
APPID
  5
2C2
330
9
100
AcDbSymbolTableRecord
100
AcDbRegAppTableRecord
  2
GENIUS_GENDTOL_13
 70
     0
  0
APPID
  5
339
330
9
100
AcDbSymbolTableRecord
100
AcDbRegAppTableRecord
  2
GENIUS_GENODEF_13
 70
     0
  0
APPID
  5
33A
330
9
100
AcDbSymbolTableRecord
100
AcDbRegAppTableRecord
  2
GENIUS_GENOBJ-N-RSBK_13
 70
     0
  0
APPID
  5
33B
330
9
100
AcDbSymbolTableRecord
100
AcDbRegAppTableRecord
  2
GENIUS_GENOBJ-N-LIB_13
 70
     0
  0
APPID
  5
33C
330
9
100
AcDbSymbolTableRecord
100
AcDbRegAppTableRecord
  2
GENIUS_GENSCALE_13
 70
     0
  0
APPID
  5
378
330
9
100
AcDbSymbolTableRecord
100
AcDbRegAppTableRecord
  2
GENIUS_GENDIMSH_14
 70
     0
  0
APPID
  5
BDB
330
9
100
AcDbSymbolTableRecord
100
AcDbRegAppTableRecord
  2
GENIUS_GENOBJ-N-CEN_13
 70
     0
  0
APPID
  5
BDC
330
9
100
AcDbSymbolTableRecord
100
AcDbRegAppTableRecord
  2
GENIUS_GENFIL_13
 70
     0
  0
APPID
  5
BDD
330
9
100
AcDbSymbolTableRecord
100
AcDbRegAppTableRecord
  2
GENIUS_GENOBJ-N-FIL_13
 70
     0
  0
APPID
  5
12AD
330
9
100
AcDbSymbolTableRecord
100
AcDbRegAppTableRecord
  2
GENIUS_GENOREF_13
 70
     0
  0
APPID
  5
62E6
330
9
100
AcDbSymbolTableRecord
100
AcDbRegAppTableRecord
  2
GENIUS_GENOBJ-N-CHA_13
 70
     0
  0
ENDTAB
  0
TABLE
  2
DIMSTYLE
  5
A
330
0
100
AcDbSymbolTable
 70
     9
  0
DIMSTYLE
105
58
102
{ACAD_REACTORS
330
634F
330
640B
330
6418
330
B7AC
102
}
330
A
100
AcDbSymbolTableRecord
100
AcDbDimStyleTableRecord
  2
AM_JIS
 70
     0
  3

  4
"
  5
OPEN30
  6

  7

 40
1.0
 41
2.5
 42
1.0
 43
12.0
 44
1.0
 45
0.0
 46
0.0
 47
0.1
 48
0.1
140
3.2
141
0.0
142
0.0
143
0.0393701
144
1.0
145
0.0
146
0.71
147
1.5
 71
     0
 72
     0
 73
     0
 74
     0
 75
     0
 76
     0
 77
     3
 78
     1
170
     0
171
     2
172
     1
173
     0
174
     0
175
     0
176
     3
177
     3
178
     2
270
     2
271
     1
272
     1
273
     2
274
     2
340
6B
275
     0
280
     0
281
     0
282
     0
283
     0
284
     0
285
     0
286
     0
287
     3
288
     0
  0
DIMSTYLE
105
5F
330
A
100
AcDbSymbolTableRecord
100
AcDbDimStyleTableRecord
  2
AM_JIS$3
 70
     0
  3

  4
"
  5
OPEN30
  6

  7

 40
1.0
 41
2.5
 42
1.0
 43
10.0
 44
1.0
 45
0.0
 46
0.0
 47
0.1
 48
0.1
140
3.2
141
0.0
142
0.0
143
0.0393701
144
1.0
145
0.0
146
0.71
147
1.5
 71
     0
 72
     0
 73
     0
 74
     1
 75
     0
 76
     0
 77
     3
 78
     1
170
     0
171
     2
172
     0
173
     0
174
     0
175
     0
176
     3
177
     3
178
     2
270
     2
271
     2
272
     1
273
     2
274
     2
340
6B
275
     0
280
     0
281
     0
282
     0
283
     0
284
     0
285
     0
286
     0
287
     0
288
     1
  0
DIMSTYLE
105
60
330
A
100
AcDbSymbolTableRecord
100
AcDbDimStyleTableRecord
  2
AM_JIS$4
 70
     0
  3

  4
"
  5
OPEN30
  6

  7

 40
1.0
 41
2.5
 42
1.0
 43
10.0
 44
1.0
 45
0.0
 46
0.0
 47
0.1
 48
0.1
140
3.2
141
0.0
142
0.0
143
0.0393701
144
1.0
145
0.0
146
0.71
147
1.5
 71
     0
 72
     0
 73
     0
 74
     1
 75
     0
 76
     0
 77
     3
 78
     1
170
     0
171
     2
172
     0
173
     0
174
     0
175
     0
176
     3
177
     3
178
     2
270
     2
271
     2
272
     1
273
     2
274
     2
340
6B
275
     0
280
     0
281
     0
282
     0
283
     0
284
     0
285
     0
286
     0
287
     0
288
     1
  0
DIMSTYLE
105
61
330
A
100
AcDbSymbolTableRecord
100
AcDbDimStyleTableRecord
  2
AM_JIS$6
 70
     0
  3

  4
"
  5
OPEN30
  6

  7

 40
1.0
 41
2.5
 42
1.0
 43
10.0
 44
1.0
 45
0.0
 46
0.0
 47
0.1
 48
0.1
140
3.2
141
0.0
142
0.0
143
0.0393701
144
1.0
145
0.0
146
0.71
147
1.5
 71
     0
 72
     0
 73
     0
 74
     0
 75
     0
 76
     0
 77
     0
 78
     1
170
     0
171
     2
172
     1
173
     0
174
     0
175
     0
176
     3
177
     3
178
     2
270
     2
271
     2
272
     2
273
     2
274
     2
340
6B
275
     0
280
     0
281
     0
282
     0
283
     0
284
     0
285
     0
286
     0
287
     3
288
     0
  0
DIMSTYLE
105
62
330
A
100
AcDbSymbolTableRecord
100
AcDbDimStyleTableRecord
  2
AM_JIS$7
 70
     0
  3

  4
"
  5
OPEN30
  6

  7

 40
1.0
 41
2.5
 42
1.0
 43
10.0
 44
1.0
 45
0.0
 46
0.0
 47
0.1
 48
0.1
140
3.2
141
0.0
142
0.0
143
0.0393701
144
1.0
145
0.0
146
0.71
147
1.5
 71
     0
 72
     0
 73
     0
 74
     0
 75
     0
 76
     0
 77
     3
 78
     1
170
     0
171
     2
172
     1
173
     0
174
     0
175
     0
176
     3
177
     3
178
     2
270
     2
271
     2
272
     1
273
     2
274
     2
340
6B
275
     0
280
     0
281
     0
282
     0
283
     0
284
     0
285
     0
286
     0
287
     3
288
     0
  0
DIMSTYLE
105
63
330
A
100
AcDbSymbolTableRecord
100
AcDbDimStyleTableRecord
  2
AM_JIS$SF
 70
     0
  3

  4
"
  5
OPEN30
  6

  7

 40
1.0
 41
2.5
 42
1.0
 43
10.0
 44
1.0
 45
0.0
 46
0.0
 47
0.1
 48
0.1
140
3.2
141
0.0
142
0.0
143
0.0393701
144
1.0
145
0.0
146
0.71
147
1.5
 71
     0
 72
     0
 73
     0
 74
     0
 75
     1
 76
     1
 77
     3
 78
     8
170
     0
171
     2
172
     1
173
     0
174
     0
175
     0
176
   256
177
   256
178
     2
270
     2
271
     2
272
     2
273
     2
274
     2
340
6B
275
     0
280
     0
281
     0
282
     0
283
     0
284
     0
285
     0
286
     0
287
     3
288
     0
  0
DIMSTYLE
105
68
330
A
100
AcDbSymbolTableRecord
100
AcDbDimStyleTableRecord
  2
AM_JIS$SH
 70
     0
  3

  4
"
  5

  6
GENAXEH
  7
OPEN30
 40
1.0
 41
2.5
 42
1.0
 43
10.0
 44
1.0
 45
0.0
 46
0.0
 47
0.1
 48
0.1
140
3.2
141
0.0
142
0.0
143
0.0393701
144
2.0
145
0.0
146
0.71
147
1.5
 71
     0
 72
     0
 73
     0
 74
     0
 75
     1
 76
     1
 77
     3
 78
     8
170
     0
171
     2
172
     1
173
     1
174
     0
175
     0
176
   256
177
   256
178
     2
270
     2
271
     2
272
     2
273
     2
274
     2
340
6B
275
     0
280
     0
281
     0
282
     0
283
     0
284
     0
285
     0
286
     0
287
     3
288
     0
  0
DIMSTYLE
105
B34
102
{ACAD_REACTORS
330
63DB
102
}
330
A
100
AcDbSymbolTableRecord
100
AcDbDimStyleTableRecord
  2
AM_JIS$2
 70
     0
  3

  4
"
  5
OPEN30
  6

  7

 40
1.0
 41
2.5
 42
1.0
 43
12.0
 44
1.0
 45
0.0
 46
0.0
 47
0.1
 48
0.1
140
3.2
141
0.0
142
0.0
143
0.0393701
144
1.0
145
0.0
146
0.71
147
1.5
 71
     0
 72
     0
 73
     0
 74
     0
 75
     0
 76
     0
 77
     3
 78
     1
170
     0
171
     2
172
     1
173
     0
174
     0
175
     0
176
     3
177
     3
178
     2
270
     2
271
     1
272
     1
273
     2
274
     2
340
6B
275
     0
280
     0
281
     0
282
     0
283
     0
284
     0
285
     0
286
     0
287
     3
288
     0
  0
DIMSTYLE
105
62E5
330
A
100
AcDbSymbolTableRecord
100
AcDbDimStyleTableRecord
  2
ISO-25
 70
     0
  3

  4

  5

  6

  7

 40
1.0
 41
2.5
 42
0.625
 43
3.75
 44
1.25
 45
0.0
 46
0.0
 47
0.0
 48
0.0
140
2.5
141
2.5
142
0.0
143
0.03937007874016
144
1.0
145
0.0
146
1.0
147
0.625
 71
     0
 72
     0
 73
     0
 74
     0
 75
     0
 76
     0
 77
     1
 78
     8
170
     0
171
     3
172
     1
173
     0
174
     0
175
     0
176
     0
177
     0
178
     0
270
     2
271
     2
272
     2
273
     2
274
     3
340
11
275
     0
280
     0
281
     0
282
     0
283
     0
284
     8
285
     0
286
     0
287
     3
288
     0
  0
ENDTAB
  0
TABLE
  2
BLOCK_RECORD
  5
1
330
0
100
AcDbSymbolTable
 70
    10
  0
BLOCK_RECORD
  5
1F
102
{ACAD_XDICTIONARY
360
74
102
}
330
1
100
AcDbSymbolTableRecord
100
AcDbBlockTableRecord
  2
*MODEL_SPACE
  0
BLOCK_RECORD
  5
1B
102
{ACAD_XDICTIONARY
360
C8A9
102
}
330
1
100
AcDbSymbolTableRecord
100
AcDbBlockTableRecord
  2
*PAPER_SPACE
  0
BLOCK_RECORD
  5
59
330
1
100
AcDbSymbolTableRecord
100
AcDbBlockTableRecord
  2
_OPEN30
  0
BLOCK_RECORD
  5
64
330
1
100
AcDbSymbolTableRecord
100
AcDbBlockTableRecord
  2
GENAXEH
  0
BLOCK_RECORD
  5
6350
330
1
100
AcDbSymbolTableRecord
100
AcDbBlockTableRecord
  2
*D5
  0
BLOCK_RECORD
  5
63DC
330
1
100
AcDbSymbolTableRecord
100
AcDbBlockTableRecord
  2
*D6
  0
BLOCK_RECORD
  5
640C
330
1
100
AcDbSymbolTableRecord
100
AcDbBlockTableRecord
  2
*D7
  0
BLOCK_RECORD
  5
6419
330
1
100
AcDbSymbolTableRecord
100
AcDbBlockTableRecord
  2
*D8
  0
BLOCK_RECORD
  5
B7AD
330
1
100
AcDbSymbolTableRecord
100
AcDbBlockTableRecord
  2
*D9
  0
ENDTAB
  0
ENDSEC
  0
SECTION
  2
BLOCKS
  0
BLOCK
  5
20
330
1F
100
AcDbEntity
  8
0
100
AcDbBlockBegin
  2
*MODEL_SPACE
 70
     0
 10
0.0
 20
0.0
 30
0.0
  3
*MODEL_SPACE
  1

  0
ENDBLK
  5
21
330
1F
100
AcDbEntity
  8
0
100
AcDbBlockEnd
  0
BLOCK
  5
1C
330
1B
100
AcDbEntity
 67
     1
  8
0
100
AcDbBlockBegin
  2
*PAPER_SPACE
 70
     0
 10
0.0
 20
0.0
 30
0.0
  3
*PAPER_SPACE
  1

  0
ENDBLK
  5
1D
330
1B
100
AcDbEntity
 67
     1
  8
0
100
AcDbBlockEnd
  0
BLOCK
  5
5D
330
59
100
AcDbEntity
  8
0
100
AcDbBlockBegin
  2
_OPEN30
 70
     0
 10
0.0
 20
0.0
 30
0.0
  3
_OPEN30
  1

  0
LINE
  5
5A
330
59
100
AcDbEntity
  8
0
 62
     0
100
AcDbLine
 10
-1.0
 20
0.26794919
 30
0.0
 11
0.0
 21
0.0
 31
0.0
  0
LINE
  5
5B
330
59
100
AcDbEntity
  8
0
 62
     0
100
AcDbLine
 10
0.0
 20
0.0
 30
0.0
 11
-1.0
 21
-0.26794919
 31
0.0
  0
LINE
  5
5C
330
59
100
AcDbEntity
  8
0
 62
     0
100
AcDbLine
 10
0.0
 20
0.0
 30
0.0
 11
-1.0
 21
0.0
 31
0.0
  0
ENDBLK
  5
5E
330
59
100
AcDbEntity
  8
0
100
AcDbBlockEnd
  0
BLOCK
  5
66
330
64
100
AcDbEntity
  8
0
100
AcDbBlockBegin
  2
GENAXEH
 70
     0
 10
0.0
 20
0.0
 30
0.0
  3
GENAXEH
  1

  0
LINE
  5
65
330
64
100
AcDbEntity
  8
0
100
AcDbLine
 10
-1.0
 20
0.0
 30
0.0
 11
1.0
 21
0.0
 31
0.0
  0
ENDBLK
  5
67
330
64
100
AcDbEntity
  8
0
100
AcDbBlockEnd
  0
BLOCK
  5
635A
330
6350
100
AcDbEntity
  8
0
100
AcDbBlockBegin
  2
*D5
 70
     1
 10
0.0
 20
0.0
 30
0.0
  3
*D5
  1

  0
LINE
  5
C851
330
6350
100
AcDbEntity
  8
AM_5
 62
     3
100
AcDbLine
 10
-149.1395931282344
 20
-6.949999999835985
 30
0.0
 11
-165.3241845496782
 21
-6.949999999835981
 31
0.0
  0
LINE
  5
C852
330
6350
100
AcDbEntity
  8
AM_5
 62
     3
100
AcDbLine
 10
-149.1395931282344
 20
6.950000000164001
 30
0.0
 11
-165.3241845496782
 21
6.950000000164005
 31
0.0
  0
LINE
  5
C853
330
6350
100
AcDbEntity
  8
AM_5
 62
     3
100
AcDbLine
 10
-164.3241845496782
 20
-4.449999999835981
 30
0.0
 11
-164.3241845496782
 21
4.450000000164005
 31
0.0
  0
INSERT
  5
C854
330
6350
100
AcDbEntity
  8
AM_5
 62
     3
100
AcDbBlockReference
  2
_OPEN30
 10
-164.3241845496782
 20
-6.949999999835981
 30
0.0
 41
2.5
 42
2.5
 43
2.5
 50
270.0
  0
INSERT
  5
C855
330
6350
100
AcDbEntity
  8
AM_5
 62
     3
100
AcDbBlockReference
  2
_OPEN30
 10
-164.3241845496782
 20
6.950000000164005
 30
0.0
 41
2.5
 42
2.5
 43
2.5
 50
90.0
  0
MTEXT
  5
C856
330
6350
100
AcDbEntity
  8
AM_5
 62
     2
100
AcDbMText
 10
-167.4241845496782
 20
0.0000000001639864
 30
0.0
 40
3.2
 41
0.0
 71
     5
 72
     1
  1
%%C13.9
  7
ASAMI
 11
0.0000000000000001
 21
1.0
 31
0.0
1001
ACAD
1000
MTEXTBEGIN
1070
    73
1070
     1
1070
    44
1040
1.0
1070
    74
1070
     0
1000
MTEXTEND
  0
POINT
  5
C857
330
6350
100
AcDbEntity
  8
DEFPOINTS
 62
     0
100
AcDbPoint
 10
-148.1395931282344
 20
-6.949999999835985
 30
0.0
  0
POINT
  5
C858
330
6350
100
AcDbEntity
  8
DEFPOINTS
 62
     0
100
AcDbPoint
 10
-148.1395931282344
 20
6.950000000164001
 30
0.0
  0
POINT
  5
C859
330
6350
100
AcDbEntity
  8
DEFPOINTS
 62
     0
100
AcDbPoint
 10
-164.3241845496782
 20
6.950000000164005
 30
0.0
  0
ENDBLK
  5
635B
330
6350
100
AcDbEntity
  8
0
100
AcDbBlockEnd
  0
BLOCK
  5
63E8
330
63DC
100
AcDbEntity
  8
0
100
AcDbBlockBegin
  2
*D6
 70
     1
 10
0.0
 20
0.0
 30
0.0
  3
*D6
  1

  0
LINE
  5
C8B2
330
63DC
100
AcDbEntity
  8
AM_0
 62
     3
100
AcDbLine
 10
0.3420201433206588
 20
-0.9396926207858657
 30
0.0
 11
11.77023111969732
 21
-32.33844422313201
 31
0.0
  0
LINE
  5
C8B3
330
63DC
100
AcDbEntity
  8
AM_0
 62
     3
100
AcDbLine
 10
0.3420201433206592
 20
0.9396926207858655
 30
0.0
 11
11.77023111969733
 21
32.33844422313201
 31
0.0
  0
ARC
  5
C8B4
330
63DC
100
AcDbEntity
  8
AM_0
 62
     3
100
AcDbCircle
 10
-0.0000000000051273
 20
0.0
 30
0.0
 40
33.41385353871072
100
AcDbArc
 50
294.2878286940014
 51
65.71217130599854
  0
INSERT
  5
C8B5
330
63DC
100
AcDbEntity
  8
AM_0
 62
     3
100
AcDbBlockReference
  2
_OPEN30
 10
11.42821097637154
 20
-31.39875160234615
 30
0.0
 41
2.5
 42
2.5
 43
2.5
 50
202.1439143470043
  0
INSERT
  5
C8B6
330
63DC
100
AcDbEntity
  8
AM_0
 62
     3
100
AcDbBlockReference
  2
_OPEN30
 10
11.42821097637155
 20
31.39875160234614
 30
0.0
 41
2.5
 42
2.5
 43
2.5
 50
157.8560856529956
  0
MTEXT
  5
C8B7
330
63DC
100
AcDbEntity
  8
AM_0
 62
     2
100
AcDbMText
 10
30.31385353870559
 20
-0.0000000000000078
 30
0.0
 40
3.2
 41
0.0
 71
     5
 72
     1
  1
140°
  7
ASAMI
 11
0.0000000000000001
 21
1.0
 31
0.0
  0
POINT
  5
C8B8
330
63DC
100
AcDbEntity
  8
DEFPOINTS
 62
     0
100
AcDbPoint
 10
30.68113851217805
 20
-13.23455129207792
 30
0.0
  0
POINT
  5
C8B9
330
63DC
100
AcDbEntity
  8
DEFPOINTS
 62
     0
100
AcDbPoint
 10
-0.0000000000051273
 20
0.0
 30
0.0
  0
POINT
  5
C8BA
330
63DC
100
AcDbEntity
  8
DEFPOINTS
 62
     0
100
AcDbPoint
 10
-0.5459553514046434
 20
-1.5
 30
0.0
  0
POINT
  5
C8BB
330
63DC
100
AcDbEntity
  8
DEFPOINTS
 62
     0
100
AcDbPoint
 10
-0.0000000000051273
 20
0.0
 30
0.0
  0
POINT
  5
C8BC
330
63DC
100
AcDbEntity
  8
DEFPOINTS
 62
     0
100
AcDbPoint
 10
-0.5459553514046434
 20
1.5
 30
0.0
  0
ENDBLK
  5
63E9
330
63DC
100
AcDbEntity
  8
0
100
AcDbBlockEnd
  0
BLOCK
  5
6416
330
640C
100
AcDbEntity
  8
0
100
AcDbBlockBegin
  2
*D7
 70
     1
 10
0.0
 20
0.0
 30
0.0
  3
*D7
  1

  0
LINE
  5
C825
330
640C
100
AcDbEntity
  8
AM_5
 62
     3
100
AcDbLine
 10
-2.529593128234423
 20
-10.86684919788187
 30
0.0
 11
-2.529593128234424
 21
-23.0644798129143
 31
0.0
  0
LINE
  5
C826
330
640C
100
AcDbEntity
  8
AM_5
 62
     3
100
AcDbLine
 10
-88.52959312814133
 20
-7.950000000000899
 30
0.0
 11
-88.52959312814133
 21
-23.0644798129143
 31
0.0
  0
LINE
  5
C827
330
640C
100
AcDbEntity
  8
AM_5
 62
     3
100
AcDbLine
 10
-5.029593128234424
 20
-22.0644798129143
 30
0.0
 11
-86.02959312814133
 21
-22.0644798129143
 31
0.0
  0
INSERT
  5
C828
330
640C
100
AcDbEntity
  8
AM_5
 62
     3
100
AcDbBlockReference
  2
_OPEN30
 10
-2.529593128234424
 20
-22.0644798129143
 30
0.0
 41
2.5
 42
2.5
 43
2.5
  0
INSERT
  5
C829
330
640C
100
AcDbEntity
  8
AM_5
 62
     3
100
AcDbBlockReference
  2
_OPEN30
 10
-88.52959312814133
 20
-22.0644798129143
 30
0.0
 41
2.5
 42
2.5
 43
2.5
 50
180.0
  0
MTEXT
  5
C82A
330
640C
100
AcDbEntity
  8
AM_5
 62
     2
100
AcDbMText
 10
-45.52959312818788
 20
-18.9644798129143
 30
0.0
 40
3.2
 41
0.0
 71
     5
 72
     1
  1
86
  7
ASAMI
1001
ACAD
1000
MTEXTBEGIN
1070
    73
1070
     1
1070
    44
1040
1.0
1070
    74
1070
     0
1000
MTEXTEND
  0
POINT
  5
C82B
330
640C
100
AcDbEntity
  8
DEFPOINTS
 62
     0
100
AcDbPoint
 10
-2.529593128234423
 20
-9.866849197881874
 30
0.0
  0
POINT
  5
C82C
330
640C
100
AcDbEntity
  8
DEFPOINTS
 62
     0
100
AcDbPoint
 10
-88.52959312814133
 20
-6.950000000000899
 30
0.0
  0
POINT
  5
C82D
330
640C
100
AcDbEntity
  8
DEFPOINTS
 62
     0
100
AcDbPoint
 10
-88.52959312814133
 20
-22.0644798129143
 30
0.0
  0
ENDBLK
  5
6417
330
640C
100
AcDbEntity
  8
0
100
AcDbBlockEnd
  0
BLOCK
  5
6423
330
6419
100
AcDbEntity
  8
0
100
AcDbBlockBegin
  2
*D8
 70
     1
 10
0.0
 20
0.0
 30
0.0
  3
*D8
  1

  0
LINE
  5
C7B8
330
6419
100
AcDbEntity
  8
AM_5
 62
     3
100
AcDbLine
 10
-2.529593128234422
 20
-7.953432363170915
 30
0.0
 11
-2.529593128234424
 21
-36.69437679005667
 31
0.0
  0
LINE
  5
C7B9
330
6419
100
AcDbEntity
  8
AM_5
 62
     3
100
AcDbLine
 10
-149.5295931282343
 20
-6.686363636364134
 30
0.0
 11
-149.5295931282343
 21
-36.69437679005667
 31
0.0
  0
LINE
  5
C7BA
330
6419
100
AcDbEntity
  8
AM_5
 62
     3
100
AcDbLine
 10
-5.029593128234424
 20
-35.69437679005667
 30
0.0
 11
-147.0295931282343
 21
-35.69437679005667
 31
0.0
  0
INSERT
  5
C7BB
330
6419
100
AcDbEntity
  8
AM_5
 62
     3
100
AcDbBlockReference
  2
_OPEN30
 10
-2.529593128234424
 20
-35.69437679005667
 30
0.0
 41
2.5
 42
2.5
 43
2.5
  0
INSERT
  5
C7BC
330
6419
100
AcDbEntity
  8
AM_5
 62
     3
100
AcDbBlockReference
  2
_OPEN30
 10
-149.5295931282343
 20
-35.69437679005667
 30
0.0
 41
2.5
 42
2.5
 43
2.5
 50
180.0
  0
MTEXT
  5
C7BD
330
6419
100
AcDbEntity
  8
AM_5
 62
     2
100
AcDbMText
 10
-76.02959312823438
 20
-32.59437679005667
 30
0.0
 40
3.2
 41
0.0
 71
     5
 72
     1
  1
147
  7
ASAMI
1001
ACAD
1000
MTEXTBEGIN
1070
    73
1070
     1
1070
    44
1040
1.0
1070
    74
1070
     0
1000
MTEXTEND
  0
POINT
  5
C7BE
330
6419
100
AcDbEntity
  8
DEFPOINTS
 62
     0
100
AcDbPoint
 10
-2.529593128234422
 20
-6.953432363170915
 30
0.0
  0
POINT
  5
C7BF
330
6419
100
AcDbEntity
  8
DEFPOINTS
 62
     0
100
AcDbPoint
 10
-149.5295931282343
 20
-5.686363636364134
 30
0.0
  0
POINT
  5
C7C0
330
6419
100
AcDbEntity
  8
DEFPOINTS
 62
     0
100
AcDbPoint
 10
-149.5295931282343
 20
-35.69437679005667
 30
0.0
  0
ENDBLK
  5
6424
330
6419
100
AcDbEntity
  8
0
100
AcDbBlockEnd
  0
BLOCK
  5
B7B7
330
B7AD
100
AcDbEntity
  8
0
100
AcDbBlockBegin
  2
*D9
 70
     1
 10
0.0
 20
0.0
 30
0.0
  3
*D9
  1

  0
LINE
  5
C8BD
330
B7AD
100
AcDbEntity
  8
AM_5
 62
     3
100
AcDbLine
 10
-1.741627026539505
 20
-6.949999999836015
 30
0.0
 11
19.35802127974951
 21
-6.949999999836022
 31
0.0
  0
LINE
  5
C8BE
330
B7AD
100
AcDbEntity
  8
AM_5
 62
     3
100
AcDbLine
 10
-1.741627026539505
 20
6.95000000016397
 30
0.0
 11
19.35802127974951
 21
6.950000000163964
 31
0.0
  0
LINE
  5
C8BF
330
B7AD
100
AcDbEntity
  8
AM_5
 62
     3
100
AcDbLine
 10
18.35802127974951
 20
-4.449999999836021
 30
0.0
 11
18.35802127974951
 21
4.450000000163965
 31
0.0
  0
MTEXT
  5
C8C0
330
B7AD
100
AcDbEntity
  8
AM_5
 62
     2
100
AcDbMText
 10
15.25802127974951
 20
0.0000000001639723
 30
0.0
 40
3.2
 41
0.0
 71
     5
 72
     1
  1
%%C13.9
  7
ASAMI
 11
0.0000000000000001
 21
1.0
 31
0.0
  0
INSERT
  5
C8C1
330
B7AD
100
AcDbEntity
  8
AM_5
 62
     3
100
AcDbBlockReference
  2
_OPEN30
 10
18.35802127974951
 20
-6.949999999836021
 30
0.0
 41
2.5
 42
2.5
 43
2.5
 50
270.0
  0
INSERT
  5
C8C2
330
B7AD
100
AcDbEntity
  8
AM_5
 62
     3
100
AcDbBlockReference
  2
_OPEN30
 10
18.35802127974951
 20
6.950000000163965
 30
0.0
 41
2.5
 42
2.5
 43
2.5
 50
90.0
  0
POINT
  5
C8C3
330
B7AD
100
AcDbEntity
  8
DEFPOINTS
 62
     0
100
AcDbPoint
 10
-2.741627026539505
 20
-6.949999999836014
 30
0.0
  0
POINT
  5
C8C4
330
B7AD
100
AcDbEntity
  8
DEFPOINTS
 62
     0
100
AcDbPoint
 10
-2.741627026539505
 20
6.950000000163971
 30
0.0
  0
POINT
  5
C8C5
330
B7AD
100
AcDbEntity
  8
DEFPOINTS
 62
     0
100
AcDbPoint
 10
18.35802127974951
 20
6.950000000163965
 30
0.0
  0
ENDBLK
  5
B7B8
330
B7AD
100
AcDbEntity
  8
0
100
AcDbBlockEnd
  0
ENDSEC
  0
SECTION
  2
ENTITIES
  0
TEXT
  5
C58
330
1F
100
AcDbEntity
  8
AM_6
100
AcDbText
 10
-95.02261664071166
 20
-58.75396133965956
 30
0.0
 40
5.0
  1
MDS139MG
 50
0.0000000000002036
 72
     4
 11
-75.97499759309264
 21
-56.25396133965949
 31
0.0
100
AcDbText
  0
LINE
  5
631C
330
1F
100
AcDbEntity
  8
AM_0
100
AcDbLine
 10
-73.36920926193463
 20
-6.950000000001097
 30
0.0
 11
-148.265956764598
 21
-6.950000000000512
 31
0.0
  0
LINE
  5
631D
330
1F
100
AcDbEntity
  8
AM_0
100
AcDbLine
 10
-70.70545328614521
 20
6.949999999998905
 30
0.0
 11
-148.265956764598
 21
6.949999999999485
 31
0.0
  0
LINE
  5
6320
330
1F
100
AcDbEntity
  8
AM_7
100
AcDbLine
 10
-157.6714956371911
 20
0.000000000000028
 30
0.0
 11
4.169999999975212
 21
-0.0000000000000006
 31
0.0
1001
GENIUS_GENODEF_13
1002
{
1000
HIER
1070
     0
1002
}
1002
{
1000
MANEDIT
1070
     0
1002
}
1002
{
1000
NOSEL
1070
     0
1002
}
1002
{
1000
BEHIND
1070
     0
1002
}
1002
{
1000
REACTOR
1002
}
1001
GENIUS_GENOBJ-N-CEN_13
1002
{
1000
OWNER
1000
GEN
1002
}
  0
LINE
  5
6343
330
1F
100
AcDbEntity
  8
AM_0
100
AcDbLine
 10
-149.5295931282343
 20
-1.691603570345265
 30
0.0
 11
-149.5295931282343
 21
1.691603570345381
 31
0.0
  0
LINE
  5
6348
330
1F
100
AcDbEntity
  8
AM_0
100
AcDbLine
 10
-149.5295931282343
 20
2.377201188575585
 30
0.0
 11
-149.5295931282343
 21
5.686363636363135
 31
0.0
  0
LINE
  5
6349
330
1F
100
AcDbEntity
  8
AM_0
100
AcDbLine
 10
-149.5295931282343
 20
1.691603570345381
 30
0.0
 11
-149.5295931282343
 21
2.377201188575585
 31
0.0
  0
LINE
  5
634B
330
1F
100
AcDbEntity
  8
AM_0
100
AcDbLine
 10
-149.5295931282343
 20
-5.686363636364131
 30
0.0
 11
-149.5295931282343
 21
-2.377201188122727
 31
0.0
  0
LINE
  5
634C
330
1F
100
AcDbEntity
  8
AM_0
100
AcDbLine
 10
-149.5295931282343
 20
-2.377201188122727
 30
0.0
 11
-149.5295931282343
 21
-1.691603570345265
 31
0.0
  0
DIMENSION
  5
634F
330
1F
100
AcDbEntity
  8
AM_5
100
AcDbDimension
  2
*D5
 10
-164.3241845496782
 20
6.950000000164005
 30
0.0
 11
-164.3241845496782
 21
0.000000000163986
 31
0.0
 70
   160
  1
%%C<>
  3
AM_JIS
100
AcDbAlignedDimension
 13
-148.1395931282344
 23
-6.949999999835985
 33
0.0
 14
-148.1395931282344
 24
6.950000000164001
 34
0.0
 50
90.0
100
AcDbRotatedDimension
  0
DIMENSION
  5
63DB
330
1F
100
AcDbEntity
  8
AM_0
100
AcDbDimension
  2
*D6
 10
-0.5459553514046434
 20
1.5
 30
0.0
 11
30.31385353870559
 21
-0.0000000000000127
 31
0.0
 70
    34
  3
AM_JIS$2
100
AcDb2LineAngularDimension
 13
-0.5459553514046434
 23
-1.5
 33
0.0
 14
-0.0000000000051273
 24
0.0
 34
0.0
 15
-0.0000000000051273
 25
0.0
 35
0.0
 16
30.68113851217805
 26
-13.23455129207792
 36
0.0
1001
ACAD
1000
DSTYLE
1002
{
1070
   271
1070
     0
1002
}
  0
DIMENSION
  5
640B
330
1F
100
AcDbEntity
  8
AM_5
100
AcDbDimension
  2
*D7
 10
-88.52959312814133
 20
-22.0644798129143
 30
0.0
 11
-45.52959312818788
 21
-18.9644798129143
 31
0.0
 70
    32
  3
AM_JIS
100
AcDbAlignedDimension
 13
-2.529593128234423
 23
-9.866849197881874
 33
0.0
 14
-88.52959312814133
 24
-6.950000000000899
 34
0.0
100
AcDbRotatedDimension
1001
ACAD
1000
DSTYLE
1002
{
1070
    78
1070
     9
1070
   271
1070
     3
1002
}
  0
DIMENSION
  5
6418
330
1F
100
AcDbEntity
  8
AM_5
100
AcDbDimension
  2
*D8
 10
-149.5295931282343
 20
-35.69437679005667
 30
0.0
 11
-76.02959312823438
 21
-32.59437679005667
 31
0.0
 70
    32
  3
AM_JIS
100
AcDbAlignedDimension
 13
-2.529593128234422
 23
-6.953432363170915
 33
0.0
 14
-149.5295931282343
 24
-5.686363636364134
 34
0.0
100
AcDbRotatedDimension
1001
ACAD
1000
DSTYLE
1002
{
1070
    78
1070
     9
1002
}
  0
LINE
  5
647F
330
1F
100
AcDbEntity
  8
AM_0
100
AcDbLine
 10
-148.265956764598
 20
6.949999999999504
 30
0.0
 11
-148.265956764598
 21
-6.950000000000472
 31
0.0
  0
LINE
  5
6CBA
330
1F
100
AcDbEntity
  8
AM_0
100
AcDbLine
 10
-2.529593128234423
 20
-6.950000000017973
 30
0.0
 11
-0.000000000083351
 21
-0.0000000000179758
 31
0.0
  0
LINE
  5
6CBE
330
1F
100
AcDbEntity
  8
AM_0
100
AcDbLine
 10
-0.000000000083351
 20
-0.0000000000179758
 30
0.0
 11
-2.529593128240204
 21
6.949999999997892
 31
0.0
  0
LINE
  5
6CC0
330
1F
100
AcDbEntity
  8
AM_0
100
AcDbLine
 10
-0.000000000083351
 20
-0.0000000000179758
 30
0.0
 11
-1.212300276387591
 21
1.207186467185774
 31
0.0
  0
LINE
  5
6CC1
330
1F
100
AcDbEntity
  8
AM_0
100
AcDbLine
 10
-2.255126837647811
 20
-0.5454808030180998
 30
0.0
 11
-0.000000000083351
 21
-0.0000000000179758
 31
0.0
  0
LINE
  5
B156
330
1F
100
AcDbEntity
  8
AM_0
100
AcDbLine
 10
-148.265956764598
 20
6.949999999999494
 30
0.0
 11
-149.5295931282343
 21
5.686363636363135
 31
0.0
1001
GENIUS_GENFIL_13
1070
     0
1040
1.0
1040
1.0
1040
20.0
1040
0.0
1002
{
1002
}
1001
GENIUS_GENODEF_13
1002
{
1000
HIER
1070
     0
1002
}
1002
{
1000
MANEDIT
1070
     0
1002
}
1002
{
1000
NOSEL
1070
     0
1002
}
1002
{
1000
BEHIND
1070
     0
1002
}
1002
{
1000
REACTOR
1002
}
1001
GENIUS_GENOBJ-N-CHA_13
1002
{
1000
OWNER
1000
GEN
1002
}
  0
LINE
  5
B158
330
1F
100
AcDbEntity
  8
AM_0
100
AcDbLine
 10
-148.265956764598
 20
-6.950000000000502
 30
0.0
 11
-149.5295931282343
 21
-5.686363636364131
 31
0.0
1001
GENIUS_GENFIL_13
1070
     0
1040
1.0
1040
1.0
1040
20.0
1040
0.0
1002
{
1002
}
1001
GENIUS_GENODEF_13
1002
{
1000
HIER
1070
     0
1002
}
1002
{
1000
MANEDIT
1070
     0
1002
}
1002
{
1000
NOSEL
1070
     0
1002
}
1002
{
1000
BEHIND
1070
     0
1002
}
1002
{
1000
REACTOR
1002
}
1001
GENIUS_GENOBJ-N-CHA_13
1002
{
1000
OWNER
1000
GEN
1002
}
  0
DIMENSION
  5
B7AC
330
1F
100
AcDbEntity
  8
AM_5
100
AcDbDimension
  2
*D9
 10
18.35802127974951
 20
6.950000000163965
 30
0.0
 11
18.35802127974951
 21
0.0000000001639719
 31
0.0
 70
   160
  1
%%C<>
  3
AM_JIS
100
AcDbAlignedDimension
 13
-2.741627026539505
 23
-6.949999999836014
 33
0.0
 14
-2.741627026539505
 24
6.950000000163971
 34
0.0
 50
90.0
100
AcDbRotatedDimension
1001
ACAD
1000
DSTYLE
1002
{
1070
   287
1070
     4
1070
   279
1070
     1
1002
}
  0
LINE
  5
B8B2
330
1F
100
AcDbEntity
  8
AM_0
100
AcDbLine
 10
-1.212300276387591
 20
1.207186467185774
 30
0.0
 11
-0.4392598597665393
 21
1.206856545733926
 31
0.0
  0
SPLINE
  5
C800
330
1F
100
AcDbEntity
  8
AM_0
100
AcDbSpline
210
0.0
220
0.0
230
1.0
 70
     8
 71
     3
 72
     9
 73
     5
 74
     0
 42
0.0000000001
 43
0.0000000001
 40
0.0
 40
0.0
 40
0.0
 40
0.0
 40
0.1987770877846628
 40
5.759128114460802
 40
5.759128114460802
 40
5.759128114460802
 40
5.759128114460802
 10
-2.252957676141846
 20
6.189950341937326
 30
0.0
 10
-2.252957676141846
 20
6.189950341937326
 30
0.0
 10
-3.660125523754162
 20
6.19943387419329
 30
0.0
 10
-5.550771311770817
 20
5.711848458971283
 30
0.0
 10
-7.34322721120539
 20
4.958300227240417
 30
0.0
  0
SPLINE
  5
C801
330
1F
100
AcDbEntity
  8
AM_0
100
AcDbSpline
210
0.0
220
0.0
230
1.0
 70
     8
 71
     3
 72
     8
 73
     4
 74
     0
 42
0.0000000001
 43
0.0000000001
 40
0.0
 40
0.0
 40
0.0
 40
0.0
 40
6.247244990626095
 40
6.247244990626095
 40
6.247244990626095
 40
6.247244990626095
 10
-2.529593128234424
 20
6.949999999982012
 30
0.0
 10
-3.9586150850063
 20
6.949999999982023
 30
0.0
 10
-5.987188034950277
 20
6.304055328826308
 30
0.0
 10
-7.968026839378638
 20
5.290659814816209
 30
0.0
  0
LINE
  5
C802
330
1F
100
AcDbEntity
  8
AM_0
100
AcDbLine
 10
-2.529593128234423
 20
-6.950000000017973
 30
0.0
 11
-2.255101359802428
 21
-0.5448453535262339
 31
0.0
  0
LINE
  5
C803
330
1F
100
AcDbEntity
  8
AM_0
100
AcDbLine
 10
-2.255101359802428
 20
-0.5448453535262339
 30
0.0
 11
-4.549528337592221
 21
3.201856402829725
 31
0.0
  0
SPLINE
  5
C804
330
1F
100
AcDbEntity
  8
AM_0
100
AcDbSpline
210
0.0
220
0.0
230
1.0
 70
     8
 71
     3
 72
     9
 73
     5
 74
     0
 42
0.0000000001
 43
0.0000000001
 40
0.0
 40
0.0
 40
0.0
 40
0.0
 40
0.0353107615743204
 40
0.4098003053212364
 40
0.4098003053212364
 40
0.4098003053212364
 40
0.4098003053212364
 10
-1.21228736909478
 20
1.206854834767225
 30
0.0
 10
-1.205445650768563
 20
1.031067795740172
 30
0.0
 10
-1.126043844236914
 20
-1.009034967639017
 30
0.0
 10
-3.735550979171896
 20
1.872665965326592
 30
0.0
 10
-4.54952833759222
 20
3.201856402829738
 30
0.0
  0
SPLINE
  5
C805
330
1F
100
AcDbEntity
  8
AM_0
100
AcDbSpline
210
0.0
220
0.0
230
1.0
 70
     8
 71
     3
 72
     9
 73
     5
 74
     0
 42
0.0000000001
 43
0.0000000001
 40
1.521176736886217
 40
1.521176736886217
 40
1.521176736886217
 40
1.521176736886217
 40
14.48999654934396
 40
28.97999309868792
 40
28.97999309868792
 40
28.97999309868792
 40
28.97999309868792
 10
-2.513447147856123
 20
-6.57324006352518
 30
0.0
 10
-6.158193795668233
 20
-6.220380894495226
 30
0.0
 10
-14.58784435427894
 20
0.3648095527433883
 30
0.0
 10
-23.01749491288955
 20
6.949999999982023
 30
0.0
 10
-27.91723918527515
 20
6.949999999982023
 30
0.0
  0
LINE
  5
C806
330
1F
100
AcDbEntity
  8
AM_5
  6
AM_ISO09W050
 62
     3
 48
0.5
100
AcDbLine
 10
-2.529593128234424
 20
-6.950000000017984
 30
0.0
 11
-14.08992376631443
 21
-6.950000000017973
 31
0.0
  0
LINE
  5
C807
330
1F
100
AcDbEntity
  8
AM_5
  6
AM_ISO09W050
 62
     3
 48
0.5
100
AcDbLine
 10
-2.529593128234424
 20
6.949999999982012
 30
0.0
 11
-14.08992376631443
 21
6.949999999982015
 31
0.0
  0
SPLINE
  5
C808
330
1F
100
AcDbEntity
  8
AM_0
100
AcDbSpline
210
0.0
220
0.0
230
1.0
 70
     8
 71
     3
 72
     8
 73
     4
 74
     0
 42
0.0000000001
 43
0.0000000001
 40
19.09542421355049
 40
19.09542421355049
 40
19.09542421355049
 40
19.09542421355049
 40
28.97999309868792
 40
28.97999309868792
 40
28.97999309868792
 40
28.97999309868792
 10
-4.54952833759222
 20
3.201856402829738
 30
0.0
 10
-7.615125196356324
 20
5.332911794578704
 30
0.0
 10
-10.74748958318667
 20
6.949999999982023
 30
0.0
 10
-14.08992376631603
 20
6.949999999982023
 30
0.0
  0
SPLINE
  5
C809
330
1F
100
AcDbEntity
  8
AM_0
100
AcDbSpline
210
0.0
220
0.0
230
1.0
 70
     8
 71
     3
 72
     8
 73
     4
 74
     0
 42
0.0000000001
 43
0.0000000001
 40
22.73274810806179
 40
22.73274810806179
 40
22.73274810806179
 40
22.73274810806179
 40
28.97999309868792
 40
28.97999309868792
 40
28.97999309868792
 40
28.97999309868792
 10
-8.039931989186557
 20
-5.327273880531516
 30
0.0
 10
-9.948865643806874
 20
-6.304055328862339
 30
0.0
 10
-11.97743859375083
 20
-6.950000000017946
 30
0.0
 10
-14.08992376631603
 20
-6.950000000017946
 30
0.0
  0
SPLINE
  5
C80A
330
1F
100
AcDbEntity
  8
AM_0
100
AcDbSpline
210
0.0
220
0.0
230
1.0
 70
     8
 71
     3
 72
     9
 73
     5
 74
     0
 42
0.0000000001
 43
0.0000000001
 40
0.0
 40
0.0
 40
0.0
 40
0.0
 40
0.1987770877846628
 40
5.759128114445015
 40
5.759128114445015
 40
5.759128114445015
 40
5.759128114445015
 10
-29.1993949587756
 20
6.190871571292554
 30
0.0
 10
-29.26652373959003
 20
6.190871571292554
 30
0.0
 10
-31.21242812195073
 20
6.199433874175418
 30
0.0
 10
-33.10062587151004
 20
5.711848458956187
 30
0.0
 10
-34.8907608703281
 20
4.958300227228962
 30
0.0
  0
SPLINE
  5
C80B
330
1F
100
AcDbEntity
  8
AM_0
100
AcDbSpline
210
0.0
220
0.0
230
1.0
 70
     8
 71
     3
 72
     8
 73
     4
 74
     0
 42
0.0000000001
 43
0.0000000001
 40
0.0
 40
0.0
 40
0.0
 40
0.0
 40
6.247244990625308
 40
6.247244990625308
 40
6.247244990625308
 40
6.247244990625308
 10
-29.40078130122586
 20
6.949999999982023
 30
0.0
 10
-31.51053119414969
 20
6.949999999982023
 30
0.0
 10
-33.53647751534237
 20
6.304055328826507
 30
0.0
 10
-35.51475149795568
 20
5.290659814816694
 30
0.0
  0
LINE
  5
C80C
330
1F
100
AcDbEntity
  8
AM_5
  6
AM_ISO09W050
 62
     3
 48
0.5
100
AcDbLine
 10
-29.40078130122583
 20
6.949999999982015
 30
0.0
 11
-41.6287216946847
 21
6.949999999982015
 31
0.0
  0
SPLINE
  5
C80D
330
1F
100
AcDbEntity
  8
AM_0
100
AcDbSpline
210
0.0
220
0.0
230
1.0
 70
     8
 71
     3
 72
     8
 73
     4
 74
     0
 42
0.0000000001
 43
0.0000000001
 40
22.73274810806179
 40
22.73274810806179
 40
22.73274810806179
 40
22.73274810806179
 40
28.97999309868792
 40
28.97999309868792
 40
28.97999309868792
 40
28.97999309868792
 10
-37.03444130239853
 20
-5.290659814852332
 30
0.0
 10
-39.01271528501208
 20
-6.304055328862339
 30
0.0
 10
-41.03866160620501
 20
-6.950000000017946
 30
0.0
 10
-43.14841149912918
 20
-6.950000000017946
 30
0.0
  0
LINE
  5
C80E
330
1F
100
AcDbEntity
  8
AM_5
  6
AM_ISO09W050
 62
     3
 48
0.5
100
AcDbLine
 10
-30.92047110566767
 20
-6.950000000017973
 30
0.0
 11
-42.78540443356873
 21
-6.950000000017973
 31
0.0
  0
SPLINE
  5
C80F
330
1F
100
AcDbEntity
  8
AM_0
100
AcDbSpline
210
0.0
220
0.0
230
1.0
 70
     8
 71
     3
 72
     9
 73
     5
 74
     0
 42
0.0000000001
 43
0.0000000001
 40
0.0
 40
0.0
 40
0.0
 40
0.0
 40
0.1987770877846628
 40
5.759128114445015
 40
5.759128114445015
 40
5.759128114445015
 40
5.759128114445015
 10
-58.27612655058608
 20
6.190871571292554
 30
0.0
 10
-58.34325533140036
 20
6.190871571292554
 30
0.0
 10
-60.28915971376116
 20
6.199433874175418
 30
0.0
 10
-62.17735746332053
 20
5.711848458956187
 30
0.0
 10
-63.96749246213856
 20
4.958300227228962
 30
0.0
  0
SPLINE
  5
C810
330
1F
100
AcDbEntity
  8
AM_0
100
AcDbSpline
210
0.0
220
0.0
230
1.0
 70
     8
 71
     3
 72
     8
 73
     4
 74
     0
 42
0.0000000001
 43
0.0000000001
 40
0.0
 40
0.0
 40
0.0
 40
0.0
 40
6.247244990625308
 40
6.247244990625308
 40
6.247244990625308
 40
6.247244990625308
 10
-58.47751289303635
 20
6.949999999982023
 30
0.0
 10
-60.58726278596016
 20
6.949999999982023
 30
0.0
 10
-62.6132091071528
 20
6.304055328826507
 30
0.0
 10
-64.5914830897661
 20
5.290659814816694
 30
0.0
  0
SPLINE
  5
C811
330
1F
100
AcDbEntity
  8
AM_0
100
AcDbSpline
210
0.0
220
0.0
230
1.0
 70
     8
 71
     3
 72
     8
 73
     4
 74
     0
 42
0.0000000001
 43
0.0000000001
 40
0.0
 40
0.0
 40
0.0
 40
0.0
 40
6.870645942600294
 40
6.870645942600294
 40
6.870645942600294
 40
6.870645942600294
 10
-58.47751289303635
 20
6.19087157130153
 30
0.0
 10
-56.15724694165123
 20
6.201091588158319
 30
0.0
 10
-53.82814991149735
 20
5.711357618162582
 30
0.0
 10
-51.55593938520794
 20
4.855802202989814
 30
0.0
  0
LINE
  5
C812
330
1F
100
AcDbEntity
  8
AM_0
100
AcDbLine
 10
-42.28813212337557
 20
-6.950000000017973
 30
0.0
 11
-60.94963083418
 21
-6.950000000017973
 31
0.0
  0
LINE
  5
C813
330
1F
100
AcDbEntity
  8
AM_0
100
AcDbLine
 10
-41.62872169463642
 20
6.949999999982015
 30
0.0
 11
-59.40381281951849
 21
6.949999999982015
 31
0.0
  0
SPLINE
  5
C814
330
1F
100
AcDbEntity
  8
AM_0
100
AcDbSpline
210
0.0
220
0.0
230
1.0
 70
     8
 71
     3
 72
     9
 73
     5
 74
     0
 42
0.0000000001
 43
0.0000000001
 40
0.0
 40
0.0
 40
0.0
 40
0.0
 40
1.448999654934392
 40
2.897999309868792
 40
2.897999309868792
 40
2.897999309868792
 40
2.897999309868792
 10
-31.09072340133142
 20
-6.948600283481592
 30
0.0
 10
-35.81387111068144
 20
-6.950000000017946
 30
0.0
 10
-44.69899199935213
 20
-0.0000000000181592
 30
0.0
 10
-53.58411288802281
 20
6.949999999982023
 30
0.0
 10
-58.47751289303635
 20
6.949999999982023
 30
0.0
  0
SPLINE
  5
C815
330
1F
100
AcDbEntity
  8
AM_0
100
AcDbSpline
210
0.0
220
0.0
230
1.0
 70
     8
 71
     3
 72
     9
 73
     5
 74
     0
 42
0.0000000001
 43
0.0000000001
 40
1.521176736886217
 40
1.521176736886217
 40
1.521176736886217
 40
1.521176736886217
 40
14.48999654934396
 40
28.97999309868792
 40
28.97999309868792
 40
28.97999309868792
 40
28.97999309868792
 10
-30.92047110566767
 20
-6.950000000017946
 30
0.0
 10
-35.22695165950433
 20
-6.220380894495226
 30
0.0
 10
-43.64568737153828
 20
0.3648095527433883
 30
0.0
 10
-52.06442308357205
 20
6.949999999982023
 30
0.0
 10
-56.95782308858544
 20
6.949999999982023
 30
0.0
  0
SPLINE
  5
C816
330
1F
100
AcDbEntity
  8
AM_0
100
AcDbSpline
210
0.0
220
0.0
230
1.0
 70
     8
 71
     3
 72
     9
 73
     5
 74
     0
 42
0.0000000001
 43
0.0000000001
 40
0.0
 40
0.0
 40
0.0
 40
0.0
 40
1.448999654934392
 40
2.897999309868792
 40
2.897999309868792
 40
2.897999309868792
 40
2.897999309868792
 10
-2.529593128234423
 20
-6.950000000017973
 30
0.0
 10
-6.74587418482679
 20
-6.950000000017946
 30
0.0
 10
-15.64251458600311
 20
-0.0000000000181592
 30
0.0
 10
-24.53915498717943
 20
6.949999999982023
 30
0.0
 10
-29.43889925956511
 20
6.949999999982023
 30
0.0
  0
LINE
  5
C817
330
1F
100
AcDbEntity
  8
AM_0
100
AcDbLine
 10
-14.08992376631443
 20
-6.950000000017973
 30
0.0
 11
-30.96055933384636
 21
-6.950000000017973
 31
0.0
  0
SPLINE
  5
C818
330
1F
100
AcDbEntity
  8
AM_0
100
AcDbSpline
210
0.0
220
0.0
230
1.0
 70
     8
 71
     3
 72
     9
 73
     5
 74
     0
 42
0.0000000001
 43
0.0000000001
 40
0.0
 40
0.0
 40
0.0
 40
0.0
 40
1.448999654934399
 40
2.897999309868795
 40
2.897999309868795
 40
2.897999309868795
 40
2.897999309868795
 10
-14.08992376631449
 20
-6.950000000017946
 30
0.0
 10
-18.98966803870013
 20
-6.950000000017946
 30
0.0
 10
-27.88630843987651
 20
-0.0000000000181592
 30
0.0
 10
-36.7829488410528
 20
6.949999999982023
 30
0.0
 10
-41.68269311343848
 20
6.949999999982023
 30
0.0
  0
LINE
  5
C819
330
1F
100
AcDbEntity
  8
AM_0
100
AcDbLine
 10
-14.08992376631443
 20
6.949999999982015
 30
0.0
 11
-29.43889925956361
 21
6.949999999982015
 31
0.0
  0
SPLINE
  5
C81A
330
1F
100
AcDbEntity
  8
AM_0
100
AcDbSpline
210
0.0
220
0.0
230
1.0
 70
     8
 71
     3
 72
     8
 73
     4
 74
     0
 42
0.0000000001
 43
0.0000000001
 40
0.0
 40
0.0
 40
0.0
 40
0.0
 40
6.870645942600294
 40
6.870645942600294
 40
6.870645942600294
 40
6.870645942600294
 10
-29.43889925956511
 20
6.19087157130153
 30
0.0
 10
-27.11562509557625
 20
6.201091588158319
 30
0.0
 10
-24.78350840337145
 20
5.711357618162582
 30
0.0
 10
-22.50835196808418
 20
4.855802202989814
 30
0.0
  0
SPLINE
  5
C81B
330
1F
100
AcDbEntity
  8
AM_0
100
AcDbSpline
210
0.0
220
0.0
230
1.0
 70
     8
 71
     3
 72
     8
 73
     4
 74
     0
 42
0.0000000001
 43
0.0000000001
 40
22.73274810806179
 40
22.73274810806179
 40
22.73274810806179
 40
22.73274810806179
 40
28.97999309868792
 40
28.97999309868792
 40
28.97999309868792
 40
28.97999309868792
 10
-67.15839209166715
 20
-5.290659821048479
 30
0.0
 10
-69.16800247957576
 20
-6.304055335058493
 30
0.0
 10
-71.22604034905027
 20
-6.950000006214102
 30
0.0
 10
-73.36920926193667
 20
-6.950000006214102
 30
0.0
  0
SPLINE
  5
C81C
330
1F
100
AcDbEntity
  8
AM_0
100
AcDbSpline
210
0.0
220
0.0
230
1.0
 70
     8
 71
     3
 72
     8
 73
     4
 74
     0
 42
0.0000000001
 43
0.0000000001
 40
0.0
 40
0.0
 40
0.0
 40
0.0
 40
10.77533687840354
 40
10.77533687840354
 40
10.77533687840354
 40
10.77533687840354
 10
-73.36920926999244
 20
-6.950000000017946
 30
0.0
 10
-77.06577744657682
 20
-6.950000000017946
 30
0.0
 10
-80.50908212865751
 20
-5.028324919861238
 30
0.0
 10
-83.88746010865444
 20
-2.614008665042926
 30
0.0
  0
SPLINE
  5
C81D
330
1F
100
AcDbEntity
  8
AM_0
100
AcDbSpline
210
0.0
220
0.0
230
1.0
 70
     8
 71
     3
 72
     8
 73
     4
 74
     0
 42
0.0000000001
 43
0.0000000001
 40
2.893239258405414
 40
2.893239258405414
 40
2.893239258405414
 40
2.893239258405414
 40
2.897999309868792
 40
2.897999309868792
 40
2.897999309868792
 40
2.897999309868792
 10
-88.89215341172674
 20
6.949887614317316
 30
0.0
 10
-88.90847329233707
 20
6.949962492898831
 30
0.0
 10
-88.92479809906935
 20
6.949999993785884
 30
0.0
 10
-88.94112784815929
 20
6.949999993785884
 30
0.0
  0
LINE
  5
C81E
330
1F
100
AcDbEntity
  8
AM_0
100
AcDbLine
 10
-88.52959312814133
 20
-6.950000000000899
 30
0.0
 11
-88.52959312814117
 21
6.949999999999111
 31
0.0
  0
SPLINE
  5
C81F
330
1F
100
AcDbEntity
  8
AM_0
100
AcDbSpline
210
0.0
220
0.0
230
1.0
 70
     8
 71
     3
 72
    10
 73
     6
 74
     0
 42
0.0000000001
 43
0.0000000001
 40
0.0
 40
0.0
 40
0.0
 40
0.0
 40
0.6447675857635071
 40
1.316546974011651
 40
1.777238964087921
 40
1.777238964087921
 40
1.777238964087921
 40
1.777238964087921
 10
-83.88744461160477
 20
-2.614019739815004
 30
0.0
 10
-85.84255033537408
 20
-1.216828444504333
 30
0.0
 10
-91.93655286228752
 20
5.664444570269587
 30
0.0
 10
-81.56130312328672
 20
4.695480267517599
 30
0.0
 10
-78.60789970254938
 20
2.769613335919404
 30
0.0
 10
-77.22470439449756
 20
1.737656382242566
 30
0.0
  0
LINE
  5
C820
330
1F
100
AcDbEntity
  8
AM_5
  6
AM_ISO09W050
 62
     3
 48
0.5
100
AcDbLine
 10
-59.40381281951849
 20
6.949999999982015
 30
0.0
 11
-70.70545328649592
 21
6.949999999982015
 31
0.0
  0
SPLINE
  5
C821
330
1F
100
AcDbEntity
  8
AM_0
100
AcDbSpline
210
0.0
220
0.0
230
1.0
 70
     8
 71
     3
 72
     9
 73
     5
 74
     0
 42
0.0000000001
 43
0.0000000001
 40
0.0
 40
0.0
 40
0.0
 40
0.0
 40
1.448999654934399
 40
2.897999309868795
 40
2.897999309868795
 40
2.897999309868795
 40
2.897999309868795
 10
-43.14841149912758
 20
-6.950000000017946
 30
0.0
 10
-48.04181150414098
 20
-6.950000000017946
 30
0.0
 10
-56.92693239281178
 20
-0.0000000000181592
 30
0.0
 10
-65.81205328148252
 20
6.949999999982023
 30
0.0
 10
-70.70545328649591
 20
6.949999999982023
 30
0.0
  0
SPLINE
  5
C822
330
1F
100
AcDbEntity
  8
AM_0
100
AcDbSpline
210
0.0
220
0.0
230
1.0
 70
     8
 71
     3
 72
     9
 73
     5
 74
     0
 42
0.0000000001
 43
0.0000000001
 40
1.521176736886217
 40
1.521176736886217
 40
1.521176736886217
 40
1.521176736886217
 40
14.48999654934396
 40
28.97999309868792
 40
28.97999309868792
 40
28.97999309868792
 40
28.97999309868792
 10
-60.9475749213977
 20
-6.950000006214102
 30
0.0
 10
-65.32227131450461
 20
-6.220380900691376
 30
0.0
 10
-73.87436212126418
 20
0.3648095465472391
 30
0.0
 10
-82.42645292802363
 20
6.949999993785884
 30
0.0
 10
-87.39736573822774
 20
6.949999993785884
 30
0.0
  0
SPLINE
  5
C823
330
1F
100
AcDbEntity
  8
AM_0
100
AcDbSpline
210
0.0
220
0.0
230
1.0
 70
     8
 71
     3
 72
     9
 73
     5
 74
     0
 42
0.0000000001
 43
0.0000000001
 40
0.0
 40
0.0
 40
0.0
 40
0.0
 40
1.448999654934392
 40
1.692872608825329
 40
1.692872608825329
 40
1.692872608825329
 40
1.692872608825329
 10
-60.9475749213977
 20
-6.950000006214102
 30
0.0
 10
-65.91848773160181
 20
-6.950000006214102
 30
0.0
 10
-71.1909656433191
 20
-2.890142368819117
 30
0.0
 10
-76.4634435550364
 20
1.169715268575864
 30
0.0
 10
-77.22517304121774
 20
1.738006020162457
 30
0.0
  0
LINE
  5
C824
330
1F
100
AcDbEntity
  8
AM_5
  6
AM_ISO09W050
 62
     3
 48
0.5
100
AcDbLine
 10
-60.9475749213977
 20
-6.950000006214114
 30
0.0
 11
-73.36920926193667
 21
-6.950000006214114
 31
0.0
  0
VIEWPORT
  5
E2
330
1B
100
AcDbEntity
 67
     1
  8
0
100
AcDbViewport
 10
158.659971393327
 20
148.5
 30
0.0
 40
581.809078125
 41
314.226
 68
     1
 69
     1
1001
ACAD
1000
MVIEW
1002
{
1070
    16
1010
0.0
1020
0.0
1030
0.0
1010
0.0
1020
0.0
1030
1.0
1040
0.0
1040
314.226
1040
158.659971393327
1040
148.5
1040
50.0
1040
0.0
1040
0.0
1070
     0
1070
   100
1070
     1
1070
     1
1070
     0
1070
     0
1070
     0
1070
     0
1040
0.0
1040
0.0
1040
0.0
1040
10.0
1040
10.0
1040
10.0
1040
10.0
1070
     0
1002
{
1002
}
1002
}
  0
ENDSEC
  0
SECTION
  2
OBJECTS
  0
DICTIONARY
  5
C
330
0
100
AcDbDictionary
  3
ACAD_GROUP
350
D
  3
ACAD_LAYOUT
350
1A
  3
ACAD_MLINESTYLE
350
17
  3
ACAD_PLOTSETTINGS
350
19
  3
ACAD_PLOTSTYLENAME
350
E
  3
ACDBVARIABLEDICTIONARY
350
34
  3
ACMDICTIONARY
350
43
  3
AMG
350
2B
  3
AMGSNAPSETTINGS
350
6E
  3
DWGPROPS
350
C87B
  3
ACDBHEADERROUNDTRIPXREC
350
C888
  0
DICTIONARY
  5
74
330
1F
100
AcDbDictionary
280
     1
  3
ACAD_INDEX
360
C87D
  3
ACAD_LAYOUTSELFREF
360
C8AB
  0
DICTIONARY
  5
C8A9
330
1B
100
AcDbDictionary
280
     1
  3
ACAD_LAYOUTSELFREF
360
C8AA
  0
DICTIONARY
  5
D
102
{ACAD_REACTORS
330
C
102
}
330
C
100
AcDbDictionary
  0
DICTIONARY
  5
1A
102
{ACAD_REACTORS
330
C
102
}
330
C
100
AcDbDictionary
  0
DICTIONARY
  5
17
102
{ACAD_REACTORS
330
C
102
}
330
C
100
AcDbDictionary
  3
STANDARD
350
18
  0
DICTIONARY
  5
19
102
{ACAD_REACTORS
330
C
102
}
330
C
100
AcDbDictionary
  0
ACDBDICTIONARYWDFLT
  5
E
102
{ACAD_REACTORS
330
C
102
}
330
C
100
AcDbDictionary
281
     1
  3
Normal
350
F
100
AcDbDictionaryWithDefault
340
F
  0
DICTIONARY
  5
34
102
{ACAD_REACTORS
330
C
102
}
330
C
100
AcDbDictionary
  3
INDEXCTL
350
35
  3
SORTENTS
350
B5E
  0
DICTIONARY
  5
43
102
{ACAD_REACTORS
330
C
102
}
330
C
100
AcDbDictionary
  3
ACMSTDDICTIONARY
350
260
  0
DICTIONARY
  5
2B
102
{ACAD_REACTORS
330
C
102
}
330
C
100
AcDbDictionary
  3
ACMGSETTINGS
350
2C
  0
DICTIONARY
  5
6E
102
{ACAD_REACTORS
330
C
102
}
330
C
100
AcDbDictionary
  0
XRECORD
  5
C87B
102
{ACAD_REACTORS
330
C
102
}
330
C
100
AcDbXrecord
  1
DWGPROPS COOKIE
  2

  3

  4

  6

  7

  8

  9

300
AmdtFileType=82
301
=
302
=
303
=
304
=
305
=
306
=
307
=
308
=
309
=
 40
2.000981527777777
 41
2452838.620506898
 42
2452950.890816435
  1

 90
        1
  0
DICTIONARY
  5
C888
102
{ACAD_REACTORS
330
C
102
}
330
C
100
AcDbDictionary
  3
TSTACKALIGN
350
C889
  3
TSTACKSIZE
350
C88A
  3
HYPERLINKBASE
350
C88B
  3
STYLESHEET
350
C88C
  3
LAYOUTDICT
350
C88D
  3
PLOTSETDICT
350
C88E
  3
PLOTSTYLNAMDICT
350
C88F
  3
LWETCUNION
350
C890
  3
INSUNITS
350
C891
  3
CEPSNTYPE
350
C892
  3
FINGERPRINTGUID
350
C893
  3
VERSIONGUID
350
C894
  3
PSVPSCALE
350
C895
  3
DIMSTYLEDATA
350
C896
  3
PUCSORTHOREF
350
C897
  3
PUCSORTHOVIEW
350
C898
  3
PUCSBASE
350
C899
  3
PUCSORGTOP
350
C89A
  3
PUCSORGBOTTOM
350
C89B
  3
PUCSORGLEFT
350
C89C
  3
PUCSORGRIGHT
350
C89D
  3
PUCSORGFRONT
350
C89E
  3
PUCSORGBACK
350
C89F
  3
UCSORTHOREF
350
C8A0
  3
UCSORTHOVIEW
350
C8A1
  3
UCSBASE
350
C8A2
  3
UCSORGTOP
350
C8A3
  3
UCSORGBOTTOM
350
C8A4
  3
UCSORGLEFT
350
C8A5
  3
UCSORGRIGHT
350
C8A6
  3
UCSORGFRONT
350
C8A7
  3
UCSORGBACK
350
C8A8
  0
DICTIONARY
  5
C87D
102
{ACAD_REACTORS
330
74
102
}
330
74
100
AcDbDictionary
  3
*A1
350
C87E
  0
XRECORD
  5
C8AB
102
{ACAD_REACTORS
330
74
102
}
330
74
100
AcDbXrecord
340
1F
  0
XRECORD
  5
C8AA
102
{ACAD_REACTORS
330
C8A9
102
}
330
C8A9
100
AcDbXrecord
340
1B
  0
MLINESTYLE
  5
18
102
{ACAD_REACTORS
330
17
102
}
330
17
100
AcDbMlineStyle
  2
STANDARD
 70
     0
  3

 62
   256
 51
90.0
 52
90.0
 71
     2
 49
0.5
 62
   256
  6
BYLAYER
 49
-0.5
 62
   256
  6
BYLAYER
  0
ACDBPLACEHOLDER
  5
F
102
{ACAD_REACTORS
330
E
102
}
330
E
100
AcDbPlaceHolder
280
     0
  0
DICTIONARYVAR
  5
35
102
{ACAD_REACTORS
330
34
102
}
330
34
100
DictionaryVariables
280
     0
  1
1
  0
DICTIONARYVAR
  5
B5E
102
{ACAD_REACTORS
330
34
102
}
330
34
100
DictionaryVariables
280
     0
  1
96
  0
DICTIONARY
  5
260
102
{ACAD_REACTORS
330
43
102
}
330
43
100
AcDbDictionary
  0
DICTIONARY
  5
2C
102
{ACAD_REACTORS
330
2B
102
}
330
2B
100
AcDbDictionary
  3
DWGSETTINGS
350
2D
  0
XRECORD
  5
C889
102
{ACAD_REACTORS
330
C888
102
}
330
C888
100
AcDbXrecord
 90
        1
  0
XRECORD
  5
C88A
102
{ACAD_REACTORS
330
C888
102
}
330
C888
100
AcDbXrecord
 90
       70
  0
XRECORD
  5
C88B
102
{ACAD_REACTORS
330
C888
102
}
330
C888
100
AcDbXrecord
  1

  0
XRECORD
  5
C88C
102
{ACAD_REACTORS
330
C888
102
}
330
C888
100
AcDbXrecord
  1
ASAMI.ctb
  0
XRECORD
  5
C88D
102
{ACAD_REACTORS
330
C888
102
}
330
C888
100
AcDbXrecord
340
1A
  0
XRECORD
  5
C88E
102
{ACAD_REACTORS
330
C888
102
}
330
C888
100
AcDbXrecord
340
19
  0
XRECORD
  5
C88F
102
{ACAD_REACTORS
330
C888
102
}
330
C888
100
AcDbXrecord
340
E
  0
XRECORD
  5
C890
102
{ACAD_REACTORS
330
C888
102
}
330
C888
100
AcDbXrecord
 90
    10781
  0
XRECORD
  5
C891
102
{ACAD_REACTORS
330
C888
102
}
330
C888
100
AcDbXrecord
 90
        4
  0
XRECORD
  5
C892
102
{ACAD_REACTORS
330
C888
102
}
330
C888
100
AcDbXrecord
 90
        0
  0
XRECORD
  5
C893
102
{ACAD_REACTORS
330
C888
102
}
330
C888
100
AcDbXrecord
  1
{AFB28963-8C59-40AE-9337-C84526B81ACE}
  0
XRECORD
  5
C894
102
{ACAD_REACTORS
330
C888
102
}
330
C888
100
AcDbXrecord
  1
{033ECF31-3F23-4017-88FD-954CE06EA8C0}
  0
XRECORD
  5
C895
102
{ACAD_REACTORS
330
C888
102
}
330
C888
100
AcDbXrecord
 40
0.0
  0
XRECORD
  5
C896
102
{ACAD_REACTORS
330
C888
102
}
330
C888
100
AcDbXrecord
1000
DSTYLE
1002
{
1070
    79
 70
     2
1070
   341
340
59
1070
   342
340
59
1070
   371
 70
    -1
1070
   372
 70
    -1
1002
}
  0
XRECORD
  5
C897
102
{ACAD_REACTORS
330
C888
102
}
330
C888
100
AcDbXrecord
340
0
  0
XRECORD
  5
C898
102
{ACAD_REACTORS
330
C888
102
}
330
C888
100
AcDbXrecord
 70
     0
  0
XRECORD
  5
C899
102
{ACAD_REACTORS
330
C888
102
}
330
C888
100
AcDbXrecord
340
0
  0
XRECORD
  5
C89A
102
{ACAD_REACTORS
330
C888
102
}
330
C888
100
AcDbXrecord
 10
0.0
 20
0.0
 30
0.0
  0
XRECORD
  5
C89B
102
{ACAD_REACTORS
330
C888
102
}
330
C888
100
AcDbXrecord
 10
0.0
 20
0.0
 30
0.0
  0
XRECORD
  5
C89C
102
{ACAD_REACTORS
330
C888
102
}
330
C888
100
AcDbXrecord
 10
0.0
 20
0.0
 30
0.0
  0
XRECORD
  5
C89D
102
{ACAD_REACTORS
330
C888
102
}
330
C888
100
AcDbXrecord
 10
0.0
 20
0.0
 30
0.0
  0
XRECORD
  5
C89E
102
{ACAD_REACTORS
330
C888
102
}
330
C888
100
AcDbXrecord
 10
0.0
 20
0.0
 30
0.0
  0
XRECORD
  5
C89F
102
{ACAD_REACTORS
330
C888
102
}
330
C888
100
AcDbXrecord
 10
0.0
 20
0.0
 30
0.0
  0
XRECORD
  5
C8A0
102
{ACAD_REACTORS
330
C888
102
}
330
C888
100
AcDbXrecord
340
0
  0
XRECORD
  5
C8A1
102
{ACAD_REACTORS
330
C888
102
}
330
C888
100
AcDbXrecord
 70
     0
  0
XRECORD
  5
C8A2
102
{ACAD_REACTORS
330
C888
102
}
330
C888
100
AcDbXrecord
340
0
  0
XRECORD
  5
C8A3
102
{ACAD_REACTORS
330
C888
102
}
330
C888
100
AcDbXrecord
 10
0.0
 20
0.0
 30
0.0
  0
XRECORD
  5
C8A4
102
{ACAD_REACTORS
330
C888
102
}
330
C888
100
AcDbXrecord
 10
0.0
 20
0.0
 30
0.0
  0
XRECORD
  5
C8A5
102
{ACAD_REACTORS
330
C888
102
}
330
C888
100
AcDbXrecord
 10
0.0
 20
0.0
 30
0.0
  0
XRECORD
  5
C8A6
102
{ACAD_REACTORS
330
C888
102
}
330
C888
100
AcDbXrecord
 10
0.0
 20
0.0
 30
0.0
  0
XRECORD
  5
C8A7
102
{ACAD_REACTORS
330
C888
102
}
330
C888
100
AcDbXrecord
 10
0.0
 20
0.0
 30
0.0
  0
XRECORD
  5
C8A8
102
{ACAD_REACTORS
330
C888
102
}
330
C888
100
AcDbXrecord
 10
0.0
 20
0.0
 30
0.0
  0
LAYER_INDEX
  5
C87E
102
{ACAD_REACTORS
330
C87D
102
}
330
C87D
100
AcDbIndex
 40
2453151.655720833
100
AcDbLayerIndex
  8
0
360
C87F
 90
        0
  8
AM_0
360
C880
 90
       47
  8
AM_11
360
C881
 90
        0
  8
AM_7
360
C882
 90
        1
  8
AM_5
360
C883
 90
       10
  8
Defpoints
360
C884
 90
        0
  8
AM_6
360
C885
 90
        1
  8
AM_CL
360
C886
 90
        0
  0
XRECORD
  5
2D
102
{ACAD_REACTORS
330
2C
102
}
330
2C
100
AcDbXrecord
  1
VERSION
140
15.0
  1
PRODUCT
  2
AutoCAD Mechanical 2000
  0
IDBUFFER
  5
C87F
330
0
100
AcDbIdBuffer
  0
IDBUFFER
  5
C880
330
0
100
AcDbIdBuffer
330
C800
330
C801
330
C802
330
C803
330
C804
330
C805
330
C808
330
C809
330
C80A
330
C80B
330
C80D
330
C80F
330
C810
330
C811
330
C812
330
C813
330
C814
330
C815
330
C816
330
C817
330
C818
330
C819
330
C81A
330
C81B
330
C81C
330
C81D
330
C81E
330
C81F
330
C821
330
C822
330
C823
330
631C
330
631D
330
6343
330
6348
330
6349
330
634B
330
634C
330
63DB
330
647F
330
6CBA
330
6CBE
330
6CC0
330
6CC1
330
B156
330
B158
330
B8B2
  0
IDBUFFER
  5
C881
330
0
100
AcDbIdBuffer
  0
IDBUFFER
  5
C882
330
0
100
AcDbIdBuffer
330
6320
  0
IDBUFFER
  5
C883
330
0
100
AcDbIdBuffer
330
634F
330
640B
330
6418
330
B7AC
330
C806
330
C807
330
C80C
330
C80E
330
C820
330
C824
  0
IDBUFFER
  5
C884
330
0
100
AcDbIdBuffer
  0
IDBUFFER
  5
C885
330
0
100
AcDbIdBuffer
330
C58
  0
IDBUFFER
  5
C886
330
0
100
AcDbIdBuffer
  0
ENDSEC
  0
EOF
