  0
SECTION
  2
HEADER
  9
$ACADVER
  1
AC1014
  9
$ACADMAINTVER
 70
     9
  9
$DWGCODEPAGE
  3
ANSI_932
  9
$INSBASE
 10
0.0
 20
0.0
 30
0.0
  9
$EXTMIN
 10
-176.1458943406646
 20
-58.61445006090566
 30
-0.00000001
  9
$EXTMAX
 10
33.41385353870562
 20
32.33844422313201
 30
0.00000001
  9
$LIMMIN
 10
-200.4176530298017
 20
-77.9292776483091
  9
$LIMMAX
 10
56.71672161201422
 20
55.95945949522172
  9
$ORTHOMODE
 70
     0
  9
$REGENMODE
 70
     1
  9
$FILLMODE
 70
     1
  9
$QTEXTMODE
 70
     0
  9
$MIRRTEXT
 70
     0
  9
$DRAGMODE
 70
     2
  9
$LTSCALE
 40
0.5
  9
$OSMODE
 70
    55
  9
$ATTMODE
 70
     1
  9
$TEXTSIZE
 40
2.5
  9
$TRACEWID
 40
1.0
  9
$TEXTSTYLE
  7
STANDARD
  9
$CLAYER
  8
AM_0
  9
$CELTYPE
  6
BYLAYER
  9
$CECOLOR
 62
   256
  9
$CELTSCALE
 40
1.0
  9
$DELOBJ
 70
     1
  9
$DISPSILH
 70
     0
  9
$DIMSCALE
 40
1.0
  9
$DIMASZ
 40
2.5
  9
$DIMEXO
 40
1.0
  9
$DIMDLI
 40
12.0
  9
$DIMRND
 40
0.0
  9
$DIMDLE
 40
0.0
  9
$DIMEXE
 40
1.0
  9
$DIMTP
 40
0.1
  9
$DIMTM
 40
0.1
  9
$DIMTXT
 40
3.2
  9
$DIMCEN
 40
0.0
  9
$DIMTSZ
 40
0.0
  9
$DIMTOL
 70
     0
  9
$DIMLIM
 70
     0
  9
$DIMTIH
 70
     0
  9
$DIMTOH
 70
     0
  9
$DIMSE1
 70
     0
  9
$DIMSE2
 70
     0
  9
$DIMTAD
 70
     3
  9
$DIMZIN
 70
     1
  9
$DIMBLK
  1
OPEN30
  9
$DIMASO
 70
     1
  9
$DIMSHO
 70
     1
  9
$DIMPOST
  1

  9
$DIMAPOST
  1
"
  9
$DIMALT
 70
     0
  9
$DIMALTD
 70
     2
  9
$DIMALTF
 40
0.0393701
  9
$DIMLFAC
 40
1.0
  9
$DIMTOFL
 70
     1
  9
$DIMTVP
 40
0.0
  9
$DIMTIX
 70
     0
  9
$DIMSOXD
 70
     0
  9
$DIMSAH
 70
     0
  9
$DIMBLK1
  1

  9
$DIMBLK2
  1

  9
$DIMSTYLE
  2
AM_JIS
  9
$DIMCLRD
 70
     3
  9
$DIMCLRE
 70
     3
  9
$DIMCLRT
 70
     2
  9
$DIMTFAC
 40
0.71
  9
$DIMGAP
 40
1.5
  9
$DIMJUST
 70
     0
  9
$DIMSD1
 70
     0
  9
$DIMSD2
 70
     0
  9
$DIMTOLJ
 70
     0
  9
$DIMTZIN
 70
     0
  9
$DIMALTZ
 70
     0
  9
$DIMALTTZ
 70
     0
  9
$DIMFIT
 70
     3
  9
$DIMUPT
 70
     0
  9
$DIMUNIT
 70
     2
  9
$DIMDEC
 70
     1
  9
$DIMTDEC
 70
     1
  9
$DIMALTU
 70
     2
  9
$DIMALTTD
 70
     2
  9
$DIMTXSTY
  7
ASAMI
  9
$DIMAUNIT
 70
     0
  9
$LUNITS
 70
     2
  9
$LUPREC
 70
     2
  9
$SKETCHINC
 40
1.0
  9
$FILLETRAD
 40
0.8
  9
$AUNITS
 70
     0
  9
$AUPREC
 70
     0
  9
$MENU
  1
.
  9
$ELEVATION
 40
0.0
  9
$PELEVATION
 40
0.0
  9
$THICKNESS
 40
0.0
  9
$LIMCHECK
 70
     0
  9
$BLIPMODE
 70
     0
  9
$CHAMFERA
 40
1.0
  9
$CHAMFERB
 40
1.0
  9
$CHAMFERC
 40
20.0
  9
$CHAMFERD
 40
0.0
  9
$SKPOLY
 70
     0
  9
$TDCREATE
 40
2452838.620506898
  9
$TDUPDATE
 40
2453151.636998506
  9
$TDINDWG
 40
2.0910750231
  9
$TDUSRTIMER
 40
2.0910750231
  9
$USRTIMER
 70
     1
  9
$ANGBASE
 50
0.0
  9
$ANGDIR
 70
     0
  9
$PDMODE
 70
     0
  9
$PDSIZE
 40
0.0
  9
$PLINEWID
 40
0.0
  9
$COORDS
 70
     1
  9
$SPLFRAME
 70
     0
  9
$SPLINETYPE
 70
     6
  9
$SPLINESEGS
 70
     8
  9
$ATTDIA
 70
     1
  9
$ATTREQ
 70
     1
  9
$HANDLING
 70
 12289
  9
$HANDSEED
  5
CF80
  9
$SURFTAB1
 70
     6
  9
$SURFTAB2
 70
     6
  9
$SURFTYPE
 70
     6
  9
$SURFU
 70
     6
  9
$SURFV
 70
     6
  9
$UCSNAME
  2

  9
$UCSORG
 10
0.0
 20
0.0000000000000002
 30
0.0
  9
$UCSXDIR
 10
1.0
 20
0.0
 30
0.0
  9
$UCSYDIR
 10
0.0
 20
1.0
 30
0.0
  9
$PUCSNAME
  2

  9
$PUCSORG
 10
0.0
 20
0.0
 30
0.0
  9
$PUCSXDIR
 10
1.0
 20
0.0
 30
0.0
  9
$PUCSYDIR
 10
0.0
 20
1.0
 30
0.0
  9
$USERI1
 70
     0
  9
$USERI2
 70
     0
  9
$USERI3
 70
     0
  9
$USERI4
 70
     0
  9
$USERI5
 70
     0
  9
$USERR1
 40
0.0
  9
$USERR2
 40
0.0
  9
$USERR3
 40
0.0
  9
$USERR4
 40
0.0
  9
$USERR5
 40
0.0
  9
$WORLDVIEW
 70
     1
  9
$SHADEDGE
 70
     3
  9
$SHADEDIF
 70
    70
  9
$TILEMODE
 70
     1
  9
$MAXACTVP
 70
    64
  9
$PINSBASE
 10
0.0
 20
0.0
 30
0.0
  9
$PLIMCHECK
 70
     0
  9
$PEXTMIN
 10
1.000000000000000E+20
 20
1.000000000000000E+20
 30
1.000000000000000E+20
  9
$PEXTMAX
 10
-1.000000000000000E+20
 20
-1.000000000000000E+20
 30
-1.000000000000000E+20
  9
$PLIMMIN
 10
0.0
 20
0.0
  9
$PLIMMAX
 10
210.0
 20
297.0
  9
$UNITMODE
 70
     0
  9
$VISRETAIN
 70
     1
  9
$PLINEGEN
 70
     0
  9
$PSLTSCALE
 70
     1
  9
$TREEDEPTH
 70
  3020
  9
$PICKSTYLE
 70
     0
  9
$CMLSTYLE
  2
STANDARD
  9
$CMLJUST
 70
     0
  9
$CMLSCALE
 40
20.0
  9
$PROXYGRAPHICS
 70
     1
  9
$MEASUREMENT
 70
     1
  0
ENDSEC
  0
SECTION
  2
CLASSES
  0
CLASS
  1
ACDBDICTIONARYWDFLT
  2
AcDbDictionaryWithDefault
  3
AutoCAD 2000
 90
        0
280
     0
281
     0
  0
CLASS
  1
ACDBPLACEHOLDER
  2
AcDbPlaceHolder
  3
AutoCAD 2000
 90
        0
280
     0
281
     0
  0
CLASS
  1
LAYOUT
  2
AcDbLayout
  3
AutoCAD 2000
 90
        0
280
     0
281
     0
  0
CLASS
  1
AMGSETTINGSOBJ
  2
AmgSettingsObj
  3
"AcadM|Product Description: AutoCAD Mechanical 2000|Company: Autodesk"
 90
        0
280
     0
281
     0
  0
CLASS
  1
ACME_DOCUMENT
  2
AcMeDbDoc
  3
AcMeServices
 90
        0
280
     0
281
     0
  0
CLASS
  1
ACMESCOPE
  2
AcMeScope
  3
AcMeServices
 90
        0
280
     0
281
     0
  0
CLASS
  1
ACMECOMMANDHISTORY
  2
AcMeCommandHistory
  3
AcMeServices
 90
        0
280
     0
281
     0
  0
CLASS
  1
DICTIONARYVAR
  2
AcDbDictionaryVar
  3
AutoCAD 2000
 90
        0
280
     0
281
     0
  0
CLASS
  1
ACIMSYSVARMAN
  2
AcImSysVarManager
  3
AcMeServices
 90
        0
280
     0
281
     0
  0
CLASS
  1
ACIMREALSYSVAR
  2
AcImRealSysVar
  3
AcMeServices
 90
        0
280
     0
281
     0
  0
CLASS
  1
ACIMINTSYSVAR
  2
AcImIntSysVar
  3
AcMeServices
 90
        0
280
     0
281
     0
  0
CLASS
  1
ACMEDRAWINGMAN
  2
AcMeDrawingMan
  3
AcMeServices
 90
        0
280
     0
281
     0
  0
CLASS
  1
ACMEVIEW
  2
AcMeView
  3
AcMeServices
 90
        0
280
     0
281
     0
  0
CLASS
  1
ACDBENTITYCACHE
  2
AcMeEntityCache
  3
AcMeServices
 90
        0
280
     0
281
     0
  0
CLASS
  1
GSMANAGER
  2
AcMeGSManager
  3
AcMeServices
 90
        0
280
     0
281
     0
  0
CLASS
  1
AmdtInternalReactor
  2
AmdtInternalReactor
  3
AcMeServices
 90
        0
280
     0
281
     0
  0
CLASS
  1
ACMESTATEMGR
  2
AcMeStateMgr
  3
AcMeServices
 90
        0
280
     0
281
     0
  0
CLASS
  1
ACME_DATABASE
  2
AcMeDbDatabase
  3
AcMeServices
 90
        0
280
     0
281
     0
  0
CLASS
  1
ACRFINSADJUSTERMGR
  2
AcRfInsAdjusterMgr
  3
AcMeServices
 90
        0
280
     0
281
     0
  0
CLASS
  1
ACMDATADICTIONARY
  2
AcmDataDictionary
  3
"AcmSymBB|Product Description: AutoCAD Mechanical 2000|Company: Autodesk"
 90
        0
280
     0
281
     0
  0
CLASS
  1
ACMDATAENTRYBLOCK
  2
AcmDataEntryBlock
  3
"AcmSymBB|Product Description: AutoCAD Mechanical 2000|Company: Autodesk"
 90
        0
280
     0
281
     0
  0
CLASS
  1
AMGOBJPROPCFG
  2
AmgObjPropCfg
  3
"AmgLay|Product Description: AutoCAD Mechanical 2000|Company: Autodesk"
 90
        1
280
     0
281
     0
  0
CLASS
  1
ACAMGFILTERDAT
  2
AcAmgFilterDat
  3
"AcadM|Product Description: AutoCAD Mechanical 2000|Company: Autodesk"
 90
        0
280
     0
281
     0
  0
CLASS
  1
LAYER_INDEX
  2
AcDbLayerIndex
  3
AutoCAD 2000
 90
        0
280
     0
281
     0
  0
CLASS
  1
IDBUFFER
  2
AcDbIdBuffer
  3
AutoCAD 2000
 90
        0
280
     0
281
     0
  0
CLASS
  1
ACIMSTRSYSVAR
  2
AcImStrSysVar
  3
AcMeServices
 90
        0
280
     0
281
     0
  0
CLASS
  1
ACMSTANDARDJIS
  2
AcmStandardJIS
  3
"AcmSymBB|Product Description: AutoCAD Mechanical 2000|Company: Autodesk"
 90
        0
280
     0
281
     0
  0
CLASS
  1
ACMSURFSTANDARDJIS
  2
AcmSurfTextStdJIS
  3
"AcmSymBB|Product Description: AutoCAD Mechanical 2000|Company: Autodesk"
 90
        0
280
     0
281
     0
  0
CLASS
  1
ACMFCFSTANDARDJIS
  2
AcmFCFStdJIS
  3
"AcmSymBB|Product Description: AutoCAD Mechanical 2000|Company: Autodesk"
 90
        0
280
     0
281
     0
  0
CLASS
  1
ACMWELDSTANDARDJIS
  2
AcmWeldingStdJIS
  3
"AcmSymBB|Product Description: AutoCAD Mechanical 2000|Company: Autodesk"
 90
        0
280
     0
281
     0
  0
CLASS
  1
ACMIDSTANDARDJIS
  2
AcmIdStdJIS
  3
"AcmSymBB|Product Description: AutoCAD Mechanical 2000|Company: Autodesk"
 90
        0
280
     0
281
     0
  0
CLASS
  1
ACMDATUMSTANDARDJIS
  2
AcmDatumStdJIS
  3
"AcmSymBB|Product Description: AutoCAD Mechanical 2000|Company: Autodesk"
 90
        0
280
     0
281
     0
  0
CLASS
  1
ACMBOMSTANDARDJIS
  2
AcmBOMStdJIS
  3
"AcmSymBB|Product Description: AutoCAD Mechanical 2000|Company: Autodesk"
 90
        0
280
     0
281
     0
  0
CLASS
  1
ACMSTANDARDANSI
  2
AcmStandardANSI
  3
"AcmSymBB|Product Description: AutoCAD Mechanical 2000|Company: Autodesk"
 90
        0
280
     0
281
     0
  0
CLASS
  1
ACMSURFSTANDARDANSI
  2
AcmSurfTextStdANSI
  3
"AcmSymBB|Product Description: AutoCAD Mechanical 2000|Company: Autodesk"
 90
        0
280
     0
281
     0
  0
CLASS
  1
ACMFCFSTANDARDANSI
  2
AcmFCFStdANSI
  3
"AcmSymBB|Product Description: AutoCAD Mechanical 2000|Company: Autodesk"
 90
        0
280
     0
281
     0
  0
CLASS
  1
ACMWELDSTANDARDANSI
  2
AcmWeldingStdANSI
  3
"AcmSymBB|Product Description: AutoCAD Mechanical 2000|Company: Autodesk"
 90
        0
280
     0
281
     0
  0
CLASS
  1
ACMIDSTANDARDANSI
  2
AcmIdStdANSI
  3
"AcmSymBB|Product Description: AutoCAD Mechanical 2000|Company: Autodesk"
 90
        0
280
     0
281
     0
  0
CLASS
  1
ACMDATUMSTANDARDANSI
  2
AcmDatumStdANSI
  3
"AcmSymBB|Product Description: AutoCAD Mechanical 2000|Company: Autodesk"
 90
        0
280
     0
281
     0
  0
CLASS
  1
ACMBOMSTANDARDANSI
  2
AcmBOMStdANSI
  3
"AcmSymBB|Product Description: AutoCAD Mechanical 2000|Company: Autodesk"
 90
        0
280
     0
281
     0
  0
CLASS
  1
ACMSTANDARDBSI
  2
AcmStandardBSI
  3
"AcmSymBB|Product Description: AutoCAD Mechanical 2000|Company: Autodesk"
 90
        0
280
     0
281
     0
  0
CLASS
  1
ACMSURFSTANDARDBSI
  2
AcmSurfTextStdBSI
  3
"AcmSymBB|Product Description: AutoCAD Mechanical 2000|Company: Autodesk"
 90
        0
280
     0
281
     0
  0
CLASS
  1
ACMFCFSTANDARDBSI
  2
AcmFCFStdBSI
  3
"AcmSymBB|Product Description: AutoCAD Mechanical 2000|Company: Autodesk"
 90
        0
280
     0
281
     0
  0
CLASS
  1
ACMWELDSTANDARDBSI
  2
AcmWeldingStdBSI
  3
"AcmSymBB|Product Description: AutoCAD Mechanical 2000|Company: Autodesk"
 90
        0
280
     0
281
     0
  0
CLASS
  1
ACMIDSTANDARDBSI
  2
AcmIdStdBSI
  3
"AcmSymBB|Product Description: AutoCAD Mechanical 2000|Company: Autodesk"
 90
        0
280
     0
281
     0
  0
CLASS
  1
ACMDATUMSTANDARDBSI
  2
AcmDatumStdBSI
  3
"AcmSymBB|Product Description: AutoCAD Mechanical 2000|Company: Autodesk"
 90
        0
280
     0
281
     0
  0
CLASS
  1
ACMBOMSTANDARDBSI
  2
AcmBOMStdBSI
  3
"AcmSymBB|Product Description: AutoCAD Mechanical 2000|Company: Autodesk"
 90
        0
280
     0
281
     0
  0
CLASS
  1
LONG_TRANSACTION
  2
AcDbLongTransaction
  3
AutoCAD 2000
 90
        0
280
     0
281
     0
  0
CLASS
  1
LWPOLYLINE
  2
AcDbPolyline
  3
AutoCAD 2000
 90
        0
280
     0
281
     1
  0
CLASS
  1
HATCH
  2
AcDbHatch
  3
AutoCAD 2000
 90
        0
280
     0
281
     1
  0
CLASS
  1
XRECORD
  2
AcDbXrecord
  3
AutoCAD 2000
 90
        0
280
     0
281
     0
  0
ENDSEC
  0
SECTION
  2
TABLES
  0
TABLE
  2
VPORT
  5
8
330
0
100
AcDbSymbolTable
 70
     3
  0
VPORT
  5
CF41
330
8
100
AcDbSymbolTableRecord
100
AcDbViewportTableRecord
  2
*ACTIVE
 70
     0
 10
0.0
 20
0.0
 11
1.0
 21
1.0
 12
-7.124529430318375
 22
4.266728263110678
 13
0.0
 23
0.0
 14
2.5
 24
2.5
 15
10.0
 25
10.0
 16
0.0
 26
0.0
 36
1.0
 17
0.0
 27
0.0
 37
0.0
 40
353.1955865885473
 41
1.56570841889117
 42
50.0
 43
0.0
 44
0.0
 50
0.0
 51
0.0
 71
     0
 72
   100
 73
     1
 74
     3
 75
     0
 76
     0
 77
     0
 78
     0
  0
ENDTAB
  0
TABLE
  2
LTYPE
  5
5
330
0
100
AcDbSymbolTable
 70
    10
  0
LTYPE
  5
14
330
5
100
AcDbSymbolTableRecord
100
AcDbLinetypeTableRecord
  2
BYBLOCK
 70
     0
  3

 72
    65
 73
     0
 40
0.0
  0
LTYPE
  5
15
330
5
100
AcDbSymbolTableRecord
100
AcDbLinetypeTableRecord
  2
BYLAYER
 70
     0
  3

 72
    65
 73
     0
 40
0.0
  0
LTYPE
  5
16
330
5
100
AcDbSymbolTableRecord
100
AcDbLinetypeTableRecord
  2
CONTINUOUS
 70
     0
  3
Solid line
 72
    65
 73
     0
 40
0.0
  0
LTYPE
  5
4B
330
5
100
AcDbSymbolTableRecord
100
AcDbLinetypeTableRecord
  2
AM_ISO02W050
 70
     0
  3
__ __ __ __ __ __ __ __ __ __ __ __ __ __ __
 72
    65
 73
     2
 40
7.5
 49
6.0
 74
     0
 49
-1.5
 74
     0
  0
LTYPE
  5
4C
330
5
100
AcDbSymbolTableRecord
100
AcDbLinetypeTableRecord
  2
AM_ISO08W050
 70
     0
  3
____ . ____ . ____ . ____ . ____ . ____ . ____
 72
    65
 73
     4
 40
18.0
 49
12.0
 74
     0
 49
-1.5
 74
     0
 49
3.0
 74
     0
 49
-1.5
 74
     0
  0
LTYPE
  5
4D
330
5
100
AcDbSymbolTableRecord
100
AcDbLinetypeTableRecord
  2
AM_ISO09W050
 70
     0
  3
_____ . . _____ . . _____ . . ____ .. ____
 72
    65
 73
     6
 40
22.5
 49
12.0
 74
     0
 49
-1.5
 74
     0
 49
3.0
 74
     0
 49
-1.5
 74
     0
 49
3.0
 74
     0
 49
-1.5
 74
     0
  0
LTYPE
  5
4E
330
5
100
AcDbSymbolTableRecord
100
AcDbLinetypeTableRecord
  2
AMCONSTR
 70
     0
  3
_______________________
 72
    65
 73
     2
 40
9999.0
 49
9999.0
 74
     0
 49
0.0
 74
     0
  0
LTYPE
  5
4F
330
5
100
AcDbSymbolTableRecord
100
AcDbLinetypeTableRecord
  2
AM_ISO02W050X2
 70
     0
  3
 _ _ _ _ _ _ _ _ _ _ _ _
 72
    65
 73
     2
 40
3.75
 49
3.0
 74
     0
 49
-0.75
 74
     0
  0
LTYPE
  5
50
330
5
100
AcDbSymbolTableRecord
100
AcDbLinetypeTableRecord
  2
AM_ISO08W050X2
 70
     0
  3
__ . __ . __ . __ . __ . __
 72
    65
 73
     4
 40
9.0
 49
6.0
 74
     0
 49
-0.75
 74
     0
 49
1.5
 74
     0
 49
-0.75
 74
     0
  0
LTYPE
  5
53
330
5
100
AcDbSymbolTableRecord
100
AcDbLinetypeTableRecord
  2
AMZIGZAG
 70
     0
  3
/\/-/\/-/\/-/\/-/\/-/\/
 72
    65
 73
     2
 40
11.00009999999999
 49
0.0001
 74
     4
 75
   135
340
52
 46
0.04
 50
0.0
 44
0.0
 45
0.0
 49
-11.0
 74
     0
  0
LTYPE
  5
166
330
5
100
AcDbSymbolTableRecord
100
AcDbLinetypeTableRecord
  2
ACJISTGL
 70
     0
  3
_ _ _ _ _
 72
    65
 73
     2
 40
3.0
 49
2.0
 74
     0
 49
-1.0
 74
     0
  0
LTYPE
  5
26A
330
5
100
AcDbSymbolTableRecord
100
AcDbLinetypeTableRecord
  2
ACJISTGB
 70
     0
  3
__ . . __ . .
 72
    65
 73
     6
 40
9.0
 49
4.0
 74
     0
 49
-1.0
 74
     0
 49
1.0
 74
     0
 49
-1.0
 74
     0
 49
1.0
 74
     0
 49
-1.0
 74
     0
  0
ENDTAB
  0
TABLE
  2
LAYER
  5
2
330
0
100
AcDbSymbolTable
 70
     8
  0
LAYER
  5
10
330
2
100
AcDbSymbolTableRecord
100
AcDbLayerTableRecord
  2
0
 70
     0
 62
     7
  6
CONTINUOUS
  0
LAYER
  5
3F9
330
2
100
AcDbSymbolTableRecord
100
AcDbLayerTableRecord
  2
AM_0
 70
     0
 62
     7
  6
CONTINUOUS
  0
LAYER
  5
BD6
330
2
100
AcDbSymbolTableRecord
100
AcDbLayerTableRecord
  2
AM_11
 70
     0
 62
     3
  6
AM_ISO09W050
  0
LAYER
  5
BD7
330
2
100
AcDbSymbolTableRecord
100
AcDbLayerTableRecord
  2
AM_7
 70
     0
 62
     4
  6
AM_ISO08W050
  0
LAYER
  5
BD8
330
2
100
AcDbSymbolTableRecord
100
AcDbLayerTableRecord
  2
AM_5
 70
     0
 62
     3
  6
CONTINUOUS
  0
LAYER
  5
BD9
330
2
100
AcDbSymbolTableRecord
100
AcDbLayerTableRecord
  2
DEFPOINTS
 70
     0
 62
     7
  6
CONTINUOUS
  0
LAYER
  5
BDA
330
2
100
AcDbSymbolTableRecord
100
AcDbLayerTableRecord
  2
AM_6
 70
     0
 62
     2
  6
CONTINUOUS
  0
LAYER
  5
1E2E
330
2
100
AcDbSymbolTableRecord
100
AcDbLayerTableRecord
  2
AM_CL
 70
     0
 62
     1
  6
AMCONSTR
  0
ENDTAB
  0
TABLE
  2
STYLE
  5
3
330
0
100
AcDbSymbolTable
 70
     5
  0
STYLE
  5
11
330
3
100
AcDbSymbolTableRecord
100
AcDbTextStyleTableRecord
  2
STANDARD
 70
     0
 40
0.0
 41
1.0
 50
0.0
 71
     0
 42
2.5
  3
simplex.shx
  4
EXTFONT.SHX
  0
STYLE
  5
52
330
3
100
AcDbSymbolTableRecord
100
AcDbTextStyleTableRecord
  2

 70
     1
 40
0.0
 41
1.0
 50
0.0
 71
     0
 42
2.5
  3
ltypeshp.shx
  4

  0
STYLE
  5
6B
330
3
100
AcDbSymbolTableRecord
100
AcDbTextStyleTableRecord
  2
ASAMI
 70
     0
 40
0.0
 41
1.0
 50
0.0
 71
     0
 42
2.5
  3
simplex.shx
  4
EXTFONT.SHX
  0
STYLE
  5
262
330
3
100
AcDbSymbolTableRecord
100
AcDbTextStyleTableRecord
  2
ACJISTS
 70
     0
 40
1.0
 41
1.0
 50
0.0
 71
     0
 42
2.5
  3
simplex.shx
  4
bigfont.shx
  0
STYLE
  5
269
330
3
100
AcDbSymbolTableRecord
100
AcDbTextStyleTableRecord
  2
ACJISGDT
 70
     0
 40
0.0
 41
1.0
 50
0.0
 71
     0
 42
2.5
  3
amgdtans.shx
  4

  0
ENDTAB
  0
TABLE
  2
VIEW
  5
6
330
0
100
AcDbSymbolTable
 70
     0
  0
ENDTAB
  0
TABLE
  2
UCS
  5
7
330
0
100
AcDbSymbolTable
 70
     0
  0
ENDTAB
  0
TABLE
  2
APPID
  5
9
330
0
100
AcDbSymbolTable
 70
    14
  0
APPID
  5
12
330
9
100
AcDbSymbolTableRecord
100
AcDbRegAppTableRecord
  2
ACAD
 70
     0
  0
APPID
  5
30
330
9
100
AcDbSymbolTableRecord
100
AcDbRegAppTableRecord
  2
MCAD_NO_VIS
 70
     0
  0
APPID
  5
31
330
9
100
AcDbSymbolTableRecord
100
AcDbRegAppTableRecord
  2
ACAD_TEMP_GRAPHIC
 70
     0
  0
APPID
  5
2C2
330
9
100
AcDbSymbolTableRecord
100
AcDbRegAppTableRecord
  2
GENIUS_GENDTOL_13
 70
     0
  0
APPID
  5
339
330
9
100
AcDbSymbolTableRecord
100
AcDbRegAppTableRecord
  2
GENIUS_GENODEF_13
 70
     0
  0
APPID
  5
33A
330
9
100
AcDbSymbolTableRecord
100
AcDbRegAppTableRecord
  2
GENIUS_GENOBJ-N-RSBK_13
 70
     0
  0
APPID
  5
33B
330
9
100
AcDbSymbolTableRecord
100
AcDbRegAppTableRecord
  2
GENIUS_GENOBJ-N-LIB_13
 70
     0
  0
APPID
  5
33C
330
9
100
AcDbSymbolTableRecord
100
AcDbRegAppTableRecord
  2
GENIUS_GENSCALE_13
 70
     0
  0
APPID
  5
378
330
9
100
AcDbSymbolTableRecord
100
AcDbRegAppTableRecord
  2
GENIUS_GENDIMSH_14
 70
     0
  0
APPID
  5
BDB
330
9
100
AcDbSymbolTableRecord
100
AcDbRegAppTableRecord
  2
GENIUS_GENOBJ-N-CEN_13
 70
     0
  0
APPID
  5
BDC
330
9
100
AcDbSymbolTableRecord
100
AcDbRegAppTableRecord
  2
GENIUS_GENFIL_13
 70
     0
  0
APPID
  5
BDD
330
9
100
AcDbSymbolTableRecord
100
AcDbRegAppTableRecord
  2
GENIUS_GENOBJ-N-FIL_13
 70
     0
  0
APPID
  5
12AD
330
9
100
AcDbSymbolTableRecord
100
AcDbRegAppTableRecord
  2
GENIUS_GENOREF_13
 70
     0
  0
APPID
  5
62E6
330
9
100
AcDbSymbolTableRecord
100
AcDbRegAppTableRecord
  2
GENIUS_GENOBJ-N-CHA_13
 70
     0
  0
ENDTAB
  0
TABLE
  2
DIMSTYLE
  5
A
330
0
100
AcDbSymbolTable
 70
     9
  0
DIMSTYLE
105
58
102
{ACAD_REACTORS
330
634F
330
640B
330
6418
330
B7AC
102
}
330
A
100
AcDbSymbolTableRecord
100
AcDbDimStyleTableRecord
  2
AM_JIS
 70
     0
  3

  4
"
  5
OPEN30
  6

  7

 40
1.0
 41
2.5
 42
1.0
 43
12.0
 44
1.0
 45
0.0
 46
0.0
 47
0.1
 48
0.1
140
3.2
141
0.0
142
0.0
143
0.0393701
144
1.0
145
0.0
146
0.71
147
1.5
 71
     0
 72
     0
 73
     0
 74
     0
 75
     0
 76
     0
 77
     3
 78
     1
170
     0
171
     2
172
     1
173
     0
174
     0
175
     0
176
     3
177
     3
178
     2
270
     2
271
     1
272
     1
273
     2
274
     2
340
6B
275
     0
280
     0
281
     0
282
     0
283
     0
284
     0
285
     0
286
     0
287
     3
288
     0
  0
DIMSTYLE
105
5F
330
A
100
AcDbSymbolTableRecord
100
AcDbDimStyleTableRecord
  2
AM_JIS$3
 70
     0
  3

  4
"
  5
OPEN30
  6

  7

 40
1.0
 41
2.5
 42
1.0
 43
10.0
 44
1.0
 45
0.0
 46
0.0
 47
0.1
 48
0.1
140
3.2
141
0.0
142
0.0
143
0.0393701
144
1.0
145
0.0
146
0.71
147
1.5
 71
     0
 72
     0
 73
     0
 74
     1
 75
     0
 76
     0
 77
     3
 78
     1
170
     0
171
     2
172
     0
173
     0
174
     0
175
     0
176
     3
177
     3
178
     2
270
     2
271
     2
272
     1
273
     2
274
     2
340
6B
275
     0
280
     0
281
     0
282
     0
283
     0
284
     0
285
     0
286
     0
287
     0
288
     1
  0
DIMSTYLE
105
60
330
A
100
AcDbSymbolTableRecord
100
AcDbDimStyleTableRecord
  2
AM_JIS$4
 70
     0
  3

  4
"
  5
OPEN30
  6

  7

 40
1.0
 41
2.5
 42
1.0
 43
10.0
 44
1.0
 45
0.0
 46
0.0
 47
0.1
 48
0.1
140
3.2
141
0.0
142
0.0
143
0.0393701
144
1.0
145
0.0
146
0.71
147
1.5
 71
     0
 72
     0
 73
     0
 74
     1
 75
     0
 76
     0
 77
     3
 78
     1
170
     0
171
     2
172
     0
173
     0
174
     0
175
     0
176
     3
177
     3
178
     2
270
     2
271
     2
272
     1
273
     2
274
     2
340
6B
275
     0
280
     0
281
     0
282
     0
283
     0
284
     0
285
     0
286
     0
287
     0
288
     1
  0
DIMSTYLE
105
61
330
A
100
AcDbSymbolTableRecord
100
AcDbDimStyleTableRecord
  2
AM_JIS$6
 70
     0
  3

  4
"
  5
OPEN30
  6

  7

 40
1.0
 41
2.5
 42
1.0
 43
10.0
 44
1.0
 45
0.0
 46
0.0
 47
0.1
 48
0.1
140
3.2
141
0.0
142
0.0
143
0.0393701
144
1.0
145
0.0
146
0.71
147
1.5
 71
     0
 72
     0
 73
     0
 74
     0
 75
     0
 76
     0
 77
     0
 78
     1
170
     0
171
     2
172
     1
173
     0
174
     0
175
     0
176
     3
177
     3
178
     2
270
     2
271
     2
272
     2
273
     2
274
     2
340
6B
275
     0
280
     0
281
     0
282
     0
283
     0
284
     0
285
     0
286
     0
287
     3
288
     0
  0
DIMSTYLE
105
62
330
A
100
AcDbSymbolTableRecord
100
AcDbDimStyleTableRecord
  2
AM_JIS$7
 70
     0
  3

  4
"
  5
OPEN30
  6

  7

 40
1.0
 41
2.5
 42
1.0
 43
10.0
 44
1.0
 45
0.0
 46
0.0
 47
0.1
 48
0.1
140
3.2
141
0.0
142
0.0
143
0.0393701
144
1.0
145
0.0
146
0.71
147
1.5
 71
     0
 72
     0
 73
     0
 74
     0
 75
     0
 76
     0
 77
     3
 78
     1
170
     0
171
     2
172
     1
173
     0
174
     0
175
     0
176
     3
177
     3
178
     2
270
     2
271
     2
272
     1
273
     2
274
     2
340
6B
275
     0
280
     0
281
     0
282
     0
283
     0
284
     0
285
     0
286
     0
287
     3
288
     0
  0
DIMSTYLE
105
63
330
A
100
AcDbSymbolTableRecord
100
AcDbDimStyleTableRecord
  2
AM_JIS$SF
 70
     0
  3

  4
"
  5
OPEN30
  6

  7

 40
1.0
 41
2.5
 42
1.0
 43
10.0
 44
1.0
 45
0.0
 46
0.0
 47
0.1
 48
0.1
140
3.2
141
0.0
142
0.0
143
0.0393701
144
1.0
145
0.0
146
0.71
147
1.5
 71
     0
 72
     0
 73
     0
 74
     0
 75
     1
 76
     1
 77
     3
 78
     8
170
     0
171
     2
172
     1
173
     0
174
     0
175
     0
176
   256
177
   256
178
     2
270
     2
271
     2
272
     2
273
     2
274
     2
340
6B
275
     0
280
     0
281
     0
282
     0
283
     0
284
     0
285
     0
286
     0
287
     3
288
     0
  0
DIMSTYLE
105
68
330
A
100
AcDbSymbolTableRecord
100
AcDbDimStyleTableRecord
  2
AM_JIS$SH
 70
     0
  3

  4
"
  5

  6
GENAXEH
  7
OPEN30
 40
1.0
 41
2.5
 42
1.0
 43
10.0
 44
1.0
 45
0.0
 46
0.0
 47
0.1
 48
0.1
140
3.2
141
0.0
142
0.0
143
0.0393701
144
2.0
145
0.0
146
0.71
147
1.5
 71
     0
 72
     0
 73
     0
 74
     0
 75
     1
 76
     1
 77
     3
 78
     8
170
     0
171
     2
172
     1
173
     1
174
     0
175
     0
176
   256
177
   256
178
     2
270
     2
271
     2
272
     2
273
     2
274
     2
340
6B
275
     0
280
     0
281
     0
282
     0
283
     0
284
     0
285
     0
286
     0
287
     3
288
     0
  0
DIMSTYLE
105
B34
102
{ACAD_REACTORS
330
63DB
102
}
330
A
100
AcDbSymbolTableRecord
100
AcDbDimStyleTableRecord
  2
AM_JIS$2
 70
     0
  3

  4
"
  5
OPEN30
  6

  7

 40
1.0
 41
2.5
 42
1.0
 43
12.0
 44
1.0
 45
0.0
 46
0.0
 47
0.1
 48
0.1
140
3.2
141
0.0
142
0.0
143
0.0393701
144
1.0
145
0.0
146
0.71
147
1.5
 71
     0
 72
     0
 73
     0
 74
     0
 75
     0
 76
     0
 77
     3
 78
     1
170
     0
171
     2
172
     1
173
     0
174
     0
175
     0
176
     3
177
     3
178
     2
270
     2
271
     1
272
     1
273
     2
274
     2
340
6B
275
     0
280
     0
281
     0
282
     0
283
     0
284
     0
285
     0
286
     0
287
     3
288
     0
  0
DIMSTYLE
105
62E5
330
A
100
AcDbSymbolTableRecord
100
AcDbDimStyleTableRecord
  2
ISO-25
 70
     0
  3

  4

  5

  6

  7

 40
1.0
 41
2.5
 42
0.625
 43
3.75
 44
1.25
 45
0.0
 46
0.0
 47
0.0
 48
0.0
140
2.5
141
2.5
142
0.0
143
0.03937007874016
144
1.0
145
0.0
146
1.0
147
0.625
 71
     0
 72
     0
 73
     0
 74
     0
 75
     0
 76
     0
 77
     1
 78
     8
170
     0
171
     3
172
     1
173
     0
174
     0
175
     0
176
     0
177
     0
178
     0
270
     2
271
     2
272
     2
273
     2
274
     3
340
11
275
     0
280
     0
281
     0
282
     0
283
     0
284
     8
285
     0
286
     0
287
     3
288
     0
  0
ENDTAB
  0
TABLE
  2
BLOCK_RECORD
  5
1
330
0
100
AcDbSymbolTable
 70
    10
  0
BLOCK_RECORD
  5
1F
102
{ACAD_XDICTIONARY
360
74
102
}
330
1
100
AcDbSymbolTableRecord
100
AcDbBlockTableRecord
  2
*MODEL_SPACE
  0
BLOCK_RECORD
  5
1B
102
{ACAD_XDICTIONARY
360
CF63
102
}
330
1
100
AcDbSymbolTableRecord
100
AcDbBlockTableRecord
  2
*PAPER_SPACE
  0
BLOCK_RECORD
  5
59
330
1
100
AcDbSymbolTableRecord
100
AcDbBlockTableRecord
  2
_OPEN30
  0
BLOCK_RECORD
  5
64
330
1
100
AcDbSymbolTableRecord
100
AcDbBlockTableRecord
  2
GENAXEH
  0
BLOCK_RECORD
  5
6350
330
1
100
AcDbSymbolTableRecord
100
AcDbBlockTableRecord
  2
*D5
  0
BLOCK_RECORD
  5
63DC
330
1
100
AcDbSymbolTableRecord
100
AcDbBlockTableRecord
  2
*D6
  0
BLOCK_RECORD
  5
640C
330
1
100
AcDbSymbolTableRecord
100
AcDbBlockTableRecord
  2
*D7
  0
BLOCK_RECORD
  5
6419
330
1
100
AcDbSymbolTableRecord
100
AcDbBlockTableRecord
  2
*D8
  0
BLOCK_RECORD
  5
B7AD
330
1
100
AcDbSymbolTableRecord
100
AcDbBlockTableRecord
  2
*D9
  0
ENDTAB
  0
ENDSEC
  0
SECTION
  2
BLOCKS
  0
BLOCK
  5
20
330
1F
100
AcDbEntity
  8
0
100
AcDbBlockBegin
  2
*MODEL_SPACE
 70
     0
 10
0.0
 20
0.0
 30
0.0
  3
*MODEL_SPACE
  1

  0
ENDBLK
  5
21
330
1F
100
AcDbEntity
  8
0
100
AcDbBlockEnd
  0
BLOCK
  5
1C
330
1B
100
AcDbEntity
 67
     1
  8
0
100
AcDbBlockBegin
  2
*PAPER_SPACE
 70
     0
 10
0.0
 20
0.0
 30
0.0
  3
*PAPER_SPACE
  1

  0
ENDBLK
  5
1D
330
1B
100
AcDbEntity
 67
     1
  8
0
100
AcDbBlockEnd
  0
BLOCK
  5
5D
330
59
100
AcDbEntity
  8
0
100
AcDbBlockBegin
  2
_OPEN30
 70
     0
 10
0.0
 20
0.0
 30
0.0
  3
_OPEN30
  1

  0
LINE
  5
5A
330
59
100
AcDbEntity
  8
0
 62
     0
100
AcDbLine
 10
-1.0
 20
0.26794919
 30
0.0
 11
0.0
 21
0.0
 31
0.0
  0
LINE
  5
5B
330
59
100
AcDbEntity
  8
0
 62
     0
100
AcDbLine
 10
0.0
 20
0.0
 30
0.0
 11
-1.0
 21
-0.26794919
 31
0.0
  0
LINE
  5
5C
330
59
100
AcDbEntity
  8
0
 62
     0
100
AcDbLine
 10
0.0
 20
0.0
 30
0.0
 11
-1.0
 21
0.0
 31
0.0
  0
ENDBLK
  5
5E
330
59
100
AcDbEntity
  8
0
100
AcDbBlockEnd
  0
BLOCK
  5
66
330
64
100
AcDbEntity
  8
0
100
AcDbBlockBegin
  2
GENAXEH
 70
     0
 10
0.0
 20
0.0
 30
0.0
  3
GENAXEH
  1

  0
LINE
  5
65
330
64
100
AcDbEntity
  8
0
100
AcDbLine
 10
-1.0
 20
0.0
 30
0.0
 11
1.0
 21
0.0
 31
0.0
  0
ENDBLK
  5
67
330
64
100
AcDbEntity
  8
0
100
AcDbBlockEnd
  0
BLOCK
  5
635A
330
6350
100
AcDbEntity
  8
0
100
AcDbBlockBegin
  2
*D5
 70
     1
 10
0.0
 20
0.0
 30
0.0
  3
*D5
  1

  0
LINE
  5
CF0B
330
6350
100
AcDbEntity
  8
AM_5
 62
     3
100
AcDbLine
 10
-155.2133797336598
 20
-7.399999999825396
 30
0.0
 11
-172.4458943406646
 21
-7.399999999825392
 31
0.0
  0
LINE
  5
CF0C
330
6350
100
AcDbEntity
  8
AM_5
 62
     3
100
AcDbLine
 10
-155.2133797336598
 20
7.400000000174586
 30
0.0
 11
-172.4458943406646
 21
7.400000000174591
 31
0.0
  0
LINE
  5
CF0D
330
6350
100
AcDbEntity
  8
AM_5
 62
     3
100
AcDbLine
 10
-171.4458943406646
 20
-4.899999999825392
 30
0.0
 11
-171.4458943406646
 21
4.900000000174591
 31
0.0
  0
INSERT
  5
CF0E
330
6350
100
AcDbEntity
  8
AM_5
 62
     3
100
AcDbBlockReference
  2
_OPEN30
 10
-171.4458943406646
 20
-7.399999999825392
 30
0.0
 41
2.5
 42
2.5
 43
2.5
 50
270.0
  0
INSERT
  5
CF0F
330
6350
100
AcDbEntity
  8
AM_5
 62
     3
100
AcDbBlockReference
  2
_OPEN30
 10
-171.4458943406646
 20
7.400000000174591
 30
0.0
 41
2.5
 42
2.5
 43
2.5
 50
90.0
  0
MTEXT
  5
CF10
330
6350
100
AcDbEntity
  8
AM_5
 62
     2
100
AcDbMText
 10
-174.5458943406646
 20
0.0000000001745721
 30
0.0
 40
3.2
 41
0.0
 71
     5
 72
     1
  1
%%C14.8
  7
ASAMI
 11
0.0000000000000001
 21
1.0
 31
0.0
1001
ACAD
1000
MTEXTBEGIN
1070
    73
1070
     1
1070
    44
1040
1.0
1070
    74
1070
     0
1000
MTEXTEND
  0
POINT
  5
CF11
330
6350
100
AcDbEntity
  8
DEFPOINTS
 62
     0
100
AcDbPoint
 10
-154.2133797336598
 20
-7.399999999825396
 30
0.0
  0
POINT
  5
CF12
330
6350
100
AcDbEntity
  8
DEFPOINTS
 62
     0
100
AcDbPoint
 10
-154.2133797336598
 20
7.400000000174586
 30
0.0
  0
POINT
  5
CF13
330
6350
100
AcDbEntity
  8
DEFPOINTS
 62
     0
100
AcDbPoint
 10
-171.4458943406646
 20
7.400000000174591
 30
0.0
  0
ENDBLK
  5
635B
330
6350
100
AcDbEntity
  8
0
100
AcDbBlockEnd
  0
BLOCK
  5
63E8
330
63DC
100
AcDbEntity
  8
0
100
AcDbBlockBegin
  2
*D6
 70
     1
 10
0.0
 20
0.0
 30
0.0
  3
*D6
  1

  0
LINE
  5
CF6C
330
63DC
100
AcDbEntity
  8
AM_0
 62
     3
100
AcDbLine
 10
0.3420201433206588
 20
-0.9396926207858657
 30
0.0
 11
11.77023111969732
 21
-32.33844422313201
 31
0.0
  0
LINE
  5
CF6D
330
63DC
100
AcDbEntity
  8
AM_0
 62
     3
100
AcDbLine
 10
0.3420201433206592
 20
0.9396926207858655
 30
0.0
 11
11.77023111969733
 21
32.33844422313201
 31
0.0
  0
ARC
  5
CF6E
330
63DC
100
AcDbEntity
  8
AM_0
 62
     3
100
AcDbCircle
 10
-0.0000000000051273
 20
0.0
 30
0.0
 40
33.41385353871072
100
AcDbArc
 50
294.2878286940014
 51
65.71217130599854
  0
INSERT
  5
CF6F
330
63DC
100
AcDbEntity
  8
AM_0
 62
     3
100
AcDbBlockReference
  2
_OPEN30
 10
11.42821097637154
 20
-31.39875160234615
 30
0.0
 41
2.5
 42
2.5
 43
2.5
 50
202.1439143470043
  0
INSERT
  5
CF70
330
63DC
100
AcDbEntity
  8
AM_0
 62
     3
100
AcDbBlockReference
  2
_OPEN30
 10
11.42821097637155
 20
31.39875160234614
 30
0.0
 41
2.5
 42
2.5
 43
2.5
 50
157.8560856529956
  0
MTEXT
  5
CF71
330
63DC
100
AcDbEntity
  8
AM_0
 62
     2
100
AcDbMText
 10
30.31385353870559
 20
-0.0000000000000078
 30
0.0
 40
3.2
 41
0.0
 71
     5
 72
     1
  1
140°
  7
ASAMI
 11
0.0000000000000001
 21
1.0
 31
0.0
  0
POINT
  5
CF72
330
63DC
100
AcDbEntity
  8
DEFPOINTS
 62
     0
100
AcDbPoint
 10
30.68113851217805
 20
-13.23455129207792
 30
0.0
  0
POINT
  5
CF73
330
63DC
100
AcDbEntity
  8
DEFPOINTS
 62
     0
100
AcDbPoint
 10
-0.0000000000051273
 20
0.0
 30
0.0
  0
POINT
  5
CF74
330
63DC
100
AcDbEntity
  8
DEFPOINTS
 62
     0
100
AcDbPoint
 10
-0.5459553514046434
 20
-1.5
 30
0.0
  0
POINT
  5
CF75
330
63DC
100
AcDbEntity
  8
DEFPOINTS
 62
     0
100
AcDbPoint
 10
-0.0000000000051273
 20
0.0
 30
0.0
  0
POINT
  5
CF76
330
63DC
100
AcDbEntity
  8
DEFPOINTS
 62
     0
100
AcDbPoint
 10
-0.5459553514046434
 20
1.5
 30
0.0
  0
ENDBLK
  5
63E9
330
63DC
100
AcDbEntity
  8
0
100
AcDbBlockEnd
  0
BLOCK
  5
6416
330
640C
100
AcDbEntity
  8
0
100
AcDbBlockBegin
  2
*D7
 70
     1
 10
0.0
 20
0.0
 30
0.0
  3
*D7
  1

  0
LINE
  5
CEFA
330
640C
100
AcDbEntity
  8
AM_5
 62
     3
100
AcDbLine
 10
-2.693379733659673
 20
-11.50570993731307
 30
0.0
 11
-2.693379733659674
 21
-24.49311519648429
 31
0.0
  0
LINE
  5
CEFB
330
640C
100
AcDbEntity
  8
AM_5
 62
     3
100
AcDbLine
 10
-93.6933797336597
 20
-8.400000000000957
 30
0.0
 11
-93.6933797336597
 21
-24.49311519648429
 31
0.0
  0
LINE
  5
CEFC
330
640C
100
AcDbEntity
  8
AM_5
 62
     3
100
AcDbLine
 10
-5.193379733659674
 20
-23.49311519648429
 30
0.0
 11
-91.1933797336597
 21
-23.49311519648429
 31
0.0
  0
INSERT
  5
CEFD
330
640C
100
AcDbEntity
  8
AM_5
 62
     3
100
AcDbBlockReference
  2
_OPEN30
 10
-2.693379733659674
 20
-23.49311519648429
 30
0.0
 41
2.5
 42
2.5
 43
2.5
  0
INSERT
  5
CEFE
330
640C
100
AcDbEntity
  8
AM_5
 62
     3
100
AcDbBlockReference
  2
_OPEN30
 10
-93.6933797336597
 20
-23.49311519648429
 30
0.0
 41
2.5
 42
2.5
 43
2.5
 50
180.0
  0
MTEXT
  5
CEFF
330
640C
100
AcDbEntity
  8
AM_5
 62
     2
100
AcDbMText
 10
-48.19337973365969
 20
-20.39311519648429
 30
0.0
 40
3.2
 41
0.0
 71
     5
 72
     1
  1
91
  7
ASAMI
1001
ACAD
1000
MTEXTBEGIN
1070
    73
1070
     1
1070
    44
1040
1.0
1070
    74
1070
     0
1000
MTEXTEND
  0
POINT
  5
CF00
330
640C
100
AcDbEntity
  8
DEFPOINTS
 62
     0
100
AcDbPoint
 10
-2.693379733659673
 20
-10.50570993731307
 30
0.0
  0
POINT
  5
CF01
330
640C
100
AcDbEntity
  8
DEFPOINTS
 62
     0
100
AcDbPoint
 10
-93.6933797336597
 20
-7.400000000000956
 30
0.0
  0
POINT
  5
CF02
330
640C
100
AcDbEntity
  8
DEFPOINTS
 62
     0
100
AcDbPoint
 10
-93.6933797336597
 20
-23.49311519648429
 30
0.0
  0
ENDBLK
  5
6417
330
640C
100
AcDbEntity
  8
0
100
AcDbBlockEnd
  0
BLOCK
  5
6423
330
6419
100
AcDbEntity
  8
0
100
AcDbBlockBegin
  2
*D8
 70
     1
 10
0.0
 20
0.0
 30
0.0
  3
*D8
  1

  0
LINE
  5
CE8D
330
6419
100
AcDbEntity
  8
AM_5
 62
     3
100
AcDbLine
 10
-2.693379733659672
 20
-8.403654602512915
 30
0.0
 11
-2.693379733659674
 21
-37.6091685548906
 31
0.0
  0
LINE
  5
CE8E
330
6419
100
AcDbEntity
  8
AM_5
 62
     3
100
AcDbLine
 10
-155.6933797336597
 20
-7.054545454546013
 30
0.0
 11
-155.6933797336597
 21
-37.6091685548906
 31
0.0
  0
LINE
  5
CE8F
330
6419
100
AcDbEntity
  8
AM_5
 62
     3
100
AcDbLine
 10
-5.193379733659674
 20
-36.60916855489061
 30
0.0
 11
-153.1933797336597
 21
-36.60916855489061
 31
0.0
  0
INSERT
  5
CE90
330
6419
100
AcDbEntity
  8
AM_5
 62
     3
100
AcDbBlockReference
  2
_OPEN30
 10
-2.693379733659674
 20
-36.60916855489061
 30
0.0
 41
2.5
 42
2.5
 43
2.5
  0
INSERT
  5
CE91
330
6419
100
AcDbEntity
  8
AM_5
 62
     3
100
AcDbBlockReference
  2
_OPEN30
 10
-155.6933797336597
 20
-36.60916855489061
 30
0.0
 41
2.5
 42
2.5
 43
2.5
 50
180.0
  0
MTEXT
  5
CE92
330
6419
100
AcDbEntity
  8
AM_5
 62
     2
100
AcDbMText
 10
-79.19337973365968
 20
-33.5091685548906
 30
0.0
 40
3.2
 41
0.0
 71
     5
 72
     1
  1
153
  7
ASAMI
1001
ACAD
1000
MTEXTBEGIN
1070
    73
1070
     1
1070
    44
1040
1.0
1070
    74
1070
     0
1000
MTEXTEND
  0
POINT
  5
CE93
330
6419
100
AcDbEntity
  8
DEFPOINTS
 62
     0
100
AcDbPoint
 10
-2.693379733659672
 20
-7.403654602512915
 30
0.0
  0
POINT
  5
CE94
330
6419
100
AcDbEntity
  8
DEFPOINTS
 62
     0
100
AcDbPoint
 10
-155.6933797336597
 20
-6.054545454546013
 30
0.0
  0
POINT
  5
CE95
330
6419
100
AcDbEntity
  8
DEFPOINTS
 62
     0
100
AcDbPoint
 10
-155.6933797336597
 20
-36.60916855489061
 30
0.0
  0
ENDBLK
  5
6424
330
6419
100
AcDbEntity
  8
0
100
AcDbBlockEnd
  0
BLOCK
  5
B7B7
330
B7AD
100
AcDbEntity
  8
0
100
AcDbBlockBegin
  2
*D9
 70
     1
 10
0.0
 20
0.0
 30
0.0
  3
*D9
  1

  0
LINE
  5
CF77
330
B7AD
100
AcDbEntity
  8
AM_5
 62
     3
100
AcDbLine
 10
-1.919142445524077
 20
-7.399999999825398
 30
0.0
 11
20.5466701395894
 21
-7.399999999825404
 31
0.0
  0
LINE
  5
CF78
330
B7AD
100
AcDbEntity
  8
AM_5
 62
     3
100
AcDbLine
 10
-1.919142445524078
 20
7.400000000174586
 30
0.0
 11
20.5466701395894
 21
7.400000000174579
 31
0.0
  0
LINE
  5
CF79
330
B7AD
100
AcDbEntity
  8
AM_5
 62
     3
100
AcDbLine
 10
19.5466701395894
 20
-4.899999999825404
 30
0.0
 11
19.5466701395894
 21
4.900000000174579
 31
0.0
  0
MTEXT
  5
CF7A
330
B7AD
100
AcDbEntity
  8
AM_5
 62
     2
100
AcDbMText
 10
16.4466701395894
 20
0.0000000001745878
 30
0.0
 40
3.2
 41
0.0
 71
     5
 72
     1
  1
%%C14.8
  7
ASAMI
 11
0.0000000000000001
 21
1.0
 31
0.0
  0
INSERT
  5
CF7B
330
B7AD
100
AcDbEntity
  8
AM_5
 62
     3
100
AcDbBlockReference
  2
_OPEN30
 10
19.5466701395894
 20
-7.399999999825404
 30
0.0
 41
2.5
 42
2.5
 43
2.5
 50
270.0
  0
INSERT
  5
CF7C
330
B7AD
100
AcDbEntity
  8
AM_5
 62
     3
100
AcDbBlockReference
  2
_OPEN30
 10
19.5466701395894
 20
7.400000000174579
 30
0.0
 41
2.5
 42
2.5
 43
2.5
 50
90.0
  0
POINT
  5
CF7D
330
B7AD
100
AcDbEntity
  8
DEFPOINTS
 62
     0
100
AcDbPoint
 10
-2.919142445524077
 20
-7.399999999825397
 30
0.0
  0
POINT
  5
CF7E
330
B7AD
100
AcDbEntity
  8
DEFPOINTS
 62
     0
100
AcDbPoint
 10
-2.919142445524077
 20
7.400000000174586
 30
0.0
  0
POINT
  5
CF7F
330
B7AD
100
AcDbEntity
  8
DEFPOINTS
 62
     0
100
AcDbPoint
 10
19.5466701395894
 20
7.400000000174579
 30
0.0
  0
ENDBLK
  5
B7B8
330
B7AD
100
AcDbEntity
  8
0
100
AcDbBlockEnd
  0
ENDSEC
  0
SECTION
  2
ENTITIES
  0
TEXT
  5
C58
330
1F
100
AcDbEntity
  8
AM_6
100
AcDbText
 10
-98.08555413880323
 20
-58.61445006090566
 30
0.0
 40
5.0
  1
MDS148MK
 50
0.0000000000002036
 72
     4
 11
-79.15698271023183
 21
-56.1144500609056
 31
0.0
100
AcDbText
  0
LINE
  5
631C
330
1F
100
AcDbEntity
  8
AM_0
100
AcDbLine
 10
-77.6487154322146
 20
-7.400000000001174
 30
0.0
 11
-154.3479251882052
 21
-7.400000000000571
 31
0.0
  0
LINE
  5
631D
330
1F
100
AcDbEntity
  8
AM_0
100
AcDbLine
 10
-74.82958692003066
 20
7.399999999998831
 30
0.0
 11
-154.3479251882053
 21
7.399999999999424
 31
0.0
  0
LINE
  5
6320
330
1F
100
AcDbEntity
  8
AM_7
100
AcDbLine
 10
-161.7588113890793
 20
0.0000000000000287
 30
0.0
 11
4.439999999973607
 21
-0.0000000000000006
 31
0.0
1001
GENIUS_GENODEF_13
1002
{
1000
HIER
1070
     0
1002
}
1002
{
1000
MANEDIT
1070
     0
1002
}
1002
{
1000
NOSEL
1070
     0
1002
}
1002
{
1000
BEHIND
1070
     0
1002
}
1002
{
1000
REACTOR
1002
}
1001
GENIUS_GENOBJ-N-CEN_13
1002
{
1000
OWNER
1000
GEN
1002
}
  0
LINE
  5
6343
330
1F
100
AcDbEntity
  8
AM_0
100
AcDbLine
 10
-155.6933797336596
 20
-1.801131859072689
 30
0.0
 11
-155.6933797336596
 21
1.801131859072747
 31
0.0
  0
LINE
  5
6348
330
1F
100
AcDbEntity
  8
AM_0
100
AcDbLine
 10
-155.6933797336596
 20
2.531120689994116
 30
0.0
 11
-155.6933797336597
 21
6.05454545454489
 31
0.0
  0
LINE
  5
6349
330
1F
100
AcDbEntity
  8
AM_0
100
AcDbLine
 10
-155.6933797336596
 20
1.801131859072747
 30
0.0
 11
-155.6933797336596
 21
2.531120689994116
 31
0.0
  0
LINE
  5
634B
330
1F
100
AcDbEntity
  8
AM_0
100
AcDbLine
 10
-155.6933797336597
 20
-6.054545454546013
 30
0.0
 11
-155.6933797336596
 21
-2.531120689512
 31
0.0
  0
LINE
  5
634C
330
1F
100
AcDbEntity
  8
AM_0
100
AcDbLine
 10
-155.6933797336596
 20
-2.531120689512
 30
0.0
 11
-155.6933797336596
 21
-1.801131859072689
 31
0.0
  0
DIMENSION
  5
634F
330
1F
100
AcDbEntity
  8
AM_5
100
AcDbDimension
  2
*D5
 10
-171.4458943406646
 20
7.400000000174591
 30
0.0
 11
-171.4458943406646
 21
0.0000000001745718
 31
0.0
 70
   160
  1
%%C<>
  3
AM_JIS
100
AcDbAlignedDimension
 13
-154.2133797336598
 23
-7.399999999825396
 33
0.0
 14
-154.2133797336598
 24
7.400000000174586
 34
0.0
 50
90.0
100
AcDbRotatedDimension
  0
DIMENSION
  5
63DB
330
1F
100
AcDbEntity
  8
AM_0
100
AcDbDimension
  2
*D6
 10
-0.5459553514046434
 20
1.5
 30
0.0
 11
30.31385353870559
 21
-0.0000000000000127
 31
0.0
 70
    34
  3
AM_JIS$2
100
AcDb2LineAngularDimension
 13
-0.5459553514046434
 23
-1.5
 33
0.0
 14
-0.0000000000051273
 24
0.0
 34
0.0
 15
-0.0000000000051273
 25
0.0
 35
0.0
 16
30.68113851217805
 26
-13.23455129207792
 36
0.0
1001
ACAD
1000
DSTYLE
1002
{
1070
   271
1070
     0
1002
}
  0
DIMENSION
  5
640B
330
1F
100
AcDbEntity
  8
AM_5
100
AcDbDimension
  2
*D7
 10
-93.6933797336597
 20
-23.49311519648429
 30
0.0
 11
-48.19337973365969
 21
-20.39311519648429
 31
0.0
 70
    32
  3
AM_JIS
100
AcDbAlignedDimension
 13
-2.693379733659673
 23
-10.50570993731307
 33
0.0
 14
-93.6933797336597
 24
-7.400000000000956
 34
0.0
100
AcDbRotatedDimension
1001
ACAD
1000
DSTYLE
1002
{
1070
    78
1070
     9
1070
   271
1070
     3
1002
}
  0
DIMENSION
  5
6418
330
1F
100
AcDbEntity
  8
AM_5
100
AcDbDimension
  2
*D8
 10
-155.6933797336597
 20
-36.60916855489061
 30
0.0
 11
-79.19337973365968
 21
-33.5091685548906
 31
0.0
 70
    32
  3
AM_JIS
100
AcDbAlignedDimension
 13
-2.693379733659672
 23
-7.403654602512915
 33
0.0
 14
-155.6933797336597
 24
-6.054545454546013
 34
0.0
100
AcDbRotatedDimension
1001
ACAD
1000
DSTYLE
1002
{
1070
    78
1070
     9
1002
}
  0
LINE
  5
647F
330
1F
100
AcDbEntity
  8
AM_0
100
AcDbLine
 10
-154.3479251882053
 20
7.399999999999439
 30
0.0
 11
-154.3479251882052
 21
-7.400000000000535
 31
0.0
  0
LINE
  5
6CBA
330
1F
100
AcDbEntity
  8
AM_0
100
AcDbLine
 10
-2.693379733659673
 20
-7.400000000019137
 30
0.0
 11
-0.0000000000887478
 21
-0.0000000000191397
 31
0.0
  0
LINE
  5
6CBE
330
1F
100
AcDbEntity
  8
AM_0
100
AcDbLine
 10
-0.0000000000887478
 20
-0.0000000000191397
 30
0.0
 11
-2.693379733665829
 21
7.399999999997755
 31
0.0
  0
LINE
  5
6CC0
330
1F
100
AcDbEntity
  8
AM_0
100
AcDbLine
 10
-0.0000000000887478
 20
-0.0000000000191397
 30
0.0
 11
-1.291840639055827
 21
1.284996514716182
 31
0.0
  0
LINE
  5
6CC1
330
1F
100
AcDbEntity
  8
AM_0
100
AcDbLine
 10
-2.386693110362772
 20
-0.5814294714599859
 30
0.0
 11
-0.0000000000887478
 21
-0.0000000000191397
 31
0.0
  0
LINE
  5
B156
330
1F
100
AcDbEntity
  8
AM_0
100
AcDbLine
 10
-154.3479251882053
 20
7.399999999999429
 30
0.0
 11
-155.6933797336597
 21
6.05454545454489
 31
0.0
1001
GENIUS_GENFIL_13
1070
     0
1040
1.0
1040
1.0
1040
20.0
1040
0.0
1002
{
1002
}
1001
GENIUS_GENODEF_13
1002
{
1000
HIER
1070
     0
1002
}
1002
{
1000
MANEDIT
1070
     0
1002
}
1002
{
1000
NOSEL
1070
     0
1002
}
1002
{
1000
BEHIND
1070
     0
1002
}
1002
{
1000
REACTOR
1002
}
1001
GENIUS_GENOBJ-N-CHA_13
1002
{
1000
OWNER
1000
GEN
1002
}
  0
LINE
  5
B158
330
1F
100
AcDbEntity
  8
AM_0
100
AcDbLine
 10
-154.3479251882052
 20
-7.400000000000566
 30
0.0
 11
-155.6933797336597
 21
-6.054545454546013
 31
0.0
1001
GENIUS_GENFIL_13
1070
     0
1040
1.0
1040
1.0
1040
20.0
1040
0.0
1002
{
1002
}
1001
GENIUS_GENODEF_13
1002
{
1000
HIER
1070
     0
1002
}
1002
{
1000
MANEDIT
1070
     0
1002
}
1002
{
1000
NOSEL
1070
     0
1002
}
1002
{
1000
BEHIND
1070
     0
1002
}
1002
{
1000
REACTOR
1002
}
1001
GENIUS_GENOBJ-N-CHA_13
1002
{
1000
OWNER
1000
GEN
1002
}
  0
DIMENSION
  5
B7AC
330
1F
100
AcDbEntity
  8
AM_5
100
AcDbDimension
  2
*D9
 10
19.5466701395894
 20
7.400000000174579
 30
0.0
 11
19.5466701395894
 21
0.0000000001745875
 31
0.0
 70
   160
  1
%%C<>
  3
AM_JIS
100
AcDbAlignedDimension
 13
-2.919142445524077
 23
-7.399999999825397
 33
0.0
 14
-2.919142445524077
 24
7.400000000174586
 34
0.0
 50
90.0
100
AcDbRotatedDimension
1001
ACAD
1000
DSTYLE
1002
{
1070
   287
1070
     4
1070
   279
1070
     1
1002
}
  0
LINE
  5
B8B2
330
1F
100
AcDbEntity
  8
AM_0
100
AcDbLine
 10
-1.291840639055827
 20
1.284996514716182
 30
0.0
 11
-0.4677011456507036
 21
1.2849983364649
 31
0.0
  0
SPLINE
  5
CED5
330
1F
100
AcDbEntity
  8
AM_0
100
AcDbSpline
210
0.0
220
0.0
230
1.0
 70
     8
 71
     3
 72
     9
 73
     5
 74
     0
 42
0.0000000001
 43
0.0000000001
 40
0.0
 40
0.0
 40
0.0
 40
0.0
 40
0.1987770877846628
 40
5.759128114460802
 40
5.759128114460802
 40
5.759128114460802
 40
5.759128114460802
 10
-2.398681807673117
 20
6.59032410277298
 30
0.0
 10
-2.398681807673117
 20
6.59032410277298
 30
0.0
 10
-3.873614668866585
 20
6.600836067486381
 30
0.0
 10
-5.874538738427006
 20
6.081680373580935
 30
0.0
 10
-7.771545663540475
 20
5.279341249148071
 30
0.0
  0
SPLINE
  5
CED6
330
1F
100
AcDbEntity
  8
AM_0
100
AcDbSpline
210
0.0
220
0.0
230
1.0
 70
     8
 71
     3
 72
     8
 73
     4
 74
     0
 42
0.0000000001
 43
0.0000000001
 40
0.0
 40
0.0
 40
0.0
 40
0.0
 40
6.247244990626095
 40
6.247244990626095
 40
6.247244990626095
 40
6.247244990626095
 10
-2.693379733665829
 20
7.399999999997755
 30
0.0
 10
-4.189514638817314
 20
7.399999999980859
 30
0.0
 10
-6.336410936436408
 20
6.712231573138802
 30
0.0
 10
-8.432788833777946
 20
5.633220522250351
 30
0.0
  0
LINE
  5
CED7
330
1F
100
AcDbEntity
  8
AM_0
100
AcDbLine
 10
-2.693379733659673
 20
-7.400000000019137
 30
0.0
 11
-2.386637739722065
 21
-0.5801231102293711
 31
0.0
  0
SPLINE
  5
CED8
330
1F
100
AcDbEntity
  8
AM_0
100
AcDbSpline
210
0.0
220
0.0
230
1.0
 70
     8
 71
     3
 72
     9
 73
     5
 74
     0
 42
0.0000000001
 43
0.0000000001
 40
0.0
 40
0.0
 40
0.0
 40
0.0
 40
0.0353107615743204
 40
0.4098003053212364
 40
0.4098003053212364
 40
0.4098003053212364
 40
0.4098003053212364
 10
-1.291840639055827
 20
1.284996514716182
 30
0.0
 10
-1.284549950395613
 20
1.097827581075866
 30
0.0
 10
-1.199937602608285
 20
-1.07436816698255
 30
0.0
 10
-3.980686994835591
 20
1.993917718477234
 30
0.0
 10
-4.81489489651315
 20
3.409170846178412
 30
0.0
  0
LINE
  5
CED9
330
1F
100
AcDbEntity
  8
AM_0
100
AcDbLine
 10
-2.386637739722065
 20
-0.5801231102293711
 30
0.0
 11
-4.81489489651315
 21
3.409170846178412
 31
0.0
  0
LINE
  5
CEDA
330
1F
100
AcDbEntity
  8
AM_5
  6
AM_ISO09W050
 62
     3
 48
0.5
100
AcDbLine
 10
-2.693379733659675
 20
-7.400000000019149
 30
0.0
 11
-14.91176601190068
 21
-7.400000000019137
 31
0.0
  0
LINE
  5
CEDB
330
1F
100
AcDbEntity
  8
AM_5
  6
AM_ISO09W050
 62
     3
 48
0.5
100
AcDbLine
 10
-2.693379733659675
 20
7.399999999980847
 30
0.0
 11
-14.91176601190068
 21
7.39999999998085
 31
0.0
  0
SPLINE
  5
CEDC
330
1F
100
AcDbEntity
  8
AM_0
100
AcDbSpline
210
0.0
220
0.0
230
1.0
 70
     8
 71
     3
 72
     8
 73
     4
 74
     0
 42
0.0000000001
 43
0.0000000001
 40
22.73274810806179
 40
22.73274810806179
 40
22.73274810806179
 40
22.73274810806179
 40
28.97999309868792
 40
28.97999309868792
 40
28.97999309868792
 40
28.97999309868792
 10
-8.508888093558878
 20
-5.672205282868089
 30
0.0
 10
-10.52916673111935
 20
-6.712231573177165
 30
0.0
 10
-12.67606302873842
 20
-7.400000000019107
 30
0.0
 10
-14.91176601190238
 20
-7.400000000019107
 30
0.0
  0
SPLINE
  5
CEDD
330
1F
100
AcDbEntity
  8
AM_0
100
AcDbSpline
210
0.0
220
0.0
230
1.0
 70
     8
 71
     3
 72
     8
 73
     4
 74
     0
 42
0.0000000001
 43
0.0000000001
 40
19.09542421355049
 40
19.09542421355049
 40
19.09542421355049
 40
19.09542421355049
 40
28.97999309868792
 40
28.97999309868792
 40
28.97999309868792
 40
28.97999309868792
 10
-4.814894896513149
 20
3.409170846178426
 30
0.0
 10
-8.059303014177904
 20
5.678208241709698
 30
0.0
 10
-11.37437310079504
 20
7.399999999980859
 30
0.0
 10
-14.91176601190238
 20
7.399999999980859
 30
0.0
  0
SPLINE
  5
CEDE
330
1F
100
AcDbEntity
  8
AM_0
100
AcDbSpline
210
0.0
220
0.0
230
1.0
 70
     8
 71
     3
 72
     9
 73
     5
 74
     0
 42
0.0000000001
 43
0.0000000001
 40
0.0
 40
0.0
 40
0.0
 40
0.0
 40
0.1987770877846628
 40
5.759128114445015
 40
5.759128114445015
 40
5.759128114445015
 40
5.759128114445015
 10
-30.90254798647698
 20
6.591719370872646
 30
0.0
 10
-30.97359227946047
 20
6.591719370872646
 30
0.0
 10
-33.03299808694021
 20
6.60083606746735
 30
0.0
 10
-35.03133132795753
 20
6.081680373564862
 30
0.0
 10
-36.92588197811137
 20
5.279341249135873
 30
0.0
  0
SPLINE
  5
CEDF
330
1F
100
AcDbEntity
  8
AM_0
100
AcDbSpline
210
0.0
220
0.0
230
1.0
 70
     8
 71
     3
 72
     8
 73
     4
 74
     0
 42
0.0000000001
 43
0.0000000001
 40
0.0
 40
0.0
 40
0.0
 40
0.0
 40
6.247244990625308
 40
6.247244990625308
 40
6.247244990625308
 40
6.247244990625308
 10
-31.1156808654348
 20
7.399999999980859
 30
0.0
 10
-33.34848902456239
 20
7.399999999980859
 30
0.0
 10
-35.49260548646421
 20
6.712231573139014
 30
0.0
 10
-37.58626896012236
 20
5.633220522250868
 30
0.0
  0
LINE
  5
CEE0
330
1F
100
AcDbEntity
  8
AM_5
  6
AM_ISO09W050
 62
     3
 48
0.5
100
AcDbLine
 10
-31.11568086543477
 20
7.39999999998085
 30
0.0
 11
-44.05685705480908
 21
7.39999999998085
 31
0.0
  0
SPLINE
  5
CEE1
330
1F
100
AcDbEntity
  8
AM_0
100
AcDbSpline
210
0.0
220
0.0
230
1.0
 70
     8
 71
     3
 72
     8
 73
     4
 74
     0
 42
0.0000000001
 43
0.0000000001
 40
22.73274810806179
 40
22.73274810806179
 40
22.73274810806179
 40
22.73274810806179
 40
28.97999309868792
 40
28.97999309868792
 40
28.97999309868792
 40
28.97999309868792
 10
-39.19459978932817
 20
-5.633220522288814
 30
0.0
 10
-41.28826326298659
 20
-6.712231573177165
 30
0.0
 10
-43.43237972488863
 20
-7.400000000019107
 30
0.0
 10
-45.66518788401659
 20
-7.400000000019107
 30
0.0
  0
LINE
  5
CEE2
330
1F
100
AcDbEntity
  8
AM_5
  6
AM_ISO09W050
 62
     3
 48
0.5
100
AcDbLine
 10
-32.72401169463948
 20
-7.400000000019137
 30
0.0
 11
-45.28100720908311
 21
-7.400000000019137
 31
0.0
  0
SPLINE
  5
CEE3
330
1F
100
AcDbEntity
  8
AM_0
100
AcDbSpline
210
0.0
220
0.0
230
1.0
 70
     8
 71
     3
 72
     8
 73
     4
 74
     0
 42
0.0000000001
 43
0.0000000001
 40
0.0
 40
0.0
 40
0.0
 40
0.0
 40
6.870645942600294
 40
6.870645942600294
 40
6.870645942600294
 40
6.870645942600294
 10
-61.88841073105093
 20
6.591719370882203
 30
0.0
 10
-59.43280745552764
 20
6.602601115449146
 30
0.0
 10
-56.96785799883147
 20
6.081157751712677
 30
0.0
 10
-54.56311314287912
 20
5.170206662176206
 30
0.0
  0
SPLINE
  5
CEE4
330
1F
100
AcDbEntity
  8
AM_0
100
AcDbSpline
210
0.0
220
0.0
230
1.0
 70
     8
 71
     3
 72
     9
 73
     5
 74
     0
 42
0.0000000001
 43
0.0000000001
 40
1.521176736886217
 40
1.521176736886217
 40
1.521176736886217
 40
1.521176736886217
 40
14.48999654934396
 40
28.97999309868792
 40
28.97999309868792
 40
28.97999309868792
 40
28.97999309868792
 10
-32.72401169463948
 20
-7.400000000019107
 30
0.0
 10
-37.28168222704795
 20
-6.62313936967837
 30
0.0
 10
-46.19146904605215
 20
0.3884303151512335
 30
0.0
 10
-55.10125586505616
 20
7.399999999980859
 30
0.0
 10
-60.28007990183662
 20
7.399999999980859
 30
0.0
  0
SPLINE
  5
CEE5
330
1F
100
AcDbEntity
  8
AM_0
100
AcDbSpline
210
0.0
220
0.0
230
1.0
 70
     8
 71
     3
 72
     9
 73
     5
 74
     0
 42
0.0000000001
 43
0.0000000001
 40
0.0
 40
0.0
 40
0.0
 40
0.0
 40
1.448999654934392
 40
2.897999309868792
 40
2.897999309868792
 40
2.897999309868792
 40
2.897999309868792
 10
-32.90419452870112
 20
-7.3985096543545
 30
0.0
 10
-37.90283573142036
 20
-7.400000000019107
 30
0.0
 10
-47.30621121284533
 20
-0.000000000019335
 30
0.0
 10
-56.70958669427032
 20
7.399999999980859
 30
0.0
 10
-61.88841073105093
 20
7.399999999980859
 30
0.0
  0
LINE
  5
CEE6
330
1F
100
AcDbEntity
  8
AM_0
100
AcDbLine
 10
-44.05685705475799
 20
7.39999999998085
 30
0.0
 11
-62.86874021967211
 21
7.39999999998085
 31
0.0
  0
LINE
  5
CEE7
330
1F
100
AcDbEntity
  8
AM_0
100
AcDbLine
 10
-44.75472981704174
 20
-7.400000000019137
 30
0.0
 11
-64.50472327493338
 21
-7.400000000019137
 31
0.0
  0
SPLINE
  5
CEE8
330
1F
100
AcDbEntity
  8
AM_0
100
AcDbSpline
210
0.0
220
0.0
230
1.0
 70
     8
 71
     3
 72
     9
 73
     5
 74
     0
 42
0.0000000001
 43
0.0000000001
 40
1.521176736886217
 40
1.521176736886217
 40
1.521176736886217
 40
1.521176736886217
 40
14.48999654934396
 40
28.97999309868792
 40
28.97999309868792
 40
28.97999309868792
 40
28.97999309868792
 10
-2.674995960571275
 20
-6.99126865018575
 30
0.0
 10
-6.5173911839385
 20
-6.62313936967837
 30
0.0
 10
-15.43872949469723
 20
0.3884303151512335
 30
0.0
 10
-24.36006780545585
 20
7.399999999980859
 30
0.0
 10
-29.54560616036465
 20
7.399999999980859
 30
0.0
  0
SPLINE
  5
CEE9
330
1F
100
AcDbEntity
  8
AM_0
100
AcDbSpline
210
0.0
220
0.0
230
1.0
 70
     8
 71
     3
 72
     9
 73
     5
 74
     0
 42
0.0000000001
 43
0.0000000001
 40
0.0
 40
0.0
 40
0.0
 40
0.0
 40
1.448999654934392
 40
2.897999309868792
 40
2.897999309868792
 40
2.897999309868792
 40
2.897999309868792
 10
-2.693379733659673
 20
-7.400000000019137
 30
0.0
 10
-7.139350010562259
 20
-7.400000000019107
 30
0.0
 10
-16.55491691884691
 20
-0.000000000019335
 30
0.0
 10
-25.97048382713154
 20
7.399999999980859
 30
0.0
 10
-31.15602218204044
 20
7.399999999980859
 30
0.0
  0
SPLINE
  5
CEEA
330
1F
100
AcDbEntity
  8
AM_0
100
AcDbSpline
210
0.0
220
0.0
230
1.0
 70
     8
 71
     3
 72
     8
 73
     4
 74
     0
 42
0.0000000001
 43
0.0000000001
 40
0.0
 40
0.0
 40
0.0
 40
0.0
 40
6.870645942600294
 40
6.870645942600294
 40
6.870645942600294
 40
6.870645942600294
 10
-31.15602218204044
 20
6.591719370882203
 30
0.0
 10
-28.69723522978441
 20
6.602601115449146
 30
0.0
 10
-26.22908997908075
 20
6.081157751712677
 30
0.0
 10
-23.82122738406912
 20
5.170206662176206
 30
0.0
  0
LINE
  5
CEEB
330
1F
100
AcDbEntity
  8
AM_0
100
AcDbLine
 10
-14.91176601190068
 20
7.39999999998085
 30
0.0
 11
-31.15602218203886
 21
7.39999999998085
 31
0.0
  0
SPLINE
  5
CEEC
330
1F
100
AcDbEntity
  8
AM_0
100
AcDbSpline
210
0.0
220
0.0
230
1.0
 70
     8
 71
     3
 72
     9
 73
     5
 74
     0
 42
0.0000000001
 43
0.0000000001
 40
0.0
 40
0.0
 40
0.0
 40
0.0
 40
1.448999654934399
 40
2.897999309868795
 40
2.897999309868795
 40
2.897999309868795
 40
2.897999309868795
 10
-14.91176601190075
 20
-7.400000000019107
 30
0.0
 10
-20.0973043668096
 20
-7.400000000019107
 30
0.0
 10
-29.5128712750943
 20
-0.000000000019335
 30
0.0
 10
-38.92843818337892
 20
7.399999999980859
 30
0.0
 10
-44.11397653828779
 20
7.399999999980859
 30
0.0
  0
LINE
  5
CEED
330
1F
100
AcDbEntity
  8
AM_0
100
AcDbLine
 10
-14.91176601190068
 20
-7.400000000019137
 30
0.0
 11
-32.76643820370702
 21
-7.400000000019137
 31
0.0
  0
SPLINE
  5
CEEE
330
1F
100
AcDbEntity
  8
AM_0
100
AcDbSpline
210
0.0
220
0.0
230
1.0
 70
     8
 71
     3
 72
     8
 73
     4
 74
     0
 42
0.0000000001
 43
0.0000000001
 40
22.73274810806179
 40
22.73274810806179
 40
22.73274810806179
 40
22.73274810806179
 40
28.97999309868792
 40
28.97999309868792
 40
28.97999309868792
 40
28.97999309868792
 10
-71.07563143816611
 20
-5.63322052888615
 30
0.0
 10
-73.20245911847063
 20
-6.71223157977451
 30
0.0
 10
-75.38053897626262
 20
-7.400000006616453
 30
0.0
 10
-77.64871543221667
 20
-7.400000006616453
 30
0.0
  0
SPLINE
  5
CEEF
330
1F
100
AcDbEntity
  8
AM_0
100
AcDbSpline
210
0.0
220
0.0
230
1.0
 70
     8
 71
     3
 72
     8
 73
     4
 74
     0
 42
0.0000000001
 43
0.0000000001
 40
2.893239258405414
 40
2.893239258405414
 40
2.893239258405414
 40
2.893239258405414
 40
2.897999309868792
 40
2.897999309868792
 40
2.897999309868792
 40
2.897999309868792
 10
-94.07708756655511
 20
7.399880337546496
 30
0.0
 10
-94.0943593591524
 20
7.39996006438149
 30
0.0
 10
-94.11163636520427
 20
7.399999993383532
 30
0.0
 10
-94.12891860189347
 20
7.399999993383532
 30
0.0
  0
LINE
  5
CEF0
330
1F
100
AcDbEntity
  8
AM_0
100
AcDbLine
 10
-93.6933797336597
 20
-7.400000000000956
 30
0.0
 11
-93.69337973365951
 21
7.399999999999054
 31
0.0
  0
SPLINE
  5
CEF1
330
1F
100
AcDbEntity
  8
AM_0
100
AcDbSpline
210
0.0
220
0.0
230
1.0
 70
     8
 71
     3
 72
    10
 73
     6
 74
     0
 42
0.0000000001
 43
0.0000000001
 40
0.0
 40
0.0
 40
0.0
 40
0.0
 40
0.6447675857635071
 40
1.316546974011651
 40
1.777238964087921
 40
1.777238964087921
 40
1.777238964087921
 40
1.777238964087921
 10
-88.78046227440561
 20
-2.783272816493673
 30
0.0
 10
-90.84960612251327
 20
-1.29561589774562
 30
0.0
 10
-97.2990618658097
 20
6.031207168344596
 30
0.0
 10
-86.31864075147436
 20
4.999504169730968
 30
0.0
 10
-83.1929701318737
 20
2.948940818101235
 30
0.0
 10
-81.72909530014903
 20
1.850166507711509
 30
0.0
  0
SPLINE
  5
CEF2
330
1F
100
AcDbEntity
  8
AM_0
100
AcDbSpline
210
0.0
220
0.0
230
1.0
 70
     8
 71
     3
 72
     8
 73
     4
 74
     0
 42
0.0000000001
 43
0.0000000001
 40
0.0
 40
0.0
 40
0.0
 40
0.0
 40
10.77533687840354
 40
10.77533687840354
 40
10.77533687840354
 40
10.77533687840354
 10
-77.64871544074233
 20
-7.400000000019107
 30
0.0
 10
-81.56089840287082
 20
-7.400000000019107
 30
0.0
 10
-85.20504542442003
 20
-5.353899914672397
 30
0.0
 10
-88.78047867537288
 20
-2.783261024650022
 30
0.0
  0
SPLINE
  5
CEF3
330
1F
100
AcDbEntity
  8
AM_0
100
AcDbSpline
210
0.0
220
0.0
230
1.0
 70
     8
 71
     3
 72
     9
 73
     5
 74
     0
 42
0.0000000001
 43
0.0000000001
 40
0.0
 40
0.0
 40
0.0
 40
0.0
 40
0.1987770877846628
 40
5.759128114445015
 40
5.759128114445015
 40
5.759128114445015
 40
5.759128114445015
 10
-61.67527785209311
 20
6.591719370872646
 30
0.0
 10
-61.74632214507644
 20
6.591719370872646
 30
0.0
 10
-63.80572795255628
 20
6.60083606746735
 30
0.0
 10
-65.80406119357366
 20
6.081680373564862
 30
0.0
 10
-67.69861184372743
 20
5.279341249135873
 30
0.0
  0
LINE
  5
CEF4
330
1F
100
AcDbEntity
  8
AM_5
  6
AM_ISO09W050
 62
     3
 48
0.5
100
AcDbLine
 10
-64.50254744411562
 20
-7.400000006616466
 30
0.0
 11
-77.64871543221667
 21
-7.400000006616466
 31
0.0
  0
SPLINE
  5
CEF5
330
1F
100
AcDbEntity
  8
AM_0
100
AcDbSpline
210
0.0
220
0.0
230
1.0
 70
     8
 71
     3
 72
     9
 73
     5
 74
     0
 42
0.0000000001
 43
0.0000000001
 40
0.0
 40
0.0
 40
0.0
 40
0.0
 40
1.448999654934392
 40
1.692872608825329
 40
1.692872608825329
 40
1.692872608825329
 40
1.692872608825329
 10
-64.50254744411562
 20
-7.400000006616453
 30
0.0
 10
-69.76340548144148
 20
-7.400000006616453
 30
0.0
 10
-75.34341842022036
 20
-3.077273889102369
 30
0.0
 10
-80.92343135899929
 20
1.245452228411711
 30
0.0
 10
-81.72959128226711
 20
1.850538784057868
 30
0.0
  0
SPLINE
  5
CEF6
330
1F
100
AcDbEntity
  8
AM_0
100
AcDbSpline
210
0.0
220
0.0
230
1.0
 70
     8
 71
     3
 72
     9
 73
     5
 74
     0
 42
0.0000000001
 43
0.0000000001
 40
1.521176736886217
 40
1.521176736886217
 40
1.521176736886217
 40
1.521176736886217
 40
14.48999654934396
 40
28.97999309868792
 40
28.97999309868792
 40
28.97999309868792
 40
28.97999309868792
 10
-64.50254744411562
 20
-7.400000006616453
 30
0.0
 10
-69.13241273430803
 20
-6.623139376275711
 30
0.0
 10
-78.18333303295516
 20
0.3884303085538948
 30
0.0
 10
-87.23425333160212
 20
7.399999993383532
 30
0.0
 10
-92.49511136892794
 20
7.399999993383532
 30
0.0
  0
SPLINE
  5
CEF7
330
1F
100
AcDbEntity
  8
AM_0
100
AcDbSpline
210
0.0
220
0.0
230
1.0
 70
     8
 71
     3
 72
     9
 73
     5
 74
     0
 42
0.0000000001
 43
0.0000000001
 40
0.0
 40
0.0
 40
0.0
 40
0.0
 40
1.448999654934399
 40
2.897999309868795
 40
2.897999309868795
 40
2.897999309868795
 40
2.897999309868795
 10
-45.66518788401491
 20
-7.400000000019107
 30
0.0
 10
-50.84401192079536
 20
-7.400000000019107
 30
0.0
 10
-60.2473874022205
 20
-0.000000000019335
 30
0.0
 10
-69.65076288364553
 20
7.399999999980859
 30
0.0
 10
-74.82958692042598
 20
7.399999999980859
 30
0.0
  0
LINE
  5
CEF8
330
1F
100
AcDbEntity
  8
AM_5
  6
AM_ISO09W050
 62
     3
 48
0.5
100
AcDbLine
 10
-62.86874021967211
 20
7.39999999998085
 30
0.0
 11
-74.829586920426
 21
7.39999999998085
 31
0.0
  0
SPLINE
  5
CEF9
330
1F
100
AcDbEntity
  8
AM_0
100
AcDbSpline
210
0.0
220
0.0
230
1.0
 70
     8
 71
     3
 72
     8
 73
     4
 74
     0
 42
0.0000000001
 43
0.0000000001
 40
0.0
 40
0.0
 40
0.0
 40
0.0
 40
6.247244990625308
 40
6.247244990625308
 40
6.247244990625308
 40
6.247244990625308
 10
-61.88841073105093
 20
7.399999999980859
 30
0.0
 10
-64.1212188901785
 20
7.399999999980859
 30
0.0
 10
-66.26533535208029
 20
6.712231573139014
 30
0.0
 10
-68.35899882573844
 20
5.633220522250868
 30
0.0
  0
VIEWPORT
  5
E2
330
1B
100
AcDbEntity
 67
     1
  8
0
100
AcDbViewport
 10
158.659971393327
 20
148.5
 30
0.0
 40
581.809078125
 41
314.226
 68
     1
 69
     1
1001
ACAD
1000
MVIEW
1002
{
1070
    16
1010
0.0
1020
0.0
1030
0.0
1010
0.0
1020
0.0
1030
1.0
1040
0.0
1040
314.226
1040
158.659971393327
1040
148.5
1040
50.0
1040
0.0
1040
0.0
1070
     0
1070
   100
1070
     1
1070
     1
1070
     0
1070
     0
1070
     0
1070
     0
1040
0.0
1040
0.0
1040
0.0
1040
10.0
1040
10.0
1040
10.0
1040
10.0
1070
     0
1002
{
1002
}
1002
}
  0
ENDSEC
  0
SECTION
  2
OBJECTS
  0
DICTIONARY
  5
C
330
0
100
AcDbDictionary
  3
ACAD_GROUP
350
D
  3
ACAD_LAYOUT
350
1A
  3
ACAD_MLINESTYLE
350
17
  3
ACAD_PLOTSETTINGS
350
19
  3
ACAD_PLOTSTYLENAME
350
E
  3
ACDBVARIABLEDICTIONARY
350
34
  3
ACMDICTIONARY
350
43
  3
AMG
350
2B
  3
AMGSNAPSETTINGS
350
6E
  3
DWGPROPS
350
CF35
  3
ACDBHEADERROUNDTRIPXREC
350
CF42
  0
DICTIONARY
  5
74
330
1F
100
AcDbDictionary
280
     1
  3
ACAD_INDEX
360
CF37
  3
ACAD_LAYOUTSELFREF
360
CF65
  0
DICTIONARY
  5
CF63
330
1B
100
AcDbDictionary
280
     1
  3
ACAD_LAYOUTSELFREF
360
CF64
  0
DICTIONARY
  5
D
102
{ACAD_REACTORS
330
C
102
}
330
C
100
AcDbDictionary
  0
DICTIONARY
  5
1A
102
{ACAD_REACTORS
330
C
102
}
330
C
100
AcDbDictionary
  0
DICTIONARY
  5
17
102
{ACAD_REACTORS
330
C
102
}
330
C
100
AcDbDictionary
  3
STANDARD
350
18
  0
DICTIONARY
  5
19
102
{ACAD_REACTORS
330
C
102
}
330
C
100
AcDbDictionary
  0
ACDBDICTIONARYWDFLT
  5
E
102
{ACAD_REACTORS
330
C
102
}
330
C
100
AcDbDictionary
281
     1
  3
Normal
350
F
100
AcDbDictionaryWithDefault
340
F
  0
DICTIONARY
  5
34
102
{ACAD_REACTORS
330
C
102
}
330
C
100
AcDbDictionary
  3
INDEXCTL
350
35
  3
SORTENTS
350
B5E
  0
DICTIONARY
  5
43
102
{ACAD_REACTORS
330
C
102
}
330
C
100
AcDbDictionary
  3
ACMSTDDICTIONARY
350
260
  0
DICTIONARY
  5
2B
102
{ACAD_REACTORS
330
C
102
}
330
C
100
AcDbDictionary
  3
ACMGSETTINGS
350
2C
  0
DICTIONARY
  5
6E
102
{ACAD_REACTORS
330
C
102
}
330
C
100
AcDbDictionary
  0
XRECORD
  5
CF35
102
{ACAD_REACTORS
330
C
102
}
330
C
100
AcDbXrecord
  1
DWGPROPS COOKIE
  2

  3

  4

  6

  7

  8

  9

300
AmdtFileType=82
301
=
302
=
303
=
304
=
305
=
306
=
307
=
308
=
309
=
 40
2.090946087962962
 41
2452838.620506898
 42
2452950.825814514
  1

 90
        1
  0
DICTIONARY
  5
CF42
102
{ACAD_REACTORS
330
C
102
}
330
C
100
AcDbDictionary
  3
TSTACKALIGN
350
CF43
  3
TSTACKSIZE
350
CF44
  3
HYPERLINKBASE
350
CF45
  3
STYLESHEET
350
CF46
  3
LAYOUTDICT
350
CF47
  3
PLOTSETDICT
350
CF48
  3
PLOTSTYLNAMDICT
350
CF49
  3
LWETCUNION
350
CF4A
  3
INSUNITS
350
CF4B
  3
CEPSNTYPE
350
CF4C
  3
FINGERPRINTGUID
350
CF4D
  3
VERSIONGUID
350
CF4E
  3
PSVPSCALE
350
CF4F
  3
DIMSTYLEDATA
350
CF50
  3
PUCSORTHOREF
350
CF51
  3
PUCSORTHOVIEW
350
CF52
  3
PUCSBASE
350
CF53
  3
PUCSORGTOP
350
CF54
  3
PUCSORGBOTTOM
350
CF55
  3
PUCSORGLEFT
350
CF56
  3
PUCSORGRIGHT
350
CF57
  3
PUCSORGFRONT
350
CF58
  3
PUCSORGBACK
350
CF59
  3
UCSORTHOREF
350
CF5A
  3
UCSORTHOVIEW
350
CF5B
  3
UCSBASE
350
CF5C
  3
UCSORGTOP
350
CF5D
  3
UCSORGBOTTOM
350
CF5E
  3
UCSORGLEFT
350
CF5F
  3
UCSORGRIGHT
350
CF60
  3
UCSORGFRONT
350
CF61
  3
UCSORGBACK
350
CF62
  0
DICTIONARY
  5
CF37
102
{ACAD_REACTORS
330
74
102
}
330
74
100
AcDbDictionary
  3
*A1
350
CF38
  0
XRECORD
  5
CF65
102
{ACAD_REACTORS
330
74
102
}
330
74
100
AcDbXrecord
340
1F
  0
XRECORD
  5
CF64
102
{ACAD_REACTORS
330
CF63
102
}
330
CF63
100
AcDbXrecord
340
1B
  0
MLINESTYLE
  5
18
102
{ACAD_REACTORS
330
17
102
}
330
17
100
AcDbMlineStyle
  2
STANDARD
 70
     0
  3

 62
   256
 51
90.0
 52
90.0
 71
     2
 49
0.5
 62
   256
  6
BYLAYER
 49
-0.5
 62
   256
  6
BYLAYER
  0
ACDBPLACEHOLDER
  5
F
102
{ACAD_REACTORS
330
E
102
}
330
E
100
AcDbPlaceHolder
280
     0
  0
DICTIONARYVAR
  5
35
102
{ACAD_REACTORS
330
34
102
}
330
34
100
DictionaryVariables
280
     0
  1
1
  0
DICTIONARYVAR
  5
B5E
102
{ACAD_REACTORS
330
34
102
}
330
34
100
DictionaryVariables
280
     0
  1
96
  0
DICTIONARY
  5
260
102
{ACAD_REACTORS
330
43
102
}
330
43
100
AcDbDictionary
  0
DICTIONARY
  5
2C
102
{ACAD_REACTORS
330
2B
102
}
330
2B
100
AcDbDictionary
  3
DWGSETTINGS
350
2D
  0
XRECORD
  5
CF43
102
{ACAD_REACTORS
330
CF42
102
}
330
CF42
100
AcDbXrecord
 90
        1
  0
XRECORD
  5
CF44
102
{ACAD_REACTORS
330
CF42
102
}
330
CF42
100
AcDbXrecord
 90
       70
  0
XRECORD
  5
CF45
102
{ACAD_REACTORS
330
CF42
102
}
330
CF42
100
AcDbXrecord
  1

  0
XRECORD
  5
CF46
102
{ACAD_REACTORS
330
CF42
102
}
330
CF42
100
AcDbXrecord
  1
ASAMI.ctb
  0
XRECORD
  5
CF47
102
{ACAD_REACTORS
330
CF42
102
}
330
CF42
100
AcDbXrecord
340
1A
  0
XRECORD
  5
CF48
102
{ACAD_REACTORS
330
CF42
102
}
330
CF42
100
AcDbXrecord
340
19
  0
XRECORD
  5
CF49
102
{ACAD_REACTORS
330
CF42
102
}
330
CF42
100
AcDbXrecord
340
E
  0
XRECORD
  5
CF4A
102
{ACAD_REACTORS
330
CF42
102
}
330
CF42
100
AcDbXrecord
 90
    10781
  0
XRECORD
  5
CF4B
102
{ACAD_REACTORS
330
CF42
102
}
330
CF42
100
AcDbXrecord
 90
        4
  0
XRECORD
  5
CF4C
102
{ACAD_REACTORS
330
CF42
102
}
330
CF42
100
AcDbXrecord
 90
        0
  0
XRECORD
  5
CF4D
102
{ACAD_REACTORS
330
CF42
102
}
330
CF42
100
AcDbXrecord
  1
{AFB28963-8C59-40AE-9337-C84526B81ACE}
  0
XRECORD
  5
CF4E
102
{ACAD_REACTORS
330
CF42
102
}
330
CF42
100
AcDbXrecord
  1
{F9EFFE9A-E2D5-4D7C-9430-43F8F23019EA}
  0
XRECORD
  5
CF4F
102
{ACAD_REACTORS
330
CF42
102
}
330
CF42
100
AcDbXrecord
 40
0.0
  0
XRECORD
  5
CF50
102
{ACAD_REACTORS
330
CF42
102
}
330
CF42
100
AcDbXrecord
1000
DSTYLE
1002
{
1070
    79
 70
     2
1070
   341
340
59
1070
   342
340
59
1070
   371
 70
    -1
1070
   372
 70
    -1
1002
}
  0
XRECORD
  5
CF51
102
{ACAD_REACTORS
330
CF42
102
}
330
CF42
100
AcDbXrecord
340
0
  0
XRECORD
  5
CF52
102
{ACAD_REACTORS
330
CF42
102
}
330
CF42
100
AcDbXrecord
 70
     0
  0
XRECORD
  5
CF53
102
{ACAD_REACTORS
330
CF42
102
}
330
CF42
100
AcDbXrecord
340
0
  0
XRECORD
  5
CF54
102
{ACAD_REACTORS
330
CF42
102
}
330
CF42
100
AcDbXrecord
 10
0.0
 20
0.0
 30
0.0
  0
XRECORD
  5
CF55
102
{ACAD_REACTORS
330
CF42
102
}
330
CF42
100
AcDbXrecord
 10
0.0
 20
0.0
 30
0.0
  0
XRECORD
  5
CF56
102
{ACAD_REACTORS
330
CF42
102
}
330
CF42
100
AcDbXrecord
 10
0.0
 20
0.0
 30
0.0
  0
XRECORD
  5
CF57
102
{ACAD_REACTORS
330
CF42
102
}
330
CF42
100
AcDbXrecord
 10
0.0
 20
0.0
 30
0.0
  0
XRECORD
  5
CF58
102
{ACAD_REACTORS
330
CF42
102
}
330
CF42
100
AcDbXrecord
 10
0.0
 20
0.0
 30
0.0
  0
XRECORD
  5
CF59
102
{ACAD_REACTORS
330
CF42
102
}
330
CF42
100
AcDbXrecord
 10
0.0
 20
0.0
 30
0.0
  0
XRECORD
  5
CF5A
102
{ACAD_REACTORS
330
CF42
102
}
330
CF42
100
AcDbXrecord
340
0
  0
XRECORD
  5
CF5B
102
{ACAD_REACTORS
330
CF42
102
}
330
CF42
100
AcDbXrecord
 70
     0
  0
XRECORD
  5
CF5C
102
{ACAD_REACTORS
330
CF42
102
}
330
CF42
100
AcDbXrecord
340
0
  0
XRECORD
  5
CF5D
102
{ACAD_REACTORS
330
CF42
102
}
330
CF42
100
AcDbXrecord
 10
0.0
 20
0.0
 30
0.0
  0
XRECORD
  5
CF5E
102
{ACAD_REACTORS
330
CF42
102
}
330
CF42
100
AcDbXrecord
 10
0.0
 20
0.0
 30
0.0
  0
XRECORD
  5
CF5F
102
{ACAD_REACTORS
330
CF42
102
}
330
CF42
100
AcDbXrecord
 10
0.0
 20
0.0
 30
0.0
  0
XRECORD
  5
CF60
102
{ACAD_REACTORS
330
CF42
102
}
330
CF42
100
AcDbXrecord
 10
0.0
 20
0.0
 30
0.0
  0
XRECORD
  5
CF61
102
{ACAD_REACTORS
330
CF42
102
}
330
CF42
100
AcDbXrecord
 10
0.0
 20
0.0
 30
0.0
  0
XRECORD
  5
CF62
102
{ACAD_REACTORS
330
CF42
102
}
330
CF42
100
AcDbXrecord
 10
0.0
 20
0.0
 30
0.0
  0
LAYER_INDEX
  5
CF38
102
{ACAD_REACTORS
330
CF37
102
}
330
CF37
100
AcDbIndex
 40
2453151.636998506
100
AcDbLayerIndex
  8
0
360
CF39
 90
        0
  8
AM_0
360
CF3A
 90
       47
  8
AM_11
360
CF3B
 90
        0
  8
AM_7
360
CF3C
 90
        1
  8
AM_5
360
CF3D
 90
       10
  8
Defpoints
360
CF3E
 90
        0
  8
AM_6
360
CF3F
 90
        1
  8
AM_CL
360
CF40
 90
        0
  0
XRECORD
  5
2D
102
{ACAD_REACTORS
330
2C
102
}
330
2C
100
AcDbXrecord
  1
VERSION
140
15.0
  1
PRODUCT
  2
AutoCAD Mechanical 2000
  0
IDBUFFER
  5
CF39
330
0
100
AcDbIdBuffer
  0
IDBUFFER
  5
CF3A
330
0
100
AcDbIdBuffer
330
CED5
330
CED6
330
CED7
330
CED8
330
CED9
330
CEDC
330
CEDD
330
CEDE
330
CEDF
330
CEE1
330
CEE3
330
CEE4
330
CEE5
330
CEE6
330
CEE7
330
CEE8
330
CEE9
330
CEEA
330
CEEB
330
CEEC
330
CEED
330
CEEE
330
CEEF
330
CEF0
330
CEF1
330
CEF2
330
CEF3
330
CEF5
330
CEF6
330
CEF7
330
CEF9
330
631C
330
631D
330
6343
330
6348
330
6349
330
634B
330
634C
330
63DB
330
647F
330
6CBA
330
6CBE
330
6CC0
330
6CC1
330
B156
330
B158
330
B8B2
  0
IDBUFFER
  5
CF3B
330
0
100
AcDbIdBuffer
  0
IDBUFFER
  5
CF3C
330
0
100
AcDbIdBuffer
330
6320
  0
IDBUFFER
  5
CF3D
330
0
100
AcDbIdBuffer
330
634F
330
640B
330
6418
330
B7AC
330
CEDA
330
CEDB
330
CEE0
330
CEE2
330
CEF4
330
CEF8
  0
IDBUFFER
  5
CF3E
330
0
100
AcDbIdBuffer
  0
IDBUFFER
  5
CF3F
330
0
100
AcDbIdBuffer
330
C58
  0
IDBUFFER
  5
CF40
330
0
100
AcDbIdBuffer
  0
ENDSEC
  0
EOF
