  0
SECTION
  2
HEADER
  9
$ACADVER
  1
AC1014
  9
$ACADMAINTVER
 70
     9
  9
$DWGCODEPAGE
  3
ANSI_932
  9
$INSBASE
 10
0.0
 20
0.0
 30
0.0
  9
$EXTMIN
 10
-208.0037121380378
 20
-66.62005009261995
 30
-0.00000001
  9
$EXTMAX
 10
41.39165576660763
 20
39.83512610678074
 30
0.00000001
  9
$LIMMIN
 10
-215.6022648056348
 20
-74.91978734848164
  9
$LIMMAX
 10
55.85985091280099
 20
68.02993660540749
  9
$ORTHOMODE
 70
     0
  9
$REGENMODE
 70
     1
  9
$FILLMODE
 70
     1
  9
$QTEXTMODE
 70
     0
  9
$MIRRTEXT
 70
     0
  9
$DRAGMODE
 70
     2
  9
$LTSCALE
 40
0.5
  9
$OSMODE
 70
    55
  9
$ATTMODE
 70
     1
  9
$TEXTSIZE
 40
2.5
  9
$TRACEWID
 40
1.0
  9
$TEXTSTYLE
  7
STANDARD
  9
$CLAYER
  8
AM_0
  9
$CELTYPE
  6
BYLAYER
  9
$CECOLOR
 62
   256
  9
$CELTSCALE
 40
1.0
  9
$DELOBJ
 70
     1
  9
$DISPSILH
 70
     0
  9
$DIMSCALE
 40
1.0
  9
$DIMASZ
 40
2.5
  9
$DIMEXO
 40
1.0
  9
$DIMDLI
 40
12.0
  9
$DIMRND
 40
0.0
  9
$DIMDLE
 40
0.0
  9
$DIMEXE
 40
1.0
  9
$DIMTP
 40
0.1
  9
$DIMTM
 40
0.1
  9
$DIMTXT
 40
3.2
  9
$DIMCEN
 40
0.0
  9
$DIMTSZ
 40
0.0
  9
$DIMTOL
 70
     0
  9
$DIMLIM
 70
     0
  9
$DIMTIH
 70
     0
  9
$DIMTOH
 70
     0
  9
$DIMSE1
 70
     0
  9
$DIMSE2
 70
     0
  9
$DIMTAD
 70
     3
  9
$DIMZIN
 70
     1
  9
$DIMBLK
  1
OPEN30
  9
$DIMASO
 70
     1
  9
$DIMSHO
 70
     1
  9
$DIMPOST
  1

  9
$DIMAPOST
  1
"
  9
$DIMALT
 70
     0
  9
$DIMALTD
 70
     2
  9
$DIMALTF
 40
0.0393701
  9
$DIMLFAC
 40
1.0
  9
$DIMTOFL
 70
     1
  9
$DIMTVP
 40
0.0
  9
$DIMTIX
 70
     0
  9
$DIMSOXD
 70
     0
  9
$DIMSAH
 70
     0
  9
$DIMBLK1
  1

  9
$DIMBLK2
  1

  9
$DIMSTYLE
  2
AM_JIS
  9
$DIMCLRD
 70
     3
  9
$DIMCLRE
 70
     3
  9
$DIMCLRT
 70
     2
  9
$DIMTFAC
 40
0.71
  9
$DIMGAP
 40
1.5
  9
$DIMJUST
 70
     0
  9
$DIMSD1
 70
     0
  9
$DIMSD2
 70
     0
  9
$DIMTOLJ
 70
     0
  9
$DIMTZIN
 70
     0
  9
$DIMALTZ
 70
     0
  9
$DIMALTTZ
 70
     0
  9
$DIMFIT
 70
     3
  9
$DIMUPT
 70
     0
  9
$DIMUNIT
 70
     2
  9
$DIMDEC
 70
     1
  9
$DIMTDEC
 70
     1
  9
$DIMALTU
 70
     2
  9
$DIMALTTD
 70
     2
  9
$DIMTXSTY
  7
ASAMI
  9
$DIMAUNIT
 70
     0
  9
$LUNITS
 70
     2
  9
$LUPREC
 70
     2
  9
$SKETCHINC
 40
1.0
  9
$FILLETRAD
 40
0.8
  9
$AUNITS
 70
     0
  9
$AUPREC
 70
     0
  9
$MENU
  1
.
  9
$ELEVATION
 40
0.0
  9
$PELEVATION
 40
0.0
  9
$THICKNESS
 40
0.0
  9
$LIMCHECK
 70
     0
  9
$BLIPMODE
 70
     0
  9
$CHAMFERA
 40
1.0
  9
$CHAMFERB
 40
1.0
  9
$CHAMFERC
 40
20.0
  9
$CHAMFERD
 40
0.0
  9
$SKPOLY
 70
     0
  9
$TDCREATE
 40
2452838.620506898
  9
$TDUPDATE
 40
2453151.661055034
  9
$TDINDWG
 40
2.2376578009
  9
$TDUSRTIMER
 40
2.2376578009
  9
$USRTIMER
 70
     1
  9
$ANGBASE
 50
0.0
  9
$ANGDIR
 70
     0
  9
$PDMODE
 70
     0
  9
$PDSIZE
 40
0.0
  9
$PLINEWID
 40
0.0
  9
$COORDS
 70
     1
  9
$SPLFRAME
 70
     0
  9
$SPLINETYPE
 70
     6
  9
$SPLINESEGS
 70
     8
  9
$ATTDIA
 70
     1
  9
$ATTREQ
 70
     1
  9
$HANDLING
 70
 12289
  9
$HANDSEED
  5
E1C1
  9
$SURFTAB1
 70
     6
  9
$SURFTAB2
 70
     6
  9
$SURFTYPE
 70
     6
  9
$SURFU
 70
     6
  9
$SURFV
 70
     6
  9
$UCSNAME
  2

  9
$UCSORG
 10
0.0
 20
0.0000000000000002
 30
0.0
  9
$UCSXDIR
 10
1.0
 20
0.0
 30
0.0
  9
$UCSYDIR
 10
0.0
 20
1.0
 30
0.0
  9
$PUCSNAME
  2

  9
$PUCSORG
 10
0.0
 20
0.0
 30
0.0
  9
$PUCSXDIR
 10
1.0
 20
0.0
 30
0.0
  9
$PUCSYDIR
 10
0.0
 20
1.0
 30
0.0
  9
$USERI1
 70
     0
  9
$USERI2
 70
     0
  9
$USERI3
 70
     0
  9
$USERI4
 70
     0
  9
$USERI5
 70
     0
  9
$USERR1
 40
0.0
  9
$USERR2
 40
0.0
  9
$USERR3
 40
0.0
  9
$USERR4
 40
0.0
  9
$USERR5
 40
0.0
  9
$WORLDVIEW
 70
     1
  9
$SHADEDGE
 70
     3
  9
$SHADEDIF
 70
    70
  9
$TILEMODE
 70
     1
  9
$MAXACTVP
 70
    64
  9
$PINSBASE
 10
0.0
 20
0.0
 30
0.0
  9
$PLIMCHECK
 70
     0
  9
$PEXTMIN
 10
1.000000000000000E+20
 20
1.000000000000000E+20
 30
1.000000000000000E+20
  9
$PEXTMAX
 10
-1.000000000000000E+20
 20
-1.000000000000000E+20
 30
-1.000000000000000E+20
  9
$PLIMMIN
 10
0.0
 20
0.0
  9
$PLIMMAX
 10
210.0
 20
297.0
  9
$UNITMODE
 70
     0
  9
$VISRETAIN
 70
     1
  9
$PLINEGEN
 70
     0
  9
$PSLTSCALE
 70
     1
  9
$TREEDEPTH
 70
  3020
  9
$PICKSTYLE
 70
     0
  9
$CMLSTYLE
  2
STANDARD
  9
$CMLJUST
 70
     0
  9
$CMLSCALE
 40
20.0
  9
$PROXYGRAPHICS
 70
     1
  9
$MEASUREMENT
 70
     1
  0
ENDSEC
  0
SECTION
  2
CLASSES
  0
CLASS
  1
ACDBDICTIONARYWDFLT
  2
AcDbDictionaryWithDefault
  3
AutoCAD 2000
 90
        0
280
     0
281
     0
  0
CLASS
  1
ACDBPLACEHOLDER
  2
AcDbPlaceHolder
  3
AutoCAD 2000
 90
        0
280
     0
281
     0
  0
CLASS
  1
LAYOUT
  2
AcDbLayout
  3
AutoCAD 2000
 90
        0
280
     0
281
     0
  0
CLASS
  1
AMGSETTINGSOBJ
  2
AmgSettingsObj
  3
"AcadM|Product Description: AutoCAD Mechanical 2000|Company: Autodesk"
 90
        0
280
     0
281
     0
  0
CLASS
  1
ACME_DOCUMENT
  2
AcMeDbDoc
  3
AcMeServices
 90
        0
280
     0
281
     0
  0
CLASS
  1
ACMESCOPE
  2
AcMeScope
  3
AcMeServices
 90
        0
280
     0
281
     0
  0
CLASS
  1
ACMECOMMANDHISTORY
  2
AcMeCommandHistory
  3
AcMeServices
 90
        0
280
     0
281
     0
  0
CLASS
  1
DICTIONARYVAR
  2
AcDbDictionaryVar
  3
AutoCAD 2000
 90
        0
280
     0
281
     0
  0
CLASS
  1
ACIMSYSVARMAN
  2
AcImSysVarManager
  3
AcMeServices
 90
        0
280
     0
281
     0
  0
CLASS
  1
ACIMREALSYSVAR
  2
AcImRealSysVar
  3
AcMeServices
 90
        0
280
     0
281
     0
  0
CLASS
  1
ACIMINTSYSVAR
  2
AcImIntSysVar
  3
AcMeServices
 90
        0
280
     0
281
     0
  0
CLASS
  1
ACMEDRAWINGMAN
  2
AcMeDrawingMan
  3
AcMeServices
 90
        0
280
     0
281
     0
  0
CLASS
  1
ACMEVIEW
  2
AcMeView
  3
AcMeServices
 90
        0
280
     0
281
     0
  0
CLASS
  1
ACDBENTITYCACHE
  2
AcMeEntityCache
  3
AcMeServices
 90
        0
280
     0
281
     0
  0
CLASS
  1
GSMANAGER
  2
AcMeGSManager
  3
AcMeServices
 90
        0
280
     0
281
     0
  0
CLASS
  1
AmdtInternalReactor
  2
AmdtInternalReactor
  3
AcMeServices
 90
        0
280
     0
281
     0
  0
CLASS
  1
ACMESTATEMGR
  2
AcMeStateMgr
  3
AcMeServices
 90
        0
280
     0
281
     0
  0
CLASS
  1
ACME_DATABASE
  2
AcMeDbDatabase
  3
AcMeServices
 90
        0
280
     0
281
     0
  0
CLASS
  1
ACRFINSADJUSTERMGR
  2
AcRfInsAdjusterMgr
  3
AcMeServices
 90
        0
280
     0
281
     0
  0
CLASS
  1
ACMDATADICTIONARY
  2
AcmDataDictionary
  3
"AcmSymBB|Product Description: AutoCAD Mechanical 2000|Company: Autodesk"
 90
        0
280
     0
281
     0
  0
CLASS
  1
ACMDATAENTRYBLOCK
  2
AcmDataEntryBlock
  3
"AcmSymBB|Product Description: AutoCAD Mechanical 2000|Company: Autodesk"
 90
        0
280
     0
281
     0
  0
CLASS
  1
AMGOBJPROPCFG
  2
AmgObjPropCfg
  3
"AmgLay|Product Description: AutoCAD Mechanical 2000|Company: Autodesk"
 90
        1
280
     0
281
     0
  0
CLASS
  1
ACAMGFILTERDAT
  2
AcAmgFilterDat
  3
"AcadM|Product Description: AutoCAD Mechanical 2000|Company: Autodesk"
 90
        0
280
     0
281
     0
  0
CLASS
  1
LAYER_INDEX
  2
AcDbLayerIndex
  3
AutoCAD 2000
 90
        0
280
     0
281
     0
  0
CLASS
  1
IDBUFFER
  2
AcDbIdBuffer
  3
AutoCAD 2000
 90
        0
280
     0
281
     0
  0
CLASS
  1
ACIMSTRSYSVAR
  2
AcImStrSysVar
  3
AcMeServices
 90
        0
280
     0
281
     0
  0
CLASS
  1
ACMSTANDARDJIS
  2
AcmStandardJIS
  3
"AcmSymBB|Product Description: AutoCAD Mechanical 2000|Company: Autodesk"
 90
        0
280
     0
281
     0
  0
CLASS
  1
ACMSURFSTANDARDJIS
  2
AcmSurfTextStdJIS
  3
"AcmSymBB|Product Description: AutoCAD Mechanical 2000|Company: Autodesk"
 90
        0
280
     0
281
     0
  0
CLASS
  1
ACMFCFSTANDARDJIS
  2
AcmFCFStdJIS
  3
"AcmSymBB|Product Description: AutoCAD Mechanical 2000|Company: Autodesk"
 90
        0
280
     0
281
     0
  0
CLASS
  1
ACMWELDSTANDARDJIS
  2
AcmWeldingStdJIS
  3
"AcmSymBB|Product Description: AutoCAD Mechanical 2000|Company: Autodesk"
 90
        0
280
     0
281
     0
  0
CLASS
  1
ACMIDSTANDARDJIS
  2
AcmIdStdJIS
  3
"AcmSymBB|Product Description: AutoCAD Mechanical 2000|Company: Autodesk"
 90
        0
280
     0
281
     0
  0
CLASS
  1
ACMDATUMSTANDARDJIS
  2
AcmDatumStdJIS
  3
"AcmSymBB|Product Description: AutoCAD Mechanical 2000|Company: Autodesk"
 90
        0
280
     0
281
     0
  0
CLASS
  1
ACMBOMSTANDARDJIS
  2
AcmBOMStdJIS
  3
"AcmSymBB|Product Description: AutoCAD Mechanical 2000|Company: Autodesk"
 90
        0
280
     0
281
     0
  0
CLASS
  1
ACMSTANDARDANSI
  2
AcmStandardANSI
  3
"AcmSymBB|Product Description: AutoCAD Mechanical 2000|Company: Autodesk"
 90
        0
280
     0
281
     0
  0
CLASS
  1
ACMSURFSTANDARDANSI
  2
AcmSurfTextStdANSI
  3
"AcmSymBB|Product Description: AutoCAD Mechanical 2000|Company: Autodesk"
 90
        0
280
     0
281
     0
  0
CLASS
  1
ACMFCFSTANDARDANSI
  2
AcmFCFStdANSI
  3
"AcmSymBB|Product Description: AutoCAD Mechanical 2000|Company: Autodesk"
 90
        0
280
     0
281
     0
  0
CLASS
  1
ACMWELDSTANDARDANSI
  2
AcmWeldingStdANSI
  3
"AcmSymBB|Product Description: AutoCAD Mechanical 2000|Company: Autodesk"
 90
        0
280
     0
281
     0
  0
CLASS
  1
ACMIDSTANDARDANSI
  2
AcmIdStdANSI
  3
"AcmSymBB|Product Description: AutoCAD Mechanical 2000|Company: Autodesk"
 90
        0
280
     0
281
     0
  0
CLASS
  1
ACMDATUMSTANDARDANSI
  2
AcmDatumStdANSI
  3
"AcmSymBB|Product Description: AutoCAD Mechanical 2000|Company: Autodesk"
 90
        0
280
     0
281
     0
  0
CLASS
  1
ACMBOMSTANDARDANSI
  2
AcmBOMStdANSI
  3
"AcmSymBB|Product Description: AutoCAD Mechanical 2000|Company: Autodesk"
 90
        0
280
     0
281
     0
  0
CLASS
  1
ACMSTANDARDBSI
  2
AcmStandardBSI
  3
"AcmSymBB|Product Description: AutoCAD Mechanical 2000|Company: Autodesk"
 90
        0
280
     0
281
     0
  0
CLASS
  1
ACMSURFSTANDARDBSI
  2
AcmSurfTextStdBSI
  3
"AcmSymBB|Product Description: AutoCAD Mechanical 2000|Company: Autodesk"
 90
        0
280
     0
281
     0
  0
CLASS
  1
ACMFCFSTANDARDBSI
  2
AcmFCFStdBSI
  3
"AcmSymBB|Product Description: AutoCAD Mechanical 2000|Company: Autodesk"
 90
        0
280
     0
281
     0
  0
CLASS
  1
ACMWELDSTANDARDBSI
  2
AcmWeldingStdBSI
  3
"AcmSymBB|Product Description: AutoCAD Mechanical 2000|Company: Autodesk"
 90
        0
280
     0
281
     0
  0
CLASS
  1
ACMIDSTANDARDBSI
  2
AcmIdStdBSI
  3
"AcmSymBB|Product Description: AutoCAD Mechanical 2000|Company: Autodesk"
 90
        0
280
     0
281
     0
  0
CLASS
  1
ACMDATUMSTANDARDBSI
  2
AcmDatumStdBSI
  3
"AcmSymBB|Product Description: AutoCAD Mechanical 2000|Company: Autodesk"
 90
        0
280
     0
281
     0
  0
CLASS
  1
ACMBOMSTANDARDBSI
  2
AcmBOMStdBSI
  3
"AcmSymBB|Product Description: AutoCAD Mechanical 2000|Company: Autodesk"
 90
        0
280
     0
281
     0
  0
CLASS
  1
LONG_TRANSACTION
  2
AcDbLongTransaction
  3
AutoCAD 2000
 90
        0
280
     0
281
     0
  0
CLASS
  1
LWPOLYLINE
  2
AcDbPolyline
  3
AutoCAD 2000
 90
        0
280
     0
281
     1
  0
CLASS
  1
HATCH
  2
AcDbHatch
  3
AutoCAD 2000
 90
        0
280
     0
281
     1
  0
CLASS
  1
XRECORD
  2
AcDbXrecord
  3
AutoCAD 2000
 90
        0
280
     0
281
     0
  0
ENDSEC
  0
SECTION
  2
TABLES
  0
TABLE
  2
VPORT
  5
8
330
0
100
AcDbSymbolTable
 70
     3
  0
VPORT
  5
E182
330
8
100
AcDbSymbolTableRecord
100
AcDbViewportTableRecord
  2
*ACTIVE
 70
     0
 10
0.0
 20
0.0
 11
1.0
 21
1.0
 12
-47.10874092611539
 22
-17.62627963178741
 13
0.0
 23
0.0
 14
2.5
 24
2.5
 15
10.0
 25
10.0
 16
0.0
 26
0.0
 36
1.0
 17
0.0
 27
0.0
 37
0.0
 40
206.848253007813
 41
1.56570841889117
 42
50.0
 43
0.0
 44
0.0
 50
0.0
 51
0.0
 71
     0
 72
   100
 73
     1
 74
     3
 75
     0
 76
     0
 77
     0
 78
     0
  0
ENDTAB
  0
TABLE
  2
LTYPE
  5
5
330
0
100
AcDbSymbolTable
 70
    10
  0
LTYPE
  5
14
330
5
100
AcDbSymbolTableRecord
100
AcDbLinetypeTableRecord
  2
BYBLOCK
 70
     0
  3

 72
    65
 73
     0
 40
0.0
  0
LTYPE
  5
15
330
5
100
AcDbSymbolTableRecord
100
AcDbLinetypeTableRecord
  2
BYLAYER
 70
     0
  3

 72
    65
 73
     0
 40
0.0
  0
LTYPE
  5
16
330
5
100
AcDbSymbolTableRecord
100
AcDbLinetypeTableRecord
  2
CONTINUOUS
 70
     0
  3
Solid line
 72
    65
 73
     0
 40
0.0
  0
LTYPE
  5
4B
330
5
100
AcDbSymbolTableRecord
100
AcDbLinetypeTableRecord
  2
AM_ISO02W050
 70
     0
  3
__ __ __ __ __ __ __ __ __ __ __ __ __ __ __
 72
    65
 73
     2
 40
7.5
 49
6.0
 74
     0
 49
-1.5
 74
     0
  0
LTYPE
  5
4C
330
5
100
AcDbSymbolTableRecord
100
AcDbLinetypeTableRecord
  2
AM_ISO08W050
 70
     0
  3
____ . ____ . ____ . ____ . ____ . ____ . ____
 72
    65
 73
     4
 40
18.0
 49
12.0
 74
     0
 49
-1.5
 74
     0
 49
3.0
 74
     0
 49
-1.5
 74
     0
  0
LTYPE
  5
4D
330
5
100
AcDbSymbolTableRecord
100
AcDbLinetypeTableRecord
  2
AM_ISO09W050
 70
     0
  3
_____ . . _____ . . _____ . . ____ .. ____
 72
    65
 73
     6
 40
22.5
 49
12.0
 74
     0
 49
-1.5
 74
     0
 49
3.0
 74
     0
 49
-1.5
 74
     0
 49
3.0
 74
     0
 49
-1.5
 74
     0
  0
LTYPE
  5
4E
330
5
100
AcDbSymbolTableRecord
100
AcDbLinetypeTableRecord
  2
AMCONSTR
 70
     0
  3
_______________________
 72
    65
 73
     2
 40
9999.0
 49
9999.0
 74
     0
 49
0.0
 74
     0
  0
LTYPE
  5
4F
330
5
100
AcDbSymbolTableRecord
100
AcDbLinetypeTableRecord
  2
AM_ISO02W050X2
 70
     0
  3
 _ _ _ _ _ _ _ _ _ _ _ _
 72
    65
 73
     2
 40
3.75
 49
3.0
 74
     0
 49
-0.75
 74
     0
  0
LTYPE
  5
50
330
5
100
AcDbSymbolTableRecord
100
AcDbLinetypeTableRecord
  2
AM_ISO08W050X2
 70
     0
  3
__ . __ . __ . __ . __ . __
 72
    65
 73
     4
 40
9.0
 49
6.0
 74
     0
 49
-0.75
 74
     0
 49
1.5
 74
     0
 49
-0.75
 74
     0
  0
LTYPE
  5
53
330
5
100
AcDbSymbolTableRecord
100
AcDbLinetypeTableRecord
  2
AMZIGZAG
 70
     0
  3
/\/-/\/-/\/-/\/-/\/-/\/
 72
    65
 73
     2
 40
11.00009999999999
 49
0.0001
 74
     4
 75
   135
340
52
 46
0.04
 50
0.0
 44
0.0
 45
0.0
 49
-11.0
 74
     0
  0
LTYPE
  5
166
330
5
100
AcDbSymbolTableRecord
100
AcDbLinetypeTableRecord
  2
ACJISTGL
 70
     0
  3
_ _ _ _ _
 72
    65
 73
     2
 40
3.0
 49
2.0
 74
     0
 49
-1.0
 74
     0
  0
LTYPE
  5
26A
330
5
100
AcDbSymbolTableRecord
100
AcDbLinetypeTableRecord
  2
ACJISTGB
 70
     0
  3
__ . . __ . .
 72
    65
 73
     6
 40
9.0
 49
4.0
 74
     0
 49
-1.0
 74
     0
 49
1.0
 74
     0
 49
-1.0
 74
     0
 49
1.0
 74
     0
 49
-1.0
 74
     0
  0
ENDTAB
  0
TABLE
  2
LAYER
  5
2
330
0
100
AcDbSymbolTable
 70
     8
  0
LAYER
  5
10
330
2
100
AcDbSymbolTableRecord
100
AcDbLayerTableRecord
  2
0
 70
     0
 62
     7
  6
CONTINUOUS
  0
LAYER
  5
3F9
330
2
100
AcDbSymbolTableRecord
100
AcDbLayerTableRecord
  2
AM_0
 70
     0
 62
     7
  6
CONTINUOUS
  0
LAYER
  5
BD6
330
2
100
AcDbSymbolTableRecord
100
AcDbLayerTableRecord
  2
AM_11
 70
     0
 62
     3
  6
AM_ISO09W050
  0
LAYER
  5
BD7
330
2
100
AcDbSymbolTableRecord
100
AcDbLayerTableRecord
  2
AM_7
 70
     0
 62
     4
  6
AM_ISO08W050
  0
LAYER
  5
BD8
330
2
100
AcDbSymbolTableRecord
100
AcDbLayerTableRecord
  2
AM_5
 70
     0
 62
     3
  6
CONTINUOUS
  0
LAYER
  5
BD9
330
2
100
AcDbSymbolTableRecord
100
AcDbLayerTableRecord
  2
DEFPOINTS
 70
     0
 62
     7
  6
CONTINUOUS
  0
LAYER
  5
BDA
330
2
100
AcDbSymbolTableRecord
100
AcDbLayerTableRecord
  2
AM_6
 70
     0
 62
     2
  6
CONTINUOUS
  0
LAYER
  5
1E2E
330
2
100
AcDbSymbolTableRecord
100
AcDbLayerTableRecord
  2
AM_CL
 70
     0
 62
     1
  6
AMCONSTR
  0
ENDTAB
  0
TABLE
  2
STYLE
  5
3
330
0
100
AcDbSymbolTable
 70
     5
  0
STYLE
  5
11
330
3
100
AcDbSymbolTableRecord
100
AcDbTextStyleTableRecord
  2
STANDARD
 70
     0
 40
0.0
 41
1.0
 50
0.0
 71
     0
 42
2.5
  3
simplex.shx
  4
EXTFONT.SHX
  0
STYLE
  5
52
330
3
100
AcDbSymbolTableRecord
100
AcDbTextStyleTableRecord
  2

 70
     1
 40
0.0
 41
1.0
 50
0.0
 71
     0
 42
2.5
  3
ltypeshp.shx
  4

  0
STYLE
  5
6B
330
3
100
AcDbSymbolTableRecord
100
AcDbTextStyleTableRecord
  2
ASAMI
 70
     0
 40
0.0
 41
1.0
 50
0.0
 71
     0
 42
2.5
  3
simplex.shx
  4
EXTFONT.SHX
  0
STYLE
  5
262
330
3
100
AcDbSymbolTableRecord
100
AcDbTextStyleTableRecord
  2
ACJISTS
 70
     0
 40
1.0
 41
1.0
 50
0.0
 71
     0
 42
2.5
  3
simplex.shx
  4
bigfont.shx
  0
STYLE
  5
269
330
3
100
AcDbSymbolTableRecord
100
AcDbTextStyleTableRecord
  2
ACJISGDT
 70
     0
 40
0.0
 41
1.0
 50
0.0
 71
     0
 42
2.5
  3
amgdtans.shx
  4

  0
ENDTAB
  0
TABLE
  2
VIEW
  5
6
330
0
100
AcDbSymbolTable
 70
     0
  0
ENDTAB
  0
TABLE
  2
UCS
  5
7
330
0
100
AcDbSymbolTable
 70
     0
  0
ENDTAB
  0
TABLE
  2
APPID
  5
9
330
0
100
AcDbSymbolTable
 70
    14
  0
APPID
  5
12
330
9
100
AcDbSymbolTableRecord
100
AcDbRegAppTableRecord
  2
ACAD
 70
     0
  0
APPID
  5
30
330
9
100
AcDbSymbolTableRecord
100
AcDbRegAppTableRecord
  2
MCAD_NO_VIS
 70
     0
  0
APPID
  5
31
330
9
100
AcDbSymbolTableRecord
100
AcDbRegAppTableRecord
  2
ACAD_TEMP_GRAPHIC
 70
     0
  0
APPID
  5
2C2
330
9
100
AcDbSymbolTableRecord
100
AcDbRegAppTableRecord
  2
GENIUS_GENDTOL_13
 70
     0
  0
APPID
  5
339
330
9
100
AcDbSymbolTableRecord
100
AcDbRegAppTableRecord
  2
GENIUS_GENODEF_13
 70
     0
  0
APPID
  5
33A
330
9
100
AcDbSymbolTableRecord
100
AcDbRegAppTableRecord
  2
GENIUS_GENOBJ-N-RSBK_13
 70
     0
  0
APPID
  5
33B
330
9
100
AcDbSymbolTableRecord
100
AcDbRegAppTableRecord
  2
GENIUS_GENOBJ-N-LIB_13
 70
     0
  0
APPID
  5
33C
330
9
100
AcDbSymbolTableRecord
100
AcDbRegAppTableRecord
  2
GENIUS_GENSCALE_13
 70
     0
  0
APPID
  5
378
330
9
100
AcDbSymbolTableRecord
100
AcDbRegAppTableRecord
  2
GENIUS_GENDIMSH_14
 70
     0
  0
APPID
  5
BDB
330
9
100
AcDbSymbolTableRecord
100
AcDbRegAppTableRecord
  2
GENIUS_GENOBJ-N-CEN_13
 70
     0
  0
APPID
  5
BDC
330
9
100
AcDbSymbolTableRecord
100
AcDbRegAppTableRecord
  2
GENIUS_GENFIL_13
 70
     0
  0
APPID
  5
BDD
330
9
100
AcDbSymbolTableRecord
100
AcDbRegAppTableRecord
  2
GENIUS_GENOBJ-N-FIL_13
 70
     0
  0
APPID
  5
12AD
330
9
100
AcDbSymbolTableRecord
100
AcDbRegAppTableRecord
  2
GENIUS_GENOREF_13
 70
     0
  0
APPID
  5
62E6
330
9
100
AcDbSymbolTableRecord
100
AcDbRegAppTableRecord
  2
GENIUS_GENOBJ-N-CHA_13
 70
     0
  0
ENDTAB
  0
TABLE
  2
DIMSTYLE
  5
A
330
0
100
AcDbSymbolTable
 70
     9
  0
DIMSTYLE
105
58
102
{ACAD_REACTORS
330
634F
330
640B
330
6418
330
B7AC
102
}
330
A
100
AcDbSymbolTableRecord
100
AcDbDimStyleTableRecord
  2
AM_JIS
 70
     0
  3

  4
"
  5
OPEN30
  6

  7

 40
1.0
 41
2.5
 42
1.0
 43
12.0
 44
1.0
 45
0.0
 46
0.0
 47
0.1
 48
0.1
140
3.2
141
0.0
142
0.0
143
0.0393701
144
1.0
145
0.0
146
0.71
147
1.5
 71
     0
 72
     0
 73
     0
 74
     0
 75
     0
 76
     0
 77
     3
 78
     1
170
     0
171
     2
172
     1
173
     0
174
     0
175
     0
176
     3
177
     3
178
     2
270
     2
271
     1
272
     1
273
     2
274
     2
340
6B
275
     0
280
     0
281
     0
282
     0
283
     0
284
     0
285
     0
286
     0
287
     3
288
     0
  0
DIMSTYLE
105
5F
330
A
100
AcDbSymbolTableRecord
100
AcDbDimStyleTableRecord
  2
AM_JIS$3
 70
     0
  3

  4
"
  5
OPEN30
  6

  7

 40
1.0
 41
2.5
 42
1.0
 43
10.0
 44
1.0
 45
0.0
 46
0.0
 47
0.1
 48
0.1
140
3.2
141
0.0
142
0.0
143
0.0393701
144
1.0
145
0.0
146
0.71
147
1.5
 71
     0
 72
     0
 73
     0
 74
     1
 75
     0
 76
     0
 77
     3
 78
     1
170
     0
171
     2
172
     0
173
     0
174
     0
175
     0
176
     3
177
     3
178
     2
270
     2
271
     2
272
     1
273
     2
274
     2
340
6B
275
     0
280
     0
281
     0
282
     0
283
     0
284
     0
285
     0
286
     0
287
     0
288
     1
  0
DIMSTYLE
105
60
330
A
100
AcDbSymbolTableRecord
100
AcDbDimStyleTableRecord
  2
AM_JIS$4
 70
     0
  3

  4
"
  5
OPEN30
  6

  7

 40
1.0
 41
2.5
 42
1.0
 43
10.0
 44
1.0
 45
0.0
 46
0.0
 47
0.1
 48
0.1
140
3.2
141
0.0
142
0.0
143
0.0393701
144
1.0
145
0.0
146
0.71
147
1.5
 71
     0
 72
     0
 73
     0
 74
     1
 75
     0
 76
     0
 77
     3
 78
     1
170
     0
171
     2
172
     0
173
     0
174
     0
175
     0
176
     3
177
     3
178
     2
270
     2
271
     2
272
     1
273
     2
274
     2
340
6B
275
     0
280
     0
281
     0
282
     0
283
     0
284
     0
285
     0
286
     0
287
     0
288
     1
  0
DIMSTYLE
105
61
330
A
100
AcDbSymbolTableRecord
100
AcDbDimStyleTableRecord
  2
AM_JIS$6
 70
     0
  3

  4
"
  5
OPEN30
  6

  7

 40
1.0
 41
2.5
 42
1.0
 43
10.0
 44
1.0
 45
0.0
 46
0.0
 47
0.1
 48
0.1
140
3.2
141
0.0
142
0.0
143
0.0393701
144
1.0
145
0.0
146
0.71
147
1.5
 71
     0
 72
     0
 73
     0
 74
     0
 75
     0
 76
     0
 77
     0
 78
     1
170
     0
171
     2
172
     1
173
     0
174
     0
175
     0
176
     3
177
     3
178
     2
270
     2
271
     2
272
     2
273
     2
274
     2
340
6B
275
     0
280
     0
281
     0
282
     0
283
     0
284
     0
285
     0
286
     0
287
     3
288
     0
  0
DIMSTYLE
105
62
330
A
100
AcDbSymbolTableRecord
100
AcDbDimStyleTableRecord
  2
AM_JIS$7
 70
     0
  3

  4
"
  5
OPEN30
  6

  7

 40
1.0
 41
2.5
 42
1.0
 43
10.0
 44
1.0
 45
0.0
 46
0.0
 47
0.1
 48
0.1
140
3.2
141
0.0
142
0.0
143
0.0393701
144
1.0
145
0.0
146
0.71
147
1.5
 71
     0
 72
     0
 73
     0
 74
     0
 75
     0
 76
     0
 77
     3
 78
     1
170
     0
171
     2
172
     1
173
     0
174
     0
175
     0
176
     3
177
     3
178
     2
270
     2
271
     2
272
     1
273
     2
274
     2
340
6B
275
     0
280
     0
281
     0
282
     0
283
     0
284
     0
285
     0
286
     0
287
     3
288
     0
  0
DIMSTYLE
105
63
330
A
100
AcDbSymbolTableRecord
100
AcDbDimStyleTableRecord
  2
AM_JIS$SF
 70
     0
  3

  4
"
  5
OPEN30
  6

  7

 40
1.0
 41
2.5
 42
1.0
 43
10.0
 44
1.0
 45
0.0
 46
0.0
 47
0.1
 48
0.1
140
3.2
141
0.0
142
0.0
143
0.0393701
144
1.0
145
0.0
146
0.71
147
1.5
 71
     0
 72
     0
 73
     0
 74
     0
 75
     1
 76
     1
 77
     3
 78
     8
170
     0
171
     2
172
     1
173
     0
174
     0
175
     0
176
   256
177
   256
178
     2
270
     2
271
     2
272
     2
273
     2
274
     2
340
6B
275
     0
280
     0
281
     0
282
     0
283
     0
284
     0
285
     0
286
     0
287
     3
288
     0
  0
DIMSTYLE
105
68
330
A
100
AcDbSymbolTableRecord
100
AcDbDimStyleTableRecord
  2
AM_JIS$SH
 70
     0
  3

  4
"
  5

  6
GENAXEH
  7
OPEN30
 40
1.0
 41
2.5
 42
1.0
 43
10.0
 44
1.0
 45
0.0
 46
0.0
 47
0.1
 48
0.1
140
3.2
141
0.0
142
0.0
143
0.0393701
144
2.0
145
0.0
146
0.71
147
1.5
 71
     0
 72
     0
 73
     0
 74
     0
 75
     1
 76
     1
 77
     3
 78
     8
170
     0
171
     2
172
     1
173
     1
174
     0
175
     0
176
   256
177
   256
178
     2
270
     2
271
     2
272
     2
273
     2
274
     2
340
6B
275
     0
280
     0
281
     0
282
     0
283
     0
284
     0
285
     0
286
     0
287
     3
288
     0
  0
DIMSTYLE
105
B34
102
{ACAD_REACTORS
330
63DB
102
}
330
A
100
AcDbSymbolTableRecord
100
AcDbDimStyleTableRecord
  2
AM_JIS$2
 70
     0
  3

  4
"
  5
OPEN30
  6

  7

 40
1.0
 41
2.5
 42
1.0
 43
12.0
 44
1.0
 45
0.0
 46
0.0
 47
0.1
 48
0.1
140
3.2
141
0.0
142
0.0
143
0.0393701
144
1.0
145
0.0
146
0.71
147
1.5
 71
     0
 72
     0
 73
     0
 74
     0
 75
     0
 76
     0
 77
     3
 78
     1
170
     0
171
     2
172
     1
173
     0
174
     0
175
     0
176
     3
177
     3
178
     2
270
     2
271
     1
272
     1
273
     2
274
     2
340
6B
275
     0
280
     0
281
     0
282
     0
283
     0
284
     0
285
     0
286
     0
287
     3
288
     0
  0
DIMSTYLE
105
62E5
330
A
100
AcDbSymbolTableRecord
100
AcDbDimStyleTableRecord
  2
ISO-25
 70
     0
  3

  4

  5

  6

  7

 40
1.0
 41
2.5
 42
0.625
 43
3.75
 44
1.25
 45
0.0
 46
0.0
 47
0.0
 48
0.0
140
2.5
141
2.5
142
0.0
143
0.03937007874016
144
1.0
145
0.0
146
1.0
147
0.625
 71
     0
 72
     0
 73
     0
 74
     0
 75
     0
 76
     0
 77
     1
 78
     8
170
     0
171
     3
172
     1
173
     0
174
     0
175
     0
176
     0
177
     0
178
     0
270
     2
271
     2
272
     2
273
     2
274
     3
340
11
275
     0
280
     0
281
     0
282
     0
283
     0
284
     8
285
     0
286
     0
287
     3
288
     0
  0
ENDTAB
  0
TABLE
  2
BLOCK_RECORD
  5
1
330
0
100
AcDbSymbolTable
 70
    10
  0
BLOCK_RECORD
  5
1F
102
{ACAD_XDICTIONARY
360
74
102
}
330
1
100
AcDbSymbolTableRecord
100
AcDbBlockTableRecord
  2
*MODEL_SPACE
  0
BLOCK_RECORD
  5
1B
102
{ACAD_XDICTIONARY
360
E1A4
102
}
330
1
100
AcDbSymbolTableRecord
100
AcDbBlockTableRecord
  2
*PAPER_SPACE
  0
BLOCK_RECORD
  5
59
330
1
100
AcDbSymbolTableRecord
100
AcDbBlockTableRecord
  2
_OPEN30
  0
BLOCK_RECORD
  5
64
330
1
100
AcDbSymbolTableRecord
100
AcDbBlockTableRecord
  2
GENAXEH
  0
BLOCK_RECORD
  5
6350
330
1
100
AcDbSymbolTableRecord
100
AcDbBlockTableRecord
  2
*D5
  0
BLOCK_RECORD
  5
63DC
330
1
100
AcDbSymbolTableRecord
100
AcDbBlockTableRecord
  2
*D6
  0
BLOCK_RECORD
  5
640C
330
1
100
AcDbSymbolTableRecord
100
AcDbBlockTableRecord
  2
*D7
  0
BLOCK_RECORD
  5
6419
330
1
100
AcDbSymbolTableRecord
100
AcDbBlockTableRecord
  2
*D8
  0
BLOCK_RECORD
  5
B7AD
330
1
100
AcDbSymbolTableRecord
100
AcDbBlockTableRecord
  2
*D9
  0
ENDTAB
  0
ENDSEC
  0
SECTION
  2
BLOCKS
  0
BLOCK
  5
20
330
1F
100
AcDbEntity
  8
0
100
AcDbBlockBegin
  2
*MODEL_SPACE
 70
     0
 10
0.0
 20
0.0
 30
0.0
  3
*MODEL_SPACE
  1

  0
ENDBLK
  5
21
330
1F
100
AcDbEntity
  8
0
100
AcDbBlockEnd
  0
BLOCK
  5
1C
330
1B
100
AcDbEntity
 67
     1
  8
0
100
AcDbBlockBegin
  2
*PAPER_SPACE
 70
     0
 10
0.0
 20
0.0
 30
0.0
  3
*PAPER_SPACE
  1

  0
ENDBLK
  5
1D
330
1B
100
AcDbEntity
 67
     1
  8
0
100
AcDbBlockEnd
  0
BLOCK
  5
5D
330
59
100
AcDbEntity
  8
0
100
AcDbBlockBegin
  2
_OPEN30
 70
     0
 10
0.0
 20
0.0
 30
0.0
  3
_OPEN30
  1

  0
LINE
  5
5A
330
59
100
AcDbEntity
  8
0
 62
     0
100
AcDbLine
 10
-1.0
 20
0.26794919
 30
0.0
 11
0.0
 21
0.0
 31
0.0
  0
LINE
  5
5B
330
59
100
AcDbEntity
  8
0
 62
     0
100
AcDbLine
 10
0.0
 20
0.0
 30
0.0
 11
-1.0
 21
-0.26794919
 31
0.0
  0
LINE
  5
5C
330
59
100
AcDbEntity
  8
0
 62
     0
100
AcDbLine
 10
0.0
 20
0.0
 30
0.0
 11
-1.0
 21
0.0
 31
0.0
  0
ENDBLK
  5
5E
330
59
100
AcDbEntity
  8
0
100
AcDbBlockEnd
  0
BLOCK
  5
66
330
64
100
AcDbEntity
  8
0
100
AcDbBlockBegin
  2
GENAXEH
 70
     0
 10
0.0
 20
0.0
 30
0.0
  3
GENAXEH
  1

  0
LINE
  5
65
330
64
100
AcDbEntity
  8
0
100
AcDbLine
 10
-1.0
 20
0.0
 30
0.0
 11
1.0
 21
0.0
 31
0.0
  0
ENDBLK
  5
67
330
64
100
AcDbEntity
  8
0
100
AcDbBlockEnd
  0
BLOCK
  5
635A
330
6350
100
AcDbEntity
  8
0
100
AcDbBlockBegin
  2
*D5
 70
     1
 10
0.0
 20
0.0
 30
0.0
  3
*D5
  1

  0
LINE
  5
E153
330
6350
100
AcDbEntity
  8
AM_5
 62
     3
100
AcDbLine
 10
-181.5987097842139
 20
-9.749999999769949
 30
0.0
 11
-204.3037121380379
 21
-9.749999999769942
 31
0.0
  0
LINE
  5
E154
330
6350
100
AcDbEntity
  8
AM_5
 62
     3
100
AcDbLine
 10
-181.5987097842139
 20
9.750000000230025
 30
0.0
 11
-204.3037121380379
 21
9.750000000230032
 31
0.0
  0
LINE
  5
E155
330
6350
100
AcDbEntity
  8
AM_5
 62
     3
100
AcDbLine
 10
-203.3037121380378
 20
-12.24999999976994
 30
0.0
 11
-203.3037121380378
 21
-14.74999999976994
 31
0.0
  0
LINE
  5
E156
330
6350
100
AcDbEntity
  8
AM_5
 62
     3
100
AcDbLine
 10
-203.3037121380378
 20
12.25000000023003
 30
0.0
 11
-203.3037121380378
 21
14.75000000023003
 31
0.0
  0
LINE
  5
E157
330
6350
100
AcDbEntity
  8
AM_5
 62
     3
100
AcDbLine
 10
-203.3037121380378
 20
-9.749999999769944
 30
0.0
 11
-203.3037121380378
 21
9.750000000230031
 31
0.0
  0
INSERT
  5
E158
330
6350
100
AcDbEntity
  8
AM_5
 62
     3
100
AcDbBlockReference
  2
_OPEN30
 10
-203.3037121380378
 20
-9.749999999769944
 30
0.0
 41
2.5
 42
2.5
 43
2.5
 50
90.0
  0
INSERT
  5
E159
330
6350
100
AcDbEntity
  8
AM_5
 62
     3
100
AcDbBlockReference
  2
_OPEN30
 10
-203.3037121380378
 20
9.750000000230031
 30
0.0
 41
2.5
 42
2.5
 43
2.5
 50
270.0
  0
MTEXT
  5
E15A
330
6350
100
AcDbEntity
  8
AM_5
 62
     2
100
AcDbMText
 10
-206.4037121380378
 20
0.000000000230012
 30
0.0
 40
3.2
 41
0.0
 71
     5
 72
     1
  1
%%C19.5
  7
ASAMI
 11
0.0000000000000001
 21
1.0
 31
0.0
1001
ACAD
1000
MTEXTBEGIN
1070
    73
1070
     1
1070
    44
1040
1.0
1070
    74
1070
     0
1000
MTEXTEND
  0
POINT
  5
E15B
330
6350
100
AcDbEntity
  8
DEFPOINTS
 62
     0
100
AcDbPoint
 10
-180.5987097842139
 20
-9.749999999769949
 30
0.0
  0
POINT
  5
E15C
330
6350
100
AcDbEntity
  8
DEFPOINTS
 62
     0
100
AcDbPoint
 10
-180.5987097842139
 20
9.750000000230025
 30
0.0
  0
POINT
  5
E15D
330
6350
100
AcDbEntity
  8
DEFPOINTS
 62
     0
100
AcDbPoint
 10
-203.3037121380378
 20
9.750000000230031
 30
0.0
  0
ENDBLK
  5
635B
330
6350
100
AcDbEntity
  8
0
100
AcDbBlockEnd
  0
BLOCK
  5
63E8
330
63DC
100
AcDbEntity
  8
0
100
AcDbBlockBegin
  2
*D6
 70
     1
 10
0.0
 20
0.0
 30
0.0
  3
*D6
  1

  0
LINE
  5
E1AD
330
63DC
100
AcDbEntity
  8
AM_0
 62
     3
100
AcDbLine
 10
0.3420201433205239
 20
-0.9396926207858657
 30
0.0
 11
14.49880018110907
 21
-39.83512610678073
 31
0.0
  0
LINE
  5
E1AE
330
63DC
100
AcDbEntity
  8
AM_0
 62
     3
100
AcDbLine
 10
0.3420201433205243
 20
0.9396926207858655
 30
0.0
 11
14.49880018110909
 21
39.83512610678074
 31
0.0
  0
ARC
  5
E1AF
330
63DC
100
AcDbEntity
  8
AM_0
 62
     3
100
AcDbCircle
 10
-0.0000000000052622
 20
0.0
 30
0.0
 40
41.39165576661291
100
AcDbArc
 50
293.4611137787431
 51
66.53888622125688
  0
INSERT
  5
E1B0
330
63DC
100
AcDbEntity
  8
AM_0
 62
     3
100
AcDbBlockReference
  2
_OPEN30
 10
14.15678003778328
 20
-38.89543348599487
 30
0.0
 41
2.5
 42
2.5
 43
2.5
 50
201.7305568893751
  0
INSERT
  5
E1B1
330
63DC
100
AcDbEntity
  8
AM_0
 62
     3
100
AcDbBlockReference
  2
_OPEN30
 10
14.1567800377833
 20
38.89543348599488
 30
0.0
 41
2.5
 42
2.5
 43
2.5
 50
158.2694431106248
  0
MTEXT
  5
E1B2
330
63DC
100
AcDbEntity
  8
AM_0
 62
     2
100
AcDbMText
 10
38.29165576660765
 20
-0.0000000000000098
 30
0.0
 40
3.2
 41
0.0
 71
     5
 72
     1
  1
140°
  7
ASAMI
 11
0.0000000000000001
 21
1.0
 31
0.0
  0
POINT
  5
E1B3
330
63DC
100
AcDbEntity
  8
DEFPOINTS
 62
     0
100
AcDbPoint
 10
38.00648501534316
 20
-16.39439733201178
 30
0.0
  0
POINT
  5
E1B4
330
63DC
100
AcDbEntity
  8
DEFPOINTS
 62
     0
100
AcDbPoint
 10
-0.0000000000052622
 20
0.0
 30
0.0
  0
POINT
  5
E1B5
330
63DC
100
AcDbEntity
  8
DEFPOINTS
 62
     0
100
AcDbPoint
 10
-0.5603225974942393
 20
-1.539473684210526
 30
0.0
  0
POINT
  5
E1B6
330
63DC
100
AcDbEntity
  8
DEFPOINTS
 62
     0
100
AcDbPoint
 10
-0.0000000000052622
 20
0.0
 30
0.0
  0
POINT
  5
E1B7
330
63DC
100
AcDbEntity
  8
DEFPOINTS
 62
     0
100
AcDbPoint
 10
-0.5603225974942393
 20
1.539473684210526
 30
0.0
  0
ENDBLK
  5
63E9
330
63DC
100
AcDbEntity
  8
0
100
AcDbBlockEnd
  0
BLOCK
  5
6416
330
640C
100
AcDbEntity
  8
0
100
AcDbBlockBegin
  2
*D7
 70
     1
 10
0.0
 20
0.0
 30
0.0
  3
*D7
  1

  0
LINE
  5
E128
330
640C
100
AcDbEntity
  8
AM_5
 62
     3
100
AcDbLine
 10
-3.548709784213758
 20
-14.841982687676
 30
0.0
 11
-3.548709784213759
 21
-31.95376664401647
 31
0.0
  0
LINE
  5
E129
330
640C
100
AcDbEntity
  8
AM_5
 62
     3
100
AcDbLine
 10
-117.5487097840872
 20
-10.7500000000012
 30
0.0
 11
-117.5487097840872
 21
-31.95376664401647
 31
0.0
  0
LINE
  5
E12A
330
640C
100
AcDbEntity
  8
AM_5
 62
     3
100
AcDbLine
 10
-6.048709784213759
 20
-30.95376664401646
 30
0.0
 11
-115.0487097840872
 21
-30.95376664401646
 31
0.0
  0
INSERT
  5
E12B
330
640C
100
AcDbEntity
  8
AM_5
 62
     3
100
AcDbBlockReference
  2
_OPEN30
 10
-3.548709784213759
 20
-30.95376664401646
 30
0.0
 41
2.5
 42
2.5
 43
2.5
  0
INSERT
  5
E12C
330
640C
100
AcDbEntity
  8
AM_5
 62
     3
100
AcDbBlockReference
  2
_OPEN30
 10
-117.5487097840872
 20
-30.95376664401646
 30
0.0
 41
2.5
 42
2.5
 43
2.5
 50
180.0
  0
MTEXT
  5
E12D
330
640C
100
AcDbEntity
  8
AM_5
 62
     2
100
AcDbMText
 10
-60.54870978415051
 20
-27.85376664401646
 30
0.0
 40
3.2
 41
0.0
 71
     5
 72
     1
  1
114
  7
ASAMI
1001
ACAD
1000
MTEXTBEGIN
1070
    73
1070
     1
1070
    44
1040
1.0
1070
    74
1070
     0
1000
MTEXTEND
  0
POINT
  5
E12E
330
640C
100
AcDbEntity
  8
DEFPOINTS
 62
     0
100
AcDbPoint
 10
-3.548709784213758
 20
-13.841982687676
 30
0.0
  0
POINT
  5
E12F
330
640C
100
AcDbEntity
  8
DEFPOINTS
 62
     0
100
AcDbPoint
 10
-117.5487097840872
 20
-9.750000000001209
 30
0.0
  0
POINT
  5
E130
330
640C
100
AcDbEntity
  8
DEFPOINTS
 62
     0
100
AcDbPoint
 10
-117.5487097840872
 20
-30.95376664401646
 30
0.0
  0
ENDBLK
  5
6417
330
640C
100
AcDbEntity
  8
0
100
AcDbBlockEnd
  0
BLOCK
  5
6423
330
6419
100
AcDbEntity
  8
0
100
AcDbBlockBegin
  2
*D8
 70
     1
 10
0.0
 20
0.0
 30
0.0
  3
*D8
  1

  0
LINE
  5
E0BB
330
6419
100
AcDbEntity
  8
AM_5
 62
     3
100
AcDbLine
 10
-3.548709784213756
 20
-10.75481518574336
 30
0.0
 11
-3.548709784213758
 21
-46.81741645400971
 31
0.0
  0
LINE
  5
E0BC
330
6419
100
AcDbEntity
  8
AM_5
 62
     3
100
AcDbLine
 10
-182.5487097842138
 20
-8.977272727273462
 30
0.0
 11
-182.5487097842138
 21
-46.81741645400971
 31
0.0
  0
LINE
  5
E0BD
330
6419
100
AcDbEntity
  8
AM_5
 62
     3
100
AcDbLine
 10
-6.048709784213758
 20
-45.81741645400971
 30
0.0
 11
-180.0487097842138
 21
-45.81741645400971
 31
0.0
  0
INSERT
  5
E0BE
330
6419
100
AcDbEntity
  8
AM_5
 62
     3
100
AcDbBlockReference
  2
_OPEN30
 10
-3.548709784213758
 20
-45.81741645400971
 30
0.0
 41
2.5
 42
2.5
 43
2.5
  0
INSERT
  5
E0BF
330
6419
100
AcDbEntity
  8
AM_5
 62
     3
100
AcDbBlockReference
  2
_OPEN30
 10
-182.5487097842138
 20
-45.81741645400971
 30
0.0
 41
2.5
 42
2.5
 43
2.5
 50
180.0
  0
MTEXT
  5
E0C0
330
6419
100
AcDbEntity
  8
AM_5
 62
     2
100
AcDbMText
 10
-93.0487097842138
 20
-42.71741645400971
 30
0.0
 40
3.2
 41
0.0
 71
     5
 72
     1
  1
179
  7
ASAMI
1001
ACAD
1000
MTEXTBEGIN
1070
    73
1070
     1
1070
    44
1040
1.0
1070
    74
1070
     0
1000
MTEXTEND
  0
POINT
  5
E0C1
330
6419
100
AcDbEntity
  8
DEFPOINTS
 62
     0
100
AcDbPoint
 10
-3.548709784213756
 20
-9.754815185743369
 30
0.0
  0
POINT
  5
E0C2
330
6419
100
AcDbEntity
  8
DEFPOINTS
 62
     0
100
AcDbPoint
 10
-182.5487097842138
 20
-7.977272727273462
 30
0.0
  0
POINT
  5
E0C3
330
6419
100
AcDbEntity
  8
DEFPOINTS
 62
     0
100
AcDbPoint
 10
-182.5487097842138
 20
-45.81741645400971
 30
0.0
  0
ENDBLK
  5
6424
330
6419
100
AcDbEntity
  8
0
100
AcDbBlockEnd
  0
BLOCK
  5
B7B7
330
B7AD
100
AcDbEntity
  8
0
100
AcDbBlockBegin
  2
*D9
 70
     1
 10
0.0
 20
0.0
 30
0.0
  3
*D9
  1

  0
LINE
  5
E1B8
330
B7AD
100
AcDbEntity
  8
AM_5
 62
     3
100
AcDbLine
 10
-2.846167411332398
 20
-9.749999999769947
 30
0.0
 11
26.7540586298644
 21
-9.749999999769954
 31
0.0
  0
LINE
  5
E1B9
330
B7AD
100
AcDbEntity
  8
AM_5
 62
     3
100
AcDbLine
 10
-2.846167411332398
 20
9.750000000230027
 30
0.0
 11
26.75405862986441
 21
9.75000000023002
 31
0.0
  0
LINE
  5
E1BA
330
B7AD
100
AcDbEntity
  8
AM_5
 62
     3
100
AcDbLine
 10
25.7540586298644
 20
-7.249999999769954
 30
0.0
 11
25.7540586298644
 21
7.25000000023002
 31
0.0
  0
MTEXT
  5
E1BB
330
B7AD
100
AcDbEntity
  8
AM_5
 62
     2
100
AcDbMText
 10
22.6540586298644
 20
0.000000000230033
 30
0.0
 40
3.2
 41
0.0
 71
     5
 72
     1
  1
%%C19.5
  7
ASAMI
 11
0.0000000000000001
 21
1.0
 31
0.0
  0
INSERT
  5
E1BC
330
B7AD
100
AcDbEntity
  8
AM_5
 62
     3
100
AcDbBlockReference
  2
_OPEN30
 10
25.7540586298644
 20
-9.749999999769954
 30
0.0
 41
2.5
 42
2.5
 43
2.5
 50
270.0
  0
INSERT
  5
E1BD
330
B7AD
100
AcDbEntity
  8
AM_5
 62
     3
100
AcDbBlockReference
  2
_OPEN30
 10
25.75405862986441
 20
9.75000000023002
 30
0.0
 41
2.5
 42
2.5
 43
2.5
 50
90.0
  0
POINT
  5
E1BE
330
B7AD
100
AcDbEntity
  8
DEFPOINTS
 62
     0
100
AcDbPoint
 10
-3.846167411332398
 20
-9.749999999769947
 30
0.0
  0
POINT
  5
E1BF
330
B7AD
100
AcDbEntity
  8
DEFPOINTS
 62
     0
100
AcDbPoint
 10
-3.846167411332398
 20
9.750000000230027
 30
0.0
  0
POINT
  5
E1C0
330
B7AD
100
AcDbEntity
  8
DEFPOINTS
 62
     0
100
AcDbPoint
 10
25.75405862986441
 20
9.75000000023002
 30
0.0
  0
ENDBLK
  5
B7B8
330
B7AD
100
AcDbEntity
  8
0
100
AcDbBlockEnd
  0
ENDSEC
  0
SECTION
  2
ENTITIES
  0
TEXT
  5
C58
330
1F
100
AcDbEntity
  8
AM_6
100
AcDbText
 10
-111.9143437146936
 20
-66.62005009261995
 30
0.0
 40
5.0
  1
MDS195MG
 50
0.0000000000002036
 72
     4
 11
-92.86672466707461
 21
-64.12005009261988
 31
0.0
100
AcDbText
  0
LINE
  5
631C
330
1F
100
AcDbEntity
  8
AM_0
100
AcDbLine
 10
-97.41890346356628
 20
-9.750000000001582
 30
0.0
 11
-180.7759825114866
 21
-9.750000000000925
 31
0.0
  0
LINE
  5
631D
330
1F
100
AcDbEntity
  8
AM_0
100
AcDbLine
 10
-93.8819948770857
 20
9.749999999998426
 30
0.0
 11
-180.7759825114866
 21
9.749999999999067
 31
0.0
  0
LINE
  5
6320
330
1F
100
AcDbEntity
  8
AM_7
100
AcDbLine
 10
-191.7419504442092
 20
0.000000000000034
 30
0.0
 11
5.849999999965223
 21
-0.0000000000000009
 31
0.0
1001
GENIUS_GENODEF_13
1002
{
1000
HIER
1070
     0
1002
}
1002
{
1000
MANEDIT
1070
     0
1002
}
1002
{
1000
NOSEL
1070
     0
1002
}
1002
{
1000
BEHIND
1070
     0
1002
}
1002
{
1000
REACTOR
1002
}
1001
GENIUS_GENOBJ-N-CEN_13
1002
{
1000
OWNER
1000
GEN
1002
}
  0
LINE
  5
6343
330
1F
100
AcDbEntity
  8
AM_0
100
AcDbLine
 10
-182.5487097842137
 20
-2.373112922426857
 30
0.0
 11
-182.5487097842137
 21
2.373112922426926
 31
0.0
  0
LINE
  5
6348
330
1F
100
AcDbEntity
  8
AM_0
100
AcDbLine
 10
-182.5487097842137
 20
3.334922530735485
 30
0.0
 11
-182.5487097842138
 21
7.977272727271978
 31
0.0
  0
LINE
  5
6349
330
1F
100
AcDbEntity
  8
AM_0
100
AcDbLine
 10
-182.5487097842137
 20
2.373112922426926
 30
0.0
 11
-182.5487097842137
 21
3.334922530735485
 31
0.0
  0
LINE
  5
634B
330
1F
100
AcDbEntity
  8
AM_0
100
AcDbLine
 10
-182.5487097842138
 20
-7.977272727273462
 30
0.0
 11
-182.5487097842137
 21
-3.334922530100275
 31
0.0
  0
LINE
  5
634C
330
1F
100
AcDbEntity
  8
AM_0
100
AcDbLine
 10
-182.5487097842137
 20
-3.334922530100275
 30
0.0
 11
-182.5487097842137
 21
-2.373112922426857
 31
0.0
  0
DIMENSION
  5
634F
330
1F
100
AcDbEntity
  8
AM_5
100
AcDbDimension
  2
*D5
 10
-203.3037121380378
 20
9.750000000230031
 30
0.0
 11
-203.3037121380378
 21
0.0000000002300116
 31
0.0
 70
   160
  1
%%C<>
  3
AM_JIS
100
AcDbAlignedDimension
 13
-180.5987097842139
 23
-9.749999999769949
 33
0.0
 14
-180.5987097842139
 24
9.750000000230025
 34
0.0
 50
90.0
100
AcDbRotatedDimension
  0
DIMENSION
  5
63DB
330
1F
100
AcDbEntity
  8
AM_0
100
AcDbDimension
  2
*D6
 10
-0.5603225974942393
 20
1.539473684210526
 30
0.0
 11
38.29165576660765
 21
-0.0000000000000159
 31
0.0
 70
    34
  3
AM_JIS$2
100
AcDb2LineAngularDimension
 13
-0.5603225974942393
 23
-1.539473684210526
 33
0.0
 14
-0.0000000000052622
 24
0.0
 34
0.0
 15
-0.0000000000052622
 25
0.0
 35
0.0
 16
38.00648501534316
 26
-16.39439733201178
 36
0.0
1001
ACAD
1000
DSTYLE
1002
{
1070
   271
1070
     0
1002
}
  0
DIMENSION
  5
640B
330
1F
100
AcDbEntity
  8
AM_5
100
AcDbDimension
  2
*D7
 10
-117.5487097840872
 20
-30.95376664401646
 30
0.0
 11
-60.54870978415051
 21
-27.85376664401646
 31
0.0
 70
    32
  3
AM_JIS
100
AcDbAlignedDimension
 13
-3.548709784213758
 23
-13.841982687676
 33
0.0
 14
-117.5487097840872
 24
-9.750000000001209
 34
0.0
100
AcDbRotatedDimension
1001
ACAD
1000
DSTYLE
1002
{
1070
    78
1070
     9
1070
   271
1070
     3
1002
}
  0
DIMENSION
  5
6418
330
1F
100
AcDbEntity
  8
AM_5
100
AcDbDimension
  2
*D8
 10
-182.5487097842138
 20
-45.81741645400971
 30
0.0
 11
-93.0487097842138
 21
-42.71741645400971
 31
0.0
 70
    32
  3
AM_JIS
100
AcDbAlignedDimension
 13
-3.548709784213756
 23
-9.754815185743369
 33
0.0
 14
-182.5487097842138
 24
-7.977272727273462
 34
0.0
100
AcDbRotatedDimension
1001
ACAD
1000
DSTYLE
1002
{
1070
    78
1070
     9
1002
}
  0
LINE
  5
647F
330
1F
100
AcDbEntity
  8
AM_0
100
AcDbLine
 10
-180.7759825114866
 20
9.749999999999255
 30
0.0
 11
-180.7759825114866
 21
-9.750000000000708
 31
0.0
  0
LINE
  5
6CBA
330
1F
100
AcDbEntity
  8
AM_0
100
AcDbLine
 10
-3.548709784213758
 20
-9.75000000002521
 30
0.0
 11
-0.0000000001169312
 21
-0.0000000000252179
 31
0.0
  0
LINE
  5
6CBE
330
1F
100
AcDbEntity
  8
AM_0
100
AcDbLine
 10
-0.0000000001169312
 20
-0.0000000000252179
 30
0.0
 11
-3.548709784221868
 21
9.74999999999704
 31
0.0
  0
LINE
  5
6CC0
330
1F
100
AcDbEntity
  8
AM_0
100
AcDbLine
 10
-0.0000000001169312
 20
-0.0000000000252179
 30
0.0
 11
-1.630966653945474
 21
1.696297619781095
 31
0.0
  0
LINE
  5
6CC1
330
1F
100
AcDbEntity
  8
AM_0
100
AcDbLine
 10
-2.994301068270161
 20
-0.7643513952346442
 30
0.0
 11
-0.0000000001169312
 21
-0.0000000000252179
 31
0.0
  0
LINE
  5
B156
330
1F
100
AcDbEntity
  8
AM_0
100
AcDbLine
 10
-180.7759825114866
 20
9.749999999999243
 30
0.0
 11
-182.5487097842138
 21
7.977272727271978
 31
0.0
1001
GENIUS_GENFIL_13
1070
     0
1040
1.0
1040
1.0
1040
20.0
1040
0.0
1002
{
1002
}
1001
GENIUS_GENODEF_13
1002
{
1000
HIER
1070
     0
1002
}
1002
{
1000
MANEDIT
1070
     0
1002
}
1002
{
1000
NOSEL
1070
     0
1002
}
1002
{
1000
BEHIND
1070
     0
1002
}
1002
{
1000
REACTOR
1002
}
1001
GENIUS_GENOBJ-N-CHA_13
1002
{
1000
OWNER
1000
GEN
1002
}
  0
LINE
  5
B158
330
1F
100
AcDbEntity
  8
AM_0
100
AcDbLine
 10
-180.7759825114866
 20
-9.750000000000746
 30
0.0
 11
-182.5487097842138
 21
-7.977272727273462
 31
0.0
1001
GENIUS_GENFIL_13
1070
     0
1040
1.0
1040
1.0
1040
20.0
1040
0.0
1002
{
1002
}
1001
GENIUS_GENODEF_13
1002
{
1000
HIER
1070
     0
1002
}
1002
{
1000
MANEDIT
1070
     0
1002
}
1002
{
1000
NOSEL
1070
     0
1002
}
1002
{
1000
BEHIND
1070
     0
1002
}
1002
{
1000
REACTOR
1002
}
1001
GENIUS_GENOBJ-N-CHA_13
1002
{
1000
OWNER
1000
GEN
1002
}
  0
DIMENSION
  5
B7AC
330
1F
100
AcDbEntity
  8
AM_5
100
AcDbDimension
  2
*D9
 10
25.75405862986441
 20
9.75000000023002
 30
0.0
 11
25.7540586298644
 21
0.0000000002300326
 31
0.0
 70
   160
  1
%%C<>
  3
AM_JIS
100
AcDbAlignedDimension
 13
-3.846167411332398
 23
-9.749999999769947
 33
0.0
 14
-3.846167411332398
 24
9.750000000230027
 34
0.0
 50
90.0
100
AcDbRotatedDimension
1001
ACAD
1000
DSTYLE
1002
{
1070
   287
1070
     4
1070
   279
1070
     1
1002
}
  0
LINE
  5
DEAB
330
1F
100
AcDbEntity
  8
AM_0
100
AcDbLine
 10
-1.630966653945474
 20
1.696297619781095
 30
0.0
 11
-0.6162278319846788
 21
1.693072053270247
 31
0.0
  0
LINE
  5
E103
330
1F
100
AcDbEntity
  8
AM_0
100
AcDbLine
 10
-2.994301068270161
 20
-0.7643513952346442
 30
0.0
 11
-6.040818299436103
 21
4.491812939221556
 31
0.0
  0
SPLINE
  5
E104
330
1F
100
AcDbEntity
  8
AM_0
100
AcDbSpline
210
0.0
220
0.0
230
1.0
 70
     8
 71
     3
 72
     9
 73
     5
 74
     0
 42
0.0000000001
 43
0.0000000001
 40
0.0
 40
0.0
 40
0.0
 40
0.0
 40
0.0353107615743204
 40
0.4098003053212364
 40
0.4098003053212364
 40
0.4098003053212364
 40
0.4098003053212364
 10
-1.630846184509029
 20
1.693069732227401
 30
0.0
 10
-1.621642269239229
 20
1.446462015606715
 30
0.0
 10
-1.514825901662987
 20
-1.415552652443225
 30
0.0
 10
-5.025301109893159
 20
2.627121318263923
 30
0.0
 10
-6.040818299436103
 20
4.491812939221556
 30
0.0
  0
SPLINE
  5
E105
330
1F
100
AcDbEntity
  8
AM_0
100
AcDbSpline
210
0.0
220
0.0
230
1.0
 70
     8
 71
     3
 72
     9
 73
     5
 74
     0
 42
0.0000000001
 43
0.0000000001
 40
0.0
 40
0.0
 40
0.0
 40
0.0
 40
0.1987770877846628
 40
5.759128114460802
 40
5.759128114460802
 40
5.759128114460802
 40
5.759128114460802
 10
-3.161898559611278
 20
8.687244894788264
 30
0.0
 10
-3.161898559611278
 20
8.687244894788264
 30
0.0
 10
-4.859878123943897
 20
8.697047521350294
 30
0.0
 10
-7.37025872310009
 20
8.013024816542445
 30
0.0
 10
-9.750263768626879
 20
6.955888807999147
 30
0.0
  0
SPLINE
  5
E106
330
1F
100
AcDbEntity
  8
AM_0
100
AcDbSpline
210
0.0
220
0.0
230
1.0
 70
     8
 71
     3
 72
     8
 73
     4
 74
     0
 42
0.0000000001
 43
0.0000000001
 40
0.0
 40
0.0
 40
0.0
 40
0.0
 40
6.247244990626095
 40
6.247244990626095
 40
6.247244990626095
 40
6.247244990626095
 10
-3.548709784221868
 20
9.74999999999704
 30
0.0
 10
-5.256209582944516
 20
9.749999999974775
 30
0.0
 10
-7.949728490499682
 20
8.843818626770715
 30
0.0
 10
-10.57986647626652
 20
7.422148661073094
 30
0.0
  0
LINE
  5
E107
330
1F
100
AcDbEntity
  8
AM_5
  6
AM_ISO09W050
 62
     3
 48
0.5
100
AcDbLine
 10
-3.548709784213759
 20
9.749999999974759
 30
0.0
 11
-18.70846008847101
 21
9.749999999974765
 31
0.0
  0
SPLINE
  5
E108
330
1F
100
AcDbEntity
  8
AM_0
100
AcDbSpline
210
0.0
220
0.0
230
1.0
 70
     8
 71
     3
 72
     8
 73
     4
 74
     0
 42
0.0000000001
 43
0.0000000001
 40
19.09542421355049
 40
19.09542421355049
 40
19.09542421355049
 40
19.09542421355049
 40
28.97999309868792
 40
28.97999309868792
 40
28.97999309868792
 40
28.97999309868792
 10
-6.040818299436102
 20
4.491812939221573
 30
0.0
 10
-10.11128719839824
 20
7.481423021171561
 30
0.0
 10
-14.27040935445034
 20
9.749999999974775
 30
0.0
 10
-18.70846008847313
 20
9.749999999974775
 30
0.0
  0
LINE
  5
E109
330
1F
100
AcDbEntity
  8
AM_5
  6
AM_ISO09W050
 62
     3
 48
0.5
100
AcDbLine
 10
-39.03806384381349
 20
9.749999999974765
 30
0.0
 11
-55.27420100178386
 21
9.749999999974765
 31
0.0
  0
SPLINE
  5
E10A
330
1F
100
AcDbEntity
  8
AM_0
100
AcDbSpline
210
0.0
220
0.0
230
1.0
 70
     8
 71
     3
 72
     8
 73
     4
 74
     0
 42
0.0000000001
 43
0.0000000001
 40
0.0
 40
0.0
 40
0.0
 40
0.0
 40
6.247244990625308
 40
6.247244990625308
 40
6.247244990625308
 40
6.247244990625308
 10
-39.03806384381352
 20
9.749999999974775
 30
0.0
 10
-41.83936868570242
 20
9.749999999974775
 30
0.0
 10
-44.52939998182858
 20
8.843818626770994
 30
0.0
 10
-47.15613242279925
 20
7.422148661073777
 30
0.0
  0
SPLINE
  5
E10B
330
1F
100
AcDbEntity
  8
AM_0
100
AcDbSpline
210
0.0
220
0.0
230
1.0
 70
     8
 71
     3
 72
     9
 73
     5
 74
     0
 42
0.0000000001
 43
0.0000000001
 40
0.0
 40
0.0
 40
0.0
 40
0.0
 40
0.1987770877846628
 40
5.759128114445015
 40
5.759128114445015
 40
5.759128114445015
 40
5.759128114445015
 10
-38.7706650691586
 20
8.685035657568686
 30
0.0
 10
-38.85979799404051
 20
8.685035657568686
 30
0.0
 10
-41.44355040300747
 20
8.697047521325222
 30
0.0
 10
-43.95068052114377
 20
8.013024816521269
 30
0.0
 10
-46.32760389800623
 20
6.955888807983075
 30
0.0
  0
SPLINE
  5
E10C
330
1F
100
AcDbEntity
  8
AM_0
100
AcDbSpline
210
0.0
220
0.0
230
1.0
 70
     8
 71
     3
 72
     8
 73
     4
 74
     0
 42
0.0000000001
 43
0.0000000001
 40
0.0
 40
0.0
 40
0.0
 40
0.0
 40
6.870645942600294
 40
6.870645942600294
 40
6.870645942600294
 40
6.870645942600294
 10
-77.64585771911443
 20
8.685035657581277
 30
0.0
 10
-74.56503175681175
 20
8.699373091301238
 30
0.0
 10
-71.47247997629861
 20
8.012336226918725
 30
0.0
 10
-68.45546152760274
 20
6.812096615705136
 30
0.0
  0
LINE
  5
E10D
330
1F
100
AcDbEntity
  8
AM_0
100
AcDbLine
 10
-18.70846008847101
 20
9.749999999974765
 30
0.0
 11
-39.08867648828511
 21
9.749999999974765
 31
0.0
  0
SPLINE
  5
E10E
330
1F
100
AcDbEntity
  8
AM_0
100
AcDbSpline
210
0.0
220
0.0
230
1.0
 70
     8
 71
     3
 72
     8
 73
     4
 74
     0
 42
0.0000000001
 43
0.0000000001
 40
0.0
 40
0.0
 40
0.0
 40
0.0
 40
6.870645942600294
 40
6.870645942600294
 40
6.870645942600294
 40
6.870645942600294
 10
-39.0886764882871
 20
8.685035657581277
 30
0.0
 10
-36.00385625132632
 20
8.699373091301238
 30
0.0
 10
-32.9072949936934
 20
8.012336226918725
 30
0.0
 10
-29.88636499644519
 20
6.812096615705136
 30
0.0
  0
LINE
  5
E10F
330
1F
100
AcDbEntity
  8
AM_5
  6
AM_ISO09W050
 62
     3
 48
0.5
100
AcDbLine
 10
-3.548709784213759
 20
-9.750000000025229
 30
0.0
 11
-18.70846008847101
 21
-9.75000000002521
 31
0.0
  0
SPLINE
  5
E110
330
1F
100
AcDbEntity
  8
AM_0
100
AcDbSpline
210
0.0
220
0.0
230
1.0
 70
     8
 71
     3
 72
     8
 73
     4
 74
     0
 42
0.0000000001
 43
0.0000000001
 40
22.73274810806179
 40
22.73274810806179
 40
22.73274810806179
 40
22.73274810806179
 40
28.97999309868792
 40
28.97999309868792
 40
28.97999309868792
 40
28.97999309868792
 10
-10.67534141620572
 20
-7.473513717292412
 30
0.0
 10
-13.2100044620332
 20
-8.843818626821262
 30
0.0
 10
-15.90352336958834
 20
-9.750000000025172
 30
0.0
 10
-18.70846008847313
 20
-9.750000000025172
 30
0.0
  0
LINE
  5
E111
330
1F
100
AcDbEntity
  8
AM_5
  6
AM_ISO09W050
 62
     3
 48
0.5
100
AcDbLine
 10
-41.05589279198906
 20
-9.75000000002521
 30
0.0
 11
-56.81003279295159
 21
-9.75000000002521
 31
0.0
  0
SPLINE
  5
E112
330
1F
100
AcDbEntity
  8
AM_0
100
AcDbSpline
210
0.0
220
0.0
230
1.0
 70
     8
 71
     3
 72
     8
 73
     4
 74
     0
 42
0.0000000001
 43
0.0000000001
 40
22.73274810806179
 40
22.73274810806179
 40
22.73274810806179
 40
22.73274810806179
 40
28.97999309868792
 40
28.97999309868792
 40
28.97999309868792
 40
28.97999309868792
 10
-49.17396137097622
 20
-7.422148661123773
 30
0.0
 10
-51.80069381194716
 20
-8.843818626821262
 30
0.0
 10
-54.49072510807368
 20
-9.750000000025172
 30
0.0
 10
-57.29202994996297
 20
-9.750000000025172
 30
0.0
  0
LINE
  5
E113
330
1F
100
AcDbEntity
  8
AM_0
100
AcDbLine
 10
-18.70846008847101
 20
-9.75000000002521
 30
0.0
 11
-41.10912154108222
 21
-9.75000000002521
 31
0.0
  0
SPLINE
  5
E114
330
1F
100
AcDbEntity
  8
AM_0
100
AcDbSpline
210
0.0
220
0.0
230
1.0
 70
     8
 71
     3
 72
     9
 73
     5
 74
     0
 42
0.0000000001
 43
0.0000000001
 40
1.521176736886217
 40
1.521176736886217
 40
1.521176736886217
 40
1.521176736886217
 40
14.48999654934396
 40
28.97999309868792
 40
28.97999309868792
 40
28.97999309868792
 40
28.97999309868792
 10
-3.512836519223266
 20
-9.168579570942547
 30
0.0
 10
-8.176788232081753
 20
-8.72643362896812
 30
0.0
 10
-19.36959407341369
 20
0.5117831855033143
 30
0.0
 10
-30.5623999147455
 20
9.749999999974775
 30
0.0
 10
-37.0682314354804
 20
9.749999999974775
 30
0.0
  0
SPLINE
  5
E115
330
1F
100
AcDbEntity
  8
AM_0
100
AcDbSpline
210
0.0
220
0.0
230
1.0
 70
     8
 71
     3
 72
     9
 73
     5
 74
     0
 42
0.0000000001
 43
0.0000000001
 40
0.0
 40
0.0
 40
0.0
 40
0.0
 40
1.448999654934392
 40
2.897999309868792
 40
2.897999309868792
 40
2.897999309868792
 40
2.897999309868792
 10
-3.548709784213759
 20
-9.750000000025229
 30
0.0
 10
-8.957104384794755
 20
-9.750000000025172
 30
0.0
 10
-20.76997467617341
 20
-0.0000000000254752
 30
0.0
 10
-32.58284496755205
 20
9.749999999974775
 30
0.0
 10
-39.0886764882871
 20
9.749999999974775
 30
0.0
  0
LINE
  5
E116
330
1F
100
AcDbEntity
  8
AM_0
100
AcDbLine
 10
-3.548709784213759
 20
-9.750000000025229
 30
0.0
 11
-2.994301068270161
 21
-0.7643513952346442
 31
0.0
  0
SPLINE
  5
E117
330
1F
100
AcDbEntity
  8
AM_0
100
AcDbSpline
210
0.0
220
0.0
230
1.0
 70
     8
 71
     3
 72
     9
 73
     5
 74
     0
 42
0.0000000001
 43
0.0000000001
 40
0.0
 40
0.0
 40
0.0
 40
0.0
 40
1.448999654934399
 40
2.897999309868795
 40
2.897999309868795
 40
2.897999309868795
 40
2.897999309868795
 10
-18.70846008847109
 20
-9.750000000025172
 30
0.0
 10
-25.21429160920603
 20
-9.750000000025172
 30
0.0
 10
-37.02716190058479
 20
-0.0000000000254752
 30
0.0
 10
-48.84003219196339
 20
9.749999999974775
 30
0.0
 10
-55.34586371269838
 20
9.749999999974775
 30
0.0
  0
SPLINE
  5
E118
330
1F
100
AcDbEntity
  8
AM_0
100
AcDbSpline
210
0.0
220
0.0
230
1.0
 70
     8
 71
     3
 72
     9
 73
     5
 74
     0
 42
0.0000000001
 43
0.0000000001
 40
0.0
 40
0.0
 40
0.0
 40
0.0
 40
1.448999654934392
 40
2.897999309868792
 40
2.897999309868792
 40
2.897999309868792
 40
2.897999309868792
 10
-41.28195209019557
 20
-9.74803636891302
 30
0.0
 10
-47.55330045785546
 20
-9.750000000025172
 30
0.0
 10
-59.35087525555189
 20
-0.0000000000254752
 30
0.0
 10
-71.14845005324837
 20
9.749999999974775
 30
0.0
 10
-77.64585771911443
 20
9.749999999974775
 30
0.0
  0
SPLINE
  5
E119
330
1F
100
AcDbEntity
  8
AM_0
100
AcDbSpline
210
0.0
220
0.0
230
1.0
 70
     8
 71
     3
 72
     9
 73
     5
 74
     0
 42
0.0000000001
 43
0.0000000001
 40
1.521176736886217
 40
1.521176736886217
 40
1.521176736886217
 40
1.521176736886217
 40
14.48999654934396
 40
28.97999309868792
 40
28.97999309868792
 40
28.97999309868792
 40
28.97999309868792
 10
-41.05589279198905
 20
-9.750000000025172
 30
0.0
 10
-46.77399467099625
 20
-8.726433628968118
 30
0.0
 10
-57.95230788802871
 20
0.5117831855033143
 30
0.0
 10
-69.13062110506095
 20
9.749999999974775
 30
0.0
 10
-75.6280287709268
 20
9.749999999974775
 30
0.0
  0
LINE
  5
E11A
330
1F
100
AcDbEntity
  8
AM_5
  6
AM_ISO09W050
 62
     3
 48
0.5
100
AcDbLine
 10
-78.87578951235629
 20
9.749999999974765
 30
0.0
 11
-93.8819948770857
 21
9.749999999974765
 31
0.0
  0
SPLINE
  5
E11B
330
1F
100
AcDbEntity
  8
AM_0
100
AcDbSpline
210
0.0
220
0.0
230
1.0
 70
     8
 71
     3
 72
     8
 73
     4
 74
     0
 42
0.0000000001
 43
0.0000000001
 40
2.893239258405414
 40
2.893239258405414
 40
2.893239258405414
 40
2.893239258405414
 40
2.897999309868792
 40
2.897999309868792
 40
2.897999309868792
 40
2.897999309868792
 10
-118.0301137084533
 20
9.749842336632202
 30
0.0
 10
-118.0517830829731
 20
9.749947382124259
 30
0.0
 10
-118.0734589983483
 20
9.749999991282356
 30
0.0
 10
-118.0951414761367
 20
9.749999991282356
 30
0.0
  0
SPLINE
  5
E11C
330
1F
100
AcDbEntity
  8
AM_0
100
AcDbSpline
210
0.0
220
0.0
230
1.0
 70
     8
 71
     3
 72
     8
 73
     4
 74
     0
 42
0.0000000001
 43
0.0000000001
 40
22.73274810806179
 40
22.73274810806179
 40
22.73274810806179
 40
22.73274810806179
 40
28.97999309868792
 40
28.97999309868792
 40
28.97999309868792
 40
28.97999309868792
 10
-89.17224244013723
 20
-7.422148669816209
 30
0.0
 10
-91.84058304716371
 20
-8.843818635513708
 30
0.0
 10
-94.57322518066309
 20
-9.750000008717622
 30
0.0
 10
-97.41890346356806
 20
-9.750000008717622
 30
0.0
  0
LINE
  5
E11D
330
1F
100
AcDbEntity
  8
AM_5
  6
AM_ISO09W050
 62
     3
 48
0.5
100
AcDbLine
 10
-80.92558141670641
 20
-9.750000008717638
 30
0.0
 11
-97.41890346356807
 21
-9.750000008717638
 31
0.0
  0
SPLINE
  5
E11E
330
1F
100
AcDbEntity
  8
AM_0
100
AcDbSpline
210
0.0
220
0.0
230
1.0
 70
     8
 71
     3
 72
     8
 73
     4
 74
     0
 42
0.0000000001
 43
0.0000000001
 40
0.0
 40
0.0
 40
0.0
 40
0.0
 40
10.77533687840354
 40
10.77533687840354
 40
10.77533687840354
 40
10.77533687840354
 10
-97.41890347426444
 20
-9.750000000025172
 30
0.0
 10
-102.3271697887549
 20
-9.750000000025172
 30
0.0
 10
-106.8991553640895
 20
-7.054124887575116
 30
0.0
 10
-111.3849319126928
 20
-3.667134458153743
 30
0.0
  0
LINE
  5
E11F
330
1F
100
AcDbEntity
  8
AM_0
100
AcDbLine
 10
-117.5487097840872
 20
-9.750000000001259
 30
0.0
 11
-117.548709784087
 21
9.749999999998754
 31
0.0
  0
SPLINE
  5
E120
330
1F
100
AcDbEntity
  8
AM_0
100
AcDbSpline
210
0.0
220
0.0
230
1.0
 70
     8
 71
     3
 72
    10
 73
     6
 74
     0
 42
0.0000000001
 43
0.0000000001
 40
0.0
 40
0.0
 40
0.0
 40
0.0
 40
0.6447675857635071
 40
1.316546974011651
 40
1.777238964087921
 40
1.777238964087921
 40
1.777238964087921
 40
1.777238964087921
 10
-111.3849113358649
 20
-3.667149994704501
 30
0.0
 10
-113.9808811940784
 20
-1.707061486894567
 30
0.0
 10
-122.07243690046
 20
7.946522958291863
 30
0.0
 10
-108.2962838942902
 20
6.587184547956342
 30
0.0
 10
-104.3747843220841
 20
3.885428780606357
 30
0.0
 10
-102.5381914033123
 20
2.437719385160433
 30
0.0
  0
SPLINE
  5
E121
330
1F
100
AcDbEntity
  8
AM_0
100
AcDbSpline
210
0.0
220
0.0
230
1.0
 70
     8
 71
     3
 72
     9
 73
     5
 74
     0
 42
0.0000000001
 43
0.0000000001
 40
1.521176736886217
 40
1.521176736886217
 40
1.521176736886217
 40
1.521176736886217
 40
14.48999654934396
 40
28.97999309868792
 40
28.97999309868792
 40
28.97999309868792
 40
28.97999309868792
 10
-80.92558141670641
 20
-9.750000008717622
 30
0.0
 10
-86.73425960595876
 20
-8.726433637660562
 30
0.0
 10
-98.08964038621207
 20
0.5117831768108748
 30
0.0
 10
-109.4450211664652
 20
9.749999991282356
 30
0.0
 10
-116.0453495610948
 20
9.749999991282356
 30
0.0
  0
SPLINE
  5
E122
330
1F
100
AcDbEntity
  8
AM_0
100
AcDbSpline
210
0.0
220
0.0
230
1.0
 70
     8
 71
     3
 72
     9
 73
     5
 74
     0
 42
0.0000000001
 43
0.0000000001
 40
0.0
 40
0.0
 40
0.0
 40
0.0
 40
1.448999654934392
 40
1.692872608825329
 40
1.692872608825329
 40
1.692872608825329
 40
1.692872608825329
 10
-80.92558141670641
 20
-9.750000008717622
 30
0.0
 10
-87.52590981133613
 20
-9.750000008717622
 30
0.0
 10
-94.52665333661565
 20
-4.054516272803796
 30
0.0
 10
-101.5273968618951
 20
1.640967463110025
 30
0.0
 10
-102.5388136677479
 20
2.438209884400569
 30
0.0
  0
SPLINE
  5
E123
330
1F
100
AcDbEntity
  8
AM_0
100
AcDbSpline
210
0.0
220
0.0
230
1.0
 70
     8
 71
     3
 72
     8
 73
     4
 74
     0
 42
0.0000000001
 43
0.0000000001
 40
0.0
 40
0.0
 40
0.0
 40
0.0
 40
6.247244990625308
 40
6.247244990625308
 40
6.247244990625308
 40
6.247244990625308
 10
-77.64585771911443
 20
9.749999999974775
 30
0.0
 10
-80.4471625610032
 20
9.749999999974775
 30
0.0
 10
-83.13719385712941
 20
8.843818626770994
 30
0.0
 10
-85.76392629810005
 20
7.422148661073777
 30
0.0
  0
SPLINE
  5
E124
330
1F
100
AcDbEntity
  8
AM_0
100
AcDbSpline
210
0.0
220
0.0
230
1.0
 70
     8
 71
     3
 72
     9
 73
     5
 74
     0
 42
0.0000000001
 43
0.0000000001
 40
0.0
 40
0.0
 40
0.0
 40
0.0
 40
0.1987770877846628
 40
5.759128114445015
 40
5.759128114445015
 40
5.759128114445015
 40
5.759128114445015
 10
-77.3784589444595
 20
8.685035657568686
 30
0.0
 10
-77.4675918693412
 20
8.685035657568686
 30
0.0
 10
-80.0513442783083
 20
8.697047521325222
 30
0.0
 10
-82.55847439644464
 20
8.013024816521269
 30
0.0
 10
-84.93539777330704
 20
6.955888807983075
 30
0.0
  0
LINE
  5
E125
330
1F
100
AcDbEntity
  8
AM_0
100
AcDbLine
 10
-56.14975958476065
 20
-9.75000000002521
 30
0.0
 11
-80.92831123717038
 21
-9.75000000002521
 31
0.0
  0
SPLINE
  5
E126
330
1F
100
AcDbEntity
  8
AM_0
100
AcDbSpline
210
0.0
220
0.0
230
1.0
 70
     8
 71
     3
 72
     9
 73
     5
 74
     0
 42
0.0000000001
 43
0.0000000001
 40
0.0
 40
0.0
 40
0.0
 40
0.0
 40
1.448999654934399
 40
2.897999309868795
 40
2.897999309868795
 40
2.897999309868795
 40
2.897999309868795
 10
-57.29202994996086
 20
-9.750000000025172
 30
0.0
 10
-63.7894376158267
 20
-9.750000000025172
 30
0.0
 10
-75.58701241352338
 20
-0.0000000000254752
 30
0.0
 10
-87.38458721121984
 20
9.749999999974775
 30
0.0
 10
-93.88199487708568
 20
9.749999999974775
 30
0.0
  0
LINE
  5
E127
330
1F
100
AcDbEntity
  8
AM_0
100
AcDbLine
 10
-55.27420100171977
 20
9.749999999974765
 30
0.0
 11
-78.87578951235629
 21
9.749999999974765
 31
0.0
  0
VIEWPORT
  5
E2
330
1B
100
AcDbEntity
 67
     1
  8
0
100
AcDbViewport
 10
158.659971393327
 20
148.5
 30
0.0
 40
581.809078125
 41
314.226
 68
     1
 69
     1
1001
ACAD
1000
MVIEW
1002
{
1070
    16
1010
0.0
1020
0.0
1030
0.0
1010
0.0
1020
0.0
1030
1.0
1040
0.0
1040
314.226
1040
158.659971393327
1040
148.5
1040
50.0
1040
0.0
1040
0.0
1070
     0
1070
   100
1070
     1
1070
     1
1070
     0
1070
     0
1070
     0
1070
     0
1040
0.0
1040
0.0
1040
0.0
1040
10.0
1040
10.0
1040
10.0
1040
10.0
1070
     0
1002
{
1002
}
1002
}
  0
ENDSEC
  0
SECTION
  2
OBJECTS
  0
DICTIONARY
  5
C
330
0
100
AcDbDictionary
  3
ACAD_GROUP
350
D
  3
ACAD_LAYOUT
350
1A
  3
ACAD_MLINESTYLE
350
17
  3
ACAD_PLOTSETTINGS
350
19
  3
ACAD_PLOTSTYLENAME
350
E
  3
ACDBVARIABLEDICTIONARY
350
34
  3
ACMDICTIONARY
350
43
  3
AMG
350
2B
  3
AMGSNAPSETTINGS
350
6E
  3
DWGPROPS
350
E176
  3
ACDBHEADERROUNDTRIPXREC
350
E183
  0
DICTIONARY
  5
74
330
1F
100
AcDbDictionary
280
     1
  3
ACAD_INDEX
360
E178
  3
ACAD_LAYOUTSELFREF
360
E1A6
  0
DICTIONARY
  5
E1A4
330
1B
100
AcDbDictionary
280
     1
  3
ACAD_LAYOUTSELFREF
360
E1A5
  0
DICTIONARY
  5
D
102
{ACAD_REACTORS
330
C
102
}
330
C
100
AcDbDictionary
  0
DICTIONARY
  5
1A
102
{ACAD_REACTORS
330
C
102
}
330
C
100
AcDbDictionary
  0
DICTIONARY
  5
17
102
{ACAD_REACTORS
330
C
102
}
330
C
100
AcDbDictionary
  3
STANDARD
350
18
  0
DICTIONARY
  5
19
102
{ACAD_REACTORS
330
C
102
}
330
C
100
AcDbDictionary
  0
ACDBDICTIONARYWDFLT
  5
E
102
{ACAD_REACTORS
330
C
102
}
330
C
100
AcDbDictionary
281
     1
  3
Normal
350
F
100
AcDbDictionaryWithDefault
340
F
  0
DICTIONARY
  5
34
102
{ACAD_REACTORS
330
C
102
}
330
C
100
AcDbDictionary
  3
INDEXCTL
350
35
  3
SORTENTS
350
B5E
  0
DICTIONARY
  5
43
102
{ACAD_REACTORS
330
C
102
}
330
C
100
AcDbDictionary
  3
ACMSTDDICTIONARY
350
260
  0
DICTIONARY
  5
2B
102
{ACAD_REACTORS
330
C
102
}
330
C
100
AcDbDictionary
  3
ACMGSETTINGS
350
2C
  0
DICTIONARY
  5
6E
102
{ACAD_REACTORS
330
C
102
}
330
C
100
AcDbDictionary
  0
XRECORD
  5
E176
102
{ACAD_REACTORS
330
C
102
}
330
C
100
AcDbXrecord
  1
DWGPROPS COOKIE
  2

  3

  4

  6

  7

  8

  9

300
AmdtFileType=82
301
=
302
=
303
=
304
=
305
=
306
=
307
=
308
=
309
=
 40
2.237512037037037
 41
2452838.620506898
 42
2452950.902635162
  1

 90
        1
  0
DICTIONARY
  5
E183
102
{ACAD_REACTORS
330
C
102
}
330
C
100
AcDbDictionary
  3
TSTACKALIGN
350
E184
  3
TSTACKSIZE
350
E185
  3
HYPERLINKBASE
350
E186
  3
STYLESHEET
350
E187
  3
LAYOUTDICT
350
E188
  3
PLOTSETDICT
350
E189
  3
PLOTSTYLNAMDICT
350
E18A
  3
LWETCUNION
350
E18B
  3
INSUNITS
350
E18C
  3
CEPSNTYPE
350
E18D
  3
FINGERPRINTGUID
350
E18E
  3
VERSIONGUID
350
E18F
  3
PSVPSCALE
350
E190
  3
DIMSTYLEDATA
350
E191
  3
PUCSORTHOREF
350
E192
  3
PUCSORTHOVIEW
350
E193
  3
PUCSBASE
350
E194
  3
PUCSORGTOP
350
E195
  3
PUCSORGBOTTOM
350
E196
  3
PUCSORGLEFT
350
E197
  3
PUCSORGRIGHT
350
E198
  3
PUCSORGFRONT
350
E199
  3
PUCSORGBACK
350
E19A
  3
UCSORTHOREF
350
E19B
  3
UCSORTHOVIEW
350
E19C
  3
UCSBASE
350
E19D
  3
UCSORGTOP
350
E19E
  3
UCSORGBOTTOM
350
E19F
  3
UCSORGLEFT
350
E1A0
  3
UCSORGRIGHT
350
E1A1
  3
UCSORGFRONT
350
E1A2
  3
UCSORGBACK
350
E1A3
  0
DICTIONARY
  5
E178
102
{ACAD_REACTORS
330
74
102
}
330
74
100
AcDbDictionary
  3
*A1
350
E179
  0
XRECORD
  5
E1A6
102
{ACAD_REACTORS
330
74
102
}
330
74
100
AcDbXrecord
340
1F
  0
XRECORD
  5
E1A5
102
{ACAD_REACTORS
330
E1A4
102
}
330
E1A4
100
AcDbXrecord
340
1B
  0
MLINESTYLE
  5
18
102
{ACAD_REACTORS
330
17
102
}
330
17
100
AcDbMlineStyle
  2
STANDARD
 70
     0
  3

 62
   256
 51
90.0
 52
90.0
 71
     2
 49
0.5
 62
   256
  6
BYLAYER
 49
-0.5
 62
   256
  6
BYLAYER
  0
ACDBPLACEHOLDER
  5
F
102
{ACAD_REACTORS
330
E
102
}
330
E
100
AcDbPlaceHolder
280
     0
  0
DICTIONARYVAR
  5
35
102
{ACAD_REACTORS
330
34
102
}
330
34
100
DictionaryVariables
280
     0
  1
1
  0
DICTIONARYVAR
  5
B5E
102
{ACAD_REACTORS
330
34
102
}
330
34
100
DictionaryVariables
280
     0
  1
96
  0
DICTIONARY
  5
260
102
{ACAD_REACTORS
330
43
102
}
330
43
100
AcDbDictionary
  0
DICTIONARY
  5
2C
102
{ACAD_REACTORS
330
2B
102
}
330
2B
100
AcDbDictionary
  3
DWGSETTINGS
350
2D
  0
XRECORD
  5
E184
102
{ACAD_REACTORS
330
E183
102
}
330
E183
100
AcDbXrecord
 90
        1
  0
XRECORD
  5
E185
102
{ACAD_REACTORS
330
E183
102
}
330
E183
100
AcDbXrecord
 90
       70
  0
XRECORD
  5
E186
102
{ACAD_REACTORS
330
E183
102
}
330
E183
100
AcDbXrecord
  1

  0
XRECORD
  5
E187
102
{ACAD_REACTORS
330
E183
102
}
330
E183
100
AcDbXrecord
  1
ASAMI.ctb
  0
XRECORD
  5
E188
102
{ACAD_REACTORS
330
E183
102
}
330
E183
100
AcDbXrecord
340
1A
  0
XRECORD
  5
E189
102
{ACAD_REACTORS
330
E183
102
}
330
E183
100
AcDbXrecord
340
19
  0
XRECORD
  5
E18A
102
{ACAD_REACTORS
330
E183
102
}
330
E183
100
AcDbXrecord
340
E
  0
XRECORD
  5
E18B
102
{ACAD_REACTORS
330
E183
102
}
330
E183
100
AcDbXrecord
 90
    10781
  0
XRECORD
  5
E18C
102
{ACAD_REACTORS
330
E183
102
}
330
E183
100
AcDbXrecord
 90
        4
  0
XRECORD
  5
E18D
102
{ACAD_REACTORS
330
E183
102
}
330
E183
100
AcDbXrecord
 90
        0
  0
XRECORD
  5
E18E
102
{ACAD_REACTORS
330
E183
102
}
330
E183
100
AcDbXrecord
  1
{AFB28963-8C59-40AE-9337-C84526B81ACE}
  0
XRECORD
  5
E18F
102
{ACAD_REACTORS
330
E183
102
}
330
E183
100
AcDbXrecord
  1
{4B6117AE-B0C5-4174-862A-27B71090A26A}
  0
XRECORD
  5
E190
102
{ACAD_REACTORS
330
E183
102
}
330
E183
100
AcDbXrecord
 40
0.0
  0
XRECORD
  5
E191
102
{ACAD_REACTORS
330
E183
102
}
330
E183
100
AcDbXrecord
1000
DSTYLE
1002
{
1070
    79
 70
     2
1070
   341
340
59
1070
   342
340
59
1070
   371
 70
    -1
1070
   372
 70
    -1
1002
}
  0
XRECORD
  5
E192
102
{ACAD_REACTORS
330
E183
102
}
330
E183
100
AcDbXrecord
340
0
  0
XRECORD
  5
E193
102
{ACAD_REACTORS
330
E183
102
}
330
E183
100
AcDbXrecord
 70
     0
  0
XRECORD
  5
E194
102
{ACAD_REACTORS
330
E183
102
}
330
E183
100
AcDbXrecord
340
0
  0
XRECORD
  5
E195
102
{ACAD_REACTORS
330
E183
102
}
330
E183
100
AcDbXrecord
 10
0.0
 20
0.0
 30
0.0
  0
XRECORD
  5
E196
102
{ACAD_REACTORS
330
E183
102
}
330
E183
100
AcDbXrecord
 10
0.0
 20
0.0
 30
0.0
  0
XRECORD
  5
E197
102
{ACAD_REACTORS
330
E183
102
}
330
E183
100
AcDbXrecord
 10
0.0
 20
0.0
 30
0.0
  0
XRECORD
  5
E198
102
{ACAD_REACTORS
330
E183
102
}
330
E183
100
AcDbXrecord
 10
0.0
 20
0.0
 30
0.0
  0
XRECORD
  5
E199
102
{ACAD_REACTORS
330
E183
102
}
330
E183
100
AcDbXrecord
 10
0.0
 20
0.0
 30
0.0
  0
XRECORD
  5
E19A
102
{ACAD_REACTORS
330
E183
102
}
330
E183
100
AcDbXrecord
 10
0.0
 20
0.0
 30
0.0
  0
XRECORD
  5
E19B
102
{ACAD_REACTORS
330
E183
102
}
330
E183
100
AcDbXrecord
340
0
  0
XRECORD
  5
E19C
102
{ACAD_REACTORS
330
E183
102
}
330
E183
100
AcDbXrecord
 70
     0
  0
XRECORD
  5
E19D
102
{ACAD_REACTORS
330
E183
102
}
330
E183
100
AcDbXrecord
340
0
  0
XRECORD
  5
E19E
102
{ACAD_REACTORS
330
E183
102
}
330
E183
100
AcDbXrecord
 10
0.0
 20
0.0
 30
0.0
  0
XRECORD
  5
E19F
102
{ACAD_REACTORS
330
E183
102
}
330
E183
100
AcDbXrecord
 10
0.0
 20
0.0
 30
0.0
  0
XRECORD
  5
E1A0
102
{ACAD_REACTORS
330
E183
102
}
330
E183
100
AcDbXrecord
 10
0.0
 20
0.0
 30
0.0
  0
XRECORD
  5
E1A1
102
{ACAD_REACTORS
330
E183
102
}
330
E183
100
AcDbXrecord
 10
0.0
 20
0.0
 30
0.0
  0
XRECORD
  5
E1A2
102
{ACAD_REACTORS
330
E183
102
}
330
E183
100
AcDbXrecord
 10
0.0
 20
0.0
 30
0.0
  0
XRECORD
  5
E1A3
102
{ACAD_REACTORS
330
E183
102
}
330
E183
100
AcDbXrecord
 10
0.0
 20
0.0
 30
0.0
  0
LAYER_INDEX
  5
E179
102
{ACAD_REACTORS
330
E178
102
}
330
E178
100
AcDbIndex
 40
2453151.661055034
100
AcDbLayerIndex
  8
0
360
E17A
 90
        0
  8
AM_0
360
E17B
 90
       47
  8
AM_11
360
E17C
 90
        0
  8
AM_7
360
E17D
 90
        1
  8
AM_5
360
E17E
 90
       10
  8
Defpoints
360
E17F
 90
        0
  8
AM_6
360
E180
 90
        1
  8
AM_CL
360
E181
 90
        0
  0
XRECORD
  5
2D
102
{ACAD_REACTORS
330
2C
102
}
330
2C
100
AcDbXrecord
  1
VERSION
140
15.0
  1
PRODUCT
  2
AutoCAD Mechanical 2000
  0
IDBUFFER
  5
E17A
330
0
100
AcDbIdBuffer
  0
IDBUFFER
  5
E17B
330
0
100
AcDbIdBuffer
330
E103
330
E104
330
E105
330
E106
330
E108
330
E10A
330
E10B
330
E10C
330
E10D
330
E10E
330
E110
330
E112
330
E113
330
E114
330
E115
330
E116
330
E117
330
E118
330
E119
330
E11B
330
E11C
330
E11E
330
E11F
330
E120
330
E121
330
E122
330
E123
330
E124
330
E125
330
E126
330
E127
330
631C
330
631D
330
6343
330
6348
330
6349
330
634B
330
634C
330
63DB
330
647F
330
6CBA
330
6CBE
330
6CC0
330
6CC1
330
B156
330
B158
330
DEAB
  0
IDBUFFER
  5
E17C
330
0
100
AcDbIdBuffer
  0
IDBUFFER
  5
E17D
330
0
100
AcDbIdBuffer
330
6320
  0
IDBUFFER
  5
E17E
330
0
100
AcDbIdBuffer
330
634F
330
640B
330
6418
330
B7AC
330
E107
330
E109
330
E10F
330
E111
330
E11A
330
E11D
  0
IDBUFFER
  5
E17F
330
0
100
AcDbIdBuffer
  0
IDBUFFER
  5
E180
330
0
100
AcDbIdBuffer
330
C58
  0
IDBUFFER
  5
E181
330
0
100
AcDbIdBuffer
  0
ENDSEC
  0
EOF
