  0
SECTION
  2
HEADER
  9
$ACADVER
  1
AC1014
  9
$ACADMAINTVER
 70
     9
  9
$DWGCODEPAGE
  3
ANSI_932
  9
$INSBASE
 10
0.0
 20
0.0
 30
0.0
  9
$EXTMIN
 10
-41.85999987094024
 20
-10.80000042919937
 30
-0.00000001
  9
$EXTMAX
 10
5.818026077968632
 20
5.676036858657701
 30
0.00000001
  9
$LIMMIN
 10
-46.21458733153764
 20
-16.11712340512581
  9
$LIMMAX
 10
11.77263791077575
 20
10.28122633900932
  9
$ORTHOMODE
 70
     0
  9
$REGENMODE
 70
     1
  9
$FILLMODE
 70
     1
  9
$QTEXTMODE
 70
     0
  9
$MIRRTEXT
 70
     0
  9
$DRAGMODE
 70
     2
  9
$LTSCALE
 40
0.2
  9
$OSMODE
 70
    55
  9
$ATTMODE
 70
     1
  9
$TEXTSIZE
 40
2.5
  9
$TRACEWID
 40
1.0
  9
$TEXTSTYLE
  7
STANDARD
  9
$CLAYER
  8
AM_0
  9
$CELTYPE
  6
BYLAYER
  9
$CECOLOR
 62
   256
  9
$CELTSCALE
 40
1.0
  9
$DELOBJ
 70
     1
  9
$DISPSILH
 70
     0
  9
$DIMSCALE
 40
0.2
  9
$DIMASZ
 40
2.5
  9
$DIMEXO
 40
1.0
  9
$DIMDLI
 40
12.0
  9
$DIMRND
 40
0.0
  9
$DIMDLE
 40
0.0
  9
$DIMEXE
 40
1.0
  9
$DIMTP
 40
0.1
  9
$DIMTM
 40
0.1
  9
$DIMTXT
 40
3.2
  9
$DIMCEN
 40
0.0
  9
$DIMTSZ
 40
0.0
  9
$DIMTOL
 70
     0
  9
$DIMLIM
 70
     0
  9
$DIMTIH
 70
     0
  9
$DIMTOH
 70
     0
  9
$DIMSE1
 70
     0
  9
$DIMSE2
 70
     0
  9
$DIMTAD
 70
     3
  9
$DIMZIN
 70
     8
  9
$DIMBLK
  1
OPEN30
  9
$DIMASO
 70
     1
  9
$DIMSHO
 70
     1
  9
$DIMPOST
  1

  9
$DIMAPOST
  1
"
  9
$DIMALT
 70
     0
  9
$DIMALTD
 70
     2
  9
$DIMALTF
 40
0.0393701
  9
$DIMLFAC
 40
1.0
  9
$DIMTOFL
 70
     1
  9
$DIMTVP
 40
0.0
  9
$DIMTIX
 70
     0
  9
$DIMSOXD
 70
     0
  9
$DIMSAH
 70
     0
  9
$DIMBLK1
  1

  9
$DIMBLK2
  1

  9
$DIMSTYLE
  2
AM_JIS
  9
$DIMCLRD
 70
   256
  9
$DIMCLRE
 70
   256
  9
$DIMCLRT
 70
     2
  9
$DIMTFAC
 40
0.71
  9
$DIMGAP
 40
1.5
  9
$DIMJUST
 70
     0
  9
$DIMSD1
 70
     0
  9
$DIMSD2
 70
     0
  9
$DIMTOLJ
 70
     0
  9
$DIMTZIN
 70
     0
  9
$DIMALTZ
 70
     0
  9
$DIMALTTZ
 70
     0
  9
$DIMFIT
 70
     3
  9
$DIMUPT
 70
     0
  9
$DIMUNIT
 70
     2
  9
$DIMDEC
 70
     3
  9
$DIMTDEC
 70
     3
  9
$DIMALTU
 70
     2
  9
$DIMALTTD
 70
     2
  9
$DIMTXSTY
  7
ASAMI
  9
$DIMAUNIT
 70
     0
  9
$LUNITS
 70
     2
  9
$LUPREC
 70
     2
  9
$SKETCHINC
 40
1.0
  9
$FILLETRAD
 40
2.5
  9
$AUNITS
 70
     0
  9
$AUPREC
 70
     0
  9
$MENU
  1
.
  9
$ELEVATION
 40
0.0
  9
$PELEVATION
 40
0.0
  9
$THICKNESS
 40
0.0
  9
$LIMCHECK
 70
     0
  9
$BLIPMODE
 70
     0
  9
$CHAMFERA
 40
0.3
  9
$CHAMFERB
 40
0.3
  9
$CHAMFERC
 40
20.0
  9
$CHAMFERD
 40
0.0
  9
$SKPOLY
 70
     0
  9
$TDCREATE
 40
2452802.456869572
  9
$TDUPDATE
 40
2453151.590367824
  9
$TDINDWG
 40
0.1315483449
  9
$TDUSRTIMER
 40
0.1315483449
  9
$USRTIMER
 70
     1
  9
$ANGBASE
 50
0.0
  9
$ANGDIR
 70
     0
  9
$PDMODE
 70
     0
  9
$PDSIZE
 40
0.0
  9
$PLINEWID
 40
0.0
  9
$COORDS
 70
     1
  9
$SPLFRAME
 70
     0
  9
$SPLINETYPE
 70
     6
  9
$SPLINESEGS
 70
     8
  9
$ATTDIA
 70
     1
  9
$ATTREQ
 70
     1
  9
$HANDLING
 70
 12289
  9
$HANDSEED
  5
3E4B
  9
$SURFTAB1
 70
     6
  9
$SURFTAB2
 70
     6
  9
$SURFTYPE
 70
     6
  9
$SURFU
 70
     6
  9
$SURFV
 70
     6
  9
$UCSNAME
  2

  9
$UCSORG
 10
0.0
 20
0.0
 30
0.0
  9
$UCSXDIR
 10
1.0
 20
0.0
 30
0.0
  9
$UCSYDIR
 10
0.0
 20
1.0
 30
0.0
  9
$PUCSNAME
  2

  9
$PUCSORG
 10
0.0
 20
0.0
 30
0.0
  9
$PUCSXDIR
 10
1.0
 20
0.0
 30
0.0
  9
$PUCSYDIR
 10
0.0
 20
1.0
 30
0.0
  9
$USERI1
 70
     0
  9
$USERI2
 70
     0
  9
$USERI3
 70
     0
  9
$USERI4
 70
     0
  9
$USERI5
 70
     0
  9
$USERR1
 40
0.0
  9
$USERR2
 40
0.0
  9
$USERR3
 40
0.0
  9
$USERR4
 40
0.0
  9
$USERR5
 40
0.0
  9
$WORLDVIEW
 70
     1
  9
$SHADEDGE
 70
     3
  9
$SHADEDIF
 70
    70
  9
$TILEMODE
 70
     1
  9
$MAXACTVP
 70
    64
  9
$PINSBASE
 10
0.0
 20
0.0
 30
0.0
  9
$PLIMCHECK
 70
     0
  9
$PEXTMIN
 10
1.000000000000000E+20
 20
1.000000000000000E+20
 30
1.000000000000000E+20
  9
$PEXTMAX
 10
-1.000000000000000E+20
 20
-1.000000000000000E+20
 30
-1.000000000000000E+20
  9
$PLIMMIN
 10
0.0
 20
0.0
  9
$PLIMMAX
 10
841.0
 20
594.0
  9
$UNITMODE
 70
     0
  9
$VISRETAIN
 70
     1
  9
$PLINEGEN
 70
     0
  9
$PSLTSCALE
 70
     0
  9
$TREEDEPTH
 70
  3020
  9
$PICKSTYLE
 70
     0
  9
$CMLSTYLE
  2
STANDARD
  9
$CMLJUST
 70
     0
  9
$CMLSCALE
 40
20.0
  9
$PROXYGRAPHICS
 70
     1
  9
$MEASUREMENT
 70
     1
  0
ENDSEC
  0
SECTION
  2
CLASSES
  0
CLASS
  1
ACDBDICTIONARYWDFLT
  2
AcDbDictionaryWithDefault
  3
AutoCAD 2000
 90
        0
280
     0
281
     0
  0
CLASS
  1
ACDBPLACEHOLDER
  2
AcDbPlaceHolder
  3
AutoCAD 2000
 90
        0
280
     0
281
     0
  0
CLASS
  1
LAYOUT
  2
AcDbLayout
  3
AutoCAD 2000
 90
        0
280
     0
281
     0
  0
CLASS
  1
AMGSETTINGSOBJ
  2
AmgSettingsObj
  3
"AcadM|Product Description: AutoCAD Mechanical 2000|Company: Autodesk"
 90
        0
280
     0
281
     0
  0
CLASS
  1
ACME_DOCUMENT
  2
AcMeDbDoc
  3
AcMeServices
 90
        0
280
     0
281
     0
  0
CLASS
  1
ACMESCOPE
  2
AcMeScope
  3
AcMeServices
 90
        0
280
     0
281
     0
  0
CLASS
  1
ACMECOMMANDHISTORY
  2
AcMeCommandHistory
  3
AcMeServices
 90
        0
280
     0
281
     0
  0
CLASS
  1
DICTIONARYVAR
  2
AcDbDictionaryVar
  3
AutoCAD 2000
 90
        0
280
     0
281
     0
  0
CLASS
  1
ACIMSYSVARMAN
  2
AcImSysVarManager
  3
AcMeServices
 90
        0
280
     0
281
     0
  0
CLASS
  1
ACIMREALSYSVAR
  2
AcImRealSysVar
  3
AcMeServices
 90
        0
280
     0
281
     0
  0
CLASS
  1
ACIMINTSYSVAR
  2
AcImIntSysVar
  3
AcMeServices
 90
        0
280
     0
281
     0
  0
CLASS
  1
ACMEDRAWINGMAN
  2
AcMeDrawingMan
  3
AcMeServices
 90
        0
280
     0
281
     0
  0
CLASS
  1
ACMEVIEW
  2
AcMeView
  3
AcMeServices
 90
        0
280
     0
281
     0
  0
CLASS
  1
ACDBENTITYCACHE
  2
AcMeEntityCache
  3
AcMeServices
 90
        0
280
     0
281
     0
  0
CLASS
  1
GSMANAGER
  2
AcMeGSManager
  3
AcMeServices
 90
        0
280
     0
281
     0
  0
CLASS
  1
AmdtInternalReactor
  2
AmdtInternalReactor
  3
AcMeServices
 90
        0
280
     0
281
     0
  0
CLASS
  1
ACMESTATEMGR
  2
AcMeStateMgr
  3
AcMeServices
 90
        0
280
     0
281
     0
  0
CLASS
  1
ACME_DATABASE
  2
AcMeDbDatabase
  3
AcMeServices
 90
        0
280
     0
281
     0
  0
CLASS
  1
ACRFINSADJUSTERMGR
  2
AcRfInsAdjusterMgr
  3
AcMeServices
 90
        0
280
     0
281
     0
  0
CLASS
  1
ACMDATADICTIONARY
  2
AcmDataDictionary
  3
"AcmSymBB|Product Description: AutoCAD Mechanical 2000|Company: Autodesk"
 90
        0
280
     0
281
     0
  0
CLASS
  1
ACMDATAENTRYBLOCK
  2
AcmDataEntryBlock
  3
"AcmSymBB|Product Description: AutoCAD Mechanical 2000|Company: Autodesk"
 90
        0
280
     0
281
     0
  0
CLASS
  1
AMGOBJPROPCFG
  2
AmgObjPropCfg
  3
"AmgLay|Product Description: AutoCAD Mechanical 2000|Company: Autodesk"
 90
        1
280
     0
281
     0
  0
CLASS
  1
ACAMGFILTERDAT
  2
AcAmgFilterDat
  3
"AcadM|Product Description: AutoCAD Mechanical 2000|Company: Autodesk"
 90
        0
280
     0
281
     0
  0
CLASS
  1
LAYER_INDEX
  2
AcDbLayerIndex
  3
AutoCAD 2000
 90
        0
280
     0
281
     0
  0
CLASS
  1
IDBUFFER
  2
AcDbIdBuffer
  3
AutoCAD 2000
 90
        0
280
     0
281
     0
  0
CLASS
  1
ACIMSTRSYSVAR
  2
AcImStrSysVar
  3
AcMeServices
 90
        0
280
     0
281
     0
  0
CLASS
  1
ACMSTANDARDJIS
  2
AcmStandardJIS
  3
"AcmSymBB|Product Description: AutoCAD Mechanical 2000|Company: Autodesk"
 90
        0
280
     0
281
     0
  0
CLASS
  1
ACMSURFSTANDARDJIS
  2
AcmSurfTextStdJIS
  3
"AcmSymBB|Product Description: AutoCAD Mechanical 2000|Company: Autodesk"
 90
        0
280
     0
281
     0
  0
CLASS
  1
ACMFCFSTANDARDJIS
  2
AcmFCFStdJIS
  3
"AcmSymBB|Product Description: AutoCAD Mechanical 2000|Company: Autodesk"
 90
        0
280
     0
281
     0
  0
CLASS
  1
ACMWELDSTANDARDJIS
  2
AcmWeldingStdJIS
  3
"AcmSymBB|Product Description: AutoCAD Mechanical 2000|Company: Autodesk"
 90
        0
280
     0
281
     0
  0
CLASS
  1
ACMIDSTANDARDJIS
  2
AcmIdStdJIS
  3
"AcmSymBB|Product Description: AutoCAD Mechanical 2000|Company: Autodesk"
 90
        0
280
     0
281
     0
  0
CLASS
  1
ACMDATUMSTANDARDJIS
  2
AcmDatumStdJIS
  3
"AcmSymBB|Product Description: AutoCAD Mechanical 2000|Company: Autodesk"
 90
        0
280
     0
281
     0
  0
CLASS
  1
ACMBOMSTANDARDJIS
  2
AcmBOMStdJIS
  3
"AcmSymBB|Product Description: AutoCAD Mechanical 2000|Company: Autodesk"
 90
        0
280
     0
281
     0
  0
CLASS
  1
ACMSTANDARDANSI
  2
AcmStandardANSI
  3
"AcmSymBB|Product Description: AutoCAD Mechanical 2000|Company: Autodesk"
 90
        0
280
     0
281
     0
  0
CLASS
  1
ACMSURFSTANDARDANSI
  2
AcmSurfTextStdANSI
  3
"AcmSymBB|Product Description: AutoCAD Mechanical 2000|Company: Autodesk"
 90
        0
280
     0
281
     0
  0
CLASS
  1
ACMFCFSTANDARDANSI
  2
AcmFCFStdANSI
  3
"AcmSymBB|Product Description: AutoCAD Mechanical 2000|Company: Autodesk"
 90
        0
280
     0
281
     0
  0
CLASS
  1
ACMWELDSTANDARDANSI
  2
AcmWeldingStdANSI
  3
"AcmSymBB|Product Description: AutoCAD Mechanical 2000|Company: Autodesk"
 90
        0
280
     0
281
     0
  0
CLASS
  1
ACMIDSTANDARDANSI
  2
AcmIdStdANSI
  3
"AcmSymBB|Product Description: AutoCAD Mechanical 2000|Company: Autodesk"
 90
        0
280
     0
281
     0
  0
CLASS
  1
ACMDATUMSTANDARDANSI
  2
AcmDatumStdANSI
  3
"AcmSymBB|Product Description: AutoCAD Mechanical 2000|Company: Autodesk"
 90
        0
280
     0
281
     0
  0
CLASS
  1
ACMBOMSTANDARDANSI
  2
AcmBOMStdANSI
  3
"AcmSymBB|Product Description: AutoCAD Mechanical 2000|Company: Autodesk"
 90
        0
280
     0
281
     0
  0
CLASS
  1
ACMSTANDARDBSI
  2
AcmStandardBSI
  3
"AcmSymBB|Product Description: AutoCAD Mechanical 2000|Company: Autodesk"
 90
        0
280
     0
281
     0
  0
CLASS
  1
ACMSURFSTANDARDBSI
  2
AcmSurfTextStdBSI
  3
"AcmSymBB|Product Description: AutoCAD Mechanical 2000|Company: Autodesk"
 90
        0
280
     0
281
     0
  0
CLASS
  1
ACMFCFSTANDARDBSI
  2
AcmFCFStdBSI
  3
"AcmSymBB|Product Description: AutoCAD Mechanical 2000|Company: Autodesk"
 90
        0
280
     0
281
     0
  0
CLASS
  1
ACMWELDSTANDARDBSI
  2
AcmWeldingStdBSI
  3
"AcmSymBB|Product Description: AutoCAD Mechanical 2000|Company: Autodesk"
 90
        0
280
     0
281
     0
  0
CLASS
  1
ACMIDSTANDARDBSI
  2
AcmIdStdBSI
  3
"AcmSymBB|Product Description: AutoCAD Mechanical 2000|Company: Autodesk"
 90
        0
280
     0
281
     0
  0
CLASS
  1
ACMDATUMSTANDARDBSI
  2
AcmDatumStdBSI
  3
"AcmSymBB|Product Description: AutoCAD Mechanical 2000|Company: Autodesk"
 90
        0
280
     0
281
     0
  0
CLASS
  1
ACMBOMSTANDARDBSI
  2
AcmBOMStdBSI
  3
"AcmSymBB|Product Description: AutoCAD Mechanical 2000|Company: Autodesk"
 90
        0
280
     0
281
     0
  0
CLASS
  1
LONG_TRANSACTION
  2
AcDbLongTransaction
  3
AutoCAD 2000
 90
        0
280
     0
281
     0
  0
CLASS
  1
LWPOLYLINE
  2
AcDbPolyline
  3
AutoCAD 2000
 90
        0
280
     0
281
     1
  0
CLASS
  1
HATCH
  2
AcDbHatch
  3
AutoCAD 2000
 90
        0
280
     0
281
     1
  0
CLASS
  1
XRECORD
  2
AcDbXrecord
  3
AutoCAD 2000
 90
        0
280
     0
281
     0
  0
ENDSEC
  0
SECTION
  2
TABLES
  0
TABLE
  2
VPORT
  5
8
330
0
100
AcDbSymbolTable
 70
     3
  0
VPORT
  5
3E0A
330
8
100
AcDbSymbolTableRecord
100
AcDbViewportTableRecord
  2
*ACTIVE
 70
     0
 10
0.0
 20
0.0
 11
1.0
 21
1.0
 12
-15.58515553417819
 22
-1.118230609503775
 13
0.0
 23
0.0
 14
2.5
 24
2.5
 15
10.0
 25
10.0
 16
0.0
 26
0.0
 36
1.0
 17
0.0
 27
0.0
 37
0.0
 40
41.30820214610021
 41
1.56570841889117
 42
50.0
 43
0.0
 44
0.0
 50
0.0
 51
0.0
 71
     0
 72
   100
 73
     1
 74
     3
 75
     0
 76
     0
 77
     0
 78
     0
  0
ENDTAB
  0
TABLE
  2
LTYPE
  5
5
330
0
100
AcDbSymbolTable
 70
    10
  0
LTYPE
  5
14
330
5
100
AcDbSymbolTableRecord
100
AcDbLinetypeTableRecord
  2
BYBLOCK
 70
     0
  3

 72
    65
 73
     0
 40
0.0
  0
LTYPE
  5
15
330
5
100
AcDbSymbolTableRecord
100
AcDbLinetypeTableRecord
  2
BYLAYER
 70
     0
  3

 72
    65
 73
     0
 40
0.0
  0
LTYPE
  5
16
330
5
100
AcDbSymbolTableRecord
100
AcDbLinetypeTableRecord
  2
CONTINUOUS
 70
     0
  3
Solid line
 72
    65
 73
     0
 40
0.0
  0
LTYPE
  5
4B
330
5
100
AcDbSymbolTableRecord
100
AcDbLinetypeTableRecord
  2
AM_ISO02W050
 70
     0
  3
__ __ __ __ __ __ __ __ __ __ __ __ __ __ __
 72
    65
 73
     2
 40
7.5
 49
6.0
 74
     0
 49
-1.5
 74
     0
  0
LTYPE
  5
4C
330
5
100
AcDbSymbolTableRecord
100
AcDbLinetypeTableRecord
  2
AM_ISO08W050
 70
     0
  3
____ . ____ . ____ . ____ . ____ . ____ . ____
 72
    65
 73
     4
 40
18.0
 49
12.0
 74
     0
 49
-1.5
 74
     0
 49
3.0
 74
     0
 49
-1.5
 74
     0
  0
LTYPE
  5
4D
330
5
100
AcDbSymbolTableRecord
100
AcDbLinetypeTableRecord
  2
AM_ISO09W050
 70
     0
  3
_____ . . _____ . . _____ . . ____ .. ____
 72
    65
 73
     6
 40
22.5
 49
12.0
 74
     0
 49
-1.5
 74
     0
 49
3.0
 74
     0
 49
-1.5
 74
     0
 49
3.0
 74
     0
 49
-1.5
 74
     0
  0
LTYPE
  5
4E
330
5
100
AcDbSymbolTableRecord
100
AcDbLinetypeTableRecord
  2
AMCONSTR
 70
     0
  3
_______________________
 72
    65
 73
     2
 40
9999.0
 49
9999.0
 74
     0
 49
0.0
 74
     0
  0
LTYPE
  5
4F
330
5
100
AcDbSymbolTableRecord
100
AcDbLinetypeTableRecord
  2
AM_ISO02W050X2
 70
     0
  3
 _ _ _ _ _ _ _ _ _ _ _ _
 72
    65
 73
     2
 40
3.75
 49
3.0
 74
     0
 49
-0.75
 74
     0
  0
LTYPE
  5
50
330
5
100
AcDbSymbolTableRecord
100
AcDbLinetypeTableRecord
  2
AM_ISO08W050X2
 70
     0
  3
__ . __ . __ . __ . __ . __
 72
    65
 73
     4
 40
9.0
 49
6.0
 74
     0
 49
-0.75
 74
     0
 49
1.5
 74
     0
 49
-0.75
 74
     0
  0
LTYPE
  5
53
330
5
100
AcDbSymbolTableRecord
100
AcDbLinetypeTableRecord
  2
AMZIGZAG
 70
     0
  3
/\/-/\/-/\/-/\/-/\/-/\/
 72
    65
 73
     2
 40
11.00009999999999
 49
0.0001
 74
     4
 75
   135
340
52
 46
0.04
 50
0.0
 44
0.0
 45
0.0
 49
-11.0
 74
     0
  0
LTYPE
  5
166
330
5
100
AcDbSymbolTableRecord
100
AcDbLinetypeTableRecord
  2
ACJISTGL
 70
     0
  3
_ _ _ _ _
 72
    65
 73
     2
 40
3.0
 49
2.0
 74
     0
 49
-1.0
 74
     0
  0
LTYPE
  5
26A
330
5
100
AcDbSymbolTableRecord
100
AcDbLinetypeTableRecord
  2
ACJISTGB
 70
     0
  3
__ . . __ . .
 72
    65
 73
     6
 40
9.0
 49
4.0
 74
     0
 49
-1.0
 74
     0
 49
1.0
 74
     0
 49
-1.0
 74
     0
 49
1.0
 74
     0
 49
-1.0
 74
     0
  0
ENDTAB
  0
TABLE
  2
LAYER
  5
2
330
0
100
AcDbSymbolTable
 70
     8
  0
LAYER
  5
10
330
2
100
AcDbSymbolTableRecord
100
AcDbLayerTableRecord
  2
0
 70
     0
 62
     7
  6
CONTINUOUS
  0
LAYER
  5
3F9
330
2
100
AcDbSymbolTableRecord
100
AcDbLayerTableRecord
  2
AM_0
 70
     0
 62
     7
  6
CONTINUOUS
  0
LAYER
  5
BA4
330
2
100
AcDbSymbolTableRecord
100
AcDbLayerTableRecord
  2
AM_11
 70
     0
 62
     3
  6
AM_ISO09W050
  0
LAYER
  5
E2D
330
2
100
AcDbSymbolTableRecord
100
AcDbLayerTableRecord
  2
AM_7
 70
     0
 62
     4
  6
AM_ISO08W050
  0
LAYER
  5
13D6
330
2
100
AcDbSymbolTableRecord
100
AcDbLayerTableRecord
  2
AM_5
 70
     0
 62
     3
  6
CONTINUOUS
  0
LAYER
  5
1894
330
2
100
AcDbSymbolTableRecord
100
AcDbLayerTableRecord
  2
DEFPOINTS
 70
     0
 62
     7
  6
CONTINUOUS
  0
LAYER
  5
2277
330
2
100
AcDbSymbolTableRecord
100
AcDbLayerTableRecord
  2
AM_6
 70
     0
 62
     2
  6
CONTINUOUS
  0
LAYER
  5
3813
330
2
100
AcDbSymbolTableRecord
100
AcDbLayerTableRecord
  2
AM_CL
 70
     0
 62
     1
  6
AMCONSTR
  0
ENDTAB
  0
TABLE
  2
STYLE
  5
3
330
0
100
AcDbSymbolTable
 70
     5
  0
STYLE
  5
11
330
3
100
AcDbSymbolTableRecord
100
AcDbTextStyleTableRecord
  2
STANDARD
 70
     0
 40
0.0
 41
1.0
 50
0.0
 71
     0
 42
2.5
  3
simplex.shx
  4
EXTFONT.SHX
  0
STYLE
  5
52
330
3
100
AcDbSymbolTableRecord
100
AcDbTextStyleTableRecord
  2

 70
     1
 40
0.0
 41
1.0
 50
0.0
 71
     0
 42
2.5
  3
ltypeshp.shx
  4

  0
STYLE
  5
6B
330
3
100
AcDbSymbolTableRecord
100
AcDbTextStyleTableRecord
  2
ASAMI
 70
     0
 40
0.0
 41
1.0
 50
0.0
 71
     0
 42
2.5
  3
simplex.shx
  4
EXTFONT.SHX
  0
STYLE
  5
262
330
3
100
AcDbSymbolTableRecord
100
AcDbTextStyleTableRecord
  2
ACJISTS
 70
     0
 40
1.0
 41
1.0
 50
0.0
 71
     0
 42
2.5
  3
simplex.shx
  4
bigfont.shx
  0
STYLE
  5
269
330
3
100
AcDbSymbolTableRecord
100
AcDbTextStyleTableRecord
  2
ACJISGDT
 70
     0
 40
0.0
 41
1.0
 50
0.0
 71
     0
 42
2.5
  3
amgdtans.shx
  4

  0
ENDTAB
  0
TABLE
  2
VIEW
  5
6
330
0
100
AcDbSymbolTable
 70
     0
  0
ENDTAB
  0
TABLE
  2
UCS
  5
7
330
0
100
AcDbSymbolTable
 70
     0
  0
ENDTAB
  0
TABLE
  2
APPID
  5
9
330
0
100
AcDbSymbolTable
 70
    14
  0
APPID
  5
12
330
9
100
AcDbSymbolTableRecord
100
AcDbRegAppTableRecord
  2
ACAD
 70
     0
  0
APPID
  5
30
330
9
100
AcDbSymbolTableRecord
100
AcDbRegAppTableRecord
  2
MCAD_NO_VIS
 70
     0
  0
APPID
  5
31
330
9
100
AcDbSymbolTableRecord
100
AcDbRegAppTableRecord
  2
ACAD_TEMP_GRAPHIC
 70
     0
  0
APPID
  5
2C2
330
9
100
AcDbSymbolTableRecord
100
AcDbRegAppTableRecord
  2
GENIUS_GENDTOL_13
 70
     0
  0
APPID
  5
339
330
9
100
AcDbSymbolTableRecord
100
AcDbRegAppTableRecord
  2
GENIUS_GENODEF_13
 70
     0
  0
APPID
  5
33A
330
9
100
AcDbSymbolTableRecord
100
AcDbRegAppTableRecord
  2
GENIUS_GENOBJ-N-RSBK_13
 70
     0
  0
APPID
  5
33B
330
9
100
AcDbSymbolTableRecord
100
AcDbRegAppTableRecord
  2
GENIUS_GENOBJ-N-LIB_13
 70
     0
  0
APPID
  5
33C
330
9
100
AcDbSymbolTableRecord
100
AcDbRegAppTableRecord
  2
GENIUS_GENSCALE_13
 70
     0
  0
APPID
  5
378
330
9
100
AcDbSymbolTableRecord
100
AcDbRegAppTableRecord
  2
GENIUS_GENDIMSH_14
 70
     0
  0
APPID
  5
BA6
330
9
100
AcDbSymbolTableRecord
100
AcDbRegAppTableRecord
  2
GENIUS_GENOBJ-N-CEN_13
 70
     0
  0
APPID
  5
BA7
330
9
100
AcDbSymbolTableRecord
100
AcDbRegAppTableRecord
  2
GENIUS_GENFIL_13
 70
     0
  0
APPID
  5
BA8
330
9
100
AcDbSymbolTableRecord
100
AcDbRegAppTableRecord
  2
GENIUS_GENOBJ-N-CHA_13
 70
     0
  0
APPID
  5
D04
330
9
100
AcDbSymbolTableRecord
100
AcDbRegAppTableRecord
  2
GENIUS_GENREC_14
 70
     0
  0
APPID
  5
D05
330
9
100
AcDbSymbolTableRecord
100
AcDbRegAppTableRecord
  2
GENIUS_GENOBJ-N-REC_13
 70
     0
  0
ENDTAB
  0
TABLE
  2
DIMSTYLE
  5
A
330
0
100
AcDbSymbolTable
 70
     9
  0
DIMSTYLE
105
58
330
A
100
AcDbSymbolTableRecord
100
AcDbDimStyleTableRecord
  2
AM_JIS
 70
     0
  3

  4
"
  5
OPEN30
  6

  7

 40
0.2
 41
2.5
 42
1.0
 43
12.0
 44
1.0
 45
0.0
 46
0.0
 47
0.1
 48
0.1
140
3.2
141
0.0
142
0.0
143
0.0393701
144
1.0
145
0.0
146
0.71
147
1.5
 71
     0
 72
     0
 73
     0
 74
     0
 75
     0
 76
     0
 77
     3
 78
     8
170
     0
171
     2
172
     1
173
     0
174
     0
175
     0
176
   256
177
   256
178
     2
270
     2
271
     3
272
     3
273
     2
274
     2
340
6B
275
     0
280
     0
281
     0
282
     0
283
     0
284
     0
285
     0
286
     0
287
     3
288
     0
  0
DIMSTYLE
105
5F
330
A
100
AcDbSymbolTableRecord
100
AcDbDimStyleTableRecord
  2
AM_JIS$3
 70
     0
  3

  4
"
  5
OPEN30
  6

  7

 40
0.2
 41
2.5
 42
1.0
 43
10.0
 44
1.0
 45
0.0
 46
0.0
 47
0.1
 48
0.1
140
3.2
141
0.0
142
0.0
143
0.0393701
144
1.0
145
0.0
146
0.71
147
1.5
 71
     0
 72
     0
 73
     0
 74
     1
 75
     0
 76
     0
 77
     3
 78
     8
170
     0
171
     2
172
     0
173
     0
174
     0
175
     0
176
   256
177
   256
178
     2
270
     2
271
     2
272
     3
273
     2
274
     2
340
6B
275
     0
280
     0
281
     0
282
     0
283
     0
284
     0
285
     0
286
     0
287
     0
288
     1
  0
DIMSTYLE
105
60
330
A
100
AcDbSymbolTableRecord
100
AcDbDimStyleTableRecord
  2
AM_JIS$4
 70
     0
  3

  4
"
  5
OPEN30
  6

  7

 40
0.2
 41
2.5
 42
1.0
 43
10.0
 44
1.0
 45
0.0
 46
0.0
 47
0.1
 48
0.1
140
3.2
141
0.0
142
0.0
143
0.0393701
144
1.0
145
0.0
146
0.71
147
1.5
 71
     0
 72
     0
 73
     0
 74
     1
 75
     0
 76
     0
 77
     3
 78
     8
170
     0
171
     2
172
     0
173
     0
174
     0
175
     0
176
   256
177
   256
178
     2
270
     2
271
     2
272
     3
273
     2
274
     2
340
6B
275
     0
280
     0
281
     0
282
     0
283
     0
284
     0
285
     0
286
     0
287
     0
288
     1
  0
DIMSTYLE
105
61
330
A
100
AcDbSymbolTableRecord
100
AcDbDimStyleTableRecord
  2
AM_JIS$6
 70
     0
  3

  4
"
  5
OPEN30
  6

  7

 40
0.2
 41
2.5
 42
1.0
 43
10.0
 44
1.0
 45
0.0
 46
0.0
 47
0.1
 48
0.1
140
3.2
141
0.0
142
0.0
143
0.0393701
144
1.0
145
0.0
146
0.71
147
1.5
 71
     0
 72
     0
 73
     0
 74
     0
 75
     0
 76
     0
 77
     0
 78
     8
170
     0
171
     2
172
     1
173
     0
174
     0
175
     0
176
   256
177
   256
178
     2
270
     2
271
     2
272
     2
273
     2
274
     2
340
6B
275
     0
280
     0
281
     0
282
     0
283
     0
284
     0
285
     0
286
     0
287
     3
288
     0
  0
DIMSTYLE
105
62
330
A
100
AcDbSymbolTableRecord
100
AcDbDimStyleTableRecord
  2
AM_JIS$7
 70
     0
  3

  4
"
  5
OPEN30
  6

  7

 40
0.2
 41
2.5
 42
1.0
 43
10.0
 44
1.0
 45
0.0
 46
0.0
 47
0.1
 48
0.1
140
3.2
141
0.0
142
0.0
143
0.0393701
144
1.0
145
0.0
146
0.71
147
1.5
 71
     0
 72
     0
 73
     0
 74
     0
 75
     0
 76
     0
 77
     3
 78
     8
170
     0
171
     2
172
     1
173
     0
174
     0
175
     0
176
   256
177
   256
178
     2
270
     2
271
     2
272
     3
273
     2
274
     2
340
6B
275
     0
280
     0
281
     0
282
     0
283
     0
284
     0
285
     0
286
     0
287
     3
288
     0
  0
DIMSTYLE
105
63
330
A
100
AcDbSymbolTableRecord
100
AcDbDimStyleTableRecord
  2
AM_JIS$SF
 70
     0
  3

  4
"
  5
OPEN30
  6

  7

 40
0.2
 41
2.5
 42
1.0
 43
10.0
 44
1.0
 45
0.0
 46
0.0
 47
0.1
 48
0.1
140
3.2
141
0.0
142
0.0
143
0.0393701
144
1.0
145
0.0
146
0.71
147
1.5
 71
     0
 72
     0
 73
     0
 74
     0
 75
     1
 76
     1
 77
     3
 78
     8
170
     0
171
     2
172
     1
173
     0
174
     0
175
     0
176
   256
177
   256
178
     2
270
     2
271
     2
272
     2
273
     2
274
     2
340
6B
275
     0
280
     0
281
     0
282
     0
283
     0
284
     0
285
     0
286
     0
287
     3
288
     0
  0
DIMSTYLE
105
68
330
A
100
AcDbSymbolTableRecord
100
AcDbDimStyleTableRecord
  2
AM_JIS$SH
 70
     0
  3

  4
"
  5

  6
GENAXEH
  7
OPEN30
 40
0.2
 41
2.5
 42
1.0
 43
10.0
 44
1.0
 45
0.0
 46
0.0
 47
0.1
 48
0.1
140
3.2
141
0.0
142
0.0
143
0.0393701
144
2.0
145
0.0
146
0.71
147
1.5
 71
     0
 72
     0
 73
     0
 74
     0
 75
     1
 76
     1
 77
     3
 78
     8
170
     0
171
     2
172
     1
173
     1
174
     0
175
     0
176
   256
177
   256
178
     2
270
     2
271
     2
272
     2
273
     2
274
     2
340
6B
275
     0
280
     0
281
     0
282
     0
283
     0
284
     0
285
     0
286
     0
287
     3
288
     0
  0
DIMSTYLE
105
B34
102
{ACAD_REACTORS
330
271C
330
2753
330
3987
102
}
330
A
100
AcDbSymbolTableRecord
100
AcDbDimStyleTableRecord
  2
AM_JIS$2
 70
     0
  3

  4
"
  5
OPEN30
  6

  7

 40
0.2
 41
2.5
 42
1.0
 43
12.0
 44
1.0
 45
0.0
 46
0.0
 47
0.1
 48
0.1
140
3.2
141
0.0
142
0.0
143
0.0393701
144
1.0
145
0.0
146
0.71
147
1.5
 71
     0
 72
     0
 73
     0
 74
     0
 75
     0
 76
     0
 77
     3
 78
     8
170
     0
171
     2
172
     1
173
     0
174
     0
175
     0
176
   256
177
   256
178
     2
270
     2
271
     3
272
     3
273
     2
274
     2
340
6B
275
     0
280
     0
281
     0
282
     0
283
     0
284
     0
285
     0
286
     0
287
     3
288
     0
  0
DIMSTYLE
105
BA5
102
{ACAD_REACTORS
330
2716
330
2703
330
2713
330
2702
330
274B
330
3B1F
102
}
330
A
100
AcDbSymbolTableRecord
100
AcDbDimStyleTableRecord
  2
AM_JIS$0
 70
     0
  3

  4
"
  5
OPEN30
  6

  7

 40
0.2
 41
2.5
 42
0.0
 43
10.0
 44
1.0
 45
0.0
 46
0.0
 47
0.1
 48
0.1000000001
140
3.799999999999999
141
0.0
142
0.0
143
0.0393701
144
1.0
145
0.0
146
0.71
147
1.5
 71
     0
 72
     0
 73
     0
 74
     0
 75
     0
 76
     0
 77
     3
 78
     1
170
     0
171
     2
172
     1
173
     0
174
     0
175
     0
176
     3
177
     3
178
     2
270
     2
271
     2
272
     2
273
     2
274
     2
340
11
275
     1
280
     0
281
     0
282
     0
283
     0
284
     8
285
     0
286
     0
287
     0
288
     0
  0
ENDTAB
  0
TABLE
  2
BLOCK_RECORD
  5
1
330
0
100
AcDbSymbolTable
 70
    14
  0
BLOCK_RECORD
  5
1F
102
{ACAD_XDICTIONARY
360
74
102
}
330
1
100
AcDbSymbolTableRecord
100
AcDbBlockTableRecord
  2
*MODEL_SPACE
  0
BLOCK_RECORD
  5
101
102
{ACAD_XDICTIONARY
360
3E33
102
}
330
1
100
AcDbSymbolTableRecord
100
AcDbBlockTableRecord
  2
*PAPER_SPACE
  0
BLOCK_RECORD
  5
59
330
1
100
AcDbSymbolTableRecord
100
AcDbBlockTableRecord
  2
_OPEN30
  0
BLOCK_RECORD
  5
64
330
1
100
AcDbSymbolTableRecord
100
AcDbBlockTableRecord
  2
GENAXEH
  0
BLOCK_RECORD
  5
2754
330
1
100
AcDbSymbolTableRecord
100
AcDbBlockTableRecord
  2
*D5
  0
BLOCK_RECORD
  5
2760
330
1
100
AcDbSymbolTableRecord
100
AcDbBlockTableRecord
  2
*D6
  0
BLOCK_RECORD
  5
276C
330
1
100
AcDbSymbolTableRecord
100
AcDbBlockTableRecord
  2
*D7
  0
BLOCK_RECORD
  5
2778
330
1
100
AcDbSymbolTableRecord
100
AcDbBlockTableRecord
  2
*D8
  0
BLOCK_RECORD
  5
27A4
330
1
100
AcDbSymbolTableRecord
100
AcDbBlockTableRecord
  2
*D9
  0
BLOCK_RECORD
  5
27B0
330
1
100
AcDbSymbolTableRecord
100
AcDbBlockTableRecord
  2
*D10
  0
BLOCK_RECORD
  5
27BE
330
1
100
AcDbSymbolTableRecord
100
AcDbBlockTableRecord
  2
*D11
  0
BLOCK_RECORD
  5
3988
330
1
100
AcDbSymbolTableRecord
100
AcDbBlockTableRecord
  2
*D12
  0
BLOCK_RECORD
  5
3B20
330
1
100
AcDbSymbolTableRecord
100
AcDbBlockTableRecord
  2
*D13
  0
ENDTAB
  0
ENDSEC
  0
SECTION
  2
BLOCKS
  0
BLOCK
  5
20
330
1F
100
AcDbEntity
  8
0
100
AcDbBlockBegin
  2
*MODEL_SPACE
 70
     0
 10
0.0
 20
0.0
 30
0.0
  3
*MODEL_SPACE
  1

  0
ENDBLK
  5
21
330
1F
100
AcDbEntity
  8
0
100
AcDbBlockEnd
  0
BLOCK
  5
103
330
101
100
AcDbEntity
 67
     1
  8
0
100
AcDbBlockBegin
  2
*PAPER_SPACE
 70
     0
 10
0.0
 20
0.0
 30
0.0
  3
*PAPER_SPACE
  1

  0
ENDBLK
  5
104
330
101
100
AcDbEntity
 67
     1
  8
0
100
AcDbBlockEnd
  0
BLOCK
  5
5D
330
59
100
AcDbEntity
  8
0
100
AcDbBlockBegin
  2
_OPEN30
 70
     0
 10
0.0
 20
0.0
 30
0.0
  3
_OPEN30
  1

  0
LINE
  5
5A
330
59
100
AcDbEntity
  8
0
 62
     0
100
AcDbLine
 10
-1.0
 20
0.26794919
 30
0.0
 11
0.0
 21
0.0
 31
0.0
  0
LINE
  5
5B
330
59
100
AcDbEntity
  8
0
 62
     0
100
AcDbLine
 10
0.0
 20
0.0
 30
0.0
 11
-1.0
 21
-0.26794919
 31
0.0
  0
LINE
  5
5C
330
59
100
AcDbEntity
  8
0
 62
     0
100
AcDbLine
 10
0.0
 20
0.0
 30
0.0
 11
-1.0
 21
0.0
 31
0.0
  0
ENDBLK
  5
5E
330
59
100
AcDbEntity
  8
0
100
AcDbBlockEnd
  0
BLOCK
  5
66
330
64
100
AcDbEntity
  8
0
100
AcDbBlockBegin
  2
GENAXEH
 70
     0
 10
0.0
 20
0.0
 30
0.0
  3
GENAXEH
  1

  0
LINE
  5
65
330
64
100
AcDbEntity
  8
0
100
AcDbLine
 10
-1.0
 20
0.0
 30
0.0
 11
1.0
 21
0.0
 31
0.0
  0
ENDBLK
  5
67
330
64
100
AcDbEntity
  8
0
100
AcDbBlockEnd
  0
BLOCK
  5
275E
330
2754
100
AcDbEntity
  8
0
100
AcDbBlockBegin
  2
*D5
 70
     1
 10
0.0
 20
0.0
 30
0.0
  3
*D5
  1

  0
LINE
  5
3CFF
330
2754
100
AcDbEntity
  8
AM_5
 62
     3
100
AcDbLine
 10
-37.00000015013637
 20
-1.5000004459294
 30
0.0
 11
-40.99999987094024
 21
-1.500000445929399
 31
0.0
  0
LINE
  5
3D00
330
2754
100
AcDbEntity
  8
AM_5
 62
     3
100
AcDbLine
 10
-37.00000015013637
 20
1.499999570800582
 30
0.0
 11
-40.99999987094024
 21
1.499999570800583
 31
0.0
  0
LINE
  5
3D01
330
2754
100
AcDbEntity
  8
AM_5
 62
     3
100
AcDbLine
 10
-40.79999987094024
 20
-1.000000445929399
 30
0.0
 11
-40.79999987094024
 21
0.9999995708005837
 31
0.0
  0
INSERT
  5
3D02
330
2754
100
AcDbEntity
  8
AM_5
 62
     3
100
AcDbBlockReference
  2
_OPEN30
 10
-40.79999987094024
 20
-1.500000445929399
 30
0.0
 41
0.5
 42
0.5
 43
0.5
 50
270.0
  0
INSERT
  5
3D03
330
2754
100
AcDbEntity
  8
AM_5
 62
     3
100
AcDbBlockReference
  2
_OPEN30
 10
-40.79999987094024
 20
1.499999570800583
 30
0.0
 41
0.5
 42
0.5
 43
0.5
 50
90.0
  0
MTEXT
  5
3D04
330
2754
100
AcDbEntity
  8
AM_5
 62
     2
100
AcDbMText
 10
-41.47999987094023
 20
-0.0000004291993888
 30
0.0
 40
0.76
 41
0.0
 71
     5
 72
     1
  1
%%c3
 11
0.0000000000000001
 21
1.0
 31
0.0
1001
ACAD
1000
MTEXTBEGIN
1070
    73
1070
     1
1070
    44
1040
1.0
1070
    74
1070
     0
1000
MTEXTEND
  0
POINT
  5
3D05
330
2754
100
AcDbEntity
  8
DEFPOINTS
 62
     0
100
AcDbPoint
 10
-37.00000015013637
 20
-1.5000004459294
 30
0.0
  0
POINT
  5
3D06
330
2754
100
AcDbEntity
  8
DEFPOINTS
 62
     0
100
AcDbPoint
 10
-37.00000015013637
 20
1.499999570800582
 30
0.0
  0
POINT
  5
3D07
330
2754
100
AcDbEntity
  8
DEFPOINTS
 62
     0
100
AcDbPoint
 10
-40.79999987094024
 20
1.499999570800583
 30
0.0
  0
ENDBLK
  5
275F
330
2754
100
AcDbEntity
  8
0
100
AcDbBlockEnd
  0
BLOCK
  5
276A
330
2760
100
AcDbEntity
  8
0
100
AcDbBlockBegin
  2
*D6
 70
     1
 10
0.0
 20
0.0
 30
0.0
  3
*D6
  1

  0
LINE
  5
3DDB
330
2760
100
AcDbEntity
  8
AM_5
 62
     3
100
AcDbLine
 10
-37.9999998709402
 20
-1.200000429199405
 30
0.0
 11
-37.9999998709402
 21
-6.500000429199372
 31
0.0
  0
LINE
  5
3DDC
330
2760
100
AcDbEntity
  8
AM_5
 62
     3
100
AcDbLine
 10
-0.0000001501363728
 20
-0.1700000121581695
 30
0.0
 11
-0.0000001501363732
 21
-6.500000429199372
 31
0.0
  0
LINE
  5
3DDD
330
2760
100
AcDbEntity
  8
AM_5
 62
     3
100
AcDbLine
 10
-37.4999998709402
 20
-6.300000429199371
 30
0.0
 11
-0.5000001501363732
 21
-6.300000429199371
 31
0.0
  0
INSERT
  5
3DDE
330
2760
100
AcDbEntity
  8
AM_5
 62
     3
100
AcDbBlockReference
  2
_OPEN30
 10
-37.9999998709402
 20
-6.300000429199371
 30
0.0
 41
0.5
 42
0.5
 43
0.5
 50
180.0
  0
INSERT
  5
3DDF
330
2760
100
AcDbEntity
  8
AM_5
 62
     3
100
AcDbBlockReference
  2
_OPEN30
 10
-0.0000001501363731
 20
-6.300000429199371
 30
0.0
 41
0.5
 42
0.5
 43
0.5
  0
MTEXT
  5
3DE0
330
2760
100
AcDbEntity
  8
AM_5
 62
     2
100
AcDbMText
 10
-19.00000001053828
 20
-5.620000429199372
 30
0.0
 40
0.76
 41
0.0
 71
     5
 72
     1
  1
38
1001
ACAD
1000
MTEXTBEGIN
1070
    73
1070
     1
1070
    44
1040
1.0
1070
    74
1070
     0
1000
MTEXTEND
  0
POINT
  5
3DE1
330
2760
100
AcDbEntity
  8
DEFPOINTS
 62
     0
100
AcDbPoint
 10
-37.9999998709402
 20
-1.200000429199405
 30
0.0
  0
POINT
  5
3DE2
330
2760
100
AcDbEntity
  8
DEFPOINTS
 62
     0
100
AcDbPoint
 10
-0.0000001501363728
 20
-0.1700000121581695
 30
0.0
  0
POINT
  5
3DE3
330
2760
100
AcDbEntity
  8
DEFPOINTS
 62
     0
100
AcDbPoint
 10
-0.0000001501363731
 20
-6.300000429199371
 30
0.0
  0
ENDBLK
  5
276B
330
2760
100
AcDbEntity
  8
0
100
AcDbBlockEnd
  0
BLOCK
  5
2776
330
276C
100
AcDbEntity
  8
0
100
AcDbBlockBegin
  2
*D7
 70
     1
 10
0.0
 20
0.0
 30
0.0
  3
*D7
  1

  0
LINE
  5
3DD2
330
276C
100
AcDbEntity
  8
AM_5
 62
     3
100
AcDbLine
 10
-37.9999998709402
 20
-1.200000429199405
 30
0.0
 11
-37.9999998709402
 21
-4.5000004291994
 31
0.0
  0
LINE
  5
3DD3
330
276C
100
AcDbEntity
  8
AM_5
 62
     3
100
AcDbLine
 10
-9.732048946820228
 20
-1.499999110539704
 30
0.0
 11
-9.732048946820228
 21
-4.5000004291994
 31
0.0
  0
LINE
  5
3DD4
330
276C
100
AcDbEntity
  8
AM_5
 62
     3
100
AcDbLine
 10
-37.4999998709402
 20
-4.3000004291994
 30
0.0
 11
-10.23204894682022
 21
-4.3000004291994
 31
0.0
  0
INSERT
  5
3DD5
330
276C
100
AcDbEntity
  8
AM_5
 62
     3
100
AcDbBlockReference
  2
_OPEN30
 10
-37.9999998709402
 20
-4.3000004291994
 30
0.0
 41
0.5
 42
0.5
 43
0.5
 50
180.0
  0
INSERT
  5
3DD6
330
276C
100
AcDbEntity
  8
AM_5
 62
     3
100
AcDbBlockReference
  2
_OPEN30
 10
-9.732048946820228
 20
-4.3000004291994
 30
0.0
 41
0.5
 42
0.5
 43
0.5
  0
MTEXT
  5
3DD7
330
276C
100
AcDbEntity
  8
AM_5
 62
     2
100
AcDbMText
 10
-23.86602440888021
 20
-3.6200004291994
 30
0.0
 40
0.76
 41
0.0
 71
     5
 72
     1
  1
28
1001
ACAD
1000
MTEXTBEGIN
1070
    73
1070
     1
1070
    44
1040
1.0
1070
    74
1070
     0
1000
MTEXTEND
  0
POINT
  5
3DD8
330
276C
100
AcDbEntity
  8
DEFPOINTS
 62
     0
100
AcDbPoint
 10
-37.9999998709402
 20
-1.200000429199405
 30
0.0
  0
POINT
  5
3DD9
330
276C
100
AcDbEntity
  8
DEFPOINTS
 62
     0
100
AcDbPoint
 10
-9.732048946820228
 20
-1.499999110539704
 30
0.0
  0
POINT
  5
3DDA
330
276C
100
AcDbEntity
  8
DEFPOINTS
 62
     0
100
AcDbPoint
 10
-9.732048946820228
 20
-4.3000004291994
 30
0.0
  0
ENDBLK
  5
2777
330
276C
100
AcDbEntity
  8
0
100
AcDbBlockEnd
  0
BLOCK
  5
2784
330
2778
100
AcDbEntity
  8
0
100
AcDbBlockBegin
  2
*D8
 70
     1
 10
0.0
 20
0.0
 30
0.0
  3
*D8
  1

  0
LINE
  5
3E35
330
2778
100
AcDbEntity
  8
AM_5
100
AcDbLine
 10
-9.925234112078099
 20
1.551763379821085
 30
0.0
 11
-11.98110746168175
 21
2.102632983588043
 31
0.0
  0
LINE
  5
3E36
330
2778
100
AcDbEntity
  8
AM_5
100
AcDbLine
 10
-9.925234112078099
 20
-1.551764238219921
 30
0.0
 11
-11.98110746168174
 21
-2.10263384198688
 31
0.0
  0
ARC
  5
3E37
330
2778
100
AcDbEntity
  8
AM_5
100
AcDbCircle
 10
-4.133972735466901
 20
-0.0000004291994044
 30
0.0
 40
7.923951666519024
100
AcDbArc
 50
168.6159539789861
 51
191.3840460210141
  0
INSERT
  5
3E38
330
2778
100
AcDbEntity
  8
AM_5
100
AcDbBlockReference
  2
_OPEN30
 10
-11.78792229642394
 20
2.05086917456754
 30
0.0
 41
0.5
 42
0.5
 43
0.5
 50
76.80797698949323
  0
INSERT
  5
3E39
330
2778
100
AcDbEntity
  8
AM_5
100
AcDbBlockReference
  2
_OPEN30
 10
-11.78792229642393
 20
-2.050870032966376
 30
0.0
 41
0.5
 42
0.5
 43
0.5
 50
283.1920230105069
  0
MTEXT
  5
3E3A
330
2778
100
AcDbEntity
  8
AM_5
 62
     2
100
AcDbMText
 10
-12.67792440198592
 20
-0.0000004291994216
 30
0.0
 40
0.6400000000000002
 41
0.0
 71
     5
 72
     1
  1
30°
  7
ASAMI
 11
0.0000000000000001
 21
1.0
 31
0.0
  0
POINT
  5
3E3B
330
2778
100
AcDbEntity
  8
DEFPOINTS
 62
     0
100
AcDbPoint
 10
-12.0277713735884
 20
0.6906174637925818
 30
0.0
  0
POINT
  5
3E3C
330
2778
100
AcDbEntity
  8
DEFPOINTS
 62
     0
100
AcDbPoint
 10
-9.732048946820285
 20
-1.500000429199417
 30
0.0
  0
POINT
  5
3E3D
330
2778
100
AcDbEntity
  8
DEFPOINTS
 62
     0
100
AcDbPoint
 10
-9.732048946820285
 20
1.499999570800582
 30
0.0
  0
POINT
  5
3E3E
330
2778
100
AcDbEntity
  8
DEFPOINTS
 62
     0
100
AcDbPoint
 10
-5.999998139251331
 20
0.4999995708005826
 30
0.0
  0
POINT
  5
3E3F
330
2778
100
AcDbEntity
  8
DEFPOINTS
 62
     0
100
AcDbPoint
 10
-5.999998139251501
 20
-0.5000004291994459
 30
0.0
  0
ENDBLK
  5
2785
330
2778
100
AcDbEntity
  8
0
100
AcDbBlockEnd
  0
BLOCK
  5
27AE
330
27A4
100
AcDbEntity
  8
0
100
AcDbBlockBegin
  2
*D9
 70
     1
 10
0.0
 20
0.0
 30
0.0
  3
*D9
  1

  0
LINE
  5
392C
330
27A4
100
AcDbEntity
  8
AM_5
 62
     3
100
AcDbLine
 10
-2.499999900480133
 20
0.0343048272659594
 30
0.0
 11
-2.499999900480134
 21
-4.5000004291994
 31
0.0
  0
LINE
  5
392D
330
27A4
100
AcDbEntity
  8
AM_5
 62
     3
100
AcDbLine
 10
-0.0000001501363728
 20
-0.0000000097255113
 30
0.0
 11
-0.000000150136373
 21
-4.5000004291994
 31
0.0
  0
LINE
  5
392E
330
27A4
100
AcDbEntity
  8
AM_5
 62
     3
100
AcDbLine
 10
-1.999999900480134
 20
-4.3000004291994
 30
0.0
 11
-0.5000001501363731
 21
-4.3000004291994
 31
0.0
  0
INSERT
  5
392F
330
27A4
100
AcDbEntity
  8
AM_5
 62
     3
100
AcDbBlockReference
  2
_OPEN30
 10
-2.499999900480134
 20
-4.3000004291994
 30
0.0
 41
0.5
 42
0.5
 43
0.5
 50
180.0
  0
INSERT
  5
3930
330
27A4
100
AcDbEntity
  8
AM_5
 62
     3
100
AcDbBlockReference
  2
_OPEN30
 10
-0.000000150136373
 20
-4.3000004291994
 30
0.0
 41
0.5
 42
0.5
 43
0.5
  0
MTEXT
  5
3931
330
27A4
100
AcDbEntity
  8
AM_5
 62
     2
100
AcDbMText
 10
-1.250000025308253
 20
-3.6200004291994
 30
0.0
 40
0.76
 41
0.0
 71
     5
 72
     1
  1
2.5
1001
ACAD
1000
MTEXTBEGIN
1070
    73
1070
     1
1070
    44
1040
1.0
1070
    74
1070
     0
1000
MTEXTEND
  0
POINT
  5
3932
330
27A4
100
AcDbEntity
  8
DEFPOINTS
 62
     0
100
AcDbPoint
 10
-2.499999900480133
 20
0.0343048272659594
 30
0.0
  0
POINT
  5
3933
330
27A4
100
AcDbEntity
  8
DEFPOINTS
 62
     0
100
AcDbPoint
 10
-0.0000001501363728
 20
-0.0000000097255113
 30
0.0
  0
POINT
  5
3934
330
27A4
100
AcDbEntity
  8
DEFPOINTS
 62
     0
100
AcDbPoint
 10
-0.000000150136373
 20
-4.3000004291994
 30
0.0
  0
ENDBLK
  5
27AF
330
27A4
100
AcDbEntity
  8
0
100
AcDbBlockEnd
  0
BLOCK
  5
27BC
330
27B0
100
AcDbEntity
  8
0
100
AcDbBlockBegin
  2
*D10
 70
     1
 10
0.0
 20
0.0
 30
0.0
  3
*D10
  1

  0
LINE
  5
3E40
330
27B0
100
AcDbEntity
  8
AM_5
100
AcDbLine
 10
0.0684041276828743
 20
-0.1879386037654591
 30
0.0
 11
2.065909042097717
 21
-5.67603829699258
 31
0.0
  0
LINE
  5
3E41
330
27B0
100
AcDbEntity
  8
AM_5
100
AcDbLine
 10
0.0684042303434766
 20
0.187938473011644
 30
0.0
 11
2.065912972090635
 21
5.676036858657701
 31
0.0
  0
ARC
  5
3E42
330
27B0
100
AcDbEntity
  8
AM_5
100
AcDbCircle
 10
0.0000000720550126
 20
-0.0000000039664532
 30
0.0
 40
5.840313781286685
100
AcDbArc
 50
294.9066961071906
 51
65.09326422217572
  0
INSERT
  5
3E43
330
27B0
100
AcDbEntity
  8
AM_5
100
AcDbBlockReference
  2
_OPEN30
 10
1.997505013934709
 20
-5.488099772652638
 30
0.0
 41
0.5
 42
0.5
 43
0.5
 50
202.4533479770552
  0
INSERT
  5
3E44
330
27B0
100
AcDbEntity
  8
AM_5
100
AcDbBlockReference
  2
_OPEN30
 10
1.997508813802171
 20
5.488098381679605
 30
0.0
 41
0.5
 42
0.5
 43
0.5
 50
157.546612352311
  0
MTEXT
  5
3E45
330
27B0
100
AcDbEntity
  8
AM_5
 62
     2
100
AcDbMText
 10
5.220313853341347
 20
-0.0000020258339534
 30
0.0
 40
0.6400000000000002
 41
0.0
 71
     5
 72
     1
  1
140°
  7
ASAMI
 11
0.0000000000000001
 21
1.0
 31
0.0
  0
POINT
  5
3E46
330
27B0
100
AcDbEntity
  8
DEFPOINTS
 62
     0
100
AcDbPoint
 10
5.362671320967662
 20
2.313227641548102
 30
0.0
  0
POINT
  5
3E47
330
27B0
100
AcDbEntity
  8
DEFPOINTS
 62
     0
100
AcDbPoint
 10
0.0000000677307526
 20
-0.0000000158472346
 30
0.0
  0
POINT
  5
3E48
330
27B0
100
AcDbEntity
  8
DEFPOINTS
 62
     0
100
AcDbPoint
 10
0.0000000995198661
 20
-0.0000000794255186
 30
0.0
  0
POINT
  5
3E49
330
27B0
100
AcDbEntity
  8
DEFPOINTS
 62
     0
100
AcDbPoint
 10
-0.0133687245935335
 20
0.036730463256049
 30
0.0
  0
POINT
  5
3E4A
330
27B0
100
AcDbEntity
  8
DEFPOINTS
 62
     0
100
AcDbPoint
 10
-0.0133689477578969
 20
-0.0367310051978791
 30
0.0
  0
ENDBLK
  5
27BD
330
27B0
100
AcDbEntity
  8
0
100
AcDbBlockEnd
  0
BLOCK
  5
27CA
330
27BE
100
AcDbEntity
  8
0
100
AcDbBlockBegin
  2
*D11
 70
     1
 10
0.0
 20
0.0
 30
0.0
  3
*D11
  1

  0
LINE
  5
3C3F
330
27BE
100
AcDbEntity
  8
AM_5
 62
     3
100
AcDbLine
 10
-0.0389495149801097
 20
-0.1000000041685212
 30
0.0
 11
3.201016952758103
 21
-0.1000000041685221
 31
0.0
  0
LINE
  5
3C40
330
27BE
100
AcDbEntity
  8
AM_5
 62
     3
100
AcDbLine
 10
-0.0389490648586763
 20
0.099999995831914
 30
0.0
 11
3.201016952758103
 21
0.0999999958319131
 31
0.0
  0
LINE
  5
3C41
330
27BE
100
AcDbEntity
  8
AM_5
 62
     3
100
AcDbLine
 10
3.001016952758102
 20
0.5999999958319132
 30
0.0
 11
3.001016952758103
 21
1.099999995831913
 31
0.0
  0
LINE
  5
3C42
330
27BE
100
AcDbEntity
  8
AM_5
 62
     3
100
AcDbLine
 10
3.001016952758102
 20
-0.6000000041685221
 30
0.0
 11
3.001016952758102
 21
-4.703809527978045
 31
0.0
  0
LINE
  5
3C43
330
27BE
100
AcDbEntity
  8
AM_5
 62
     3
100
AcDbLine
 10
3.001016952758102
 20
0.0999999958319132
 30
0.0
 11
3.001016952758102
 21
-0.1000000041685221
 31
0.0
  0
INSERT
  5
3C44
330
27BE
100
AcDbEntity
  8
AM_5
 62
     3
100
AcDbBlockReference
  2
_OPEN30
 10
3.001016952758102
 20
0.0999999958319132
 30
0.0
 41
0.5
 42
0.5
 43
0.5
 50
270.0
  0
INSERT
  5
3C45
330
27BE
100
AcDbEntity
  8
AM_5
 62
     3
100
AcDbBlockReference
  2
_OPEN30
 10
3.001016952758102
 20
-0.1000000041685221
 30
0.0
 41
0.5
 42
0.5
 43
0.5
 50
90.0
  0
MTEXT
  5
3C46
330
27BE
100
AcDbEntity
  8
AM_5
 62
     2
100
AcDbMText
 10
2.321016952758102
 20
-2.901904766073283
 30
0.0
 40
0.76
 41
0.0
 71
     5
 72
     1
  1
%%c0.20
 11
0.0000000000000001
 21
1.0
 31
0.0
1001
ACAD
1000
MTEXTBEGIN
1070
    73
1070
     1
1070
    44
1040
1.0
1070
    74
1070
     0
1000
MTEXTEND
  0
POINT
  5
3C47
330
27BE
100
AcDbEntity
  8
DEFPOINTS
 62
     0
100
AcDbPoint
 10
-0.0389495149801097
 20
-0.1000000041685212
 30
0.0
  0
POINT
  5
3C48
330
27BE
100
AcDbEntity
  8
DEFPOINTS
 62
     0
100
AcDbPoint
 10
-0.0389490648586763
 20
0.099999995831914
 30
0.0
  0
POINT
  5
3C49
330
27BE
100
AcDbEntity
  8
DEFPOINTS
 62
     0
100
AcDbPoint
 10
3.001016952758102
 20
0.0999999958319132
 30
0.0
  0
ENDBLK
  5
27CB
330
27BE
100
AcDbEntity
  8
0
100
AcDbBlockEnd
  0
BLOCK
  5
3996
330
3988
100
AcDbEntity
  8
0
100
AcDbBlockBegin
  2
*D12
 70
     1
 10
0.0
 20
0.0
 30
0.0
  3
*D12
  1

  0
LINE
  5
3DB3
330
3988
100
AcDbEntity
  8
AM_5
100
AcDbLine
 10
-4.68605604944104
 20
0.5517639548113377
 30
0.0
 11
-8.235785583900179
 21
1.502911116918565
 31
0.0
  0
LINE
  5
3DB4
330
3988
100
AcDbEntity
  8
AM_5
100
AcDbLine
 10
-4.68605604944104
 20
-0.5517634908606393
 30
0.0
 11
-8.235785583900179
 21
-1.502910652967864
 31
0.0
  0
ARC
  5
3DB5
330
3988
100
AcDbEntity
  8
AM_5
100
AcDbCircle
 10
-2.626845802043776
 20
0.0000002319753491
 30
0.0
 40
5.606801753510459
100
AcDbArc
 50
154.7776335791586
 51
159.8888167895793
  0
ARC
  5
3DB6
330
3988
100
AcDbEntity
  8
AM_5
100
AcDbCircle
 10
-2.626845802043776
 20
0.0000002319753491
 30
0.0
 40
5.606801753510459
100
AcDbArc
 50
200.1111832104206
 51
205.2223664208414
  0
ARC
  5
3DB7
330
3988
100
AcDbEntity
  8
AM_5
100
AcDbCircle
 10
-2.626845802043776
 20
0.0000002319753491
 30
0.0
 40
5.606801753510459
100
AcDbArc
 50
165.0
 51
194.9999999999999
  0
INSERT
  5
3DB8
330
3988
100
AcDbEntity
  8
AM_5
100
AcDbBlockReference
  2
_OPEN30
 10
-8.042600418642365
 20
1.451147307898061
 30
0.0
 41
0.5
 42
0.5
 43
0.5
 50
252.4444083947896
  0
INSERT
  5
3DB9
330
3988
100
AcDbEntity
  8
AM_5
100
AcDbBlockReference
  2
_OPEN30
 10
-8.042600418642365
 20
-1.45114684394736
 30
0.0
 41
0.5
 42
0.5
 43
0.5
 50
107.5555916052102
  0
MTEXT
  5
3DBA
330
3988
100
AcDbEntity
  8
AM_5
 62
     2
100
AcDbMText
 10
-8.853647555554235
 20
0.0000002319753495
 30
0.0
 40
0.6400000000000002
 41
0.0
 71
     5
 72
     1
  1
30°
  7
ASAMI
 11
0.0000000000000001
 21
1.0
 31
0.0
1001
ACAD
1000
MTEXTBEGIN
1070
    73
1070
     1
1070
    44
1040
1.0
1070
    74
1070
     0
1000
MTEXTEND
  0
POINT
  5
3DBB
330
3988
100
AcDbEntity
  8
DEFPOINTS
 62
     0
100
AcDbPoint
 10
-8.212311982142397
 20
0.4886652032414253
 30
0.0
  0
POINT
  5
3DBC
330
3988
100
AcDbEntity
  8
DEFPOINTS
 62
     0
100
AcDbPoint
 10
-4.492870884183226
 20
-0.4999996818401355
 30
0.0
  0
POINT
  5
3DBD
330
3988
100
AcDbEntity
  8
DEFPOINTS
 62
     0
100
AcDbPoint
 10
-4.492870884183226
 20
0.5000001457908338
 30
0.0
  0
POINT
  5
3DBE
330
3988
100
AcDbEntity
  8
DEFPOINTS
 62
     0
100
AcDbPoint
 10
-2.999999900480133
 20
0.0999865713037348
 30
0.0
  0
POINT
  5
3DBF
330
3988
100
AcDbEntity
  8
DEFPOINTS
 62
     0
100
AcDbPoint
 10
-2.999999900480133
 20
-0.0999861073530365
 30
0.0
  0
ENDBLK
  5
3997
330
3988
100
AcDbEntity
  8
0
100
AcDbBlockEnd
  0
BLOCK
  5
3B2C
330
3B20
100
AcDbEntity
  8
0
100
AcDbBlockBegin
  2
*D13
 70
     1
 10
0.0
 20
0.0
 30
0.0
  3
*D13
  1

  0
LINE
  5
3D94
330
3B20
100
AcDbEntity
  8
AM_5
 62
     3
100
AcDbLine
 10
-5.380410983473881
 20
0.5000001306880168
 30
0.0
 11
-4.973479476408061
 21
0.5000001306880167
 31
0.0
  0
LINE
  5
3D95
330
3B20
100
AcDbEntity
  8
AM_5
 62
     3
100
AcDbLine
 10
-5.173479476408061
 20
-0.4999996550542022
 30
0.0
 11
-5.373479476408062
 21
-0.4999996550542022
 31
0.0
  0
LINE
  5
3D96
330
3B20
100
AcDbEntity
  8
AM_5
 62
     3
100
AcDbLine
 10
-5.173479476408061
 20
1.000000130688016
 30
0.0
 11
-5.173479476408061
 21
1.500000130688016
 31
0.0
  0
LINE
  5
3D97
330
3B20
100
AcDbEntity
  8
AM_5
 62
     3
100
AcDbLine
 10
-5.173479476408061
 20
-0.9999996550542022
 30
0.0
 11
-5.173479476408062
 21
-2.96857108362563
 31
0.0
  0
LINE
  5
3D98
330
3B20
100
AcDbEntity
  8
AM_5
 62
     3
100
AcDbLine
 10
-5.173479476408061
 20
0.5000001306880167
 30
0.0
 11
-5.173479476408061
 21
-0.4999996550542022
 31
0.0
  0
INSERT
  5
3D99
330
3B20
100
AcDbEntity
  8
AM_5
 62
     3
100
AcDbBlockReference
  2
_OPEN30
 10
-5.173479476408061
 20
0.5000001306880167
 30
0.0
 41
0.5
 42
0.5
 43
0.5
 50
270.0
  0
INSERT
  5
3D9A
330
3B20
100
AcDbEntity
  8
AM_5
 62
     3
100
AcDbBlockReference
  2
_OPEN30
 10
-5.173479476408061
 20
-0.4999996550542022
 30
0.0
 41
0.5
 42
0.5
 43
0.5
 50
90.0
  0
MTEXT
  5
3D9B
330
3B20
100
AcDbEntity
  8
AM_5
 62
     2
100
AcDbMText
 10
-5.853479476408061
 20
-2.234285369339917
 30
0.0
 40
0.76
 41
0.0
 71
     5
 72
     1
  1
%%c1
 11
0.0000000000000001
 21
1.0
 31
0.0
1001
ACAD
1000
MTEXTBEGIN
1070
    73
1070
     1
1070
    44
1040
1.0
1070
    74
1070
     0
1000
MTEXTEND
  0
POINT
  5
3D9C
330
3B20
100
AcDbEntity
  8
DEFPOINTS
 62
     0
100
AcDbPoint
 10
-5.380410983473881
 20
0.5000001306880168
 30
0.0
  0
POINT
  5
3D9D
330
3B20
100
AcDbEntity
  8
DEFPOINTS
 62
     0
100
AcDbPoint
 10
-5.173479476408061
 20
-0.4999996550542022
 30
0.0
  0
POINT
  5
3D9E
330
3B20
100
AcDbEntity
  8
DEFPOINTS
 62
     0
100
AcDbPoint
 10
-5.173479476408061
 20
-0.4999996550542022
 30
0.0
  0
ENDBLK
  5
3B2D
330
3B20
100
AcDbEntity
  8
0
100
AcDbBlockEnd
  0
ENDSEC
  0
SECTION
  2
ENTITIES
  0
DIMENSION
  5
2702
330
1F
100
AcDbEntity
  8
AM_5
100
AcDbDimension
  2
*D9
 10
-0.000000150136373
 20
-4.3000004291994
 30
0.0
 11
-1.250000025308253
 21
-3.6200004291994
 31
0.0
 70
    32
  1
<>
  3
AM_JIS$0
100
AcDbAlignedDimension
 13
-2.499999900480133
 23
0.0343048272659594
 33
0.0
 14
-0.0000001501363728
 24
-0.0000000097255113
 34
0.0
100
AcDbRotatedDimension
1001
GENIUS_GENDTOL_13
1000

1000
h7
1000

1040
0.0
1001
ACAD
1000
DSTYLE
1002
{
1070
   271
1070
     1
1002
}
  0
DIMENSION
  5
2703
330
1F
100
AcDbEntity
  8
AM_5
100
AcDbDimension
  2
*D6
 10
-0.0000001501363731
 20
-6.300000429199371
 30
0.0
 11
-19.00000001053828
 21
-5.620000429199372
 31
0.0
 70
    32
  1
<>
  3
AM_JIS$0
100
AcDbAlignedDimension
 13
-37.9999998709402
 23
-1.200000429199405
 33
0.0
 14
-0.0000001501363728
 24
-0.1700000121581695
 34
0.0
100
AcDbRotatedDimension
1001
GENIUS_GENDTOL_13
1000

1000
h7
1000

1040
0.0
1001
ACAD
1000
DSTYLE
1002
{
1070
   271
1070
     0
1002
}
  0
LINE
  5
2704
330
1F
100
AcDbEntity
  8
AM_7
100
AcDbLine
 10
0.5718937955108459
 20
0.0000002319753492
 30
0.0
 11
-38.66621376932428
 21
-0.0000004357194996
 31
0.0
1001
GENIUS_GENODEF_13
1002
{
1000
HIER
1070
     0
1002
}
1002
{
1000
MANEDIT
1070
     0
1002
}
1002
{
1000
NOSEL
1070
     0
1002
}
1002
{
1000
BEHIND
1070
     0
1002
}
1002
{
1000
REACTOR
1002
}
1001
GENIUS_GENOBJ-N-CEN_13
1002
{
1000
OWNER
1000
GEN
1002
}
  0
DIMENSION
  5
2713
330
1F
100
AcDbEntity
  8
AM_5
100
AcDbDimension
  2
*D7
 10
-9.732048946820228
 20
-4.3000004291994
 30
0.0
 11
-23.86602440888021
 21
-3.6200004291994
 31
0.0
 70
    32
  1
<>
  3
AM_JIS$0
100
AcDbAlignedDimension
 13
-37.9999998709402
 23
-1.200000429199405
 33
0.0
 14
-9.732048946820228
 24
-1.499999110539704
 34
0.0
100
AcDbRotatedDimension
1001
GENIUS_GENDTOL_13
1000

1000
h7
1000

1040
0.0
1001
ACAD
1000
DSTYLE
1002
{
1070
   271
1070
     0
1002
}
  0
LINE
  5
2714
330
1F
100
AcDbEntity
  8
AM_0
100
AcDbLine
 10
-37.00000015013637
 20
1.499999574490402
 30
0.0
 11
-9.732048946820228
 21
1.499999574490402
 31
0.0
1001
GENIUS_GENREC_14
1002
{
1000
PYDIR
1011
-37.9999998709402
1021
-1.500000425509597
1031
0.0
1002
}
1002
{
1000
PXDIR
1011
-9.9999998709402
1021
1.499999574490402
1031
0.0
1002
}
1002
{
1000
PORI
1011
-37.9999998709402
1021
1.499999574490402
1031
0.0
1002
}
1002
{
1000
PINS
1011
-37.9999998709402
1021
1.499999574490402
1031
0.0
1002
}
1002
{
1000
PINS2
1011
-9.9999998709402
1021
-1.500000425509597
1031
0.0
1002
}
1002
{
1000
C
1070
     1
1002
}
1001
GENIUS_GENODEF_13
1002
{
1000
HIER
1070
     0
1002
}
1002
{
1000
MANEDIT
1070
     0
1002
}
1002
{
1000
NOSEL
1070
     0
1002
}
1002
{
1000
BEHIND
1070
     0
1002
}
1002
{
1000
REACTOR
1002
}
1001
GENIUS_GENOBJ-N-REC_13
1002
{
1000
OWNER
1000
GEN
1002
}
  0
LINE
  5
2715
330
1F
100
AcDbEntity
  8
AM_0
100
AcDbLine
 10
-9.732048946820228
 20
-1.500000425509597
 30
0.0
 11
-37.00000015013637
 21
-1.500000425509597
 31
0.0
1001
GENIUS_GENREC_14
1002
{
1000
PYDIR
1011
-37.9999998709402
1021
-1.500000425509597
1031
0.0
1002
}
1002
{
1000
PXDIR
1011
-9.9999998709402
1021
1.499999574490402
1031
0.0
1002
}
1002
{
1000
PORI
1011
-37.9999998709402
1021
1.499999574490402
1031
0.0
1002
}
1002
{
1000
PINS
1011
-37.9999998709402
1021
1.499999574490402
1031
0.0
1002
}
1002
{
1000
PINS2
1011
-9.9999998709402
1021
-1.500000425509597
1031
0.0
1002
}
1002
{
1000
C
1070
     1
1002
}
1001
GENIUS_GENODEF_13
1002
{
1000
HIER
1070
     0
1002
}
1002
{
1000
MANEDIT
1070
     0
1002
}
1002
{
1000
NOSEL
1070
     0
1002
}
1002
{
1000
BEHIND
1070
     0
1002
}
1002
{
1000
REACTOR
1002
}
1001
GENIUS_GENOBJ-N-REC_13
1002
{
1000
OWNER
1000
GEN
1002
}
  0
DIMENSION
  5
2716
330
1F
100
AcDbEntity
  8
AM_5
100
AcDbDimension
  2
*D5
 10
-40.79999987094024
 20
1.499999570800583
 30
0.0
 11
-40.79999987094024
 21
-0.0000004291993889
 31
0.0
 70
   160
  1
%%c<>
  3
AM_JIS$0
100
AcDbAlignedDimension
 13
-37.00000015013637
 23
-1.5000004459294
 33
0.0
 14
-37.00000015013637
 24
1.499999570800582
 34
0.0
 50
270.0
100
AcDbRotatedDimension
1001
GENIUS_GENDTOL_13
1000

1000
h7
1000

1040
0.0
1001
ACAD
1000
DSTYLE
1002
{
1070
   271
1070
     0
1002
}
  0
LINE
  5
2717
330
1F
100
AcDbEntity
  8
AM_0
100
AcDbLine
 10
-37.9999998709402
 20
-0.9226501767397749
 30
0.0
 11
-37.9999998709402
 21
0.9226493053007756
 31
0.0
1001
GENIUS_GENREC_14
1002
{
1000
PYDIR
1011
-37.9999998709402
1021
-1.500000425509597
1031
0.0
1002
}
1002
{
1000
PXDIR
1011
-9.9999998709402
1021
1.499999574490402
1031
0.0
1002
}
1002
{
1000
PORI
1011
-37.9999998709402
1021
1.499999574490402
1031
0.0
1002
}
1002
{
1000
PINS
1011
-37.9999998709402
1021
1.499999574490402
1031
0.0
1002
}
1002
{
1000
PINS2
1011
-9.9999998709402
1021
-1.500000425509597
1031
0.0
1002
}
1002
{
1000
C
1070
     1
1002
}
1001
GENIUS_GENODEF_13
1002
{
1000
HIER
1070
     0
1002
}
1002
{
1000
MANEDIT
1070
     0
1002
}
1002
{
1000
NOSEL
1070
     0
1002
}
1002
{
1000
BEHIND
1070
     0
1002
}
1002
{
1000
REACTOR
1002
}
1001
GENIUS_GENOBJ-N-REC_13
1002
{
1000
OWNER
1000
GEN
1002
}
  0
LINE
  5
271A
330
1F
100
AcDbEntity
  8
AM_0
100
AcDbLine
 10
-37.00000015013637
 20
-1.500000421819778
 30
0.0
 11
-37.00000015013637
 21
1.499999578180221
 31
0.0
  0
DIMENSION
  5
271C
330
1F
100
AcDbEntity
  8
AM_5
100
AcDbDimension
  2
*D8
 10
-5.999998139251501
 20
-0.5000004291994459
 30
0.0
 11
-12.67792440198592
 21
-0.0000004291994196
 31
0.0
 70
    34
  1
<>
  3
AM_JIS$2
100
AcDb2LineAngularDimension
 13
-9.732048946820285
 23
1.499999570800582
 33
0.0
 14
-5.999998139251331
 24
0.4999995708005826
 34
0.0
 15
-9.732048946820285
 25
-1.500000429199417
 35
0.0
 16
-12.0277713735884
 26
0.6906174637925818
 36
0.0
1001
GENIUS_GENDTOL_13
1000

1000
h7
1000

1040
0.0
1001
ACAD
1000
DSTYLE
1002
{
1070
   271
1070
     0
1002
}
  0
LINE
  5
271E
330
1F
100
AcDbEntity
  8
AM_0
100
AcDbLine
 10
-9.732048946820228
 20
1.499999574490402
 30
0.0
 11
-6.000000158644618
 21
0.5000001155851999
 31
0.0
  0
LINE
  5
271F
330
1F
100
AcDbEntity
  8
AM_0
100
AcDbLine
 10
-9.732048946820228
 20
1.499999570800582
 30
0.0
 11
-9.732048946820228
 21
-1.500000429199417
 31
0.0
1001
GENIUS_GENREC_14
1002
{
1000
PYDIR
1011
-37.73204894682026
1021
-1.500000429199417
1031
0.0
1002
}
1002
{
1000
PXDIR
1011
-9.732048946820228
1021
1.499999570800582
1031
0.0
1002
}
1002
{
1000
PORI
1011
-37.73204894682026
1021
1.499999570800582
1031
0.0
1002
}
1002
{
1000
PINS
1011
-37.73204894682026
1021
1.499999570800582
1031
0.0
1002
}
1002
{
1000
PINS2
1011
-9.732048946820228
1021
-1.500000429199417
1031
0.0
1002
}
1002
{
1000
C
1070
     1
1002
}
1001
GENIUS_GENODEF_13
1002
{
1000
HIER
1070
     0
1002
}
1002
{
1000
MANEDIT
1070
     0
1002
}
1002
{
1000
NOSEL
1070
     0
1002
}
1002
{
1000
BEHIND
1070
     0
1002
}
1002
{
1000
REACTOR
1002
}
1001
GENIUS_GENOBJ-N-REC_13
1002
{
1000
OWNER
1000
GEN
1002
}
  0
DIMENSION
  5
274B
330
1F
100
AcDbEntity
  8
AM_5
100
AcDbDimension
  2
*D11
 10
3.001016952758102
 20
0.0999999958319132
 30
0.0
 11
3.001016952758102
 21
-2.901904766073283
 31
0.0
 70
   160
  1
%%c<>
  3
AM_JIS$0
100
AcDbAlignedDimension
 13
-0.0389495149801097
 23
-0.1000000041685212
 33
0.0
 14
-0.0389490648586763
 24
0.099999995831914
 34
0.0
 50
90.0
100
AcDbRotatedDimension
1001
ACAD
1000
DSTYLE
1002
{
1070
   271
1070
     2
1002
}
1001
GENIUS_GENDTOL_13
1000

1000
h7
1000

1040
0.0
  0
DIMENSION
  5
2753
330
1F
100
AcDbEntity
  8
AM_5
100
AcDbDimension
  2
*D10
 10
-0.0133689477578969
 20
-0.0367310051978791
 30
0.0
 11
5.220313853341347
 21
-0.0000020258339542
 31
0.0
 70
    34
  1
<>
  3
AM_JIS$2
100
AcDb2LineAngularDimension
 13
0.0000000995198661
 23
-0.0000000794255186
 33
0.0
 14
-0.0133687245935335
 24
0.036730463256049
 34
0.0
 15
0.0000000677307526
 25
-0.0000000158472346
 35
0.0
 16
5.362671320967662
 26
2.313227641548102
 36
0.0
1001
GENIUS_GENDTOL_13
1000

1000
h7
1000

1040
0.0
1001
ACAD
1000
DSTYLE
1002
{
1070
   271
1070
     0
1002
}
  0
LINE
  5
2B58
330
1F
100
AcDbEntity
  8
AM_0
 48
0.5
100
AcDbLine
 10
-0.0000000643441598
 20
-0.0000000041680762
 30
0.0
 11
-0.055462003395121
 21
0.0383968947373481
 31
0.0
  0
ELLIPSE
  5
2B59
330
1F
100
AcDbEntity
  8
AM_0
 48
0.5
100
AcDbEllipse
 10
-0.197185613508907
 20
0.1902109383095599
 30
0.0
 11
0.2849273640899291
 21
0.1041664667689623
 31
0.0
210
0.0
220
0.0
230
0.9999999999999998
 40
0.8840039620320627
 41
-1.415498797905765
 42
-1.164534488608015
  0
LINE
  5
2B64
330
1F
100
AcDbEntity
  8
AM_0
 48
0.5
100
AcDbLine
 10
-0.1003464259638755
 20
-0.1000000677463424
 30
0.0
 11
-0.0377993139287177
 21
-0.1000000041680665
 31
0.0
  0
LINE
  5
2B65
330
1F
100
AcDbEntity
  8
AM_0
 48
0.5
100
AcDbLine
 10
-0.1003464259638755
 20
0.0999999322536382
 30
0.0
 11
-0.0363969806313439
 21
0.0999999972573665
 31
0.0
  0
ELLIPSE
  5
2B88
330
1F
100
AcDbEntity
  8
AM_0
 48
0.5
100
AcDbEllipse
 10
0.0675705243803983
 20
0.1200560845973979
 30
0.0
 11
-0.2194722832898777
 21
0.0000000000008418
 31
0.0
210
0.0
220
0.0
230
1.0
 40
0.9183140236859916
 41
0.5303675532381234
 42
0.93848848343276
  0
SPLINE
  5
2B89
330
1F
100
AcDbEntity
  8
AM_0
 48
0.5
100
AcDbSpline
210
0.0
220
0.0
230
1.0
 70
     8
 71
     3
 72
    10
 73
     6
 74
     0
 42
0.0000000001
 43
0.0000000001
 40
0.0
 40
0.0
 40
0.0
 40
0.0
 40
2.69986029516136
 40
4.147722969032201
 40
6.285750005020438
 40
6.285750005020438
 40
6.285750005020438
 40
6.285750005020438
 10
-0.1217476737859491
 20
0.0180993992132617
 30
0.0
 10
-0.108685494683097
 20
0.0088087081821299
 30
0.0
 10
-0.0886184192171008
 20
-0.0054643312996551
 30
0.0
 10
-0.0411624813987228
 20
0.0014454971560472
 30
0.0
 10
-0.050099814830909
 20
0.0247187137011662
 30
0.0
 10
-0.0560050337333402
 20
0.0389044559811557
 30
0.0
  0
ELLIPSE
  5
2B8A
330
1F
100
AcDbEntity
  8
AM_0
 48
0.5
100
AcDbEllipse
 10
0.1096053672596083
 20
-0.0130819844955162
 30
0.0
 11
0.1726266673713382
 21
0.023952637862065
 31
0.0
210
0.0
220
0.0
230
1.0
 40
0.8623944533520731
 41
3.17857797620105
 42
3.596418478329661
  0
LINE
  5
2BAB
330
1F
100
AcDbEntity
  8
AM_0
100
AcDbLine
 10
-2.999999900480165
 20
-0.0999787262844377
 30
0.0
 11
-2.9999999004801
 21
0.1000127629702335
 31
0.0
  0
TEXT
  5
3732
330
1F
100
AcDbEntity
  8
AM_6
100
AcDbText
 10
-22.78571429625257
 20
-10.80000042919937
 30
0.0
 40
1.0
  1
MDSS0020
 72
     4
 11
-19.00000001053828
 21
-10.30000042919937
 31
0.0
100
AcDbText
  0
LINE
  5
3814
330
1F
100
AcDbEntity
  8
AM_0
 48
0.5
100
AcDbLine
 10
-0.0363970766064096
 20
-0.1000000027427116
 30
0.0
 11
-0.0000000074756648
 21
0.0000001228283386
 31
0.0
  0
LINE
  5
3819
330
1F
100
AcDbEntity
  8
AM_0
 48
0.5
100
AcDbLine
 10
-0.0363970766064096
 20
0.1000002595212439
 30
0.0
 11
-0.0000000074756648
 21
0.0000001339501936
 31
0.0
  0
SPLINE
  5
389D
330
1F
100
AcDbEntity
  8
AM_0
100
AcDbSpline
210
0.0
220
0.0
230
1.0
 70
     8
 71
     3
 72
    46
 73
    42
 74
     0
 42
0.0000000001
 43
0.0000000001
 40
0.0
 40
0.0
 40
0.0
 40
0.0
 40
0.8427075293422856
 40
1.265518104770559
 40
1.68994884956506
 40
2.116467290673827
 40
2.54548530610122
 40
2.977344090263341
 40
3.412310401731622
 40
3.850575907619845
 40
4.292228523283339
 40
4.737291192035371
 40
5.185695533383685
 40
5.63729472003792
 40
6.091866727153825
 40
6.549120869352286
 40
7.008706717250554
 40
7.470222077277051
 40
7.933222198716569
 40
8.397230145652669
 40
8.861746885649248
 40
9.326263625646204
 40
9.790271572582303
 40
10.25327169402144
 40
10.71478705404793
 40
11.17437290194659
 40
11.6316270441445
 40
12.08619905126056
 40
12.53780120194721
 40
12.98620554329551
 40
13.43126821204755
 40
13.87292082771091
 40
14.3111802250952
 40
14.74614653656348
 40
15.17800532072561
 40
15.60702303167234
 40
16.03354172596774
 40
16.45797877828845
 40
16.88078920975347
 40
17.30249350532345
 40
17.72363667810562
 40
17.72363667810562
 40
17.72363667810562
 40
17.72363667810562
 10
-0.0542489844914109
 20
-0.1000000677463586
 30
0.0
 10
-0.0678070637445507
 20
-0.0997722600162743
 30
0.0
 10
-0.0881676208337951
 20
-0.0994301546039083
 30
0.0
 10
-0.1152419414833199
 20
-0.0973238744280302
 30
0.0
 10
-0.1355712252753372
 20
-0.0952001837153652
 30
0.0
 10
-0.1558987713974912
 20
-0.0924737255829039
 30
0.0
 10
-0.1762245263000143
 20
-0.0891807547319966
 30
0.0
 10
-0.1965483855657321
 20
-0.0853370143686416
 30
0.0
 10
-0.2168703151550958
 20
-0.0809675440212996
 30
0.0
 10
-0.2371902246283517
 20
-0.0760991728847509
 30
0.0
 10
-0.2575081546000613
 20
-0.0707620964021853
 30
0.0
 10
-0.2778240504213888
 20
-0.0649892248611894
 30
0.0
 10
-0.2981382384778711
 20
-0.0588164184456852
 30
0.0
 10
-0.3184508175004885
 20
-0.0522816246881917
 30
0.0
 10
-0.3387619742825719
 20
-0.0454251404139948
 30
0.0
 10
-0.35907193453433
 20
-0.0382892657712953
 30
0.0
 10
-0.3793808762532396
 20
-0.0309178824798876
 30
0.0
 10
-0.3996889970966499
 20
-0.0233563284272692
 30
0.0
 10
-0.419996512388643
 20
-0.0156511405479105
 30
0.0
 10
-0.4403036076394641
 20
-0.0078497003309833
 30
0.0
 10
-0.4606105321853239
 20
-0.0000000677479599
 30
0.0
 10
-0.480917456726722
 20
0.0078495648445969
 30
0.0
 10
-0.5012245519910005
 20
0.0156510050329399
 30
0.0
 10
-0.5215320672339486
 20
0.0233561930168418
 30
0.0
 10
-0.5418401882588217
 20
0.0309177466817719
 30
0.0
 10
-0.5621491293053511
 20
0.0382891314106034
 30
0.0
 10
-0.5824590920474639
 20
0.0454250007300304
 30
0.0
 10
-0.6027702837730992
 20
0.0522815196007724
 30
0.0
 10
-0.6230829417206253
 20
0.0588162539863381
 30
0.0
 10
-0.6433971660144682
 20
0.0649890920538983
 30
0.0
 10
-0.663713061362762
 20
0.0707619653126211
 30
0.0
 10
-0.6840309078707261
 20
0.0760989927520329
 30
0.0
 10
-0.7043506819566177
 20
0.0809674391981534
 30
0.0
 10
-0.7246725285931961
 20
0.0853369273952385
 30
0.0
 10
-0.744996376096505
 20
0.089180416280921
 30
0.0
 10
-0.765322145900711
 20
0.0924743422231537
 30
0.0
 10
-0.7856498217548009
 20
0.0951969069384322
 30
0.0
 10
-0.8059790007951086
 20
0.0973355480380746
 30
0.0
 10
-0.8263094375918209
 20
0.0988613558501307
 30
0.0
 10
-0.8466406123682801
 20
0.0998214882099302
 30
0.0
 10
-0.8601980349053032
 20
0.0999404773112522
 30
0.0
 10
-0.8669722332701716
 20
0.0999999322536219
 30
0.0
  0
LINE
  5
389E
330
1F
100
AcDbEntity
  8
AM_11
 48
0.5
100
AcDbLine
 10
-0.4941497994710296
 20
0.0999999322536382
 30
0.0
 11
-0.111162505734587
 21
0.0999999322536382
 31
0.0
  0
SPLINE
  5
389F
330
1F
100
AcDbEntity
  8
AM_0
 48
0.5
100
AcDbSpline
210
0.0
220
0.0
230
1.0
 70
     8
 71
     3
 72
    17
 73
    13
 74
     0
 42
0.0000000001
 43
0.0000000001
 40
0.0
 40
0.0
 40
0.0
 40
0.0
 40
1.010743614677189
 40
2.022833924044153
 40
3.037578959561199
 40
4.056212747067873
 40
5.079857613375832
 40
6.109500119648989
 40
7.14596120163808
 40
8.18989512056258
 40
9.241717674284874
 40
9.693948937866434
 40
9.693948937866434
 40
9.693948937866434
 40
9.693948937866434
 10
-0.1003464259638755
 20
0.0999999322536382
 30
0.0
 10
-0.107120624356595
 20
0.0999404775531453
 30
0.0
 10
-0.1206780469493199
 20
0.0998214889358856
 30
0.0
 10
-0.1410092213077635
 20
0.098861352938692
 30
0.0
 10
-0.1613395586436138
 20
0.097335566589509
 30
0.0
 10
-0.1816686316054791
 20
0.0951968884317417
 30
0.0
 10
-0.2019961980800366
 20
0.0924743238502725
 30
0.0
 10
-0.2223220097860994
 20
0.0891804956289092
 30
0.0
 10
-0.2426457939171888
 20
0.0853366072291643
 30
0.0
 10
-0.2629683391175864
 20
0.0809685366977045
 30
0.0
 10
-0.279373227539724
 20
0.0770335654331688
 30
0.0
 10
-0.2890071398574738
 20
0.0745736425192018
 30
0.0
 10
-0.2918987234695265
 20
0.0738206765826703
 30
0.0
  0
LINE
  5
38A0
330
1F
100
AcDbEntity
  8
AM_11
 48
0.5
100
AcDbLine
 10
-1.168293078984352
 20
0.1000141390684591
 30
0.0
 11
-0.9238852712562309
 21
0.0999999322536382
 31
0.0
  0
LINE
  5
38A1
330
1F
100
AcDbEntity
  8
AM_11
 48
0.5
100
AcDbLine
 10
-1.892060531485839
 20
0.1000141390684591
 30
0.0
 11
-1.647652723757754
 21
0.0999999322536382
 31
0.0
  0
LINE
  5
38A2
330
1F
100
AcDbEntity
  8
AM_0
100
AcDbLine
 10
-1.647674800384084
 20
0.0999999322536382
 30
0.0
 11
-1.168293078984352
 21
0.1000141390684591
 31
0.0
  0
LINE
  5
38A3
330
1F
100
AcDbEntity
  8
AM_0
100
AcDbLine
 10
-2.999999899928115
 20
0.0999865713037512
 30
0.0
 11
-1.892093109015068
 21
0.1000194049015183
 31
0.0
  0
LINE
  5
38A4
330
1F
100
AcDbEntity
  8
AM_0
 48
0.5
100
AcDbLine
 10
-0.9238856011209017
 20
0.0999999322536382
 30
0.0
 11
-0.4805557088752851
 21
0.0999999322536382
 31
0.0
  0
SPLINE
  5
38A5
330
1F
100
AcDbEntity
  8
AM_0
100
AcDbSpline
210
0.0
220
0.0
230
1.0
 70
     8
 71
     3
 72
    17
 73
    13
 74
     0
 42
0.0000000001
 43
0.0000000001
 40
1.580019955310467
 40
1.580019955310467
 40
1.580019955310467
 40
1.580019955310467
 40
2.030549285115227
 40
3.082371838836284
 40
4.126290986361125
 40
5.162752068350215
 40
6.192395305374981
 40
7.216039564037012
 40
8.234688489606833
 40
9.249433870634691
 40
10.26152376260694
 40
11.27226744710342
 40
11.27226744710342
 40
11.27226744710342
 40
11.27226744710352
 10
-0.3026412123832621
 20
-0.0738030124054003
 30
0.0
 10
-0.3055177366202026
 20
-0.0745631214244977
 30
0.0
 10
-0.315126293974856
 20
-0.0770544802616169
 30
0.0
 10
-0.3315304842018575
 20
-0.0809622657400026
 30
0.0
 10
-0.3518495005434184
 20
-0.0853384670726152
 30
0.0
 10
-0.372174110691129
 20
-0.0891801908071639
 30
0.0
 10
-0.3924996521053203
 20
-0.0924745355719828
 30
0.0
 10
-0.412827407950966
 20
-0.0951975381440938
 30
0.0
 10
-0.4331565681828335
 20
-0.0973336595485454
 30
0.0
 10
-0.4534869942709018
 20
-0.0988690570038428
 30
0.0
 10
-0.4738181853263692
 20
-0.0997938469782624
 30
0.0
 10
-0.4873756024005094
 20
-0.1000000683185769
 30
0.0
 10
-0.4941497994710656
 20
-0.1000000677463586
 30
0.0
  0
SPLINE
  5
38A6
330
1F
100
AcDbEntity
  8
AM_0
100
AcDbSpline
210
0.0
220
0.0
230
1.0
 70
     8
 71
     3
 72
    11
 73
     7
 74
     0
 42
0.0000000001
 43
0.0000000001
 40
11.27226913003534
 40
11.27226913003534
 40
11.27226913003534
 40
11.2722691300354
 40
12.28301561507924
 40
13.29510212255852
 40
14.30984805882082
 40
15.18258238371378
 40
15.18258238371378
 40
15.18258238371378
 40
15.18258238371378
 10
-0.4941497994710656
 20
-0.1000000677463586
 30
0.0
 10
-0.5008982377093114
 20
-0.0995106386865652
 30
0.0
 10
-0.5143823853479996
 20
-0.0983257522335716
 30
0.0
 10
-0.5345389771815177
 20
-0.0959355431769659
 30
0.0
 10
-0.5536679382475218
 20
-0.0930807005350241
 30
0.0
 10
-0.5660394274175239
 20
-0.0908860980305967
 30
0.0
 10
-0.5717405619049183
 20
-0.0898020250105074
 30
0.0
  0
LINE
  5
38A7
330
1F
100
AcDbEntity
  8
AM_11
 48
0.5
100
AcDbLine
 10
-0.4941497994710296
 20
-0.1000000677463424
 30
0.0
 11
-0.111162505734587
 21
-0.1000000677463424
 31
0.0
  0
SPLINE
  5
38A8
330
1F
100
AcDbEntity
  8
AM_0
100
AcDbSpline
210
0.0
220
0.0
230
1.0
 70
     8
 71
     3
 72
    17
 73
    13
 74
     0
 42
0.0000000001
 43
0.0000000001
 40
1.580019955310467
 40
1.580019955310467
 40
1.580019955310467
 40
1.580019955310467
 40
2.030549285115227
 40
3.082371838836284
 40
4.126290986361125
 40
5.162752068350215
 40
6.192395305374981
 40
7.216039564037012
 40
8.234688489606833
 40
9.249433870634691
 40
10.26152376260694
 40
11.27226744710342
 40
11.27226744710342
 40
11.27226744710342
 40
11.27226744710352
 10
-1.026427619931036
 20
-0.0738030124054003
 30
0.0
 10
-1.029304144168012
 20
-0.0745631214244977
 30
0.0
 10
-1.038912701522594
 20
-0.0770544802616169
 30
0.0
 10
-1.055316891749631
 20
-0.0809622657400026
 30
0.0
 10
-1.075635908091156
 20
-0.0853384670726152
 30
0.0
 10
-1.095960518238866
 20
-0.0891801908071639
 30
0.0
 10
-1.11628605965313
 20
-0.0924745355719828
 30
0.0
 10
-1.136613815498703
 20
-0.0951975381440938
 30
0.0
 10
-1.156942975730643
 20
-0.0973336595485454
 30
0.0
 10
-1.177273401818819
 20
-0.0988690570038428
 30
0.0
 10
-1.197604592874179
 20
-0.0997938469782624
 30
0.0
 10
-1.211162009948283
 20
-0.1000000683185769
 30
0.0
 10
-1.217936207018839
 20
-0.1000000677463586
 30
0.0
  0
LINE
  5
38A9
330
1F
100
AcDbEntity
  8
AM_11
 48
0.5
100
AcDbLine
 10
-1.217936207018767
 20
-0.1000000677463424
 30
0.0
 11
-0.834948913282361
 21
-0.1000142745611795
 31
0.0
  0
SPLINE
  5
38AA
330
1F
100
AcDbEntity
  8
AM_0
100
AcDbSpline
210
0.0
220
0.0
230
1.0
 70
     8
 71
     3
 72
    11
 73
     7
 74
     0
 42
0.0000000001
 43
0.0000000001
 40
11.27226913003534
 40
11.27226913003534
 40
11.27226913003534
 40
11.2722691300354
 40
12.28301561507924
 40
13.29510212255852
 40
14.30984805882082
 40
15.18258238371378
 40
15.18258238371378
 40
15.18258238371378
 40
15.18258238371378
 10
-1.217936207018839
 20
-0.1000000677463586
 30
0.0
 10
-1.224684645257085
 20
-0.0995106386865652
 30
0.0
 10
-1.238168792895809
 20
-0.0983257522335716
 30
0.0
 10
-1.258325384729219
 20
-0.0959355431769659
 30
0.0
 10
-1.277454345795295
 20
-0.0930807005350241
 30
0.0
 10
-1.289825834965369
 20
-0.0908860980305967
 30
0.0
 10
-1.295526969452764
 20
-0.0898020250105074
 30
0.0
  0
SPLINE
  5
38AB
330
1F
100
AcDbEntity
  8
AM_0
100
AcDbSpline
210
0.0
220
0.0
230
1.0
 70
     8
 71
     3
 72
    22
 73
    18
 74
     0
 42
0.0000000001
 43
0.0000000001
 40
17.17441611292
 40
17.17441611292
 40
17.17441611292
 40
17.17441611292
 40
17.38177636558528
 40
18.41823744757437
 40
19.46215659509824
 40
20.51397914882054
 40
21.57394542641293
 40
22.64209583141747
 40
23.71826625065247
 40
24.80210429862395
 40
25.8930771157021
 40
26.99048705697709
 40
28.09349309193389
 40
29.20112995599786
 40
30.31233024745139
 40
31.42594771747373
 40
32.5407895042663
 40
32.54078950426994
 40
32.54078950426994
 40
32.54078950426994
 10
-1.295535860983556
 20
-0.089800791511274
 30
0.0
 10
-1.29689726652065
 20
-0.0895693013194514
 30
0.0
 10
-1.305058149208579
 20
-0.0881592692585482
 30
0.0
 10
-1.320008426429209
 20
-0.0853319714567128
 30
0.0
 10
-1.340330271525062
 20
-0.0809624899002708
 30
0.0
 10
-1.360650045867694
 20
-0.0760940413106499
 30
0.0
 10
-1.380967892913245
 20
-0.0707570157511637
 30
0.0
 10
-1.401283785823576
 20
-0.0649841370792908
 30
0.0
 10
-1.42159797466359
 20
-0.058811332586702
 30
0.0
 10
-1.441910553493698
 20
-0.0522765383436195
 30
0.0
 10
-1.462221710253688
 20
-0.045420054068172
 30
0.0
 10
-1.482531670790612
 20
-0.0382841799252886
 30
0.0
 10
-1.502840611382675
 20
-0.0309127946208931
 30
0.0
 10
-1.523148736472307
 20
-0.0233512481630264
 30
0.0
 10
-1.543456226073264
 20
-0.0156460355031853
 30
0.0
 10
-1.5637633810234
 20
-0.0078447019682326
 30
0.0
 10
-1.577298826955931
 20
-0.0026125130492168
 30
0.0
 10
-1.5840702682066
 20
0.0000050185166579
 30
0.0
  0
LINE
  5
38AC
330
1F
100
AcDbEntity
  8
AM_0
 48
0.5
100
AcDbLine
 10
-1.647674953777286
 20
-0.1000000677463424
 30
0.0
 11
-1.21793620707742
 21
-0.1000000677463424
 31
0.0
  0
LINE
  5
38AD
330
1F
100
AcDbEntity
  8
AM_0
 48
0.5
100
AcDbLine
 10
-2.99999990047591
 20
-0.0999784508352542
 30
0.0
 11
-1.941736237108136
 21
-0.0999948019132831
 31
0.0
  0
LINE
  5
38AF
330
1F
100
AcDbEntity
  8
AM_11
 48
0.5
100
AcDbLine
 10
-1.941736237049483
 20
-0.0999948019132831
 30
0.0
 11
-1.64767495377725
 21
-0.1000090087281203
 31
0.0
  0
SPLINE
  5
38B0
330
1F
100
AcDbEntity
  8
AM_0
100
AcDbSpline
210
0.0
220
0.0
230
1.0
 70
     8
 71
     3
 72
    17
 73
    13
 74
     0
 42
0.0000000001
 43
0.0000000001
 40
1.580019955310467
 40
1.580019955310467
 40
1.580019955310467
 40
1.580019955310467
 40
2.030549285115227
 40
3.082371838836284
 40
4.126290986361125
 40
5.162752068350215
 40
6.192395305374981
 40
7.216039564037012
 40
8.234688489606833
 40
9.249433870634691
 40
10.26152376260694
 40
11.27226744710342
 40
11.27226744710342
 40
11.27226744710342
 40
11.27226744710352
 10
-1.750227649815481
 20
-0.0737977465723411
 30
0.0
 10
-1.753104174052457
 20
-0.0745578555914385
 30
0.0
 10
-1.762712731407038
 20
-0.0770492144285576
 30
0.0
 10
-1.779116921634076
 20
-0.0809569999069433
 30
0.0
 10
-1.799435937975601
 20
-0.085333201239556
 30
0.0
 10
-1.819760548123311
 20
-0.0891749249741046
 30
0.0
 10
-1.840086089537575
 20
-0.0924692697389236
 30
0.0
 10
-1.860413845383148
 20
-0.0951922723110346
 30
0.0
 10
-1.880743005615087
 20
-0.0973283937154862
 30
0.0
 10
-1.901073431703228
 20
-0.0988637911707835
 30
0.0
 10
-1.921404622758623
 20
-0.0997885811452031
 30
0.0
 10
-1.934962039832728
 20
-0.0999948024855177
 30
0.0
 10
-1.941736236903248
 20
-0.0999948019132994
 30
0.0
  0
SPLINE
  5
38B1
330
1F
100
AcDbEntity
  8
AM_0
100
AcDbSpline
210
0.0
220
0.0
230
1.0
 70
     8
 71
     3
 72
    22
 73
    18
 74
     0
 42
0.0000000001
 43
0.0000000001
 40
17.17441611292
 40
17.17441611292
 40
17.17441611292
 40
17.17441611292
 40
17.38177636558528
 40
18.41823744757437
 40
19.46215659509824
 40
20.51397914882054
 40
21.57394542641293
 40
22.64209583141747
 40
23.71826625065247
 40
24.80210429862395
 40
25.8930771157021
 40
26.99048705697709
 40
28.09349309193389
 40
29.20112995599786
 40
30.31233024745139
 40
31.42594771747373
 40
32.5407895042663
 40
32.54078950426994
 40
32.54078950426994
 40
32.54078950426994
 10
-0.5717494534357824
 20
-0.089800791511274
 30
0.0
 10
-0.5731108589728408
 20
-0.0895693013194514
 30
0.0
 10
-0.5812717416608772
 20
-0.0881592692585482
 30
0.0
 10
-0.5962220188814351
 20
-0.0853319714567128
 30
0.0
 10
-0.6165438639773609
 20
-0.0809624899002708
 30
0.0
 10
-0.6368636383198841
 20
-0.0760940413106499
 30
0.0
 10
-0.6571814853654718
 20
-0.0707570157511637
 30
0.0
 10
-0.6774973782757662
 20
-0.0649841370792908
 30
0.0
 10
-0.6978115671157806
 20
-0.058811332586702
 30
0.0
 10
-0.7181241459459964
 20
-0.0522765383436195
 30
0.0
 10
-0.7384353027058422
 20
-0.045420054068172
 30
0.0
 10
-0.7587452632428383
 20
-0.0382841799252886
 30
0.0
 10
-0.779054203834937
 20
-0.0309127946208931
 30
0.0
 10
-0.7993623289245335
 20
-0.0233512481630264
 30
0.0
 10
-0.819669818525454
 20
-0.0156460355031853
 30
0.0
 10
-0.8399769734756269
 20
-0.0078447019682326
 30
0.0
 10
-0.8535124194081577
 20
-0.0026125130492168
 30
0.0
 10
-0.8602838606588624
 20
0.0000050185166579
 30
0.0
  0
LINE
  5
38B2
330
1F
100
AcDbEntity
  8
AM_0
 48
0.5
100
AcDbLine
 10
-0.834948913282361
 20
-0.1000000677463424
 30
0.0
 11
-0.4941497994710296
 21
-0.1000000677463424
 31
0.0
  0
SPLINE
  5
38B3
330
1F
100
AcDbEntity
  8
AM_0
100
AcDbSpline
210
0.0
220
0.0
230
1.0
 70
     8
 71
     3
 72
    23
 73
    19
 74
     0
 42
0.0000000001
 43
0.0000000001
 40
16.03460024169435
 40
16.03460024169435
 40
16.03460024169435
 40
16.03460024169435
 40
16.35212704903564
 40
17.38177054169784
 40
18.41822485651776
 40
19.46214173629503
 40
20.51396345435107
 40
21.57393551351153
 40
22.64208202342361
 40
23.7182574881101
 40
24.80209208578934
 40
25.89306333925047
 40
26.99048218457928
 40
28.09348763352352
 40
29.20111863782268
 40
30.31232390128032
 40
31.42594612798585
 40
32.5407912310448
 40
32.5407912310486
 40
32.5407912310486
 40
32.5407912310486
 10
-1.892093109015068
 20
0.1000194049015183
 30
0.0
 10
-1.890004328950324
 20
0.0996818225114647
 30
0.0
 10
-1.881151161193011
 20
0.0982117462175031
 30
0.0
 10
-1.865556210846361
 20
0.095331356081382
 30
0.0
 10
-1.845360709322306
 20
0.0910482474486359
 30
0.0
 10
-1.825183966329975
 20
0.0862390303759395
 30
0.0
 10
-1.80502478960952
 20
0.0809315381588524
 30
0.0
 10
-1.7848824636761
 20
0.0751553601852248
 30
0.0
 10
-1.764755824351549
 20
0.0689435155243001
 30
0.0
 10
-1.744643470093138
 20
0.0623321555538122
 30
0.0
 10
-1.724544258044702
 20
0.0553587200198291
 30
0.0
 10
-1.704456576779609
 20
0.0480637857188688
 30
0.0
 10
-1.684378798415719
 20
0.0404897539608636
 30
0.0
 10
-1.664309585228138
 20
0.0326801722531675
 30
0.0
 10
-1.64424725805006
 20
0.0246804522439154
 30
0.0
 10
-1.624189958685064
 20
0.016537306428948
 30
0.0
 10
-1.604136053902951
 20
0.0082979221331648
 30
0.0
 10
-1.590770375029391
 20
0.0027738654877192
 30
0.0
 10
-1.584083890689542
 20
0.0000102843496847
 30
0.0
  0
SPLINE
  5
38B4
330
1F
100
AcDbEntity
  8
AM_0
100
AcDbSpline
210
0.0
220
0.0
230
1.0
 70
     8
 71
     3
 72
    55
 73
    51
 74
     0
 42
0.0000000001
 43
0.0000000001
 40
0.0
 40
0.0
 40
0.0
 40
0.0
 40
1.010743684496582
 40
2.022833576467832
 40
3.037578957496688
 40
4.056212745003489
 40
5.079857003664532
 40
6.109500240690281
 40
7.145961322679372
 40
8.189895241603872
 40
9.241717795325891
 40
10.30168407291828
 40
11.36983447792315
 40
12.44600489715814
 40
13.52984294512926
 40
14.62081576220742
 40
15.7182257034828
 40
16.82123173843959
 40
17.92886860250316
 40
19.0400688939571
 40
20.15368796660465
 40
21.26852814259644
 40
22.38336992938901
 40
23.49698739941135
 40
24.6081876908653
 40
25.71582455492886
 40
26.81883757994213
 40
27.91624752121713
 40
29.00722033829659
 40
30.09105838626677
 40
31.16722880550176
 40
32.23537921050758
 40
33.29534548809967
 40
34.347168041821
 40
35.39108718934584
 40
36.42754827133493
 40
37.45720575381954
 40
38.48085062012849
 40
39.49948440763516
 40
40.51422944315121
 40
41.52631975251916
 40
42.53706336719636
 40
43.54780698187354
 40
44.55989729124051
 40
45.57464232675757
 40
46.59327611426424
 40
47.6169209805722
 40
48.64656348684535
 40
49.68302456883444
 40
50.58557219878025
 40
50.58557219878025
 40
50.58557219878025
 40
50.58557219878025
 10
-0.834948913282397
 20
-0.1000000677463586
 30
0.0
 10
-0.8417231104422992
 20
-0.0999405701690048
 30
0.0
 10
-0.8552805273016204
 20
-0.0998214957695853
 30
0.0
 10
-0.8756117187882374
 20
-0.0988616224325939
 30
0.0
 10
-0.8959420424129058
 20
-0.0973356745736364
 30
0.0
 10
-0.9162711077901446
 20
-0.0951970006131385
 30
0.0
 10
-0.9365987120678315
 20
-0.0924745836836841
 30
0.0
 10
-0.9569244542278738
 20
-0.0891805299394346
 30
0.0
 10
-0.9772484022588715
 20
-0.0853370293006119
 30
0.0
 10
-0.9975703759286531
 20
-0.0809676175260767
 30
0.0
 10
-1.017890236807374
 20
-0.0760991225391033
 30
0.0
 10
-1.038208086178406
 20
-0.0707621033794389
 30
0.0
 10
-1.058523978456909
 20
-0.06498922297022
 30
0.0
 10
-1.078838167473781
 20
-0.0588164189584454
 30
0.0
 10
-1.099150746234837
 20
-0.0522816245472525
 30
0.0
 10
-1.119461903093313
 20
-0.0454251404601678
 30
0.0
 10
-1.139771863302862
 20
-0.0382892657284516
 30
0.0
 10
-1.16008080511432
 20
-0.0309178826055441
 30
0.0
 10
-1.180388925628413
 20
-0.0233563279651159
 30
0.0
 10
-1.200696442150489
 20
-0.0156511422776557
 30
0.0
 10
-1.221003532797164
 20
-0.0078496938582232
 30
0.0
 10
-1.241310484335569
 20
-0.000000088150005
 30
0.0
 10
-1.261617344712868
 20
0.0078496588560272
 30
0.0
 10
-1.281924503424318
 20
0.0156509857862618
 30
0.0
 10
-1.302231994876605
 20
0.0233561947968853
 30
0.0
 10
-1.322540151599848
 20
0.0309177782434468
 30
0.0
 10
-1.342849177662542
 20
0.0382890984577102
 30
0.0
 10
-1.363159169926453
 20
0.0454250093782206
 30
0.0
 10
-1.383470329717299
 20
0.052281487905418
 30
0.0
 10
-1.403782907739227
 20
0.0588162836908411
 30
0.0
 10
-1.424097096808093
 20
0.064989087711662
 30
0.0
 10
-1.44441298960407
 20
0.070761966740479
 30
0.0
 10
-1.464730836878006
 20
0.076098991349722
 30
0.0
 10
-1.485050610429477
 20
0.0809674433479504
 30
0.0
 10
-1.50537245843129
 20
0.0853369123508968
 30
0.0
 10
-1.525696398923216
 20
0.089180490277686
 30
0.0
 10
-1.546022286215855
 20
0.0924741677952413
 30
0.0
 10
-1.566349957650176
 20
0.0951974273703025
 30
0.0
 10
-1.586679029053901
 20
0.0973335662088743
 30
0.0
 10
-1.607009366804672
 20
0.0988687805932987
 30
0.0
 10
-1.627340541052864
 20
0.0997938607443091
 30
0.0
 10
-1.647672162066231
 20
0.1001028994127425
 30
0.0
 10
-1.668003783049696
 20
0.0997938607438218
 30
0.0
 10
-1.688334957387701
 20
0.0988687805952313
 30
0.0
 10
-1.708665294807464
 20
0.0973335662015334
 30
0.0
 10
-1.728994367452391
 20
0.095197427397831
 30
0.0
 10
-1.74932193511932
 20
0.0924741809680377
 30
0.0
 10
-1.769647742335627
 20
0.0891805239537575
 30
0.0
 10
-1.789047597359894
 20
0.0855113864549252
 30
0.0
 10
-1.801634444231453
 20
0.082828111515198
 30
0.0
 10
-1.807474007565273
 20
0.081520420739017
 30
0.0
  0
SPLINE
  5
38B5
330
1F
100
AcDbEntity
  8
AM_0
100
AcDbSpline
210
0.0
220
0.0
230
1.0
 70
     8
 71
     3
 72
    46
 73
    42
 74
     0
 42
0.0000000001
 43
0.0000000001
 40
0.0
 40
0.0
 40
0.0
 40
0.0
 40
0.8427075293422831
 40
1.265518104770557
 40
1.689948849565058
 40
2.116467290673825
 40
2.545485306101222
 40
2.97734409026334
 40
3.412310401731621
 40
3.850575907619841
 40
4.292228523283341
 40
4.737291192035375
 40
5.185695533383689
 40
5.637294720037917
 40
6.09186672715383
 40
6.549120869352283
 40
7.008706717250553
 40
7.470222077277046
 40
7.933222198716568
 40
8.397230145652669
 40
8.861746885649248
 40
9.326263625646204
 40
9.790271572582303
 40
10.25327169402144
 40
10.71478705404793
 40
11.17437290194658
 40
11.6316270441445
 40
12.08619905126055
 40
12.5378012019472
 40
12.98620554329551
 40
13.43126821204755
 40
13.87292082771092
 40
14.31118022509521
 40
14.74614653656349
 40
15.17800532072561
 40
15.60702303167235
 40
16.03354172596773
 40
16.45797877828844
 40
16.88078920975347
 40
17.30249350532346
 40
17.72363667810562
 40
17.72363667810562
 40
17.72363667810562
 40
17.72363667810562
 10
-0.7780353920391491
 20
-0.1000000677463586
 30
0.0
 10
-0.7915934712923248
 20
-0.0997722600162743
 30
0.0
 10
-0.8119540283816411
 20
-0.0994301546038921
 30
0.0
 10
-0.8390283490311658
 20
-0.0973238744280302
 30
0.0
 10
-0.8593576328231113
 20
-0.0952001837153652
 30
0.0
 10
-0.8796851789452652
 20
-0.0924737255829039
 30
0.0
 10
-0.9000109338478964
 20
-0.0891807547319966
 30
0.0
 10
-0.9203347931134702
 20
-0.0853370143686416
 30
0.0
 10
-0.9406567227028698
 20
-0.0809675440212996
 30
0.0
 10
-0.9609766321761258
 20
-0.0760991728847509
 30
0.0
 10
-0.9812945621479434
 20
-0.0707620964021853
 30
0.0
 10
-1.001610457969162
 20
-0.0649892248611894
 30
0.0
 10
-1.021924646025609
 20
-0.0588164184456852
 30
0.0
 10
-1.042237225048262
 20
-0.0522816246881917
 30
0.0
 10
-1.06254838183031
 20
-0.0454251404139948
 30
0.0
 10
-1.082858342082068
 20
-0.0382892657712953
 30
0.0
 10
-1.103167283800977
 20
-0.0309178824798876
 30
0.0
 10
-1.123475404644496
 20
-0.0233563284272692
 30
0.0
 10
-1.143782919936417
 20
-0.0156511405479105
 30
0.0
 10
-1.164090015187274
 20
-0.0078497003309833
 30
0.0
 10
-1.184396939733134
 20
-0.0000000677479599
 30
0.0
 10
-1.204703864274532
 20
0.0078495648445969
 30
0.0
 10
-1.225010959538738
 20
0.0156510050329399
 30
0.0
 10
-1.245318474781794
 20
0.0233561930168418
 30
0.0
 10
-1.26562659580656
 20
0.0309177466817719
 30
0.0
 10
-1.285935536853089
 20
0.0382891314106034
 30
0.0
 10
-1.306245499595237
 20
0.0454250007300304
 30
0.0
 10
-1.326556691320837
 20
0.0522815196007724
 30
0.0
 10
-1.346869349268471
 20
0.0588162539863381
 30
0.0
 10
-1.367183573562278
 20
0.0649890920538983
 30
0.0
 10
-1.3874994689105
 20
0.0707619653126211
 30
0.0
 10
-1.407817315418608
 20
0.0760989927520329
 30
0.0
 10
-1.428137089504391
 20
0.0809674391981534
 30
0.0
 10
-1.448458936141006
 20
0.0853369273952385
 30
0.0
 10
-1.468782783644279
 20
0.089180416280921
 30
0.0
 10
-1.489108553448449
 20
0.0924743422231537
 30
0.0
 10
-1.509436229302575
 20
0.0951969069384322
 30
0.0
 10
-1.529765408342882
 20
0.0973355480380746
 30
0.0
 10
-1.550095845139594
 20
0.0988613558501307
 30
0.0
 10
-1.57042701991609
 20
0.0998214882099302
 30
0.0
 10
-1.583984442453113
 20
0.0999404773112522
 30
0.0
 10
-1.590758640818053
 20
0.0999999322536219
 30
0.0
  0
SPLINE
  5
38B6
330
1F
100
AcDbEntity
  8
AM_0
100
AcDbSpline
210
0.0
220
0.0
230
1.0
 70
     8
 71
     3
 72
    23
 73
    19
 74
     0
 42
0.0000000001
 43
0.0000000001
 40
16.03460024169435
 40
16.03460024169435
 40
16.03460024169435
 40
16.03460024169435
 40
16.35212704903564
 40
17.38177054169784
 40
18.41822485651776
 40
19.46214173629503
 40
20.51396345435107
 40
21.57393551351153
 40
22.64208202342361
 40
23.7182574881101
 40
24.80209208578934
 40
25.89306333925047
 40
26.99048218457928
 40
28.09348763352352
 40
29.20111863782268
 40
30.31232390128032
 40
31.42594612798585
 40
32.5407912310448
 40
32.5407912310486
 40
32.5407912310486
 40
32.5407912310486
 10
-1.168293078984352
 20
0.1000141390684591
 30
0.0
 10
-1.166204298919609
 20
0.0996765566784054
 30
0.0
 10
-1.157351131162295
 20
0.0982064803844439
 30
0.0
 10
-1.141756180815645
 20
0.0953260902483228
 30
0.0
 10
-1.12156067929159
 20
0.0910429816155767
 30
0.0
 10
-1.101383936299259
 20
0.0862337645428802
 30
0.0
 10
-1.081224759578803
 20
0.0809262723257932
 30
0.0
 10
-1.061082433645384
 20
0.0751500943521656
 30
0.0
 10
-1.040955794320833
 20
0.0689382496912409
 30
0.0
 10
-1.020843440062422
 20
0.0623268897207529
 30
0.0
 10
-1.000744228013986
 20
0.0553534541867699
 30
0.0
 10
-0.9806565467488933
 20
0.0480585198858095
 30
0.0
 10
-0.9605787683850037
 20
0.0404844881278043
 30
0.0
 10
-0.9405095551973868
 20
0.0326749064201083
 30
0.0
 10
-0.9204472280193453
 20
0.0246751864108562
 30
0.0
 10
-0.9003899286543132
 20
0.0165320405958888
 30
0.0
 10
-0.8803360238722357
 20
0.0082926563001056
 30
0.0
 10
-0.8669703449986759
 20
0.00276859965466
 30
0.0
 10
-0.8602838606588264
 20
0.0000050185166254
 30
0.0
  0
SPLINE
  5
38B7
330
1F
100
AcDbEntity
  8
AM_0
 48
0.5
100
AcDbSpline
210
0.0
220
0.0
230
1.0
 70
     8
 71
     3
 72
    25
 73
    21
 74
     0
 42
0.0000000001
 43
0.0000000001
 40
6.846175049578289
 40
6.846175049578289
 40
6.846175049578289
 40
6.846175049578289
 40
7.604337694224321
 40
8.711974558287883
 40
9.814980593243754
 40
10.91239053451967
 40
12.0033633515982
 40
13.08720139956839
 40
14.16337181880432
 40
15.23152222380919
 40
16.29148850140128
 40
17.34331105512262
 40
18.38723020264746
 40
19.42369128463655
 40
20.45333379090873
 40
21.47697865721768
 40
22.49561244472435
 40
23.5103574802404
 40
24.52244778960836
 40
25.53320666051913
 40
25.53320666051913
 40
25.53320666051913
 40
25.53320666051913
 10
-0.1217509203980773
 20
0.0181047240506343
 30
0.0
 10
-0.1263694711445253
 20
0.0198605462013169
 30
0.0
 10
-0.1377452083679145
 20
0.0241639646838832
 30
0.0
 10
-0.155895037623401
 20
0.0309218808579723
 30
0.0
 10
-0.1762039771056368
 20
0.0382932682453056
 30
0.0
 10
-0.1965139379376225
 20
0.0454291418335109
 30
0.0
 10
-0.2168250946197447
 20
0.0522856262588464
 30
0.0
 10
-0.2371376734684198
 20
0.0588204204528974
 30
0.0
 10
-0.2574518623112769
 20
0.064993224992585
 30
0.0
 10
-0.2777677551922811
 20
0.070766103526101
 30
0.0
 10
-0.2980856023511077
 20
0.0761031295866701
 30
0.0
 10
-0.3184053762748594
 20
0.0809715763300168
 30
0.0
 10
-0.3387272229163675
 20
0.0853410646993861
 30
0.0
 10
-0.359051070558823
 20
0.0891845526125102
 30
0.0
 10
-0.3793768398070182
 20
0.0924784822384075
 30
0.0
 10
-0.3997044175576368
 20
0.0952010198836157
 30
0.0
 10
-0.420033487521642
 20
0.0973397052212428
 30
0.0
 10
-0.4403638256521431
 20
0.0988654895982027
 30
0.0
 10
-0.4606951019263238
 20
0.099825631165889
 30
0.0
 10
-0.474252626905157
 20
0.0999446160709324
 30
0.0
 10
-0.4810269276160485
 20
0.1000040693655575
 30
0.0
  0
SPLINE
  5
38B8
330
1F
100
AcDbEntity
  8
AM_0
100
AcDbSpline
210
0.0
220
0.0
230
1.0
 70
     8
 71
     3
 72
    55
 73
    51
 74
     0
 42
0.0000000001
 43
0.0000000001
 40
0.0
 40
0.0
 40
0.0
 40
0.0
 40
1.010743684496582
 40
2.022833576467832
 40
3.037578957496688
 40
4.056212745003489
 40
5.079857003664532
 40
6.109500240690281
 40
7.145961322679372
 40
8.189895241603872
 40
9.241717795325891
 40
10.30168407291828
 40
11.36983447792315
 40
12.44600489715814
 40
13.52984294512926
 40
14.62081576220742
 40
15.7182257034828
 40
16.82123173843959
 40
17.92886860250316
 40
19.0400688939571
 40
20.15368796660465
 40
21.26852814259644
 40
22.38336992938901
 40
23.49698739941135
 40
24.6081876908653
 40
25.71582455492886
 40
26.81883757994213
 40
27.91624752121713
 40
29.00722033829659
 40
30.09105838626677
 40
31.16722880550176
 40
32.23537921050758
 40
33.29534548809967
 40
34.347168041821
 40
35.39108718934584
 40
36.42754827133493
 40
37.45720575381954
 40
38.48085062012849
 40
39.49948440763516
 40
40.51422944315121
 40
41.52631975251916
 40
42.53706336719636
 40
43.54780698187354
 40
44.55989729124051
 40
45.57464232675757
 40
46.59327611426424
 40
47.6169209805722
 40
48.64656348684535
 40
49.68302456883444
 40
50.58557219878025
 40
50.58557219878025
 40
50.58557219878025
 40
50.58557219878025
 10
-0.111162505734587
 20
-0.1000000677463586
 30
0.0
 10
-0.1179367028945613
 20
-0.0999405701690048
 30
0.0
 10
-0.1314941197538823
 20
-0.0998214957695853
 30
0.0
 10
-0.1518253112404633
 20
-0.0988616224325939
 30
0.0
 10
-0.1721556348651318
 20
-0.0973356745736364
 30
0.0
 10
-0.1924847002423705
 20
-0.0951970006131385
 30
0.0
 10
-0.2128123045200933
 20
-0.0924745836836841
 30
0.0
 10
-0.2331380466800637
 20
-0.0891805299394346
 30
0.0
 10
-0.2534619947111695
 20
-0.0853370293006119
 30
0.0
 10
-0.2737839683809511
 20
-0.0809676175260767
 30
0.0
 10
-0.2941038292595648
 20
-0.0760991225391033
 30
0.0
 10
-0.3144216786306326
 20
-0.0707621033794389
 30
0.0
 10
-0.3347375709091358
 20
-0.06498922297022
 30
0.0
 10
-0.355051759926007
 20
-0.0588164189584454
 30
0.0
 10
-0.3753643386870633
 20
-0.0522816245472525
 30
0.0
 10
-0.3956754955455746
 20
-0.0454251404601678
 30
0.0
 10
-0.4159854557550888
 20
-0.0382892657284516
 30
0.0
 10
-0.436294397566511
 20
-0.0309178826055441
 30
0.0
 10
-0.4566025180806039
 20
-0.0233563279651159
 30
0.0
 10
-0.4769100346027514
 20
-0.0156511422776557
 30
0.0
 10
-0.4972171252493541
 20
-0.0078496938582232
 30
0.0
 10
-0.5175240767877956
 20
-0.000000088150005
 30
0.0
 10
-0.5378309371650222
 20
0.0078496588560272
 30
0.0
 10
-0.5581380958764728
 20
0.0156509857862618
 30
0.0
 10
-0.5784455873287959
 20
0.0233561947968853
 30
0.0
 10
-0.5987537440520389
 20
0.0309177782434468
 30
0.0
 10
-0.6190627701147685
 20
0.0382890984577102
 30
0.0
 10
-0.6393727623787512
 20
0.0454250093782206
 30
0.0
 10
-0.6596839221694897
 20
0.052281487905418
 30
0.0
 10
-0.6799965001914891
 20
0.0588162836908411
 30
0.0
 10
-0.70031068926032
 20
0.064989087711662
 30
0.0
 10
-0.7206265820562962
 20
0.070761966740479
 30
0.0
 10
-0.7409444293302688
 20
0.076098991349722
 30
0.0
 10
-0.7612642028816672
 20
0.0809674433479504
 30
0.0
 10
-0.7815860508835165
 20
0.0853369123508968
 30
0.0
 10
-0.8019099913754422
 20
0.089180490277686
 30
0.0
 10
-0.8222358786680452
 20
0.0924741677952413
 30
0.0
 10
-0.8425635501024384
 20
0.0951974273703025
 30
0.0
 10
-0.8628926215061273
 20
0.0973335662088743
 30
0.0
 10
-0.8832229592569349
 20
0.0988687805932987
 30
0.0
 10
-0.9035541335050901
 20
0.0997938607443091
 30
0.0
 10
-0.9238857545184574
 20
0.1001028994127425
 30
0.0
 10
-0.9442173755018867
 20
0.0997938607438218
 30
0.0
 10
-0.9645485498399638
 20
0.0988687805952313
 30
0.0
 10
-0.9848788872596909
 20
0.0973335662015334
 30
0.0
 10
-1.005207959904652
 20
0.095197427397831
 30
0.0
 10
-1.025535527571546
 20
0.0924741809680377
 30
0.0
 10
-1.045861334787925
 20
0.0891805239537575
 30
0.0
 10
-1.06526118981212
 20
0.0855113864549252
 30
0.0
 10
-1.077848036683679
 20
0.082828111515198
 30
0.0
 10
-1.083687600017535
 20
0.081520420739017
 30
0.0
  0
SPLINE
  5
38BB
330
1F
100
AcDbEntity
  8
AM_0
100
AcDbSpline
210
0.0
220
0.0
230
1.0
 70
     8
 71
     3
 72
    46
 73
    42
 74
     0
 42
0.0000000001
 43
0.0000000001
 40
0.0
 40
0.0
 40
0.0
 40
0.0
 40
0.8427075293422831
 40
1.265518104770557
 40
1.689948849565058
 40
2.116467290673825
 40
2.545485306101222
 40
2.97734409026334
 40
3.412310401731621
 40
3.850575907619841
 40
4.292228523283341
 40
4.737291192035375
 40
5.185695533383689
 40
5.637294720037917
 40
6.09186672715383
 40
6.549120869352283
 40
7.008706717250553
 40
7.470222077277046
 40
7.933222198716568
 40
8.397230145652669
 40
8.861746885649248
 40
9.326263625646204
 40
9.790271572582303
 40
10.25327169402144
 40
10.71478705404793
 40
11.17437290194658
 40
11.6316270441445
 40
12.08619905126055
 40
12.5378012019472
 40
12.98620554329551
 40
13.43126821204755
 40
13.87292082771092
 40
14.31118022509521
 40
14.74614653656349
 40
15.17800532072561
 40
15.60702303167235
 40
16.03354172596773
 40
16.45797877828844
 40
16.88078920975347
 40
17.30249350532346
 40
17.72363667810562
 40
17.72363667810562
 40
17.72363667810562
 40
17.72363667810562
 10
-1.501836115182675
 20
-0.0999948018875899
 30
0.0
 10
-1.515394194435851
 20
-0.0997669941575055
 30
0.0
 10
-1.535754751525167
 20
-0.0994248887451234
 30
0.0
 10
-1.562829072174692
 20
-0.0973186085692614
 30
0.0
 10
-1.583158355966637
 20
-0.0951949178565965
 30
0.0
 10
-1.603485902088791
 20
-0.0924684597241351
 30
0.0
 10
-1.623811656991422
 20
-0.0891754888732278
 30
0.0
 10
-1.644135516257032
 20
-0.0853317485098729
 30
0.0
 10
-1.664457445846396
 20
-0.0809622781625309
 30
0.0
 10
-1.684777355319688
 20
-0.0760939070259822
 30
0.0
 10
-1.705095285291469
 20
-0.0707568305434166
 30
0.0
 10
-1.725411181112725
 20
-0.0649839590024207
 30
0.0
 10
-1.745725369169171
 20
-0.0588111525869165
 30
0.0
 10
-1.766037948191825
 20
-0.052276358829423
 30
0.0
 10
-1.786349104973836
 20
-0.045419874555226
 30
0.0
 10
-1.80665906522563
 20
-0.0382839999125265
 30
0.0
 10
-1.826968006944539
 20
-0.0309126166211189
 30
0.0
 10
-1.847276127788022
 20
-0.0233510625685005
 30
0.0
 10
-1.867583643079943
 20
-0.0156458746891418
 30
0.0
 10
-1.8878907383308
 20
-0.0078444344722146
 30
0.0
 10
-1.90819766287666
 20
0.0000051981108088
 30
0.0
 10
-1.928504587418058
 20
0.0078548307033656
 30
0.0
 10
-1.9488116826823
 20
0.0156562708917086
 30
0.0
 10
-1.969119197925321
 20
0.0233614588756105
 30
0.0
 10
-1.989427318950122
 20
0.0309230125405406
 30
0.0
 10
-2.009736259996615
 20
0.0382943972693721
 30
0.0
 10
-2.030046222738764
 20
0.0454302665887991
 30
0.0
 10
-2.050357414464363
 20
0.0522867854595412
 30
0.0
 10
-2.070670072411997
 20
0.0588215198451069
 30
0.0
 10
-2.090984296705804
 20
0.064994357912667
 30
0.0
 10
-2.111300192054062
 20
0.0707672311713898
 30
0.0
 10
-2.131618038562134
 20
0.0761042586108016
 30
0.0
 10
-2.151937812647918
 20
0.0809727050569222
 30
0.0
 10
-2.172259659284532
 20
0.0853421932540072
 30
0.0
 10
-2.192583506787841
 20
0.0891856821396897
 30
0.0
 10
-2.212909276592011
 20
0.0924796080819224
 30
0.0
 10
-2.233236952446137
 20
0.0952021727972009
 30
0.0
 10
-2.253566131486445
 20
0.0973408138968433
 30
0.0
 10
-2.273896568283121
 20
0.0988666217088994
 30
0.0
 10
-2.294227743059616
 20
0.0998267540686989
 30
0.0
 10
-2.298653076188568
 20
0.0998930434860741
 30
0.0
 10
-2.300000167728986
 20
0.1000073162886476
 30
0.0
  0
SPLINE
  5
390D
330
1F
100
AcDbEntity
  8
AM_0
100
AcDbSpline
210
0.0
220
0.0
230
1.0
 70
     8
 71
     3
 72
    55
 73
    51
 74
     0
 42
0.0000000001
 43
0.0000000001
 40
0.0
 40
0.0
 40
0.0
 40
0.0
 40
1.010743684496582
 40
2.022833576467832
 40
3.037578957496688
 40
4.056212745003489
 40
5.079857003664532
 40
6.109500240690281
 40
7.145961322679372
 40
8.189895241603872
 40
9.241717795325891
 40
10.30168407291828
 40
11.36983447792315
 40
12.44600489715814
 40
13.52984294512926
 40
14.62081576220742
 40
15.7182257034828
 40
16.82123173843959
 40
17.92886860250316
 40
19.0400688939571
 40
20.15368796660465
 40
21.26852814259644
 40
22.38336992938901
 40
23.49698739941135
 40
24.6081876908653
 40
25.71582455492886
 40
26.81883757994213
 40
27.91624752121713
 40
29.00722033829659
 40
30.09105838626677
 40
31.16722880550176
 40
32.23537921050758
 40
33.29534548809967
 40
34.347168041821
 40
35.39108718934584
 40
36.42754827133493
 40
37.45720575381954
 40
38.48085062012849
 40
39.49948440763516
 40
40.51422944315121
 40
41.52631975251916
 40
42.53706336719636
 40
43.54780698187354
 40
44.55989729124051
 40
45.57464232675757
 40
46.59327611426424
 40
47.6169209805722
 40
48.64656348684535
 40
49.68302456883444
 40
50.58557219878025
 40
50.58557219878025
 40
50.58557219878025
 40
50.58557219878025
 10
-1.54541210689631
 20
-0.0999948018875899
 30
0.0
 10
-1.552128340249035
 20
-0.0999353043102361
 30
0.0
 10
-1.565569752292126
 20
-0.0998162299108166
 30
0.0
 10
-1.585726978770796
 20
-0.0988563565738252
 30
0.0
 10
-1.605883344813357
 20
-0.0973304087148677
 30
0.0
 10
-1.62603846337479
 20
-0.0951917347543697
 30
0.0
 10
-1.646192133338654
 20
-0.0924693178249154
 30
0.0
 10
-1.666343957118226
 20
-0.0891752640806659
 30
0.0
 10
-1.686494002120285
 20
-0.0853317634418432
 30
0.0
 10
-1.706642089654863
 20
-0.080962351667308
 30
0.0
 10
-1.7267880824766
 20
-0.0760938566803346
 30
0.0
 10
-1.746932081002192
 20
-0.0707568375206702
 30
0.0
 10
-1.767074139181266
 20
-0.0649839571114513
 30
0.0
 10
-1.787214508672764
 20
-0.0588111530996766
 30
0.0
 10
-1.80735328168673
 20
-0.0522763586884838
 30
0.0
 10
-1.827490644964669
 20
-0.0454198746013991
 30
0.0
 10
-1.847626821832878
 20
-0.0382839998696828
 30
0.0
 10
-1.867761989016942
 20
-0.0309126167467753
 30
0.0
 10
-1.887896341931155
 20
-0.0233510621063472
 30
0.0
 10
-1.908030096021478
 20
-0.015645876418887
 30
0.0
 10
-1.928163427880356
 20
-0.0078444279994545
 30
0.0
 10
-1.948296621821288
 20
0.0000051777087638
 30
0.0
 10
-1.968429725381139
 20
0.0060867778641551
 30
0.0
 10
-1.988563124722465
 20
0.0138352819006258
 30
0.0
 10
-2.008696853957439
 20
0.0222577890447582
 30
0.0
 10
-2.028831242770976
 20
0.0292765212263504
 30
0.0
 10
-2.04896649348541
 20
0.0367012527404711
 30
0.0
 10
-2.069102702133741
 20
0.0437200562376035
 30
0.0
 10
-2.089240068318925
 20
0.0503878446785535
 30
0.0
 10
-2.10937884060005
 20
0.0577575919163138
 30
0.0
 10
-2.129519210143099
 20
0.0630216053947379
 30
0.0
 10
-2.149661268835218
 20
0.0678578683028945
 30
0.0
 10
-2.169805265281694
 20
0.0722646690679767
 30
0.0
 10
-2.1899511715234
 20
0.0761818886951744
 30
0.0
 10
-2.210099134465296
 20
0.0802355349380832
 30
0.0
 10
-2.230249171992792
 20
0.0830370230427917
 30
0.0
 10
-2.250401139663125
 20
0.0861251995924022
 30
0.0
 10
-2.270554876208993
 20
0.0886170356504153
 30
0.0
 10
-2.290710000745311
 20
0.0913610434350716
 30
0.0
 10
-2.310866380793175
 20
0.0931350886478271
 30
0.0
 10
-2.331023590180886
 20
0.0946423424495606
 30
0.0
 10
-2.351181242511
 20
0.0957314732780361
 30
0.0
 10
-2.371338894811433
 20
0.0957314732780361
 30
0.0
 10
-2.391496104288224
 20
0.0963846522498813
 30
0.0
 10
-2.411652484007877
 20
0.095925380213771
 30
0.0
 10
-2.431807609774776
 20
0.0940984901906461
 30
0.0
 10
-2.451159325684639
 20
0.0915910360307919
 30
0.0
 10
-2.466978225442875
 20
0.0858637568463792
 30
0.0
 10
-2.476743272396298
 20
0.0797028079024074
 30
0.0
 10
-2.487228617361139
 20
0.070318396841671
 30
0.0
 10
-2.494724515709364
 20
0.0582872316213636
 30
0.0
  0
ELLIPSE
  5
390E
330
1F
100
AcDbEntity
  8
AM_0
100
AcDbEllipse
 10
-2.103329187736936
 20
0.609239198459242
 30
0.0
 11
0.7791118961417086
 21
0.0000000000000021
 31
0.0
210
0.0
220
0.0
230
1.0
 40
0.9104908238304572
 41
4.227479111204912
 42
4.732451991731522
  0
ELLIPSE
  5
390F
330
1F
100
AcDbEntity
  8
AM_0
100
AcDbEllipse
 10
-2.43288299064164
 20
0.0345380600704393
 30
0.0
 11
-0.0671173986760818
 21
0.0000000000000009
 31
0.0
210
0.0
220
0.0
230
1.0
 40
0.9104908238304581
 41
-0.3991456590762623
 42
1.046270830457432
  0
LINE
  5
396A
330
1F
100
AcDbEntity
  8
AM_0
100
AcDbLine
 10
-4.492870884183226
 20
0.5000001457908338
 30
0.0
 11
-5.999998139251331
 21
0.5000001201448185
 31
0.0
1001
GENIUS_GENODEF_13
1002
{
1000
HIER
1070
     0
1002
}
1002
{
1000
MANEDIT
1070
     0
1002
}
1002
{
1000
NOSEL
1070
     0
1002
}
1002
{
1000
BEHIND
1070
     0
1002
}
1002
{
1000
REACTOR
1002
}
1001
GENIUS_GENOBJ-N-CEN_13
1002
{
1000
OWNER
1000
GEN
1002
}
  0
LINE
  5
3973
330
1F
100
AcDbEntity
  8
AM_0
100
AcDbLine
 10
-4.492870884183226
 20
0.5000001457908338
 30
0.0
 11
-2.999999900480133
 21
0.0999865713037348
 31
0.0
  0
LINE
  5
3974
330
1F
100
AcDbEntity
  8
AM_0
100
AcDbLine
 10
-6.000000158644618
 20
0.5000001155851999
 30
0.0
 11
-6.000000150136374
 21
0.0000001155852001
 31
0.0
  0
LINE
  5
3975
330
1F
100
AcDbEntity
  8
AM_0
100
AcDbLine
 10
-4.492870884183226
 20
0.5000001457908338
 30
0.0
 11
-4.492870875674983
 21
0.0000001457908339
 31
0.0
  0
LINE
  5
3976
330
1F
100
AcDbEntity
  8
AM_0
100
AcDbLine
 10
-4.492870884183226
 20
-0.4999996818401355
 30
0.0
 11
-4.492870875674983
 21
0.0000003181598644
 31
0.0
  0
LINE
  5
3977
330
1F
100
AcDbEntity
  8
AM_0
100
AcDbLine
 10
-6.000000158644618
 20
-0.4999996516345017
 30
0.0
 11
-6.000000150136374
 21
0.0000003483654981
 31
0.0
  0
LINE
  5
3978
330
1F
100
AcDbEntity
  8
AM_0
100
AcDbLine
 10
-4.492870884183226
 20
-0.4999996818401355
 30
0.0
 11
-5.999998139251501
 21
-0.4999996561941202
 31
0.0
1001
GENIUS_GENODEF_13
1002
{
1000
HIER
1070
     0
1002
}
1002
{
1000
MANEDIT
1070
     0
1002
}
1002
{
1000
NOSEL
1070
     0
1002
}
1002
{
1000
BEHIND
1070
     0
1002
}
1002
{
1000
REACTOR
1002
}
1001
GENIUS_GENOBJ-N-CEN_13
1002
{
1000
OWNER
1000
GEN
1002
}
  0
LINE
  5
3979
330
1F
100
AcDbEntity
  8
AM_0
100
AcDbLine
 10
-4.492870884183226
 20
-0.4999996818401355
 30
0.0
 11
-2.999999900480133
 21
-0.0999861073530365
 31
0.0
  0
LINE
  5
397A
330
1F
100
AcDbEntity
  8
AM_0
100
AcDbLine
 10
-9.732048946820228
 20
-1.499999110539704
 30
0.0
 11
-6.000000158644618
 21
-0.4999996516345017
 31
0.0
  0
DIMENSION
  5
3987
330
1F
100
AcDbEntity
  8
AM_5
100
AcDbDimension
  2
*D12
 10
-2.999999900480133
 20
-0.0999861073530365
 30
0.0
 11
-8.853647555554235
 21
0.0000002319753509
 31
0.0
 70
    34
  1
<>
  3
AM_JIS$2
100
AcDb2LineAngularDimension
 13
-4.492870884183226
 23
0.5000001457908338
 33
0.0
 14
-2.999999900480133
 24
0.0999865713037348
 34
0.0
 15
-4.492870884183226
 25
-0.4999996818401355
 35
0.0
 16
-8.212311982142397
 26
0.4886652032414253
 36
0.0
1001
ACAD
1000
DSTYLE
1002
{
1070
   179
1070
     3
1002
}
1001
GENIUS_GENDTOL_13
1000

1000
h7
1000

1040
0.0
  0
DIMENSION
  5
3B1F
330
1F
100
AcDbEntity
  8
AM_5
100
AcDbDimension
  2
*D13
 10
-5.173479476408061
 20
-0.4999996550542022
 30
0.0
 11
-5.853479476408061
 21
-2.234285369339917
 31
0.0
 70
    32
  1
%%c<>
  3
AM_JIS$0
100
AcDbAlignedDimension
 13
-5.380410983473881
 23
0.5000001306880168
 33
0.0
 14
-5.173479476408061
 24
-0.4999996550542022
 34
0.0
 50
270.000000974973
100
AcDbRotatedDimension
1001
GENIUS_GENDTOL_13
1000

1000
h7
1000

1040
0.0
1001
ACAD
1000
DSTYLE
1002
{
1070
   271
1070
     0
1002
}
  0
LINE
  5
3CF4
330
1F
100
AcDbEntity
  8
AM_0
100
AcDbLine
 10
-37.00000015013637
 20
1.499999574490401
 30
0.0
 11
-38.00000015013637
 21
0.9226493053007757
 31
0.0
  0
LINE
  5
3CF5
330
1F
100
AcDbEntity
  8
AM_0
100
AcDbLine
 10
-37.00000015013637
 20
-1.5000004459294
 30
0.0
 11
-38.00000015013637
 21
-0.9226501767397749
 31
0.0
  0
VIEWPORT
  5
110
330
101
100
AcDbEntity
 67
     1
  8
0
100
AcDbViewport
 10
420.5
 20
297.0
 30
0.0
 40
948.9782706766916
 41
628.452
 68
     1
 69
     1
1001
ACAD
1000
MVIEW
1002
{
1070
    16
1010
0.0
1020
0.0
1030
0.0
1010
0.0
1020
0.0
1030
1.0
1040
0.0
1040
628.452
1040
420.5
1040
297.0
1040
50.0
1040
0.0
1040
0.0
1070
     0
1070
   100
1070
     1
1070
     1
1070
     0
1070
     0
1070
     0
1070
     0
1040
0.0
1040
0.0
1040
0.0
1040
10.0
1040
10.0
1040
10.0
1040
10.0
1070
     0
1002
{
1002
}
1002
}
  0
ENDSEC
  0
SECTION
  2
OBJECTS
  0
DICTIONARY
  5
C
330
0
100
AcDbDictionary
  3
ACAD_GROUP
350
D
  3
ACAD_LAYOUT
350
1A
  3
ACAD_MLINESTYLE
350
17
  3
ACAD_PLOTSETTINGS
350
19
  3
ACAD_PLOTSTYLENAME
350
E
  3
ACDBVARIABLEDICTIONARY
350
34
  3
ACMDICTIONARY
350
43
  3
AMG
350
2B
  3
AMGSNAPSETTINGS
350
6E
  3
DWGPROPS
350
3DFE
  3
ACDBHEADERROUNDTRIPXREC
350
3E0B
  0
DICTIONARY
  5
74
330
1F
100
AcDbDictionary
280
     1
  3
ACAD_INDEX
360
3E00
  3
ACAD_LAYOUTSELFREF
360
3E2E
  0
DICTIONARY
  5
3E33
330
101
100
AcDbDictionary
280
     1
  3
ACAD_LAYOUTSELFREF
360
3E34
  0
DICTIONARY
  5
D
102
{ACAD_REACTORS
330
C
102
}
330
C
100
AcDbDictionary
  0
DICTIONARY
  5
1A
102
{ACAD_REACTORS
330
C
102
}
330
C
100
AcDbDictionary
  0
DICTIONARY
  5
17
102
{ACAD_REACTORS
330
C
102
}
330
C
100
AcDbDictionary
  3
STANDARD
350
18
  0
DICTIONARY
  5
19
102
{ACAD_REACTORS
330
C
102
}
330
C
100
AcDbDictionary
  0
ACDBDICTIONARYWDFLT
  5
E
102
{ACAD_REACTORS
330
C
102
}
330
C
100
AcDbDictionary
281
     1
  3
Normal
350
F
100
AcDbDictionaryWithDefault
340
F
  0
DICTIONARY
  5
34
102
{ACAD_REACTORS
330
C
102
}
330
C
100
AcDbDictionary
  3
INDEXCTL
350
35
  3
SORTENTS
350
B5E
  0
DICTIONARY
  5
43
102
{ACAD_REACTORS
330
C
102
}
330
C
100
AcDbDictionary
  3
ACMSTDDICTIONARY
350
260
  0
DICTIONARY
  5
2B
102
{ACAD_REACTORS
330
C
102
}
330
C
100
AcDbDictionary
  3
ACMGSETTINGS
350
2C
  0
DICTIONARY
  5
6E
102
{ACAD_REACTORS
330
C
102
}
330
C
100
AcDbDictionary
  0
XRECORD
  5
3DFE
102
{ACAD_REACTORS
330
C
102
}
330
C
100
AcDbXrecord
  1
DWGPROPS COOKIE
  2

  3

  4

  6

  7

  8

  9

300
AmdtFileType=82
301
=
302
=
303
=
304
=
305
=
306
=
307
=
308
=
309
=
 40
0.1314494328703704
 41
2452802.456869572
 42
2453001.027415544
  1

 90
        1
  0
DICTIONARY
  5
3E0B
102
{ACAD_REACTORS
330
C
102
}
330
C
100
AcDbDictionary
  3
TSTACKALIGN
350
3E0C
  3
TSTACKSIZE
350
3E0D
  3
HYPERLINKBASE
350
3E0E
  3
STYLESHEET
350
3E0F
  3
LAYOUTDICT
350
3E10
  3
PLOTSETDICT
350
3E11
  3
PLOTSTYLNAMDICT
350
3E12
  3
LWETCUNION
350
3E13
  3
INSUNITS
350
3E14
  3
CEPSNTYPE
350
3E15
  3
FINGERPRINTGUID
350
3E16
  3
VERSIONGUID
350
3E17
  3
PSVPSCALE
350
3E18
  3
DIMSTYLEDATA
350
3E19
  3
PUCSORTHOREF
350
3E1A
  3
PUCSORTHOVIEW
350
3E1B
  3
PUCSBASE
350
3E1C
  3
PUCSORGTOP
350
3E1D
  3
PUCSORGBOTTOM
350
3E1E
  3
PUCSORGLEFT
350
3E1F
  3
PUCSORGRIGHT
350
3E20
  3
PUCSORGFRONT
350
3E21
  3
PUCSORGBACK
350
3E22
  3
UCSORTHOREF
350
3E23
  3
UCSORTHOVIEW
350
3E24
  3
UCSBASE
350
3E25
  3
UCSORGTOP
350
3E26
  3
UCSORGBOTTOM
350
3E27
  3
UCSORGLEFT
350
3E28
  3
UCSORGRIGHT
350
3E29
  3
UCSORGFRONT
350
3E2A
  3
UCSORGBACK
350
3E2B
  0
DICTIONARY
  5
3E00
102
{ACAD_REACTORS
330
74
102
}
330
74
100
AcDbDictionary
  3
*A1
350
3E01
  0
XRECORD
  5
3E2E
102
{ACAD_REACTORS
330
74
102
}
330
74
100
AcDbXrecord
340
1F
  0
XRECORD
  5
3E34
102
{ACAD_REACTORS
330
3E33
102
}
330
3E33
100
AcDbXrecord
340
101
  0
MLINESTYLE
  5
18
102
{ACAD_REACTORS
330
17
102
}
330
17
100
AcDbMlineStyle
  2
STANDARD
 70
     0
  3

 62
   256
 51
90.0
 52
90.0
 71
     2
 49
0.5
 62
   256
  6
BYLAYER
 49
-0.5
 62
   256
  6
BYLAYER
  0
ACDBPLACEHOLDER
  5
F
102
{ACAD_REACTORS
330
E
102
}
330
E
100
AcDbPlaceHolder
280
     0
  0
DICTIONARYVAR
  5
35
102
{ACAD_REACTORS
330
34
102
}
330
34
100
DictionaryVariables
280
     0
  1
1
  0
DICTIONARYVAR
  5
B5E
102
{ACAD_REACTORS
330
34
102
}
330
34
100
DictionaryVariables
280
     0
  1
96
  0
DICTIONARY
  5
260
102
{ACAD_REACTORS
330
43
102
}
330
43
100
AcDbDictionary
  0
DICTIONARY
  5
2C
102
{ACAD_REACTORS
330
2B
102
}
330
2B
100
AcDbDictionary
  3
DWGSETTINGS
350
2D
  0
XRECORD
  5
3E0C
102
{ACAD_REACTORS
330
3E0B
102
}
330
3E0B
100
AcDbXrecord
 90
        1
  0
XRECORD
  5
3E0D
102
{ACAD_REACTORS
330
3E0B
102
}
330
3E0B
100
AcDbXrecord
 90
       70
  0
XRECORD
  5
3E0E
102
{ACAD_REACTORS
330
3E0B
102
}
330
3E0B
100
AcDbXrecord
  1

  0
XRECORD
  5
3E0F
102
{ACAD_REACTORS
330
3E0B
102
}
330
3E0B
100
AcDbXrecord
  1
ASAMI.ctb
  0
XRECORD
  5
3E10
102
{ACAD_REACTORS
330
3E0B
102
}
330
3E0B
100
AcDbXrecord
340
1A
  0
XRECORD
  5
3E11
102
{ACAD_REACTORS
330
3E0B
102
}
330
3E0B
100
AcDbXrecord
340
19
  0
XRECORD
  5
3E12
102
{ACAD_REACTORS
330
3E0B
102
}
330
3E0B
100
AcDbXrecord
340
E
  0
XRECORD
  5
3E13
102
{ACAD_REACTORS
330
3E0B
102
}
330
3E0B
100
AcDbXrecord
 90
    10781
  0
XRECORD
  5
3E14
102
{ACAD_REACTORS
330
3E0B
102
}
330
3E0B
100
AcDbXrecord
 90
        4
  0
XRECORD
  5
3E15
102
{ACAD_REACTORS
330
3E0B
102
}
330
3E0B
100
AcDbXrecord
 90
        0
  0
XRECORD
  5
3E16
102
{ACAD_REACTORS
330
3E0B
102
}
330
3E0B
100
AcDbXrecord
  1
{AFB28963-8C59-40AE-9337-C84526B81ACE}
  0
XRECORD
  5
3E17
102
{ACAD_REACTORS
330
3E0B
102
}
330
3E0B
100
AcDbXrecord
  1
{F7C17A6C-4B00-4942-9F49-1F572BD13940}
  0
XRECORD
  5
3E18
102
{ACAD_REACTORS
330
3E0B
102
}
330
3E0B
100
AcDbXrecord
 40
0.0
  0
XRECORD
  5
3E19
102
{ACAD_REACTORS
330
3E0B
102
}
330
3E0B
100
AcDbXrecord
1000
DSTYLE
1002
{
1070
    79
 70
     2
1070
   341
340
59
1070
   342
340
59
1070
   371
 70
    -1
1070
   372
 70
    -1
1002
}
  0
XRECORD
  5
3E1A
102
{ACAD_REACTORS
330
3E0B
102
}
330
3E0B
100
AcDbXrecord
340
0
  0
XRECORD
  5
3E1B
102
{ACAD_REACTORS
330
3E0B
102
}
330
3E0B
100
AcDbXrecord
 70
     0
  0
XRECORD
  5
3E1C
102
{ACAD_REACTORS
330
3E0B
102
}
330
3E0B
100
AcDbXrecord
340
0
  0
XRECORD
  5
3E1D
102
{ACAD_REACTORS
330
3E0B
102
}
330
3E0B
100
AcDbXrecord
 10
0.0
 20
0.0
 30
0.0
  0
XRECORD
  5
3E1E
102
{ACAD_REACTORS
330
3E0B
102
}
330
3E0B
100
AcDbXrecord
 10
0.0
 20
0.0
 30
0.0
  0
XRECORD
  5
3E1F
102
{ACAD_REACTORS
330
3E0B
102
}
330
3E0B
100
AcDbXrecord
 10
0.0
 20
0.0
 30
0.0
  0
XRECORD
  5
3E20
102
{ACAD_REACTORS
330
3E0B
102
}
330
3E0B
100
AcDbXrecord
 10
0.0
 20
0.0
 30
0.0
  0
XRECORD
  5
3E21
102
{ACAD_REACTORS
330
3E0B
102
}
330
3E0B
100
AcDbXrecord
 10
0.0
 20
0.0
 30
0.0
  0
XRECORD
  5
3E22
102
{ACAD_REACTORS
330
3E0B
102
}
330
3E0B
100
AcDbXrecord
 10
0.0
 20
0.0
 30
0.0
  0
XRECORD
  5
3E23
102
{ACAD_REACTORS
330
3E0B
102
}
330
3E0B
100
AcDbXrecord
340
0
  0
XRECORD
  5
3E24
102
{ACAD_REACTORS
330
3E0B
102
}
330
3E0B
100
AcDbXrecord
 70
     0
  0
XRECORD
  5
3E25
102
{ACAD_REACTORS
330
3E0B
102
}
330
3E0B
100
AcDbXrecord
340
0
  0
XRECORD
  5
3E26
102
{ACAD_REACTORS
330
3E0B
102
}
330
3E0B
100
AcDbXrecord
 10
0.0
 20
0.0
 30
0.0
  0
XRECORD
  5
3E27
102
{ACAD_REACTORS
330
3E0B
102
}
330
3E0B
100
AcDbXrecord
 10
0.0
 20
0.0
 30
0.0
  0
XRECORD
  5
3E28
102
{ACAD_REACTORS
330
3E0B
102
}
330
3E0B
100
AcDbXrecord
 10
0.0
 20
0.0
 30
0.0
  0
XRECORD
  5
3E29
102
{ACAD_REACTORS
330
3E0B
102
}
330
3E0B
100
AcDbXrecord
 10
0.0
 20
0.0
 30
0.0
  0
XRECORD
  5
3E2A
102
{ACAD_REACTORS
330
3E0B
102
}
330
3E0B
100
AcDbXrecord
 10
0.0
 20
0.0
 30
0.0
  0
XRECORD
  5
3E2B
102
{ACAD_REACTORS
330
3E0B
102
}
330
3E0B
100
AcDbXrecord
 10
0.0
 20
0.0
 30
0.0
  0
LAYER_INDEX
  5
3E01
102
{ACAD_REACTORS
330
3E00
102
}
330
3E00
100
AcDbIndex
 40
2453151.590367824
100
AcDbLayerIndex
  8
0
360
3E02
 90
        0
  8
AM_0
360
3E03
 90
       52
  8
AM_11
360
3E04
 90
        6
  8
AM_7
360
3E05
 90
        1
  8
AM_5
360
3E06
 90
        9
  8
Defpoints
360
3E07
 90
        0
  8
AM_6
360
3E08
 90
        1
  8
AM_CL
360
3E09
 90
        0
  0
XRECORD
  5
2D
102
{ACAD_REACTORS
330
2C
102
}
330
2C
100
AcDbXrecord
  1
VERSION
140
15.0
  1
PRODUCT
  2
AutoCAD Mechanical 2000
  0
IDBUFFER
  5
3E02
330
0
100
AcDbIdBuffer
  0
IDBUFFER
  5
3E03
330
0
100
AcDbIdBuffer
330
3979
330
397A
330
3CF4
330
3CF5
330
2714
330
2715
330
2717
330
271A
330
271E
330
271F
330
2B58
330
2B59
330
2B64
330
2B65
330
2B88
330
2B89
330
2B8A
330
2BAB
330
3814
330
3819
330
389D
330
389F
330
38A2
330
38A3
330
38A4
330
38A5
330
38A6
330
38A8
330
38AA
330
38AB
330
38AC
330
38AD
330
38B0
330
38B1
330
38B2
330
38B3
330
38B4
330
38B5
330
38B6
330
38B7
330
38B8
330
38BB
330
390D
330
390E
330
390F
330
396A
330
3973
330
3974
330
3975
330
3976
330
3977
330
3978
  0
IDBUFFER
  5
3E04
330
0
100
AcDbIdBuffer
330
389E
330
38A0
330
38A1
330
38A7
330
38A9
330
38AF
  0
IDBUFFER
  5
3E05
330
0
100
AcDbIdBuffer
330
2704
  0
IDBUFFER
  5
3E06
330
0
100
AcDbIdBuffer
330
2702
330
2703
330
2713
330
2716
330
271C
330
274B
330
2753
330
3987
330
3B1F
  0
IDBUFFER
  5
3E07
330
0
100
AcDbIdBuffer
  0
IDBUFFER
  5
3E08
330
0
100
AcDbIdBuffer
330
3732
  0
IDBUFFER
  5
3E09
330
0
100
AcDbIdBuffer
  0
ENDSEC
  0
EOF
