  0
SECTION
  2
HEADER
  9
$ACADVER
  1
AC1014
  9
$ACADMAINTVER
 70
     9
  9
$DWGCODEPAGE
  3
ANSI_932
  9
$INSBASE
 10
0.0
 20
0.0
 30
0.0
  9
$EXTMIN
 10
-81.40000134152343
 20
-24.75000718101109
 30
-0.00000001
  9
$EXTMAX
 10
14.17567980107683
 20
13.7906254864384
 30
0.00000001
  9
$LIMMIN
 10
-85.78188508376403
 20
-34.06754714813237
  9
$LIMMAX
 10
18.30462332990544
 20
23.30144247547983
  9
$ORTHOMODE
 70
     0
  9
$REGENMODE
 70
     1
  9
$FILLMODE
 70
     1
  9
$QTEXTMODE
 70
     0
  9
$MIRRTEXT
 70
     0
  9
$DRAGMODE
 70
     2
  9
$LTSCALE
 40
1.0
  9
$OSMODE
 70
    55
  9
$ATTMODE
 70
     1
  9
$TEXTSIZE
 40
2.5
  9
$TRACEWID
 40
1.0
  9
$TEXTSTYLE
  7
STANDARD
  9
$CLAYER
  8
AM_0
  9
$CELTYPE
  6
BYLAYER
  9
$CECOLOR
 62
   256
  9
$CELTSCALE
 40
1.0
  9
$DELOBJ
 70
     1
  9
$DISPSILH
 70
     0
  9
$DIMSCALE
 40
0.5
  9
$DIMASZ
 40
2.5
  9
$DIMEXO
 40
1.0
  9
$DIMDLI
 40
12.0
  9
$DIMRND
 40
0.0
  9
$DIMDLE
 40
0.0
  9
$DIMEXE
 40
1.0
  9
$DIMTP
 40
0.1
  9
$DIMTM
 40
0.1
  9
$DIMTXT
 40
3.2
  9
$DIMCEN
 40
0.0
  9
$DIMTSZ
 40
0.0
  9
$DIMTOL
 70
     0
  9
$DIMLIM
 70
     0
  9
$DIMTIH
 70
     0
  9
$DIMTOH
 70
     0
  9
$DIMSE1
 70
     0
  9
$DIMSE2
 70
     0
  9
$DIMTAD
 70
     3
  9
$DIMZIN
 70
     8
  9
$DIMBLK
  1
OPEN30
  9
$DIMASO
 70
     1
  9
$DIMSHO
 70
     1
  9
$DIMPOST
  1

  9
$DIMAPOST
  1
"
  9
$DIMALT
 70
     0
  9
$DIMALTD
 70
     2
  9
$DIMALTF
 40
0.0393701
  9
$DIMLFAC
 40
1.0
  9
$DIMTOFL
 70
     1
  9
$DIMTVP
 40
0.0
  9
$DIMTIX
 70
     0
  9
$DIMSOXD
 70
     0
  9
$DIMSAH
 70
     0
  9
$DIMBLK1
  1

  9
$DIMBLK2
  1

  9
$DIMSTYLE
  2
AM_JIS
  9
$DIMCLRD
 70
   256
  9
$DIMCLRE
 70
   256
  9
$DIMCLRT
 70
     2
  9
$DIMTFAC
 40
0.71
  9
$DIMGAP
 40
1.5
  9
$DIMJUST
 70
     0
  9
$DIMSD1
 70
     0
  9
$DIMSD2
 70
     0
  9
$DIMTOLJ
 70
     0
  9
$DIMTZIN
 70
     0
  9
$DIMALTZ
 70
     0
  9
$DIMALTTZ
 70
     0
  9
$DIMFIT
 70
     3
  9
$DIMUPT
 70
     0
  9
$DIMUNIT
 70
     2
  9
$DIMDEC
 70
     3
  9
$DIMTDEC
 70
     3
  9
$DIMALTU
 70
     2
  9
$DIMALTTD
 70
     2
  9
$DIMTXSTY
  7
ASAMI
  9
$DIMAUNIT
 70
     0
  9
$LUNITS
 70
     2
  9
$LUPREC
 70
     2
  9
$SKETCHINC
 40
1.0
  9
$FILLETRAD
 40
2.5
  9
$AUNITS
 70
     0
  9
$AUPREC
 70
     0
  9
$MENU
  1
.
  9
$ELEVATION
 40
0.0
  9
$PELEVATION
 40
0.0
  9
$THICKNESS
 40
0.0
  9
$LIMCHECK
 70
     0
  9
$BLIPMODE
 70
     0
  9
$CHAMFERA
 40
0.25
  9
$CHAMFERB
 40
0.25
  9
$CHAMFERC
 40
20.0
  9
$CHAMFERD
 40
0.0
  9
$SKPOLY
 70
     0
  9
$TDCREATE
 40
2452800.443498622
  9
$TDUPDATE
 40
2453151.685590625
  9
$TDINDWG
 40
0.0616095023
  9
$TDUSRTIMER
 40
0.0616095023
  9
$USRTIMER
 70
     1
  9
$ANGBASE
 50
0.0
  9
$ANGDIR
 70
     0
  9
$PDMODE
 70
     0
  9
$PDSIZE
 40
0.0
  9
$PLINEWID
 40
0.0
  9
$COORDS
 70
     1
  9
$SPLFRAME
 70
     0
  9
$SPLINETYPE
 70
     6
  9
$SPLINESEGS
 70
     8
  9
$ATTDIA
 70
     1
  9
$ATTREQ
 70
     1
  9
$HANDLING
 70
 12289
  9
$HANDSEED
  5
31F1
  9
$SURFTAB1
 70
     6
  9
$SURFTAB2
 70
     6
  9
$SURFTYPE
 70
     6
  9
$SURFU
 70
     6
  9
$SURFV
 70
     6
  9
$UCSNAME
  2

  9
$UCSORG
 10
0.0
 20
0.0
 30
0.0
  9
$UCSXDIR
 10
1.0
 20
0.000000000000002
 30
0.0
  9
$UCSYDIR
 10
-0.000000000000002
 20
1.0
 30
0.0
  9
$PUCSNAME
  2

  9
$PUCSORG
 10
0.0
 20
0.0
 30
0.0
  9
$PUCSXDIR
 10
1.0
 20
0.0
 30
0.0
  9
$PUCSYDIR
 10
0.0
 20
1.0
 30
0.0
  9
$USERI1
 70
     0
  9
$USERI2
 70
     0
  9
$USERI3
 70
     0
  9
$USERI4
 70
     0
  9
$USERI5
 70
     0
  9
$USERR1
 40
0.0
  9
$USERR2
 40
0.0
  9
$USERR3
 40
0.0
  9
$USERR4
 40
0.0
  9
$USERR5
 40
0.0
  9
$WORLDVIEW
 70
     1
  9
$SHADEDGE
 70
     3
  9
$SHADEDIF
 70
    70
  9
$TILEMODE
 70
     1
  9
$MAXACTVP
 70
    64
  9
$PINSBASE
 10
0.0
 20
0.0
 30
0.0
  9
$PLIMCHECK
 70
     0
  9
$PEXTMIN
 10
1.000000000000000E+20
 20
1.000000000000000E+20
 30
1.000000000000000E+20
  9
$PEXTMAX
 10
-1.000000000000000E+20
 20
-1.000000000000000E+20
 30
-1.000000000000000E+20
  9
$PLIMMIN
 10
0.0
 20
0.0
  9
$PLIMMAX
 10
841.0
 20
594.0
  9
$UNITMODE
 70
     0
  9
$VISRETAIN
 70
     1
  9
$PLINEGEN
 70
     0
  9
$PSLTSCALE
 70
     0
  9
$TREEDEPTH
 70
  3020
  9
$PICKSTYLE
 70
     0
  9
$CMLSTYLE
  2
STANDARD
  9
$CMLJUST
 70
     0
  9
$CMLSCALE
 40
20.0
  9
$PROXYGRAPHICS
 70
     1
  9
$MEASUREMENT
 70
     1
  0
ENDSEC
  0
SECTION
  2
CLASSES
  0
CLASS
  1
ACDBDICTIONARYWDFLT
  2
AcDbDictionaryWithDefault
  3
AutoCAD 2000
 90
        0
280
     0
281
     0
  0
CLASS
  1
ACDBPLACEHOLDER
  2
AcDbPlaceHolder
  3
AutoCAD 2000
 90
        0
280
     0
281
     0
  0
CLASS
  1
LAYOUT
  2
AcDbLayout
  3
AutoCAD 2000
 90
        0
280
     0
281
     0
  0
CLASS
  1
AMGSETTINGSOBJ
  2
AmgSettingsObj
  3
"AcadM|Product Description: AutoCAD Mechanical 2000|Company: Autodesk"
 90
        0
280
     0
281
     0
  0
CLASS
  1
ACME_DOCUMENT
  2
AcMeDbDoc
  3
AcMeServices
 90
        0
280
     0
281
     0
  0
CLASS
  1
ACMESCOPE
  2
AcMeScope
  3
AcMeServices
 90
        0
280
     0
281
     0
  0
CLASS
  1
ACMECOMMANDHISTORY
  2
AcMeCommandHistory
  3
AcMeServices
 90
        0
280
     0
281
     0
  0
CLASS
  1
DICTIONARYVAR
  2
AcDbDictionaryVar
  3
AutoCAD 2000
 90
        0
280
     0
281
     0
  0
CLASS
  1
ACIMSYSVARMAN
  2
AcImSysVarManager
  3
AcMeServices
 90
        0
280
     0
281
     0
  0
CLASS
  1
ACIMREALSYSVAR
  2
AcImRealSysVar
  3
AcMeServices
 90
        0
280
     0
281
     0
  0
CLASS
  1
ACIMINTSYSVAR
  2
AcImIntSysVar
  3
AcMeServices
 90
        0
280
     0
281
     0
  0
CLASS
  1
ACMEDRAWINGMAN
  2
AcMeDrawingMan
  3
AcMeServices
 90
        0
280
     0
281
     0
  0
CLASS
  1
ACMEVIEW
  2
AcMeView
  3
AcMeServices
 90
        0
280
     0
281
     0
  0
CLASS
  1
ACDBENTITYCACHE
  2
AcMeEntityCache
  3
AcMeServices
 90
        0
280
     0
281
     0
  0
CLASS
  1
GSMANAGER
  2
AcMeGSManager
  3
AcMeServices
 90
        0
280
     0
281
     0
  0
CLASS
  1
AmdtInternalReactor
  2
AmdtInternalReactor
  3
AcMeServices
 90
        0
280
     0
281
     0
  0
CLASS
  1
ACMESTATEMGR
  2
AcMeStateMgr
  3
AcMeServices
 90
        0
280
     0
281
     0
  0
CLASS
  1
ACME_DATABASE
  2
AcMeDbDatabase
  3
AcMeServices
 90
        0
280
     0
281
     0
  0
CLASS
  1
ACRFINSADJUSTERMGR
  2
AcRfInsAdjusterMgr
  3
AcMeServices
 90
        0
280
     0
281
     0
  0
CLASS
  1
ACMDATADICTIONARY
  2
AcmDataDictionary
  3
"AcmSymBB|Product Description: AutoCAD Mechanical 2000|Company: Autodesk"
 90
        0
280
     0
281
     0
  0
CLASS
  1
ACMDATAENTRYBLOCK
  2
AcmDataEntryBlock
  3
"AcmSymBB|Product Description: AutoCAD Mechanical 2000|Company: Autodesk"
 90
        0
280
     0
281
     0
  0
CLASS
  1
AMGOBJPROPCFG
  2
AmgObjPropCfg
  3
"AmgLay|Product Description: AutoCAD Mechanical 2000|Company: Autodesk"
 90
        1
280
     0
281
     0
  0
CLASS
  1
ACAMGFILTERDAT
  2
AcAmgFilterDat
  3
"AcadM|Product Description: AutoCAD Mechanical 2000|Company: Autodesk"
 90
        0
280
     0
281
     0
  0
CLASS
  1
LAYER_INDEX
  2
AcDbLayerIndex
  3
AutoCAD 2000
 90
        0
280
     0
281
     0
  0
CLASS
  1
IDBUFFER
  2
AcDbIdBuffer
  3
AutoCAD 2000
 90
        0
280
     0
281
     0
  0
CLASS
  1
ACIMSTRSYSVAR
  2
AcImStrSysVar
  3
AcMeServices
 90
        0
280
     0
281
     0
  0
CLASS
  1
ACMSTANDARDJIS
  2
AcmStandardJIS
  3
"AcmSymBB|Product Description: AutoCAD Mechanical 2000|Company: Autodesk"
 90
        0
280
     0
281
     0
  0
CLASS
  1
ACMSURFSTANDARDJIS
  2
AcmSurfTextStdJIS
  3
"AcmSymBB|Product Description: AutoCAD Mechanical 2000|Company: Autodesk"
 90
        0
280
     0
281
     0
  0
CLASS
  1
ACMFCFSTANDARDJIS
  2
AcmFCFStdJIS
  3
"AcmSymBB|Product Description: AutoCAD Mechanical 2000|Company: Autodesk"
 90
        0
280
     0
281
     0
  0
CLASS
  1
ACMWELDSTANDARDJIS
  2
AcmWeldingStdJIS
  3
"AcmSymBB|Product Description: AutoCAD Mechanical 2000|Company: Autodesk"
 90
        0
280
     0
281
     0
  0
CLASS
  1
ACMIDSTANDARDJIS
  2
AcmIdStdJIS
  3
"AcmSymBB|Product Description: AutoCAD Mechanical 2000|Company: Autodesk"
 90
        0
280
     0
281
     0
  0
CLASS
  1
ACMDATUMSTANDARDJIS
  2
AcmDatumStdJIS
  3
"AcmSymBB|Product Description: AutoCAD Mechanical 2000|Company: Autodesk"
 90
        0
280
     0
281
     0
  0
CLASS
  1
ACMBOMSTANDARDJIS
  2
AcmBOMStdJIS
  3
"AcmSymBB|Product Description: AutoCAD Mechanical 2000|Company: Autodesk"
 90
        0
280
     0
281
     0
  0
CLASS
  1
ACMSTANDARDANSI
  2
AcmStandardANSI
  3
"AcmSymBB|Product Description: AutoCAD Mechanical 2000|Company: Autodesk"
 90
        0
280
     0
281
     0
  0
CLASS
  1
ACMSURFSTANDARDANSI
  2
AcmSurfTextStdANSI
  3
"AcmSymBB|Product Description: AutoCAD Mechanical 2000|Company: Autodesk"
 90
        0
280
     0
281
     0
  0
CLASS
  1
ACMFCFSTANDARDANSI
  2
AcmFCFStdANSI
  3
"AcmSymBB|Product Description: AutoCAD Mechanical 2000|Company: Autodesk"
 90
        0
280
     0
281
     0
  0
CLASS
  1
ACMWELDSTANDARDANSI
  2
AcmWeldingStdANSI
  3
"AcmSymBB|Product Description: AutoCAD Mechanical 2000|Company: Autodesk"
 90
        0
280
     0
281
     0
  0
CLASS
  1
ACMIDSTANDARDANSI
  2
AcmIdStdANSI
  3
"AcmSymBB|Product Description: AutoCAD Mechanical 2000|Company: Autodesk"
 90
        0
280
     0
281
     0
  0
CLASS
  1
ACMDATUMSTANDARDANSI
  2
AcmDatumStdANSI
  3
"AcmSymBB|Product Description: AutoCAD Mechanical 2000|Company: Autodesk"
 90
        0
280
     0
281
     0
  0
CLASS
  1
ACMBOMSTANDARDANSI
  2
AcmBOMStdANSI
  3
"AcmSymBB|Product Description: AutoCAD Mechanical 2000|Company: Autodesk"
 90
        0
280
     0
281
     0
  0
CLASS
  1
ACMSTANDARDBSI
  2
AcmStandardBSI
  3
"AcmSymBB|Product Description: AutoCAD Mechanical 2000|Company: Autodesk"
 90
        0
280
     0
281
     0
  0
CLASS
  1
ACMSURFSTANDARDBSI
  2
AcmSurfTextStdBSI
  3
"AcmSymBB|Product Description: AutoCAD Mechanical 2000|Company: Autodesk"
 90
        0
280
     0
281
     0
  0
CLASS
  1
ACMFCFSTANDARDBSI
  2
AcmFCFStdBSI
  3
"AcmSymBB|Product Description: AutoCAD Mechanical 2000|Company: Autodesk"
 90
        0
280
     0
281
     0
  0
CLASS
  1
ACMWELDSTANDARDBSI
  2
AcmWeldingStdBSI
  3
"AcmSymBB|Product Description: AutoCAD Mechanical 2000|Company: Autodesk"
 90
        0
280
     0
281
     0
  0
CLASS
  1
ACMIDSTANDARDBSI
  2
AcmIdStdBSI
  3
"AcmSymBB|Product Description: AutoCAD Mechanical 2000|Company: Autodesk"
 90
        0
280
     0
281
     0
  0
CLASS
  1
ACMDATUMSTANDARDBSI
  2
AcmDatumStdBSI
  3
"AcmSymBB|Product Description: AutoCAD Mechanical 2000|Company: Autodesk"
 90
        0
280
     0
281
     0
  0
CLASS
  1
ACMBOMSTANDARDBSI
  2
AcmBOMStdBSI
  3
"AcmSymBB|Product Description: AutoCAD Mechanical 2000|Company: Autodesk"
 90
        0
280
     0
281
     0
  0
CLASS
  1
LONG_TRANSACTION
  2
AcDbLongTransaction
  3
AutoCAD 2000
 90
        0
280
     0
281
     0
  0
CLASS
  1
LWPOLYLINE
  2
AcDbPolyline
  3
AutoCAD 2000
 90
        0
280
     0
281
     1
  0
CLASS
  1
HATCH
  2
AcDbHatch
  3
AutoCAD 2000
 90
        0
280
     0
281
     1
  0
CLASS
  1
XRECORD
  2
AcDbXrecord
  3
AutoCAD 2000
 90
        0
280
     0
281
     0
  0
ENDSEC
  0
SECTION
  2
TABLES
  0
TABLE
  2
VPORT
  5
8
330
0
100
AcDbSymbolTable
 70
     3
  0
VPORT
  5
31BB
330
8
100
AcDbSymbolTableRecord
100
AcDbViewportTableRecord
  2
*ACTIVE
 70
     0
 10
0.0
 20
0.0
 11
1.0
 21
1.0
 12
-32.20050591931911
 22
-6.545933077109353
 13
0.0
 23
0.0
 14
2.5
 24
2.5
 15
10.0
 25
10.0
 16
0.0
 26
0.0
 36
1.0
 17
0.0
 27
0.0
 37
0.0
 40
93.92259615389747
 41
1.56570841889117
 42
50.0
 43
0.0
 44
0.0
 50
0.0
 51
0.0
 71
     0
 72
   100
 73
     1
 74
     1
 75
     0
 76
     0
 77
     0
 78
     0
  0
ENDTAB
  0
TABLE
  2
LTYPE
  5
5
330
0
100
AcDbSymbolTable
 70
    10
  0
LTYPE
  5
14
330
5
100
AcDbSymbolTableRecord
100
AcDbLinetypeTableRecord
  2
BYBLOCK
 70
     0
  3

 72
    65
 73
     0
 40
0.0
  0
LTYPE
  5
15
330
5
100
AcDbSymbolTableRecord
100
AcDbLinetypeTableRecord
  2
BYLAYER
 70
     0
  3

 72
    65
 73
     0
 40
0.0
  0
LTYPE
  5
16
330
5
100
AcDbSymbolTableRecord
100
AcDbLinetypeTableRecord
  2
CONTINUOUS
 70
     0
  3
Solid line
 72
    65
 73
     0
 40
0.0
  0
LTYPE
  5
4B
330
5
100
AcDbSymbolTableRecord
100
AcDbLinetypeTableRecord
  2
AM_ISO02W050
 70
     0
  3
__ __ __ __ __ __ __ __ __ __ __ __ __ __ __
 72
    65
 73
     2
 40
7.5
 49
6.0
 74
     0
 49
-1.5
 74
     0
  0
LTYPE
  5
4C
330
5
100
AcDbSymbolTableRecord
100
AcDbLinetypeTableRecord
  2
AM_ISO08W050
 70
     0
  3
____ . ____ . ____ . ____ . ____ . ____ . ____
 72
    65
 73
     4
 40
18.0
 49
12.0
 74
     0
 49
-1.5
 74
     0
 49
3.0
 74
     0
 49
-1.5
 74
     0
  0
LTYPE
  5
4D
330
5
100
AcDbSymbolTableRecord
100
AcDbLinetypeTableRecord
  2
AM_ISO09W050
 70
     0
  3
_____ . . _____ . . _____ . . ____ .. ____
 72
    65
 73
     6
 40
22.5
 49
12.0
 74
     0
 49
-1.5
 74
     0
 49
3.0
 74
     0
 49
-1.5
 74
     0
 49
3.0
 74
     0
 49
-1.5
 74
     0
  0
LTYPE
  5
4E
330
5
100
AcDbSymbolTableRecord
100
AcDbLinetypeTableRecord
  2
AMCONSTR
 70
     0
  3
_______________________
 72
    65
 73
     2
 40
9999.0
 49
9999.0
 74
     0
 49
0.0
 74
     0
  0
LTYPE
  5
4F
330
5
100
AcDbSymbolTableRecord
100
AcDbLinetypeTableRecord
  2
AM_ISO02W050X2
 70
     0
  3
 _ _ _ _ _ _ _ _ _ _ _ _
 72
    65
 73
     2
 40
3.75
 49
3.0
 74
     0
 49
-0.75
 74
     0
  0
LTYPE
  5
50
330
5
100
AcDbSymbolTableRecord
100
AcDbLinetypeTableRecord
  2
AM_ISO08W050X2
 70
     0
  3
__ . __ . __ . __ . __ . __
 72
    65
 73
     4
 40
9.0
 49
6.0
 74
     0
 49
-0.75
 74
     0
 49
1.5
 74
     0
 49
-0.75
 74
     0
  0
LTYPE
  5
53
330
5
100
AcDbSymbolTableRecord
100
AcDbLinetypeTableRecord
  2
AMZIGZAG
 70
     0
  3
/\/-/\/-/\/-/\/-/\/-/\/
 72
    65
 73
     2
 40
11.00009999999999
 49
0.0001
 74
     4
 75
   135
340
52
 46
0.04
 50
0.0
 44
0.0
 45
0.0
 49
-11.0
 74
     0
  0
LTYPE
  5
166
330
5
100
AcDbSymbolTableRecord
100
AcDbLinetypeTableRecord
  2
ACJISTGL
 70
     0
  3
_ _ _ _ _
 72
    65
 73
     2
 40
3.0
 49
2.0
 74
     0
 49
-1.0
 74
     0
  0
LTYPE
  5
26A
330
5
100
AcDbSymbolTableRecord
100
AcDbLinetypeTableRecord
  2
ACJISTGB
 70
     0
  3
__ . . __ . .
 72
    65
 73
     6
 40
9.0
 49
4.0
 74
     0
 49
-1.0
 74
     0
 49
1.0
 74
     0
 49
-1.0
 74
     0
 49
1.0
 74
     0
 49
-1.0
 74
     0
  0
ENDTAB
  0
TABLE
  2
LAYER
  5
2
330
0
100
AcDbSymbolTable
 70
     8
  0
LAYER
  5
10
330
2
100
AcDbSymbolTableRecord
100
AcDbLayerTableRecord
  2
0
 70
     0
 62
     7
  6
CONTINUOUS
  0
LAYER
  5
3F9
330
2
100
AcDbSymbolTableRecord
100
AcDbLayerTableRecord
  2
AM_0
 70
     0
 62
     7
  6
CONTINUOUS
  0
LAYER
  5
C7C
330
2
100
AcDbSymbolTableRecord
100
AcDbLayerTableRecord
  2
AM_7
 70
     0
 62
     4
  6
AM_ISO08W050
  0
LAYER
  5
C97
330
2
100
AcDbSymbolTableRecord
100
AcDbLayerTableRecord
  2
AM_11
 70
     0
 62
     3
  6
AM_ISO09W050
  0
LAYER
  5
CC5
330
2
100
AcDbSymbolTableRecord
100
AcDbLayerTableRecord
  2
AM_5
 70
     0
 62
     3
  6
CONTINUOUS
  0
LAYER
  5
CC7
330
2
100
AcDbSymbolTableRecord
100
AcDbLayerTableRecord
  2
DEFPOINTS
 70
     0
 62
     7
  6
CONTINUOUS
  0
LAYER
  5
19BC
330
2
100
AcDbSymbolTableRecord
100
AcDbLayerTableRecord
  2
AM_6
 70
     0
 62
     2
  6
CONTINUOUS
  0
LAYER
  5
3135
330
2
100
AcDbSymbolTableRecord
100
AcDbLayerTableRecord
  2
AM_CL
 70
     0
 62
     1
  6
AMCONSTR
  0
ENDTAB
  0
TABLE
  2
STYLE
  5
3
330
0
100
AcDbSymbolTable
 70
     5
  0
STYLE
  5
11
330
3
100
AcDbSymbolTableRecord
100
AcDbTextStyleTableRecord
  2
STANDARD
 70
     0
 40
0.0
 41
1.0
 50
0.0
 71
     0
 42
2.5
  3
simplex.shx
  4
EXTFONT.SHX
  0
STYLE
  5
52
330
3
100
AcDbSymbolTableRecord
100
AcDbTextStyleTableRecord
  2

 70
     1
 40
0.0
 41
1.0
 50
0.0
 71
     0
 42
2.5
  3
ltypeshp.shx
  4

  0
STYLE
  5
6B
330
3
100
AcDbSymbolTableRecord
100
AcDbTextStyleTableRecord
  2
ASAMI
 70
     0
 40
0.0
 41
1.0
 50
0.0
 71
     0
 42
2.5
  3
simplex.shx
  4
EXTFONT.SHX
  0
STYLE
  5
262
330
3
100
AcDbSymbolTableRecord
100
AcDbTextStyleTableRecord
  2
ACJISTS
 70
     0
 40
1.0
 41
1.0
 50
0.0
 71
     0
 42
2.5
  3
simplex.shx
  4
bigfont.shx
  0
STYLE
  5
269
330
3
100
AcDbSymbolTableRecord
100
AcDbTextStyleTableRecord
  2
ACJISGDT
 70
     0
 40
0.0
 41
1.0
 50
0.0
 71
     0
 42
2.5
  3
amgdtans.shx
  4

  0
ENDTAB
  0
TABLE
  2
VIEW
  5
6
330
0
100
AcDbSymbolTable
 70
     0
  0
ENDTAB
  0
TABLE
  2
UCS
  5
7
330
0
100
AcDbSymbolTable
 70
     0
  0
ENDTAB
  0
TABLE
  2
APPID
  5
9
330
0
100
AcDbSymbolTable
 70
    18
  0
APPID
  5
12
330
9
100
AcDbSymbolTableRecord
100
AcDbRegAppTableRecord
  2
ACAD
 70
     0
  0
APPID
  5
30
330
9
100
AcDbSymbolTableRecord
100
AcDbRegAppTableRecord
  2
MCAD_NO_VIS
 70
     0
  0
APPID
  5
31
330
9
100
AcDbSymbolTableRecord
100
AcDbRegAppTableRecord
  2
ACAD_TEMP_GRAPHIC
 70
     0
  0
APPID
  5
2C2
330
9
100
AcDbSymbolTableRecord
100
AcDbRegAppTableRecord
  2
GENIUS_GENDTOL_13
 70
     0
  0
APPID
  5
339
330
9
100
AcDbSymbolTableRecord
100
AcDbRegAppTableRecord
  2
GENIUS_GENODEF_13
 70
     0
  0
APPID
  5
33A
330
9
100
AcDbSymbolTableRecord
100
AcDbRegAppTableRecord
  2
GENIUS_GENOBJ-N-RSBK_13
 70
     0
  0
APPID
  5
33B
330
9
100
AcDbSymbolTableRecord
100
AcDbRegAppTableRecord
  2
GENIUS_GENOBJ-N-LIB_13
 70
     0
  0
APPID
  5
33C
330
9
100
AcDbSymbolTableRecord
100
AcDbRegAppTableRecord
  2
GENIUS_GENSCALE_13
 70
     0
  0
APPID
  5
378
330
9
100
AcDbSymbolTableRecord
100
AcDbRegAppTableRecord
  2
GENIUS_GENDIMSH_14
 70
     0
  0
APPID
  5
C82
330
9
100
AcDbSymbolTableRecord
100
AcDbRegAppTableRecord
  2
GENIUS_GENOBJ-N-CRS_13
 70
     0
  0
APPID
  5
C83
330
9
100
AcDbSymbolTableRecord
100
AcDbRegAppTableRecord
  2
GENIUS_GENOENT_13
 70
     0
  0
APPID
  5
C84
330
9
100
AcDbSymbolTableRecord
100
AcDbRegAppTableRecord
  2
GENIUS_GENOREF_13
 70
     0
  0
APPID
  5
C85
330
9
100
AcDbSymbolTableRecord
100
AcDbRegAppTableRecord
  2
GENIUS_GENOLIS_13
 70
     0
  0
APPID
  5
CA0
330
9
100
AcDbSymbolTableRecord
100
AcDbRegAppTableRecord
  2
GENIUS_GENOBJ-N-CEN_13
 70
     0
  0
APPID
  5
1B5D
330
9
100
AcDbSymbolTableRecord
100
AcDbRegAppTableRecord
  2
GENIUS_GENFIL_13
 70
     0
  0
APPID
  5
1B5E
330
9
100
AcDbSymbolTableRecord
100
AcDbRegAppTableRecord
  2
GENIUS_GENOBJ-N-CHA_13
 70
     0
  0
APPID
  5
1FBC
330
9
100
AcDbSymbolTableRecord
100
AcDbRegAppTableRecord
  2
GENIUS_GENREC_14
 70
     0
  0
APPID
  5
1FBD
330
9
100
AcDbSymbolTableRecord
100
AcDbRegAppTableRecord
  2
GENIUS_GENOBJ-N-REC_13
 70
     0
  0
ENDTAB
  0
TABLE
  2
DIMSTYLE
  5
A
330
0
100
AcDbSymbolTable
 70
     9
  0
DIMSTYLE
105
58
330
A
100
AcDbSymbolTableRecord
100
AcDbDimStyleTableRecord
  2
AM_JIS
 70
     0
  3

  4
"
  5
OPEN30
  6

  7

 40
0.5
 41
2.5
 42
1.0
 43
12.0
 44
1.0
 45
0.0
 46
0.0
 47
0.1
 48
0.1
140
3.2
141
0.0
142
0.0
143
0.0393701
144
1.0
145
0.0
146
0.71
147
1.5
 71
     0
 72
     0
 73
     0
 74
     0
 75
     0
 76
     0
 77
     3
 78
     8
170
     0
171
     2
172
     1
173
     0
174
     0
175
     0
176
   256
177
   256
178
     2
270
     2
271
     3
272
     3
273
     2
274
     2
340
6B
275
     0
280
     0
281
     0
282
     0
283
     0
284
     0
285
     0
286
     0
287
     3
288
     0
  0
DIMSTYLE
105
5F
330
A
100
AcDbSymbolTableRecord
100
AcDbDimStyleTableRecord
  2
AM_JIS$3
 70
     0
  3

  4
"
  5
OPEN30
  6

  7

 40
0.5
 41
2.5
 42
1.0
 43
10.0
 44
1.0
 45
0.0
 46
0.0
 47
0.1
 48
0.1
140
3.2
141
0.0
142
0.0
143
0.0393701
144
1.0
145
0.0
146
0.71
147
1.5
 71
     0
 72
     0
 73
     0
 74
     1
 75
     0
 76
     0
 77
     3
 78
     8
170
     0
171
     2
172
     0
173
     0
174
     0
175
     0
176
   256
177
   256
178
     2
270
     2
271
     2
272
     3
273
     2
274
     2
340
6B
275
     0
280
     0
281
     0
282
     0
283
     0
284
     0
285
     0
286
     0
287
     0
288
     1
  0
DIMSTYLE
105
60
330
A
100
AcDbSymbolTableRecord
100
AcDbDimStyleTableRecord
  2
AM_JIS$4
 70
     0
  3

  4
"
  5
OPEN30
  6

  7

 40
0.5
 41
2.5
 42
1.0
 43
10.0
 44
1.0
 45
0.0
 46
0.0
 47
0.1
 48
0.1
140
3.2
141
0.0
142
0.0
143
0.0393701
144
1.0
145
0.0
146
0.71
147
1.5
 71
     0
 72
     0
 73
     0
 74
     1
 75
     0
 76
     0
 77
     3
 78
     8
170
     0
171
     2
172
     0
173
     0
174
     0
175
     0
176
   256
177
   256
178
     2
270
     2
271
     2
272
     3
273
     2
274
     2
340
6B
275
     0
280
     0
281
     0
282
     0
283
     0
284
     0
285
     0
286
     0
287
     0
288
     1
  0
DIMSTYLE
105
61
330
A
100
AcDbSymbolTableRecord
100
AcDbDimStyleTableRecord
  2
AM_JIS$6
 70
     0
  3

  4
"
  5
OPEN30
  6

  7

 40
0.5
 41
2.5
 42
1.0
 43
10.0
 44
1.0
 45
0.0
 46
0.0
 47
0.1
 48
0.1
140
3.2
141
0.0
142
0.0
143
0.0393701
144
1.0
145
0.0
146
0.71
147
1.5
 71
     0
 72
     0
 73
     0
 74
     0
 75
     0
 76
     0
 77
     0
 78
     8
170
     0
171
     2
172
     1
173
     0
174
     0
175
     0
176
   256
177
   256
178
     2
270
     2
271
     2
272
     2
273
     2
274
     2
340
6B
275
     0
280
     0
281
     0
282
     0
283
     0
284
     0
285
     0
286
     0
287
     3
288
     0
  0
DIMSTYLE
105
62
330
A
100
AcDbSymbolTableRecord
100
AcDbDimStyleTableRecord
  2
AM_JIS$7
 70
     0
  3

  4
"
  5
OPEN30
  6

  7

 40
0.5
 41
2.5
 42
1.0
 43
10.0
 44
1.0
 45
0.0
 46
0.0
 47
0.1
 48
0.1
140
3.2
141
0.0
142
0.0
143
0.0393701
144
1.0
145
0.0
146
0.71
147
1.5
 71
     0
 72
     0
 73
     0
 74
     0
 75
     0
 76
     0
 77
     3
 78
     8
170
     0
171
     2
172
     1
173
     0
174
     0
175
     0
176
   256
177
   256
178
     2
270
     2
271
     2
272
     3
273
     2
274
     2
340
6B
275
     0
280
     0
281
     0
282
     0
283
     0
284
     0
285
     0
286
     0
287
     3
288
     0
  0
DIMSTYLE
105
63
330
A
100
AcDbSymbolTableRecord
100
AcDbDimStyleTableRecord
  2
AM_JIS$SF
 70
     0
  3

  4
"
  5
OPEN30
  6

  7

 40
0.5
 41
2.5
 42
1.0
 43
10.0
 44
1.0
 45
0.0
 46
0.0
 47
0.1
 48
0.1
140
3.2
141
0.0
142
0.0
143
0.0393701
144
1.0
145
0.0
146
0.71
147
1.5
 71
     0
 72
     0
 73
     0
 74
     0
 75
     1
 76
     1
 77
     3
 78
     8
170
     0
171
     2
172
     1
173
     0
174
     0
175
     0
176
   256
177
   256
178
     2
270
     2
271
     2
272
     2
273
     2
274
     2
340
6B
275
     0
280
     0
281
     0
282
     0
283
     0
284
     0
285
     0
286
     0
287
     3
288
     0
  0
DIMSTYLE
105
68
330
A
100
AcDbSymbolTableRecord
100
AcDbDimStyleTableRecord
  2
AM_JIS$SH
 70
     0
  3

  4
"
  5

  6
GENAXEH
  7
OPEN30
 40
0.5
 41
2.5
 42
1.0
 43
10.0
 44
1.0
 45
0.0
 46
0.0
 47
0.1
 48
0.1
140
3.2
141
0.0
142
0.0
143
0.0393701
144
2.0
145
0.0
146
0.71
147
1.5
 71
     0
 72
     0
 73
     0
 74
     0
 75
     1
 76
     1
 77
     3
 78
     8
170
     0
171
     2
172
     1
173
     1
174
     0
175
     0
176
   256
177
   256
178
     2
270
     2
271
     2
272
     2
273
     2
274
     2
340
6B
275
     0
280
     0
281
     0
282
     0
283
     0
284
     0
285
     0
286
     0
287
     3
288
     0
  0
DIMSTYLE
105
B34
102
{ACAD_REACTORS
330
2DB2
102
}
330
A
100
AcDbSymbolTableRecord
100
AcDbDimStyleTableRecord
  2
AM_JIS$2
 70
     0
  3

  4
"
  5
OPEN30
  6

  7

 40
0.5
 41
2.5
 42
1.0
 43
12.0
 44
1.0
 45
0.0
 46
0.0
 47
0.1
 48
0.1
140
3.2
141
0.0
142
0.0
143
0.0393701
144
1.0
145
0.0
146
0.71
147
1.5
 71
     0
 72
     0
 73
     0
 74
     0
 75
     0
 76
     0
 77
     3
 78
     8
170
     0
171
     2
172
     1
173
     0
174
     0
175
     0
176
   256
177
   256
178
     2
270
     2
271
     3
272
     3
273
     2
274
     2
340
6B
275
     0
280
     0
281
     0
282
     0
283
     0
284
     0
285
     0
286
     0
287
     3
288
     0
  0
DIMSTYLE
105
BA5
102
{ACAD_REACTORS
330
CC6
330
DF5
330
1DEF
330
1C71
102
}
330
A
100
AcDbSymbolTableRecord
100
AcDbDimStyleTableRecord
  2
AM_JIS$0
 70
     0
  3

  4
"
  5
OPEN30
  6

  7

 40
0.5
 41
2.5
 42
0.0
 43
10.0
 44
1.0
 45
0.0
 46
0.0
 47
0.1
 48
0.1000000001
140
3.799999999999999
141
0.0
142
0.0
143
0.0393701
144
1.0
145
0.0
146
0.71
147
1.5
 71
     0
 72
     0
 73
     0
 74
     0
 75
     0
 76
     0
 77
     3
 78
     1
170
     0
171
     2
172
     1
173
     0
174
     0
175
     0
176
     3
177
     3
178
     2
270
     2
271
     2
272
     2
273
     2
274
     2
340
11
275
     1
280
     0
281
     0
282
     0
283
     0
284
     8
285
     0
286
     0
287
     0
288
     0
  0
ENDTAB
  0
TABLE
  2
BLOCK_RECORD
  5
1
330
0
100
AcDbSymbolTable
 70
    10
  0
BLOCK_RECORD
  5
1F
102
{ACAD_XDICTIONARY
360
74
102
}
330
1
100
AcDbSymbolTableRecord
100
AcDbBlockTableRecord
  2
*MODEL_SPACE
  0
BLOCK_RECORD
  5
101
102
{ACAD_XDICTIONARY
360
31E4
102
}
330
1
100
AcDbSymbolTableRecord
100
AcDbBlockTableRecord
  2
*PAPER_SPACE
  0
BLOCK_RECORD
  5
59
330
1
100
AcDbSymbolTableRecord
100
AcDbBlockTableRecord
  2
_OPEN30
  0
BLOCK_RECORD
  5
64
330
1
100
AcDbSymbolTableRecord
100
AcDbBlockTableRecord
  2
GENAXEH
  0
BLOCK_RECORD
  5
CC8
330
1
100
AcDbSymbolTableRecord
100
AcDbBlockTableRecord
  2
*D5
  0
BLOCK_RECORD
  5
DF6
330
1
100
AcDbSymbolTableRecord
100
AcDbBlockTableRecord
  2
*D6
  0
BLOCK_RECORD
  5
1C72
330
1
100
AcDbSymbolTableRecord
100
AcDbBlockTableRecord
  2
*D7
  0
BLOCK_RECORD
  5
1DF0
330
1
100
AcDbSymbolTableRecord
100
AcDbBlockTableRecord
  2
*D8
  0
BLOCK_RECORD
  5
2DB3
330
1
100
AcDbSymbolTableRecord
100
AcDbBlockTableRecord
  2
*D9
  0
ENDTAB
  0
ENDSEC
  0
SECTION
  2
BLOCKS
  0
BLOCK
  5
20
330
1F
100
AcDbEntity
  8
0
100
AcDbBlockBegin
  2
*MODEL_SPACE
 70
     0
 10
0.0
 20
0.0
 30
0.0
  3
*MODEL_SPACE
  1

  0
ENDBLK
  5
21
330
1F
100
AcDbEntity
  8
0
100
AcDbBlockEnd
  0
BLOCK
  5
103
330
101
100
AcDbEntity
 67
     1
  8
0
100
AcDbBlockBegin
  2
*PAPER_SPACE
 70
     0
 10
0.0
 20
0.0
 30
0.0
  3
*PAPER_SPACE
  1

  0
ENDBLK
  5
104
330
101
100
AcDbEntity
 67
     1
  8
0
100
AcDbBlockEnd
  0
BLOCK
  5
5D
330
59
100
AcDbEntity
  8
0
100
AcDbBlockBegin
  2
_OPEN30
 70
     0
 10
0.0
 20
0.0
 30
0.0
  3
_OPEN30
  1

  0
LINE
  5
5A
330
59
100
AcDbEntity
  8
0
 62
     0
100
AcDbLine
 10
-1.0
 20
0.26794919
 30
0.0
 11
0.0
 21
0.0
 31
0.0
  0
LINE
  5
5B
330
59
100
AcDbEntity
  8
0
 62
     0
100
AcDbLine
 10
0.0
 20
0.0
 30
0.0
 11
-1.0
 21
-0.26794919
 31
0.0
  0
LINE
  5
5C
330
59
100
AcDbEntity
  8
0
 62
     0
100
AcDbLine
 10
0.0
 20
0.0
 30
0.0
 11
-1.0
 21
0.0
 31
0.0
  0
ENDBLK
  5
5E
330
59
100
AcDbEntity
  8
0
100
AcDbBlockEnd
  0
BLOCK
  5
66
330
64
100
AcDbEntity
  8
0
100
AcDbBlockBegin
  2
GENAXEH
 70
     0
 10
0.0
 20
0.0
 30
0.0
  3
GENAXEH
  1

  0
LINE
  5
65
330
64
100
AcDbEntity
  8
0
100
AcDbLine
 10
-1.0
 20
0.0
 30
0.0
 11
1.0
 21
0.0
 31
0.0
  0
ENDBLK
  5
67
330
64
100
AcDbEntity
  8
0
100
AcDbBlockEnd
  0
BLOCK
  5
CD2
330
CC8
100
AcDbEntity
  8
0
100
AcDbBlockBegin
  2
*D5
 70
     1
 10
0.0
 20
0.0
 30
0.0
  3
*D5
  1

  0
LINE
  5
3162
330
CC8
100
AcDbEntity
  8
AM_5
 62
     3
100
AcDbLine
 10
-71.0
 20
-1.250006209471289
 30
0.0
 11
-71.0
 21
-14.00000718101106
 31
0.0
  0
LINE
  5
3163
330
CC8
100
AcDbEntity
  8
AM_5
 62
     3
100
AcDbLine
 10
-0.9999961853027221
 20
-0.7999993701436208
 30
0.0
 11
-0.999996185302723
 21
-14.00000718101106
 31
0.0
  0
LINE
  5
3164
330
CC8
100
AcDbEntity
  8
AM_5
 62
     3
100
AcDbLine
 10
-69.75
 20
-13.50000718101106
 30
0.0
 11
-2.249996185302722
 21
-13.50000718101106
 31
0.0
  0
INSERT
  5
3165
330
CC8
100
AcDbEntity
  8
AM_5
 62
     3
100
AcDbBlockReference
  2
_OPEN30
 10
-71.0
 20
-13.50000718101106
 30
0.0
 41
1.25
 42
1.25
 43
1.25
 50
180.0
  0
INSERT
  5
3166
330
CC8
100
AcDbEntity
  8
AM_5
 62
     3
100
AcDbBlockReference
  2
_OPEN30
 10
-0.999996185302723
 20
-13.50000718101106
 30
0.0
 41
1.25
 42
1.25
 43
1.25
  0
MTEXT
  5
3167
330
CC8
100
AcDbEntity
  8
AM_5
 62
     2
100
AcDbMText
 10
-35.99999809265136
 20
-11.80000718101106
 30
0.0
 40
1.9
 41
0.0
 71
     5
 72
     1
  1
70
1001
ACAD
1000
MTEXTBEGIN
1070
    73
1070
     1
1070
    44
1040
1.0
1070
    74
1070
     0
1000
MTEXTEND
  0
POINT
  5
3168
330
CC8
100
AcDbEntity
  8
DEFPOINTS
 62
     0
100
AcDbPoint
 10
-71.0
 20
-1.250006209471289
 30
0.0
  0
POINT
  5
3169
330
CC8
100
AcDbEntity
  8
DEFPOINTS
 62
     0
100
AcDbPoint
 10
-0.9999961853027221
 20
-0.7999993701436208
 30
0.0
  0
POINT
  5
316A
330
CC8
100
AcDbEntity
  8
DEFPOINTS
 62
     0
100
AcDbPoint
 10
-0.999996185302723
 20
-13.50000718101106
 30
0.0
  0
ENDBLK
  5
CD3
330
CC8
100
AcDbEntity
  8
0
100
AcDbBlockEnd
  0
BLOCK
  5
E00
330
DF6
100
AcDbEntity
  8
0
100
AcDbBlockBegin
  2
*D6
 70
     1
 10
0.0
 20
0.0
 30
0.0
  3
*D6
  1

  0
LINE
  5
3176
330
DF6
100
AcDbEntity
  8
AM_5
 62
     3
100
AcDbLine
 10
-22.99999618530275
 20
-1.500000745136713
 30
0.0
 11
-22.99999618530275
 21
-9.00000718101104
 31
0.0
  0
LINE
  5
3177
330
DF6
100
AcDbEntity
  8
AM_5
 62
     3
100
AcDbLine
 10
-0.9999961853027221
 20
-0.7999993701436208
 30
0.0
 11
-0.9999961853027226
 21
-9.00000718101104
 31
0.0
  0
LINE
  5
3178
330
DF6
100
AcDbEntity
  8
AM_5
 62
     3
100
AcDbLine
 10
-21.74999618530275
 20
-8.50000718101104
 30
0.0
 11
-2.249996185302722
 21
-8.50000718101104
 31
0.0
  0
INSERT
  5
3179
330
DF6
100
AcDbEntity
  8
AM_5
 62
     3
100
AcDbBlockReference
  2
_OPEN30
 10
-22.99999618530275
 20
-8.50000718101104
 30
0.0
 41
1.25
 42
1.25
 43
1.25
 50
180.0
  0
INSERT
  5
317A
330
DF6
100
AcDbEntity
  8
AM_5
 62
     3
100
AcDbBlockReference
  2
_OPEN30
 10
-0.9999961853027226
 20
-8.50000718101104
 30
0.0
 41
1.25
 42
1.25
 43
1.25
  0
MTEXT
  5
317B
330
DF6
100
AcDbEntity
  8
AM_5
 62
     2
100
AcDbMText
 10
-11.99999618530273
 20
-6.80000718101104
 30
0.0
 40
1.9
 41
0.0
 71
     5
 72
     1
  1
22
1001
ACAD
1000
MTEXTBEGIN
1070
    73
1070
     1
1070
    44
1040
1.0
1070
    74
1070
     0
1000
MTEXTEND
  0
POINT
  5
317C
330
DF6
100
AcDbEntity
  8
DEFPOINTS
 62
     0
100
AcDbPoint
 10
-22.99999618530275
 20
-1.500000745136713
 30
0.0
  0
POINT
  5
317D
330
DF6
100
AcDbEntity
  8
DEFPOINTS
 62
     0
100
AcDbPoint
 10
-0.9999961853027221
 20
-0.7999993701436208
 30
0.0
  0
POINT
  5
317E
330
DF6
100
AcDbEntity
  8
DEFPOINTS
 62
     0
100
AcDbPoint
 10
-0.9999961853027226
 20
-8.50000718101104
 30
0.0
  0
ENDBLK
  5
E01
330
DF6
100
AcDbEntity
  8
0
100
AcDbBlockEnd
  0
BLOCK
  5
1C7E
330
1C72
100
AcDbEntity
  8
0
100
AcDbBlockBegin
  2
*D7
 70
     1
 10
0.0
 20
0.0
 30
0.0
  3
*D7
  1

  0
LINE
  5
318A
330
1C72
100
AcDbEntity
  8
AM_5
 62
     3
100
AcDbLine
 10
-0.9999961853027222
 20
-0.7499994095095817
 30
0.0
 11
7.795959622153484
 21
-0.7499994095095843
 31
0.0
  0
LINE
  5
318B
330
1C72
100
AcDbEntity
  8
AM_5
 62
     3
100
AcDbLine
 10
-0.9999961853027251
 20
0.7500005904904183
 30
0.0
 11
7.795959622153484
 21
0.7500005904904157
 31
0.0
  0
LINE
  5
318C
330
1C72
100
AcDbEntity
  8
AM_5
 62
     3
100
AcDbLine
 10
7.295959622153484
 20
-1.999999409509584
 30
0.0
 11
7.295959622153483
 21
-3.249999409509584
 31
0.0
  0
LINE
  5
318D
330
1C72
100
AcDbEntity
  8
AM_5
 62
     3
100
AcDbLine
 10
7.295959622153485
 20
2.000000590490415
 30
0.0
 11
7.295959622153486
 21
10.24285781800101
 31
0.0
  0
LINE
  5
318E
330
1C72
100
AcDbEntity
  8
AM_5
 62
     3
100
AcDbLine
 10
7.295959622153484
 20
-0.7499994095095842
 30
0.0
 11
7.295959622153484
 21
0.7500005904904158
 31
0.0
  0
INSERT
  5
318F
330
1C72
100
AcDbEntity
  8
AM_5
 62
     3
100
AcDbBlockReference
  2
_OPEN30
 10
7.295959622153484
 20
-0.7499994095095842
 30
0.0
 41
1.25
 42
1.25
 43
1.25
 50
90.0
  0
INSERT
  5
3190
330
1C72
100
AcDbEntity
  8
AM_5
 62
     3
100
AcDbBlockReference
  2
_OPEN30
 10
7.295959622153484
 20
0.7500005904904158
 30
0.0
 41
1.25
 42
1.25
 43
1.25
 50
270.0
  0
MTEXT
  5
3191
330
1C72
100
AcDbEntity
  8
AM_5
 62
     2
100
AcDbMText
 10
5.595959622153483
 20
6.823810198953402
 30
0.0
 40
1.9
 41
0.0
 71
     5
 72
     1
  1
%%c1.5
 11
0.0000000000000001
 21
1.0
 31
0.0
1001
ACAD
1000
MTEXTBEGIN
1070
    73
1070
     1
1070
    44
1040
1.0
1070
    74
1070
     0
1000
MTEXTEND
  0
POINT
  5
3192
330
1C72
100
AcDbEntity
  8
DEFPOINTS
 62
     0
100
AcDbPoint
 10
-0.9999961853027222
 20
-0.7499994095095817
 30
0.0
  0
POINT
  5
3193
330
1C72
100
AcDbEntity
  8
DEFPOINTS
 62
     0
100
AcDbPoint
 10
-0.9999961853027251
 20
0.7500005904904183
 30
0.0
  0
POINT
  5
3194
330
1C72
100
AcDbEntity
  8
DEFPOINTS
 62
     0
100
AcDbPoint
 10
7.295959622153484
 20
0.7500005904904158
 30
0.0
  0
ENDBLK
  5
1C7F
330
1C72
100
AcDbEntity
  8
0
100
AcDbBlockEnd
  0
BLOCK
  5
1DFC
330
1DF0
100
AcDbEntity
  8
0
100
AcDbBlockBegin
  2
*D8
 70
     1
 10
0.0
 20
0.0
 30
0.0
  3
*D8
  1

  0
LINE
  5
316B
330
1DF0
100
AcDbEntity
  8
AM_5
 62
     3
100
AcDbLine
 10
-70.75000000000002
 20
-1.500006181011356
 30
0.0
 11
-79.25000134152343
 21
-1.500006181011373
 31
0.0
  0
LINE
  5
316C
330
1DF0
100
AcDbEntity
  8
AM_5
 62
     3
100
AcDbLine
 10
-70.75000000000002
 20
1.500013847201647
 30
0.0
 11
-79.25000134152343
 21
1.500013847201631
 31
0.0
  0
LINE
  5
316D
330
1DF0
100
AcDbEntity
  8
AM_5
 62
     3
100
AcDbLine
 10
-78.75000134152343
 20
-2.750006181011372
 30
0.0
 11
-78.75000134152341
 21
-4.000006181011372
 31
0.0
  0
LINE
  5
316E
330
1DF0
100
AcDbEntity
  8
AM_5
 62
     3
100
AcDbLine
 10
-78.75000134152343
 20
2.750013847201632
 30
0.0
 11
-78.75000134152344
 21
4.000013847201632
 31
0.0
  0
LINE
  5
316F
330
1DF0
100
AcDbEntity
  8
AM_5
 62
     3
100
AcDbLine
 10
-78.75000134152343
 20
-1.500006181011372
 30
0.0
 11
-78.75000134152343
 21
1.500013847201632
 31
0.0
  0
INSERT
  5
3170
330
1DF0
100
AcDbEntity
  8
AM_5
 62
     3
100
AcDbBlockReference
  2
_OPEN30
 10
-78.75000134152343
 20
-1.500006181011372
 30
0.0
 41
1.25
 42
1.25
 43
1.25
 50
90.0000000000001
  0
INSERT
  5
3171
330
1DF0
100
AcDbEntity
  8
AM_5
 62
     3
100
AcDbBlockReference
  2
_OPEN30
 10
-78.75000134152343
 20
1.500013847201632
 30
0.0
 41
1.25
 42
1.25
 43
1.25
 50
270.0000000000001
  0
MTEXT
  5
3172
330
1DF0
100
AcDbEntity
  8
AM_5
 62
     2
100
AcDbMText
 10
-80.45000134152344
 20
0.0000038330951296
 30
0.0
 40
1.9
 41
0.0
 71
     5
 72
     1
  1
%%c3
 11
-0.000000000000002
 21
1.0
 31
0.0
1001
ACAD
1000
MTEXTBEGIN
1070
    73
1070
     1
1070
    44
1040
1.0
1070
    74
1070
     0
1000
MTEXTEND
  0
POINT
  5
3173
330
1DF0
100
AcDbEntity
  8
DEFPOINTS
 62
     0
100
AcDbPoint
 10
-70.75000000000002
 20
-1.500006181011199
 30
0.0
  0
POINT
  5
3174
330
1DF0
100
AcDbEntity
  8
DEFPOINTS
 62
     0
100
AcDbPoint
 10
-70.75000000000002
 20
1.500013847201804
 30
0.0
  0
POINT
  5
3175
330
1DF0
100
AcDbEntity
  8
DEFPOINTS
 62
     0
100
AcDbPoint
 10
-78.75000134152343
 20
1.500013847201806
 30
0.0
  0
ENDBLK
  5
1DFD
330
1DF0
100
AcDbEntity
  8
0
100
AcDbBlockEnd
  0
BLOCK
  5
2DC3
330
2DB3
100
AcDbEntity
  8
0
100
AcDbBlockBegin
  2
*D9
 70
     1
 10
0.0
 20
0.0
 30
0.0
  3
*D9
  1

  0
LINE
  5
31E6
330
2DB3
100
AcDbEntity
  8
AM_5
100
AcDbLine
 10
0.1710089943896139
 20
-0.4698467024869424
 30
0.0
 11
5.019346489536974
 21
-13.79063952259334
 31
0.0
  0
LINE
  5
31E7
330
2DB3
100
AcDbEntity
  8
AM_5
100
AcDbLine
 10
0.1710103082683107
 20
0.4698462242755356
 30
0.0
 11
5.019385053663078
 21
13.7906254864384
 31
0.0
  0
ARC
  5
31E8
330
2DB3
100
AcDbEntity
  8
AM_5
100
AcDbCircle
 10
-0.0000000000000002
 20
-0.0000000000000005
 30
0.0
 40
14.17567980109067
100
AcDbArc
 50
295.0538024970808
 51
64.94603728099571
  0
INSERT
  5
31E9
330
2DB3
100
AcDbEntity
  8
AM_5
100
AcDbBlockReference
  2
_OPEN30
 10
4.84833749514736
 20
-13.3207928201064
 30
0.0
 41
1.25
 42
1.25
 43
1.25
 50
202.5268355641008
  0
INSERT
  5
31EA
330
2DB3
100
AcDbEntity
  8
AM_5
100
AcDbBlockReference
  2
_OPEN30
 10
4.848374745394766
 20
13.32077926216286
 30
0.0
 41
1.25
 42
1.25
 43
1.25
 50
157.4730042139757
  0
MTEXT
  5
31EB
330
2DB3
100
AcDbEntity
  8
AM_5
 62
     2
100
AcDbMText
 10
12.62567980107833
 20
-0.0000176532261237
 30
0.0
 40
1.6
 41
0.0
 71
     5
 72
     1
  1
140°
  7
ASAMI
 11
0.0000013982000498
 21
0.9999999999990226
 31
0.0
  0
POINT
  5
31EC
330
2DB3
100
AcDbEntity
  8
DEFPOINTS
 62
     0
100
AcDbPoint
 10
13.01632799450646
 20
-5.61472202005383
 30
0.0
  0
POINT
  5
31ED
330
2DB3
100
AcDbEntity
  8
DEFPOINTS
 62
     0
100
AcDbPoint
 10
-0.0000000000000002
 20
-0.0000000000000005
 30
0.0
  0
POINT
  5
31EE
330
2DB3
100
AcDbEntity
  8
DEFPOINTS
 62
     0
100
AcDbPoint
 10
-0.0000000000000002
 20
-0.0000000000000005
 30
0.0
  0
POINT
  5
31EF
330
2DB3
100
AcDbEntity
  8
DEFPOINTS
 62
     0
100
AcDbPoint
 10
-0.1185186077757191
 20
0.3256295216840766
 30
0.0
  0
POINT
  5
31F0
330
2DB3
100
AcDbEntity
  8
DEFPOINTS
 62
     0
100
AcDbPoint
 10
-0.118520292483321
 20
-0.3256313171247541
 30
0.0
  0
ENDBLK
  5
2DC4
330
2DB3
100
AcDbEntity
  8
0
100
AcDbBlockEnd
  0
ENDSEC
  0
SECTION
  2
ENTITIES
  0
LINE
  5
C1D
330
1F
100
AcDbEntity
  8
AM_0
 48
0.5
100
AcDbLine
 10
-0.0000000000000002
 20
-0.0000000000000005
 30
0.0
 11
-0.1185186077757192
 21
0.3256295216840766
 31
0.0
  0
LINE
  5
C20
330
1F
100
AcDbEntity
  8
AM_0
 48
0.5
100
AcDbLine
 10
-0.0000000000000002
 20
-0.0000000000000005
 30
0.0
 11
-0.118520292483321
 21
-0.3256313171247541
 31
0.0
  0
LINE
  5
C2E
330
1F
100
AcDbEntity
  8
AM_0
 48
0.5
100
AcDbLine
 10
-70.75000000000001
 20
-1.500006181011199
 30
0.0
 11
-70.75000000000001
 21
1.500013847201804
 31
0.0
  0
LINE
  5
C30
330
1F
100
AcDbEntity
  8
AM_0
 48
0.5
100
AcDbLine
 10
-71.00000000000001
 20
-1.250006209471275
 30
0.0
 11
-71.00000000000001
 21
1.250005235204411
 31
0.0
  0
LINE
  5
C9F
330
1F
100
AcDbEntity
  8
AM_7
100
AcDbLine
 10
-71.75
 20
-0.0000000000000745
 30
0.0
 11
0.2959585652317784
 21
0.0
 31
0.0
1001
GENIUS_GENODEF_13
1002
{
1000
HIER
1070
     0
1002
}
1002
{
1000
MANEDIT
1070
     0
1002
}
1002
{
1000
NOSEL
1070
     0
1002
}
1002
{
1000
BEHIND
1070
     0
1002
}
1002
{
1000
REACTOR
1002
}
1001
GENIUS_GENOBJ-N-CEN_13
1002
{
1000
OWNER
1000
GEN
1002
}
  0
DIMENSION
  5
CC6
330
1F
100
AcDbEntity
  8
AM_5
100
AcDbDimension
  2
*D5
 10
-0.999996185302723
 20
-13.50000718101106
 30
0.0
 11
-35.99999809265136
 21
-11.80000718101106
 31
0.0
 70
    32
  1
<>
  3
AM_JIS$0
100
AcDbAlignedDimension
 13
-71.0
 23
-1.250006209471289
 33
0.0
 14
-0.9999961853027221
 24
-0.7999993701436208
 34
0.0
 50
0.0000000000001132
100
AcDbRotatedDimension
1001
GENIUS_GENDTOL_13
1000

1000
h7
1000

1040
0.0
1001
ACAD
1000
DSTYLE
1002
{
1070
   271
1070
     0
1002
}
  0
DIMENSION
  5
DF5
330
1F
100
AcDbEntity
  8
AM_5
100
AcDbDimension
  2
*D6
 10
-0.9999961853027226
 20
-8.50000718101104
 30
0.0
 11
-11.99999618530273
 21
-6.80000718101104
 31
0.0
 70
    32
  1
<>
  3
AM_JIS$0
100
AcDbAlignedDimension
 13
-22.99999618530275
 23
-1.500000745136713
 33
0.0
 14
-0.9999961853027221
 24
-0.7999993701436208
 34
0.0
 50
0.0000000000001527
100
AcDbRotatedDimension
1001
GENIUS_GENDTOL_13
1000

1000
h7
1000

1040
0.0
1001
ACAD
1000
DSTYLE
1002
{
1070
   271
1070
     0
1002
}
  0
ARC
  5
144A
330
1F
100
AcDbEntity
  8
AM_11
 48
0.5
100
AcDbCircle
 10
-24.61968231200996
 20
-6.625446930970556
 30
0.0
 40
7.325448036193749
100
AcDbArc
 50
64.74833051131179
 51
115.2516644797366
  0
ARC
  5
144B
330
1F
100
AcDbEntity
  8
AM_11
 48
0.5
100
AcDbCircle
 10
-24.61968231200995
 20
6.625451430235441
 30
0.0
 40
7.325448036193749
100
AcDbArc
 50
244.7482808787518
 51
295.2516148471758
  0
ARC
  5
144E
330
1F
100
AcDbEntity
  8
AM_11
 48
0.5
100
AcDbCircle
 10
-18.36968231200995
 20
-6.625446930970556
 30
0.0
 40
7.325448036193749
100
AcDbArc
 50
64.74833051131179
 51
115.2516644797366
  0
ARC
  5
144F
330
1F
100
AcDbEntity
  8
AM_11
 48
0.5
100
AcDbCircle
 10
-18.36968231200995
 20
6.625451430235441
 30
0.0
 40
7.325448036193749
100
AcDbArc
 50
244.7482808787518
 51
295.2516148471758
  0
ARC
  5
1450
330
1F
100
AcDbEntity
  8
AM_11
 48
0.5
100
AcDbCircle
 10
-12.11968231201171
 20
6.625451430235441
 30
0.0
 40
7.325448036193749
100
AcDbArc
 50
244.7482808787518
 51
295.2516148471758
  0
ARC
  5
1451
330
1F
100
AcDbEntity
  8
AM_11
 48
0.5
100
AcDbCircle
 10
-12.11968231201171
 20
-6.625446930970556
 30
0.0
 40
7.325448036193749
100
AcDbArc
 50
64.74833051131179
 51
115.2516644797366
  0
ARC
  5
1452
330
1F
100
AcDbEntity
  8
AM_11
 48
0.5
100
AcDbCircle
 10
-5.869682312011709
 20
-6.625446930970556
 30
0.0
 40
7.325448036193749
100
AcDbArc
 50
64.74833051131179
 51
115.2516644797366
  0
ARC
  5
1453
330
1F
100
AcDbEntity
  8
AM_11
 48
0.5
100
AcDbCircle
 10
-5.869682312011709
 20
6.625451430235441
 30
0.0
 40
7.325448036193749
100
AcDbArc
 50
244.7482808787518
 51
295.2516148471758
  0
ARC
  5
18B8
330
1F
100
AcDbEntity
  8
AM_11
 48
0.5
100
AcDbCircle
 10
-30.8696823120099
 20
6.62545143023542
 30
0.0
 40
7.325448036193749
100
AcDbArc
 50
244.7482808787518
 51
295.2516148471758
  0
ARC
  5
18B9
330
1F
100
AcDbEntity
  8
AM_11
 48
0.5
100
AcDbCircle
 10
-30.86968231200991
 20
-6.625446930970578
 30
0.0
 40
7.325448036193749
100
AcDbArc
 50
64.74833051131179
 51
115.2516644797366
  0
ARC
  5
18BA
330
1F
100
AcDbEntity
  8
AM_11
 48
0.5
100
AcDbCircle
 10
-37.11969507921032
 20
6.625457452091306
 30
0.0
 40
7.325448036193749
100
AcDbArc
 50
244.7482808787518
 51
295.2516148471758
  0
ARC
  5
18BB
330
1F
100
AcDbEntity
  8
AM_11
 48
0.5
100
AcDbCircle
 10
-37.11969507921033
 20
-6.625440909114693
 30
0.0
 40
7.325448036193749
100
AcDbArc
 50
64.74833051131179
 51
115.2516644797366
  0
TEXT
  5
19BD
330
1F
100
AcDbEntity
  8
AM_6
100
AcDbText
 10
-46.59523618788943
 20
-24.75000718101109
 30
0.0
 40
2.5
  1
MDW015LHK
 50
0.0000000000001527
 72
     4
 11
-35.99999809265133
 21
-23.50000718101106
 31
0.0
100
AcDbText
  0
LINE
  5
1B5C
330
1F
100
AcDbEntity
  8
AM_0
 48
0.5
100
AcDbLine
 10
-70.75000000000001
 20
1.500005264989105
 30
0.0
 11
-71.00000000000001
 21
1.250005235204411
 31
0.0
1001
GENIUS_GENFIL_13
1070
     0
1040
0.25
1040
0.25
1040
20.0
1040
0.0
1002
{
1002
}
1001
GENIUS_GENODEF_13
1002
{
1000
HIER
1070
     0
1002
}
1002
{
1000
MANEDIT
1070
     0
1002
}
1002
{
1000
NOSEL
1070
     0
1002
}
1002
{
1000
BEHIND
1070
     0
1002
}
1002
{
1000
REACTOR
1002
}
1001
GENIUS_GENOBJ-N-CHA_13
1002
{
1000
OWNER
1000
GEN
1002
}
  0
LINE
  5
1B60
330
1F
100
AcDbEntity
  8
AM_0
 48
0.5
100
AcDbLine
 10
-71.00000000000001
 20
-1.250006209471275
 30
0.0
 11
-70.75000000000001
 21
-1.500006181011199
 31
0.0
1001
GENIUS_GENFIL_13
1070
     0
1040
0.25
1040
0.25
1040
20.0
1040
0.0
1002
{
1002
}
1001
GENIUS_GENODEF_13
1002
{
1000
HIER
1070
     0
1002
}
1002
{
1000
MANEDIT
1070
     0
1002
}
1002
{
1000
NOSEL
1070
     0
1002
}
1002
{
1000
BEHIND
1070
     0
1002
}
1002
{
1000
REACTOR
1002
}
1001
GENIUS_GENOBJ-N-CHA_13
1002
{
1000
OWNER
1000
GEN
1002
}
  0
LINE
  5
1C15
330
1F
100
AcDbEntity
  8
AM_0
 48
0.5
100
AcDbLine
 10
-22.99999618530275
 20
-1.500000745136711
 30
0.0
 11
-22.99999618530275
 21
1.500010953865678
 31
0.0
  0
LINE
  5
1C1A
330
1F
100
AcDbEntity
  8
AM_0
 48
0.5
100
AcDbLine
 10
-22.99999618530276
 20
1.500012098797339
 30
0.0
 11
-70.75000000000001
 21
1.500005264989105
 31
0.0
  0
LINE
  5
1C1E
330
1F
100
AcDbEntity
  8
AM_0
 48
0.5
100
AcDbLine
 10
-22.99999618530275
 20
-1.499999651123733
 30
0.0
 11
-70.75000000000001
 21
-1.500006181011199
 31
0.0
  0
ARC
  5
1C22
330
1F
100
AcDbEntity
  8
AM_11
 48
0.5
100
AcDbCircle
 10
-49.61969507914653
 20
6.625457452091292
 30
0.0
 40
7.325448036193749
100
AcDbArc
 50
244.7482808787518
 51
295.2516148471758
  0
ARC
  5
1C23
330
1F
100
AcDbEntity
  8
AM_11
 48
0.5
100
AcDbCircle
 10
-49.61969507914655
 20
-6.625440909114707
 30
0.0
 40
7.325448036193749
100
AcDbArc
 50
64.74833051131179
 51
115.2516644797366
  0
ARC
  5
1C24
330
1F
100
AcDbEntity
  8
AM_11
 48
0.5
100
AcDbCircle
 10
-43.3696823119461
 20
6.625451430235406
 30
0.0
 40
7.325448036193749
100
AcDbArc
 50
244.7482808787518
 51
295.2516148471758
  0
ARC
  5
1C25
330
1F
100
AcDbEntity
  8
AM_11
 48
0.5
100
AcDbCircle
 10
-43.36968231194612
 20
-6.625446930970592
 30
0.0
 40
7.325448036193749
100
AcDbArc
 50
64.74833051131179
 51
115.2516644797366
  0
ARC
  5
1C26
330
1F
100
AcDbEntity
  8
AM_11
 48
0.5
100
AcDbCircle
 10
-62.11969507908265
 20
6.625457452091238
 30
0.0
 40
7.325448036193749
100
AcDbArc
 50
244.7482808787518
 51
295.2516148471758
  0
ARC
  5
1C27
330
1F
100
AcDbEntity
  8
AM_11
 48
0.5
100
AcDbCircle
 10
-62.11969507908267
 20
-6.625440909114761
 30
0.0
 40
7.325448036193749
100
AcDbArc
 50
64.74833051131179
 51
115.2516644797366
  0
ARC
  5
1C28
330
1F
100
AcDbEntity
  8
AM_11
 48
0.5
100
AcDbCircle
 10
-55.86968231188222
 20
6.625451430235352
 30
0.0
 40
7.325448036193749
100
AcDbArc
 50
244.7482808787518
 51
295.2516148471758
  0
ARC
  5
1C29
330
1F
100
AcDbEntity
  8
AM_11
 48
0.5
100
AcDbCircle
 10
-55.86968231188224
 20
-6.625446930970646
 30
0.0
 40
7.325448036193749
100
AcDbArc
 50
64.74833051131179
 51
115.2516644797366
  0
ARC
  5
1C2C
330
1F
100
AcDbEntity
  8
AM_11
 48
0.5
100
AcDbCircle
 10
-68.36968231181839
 20
6.625451430235317
 30
0.0
 40
7.325448036193749
100
AcDbArc
 50
248.957166746083
 51
295.2516148471758
  0
ARC
  5
1C2D
330
1F
100
AcDbEntity
  8
AM_11
 48
0.5
100
AcDbCircle
 10
-68.36968231181839
 20
-6.625446930970681
 30
0.0
 40
7.325448036193749
100
AcDbArc
 50
64.74833051131179
 51
111.0428332539169
  0
DIMENSION
  5
1C71
330
1F
100
AcDbEntity
  8
AM_5
100
AcDbDimension
  2
*D7
 10
7.295959622153484
 20
0.7500005904904158
 30
0.0
 11
7.295959622153484
 21
6.823810198953401
 31
0.0
 70
   160
  1
%%c<>
  3
AM_JIS$0
100
AcDbAlignedDimension
 13
-0.9999961853027222
 23
-0.7499994095095817
 33
0.0
 14
-0.9999961853027251
 24
0.7500005904904183
 34
0.0
 50
89.99999999999991
100
AcDbRotatedDimension
1001
GENIUS_GENDTOL_13
1000

1000
h7
1000

1040
0.0
1001
ACAD
1000
DSTYLE
1002
{
1070
   271
1070
     1
1002
}
  0
LINE
  5
1C85
330
1F
100
AcDbEntity
  8
AM_0
 48
0.5
100
AcDbLine
 10
-0.7712136545525461
 20
0.6675526421703979
 30
0.0
 11
-0.9999961853027251
 21
0.7500005904904182
 31
0.0
  0
ELLIPSE
  5
1C86
330
1F
100
AcDbEntity
  8
AM_0
 48
0.5
100
AcDbEllipse
 10
0.3790506830175327
 20
1.53552326149919
 30
0.0
 11
1.561952808155325
 21
0.0257027492706869
 31
0.0
210
0.0
220
0.0
230
0.9999999999999998
 40
0.8151640103509405
 41
3.871300040489825
 42
4.374800429995983
  0
LINE
  5
1CF2
330
1F
100
AcDbEntity
  8
AM_0
100
AcDbLine
 10
-22.99999618530275
 20
-1.500000745136711
 30
0.0
 11
-21.70095576625143
 21
-0.7499994095092132
 31
0.0
  0
LINE
  5
1CF3
330
1F
100
AcDbEntity
  8
AM_0
100
AcDbLine
 10
-22.99999618530275
 20
1.500010953865678
 30
0.0
 11
-21.70095526838824
 21
0.7500093307967552
 31
0.0
  0
LINE
  5
1CF4
330
1F
100
AcDbEntity
  8
AM_0
100
AcDbLine
 10
-21.70095526835578
 20
0.7501071416018688
 30
0.0
 11
-21.70095576625143
 21
-0.7499994095092129
 31
0.0
  0
DIMENSION
  5
1DEF
330
1F
100
AcDbEntity
  8
AM_5
100
AcDbDimension
  2
*D8
 10
-78.75000134152343
 20
1.500013847201806
 30
0.0
 11
-78.75000134152343
 21
0.000003833095292
 31
0.0
 70
   160
  1
%%c<>
 51
359.9999999999998
  3
AM_JIS$0
100
AcDbAlignedDimension
 13
-70.75000000000002
 23
-1.500006181011199
 33
0.0
 14
-70.75000000000002
 24
1.500013847201804
 34
0.0
 50
270.0000065225689
100
AcDbRotatedDimension
1001
ACAD
1000
DSTYLE
1002
{
1070
   271
1070
     0
1002
}
1001
GENIUS_GENDTOL_13
1000

1000
h7
1000

1040
0.0
  0
ELLIPSE
  5
2C98
330
1F
100
AcDbEntity
  8
AM_11
 48
0.5
100
AcDbEllipse
 10
0.3803176879883226
 20
5.92803555535702
 30
0.0
 11
-7.325448036193943
 21
0.0000000000006641
 31
0.0
210
0.0
220
0.0
230
1.0
 40
0.8947368421052424
 41
1.130070686340396
 42
1.291800737381081
  0
LINE
  5
2D29
330
1F
100
AcDbEntity
  8
AM_0
 48
0.5
100
AcDbLine
 10
-1.513626849167295
 20
-0.7499994095095701
 30
0.0
 11
-0.9999961853027222
 21
-0.7499994095095817
 31
0.0
  0
LINE
  5
2D2A
330
1F
100
AcDbEntity
  8
AM_0
 48
0.5
100
AcDbLine
 10
0.0
 20
0.0
 30
0.0
 11
-0.8782423876206255
 21
0.2368826614279719
 31
0.0
  0
LINE
  5
2D34
330
1F
100
AcDbEntity
  8
AM_11
 48
0.5
100
AcDbLine
 10
-4.889677916378456
 20
-0.7499994095095131
 30
0.0
 11
-1.34635208346663
 21
-0.7499994095095728
 31
0.0
  0
LINE
  5
2D35
330
1F
100
AcDbEntity
  8
AM_11
 48
0.5
100
AcDbLine
 10
-4.889677916378421
 20
0.7500005904904868
 30
0.0
 11
-1.108760677461269
 21
0.750000590490423
 31
0.0
  0
SPLINE
  5
2D48
330
1F
100
AcDbEntity
  8
AM_0
 48
0.5
100
AcDbSpline
210
0.0
220
0.0
230
1.0
 70
     8
 71
     3
 72
    10
 73
     6
 74
     0
 42
0.0000000001
 43
0.0000000001
 40
0.0
 40
0.0
 40
0.0
 40
0.0
 40
2.69986029516136
 40
4.147722969032201
 40
6.285750005020438
 40
6.285750005020438
 40
6.285750005020438
 40
6.285750005020438
 10
-1.879287303159817
 20
0.3304236874116471
 30
0.0
 10
-1.528747455167022
 20
0.014971294913677
 30
0.0
 10
-1.281945533540176
 20
-0.0920765011994872
 30
0.0
 10
-0.6982921423915224
 20
-0.0402527877819331
 30
0.0
 10
-0.8082110525503686
 20
0.1342963363063733
 30
0.0
 10
-0.8808384453763643
 20
0.2406894034065207
 30
0.0
  0
ELLIPSE
  5
2D49
330
1F
100
AcDbEntity
  8
AM_0
 48
0.5
100
AcDbEllipse
 10
0.4495621438217984
 20
0.9004217330685191
 30
0.0
 11
2.464545513306031
 21
0.1107270997244971
 31
0.0
210
0.0
220
0.0
230
1.0
 40
0.6246367250959059
 41
3.448053779312929
 42
3.980639655691024
  0
ELLIPSE
  5
2D4A
330
1F
100
AcDbEntity
  8
AM_0
 48
0.5
100
AcDbEllipse
 10
-0.2043765126283425
 20
-0.2408663394443574
 30
0.0
 11
0.6679153883490203
 21
0.6679153883490202
 31
0.0
210
0.0
220
0.0
230
1.0
 40
1.0
 41
2.438924543402258
 42
2.925452910694527
  0
ELLIPSE
  5
2D4B
330
1F
100
AcDbEntity
  8
AM_0
 48
0.5
100
AcDbEllipse
 10
-0.58487611866894
 20
-0.1954602385158208
 30
0.0
 11
-0.0835053768565268
 21
0.1055028489364465
 31
0.0
210
0.0
220
0.0
230
0.9999999999999996
 40
0.7705910092763734
 41
1.346113611091114
 42
4.481455500803088
  0
ELLIPSE
  5
2D4C
330
1F
100
AcDbEntity
  8
AM_0
 48
0.5
100
AcDbEllipse
 10
-0.58487611866894
 20
-0.1954602385158208
 30
0.0
 11
-0.2005258231305553
 21
0.0505691224325495
 31
0.0
210
0.0
220
0.0
230
1.0
 40
0.3262019338085742
 41
4.284880031841795
 42
7.428320373171306
  0
ELLIPSE
  5
2D4D
330
1F
100
AcDbEntity
  8
AM_0
 48
0.5
100
AcDbEllipse
 10
-2.318368722870094
 20
1.258772454202702
 30
0.0
 11
-2.937428514099575
 21
0.6149659438846952
 31
0.0
210
0.0
220
0.0
230
0.9999999999999998
 40
0.467641733576745
 41
2.337923516270635
 42
2.571885057488716
  0
ELLIPSE
  5
2D4E
330
1F
100
AcDbEntity
  8
AM_0
 48
0.5
100
AcDbEllipse
 10
-0.682551635685501
 20
-0.8479590796826844
 30
0.0
 11
1.76949578941725
 21
0.274671302033334
 31
0.0
210
0.0
220
0.0
230
1.0
 40
0.3392004175754171
 41
1.518276914603728
 42
1.782654293149657
  0
ELLIPSE
  5
2DA3
330
1F
100
AcDbEntity
  8
AM_0
 48
0.5
100
AcDbEllipse
 10
0.3790506830175359
 20
-1.53552326149919
 30
0.0
 11
1.561952808155325
 21
-0.0257027492706836
 31
0.0
210
0.0
220
0.0
230
-1.0
 40
0.8151640103509405
 41
3.871300040489825
 42
4.374800429995983
  0
LINE
  5
2DA4
330
1F
100
AcDbEntity
  8
AM_0
 48
0.5
100
AcDbLine
 10
-0.7712136545525448
 20
-0.6675526421704002
 30
0.0
 11
-0.9999961853027235
 21
-0.7500005904904209
 31
0.0
  0
DIMENSION
  5
2DB2
330
1F
100
AcDbEntity
  8
AM_5
100
AcDbDimension
  2
*D9
 10
-0.118520292483321
 20
-0.3256313171247541
 30
0.0
 11
12.62567980107833
 21
-0.0000176532261513
 31
0.0
 70
    34
  1
<>
 51
359.9999999999998
  3
AM_JIS$2
100
AcDb2LineAngularDimension
 13
-0.0000000000000002
 23
-0.0000000000000005
 33
0.0
 14
-0.1185186077757192
 24
0.3256295216840766
 34
0.0
 15
-0.0000000000000002
 25
-0.0000000000000005
 35
0.0
 16
13.01632799450646
 26
-5.61472202005383
 36
0.0
1001
GENIUS_GENDTOL_13
1000

1000
h7
1000

1040
0.0
1001
ACAD
1000
DSTYLE
1002
{
1070
   271
1070
     0
1002
}
  0
SPLINE
  5
303A
330
1F
100
AcDbEntity
  8
AM_0
 48
0.5
100
AcDbSpline
210
0.0
220
0.0
230
1.0
 70
     8
 71
     3
 72
    21
 73
    17
 74
     0
 42
0.0000000001
 43
0.0000000001
 40
11.52779699818346
 40
11.52779699818346
 40
11.52779699818346
 40
11.52779699818346
 40
12.0033633515982
 40
13.08720139956839
 40
14.16337181880432
 40
15.23152222380919
 40
16.29148850140128
 40
17.34331105512262
 40
18.38723020264746
 40
19.42369128463655
 40
20.45333379090873
 40
21.47697865721768
 40
22.49561244472435
 40
23.5103574802404
 40
24.52244778960836
 40
25.53320666051913
 40
25.53320666051913
 40
25.53320666051913
 40
25.53320666051913
 10
-1.879287303159817
 20
0.3304236874116471
 30
0.0
 10
-1.969213280005364
 20
0.3771657847796011
 30
0.0
 10
-2.043100179270954
 20
0.4013899765200696
 30
0.0
 10
-2.16856783503543
 20
0.4411232236453659
 30
0.0
 10
-2.323344442956094
 20
0.4874192576931184
 30
0.0
 10
-2.47813403417839
 20
0.5307158466945438
 30
0.0
 10
-2.632938515312987
 20
0.5707435421489386
 30
0.0
 10
-2.787757676736142
 20
0.6072568927238775
 30
0.0
 10
-2.942592630481405
 20
0.6400280554940771
 30
0.0
 10
-3.0974428301291
 20
0.6688542148425638
 30
0.0
 10
-3.252307670756092
 20
0.6935586870366839
 30
0.0
 10
-3.407186290612325
 20
0.7139777193758784
 30
0.0
 10
-3.562076279848668
 20
0.7300178594080538
 30
0.0
 10
-3.716975931420239
 20
0.7414612422351921
 30
0.0
 10
-3.871882730838931
 20
0.7486623039929077
 30
0.0
 10
-3.97517938443662
 20
0.7495546907808352
 30
0.0
 10
-4.02679371632906
 20
0.7500005904904964
 30
0.0
  0
SPLINE
  5
303B
330
1F
100
AcDbEntity
  8
AM_0
 48
0.5
100
AcDbSpline
210
0.0
220
0.0
230
1.0
 70
     8
 71
     3
 72
    17
 73
    13
 74
     0
 42
0.0000000001
 43
0.0000000001
 40
0.0
 40
0.0
 40
0.0
 40
0.0
 40
1.010743614677189
 40
2.022833924044153
 40
3.037578959561199
 40
4.056212747067873
 40
5.079857613375832
 40
6.109500119648989
 40
7.14596120163808
 40
8.18989512056258
 40
9.241717674284874
 40
9.693948937866434
 40
9.693948937866434
 40
9.693948937866434
 40
9.693948937866434
 10
-1.108760677460498
 20
0.7500005904904297
 30
0.0
 10
-1.16037422977696
 20
0.7495546802366471
 30
0.0
 10
-1.263670103280469
 20
0.7486622656071337
 30
0.0
 10
-1.418576126188588
 20
0.7414612456283689
 30
0.0
 10
-1.573475771705662
 20
0.7300178480093216
 30
0.0
 10
-1.728365783783024
 20
0.7139777618261505
 30
0.0
 10
-1.883244317725507
 20
0.6935585274652596
 30
0.0
 10
-2.038109481844921
 20
0.6688548158048919
 30
0.0
 10
-2.192959197590488
 20
0.6400256528068092
 30
0.0
 10
-2.347799473752761
 20
0.60726512382098
 30
0.0
 10
-2.472790582328947
 20
0.5777528393368769
 30
0.0
 10
-2.546192689648535
 20
0.5593034174821032
 30
0.0
 10
-2.568224064194134
 20
0.5536561729582076
 30
0.0
  0
SPLINE
  5
303C
330
1F
100
AcDbEntity
  8
AM_0
100
AcDbSpline
210
0.0
220
0.0
230
1.0
 70
     8
 71
     3
 72
    17
 73
    13
 74
     0
 42
0.0000000001
 43
0.0000000001
 40
1.580019955310467
 40
1.580019955310467
 40
1.580019955310467
 40
1.580019955310467
 40
2.030549285115227
 40
3.082371838836284
 40
4.126290986361125
 40
5.162752068350215
 40
6.192395305374981
 40
7.216039564037012
 40
8.234688489606833
 40
9.249433870634691
 40
10.26152376260694
 40
11.27226744710342
 40
11.27226744710342
 40
11.27226744710342
 40
11.27226744710352
 10
-2.567663365300236
 20
-0.5535214944523071
 30
0.0
 10
-2.589580000388933
 20
-0.5592223120954442
 30
0.0
 10
-2.662788924746023
 20
-0.5779075033738685
 30
0.0
 10
-2.787774713677054
 20
-0.6072158944618208
 30
0.0
 10
-2.942588102976463
 20
-0.6400374044562942
 30
0.0
 10
-3.097444112257004
 20
-0.6688503324655607
 30
0.0
 10
-3.252307216985831
 20
-0.6935579182015674
 30
0.0
 10
-3.407187193772368
 20
-0.7139804374924711
 30
0.0
 10
-3.562077870772069
 20
-0.730001348025763
 30
0.0
 10
-3.716978192505211
 20
-0.7415168289405262
 30
0.0
 10
-3.871884342629002
 20
-0.7484527537487979
 30
0.0
 10
-3.975180174086601
 20
-0.7499994138010439
 30
0.0
 10
-4.026793716329078
 20
-0.7499994095095035
 30
0.0
  0
SPLINE
  5
303D
330
1F
100
AcDbEntity
  8
AM_0
100
AcDbSpline
210
0.0
220
0.0
230
1.0
 70
     8
 71
     3
 72
    11
 73
     7
 74
     0
 42
0.0000000001
 43
0.0000000001
 40
11.27226913003534
 40
11.27226913003534
 40
11.27226913003534
 40
11.2722691300354
 40
12.28301561507924
 40
13.29510212255852
 40
14.30984805882082
 40
15.18258238371378
 40
15.18258238371378
 40
15.18258238371378
 40
15.18258238371378
 10
-4.026793716329087
 20
-0.7499994095095035
 30
0.0
 10
-4.078210998474048
 20
-0.7463286915609253
 30
0.0
 10
-4.180948579992506
 20
-0.7374420431635867
 30
0.0
 10
-4.334524434552272
 20
-0.7195154752388863
 30
0.0
 10
-4.480270628493488
 20
-0.698104155424347
 30
0.0
 10
-4.574530711604717
 20
-0.6816446366411552
 30
0.0
 10
-4.617968441955783
 20
-0.6735140889905488
 30
0.0
  0
SPLINE
  5
303E
330
1F
100
AcDbEntity
  8
AM_0
100
AcDbSpline
210
0.0
220
0.0
230
1.0
 70
     8
 71
     3
 72
    22
 73
    18
 74
     0
 42
0.0000000001
 43
0.0000000001
 40
17.17441611292
 40
17.17441611292
 40
17.17441611292
 40
17.17441611292
 40
17.38177636558528
 40
18.41823744757437
 40
19.46215659509824
 40
20.51397914882054
 40
21.57394542641293
 40
22.64209583141747
 40
23.71826625065247
 40
24.80210429862395
 40
25.8930771157021
 40
26.99048705697709
 40
28.09349309193389
 40
29.20112995599786
 40
30.31233024745139
 40
31.42594771747373
 40
32.5407895042663
 40
32.54078950426994
 40
32.54078950426994
 40
32.54078950426994
 10
-4.618036187755908
 20
-0.6735048377462836
 30
0.0
 10
-4.628408924401526
 20
-0.6717686613076105
 30
0.0
 10
-4.690587815710584
 20
-0.6611934208508924
 30
0.0
 10
-4.804496040822201
 20
-0.6399886873369811
 30
0.0
 10
-4.959330982791272
 20
-0.60721757566369
 30
0.0
 10
-5.114150147404774
 20
-0.5707042112417085
 30
0.0
 10
-5.268954627677328
 20
-0.5306765195453599
 30
0.0
 10
-5.423744219122982
 20
-0.4873799295064287
 30
0.0
 10
-5.57852082702212
 20
-0.4410838958118473
 30
0.0
 10
-5.733285168033937
 20
-0.3920729389889217
 30
0.0
 10
-5.88803867409661
 20
-0.3406493069228886
 30
0.0
 10
-6.04278306597101
 20
-0.2871302508513239
 30
0.0
 10
-6.197519686745091
 20
-0.2318448610684674
 30
0.0
 10
-6.352250094093124
 20
-0.1751332626343724
 30
0.0
 10
-6.50697565956549
 20
-0.1173441676855701
 30
0.0
 10
-6.661698675286884
 20
-0.058834166173363
 30
0.0
 10
-6.76482710558441
 20
-0.0195927492806922
 30
0.0
 10
-6.816419650855456
 20
0.0000387374633127
 30
0.0
  0
LINE
  5
303F
330
1F
100
AcDbEntity
  8
AM_0
 48
0.5
100
AcDbLine
 10
-6.623389190859808
 20
-0.7499994095094592
 30
0.0
 11
-4.026793716329091
 21
-0.7499994095095035
 31
0.0
  0
SPLINE
  5
3040
330
1F
100
AcDbEntity
  8
AM_0
100
AcDbSpline
210
0.0
220
0.0
230
1.0
 70
     8
 71
     3
 72
    42
 73
    38
 74
     0
 42
0.0000000001
 43
0.0000000001
 40
1.278384351700087
 40
1.278384351700087
 40
1.278384351700087
 40
1.278384351700087
 40
1.527291183660732
 40
1.786406454158005
 40
2.047386241038974
 40
2.310345544571907
 40
2.575337113970003
 40
2.842374715221223
 40
3.111417320030211
 40
3.382376832022752
 40
3.655120036292296
 40
3.929472521611371
 40
4.205224030350333
 40
4.482133246366229
 40
4.759933319229942
 40
5.038338087391601
 40
5.317048131389549
 40
5.595758175387723
 40
5.874162943549383
 40
6.151963016412869
 40
6.428872232428759
 40
6.704623741167955
 40
6.978976226486705
 40
7.251719430756336
 40
7.522680721168327
 40
7.791723325977311
 40
8.058760927228529
 40
8.32375249662655
 40
8.586708135057122
 40
8.84768792193809
 40
9.106803192435362
 40
9.364213819003406
 40
9.620125035580644
 40
9.87478726697307
 40
10.12847352585208
 40
10.38149610319407
 40
10.63418200686337
 40
10.63418200686337
 40
10.63418200686337
 40
10.63418200686337
 10
-0.9999961853027222
 20
-0.7499942884319941
 30
0.0
 10
-1.465643533973307
 20
-0.7071603234977161
 30
0.0
 10
-1.567901249726049
 20
-0.6906342282881142
 30
0.0
 10
-1.759327478174051
 20
-0.6400265091764994
 30
0.0
 10
-1.914163063910431
 20
-0.6072554815715348
 30
0.0
 10
-2.06898325810351
 20
-0.5707426980474521
 30
0.0
 10
-2.223788370201725
 20
-0.5307146244281965
 30
0.0
 10
-2.378577983826392
 20
-0.4874180878707299
 30
0.0
 10
-2.533354585755471
 20
-0.4411220397543192
 30
0.0
 10
-2.68811892823419
 20
-0.3921110865732124
 30
0.0
 10
-2.842872434465014
 20
-0.3406874545167291
 30
0.0
 10
-2.997616824166544
 20
-0.287168394696545
 30
0.0
 10
-3.15235345352645
 20
-0.231883020010896
 30
0.0
 10
-3.307083828522547
 20
-0.1751713646163379
 30
0.0
 10
-3.4618095897379
 20
-0.1173824555210951
 30
0.0
 10
-3.61653215060245
 20
-0.0588716538940598
 30
0.0
 10
-3.771253410841834
 20
0.0000005904785789
 30
0.0
 10
-3.925974671047225
 20
0.058872834922759
 30
0.0
 10
-4.080697232013731
 20
0.1173836363352741
 30
0.0
 10
-4.235422992856427
 20
0.1751725462144937
 30
0.0
 10
-4.390153369234353
 20
0.231884198701568
 30
0.0
 10
-4.544889993470558
 20
0.2871695841678705
 30
0.0
 10
-4.699634402146899
 20
0.3406886040635006
 30
0.0
 10
-4.85438817461771
 20
0.3921124955940619
 30
0.0
 10
-5.009153118436
 20
0.4411230034858143
 30
0.0
 10
-5.163929996462814
 20
0.4874192889925054
 30
0.0
 10
-5.318719606483542
 20
0.5307158384329957
 30
0.0
 10
-5.473524082659942
 20
0.570743544228462
 30
0.0
 10
-5.628343245317902
 20
0.6072568925743766
 30
0.0
 10
-5.783178199025811
 20
0.640028054052575
 30
0.0
 10
-5.938028397613233
 20
0.66885422069522
 30
0.0
 10
-6.092893242476505
 20
0.6935586652619143
 30
0.0
 10
-6.247772609796991
 20
0.7139779006265207
 30
0.0
 10
-6.402663430100583
 20
0.7300177088738958
 30
0.0
 10
-6.557563833423856
 20
0.7414612674643312
 30
0.0
 10
-6.712469859516542
 20
0.7486622601627171
 30
0.0
 10
-6.815765732596298
 20
0.7495546784227373
 30
0.0
 10
-6.867379284701004
 20
0.7500005904905619
 30
0.0
  0
LINE
  5
3041
330
1F
100
AcDbEntity
  8
AM_11
 48
0.5
100
AcDbLine
 10
-9.163184387046481
 20
0.7501071416017027
 30
0.0
 11
-7.301007574468392
 21
0.7500005904905717
 31
0.0
  0
LINE
  5
3042
330
1F
100
AcDbEntity
  8
AM_0
 48
0.5
100
AcDbLine
 10
-7.301010087753083
 20
0.7500005904905717
 30
0.0
 11
-4.02679371632906
 21
0.7500005904904964
 31
0.0
  0
SPLINE
  5
3043
330
1F
100
AcDbEntity
  8
AM_0
100
AcDbSpline
210
0.0
220
0.0
230
1.0
 70
     8
 71
     3
 72
    52
 73
    48
 74
     0
 42
0.0000000001
 43
0.0000000001
 40
3.537595802313026
 40
3.537595802313026
 40
3.537595802313026
 40
3.537595802313026
 40
4.056212745003489
 40
5.079857003664532
 40
6.109500240690281
 40
7.145961322679372
 40
8.189895241603872
 40
9.241717795325891
 40
10.30168407291828
 40
11.36983447792315
 40
12.44600489715814
 40
13.52984294512926
 40
14.62081576220742
 40
15.7182257034828
 40
16.82123173843959
 40
17.92886860250316
 40
19.0400688939571
 40
20.15368796660465
 40
21.26852814259644
 40
22.38336992938901
 40
23.49698739941135
 40
24.6081876908653
 40
25.71582455492886
 40
26.81883757994213
 40
27.91624752121713
 40
29.00722033829659
 40
30.09105838626677
 40
31.16722880550176
 40
32.23537921050758
 40
33.29534548809967
 40
34.347168041821
 40
35.39108718934584
 40
36.42754827133493
 40
37.45720575381954
 40
38.48085062012849
 40
39.49948440763516
 40
40.51422944315121
 40
41.52631975251916
 40
42.53706336719636
 40
43.54780698187354
 40
44.55989729124051
 40
45.57464232675757
 40
46.59327611426424
 40
47.6169209805722
 40
48.64656348684535
 40
49.68302456883444
 40
50.58557219878025
 40
50.58557219878025
 40
50.58557219878025
 40
50.58557219878025
 10
-1.513626849167269
 20
-0.7499994095095748
 30
0.0
 10
-1.675527865291806
 20
-0.7302430068540977
 30
0.0
 10
-1.753575335773202
 20
-0.7106529460373029
 30
0.0
 10
-1.883244520922947
 20
-0.6935582790392946
 30
0.0
 10
-2.03810915516155
 20
-0.6688528759576325
 30
0.0
 10
-2.192960119683862
 20
-0.6400266211663066
 30
0.0
 10
-2.347796041274776
 20
-0.6072560328573538
 30
0.0
 10
-2.502615865219476
 20
-0.5707423204549965
 30
0.0
 10
-2.657420363209196
 20
-0.5307146767575155
 30
0.0
 10
-2.812209949841253
 20
-0.4874180736884523
 30
0.0
 10
-2.966986559087544
 20
-0.4411220436
 30
0.0
 10
-3.12175089957304
 20
-0.3921110855162694
 30
0.0
 10
-3.276504406386907
 20
-0.3406874548630406
 30
0.0
 10
-3.431248795766473
 20
-0.2871683943752928
 30
0.0
 10
-3.585985425831123
 20
-0.2318830209532977
 30
0.0
 10
-3.740715798317478
 20
-0.1751713611501414
 30
0.0
 10
-3.895441568906273
 20
-0.1173824684942311
 30
0.0
 10
-4.050164094689812
 20
-0.0588716053484612
 30
0.0
 10
-4.204885560589811
 20
0.0000004374632566
 30
0.0
 10
-4.359606331919887
 20
0.0588735400084344
 30
0.0
 10
-4.514329376299607
 20
0.1173834919853006
 30
0.0
 10
-4.669054955877367
 20
0.175172559564899
 30
0.0
 10
-4.823785604246261
 20
0.2318844354142014
 30
0.0
 10
-4.978522876232678
 20
0.2871693370211115
 30
0.0
 10
-5.133267509839776
 20
0.3406886689249612
 30
0.0
 10
-5.288021038994899
 20
0.3921122578789278
 30
0.0
 10
-5.442785373849017
 20
0.4411232262694786
 30
0.0
 10
-5.59756198349163
 20
0.4874192564256531
 30
0.0
 10
-5.7523515740663
 20
0.5307158491418449
 30
0.0
 10
-5.907156056078505
 20
0.5707435337112332
 30
0.0
 10
-6.061975214664474
 20
0.6072569236979781
 30
0.0
 10
-6.216810178774052
 20
0.6400279412198762
 30
0.0
 10
-6.371661085854693
 20
0.6688547756709222
 30
0.0
 10
-6.526526825878687
 20
0.6935573570526039
 30
0.0
 10
-6.681406159524777
 20
0.7139818038656212
 30
0.0
 10
-6.836296159730071
 20
0.7300028451548246
 30
0.0
 10
-6.991195808408794
 20
0.7415169530380358
 30
0.0
 10
-7.146101830476275
 20
0.7484550541705594
 30
0.0
 10
-7.301011256509645
 20
0.7507728441837532
 30
0.0
 10
-7.455920682315086
 20
0.7484550541669317
 30
0.0
 10
-7.610826705067674
 20
0.7415169530526268
 30
0.0
 10
-7.765726351224016
 20
0.7300028450999
 30
0.0
 10
-7.920616360886326
 20
0.7139818040721046
 30
0.0
 10
-8.075494903913639
 20
0.6935574558487571
 30
0.0
 10
-8.230360033825565
 20
0.6688550282415019
 30
0.0
 10
-8.378170206214395
 20
0.6413364970001922
 30
0.0
 10
-8.474071129370356
 20
0.621211934952212
 30
0.0
 10
-8.518563568204656
 20
0.6114042541309735
 30
0.0
  0
SPLINE
  5
3044
330
1F
100
AcDbEntity
  8
AM_0
100
AcDbSpline
210
0.0
220
0.0
230
1.0
 70
     8
 71
     3
 72
    23
 73
    19
 74
     0
 42
0.0000000001
 43
0.0000000001
 40
16.03460024169435
 40
16.03460024169435
 40
16.03460024169435
 40
16.03460024169435
 40
16.35212704903564
 40
17.38177054169784
 40
18.41822485651776
 40
19.46214173629503
 40
20.51396345435107
 40
21.57393551351153
 40
22.64208202342361
 40
23.7182574881101
 40
24.80209208578934
 40
25.89306333925047
 40
26.99048218457928
 40
28.09348763352352
 40
29.20111863782268
 40
30.31232390128032
 40
31.42594612798585
 40
32.5407912310448
 40
32.5407912310486
 40
32.5407912310486
 40
32.5407912310486
 10
-9.163184387046481
 20
0.7501071416017027
 30
0.0
 10
-9.147269683505406
 20
0.7475752736764142
 30
0.0
 10
-9.079816176725822
 20
0.7365497014716117
 30
0.0
 10
-8.960996098109097
 20
0.7149467754507507
 30
0.0
 10
-8.807123785247595
 20
0.6828234607050301
 30
0.0
 10
-8.653394396227938
 20
0.646754332660062
 30
0.0
 10
-8.499798847057929
 20
0.6069481410317997
 30
0.0
 10
-8.346331686359343
 20
0.5636268062297125
 30
0.0
 10
-8.192984044098094
 20
0.5170379712727064
 30
0.0
 10
-8.039745241727223
 20
0.4674527714940836
 30
0.0
 10
-7.886606571667601
 20
0.4151520049891916
 30
0.0
 10
-7.733555756236767
 20
0.3604399977319688
 30
0.0
 10
-7.580580392377629
 20
0.3036347595468272
 30
0.0
 10
-7.427670287778009
 20
0.2450628967390495
 30
0.0
 10
-7.274812648635163
 20
0.1850649966697726
 30
0.0
 10
-7.121993317094406
 20
0.1239914030575161
 30
0.0
 10
-6.96919984934827
 20
0.0621960208391169
 30
0.0
 10
-6.867364897698939
 20
0.020765595998257
 30
0.0
 10
-6.816419650854769
 20
0.0000387374630433
 30
0.0
  0
LINE
  5
3045
330
1F
100
AcDbEntity
  8
AM_0
100
AcDbLine
 10
-14.69364311849351
 20
-0.749999409509254
 30
0.0
 11
-21.70095576625143
 21
-0.749999409509213
 31
0.0
  0
SPLINE
  5
3046
330
1F
100
AcDbEntity
  8
AM_0
100
AcDbSpline
210
0.0
220
0.0
230
1.0
 70
     8
 71
     3
 72
    11
 73
     7
 74
     0
 42
0.0000000001
 43
0.0000000001
 40
11.27226913003534
 40
11.27226913003534
 40
11.27226913003534
 40
11.2722691300354
 40
12.28301561507924
 40
13.29510212255852
 40
14.30984805882082
 40
15.18258238371378
 40
15.18258238371378
 40
15.18258238371378
 40
15.18258238371378
 10
-9.541422229728366
 20
-0.7499994095093922
 30
0.0
 10
-9.592839511873327
 20
-0.7463286915608146
 30
0.0
 10
-9.695577093391785
 20
-0.737442043163476
 30
0.0
 10
-9.849152947951553
 20
-0.7195154752387757
 30
0.0
 10
-9.994899141892766
 20
-0.6981041554242364
 30
0.0
 10
-10.089159225004
 20
-0.6816446366410442
 30
0.0
 10
-10.13259695535506
 20
-0.6735140889904381
 30
0.0
  0
SPLINE
  5
3047
330
1F
100
AcDbEntity
  8
AM_0
100
AcDbSpline
210
0.0
220
0.0
230
1.0
 70
     8
 71
     3
 72
    17
 73
    13
 74
     0
 42
0.0000000001
 43
0.0000000001
 40
1.580019955310467
 40
1.580019955310467
 40
1.580019955310467
 40
1.580019955310467
 40
2.030549285115227
 40
3.082371838836284
 40
4.126290986361125
 40
5.162752068350215
 40
6.192395305374981
 40
7.216039564037012
 40
8.234688489606833
 40
9.249433870634691
 40
10.26152376260694
 40
11.27226744710342
 40
11.27226744710342
 40
11.27226744710342
 40
11.27226744710352
 10
-8.082291878699519
 20
-0.553521494452196
 30
0.0
 10
-8.104208513788215
 20
-0.5592223120953334
 30
0.0
 10
-8.177417438145305
 20
-0.5779075033737577
 30
0.0
 10
-8.302403227076334
 20
-0.6072158944617098
 30
0.0
 10
-8.457216616375744
 20
-0.6400374044561831
 30
0.0
 10
-8.612072625656283
 20
-0.6688503324654499
 30
0.0
 10
-8.766935730385112
 20
-0.6935579182014565
 30
0.0
 10
-8.921815707171647
 20
-0.7139804374923593
 30
0.0
 10
-9.076706384171348
 20
-0.7300013480256523
 30
0.0
 10
-9.231606705904489
 20
-0.7415168289404154
 30
0.0
 10
-9.38651285602828
 20
-0.7484527537486868
 30
0.0
 10
-9.489808687485881
 20
-0.749999413800933
 30
0.0
 10
-9.541422229728357
 20
-0.7499994095093922
 30
0.0
  0
LINE
  5
3048
330
1F
100
AcDbEntity
  8
AM_11
 48
0.5
100
AcDbLine
 10
-9.541422229728
 20
-0.749999409509392
 30
0.0
 11
-6.623389190859809
 21
-0.7501059606205456
 31
0.0
  0
SPLINE
  5
3049
330
1F
100
AcDbEntity
  8
AM_0
100
AcDbSpline
210
0.0
220
0.0
230
1.0
 70
     8
 71
     3
 72
    22
 73
    18
 74
     0
 42
0.0000000001
 43
0.0000000001
 40
17.17441611292
 40
17.17441611292
 40
17.17441611292
 40
17.17441611292
 40
17.38177636558528
 40
18.41823744757437
 40
19.46215659509824
 40
20.51397914882054
 40
21.57394542641293
 40
22.64209583141747
 40
23.71826625065247
 40
24.80210429862395
 40
25.8930771157021
 40
26.99048705697709
 40
28.09349309193389
 40
29.20112995599786
 40
30.31233024745139
 40
31.42594771747373
 40
32.5407895042663
 40
32.54078950426994
 40
32.54078950426994
 40
32.54078950426994
 10
-10.13266470115519
 20
-0.6735048377461729
 30
0.0
 10
-10.14303743780081
 20
-0.6717686613075
 30
0.0
 10
-10.20521632910986
 20
-0.6611934208507816
 30
0.0
 10
-10.31912455422148
 20
-0.6399886873368704
 30
0.0
 10
-10.47395949619055
 20
-0.6072175756635792
 30
0.0
 10
-10.62877866080405
 20
-0.5707042112415972
 30
0.0
 10
-10.7835831410766
 20
-0.5306765195452492
 30
0.0
 10
-10.93837273252226
 20
-0.4873799295063177
 30
0.0
 10
-11.09314934042139
 20
-0.4410838958117365
 30
0.0
 10
-11.24791368143321
 20
-0.3920729389888107
 30
0.0
 10
-11.40266718749588
 20
-0.340649306922778
 30
0.0
 10
-11.55741157937028
 20
-0.2871302508512129
 30
0.0
 10
-11.71214820014436
 20
-0.2318448610683566
 30
0.0
 10
-11.8668786074924
 20
-0.1751332626342616
 30
0.0
 10
-12.02160417296477
 20
-0.1173441676854594
 30
0.0
 10
-12.17632718868616
 20
-0.0588341661732523
 30
0.0
 10
-12.27945561898369
 20
-0.0195927492805814
 30
0.0
 10
-12.33104816425473
 20
0.0000387374634235
 30
0.0
  0
LINE
  5
304A
330
1F
100
AcDbEntity
  8
AM_0
100
AcDbLine
 10
-12.81565987161689
 20
0.7500005904906825
 30
0.0
 11
-9.163184387046481
 21
0.7501071416017027
 31
0.0
  0
SPLINE
  5
304B
330
1F
100
AcDbEntity
  8
AM_0
100
AcDbSpline
210
0.0
220
0.0
230
1.0
 70
     8
 71
     3
 72
    46
 73
    42
 74
     0
 42
0.0000000001
 43
0.0000000001
 40
0.0
 40
0.0
 40
0.0
 40
0.0
 40
0.5056245176053715
 40
0.759310862862336
 40
1.013969309739036
 40
1.269880374404297
 40
1.527291183660732
 40
1.786406454158005
 40
2.047386241038974
 40
2.310345544571907
 40
2.575337113970003
 40
2.842374715221223
 40
3.111417320030211
 40
3.382376832022752
 40
3.655120036292296
 40
3.929472521611371
 40
4.205224030350333
 40
4.482133246366229
 40
4.759933319229942
 40
5.038338087391601
 40
5.317048131389549
 40
5.595758175387723
 40
5.874162943549382
 40
6.151963016412868
 40
6.428872232428759
 40
6.704623741167953
 40
6.978976226486702
 40
7.251719430756334
 40
7.522680721168324
 40
7.791723325977308
 40
8.058760927228528
 40
8.323752496626548
 40
8.586708135057122
 40
8.84768792193809
 40
9.106803192435362
 40
9.364213819003406
 40
9.620125035580642
 40
9.874787266973068
 40
10.12847352585207
 40
10.38149610319407
 40
10.63418200686337
 40
10.63418200686337
 40
10.63418200686337
 40
10.63418200686337
 10
-6.189757219089127
 20
-0.7499994095094689
 30
0.0
 10
-6.293058095779296
 20
-0.7482908515337813
 30
0.0
 10
-6.44818798976768
 20
-0.7457250609409626
 30
0.0
 10
-6.654470974745207
 20
-0.729927959621806
 30
0.0
 10
-6.809362593166041
 20
-0.7140002792768672
 30
0.0
 10
-6.964240972040765
 20
-0.6935518432834575
 30
0.0
 10
-7.11910570336669
 20
-0.6688545619015881
 30
0.0
 10
-7.273955991573331
 20
-0.6400265091763888
 30
0.0
 10
-7.428791577309712
 20
-0.6072554815714242
 30
0.0
 10
-7.58361177150279
 20
-0.5707426980473413
 30
0.0
 10
-7.73841688360101
 20
-0.5307146244280857
 30
0.0
 10
-7.893206497225675
 20
-0.4874180878706192
 30
0.0
 10
-8.047983099154754
 20
-0.4411220397542079
 30
0.0
 10
-8.202747441633473
 20
-0.3921110865731015
 30
0.0
 10
-8.357500947864295
 20
-0.340687454516618
 30
0.0
 10
-8.51224533756582
 20
-0.2871683946964342
 30
0.0
 10
-8.66698196692573
 20
-0.2318830200107853
 30
0.0
 10
-8.82171234192182
 20
-0.1751713646162272
 30
0.0
 10
-8.976438103137178
 20
-0.1173824555209843
 30
0.0
 10
-9.131160664001729
 20
-0.058871653893949
 30
0.0
 10
-9.28588192424112
 20
0.0000005904786895
 30
0.0
 10
-9.440603184446501
 20
0.05887283492287
 30
0.0
 10
-9.595325745413012
 20
0.1173836363353847
 30
0.0
 10
-9.75005150625571
 20
0.1751725462146047
 30
0.0
 10
-9.90478188263364
 20
0.2318841987016785
 30
0.0
 10
-10.05951850686984
 20
0.2871695841679816
 30
0.0
 10
-10.21426291554618
 20
0.3406886040636117
 30
0.0
 10
-10.36901668801699
 20
0.3921124955941726
 30
0.0
 10
-10.52378163183528
 20
0.4411230034859253
 30
0.0
 10
-10.67855850986209
 20
0.4874192889926162
 30
0.0
 10
-10.83334811988282
 20
0.5307158384331063
 30
0.0
 10
-10.98815259605921
 20
0.5707435442285731
 30
0.0
 10
-11.14297175871717
 20
0.6072568925744873
 30
0.0
 10
-11.29780671242508
 20
0.6400280540526858
 30
0.0
 10
-11.4526569110125
 20
0.6688542206953311
 30
0.0
 10
-11.60752175587578
 20
0.6935586652620244
 30
0.0
 10
-11.76240112319626
 20
0.7139779006266318
 30
0.0
 10
-11.91729194349985
 20
0.7300177088740062
 30
0.0
 10
-12.07219234682312
 20
0.7414612674644424
 30
0.0
 10
-12.22709837291581
 20
0.7486622601628278
 30
0.0
 10
-12.33039424599557
 20
0.7495546784228477
 30
0.0
 10
-12.38200779810028
 20
0.7500005904906725
 30
0.0
  0
LINE
  5
304C
330
1F
100
AcDbEntity
  8
AM_11
 48
0.5
100
AcDbLine
 10
-14.67783417091029
 20
0.7501071416018127
 30
0.0
 11
-12.81565987161689
 21
0.7500005904906825
 31
0.0
  0
LINE
  5
304D
330
1F
100
AcDbEntity
  8
AM_0
100
AcDbLine
 10
-14.67783417091029
 20
0.7501071416018128
 30
0.0
 11
-21.70095526835578
 21
0.7501071416018688
 31
0.0
  0
LINE
  5
304E
330
1F
100
AcDbEntity
  8
AM_11
 48
0.5
100
AcDbLine
 10
-14.69364311849351
 20
-0.749999409509254
 30
0.0
 11
-12.49703119451756
 21
-0.7499994095093156
 31
0.0
  0
LINE
  5
304F
330
1F
100
AcDbEntity
  8
AM_0
 48
0.5
100
AcDbLine
 10
-12.49703119451756
 20
-0.7499994095093156
 30
0.0
 11
-9.803918981413191
 21
-0.7499994095093713
 31
0.0
  0
ELLIPSE
  5
3050
330
1F
100
AcDbEntity
  8
AM_0
 48
0.5
100
AcDbEllipse
 10
-14.69364301260202
 20
-0.4999994095092692
 30
0.0
 11
-0.3063725490196112
 21
0.0000000000000275
 31
0.0
210
0.0
220
0.0
230
1.0
 40
0.8159999999999898
 41
0.0112467747892415
 42
1.57079601287844
  0
SPLINE
  5
3051
330
1F
100
AcDbEntity
  8
AM_0
100
AcDbSpline
210
0.0
220
0.0
230
1.0
 70
     8
 71
     3
 72
    13
 73
     9
 74
     0
 42
0.0000000001
 43
0.0000000001
 40
16.03460056234195
 40
16.03460056234195
 40
16.03460056234195
 40
16.03460056234195
 40
16.35212717791071
 40
17.38177067057215
 40
18.41822498539278
 40
19.46214186516937
 40
20.5139635832251
 40
21.34083983469381
 40
21.34083983469381
 40
21.34083983469381
 40
21.34083983469381
 10
-14.69364310877743
 20
-0.7499994095092568
 30
0.0
 10
-14.64978722971135
 20
-0.7475358253443702
 30
0.0
 10
-14.58233366711537
 20
-0.7365105556457224
 30
0.0
 10
-14.46351365326931
 20
-0.7149073774056331
 30
0.0
 10
-14.30964132104367
 20
-0.6827841517301744
 30
0.0
 10
-14.1559119372682
 20
-0.646714999563478
 30
0.0
 10
-14.01366168503128
 20
-0.6098490887470324
 30
0.0
 10
-13.92290852911749
 20
-0.5844642855392063
 30
0.0
 10
-13.88309566353993
 20
-0.5729901231828994
 30
0.0
  0
ELLIPSE
  5
3052
330
1F
100
AcDbEntity
  8
AM_0
 48
0.5
100
AcDbEllipse
 10
-14.77029224834605
 20
-0.5076164062743933
 30
0.0
 11
-0.229779411764705
 21
0.0000000000000043
 31
0.0
210
0.0
220
0.0
230
1.0
 40
0.8160000000000053
 41
4.317028824483069
 42
6.257553905069356
  0
SPLINE
  5
3053
330
1F
100
AcDbEntity
  8
AM_0
 48
0.5
100
AcDbSpline
210
0.0
220
0.0
230
1.0
 70
     8
 71
     3
 72
    22
 73
    18
 74
     0
 42
0.0000000001
 43
0.0000000001
 40
0.0
 40
0.0
 40
0.0
 40
0.0
 40
1.010743684496582
 40
2.022833993863546
 40
3.037578683882831
 40
4.056212471389632
 40
5.079857945358201
 40
6.109499720892564
 40
7.145961650132166
 40
8.189873411961459
 40
9.241710626092514
 40
10.30166235592959
 40
11.36982472628033
 40
12.44598212828784
 40
13.52983440361964
 40
14.62080578343036
 40
14.90544694398022
 40
14.90544694398022
 40
14.90544694398022
 40
14.90544694398022
 10
-12.49703119449215
 20
-0.749999409509316
 30
0.0
 10
-12.54864474727804
 20
-0.7495533109918393
 30
0.0
 10
-12.65194061815092
 20
-0.7486605196149564
 30
0.0
 10
-12.80684660924781
 20
-0.7414594642091196
 30
0.0
 10
-12.96174631791531
 20
-0.7300167820075968
 30
0.0
 10
-13.1166363545647
 20
-0.7139767125172637
 30
0.0
 10
-13.27151475469654
 20
-0.6935566806237629
 30
0.0
 10
-13.42637990257301
 20
-0.668853354242228
 30
0.0
 10
-13.58122952887005
 20
-0.6400264126991163
 30
0.0
 10
-13.73606469838771
 20
-0.607254686586399
 30
0.0
 10
-13.89088401660742
 20
-0.5707427970832358
 30
0.0
 10
-14.04568829259972
 20
-0.530712959661967
 30
0.0
 10
-14.20047852428341
 20
-0.4874199024799688
 30
0.0
 10
-14.35525459539284
 20
-0.4411210009294545
 30
0.0
 10
-14.51001940547539
 20
-0.3921111999752838
 30
0.0
 10
-14.62633597590254
 20
-0.3534616692585812
 30
0.0
 10
-14.69115162797073
 20
-0.331370839856658
 30
0.0
 10
-14.68179487093251
 20
-0.3345805474811572
 30
0.0
  0
SPLINE
  5
3054
330
1F
100
AcDbEntity
  8
AM_0
 48
0.5
100
AcDbSpline
210
0.0
220
0.0
230
1.0
 70
     8
 71
     3
 72
    26
 73
    22
 74
     0
 42
0.0000000001
 43
0.0000000001
 40
0.0
 40
0.0
 40
0.0
 40
0.0
 40
0.2526859211241313
 40
0.5057083941171959
 40
0.7593947393741639
 40
1.01405318625086
 40
1.26996425091637
 40
1.527375060172565
 40
1.786490330669834
 40
2.047470117551047
 40
2.310425755981314
 40
2.575417325379407
 40
2.842456731169063
 40
3.111495753801943
 40
3.382458822635121
 40
3.655202026904655
 40
3.929554512223505
 40
4.205306020962704
 40
4.482215236978595
 40
4.76001530984208
 40
5.029821427366006
 40
5.029821427366006
 40
5.029821427366006
 40
5.029821427366006
 10
-11.94085155002554
 20
-0.7499994095093266
 30
0.0
 10
-11.99246509295516
 20
-0.7495531776986317
 30
0.0
 10
-12.09576092278818
 20
-0.7486601197419918
 30
0.0
 10
-12.25066707610424
 20
-0.7414610694219938
 30
0.0
 10
-12.40556661751035
 20
-0.7300164615955684
 30
0.0
 10
-12.56045657046007
 20
-0.7139764026977743
 30
0.0
 10
-12.71533539746648
 20
-0.6935582914980909
 30
0.0
 10
-12.87020001274258
 20
-0.6688528290332747
 30
0.0
 10
-13.02505031326381
 20
-0.6400269349935201
 30
0.0
 10
-13.17988524295454
 20
-0.6072556833413417
 30
0.0
 10
-13.33470443577
 20
-0.5707424142177771
 30
0.0
 10
-13.48950916587792
 20
-0.5307143892469093
 30
0.0
 10
-13.64429879181809
 20
-0.4874187685805368
 30
0.0
 10
-13.79907506740052
 20
-0.4411211382920019
 30
0.0
 10
-13.95384006209073
 20
-0.3921115939982118
 30
0.0
 10
-14.10859411027769
 20
-0.3406874402247803
 30
0.0
 10
-14.26333836557153
 20
-0.2871681634679072
 30
0.0
 10
-14.41807566966842
 20
-0.2318839661102977
 30
0.0
 10
-14.57280346536264
 20
-0.1751677923379042
 30
0.0
 10
-14.72594187043029
 20
-0.1179921208196764
 30
0.0
 10
-14.82740182545366
 20
-0.0795811036299757
 30
0.0
 10
-14.99999618530272
 20
-0.0095723879683276
 30
0.0
  0
LINE
  5
3055
330
1F
100
AcDbEntity
  8
AM_0
 48
0.5
100
AcDbLine
 10
-13.15657606768727
 20
0.3263276995572652
 30
0.0
 11
-14.99999618530272
 21
-0.0095723879683276
 31
0.0
  0
SPLINE
  5
3056
330
1F
100
AcDbEntity
  8
AM_0
100
AcDbSpline
210
0.0
220
0.0
230
1.0
 70
     8
 71
     3
 72
    23
 73
    19
 74
     0
 42
0.0000000001
 43
0.0000000001
 40
16.03460024169435
 40
16.03460024169435
 40
16.03460024169435
 40
16.03460024169435
 40
16.35212704903564
 40
17.38177054169784
 40
18.41822485651776
 40
19.46214173629503
 40
20.51396345435107
 40
21.57393551351153
 40
22.64208202342361
 40
23.7182574881101
 40
24.80209208578934
 40
25.89306333925047
 40
26.99048218457928
 40
28.09348763352352
 40
29.20111863782268
 40
30.31232390128032
 40
31.42594612798585
 40
32.5407912310448
 40
32.5407912310486
 40
32.5407912310486
 40
32.5407912310486
 10
-14.67783417091029
 20
0.7501071416018128
 30
0.0
 10
-14.66191946736921
 20
0.7475752736765243
 30
0.0
 10
-14.59446596058963
 20
0.7365497014717222
 30
0.0
 10
-14.47564588197291
 20
0.7149467754508614
 30
0.0
 10
-14.32177356911141
 20
0.68282346070514
 30
0.0
 10
-14.16804418009175
 20
0.6467543326601721
 30
0.0
 10
-14.01444863092175
 20
0.60694814103191
 30
0.0
 10
-13.86098147022316
 20
0.5636268062298226
 30
0.0
 10
-13.70763382796191
 20
0.5170379712728166
 30
0.0
 10
-13.55439502559104
 20
0.4674527714941942
 30
0.0
 10
-13.40125635553143
 20
0.415152004989302
 30
0.0
 10
-13.24820554010059
 20
0.3604399977320793
 30
0.0
 10
-13.09523017624145
 20
0.3036347595469375
 30
0.0
 10
-12.94232007164182
 20
0.2450628967391599
 30
0.0
 10
-12.78946243249897
 20
0.1850649966698831
 30
0.0
 10
-12.63664310095822
 20
0.1239914030576265
 30
0.0
 10
-12.48384963321208
 20
0.0621960208392273
 30
0.0
 10
-12.38201468156275
 20
0.0207655959983673
 30
0.0
 10
-12.33106943471858
 20
0.0000387374631536
 30
0.0
  0
SPLINE
  5
3057
330
1F
100
AcDbEntity
  8
AM_0
100
AcDbSpline
210
0.0
220
0.0
230
1.0
 70
     8
 71
     3
 72
    55
 73
    51
 74
     0
 42
0.0000000001
 43
0.0000000001
 40
0.0
 40
0.0
 40
0.0
 40
0.0
 40
1.010743684496582
 40
2.022833576467832
 40
3.037578957496688
 40
4.056212745003489
 40
5.079857003664532
 40
6.109500240690281
 40
7.145961322679372
 40
8.189895241603872
 40
9.241717795325891
 40
10.30168407291828
 40
11.36983447792315
 40
12.44600489715814
 40
13.52984294512926
 40
14.62081576220742
 40
15.7182257034828
 40
16.82123173843959
 40
17.92886860250316
 40
19.0400688939571
 40
20.15368796660465
 40
21.26852814259644
 40
22.38336992938901
 40
23.49698739941135
 40
24.6081876908653
 40
25.71582455492886
 40
26.81883757994213
 40
27.91624752121713
 40
29.00722033829659
 40
30.09105838626677
 40
31.16722880550176
 40
32.23537921050758
 40
33.29534548809967
 40
34.347168041821
 40
35.39108718934584
 40
36.42754827133493
 40
37.45720575381954
 40
38.48085062012849
 40
39.49948440763516
 40
40.51422944315121
 40
41.52631975251916
 40
42.53706336719636
 40
43.54780698187354
 40
44.55989729124051
 40
45.57464232675757
 40
46.59327611426424
 40
47.6169209805722
 40
48.64656348684535
 40
49.68302456883444
 40
50.58557219878025
 40
50.58557219878025
 40
50.58557219878025
 40
50.58557219878025
 10
-6.623389190859808
 20
-0.7499994095094593
 30
0.0
 10
-6.675002733783221
 20
-0.7495531776793185
 30
0.0
 10
-6.778298563603764
 20
-0.748660119683766
 30
0.0
 10
-6.933204717013201
 20
-0.7414610696561777
 30
0.0
 10
-7.088104258063015
 20
-0.7300164607139936
 30
0.0
 10
-7.242994212351997
 20
-0.7139764060102709
 30
0.0
 10
-7.397873034322229
 20
-0.6935582790391838
 30
0.0
 10
-7.552737668560829
 20
-0.6688528759575218
 30
0.0
 10
-7.707588633083142
 20
-0.6400266211661954
 30
0.0
 10
-7.862424554674057
 20
-0.6072560328572429
 30
0.0
 10
-8.017244378618759
 20
-0.5707423204548859
 30
0.0
 10
-8.172048876608478
 20
-0.5307146767574047
 30
0.0
 10
-8.326838463240536
 20
-0.4874180736883415
 30
0.0
 10
-8.481615072486826
 20
-0.4411220435998894
 30
0.0
 10
-8.636379412972324
 20
-0.3921110855161585
 30
0.0
 10
-8.791132919786187
 20
-0.3406874548629299
 30
0.0
 10
-8.94587730916575
 20
-0.2871683943751821
 30
0.0
 10
-9.100613939230397
 20
-0.2318830209531869
 30
0.0
 10
-9.255344311716752
 20
-0.1751713611500307
 30
0.0
 10
-9.410070082305553
 20
-0.1173824684941203
 30
0.0
 10
-9.564792608089092
 20
-0.0588716053483504
 30
0.0
 10
-9.719514073989092
 20
0.0000004374633674
 30
0.0
 10
-9.874234845319167
 20
0.0588735400085451
 30
0.0
 10
-10.02895788969888
 20
0.1173834919854114
 30
0.0
 10
-10.18368346927664
 20
0.1751725595650099
 30
0.0
 10
-10.33841411764554
 20
0.231884435414312
 30
0.0
 10
-10.49315138963196
 20
0.2871693370212225
 30
0.0
 10
-10.64789602323906
 20
0.3406886689250723
 30
0.0
 10
-10.80264955239418
 20
0.3921122578790387
 30
0.0
 10
-10.9574138872483
 20
0.4411232262695893
 30
0.0
 10
-11.11219049689091
 20
0.4874192564257637
 30
0.0
 10
-11.26698008746558
 20
0.5307158491419564
 30
0.0
 10
-11.42178456947778
 20
0.5707435337113444
 30
0.0
 10
-11.57660372806374
 20
0.6072569236980887
 30
0.0
 10
-11.73143869217332
 20
0.6400279412199872
 30
0.0
 10
-11.88628959925396
 20
0.6688547756710333
 30
0.0
 10
-12.04115533927796
 20
0.6935573570527149
 30
0.0
 10
-12.19603467292405
 20
0.7139818038657318
 30
0.0
 10
-12.35092467312934
 20
0.7300028451549356
 30
0.0
 10
-12.50582432180807
 20
0.7415169530381473
 30
0.0
 10
-12.66073034387555
 20
0.74845505417067
 30
0.0
 10
-12.81563976990891
 20
0.7507728441838637
 30
0.0
 10
-12.97054919571436
 20
0.7484550541670424
 30
0.0
 10
-13.12545521846695
 20
0.7415169530527385
 30
0.0
 10
-13.28035486462329
 20
0.7300028451000108
 30
0.0
 10
-13.4352448742856
 20
0.7139818040722156
 30
0.0
 10
-13.59012341731291
 20
0.693557455848868
 30
0.0
 10
-13.74498854722484
 20
0.6688550282416129
 30
0.0
 10
-13.89279871961367
 20
0.6413364970003031
 30
0.0
 10
-13.98869964276963
 20
0.621211934952323
 30
0.0
 10
-14.03319208160394
 20
0.6114042541310841
 30
0.0
  0
LINE
  5
3059
330
1F
100
AcDbEntity
  8
AM_0
100
AcDbLine
 10
-0.9999961853027251
 20
0.7500005904904182
 30
0.0
 11
-1.108760677460498
 21
0.7500005904904297
 31
0.0
  0
VIEWPORT
  5
110
330
101
100
AcDbEntity
 67
     1
  8
0
100
AcDbViewport
 10
420.5
 20
297.0
 30
0.0
 40
948.9782706766916
 41
628.452
 68
     1
 69
     1
1001
ACAD
1000
MVIEW
1002
{
1070
    16
1010
0.0
1020
0.0
1030
0.0
1010
0.0
1020
0.0
1030
1.0
1040
0.0
1040
628.452
1040
420.5
1040
297.0
1040
50.0
1040
0.0
1040
0.0
1070
     0
1070
   100
1070
     1
1070
     1
1070
     0
1070
     0
1070
     0
1070
     0
1040
0.0
1040
0.0
1040
0.0
1040
10.0
1040
10.0
1040
10.0
1040
10.0
1070
     0
1002
{
1002
}
1002
}
  0
ENDSEC
  0
SECTION
  2
OBJECTS
  0
DICTIONARY
  5
C
330
0
100
AcDbDictionary
  3
ACAD_GROUP
350
D
  3
ACAD_LAYOUT
350
1A
  3
ACAD_MLINESTYLE
350
17
  3
ACAD_PLOTSETTINGS
350
19
  3
ACAD_PLOTSTYLENAME
350
E
  3
ACDBVARIABLEDICTIONARY
350
34
  3
ACMDICTIONARY
350
43
  3
AMG
350
2B
  3
AMGSNAPSETTINGS
350
6E
  3
DWGPROPS
350
31AF
  3
ACDBHEADERROUNDTRIPXREC
350
31BC
  0
DICTIONARY
  5
74
330
1F
100
AcDbDictionary
280
     1
  3
ACAD_INDEX
360
31B1
  3
ACAD_LAYOUTSELFREF
360
31DF
  0
DICTIONARY
  5
31E4
330
101
100
AcDbDictionary
280
     1
  3
ACAD_LAYOUTSELFREF
360
31E5
  0
DICTIONARY
  5
D
102
{ACAD_REACTORS
330
C
102
}
330
C
100
AcDbDictionary
  0
DICTIONARY
  5
1A
102
{ACAD_REACTORS
330
C
102
}
330
C
100
AcDbDictionary
  0
DICTIONARY
  5
17
102
{ACAD_REACTORS
330
C
102
}
330
C
100
AcDbDictionary
  3
STANDARD
350
18
  0
DICTIONARY
  5
19
102
{ACAD_REACTORS
330
C
102
}
330
C
100
AcDbDictionary
  0
ACDBDICTIONARYWDFLT
  5
E
102
{ACAD_REACTORS
330
C
102
}
330
C
100
AcDbDictionary
281
     1
  3
Normal
350
F
100
AcDbDictionaryWithDefault
340
F
  0
DICTIONARY
  5
34
102
{ACAD_REACTORS
330
C
102
}
330
C
100
AcDbDictionary
  3
INDEXCTL
350
35
  3
SORTENTS
350
B5E
  0
DICTIONARY
  5
43
102
{ACAD_REACTORS
330
C
102
}
330
C
100
AcDbDictionary
  3
ACMSTDDICTIONARY
350
260
  0
DICTIONARY
  5
2B
102
{ACAD_REACTORS
330
C
102
}
330
C
100
AcDbDictionary
  3
ACMGSETTINGS
350
2C
  0
DICTIONARY
  5
6E
102
{ACAD_REACTORS
330
C
102
}
330
C
100
AcDbDictionary
  0
XRECORD
  5
31AF
102
{ACAD_REACTORS
330
C
102
}
330
C
100
AcDbXrecord
  1
DWGPROPS COOKIE
  2

  3

  4

  6

  7

  8

  9

300
AmdtFileType=82
301
=
302
=
303
=
304
=
305
=
306
=
307
=
308
=
309
=
 40
0.06145
 41
2452800.443498622
 42
2452946.648721597
  1

 90
        1
  0
DICTIONARY
  5
31BC
102
{ACAD_REACTORS
330
C
102
}
330
C
100
AcDbDictionary
  3
TSTACKALIGN
350
31BD
  3
TSTACKSIZE
350
31BE
  3
HYPERLINKBASE
350
31BF
  3
STYLESHEET
350
31C0
  3
LAYOUTDICT
350
31C1
  3
PLOTSETDICT
350
31C2
  3
PLOTSTYLNAMDICT
350
31C3
  3
LWETCUNION
350
31C4
  3
INSUNITS
350
31C5
  3
CEPSNTYPE
350
31C6
  3
FINGERPRINTGUID
350
31C7
  3
VERSIONGUID
350
31C8
  3
PSVPSCALE
350
31C9
  3
DIMSTYLEDATA
350
31CA
  3
PUCSORTHOREF
350
31CB
  3
PUCSORTHOVIEW
350
31CC
  3
PUCSBASE
350
31CD
  3
PUCSORGTOP
350
31CE
  3
PUCSORGBOTTOM
350
31CF
  3
PUCSORGLEFT
350
31D0
  3
PUCSORGRIGHT
350
31D1
  3
PUCSORGFRONT
350
31D2
  3
PUCSORGBACK
350
31D3
  3
UCSORTHOREF
350
31D4
  3
UCSORTHOVIEW
350
31D5
  3
UCSBASE
350
31D6
  3
UCSORGTOP
350
31D7
  3
UCSORGBOTTOM
350
31D8
  3
UCSORGLEFT
350
31D9
  3
UCSORGRIGHT
350
31DA
  3
UCSORGFRONT
350
31DB
  3
UCSORGBACK
350
31DC
  0
DICTIONARY
  5
31B1
102
{ACAD_REACTORS
330
74
102
}
330
74
100
AcDbDictionary
  3
*A1
350
31B2
  0
XRECORD
  5
31DF
102
{ACAD_REACTORS
330
74
102
}
330
74
100
AcDbXrecord
340
1F
  0
XRECORD
  5
31E5
102
{ACAD_REACTORS
330
31E4
102
}
330
31E4
100
AcDbXrecord
340
101
  0
MLINESTYLE
  5
18
102
{ACAD_REACTORS
330
17
102
}
330
17
100
AcDbMlineStyle
  2
STANDARD
 70
     0
  3

 62
   256
 51
90.0
 52
90.0
 71
     2
 49
0.5
 62
   256
  6
BYLAYER
 49
-0.5
 62
   256
  6
BYLAYER
  0
ACDBPLACEHOLDER
  5
F
102
{ACAD_REACTORS
330
E
102
}
330
E
100
AcDbPlaceHolder
280
     0
  0
DICTIONARYVAR
  5
35
102
{ACAD_REACTORS
330
34
102
}
330
34
100
DictionaryVariables
280
     0
  1
1
  0
DICTIONARYVAR
  5
B5E
102
{ACAD_REACTORS
330
34
102
}
330
34
100
DictionaryVariables
280
     0
  1
96
  0
DICTIONARY
  5
260
102
{ACAD_REACTORS
330
43
102
}
330
43
100
AcDbDictionary
  0
DICTIONARY
  5
2C
102
{ACAD_REACTORS
330
2B
102
}
330
2B
100
AcDbDictionary
  3
DWGSETTINGS
350
2D
  0
XRECORD
  5
31BD
102
{ACAD_REACTORS
330
31BC
102
}
330
31BC
100
AcDbXrecord
 90
        1
  0
XRECORD
  5
31BE
102
{ACAD_REACTORS
330
31BC
102
}
330
31BC
100
AcDbXrecord
 90
       70
  0
XRECORD
  5
31BF
102
{ACAD_REACTORS
330
31BC
102
}
330
31BC
100
AcDbXrecord
  1

  0
XRECORD
  5
31C0
102
{ACAD_REACTORS
330
31BC
102
}
330
31BC
100
AcDbXrecord
  1
ASAMI.ctb
  0
XRECORD
  5
31C1
102
{ACAD_REACTORS
330
31BC
102
}
330
31BC
100
AcDbXrecord
340
1A
  0
XRECORD
  5
31C2
102
{ACAD_REACTORS
330
31BC
102
}
330
31BC
100
AcDbXrecord
340
19
  0
XRECORD
  5
31C3
102
{ACAD_REACTORS
330
31BC
102
}
330
31BC
100
AcDbXrecord
340
E
  0
XRECORD
  5
31C4
102
{ACAD_REACTORS
330
31BC
102
}
330
31BC
100
AcDbXrecord
 90
    10781
  0
XRECORD
  5
31C5
102
{ACAD_REACTORS
330
31BC
102
}
330
31BC
100
AcDbXrecord
 90
        4
  0
XRECORD
  5
31C6
102
{ACAD_REACTORS
330
31BC
102
}
330
31BC
100
AcDbXrecord
 90
        0
  0
XRECORD
  5
31C7
102
{ACAD_REACTORS
330
31BC
102
}
330
31BC
100
AcDbXrecord
  1
{AFB28963-8C59-40AE-9337-C84526B81ACE}
  0
XRECORD
  5
31C8
102
{ACAD_REACTORS
330
31BC
102
}
330
31BC
100
AcDbXrecord
  1
{AF6E8C9F-49AA-4943-830D-F530C8590574}
  0
XRECORD
  5
31C9
102
{ACAD_REACTORS
330
31BC
102
}
330
31BC
100
AcDbXrecord
 40
0.0
  0
XRECORD
  5
31CA
102
{ACAD_REACTORS
330
31BC
102
}
330
31BC
100
AcDbXrecord
1000
DSTYLE
1002
{
1070
    79
 70
     2
1070
   341
340
59
1070
   342
340
59
1070
   371
 70
    -1
1070
   372
 70
    -1
1002
}
  0
XRECORD
  5
31CB
102
{ACAD_REACTORS
330
31BC
102
}
330
31BC
100
AcDbXrecord
340
0
  0
XRECORD
  5
31CC
102
{ACAD_REACTORS
330
31BC
102
}
330
31BC
100
AcDbXrecord
 70
     0
  0
XRECORD
  5
31CD
102
{ACAD_REACTORS
330
31BC
102
}
330
31BC
100
AcDbXrecord
340
0
  0
XRECORD
  5
31CE
102
{ACAD_REACTORS
330
31BC
102
}
330
31BC
100
AcDbXrecord
 10
0.0
 20
0.0
 30
0.0
  0
XRECORD
  5
31CF
102
{ACAD_REACTORS
330
31BC
102
}
330
31BC
100
AcDbXrecord
 10
0.0
 20
0.0
 30
0.0
  0
XRECORD
  5
31D0
102
{ACAD_REACTORS
330
31BC
102
}
330
31BC
100
AcDbXrecord
 10
0.0
 20
0.0
 30
0.0
  0
XRECORD
  5
31D1
102
{ACAD_REACTORS
330
31BC
102
}
330
31BC
100
AcDbXrecord
 10
0.0
 20
0.0
 30
0.0
  0
XRECORD
  5
31D2
102
{ACAD_REACTORS
330
31BC
102
}
330
31BC
100
AcDbXrecord
 10
0.0
 20
0.0
 30
0.0
  0
XRECORD
  5
31D3
102
{ACAD_REACTORS
330
31BC
102
}
330
31BC
100
AcDbXrecord
 10
0.0
 20
0.0
 30
0.0
  0
XRECORD
  5
31D4
102
{ACAD_REACTORS
330
31BC
102
}
330
31BC
100
AcDbXrecord
340
0
  0
XRECORD
  5
31D5
102
{ACAD_REACTORS
330
31BC
102
}
330
31BC
100
AcDbXrecord
 70
     0
  0
XRECORD
  5
31D6
102
{ACAD_REACTORS
330
31BC
102
}
330
31BC
100
AcDbXrecord
340
0
  0
XRECORD
  5
31D7
102
{ACAD_REACTORS
330
31BC
102
}
330
31BC
100
AcDbXrecord
 10
0.0
 20
0.0
 30
0.0
  0
XRECORD
  5
31D8
102
{ACAD_REACTORS
330
31BC
102
}
330
31BC
100
AcDbXrecord
 10
0.0
 20
0.0
 30
0.0
  0
XRECORD
  5
31D9
102
{ACAD_REACTORS
330
31BC
102
}
330
31BC
100
AcDbXrecord
 10
0.0
 20
0.0
 30
0.0
  0
XRECORD
  5
31DA
102
{ACAD_REACTORS
330
31BC
102
}
330
31BC
100
AcDbXrecord
 10
0.0
 20
0.0
 30
0.0
  0
XRECORD
  5
31DB
102
{ACAD_REACTORS
330
31BC
102
}
330
31BC
100
AcDbXrecord
 10
0.0
 20
0.0
 30
0.0
  0
XRECORD
  5
31DC
102
{ACAD_REACTORS
330
31BC
102
}
330
31BC
100
AcDbXrecord
 10
0.0
 20
0.0
 30
0.0
  0
LAYER_INDEX
  5
31B2
102
{ACAD_REACTORS
330
31B1
102
}
330
31B1
100
AcDbIndex
 40
2453151.685590625
100
AcDbLayerIndex
  8
0
360
31B3
 90
        0
  8
AM_0
360
31B4
 90
       52
  8
AM_7
360
31B5
 90
        1
  8
AM_11
360
31B6
 90
       29
  8
AM_5
360
31B7
 90
        5
  8
Defpoints
360
31B8
 90
        0
  8
AM_6
360
31B9
 90
        1
  8
AM_CL
360
31BA
 90
        0
  0
XRECORD
  5
2D
102
{ACAD_REACTORS
330
2C
102
}
330
2C
100
AcDbXrecord
  1
VERSION
140
15.0
  1
PRODUCT
  2
AutoCAD Mechanical 2000
  0
IDBUFFER
  5
31B3
330
0
100
AcDbIdBuffer
  0
IDBUFFER
  5
31B4
330
0
100
AcDbIdBuffer
330
3055
330
3056
330
3057
330
3059
330
C1D
330
C20
330
C2E
330
C30
330
1B5C
330
1B60
330
1C15
330
1C1A
330
1C1E
330
1C85
330
1C86
330
1CF2
330
1CF3
330
1CF4
330
2D29
330
2D2A
330
2D48
330
2D49
330
2D4A
330
2D4B
330
2D4C
330
2D4D
330
2D4E
330
2DA3
330
2DA4
330
303A
330
303B
330
303C
330
303D
330
303E
330
303F
330
3040
330
3042
330
3043
330
3044
330
3045
330
3046
330
3047
330
3049
330
304A
330
304B
330
304D
330
304F
330
3050
330
3051
330
3052
330
3053
330
3054
  0
IDBUFFER
  5
31B5
330
0
100
AcDbIdBuffer
330
C9F
  0
IDBUFFER
  5
31B6
330
0
100
AcDbIdBuffer
330
1C26
330
1C27
330
1C28
330
1C29
330
1C2C
330
1C2D
330
2C98
330
2D34
330
2D35
330
3041
330
3048
330
304C
330
304E
330
144A
330
144B
330
144E
330
144F
330
1450
330
1451
330
1452
330
1453
330
18B8
330
18B9
330
18BA
330
18BB
330
1C22
330
1C23
330
1C24
330
1C25
  0
IDBUFFER
  5
31B7
330
0
100
AcDbIdBuffer
330
CC6
330
DF5
330
1C71
330
1DEF
330
2DB2
  0
IDBUFFER
  5
31B8
330
0
100
AcDbIdBuffer
  0
IDBUFFER
  5
31B9
330
0
100
AcDbIdBuffer
330
19BD
  0
IDBUFFER
  5
31BA
330
0
100
AcDbIdBuffer
  0
ENDSEC
  0
EOF
