  0
SECTION
  2
HEADER
  9
$ACADVER
  1
AC1014
  9
$ACADMAINTVER
 70
     9
  9
$DWGCODEPAGE
  3
ANSI_932
  9
$INSBASE
 10
0.0
 20
0.0
 30
0.0
  9
$EXTMIN
 10
-74.40000134152343
 20
-24.75000718101108
 30
-0.00000001
  9
$EXTMAX
 10
13.55229014295
 20
13.20483024426753
 30
0.00000001
  9
$LIMMIN
 10
-85.78188508376403
 20
-34.06754714813237
  9
$LIMMAX
 10
18.30462332990544
 20
23.30144247547983
  9
$ORTHOMODE
 70
     0
  9
$REGENMODE
 70
     1
  9
$FILLMODE
 70
     1
  9
$QTEXTMODE
 70
     0
  9
$MIRRTEXT
 70
     0
  9
$DRAGMODE
 70
     2
  9
$LTSCALE
 40
1.0
  9
$OSMODE
 70
    55
  9
$ATTMODE
 70
     1
  9
$TEXTSIZE
 40
2.5
  9
$TRACEWID
 40
1.0
  9
$TEXTSTYLE
  7
STANDARD
  9
$CLAYER
  8
AM_0
  9
$CELTYPE
  6
BYLAYER
  9
$CECOLOR
 62
   256
  9
$CELTSCALE
 40
1.0
  9
$DELOBJ
 70
     1
  9
$DISPSILH
 70
     0
  9
$DIMSCALE
 40
0.5
  9
$DIMASZ
 40
2.5
  9
$DIMEXO
 40
1.0
  9
$DIMDLI
 40
12.0
  9
$DIMRND
 40
0.0
  9
$DIMDLE
 40
0.0
  9
$DIMEXE
 40
1.0
  9
$DIMTP
 40
0.1
  9
$DIMTM
 40
0.1
  9
$DIMTXT
 40
3.2
  9
$DIMCEN
 40
0.0
  9
$DIMTSZ
 40
0.0
  9
$DIMTOL
 70
     0
  9
$DIMLIM
 70
     0
  9
$DIMTIH
 70
     0
  9
$DIMTOH
 70
     0
  9
$DIMSE1
 70
     0
  9
$DIMSE2
 70
     0
  9
$DIMTAD
 70
     3
  9
$DIMZIN
 70
     8
  9
$DIMBLK
  1
OPEN30
  9
$DIMASO
 70
     1
  9
$DIMSHO
 70
     1
  9
$DIMPOST
  1

  9
$DIMAPOST
  1
"
  9
$DIMALT
 70
     0
  9
$DIMALTD
 70
     2
  9
$DIMALTF
 40
0.0393701
  9
$DIMLFAC
 40
1.0
  9
$DIMTOFL
 70
     1
  9
$DIMTVP
 40
0.0
  9
$DIMTIX
 70
     0
  9
$DIMSOXD
 70
     0
  9
$DIMSAH
 70
     0
  9
$DIMBLK1
  1

  9
$DIMBLK2
  1

  9
$DIMSTYLE
  2
AM_JIS
  9
$DIMCLRD
 70
   256
  9
$DIMCLRE
 70
   256
  9
$DIMCLRT
 70
     2
  9
$DIMTFAC
 40
0.71
  9
$DIMGAP
 40
1.5
  9
$DIMJUST
 70
     0
  9
$DIMSD1
 70
     0
  9
$DIMSD2
 70
     0
  9
$DIMTOLJ
 70
     0
  9
$DIMTZIN
 70
     0
  9
$DIMALTZ
 70
     0
  9
$DIMALTTZ
 70
     0
  9
$DIMFIT
 70
     3
  9
$DIMUPT
 70
     0
  9
$DIMUNIT
 70
     2
  9
$DIMDEC
 70
     3
  9
$DIMTDEC
 70
     3
  9
$DIMALTU
 70
     2
  9
$DIMALTTD
 70
     2
  9
$DIMTXSTY
  7
ASAMI
  9
$DIMAUNIT
 70
     0
  9
$LUNITS
 70
     2
  9
$LUPREC
 70
     2
  9
$SKETCHINC
 40
1.0
  9
$FILLETRAD
 40
2.5
  9
$AUNITS
 70
     0
  9
$AUPREC
 70
     0
  9
$MENU
  1
.
  9
$ELEVATION
 40
0.0
  9
$PELEVATION
 40
0.0
  9
$THICKNESS
 40
0.0
  9
$LIMCHECK
 70
     0
  9
$BLIPMODE
 70
     0
  9
$CHAMFERA
 40
0.25
  9
$CHAMFERB
 40
0.25
  9
$CHAMFERC
 40
20.0
  9
$CHAMFERD
 40
0.0
  9
$SKPOLY
 70
     0
  9
$TDCREATE
 40
2452800.443498622
  9
$TDUPDATE
 40
2453151.574985521
  9
$TDINDWG
 40
0.0761170718
  9
$TDUSRTIMER
 40
0.0761170718
  9
$USRTIMER
 70
     1
  9
$ANGBASE
 50
0.0
  9
$ANGDIR
 70
     0
  9
$PDMODE
 70
     0
  9
$PDSIZE
 40
0.0
  9
$PLINEWID
 40
0.0
  9
$COORDS
 70
     1
  9
$SPLFRAME
 70
     0
  9
$SPLINETYPE
 70
     6
  9
$SPLINESEGS
 70
     8
  9
$ATTDIA
 70
     1
  9
$ATTREQ
 70
     1
  9
$HANDLING
 70
 12289
  9
$HANDSEED
  5
37E3
  9
$SURFTAB1
 70
     6
  9
$SURFTAB2
 70
     6
  9
$SURFTYPE
 70
     6
  9
$SURFU
 70
     6
  9
$SURFV
 70
     6
  9
$UCSNAME
  2

  9
$UCSORG
 10
0.0
 20
0.0
 30
0.0
  9
$UCSXDIR
 10
1.0
 20
0.000000000000002
 30
0.0
  9
$UCSYDIR
 10
-0.000000000000002
 20
1.0
 30
0.0
  9
$PUCSNAME
  2

  9
$PUCSORG
 10
0.0
 20
0.0
 30
0.0
  9
$PUCSXDIR
 10
1.0
 20
0.0
 30
0.0
  9
$PUCSYDIR
 10
0.0
 20
1.0
 30
0.0
  9
$USERI1
 70
     0
  9
$USERI2
 70
     0
  9
$USERI3
 70
     0
  9
$USERI4
 70
     0
  9
$USERI5
 70
     0
  9
$USERR1
 40
0.0
  9
$USERR2
 40
0.0
  9
$USERR3
 40
0.0
  9
$USERR4
 40
0.0
  9
$USERR5
 40
0.0
  9
$WORLDVIEW
 70
     1
  9
$SHADEDGE
 70
     3
  9
$SHADEDIF
 70
    70
  9
$TILEMODE
 70
     1
  9
$MAXACTVP
 70
    64
  9
$PINSBASE
 10
0.0
 20
0.0
 30
0.0
  9
$PLIMCHECK
 70
     0
  9
$PEXTMIN
 10
1.000000000000000E+20
 20
1.000000000000000E+20
 30
1.000000000000000E+20
  9
$PEXTMAX
 10
-1.000000000000000E+20
 20
-1.000000000000000E+20
 30
-1.000000000000000E+20
  9
$PLIMMIN
 10
0.0
 20
0.0
  9
$PLIMMAX
 10
841.0
 20
594.0
  9
$UNITMODE
 70
     0
  9
$VISRETAIN
 70
     1
  9
$PLINEGEN
 70
     0
  9
$PSLTSCALE
 70
     0
  9
$TREEDEPTH
 70
  3020
  9
$PICKSTYLE
 70
     0
  9
$CMLSTYLE
  2
STANDARD
  9
$CMLJUST
 70
     0
  9
$CMLSCALE
 40
20.0
  9
$PROXYGRAPHICS
 70
     1
  9
$MEASUREMENT
 70
     1
  0
ENDSEC
  0
SECTION
  2
CLASSES
  0
CLASS
  1
ACDBDICTIONARYWDFLT
  2
AcDbDictionaryWithDefault
  3
AutoCAD 2000
 90
        0
280
     0
281
     0
  0
CLASS
  1
ACDBPLACEHOLDER
  2
AcDbPlaceHolder
  3
AutoCAD 2000
 90
        0
280
     0
281
     0
  0
CLASS
  1
LAYOUT
  2
AcDbLayout
  3
AutoCAD 2000
 90
        0
280
     0
281
     0
  0
CLASS
  1
AMGSETTINGSOBJ
  2
AmgSettingsObj
  3
"AcadM|Product Description: AutoCAD Mechanical 2000|Company: Autodesk"
 90
        0
280
     0
281
     0
  0
CLASS
  1
ACME_DOCUMENT
  2
AcMeDbDoc
  3
AcMeServices
 90
        0
280
     0
281
     0
  0
CLASS
  1
ACMESCOPE
  2
AcMeScope
  3
AcMeServices
 90
        0
280
     0
281
     0
  0
CLASS
  1
ACMECOMMANDHISTORY
  2
AcMeCommandHistory
  3
AcMeServices
 90
        0
280
     0
281
     0
  0
CLASS
  1
DICTIONARYVAR
  2
AcDbDictionaryVar
  3
AutoCAD 2000
 90
        0
280
     0
281
     0
  0
CLASS
  1
ACIMSYSVARMAN
  2
AcImSysVarManager
  3
AcMeServices
 90
        0
280
     0
281
     0
  0
CLASS
  1
ACIMREALSYSVAR
  2
AcImRealSysVar
  3
AcMeServices
 90
        0
280
     0
281
     0
  0
CLASS
  1
ACIMINTSYSVAR
  2
AcImIntSysVar
  3
AcMeServices
 90
        0
280
     0
281
     0
  0
CLASS
  1
ACMEDRAWINGMAN
  2
AcMeDrawingMan
  3
AcMeServices
 90
        0
280
     0
281
     0
  0
CLASS
  1
ACMEVIEW
  2
AcMeView
  3
AcMeServices
 90
        0
280
     0
281
     0
  0
CLASS
  1
ACDBENTITYCACHE
  2
AcMeEntityCache
  3
AcMeServices
 90
        0
280
     0
281
     0
  0
CLASS
  1
GSMANAGER
  2
AcMeGSManager
  3
AcMeServices
 90
        0
280
     0
281
     0
  0
CLASS
  1
AmdtInternalReactor
  2
AmdtInternalReactor
  3
AcMeServices
 90
        0
280
     0
281
     0
  0
CLASS
  1
ACMESTATEMGR
  2
AcMeStateMgr
  3
AcMeServices
 90
        0
280
     0
281
     0
  0
CLASS
  1
ACME_DATABASE
  2
AcMeDbDatabase
  3
AcMeServices
 90
        0
280
     0
281
     0
  0
CLASS
  1
ACRFINSADJUSTERMGR
  2
AcRfInsAdjusterMgr
  3
AcMeServices
 90
        0
280
     0
281
     0
  0
CLASS
  1
ACMDATADICTIONARY
  2
AcmDataDictionary
  3
"AcmSymBB|Product Description: AutoCAD Mechanical 2000|Company: Autodesk"
 90
        0
280
     0
281
     0
  0
CLASS
  1
ACMDATAENTRYBLOCK
  2
AcmDataEntryBlock
  3
"AcmSymBB|Product Description: AutoCAD Mechanical 2000|Company: Autodesk"
 90
        0
280
     0
281
     0
  0
CLASS
  1
AMGOBJPROPCFG
  2
AmgObjPropCfg
  3
"AmgLay|Product Description: AutoCAD Mechanical 2000|Company: Autodesk"
 90
        1
280
     0
281
     0
  0
CLASS
  1
ACAMGFILTERDAT
  2
AcAmgFilterDat
  3
"AcadM|Product Description: AutoCAD Mechanical 2000|Company: Autodesk"
 90
        0
280
     0
281
     0
  0
CLASS
  1
LAYER_INDEX
  2
AcDbLayerIndex
  3
AutoCAD 2000
 90
        0
280
     0
281
     0
  0
CLASS
  1
IDBUFFER
  2
AcDbIdBuffer
  3
AutoCAD 2000
 90
        0
280
     0
281
     0
  0
CLASS
  1
ACIMSTRSYSVAR
  2
AcImStrSysVar
  3
AcMeServices
 90
        0
280
     0
281
     0
  0
CLASS
  1
ACMSTANDARDJIS
  2
AcmStandardJIS
  3
"AcmSymBB|Product Description: AutoCAD Mechanical 2000|Company: Autodesk"
 90
        0
280
     0
281
     0
  0
CLASS
  1
ACMSURFSTANDARDJIS
  2
AcmSurfTextStdJIS
  3
"AcmSymBB|Product Description: AutoCAD Mechanical 2000|Company: Autodesk"
 90
        0
280
     0
281
     0
  0
CLASS
  1
ACMFCFSTANDARDJIS
  2
AcmFCFStdJIS
  3
"AcmSymBB|Product Description: AutoCAD Mechanical 2000|Company: Autodesk"
 90
        0
280
     0
281
     0
  0
CLASS
  1
ACMWELDSTANDARDJIS
  2
AcmWeldingStdJIS
  3
"AcmSymBB|Product Description: AutoCAD Mechanical 2000|Company: Autodesk"
 90
        0
280
     0
281
     0
  0
CLASS
  1
ACMIDSTANDARDJIS
  2
AcmIdStdJIS
  3
"AcmSymBB|Product Description: AutoCAD Mechanical 2000|Company: Autodesk"
 90
        0
280
     0
281
     0
  0
CLASS
  1
ACMDATUMSTANDARDJIS
  2
AcmDatumStdJIS
  3
"AcmSymBB|Product Description: AutoCAD Mechanical 2000|Company: Autodesk"
 90
        0
280
     0
281
     0
  0
CLASS
  1
ACMBOMSTANDARDJIS
  2
AcmBOMStdJIS
  3
"AcmSymBB|Product Description: AutoCAD Mechanical 2000|Company: Autodesk"
 90
        0
280
     0
281
     0
  0
CLASS
  1
ACMSTANDARDANSI
  2
AcmStandardANSI
  3
"AcmSymBB|Product Description: AutoCAD Mechanical 2000|Company: Autodesk"
 90
        0
280
     0
281
     0
  0
CLASS
  1
ACMSURFSTANDARDANSI
  2
AcmSurfTextStdANSI
  3
"AcmSymBB|Product Description: AutoCAD Mechanical 2000|Company: Autodesk"
 90
        0
280
     0
281
     0
  0
CLASS
  1
ACMFCFSTANDARDANSI
  2
AcmFCFStdANSI
  3
"AcmSymBB|Product Description: AutoCAD Mechanical 2000|Company: Autodesk"
 90
        0
280
     0
281
     0
  0
CLASS
  1
ACMWELDSTANDARDANSI
  2
AcmWeldingStdANSI
  3
"AcmSymBB|Product Description: AutoCAD Mechanical 2000|Company: Autodesk"
 90
        0
280
     0
281
     0
  0
CLASS
  1
ACMIDSTANDARDANSI
  2
AcmIdStdANSI
  3
"AcmSymBB|Product Description: AutoCAD Mechanical 2000|Company: Autodesk"
 90
        0
280
     0
281
     0
  0
CLASS
  1
ACMDATUMSTANDARDANSI
  2
AcmDatumStdANSI
  3
"AcmSymBB|Product Description: AutoCAD Mechanical 2000|Company: Autodesk"
 90
        0
280
     0
281
     0
  0
CLASS
  1
ACMBOMSTANDARDANSI
  2
AcmBOMStdANSI
  3
"AcmSymBB|Product Description: AutoCAD Mechanical 2000|Company: Autodesk"
 90
        0
280
     0
281
     0
  0
CLASS
  1
ACMSTANDARDBSI
  2
AcmStandardBSI
  3
"AcmSymBB|Product Description: AutoCAD Mechanical 2000|Company: Autodesk"
 90
        0
280
     0
281
     0
  0
CLASS
  1
ACMSURFSTANDARDBSI
  2
AcmSurfTextStdBSI
  3
"AcmSymBB|Product Description: AutoCAD Mechanical 2000|Company: Autodesk"
 90
        0
280
     0
281
     0
  0
CLASS
  1
ACMFCFSTANDARDBSI
  2
AcmFCFStdBSI
  3
"AcmSymBB|Product Description: AutoCAD Mechanical 2000|Company: Autodesk"
 90
        0
280
     0
281
     0
  0
CLASS
  1
ACMWELDSTANDARDBSI
  2
AcmWeldingStdBSI
  3
"AcmSymBB|Product Description: AutoCAD Mechanical 2000|Company: Autodesk"
 90
        0
280
     0
281
     0
  0
CLASS
  1
ACMIDSTANDARDBSI
  2
AcmIdStdBSI
  3
"AcmSymBB|Product Description: AutoCAD Mechanical 2000|Company: Autodesk"
 90
        0
280
     0
281
     0
  0
CLASS
  1
ACMDATUMSTANDARDBSI
  2
AcmDatumStdBSI
  3
"AcmSymBB|Product Description: AutoCAD Mechanical 2000|Company: Autodesk"
 90
        0
280
     0
281
     0
  0
CLASS
  1
ACMBOMSTANDARDBSI
  2
AcmBOMStdBSI
  3
"AcmSymBB|Product Description: AutoCAD Mechanical 2000|Company: Autodesk"
 90
        0
280
     0
281
     0
  0
CLASS
  1
LONG_TRANSACTION
  2
AcDbLongTransaction
  3
AutoCAD 2000
 90
        0
280
     0
281
     0
  0
CLASS
  1
LWPOLYLINE
  2
AcDbPolyline
  3
AutoCAD 2000
 90
        0
280
     0
281
     1
  0
CLASS
  1
HATCH
  2
AcDbHatch
  3
AutoCAD 2000
 90
        0
280
     0
281
     1
  0
CLASS
  1
XRECORD
  2
AcDbXrecord
  3
AutoCAD 2000
 90
        0
280
     0
281
     0
  0
ENDSEC
  0
SECTION
  2
TABLES
  0
TABLE
  2
VPORT
  5
8
330
0
100
AcDbSymbolTable
 70
     3
  0
VPORT
  5
37AD
330
8
100
AcDbSymbolTableRecord
100
AcDbViewportTableRecord
  2
*ACTIVE
 70
     0
 10
0.0
 20
0.0
 11
1.0
 21
1.0
 12
-20.10758332965662
 22
-8.023356115728262
 13
0.0
 23
0.0
 14
2.5
 24
2.5
 15
10.0
 25
10.0
 16
0.0
 26
0.0
 36
1.0
 17
0.0
 27
0.0
 37
0.0
 40
93.14865233783178
 41
1.56570841889117
 42
50.0
 43
0.0
 44
0.0
 50
0.0
 51
0.0
 71
     0
 72
   100
 73
     1
 74
     1
 75
     0
 76
     0
 77
     0
 78
     0
  0
ENDTAB
  0
TABLE
  2
LTYPE
  5
5
330
0
100
AcDbSymbolTable
 70
    10
  0
LTYPE
  5
14
330
5
100
AcDbSymbolTableRecord
100
AcDbLinetypeTableRecord
  2
BYBLOCK
 70
     0
  3

 72
    65
 73
     0
 40
0.0
  0
LTYPE
  5
15
330
5
100
AcDbSymbolTableRecord
100
AcDbLinetypeTableRecord
  2
BYLAYER
 70
     0
  3

 72
    65
 73
     0
 40
0.0
  0
LTYPE
  5
16
330
5
100
AcDbSymbolTableRecord
100
AcDbLinetypeTableRecord
  2
CONTINUOUS
 70
     0
  3
Solid line
 72
    65
 73
     0
 40
0.0
  0
LTYPE
  5
4B
330
5
100
AcDbSymbolTableRecord
100
AcDbLinetypeTableRecord
  2
AM_ISO02W050
 70
     0
  3
__ __ __ __ __ __ __ __ __ __ __ __ __ __ __
 72
    65
 73
     2
 40
7.5
 49
6.0
 74
     0
 49
-1.5
 74
     0
  0
LTYPE
  5
4C
330
5
100
AcDbSymbolTableRecord
100
AcDbLinetypeTableRecord
  2
AM_ISO08W050
 70
     0
  3
____ . ____ . ____ . ____ . ____ . ____ . ____
 72
    65
 73
     4
 40
18.0
 49
12.0
 74
     0
 49
-1.5
 74
     0
 49
3.0
 74
     0
 49
-1.5
 74
     0
  0
LTYPE
  5
4D
330
5
100
AcDbSymbolTableRecord
100
AcDbLinetypeTableRecord
  2
AM_ISO09W050
 70
     0
  3
_____ . . _____ . . _____ . . ____ .. ____
 72
    65
 73
     6
 40
22.5
 49
12.0
 74
     0
 49
-1.5
 74
     0
 49
3.0
 74
     0
 49
-1.5
 74
     0
 49
3.0
 74
     0
 49
-1.5
 74
     0
  0
LTYPE
  5
4E
330
5
100
AcDbSymbolTableRecord
100
AcDbLinetypeTableRecord
  2
AMCONSTR
 70
     0
  3
_______________________
 72
    65
 73
     2
 40
9999.0
 49
9999.0
 74
     0
 49
0.0
 74
     0
  0
LTYPE
  5
4F
330
5
100
AcDbSymbolTableRecord
100
AcDbLinetypeTableRecord
  2
AM_ISO02W050X2
 70
     0
  3
 _ _ _ _ _ _ _ _ _ _ _ _
 72
    65
 73
     2
 40
3.75
 49
3.0
 74
     0
 49
-0.75
 74
     0
  0
LTYPE
  5
50
330
5
100
AcDbSymbolTableRecord
100
AcDbLinetypeTableRecord
  2
AM_ISO08W050X2
 70
     0
  3
__ . __ . __ . __ . __ . __
 72
    65
 73
     4
 40
9.0
 49
6.0
 74
     0
 49
-0.75
 74
     0
 49
1.5
 74
     0
 49
-0.75
 74
     0
  0
LTYPE
  5
53
330
5
100
AcDbSymbolTableRecord
100
AcDbLinetypeTableRecord
  2
AMZIGZAG
 70
     0
  3
/\/-/\/-/\/-/\/-/\/-/\/
 72
    65
 73
     2
 40
11.00009999999999
 49
0.0001
 74
     4
 75
   135
340
52
 46
0.04
 50
0.0
 44
0.0
 45
0.0
 49
-11.0
 74
     0
  0
LTYPE
  5
166
330
5
100
AcDbSymbolTableRecord
100
AcDbLinetypeTableRecord
  2
ACJISTGL
 70
     0
  3
_ _ _ _ _
 72
    65
 73
     2
 40
3.0
 49
2.0
 74
     0
 49
-1.0
 74
     0
  0
LTYPE
  5
26A
330
5
100
AcDbSymbolTableRecord
100
AcDbLinetypeTableRecord
  2
ACJISTGB
 70
     0
  3
__ . . __ . .
 72
    65
 73
     6
 40
9.0
 49
4.0
 74
     0
 49
-1.0
 74
     0
 49
1.0
 74
     0
 49
-1.0
 74
     0
 49
1.0
 74
     0
 49
-1.0
 74
     0
  0
ENDTAB
  0
TABLE
  2
LAYER
  5
2
330
0
100
AcDbSymbolTable
 70
     9
  0
LAYER
  5
10
330
2
100
AcDbSymbolTableRecord
100
AcDbLayerTableRecord
  2
0
 70
     0
 62
     7
  6
CONTINUOUS
  0
LAYER
  5
3F9
330
2
100
AcDbSymbolTableRecord
100
AcDbLayerTableRecord
  2
AM_0
 70
     0
 62
     7
  6
CONTINUOUS
  0
LAYER
  5
C7C
330
2
100
AcDbSymbolTableRecord
100
AcDbLayerTableRecord
  2
AM_7
 70
     0
 62
     4
  6
AM_ISO08W050
  0
LAYER
  5
C97
330
2
100
AcDbSymbolTableRecord
100
AcDbLayerTableRecord
  2
AM_11
 70
     0
 62
     3
  6
AM_ISO09W050
  0
LAYER
  5
CC5
330
2
100
AcDbSymbolTableRecord
100
AcDbLayerTableRecord
  2
AM_5
 70
     0
 62
     3
  6
CONTINUOUS
  0
LAYER
  5
CC7
330
2
100
AcDbSymbolTableRecord
100
AcDbLayerTableRecord
  2
DEFPOINTS
 70
     0
 62
     7
  6
CONTINUOUS
  0
LAYER
  5
19BC
330
2
100
AcDbSymbolTableRecord
100
AcDbLayerTableRecord
  2
AM_6
 70
     0
 62
     2
  6
CONTINUOUS
  0
LAYER
  5
31DF
330
2
100
AcDbSymbolTableRecord
100
AcDbLayerTableRecord
  2
ASHADE
 70
     4
 62
     7
  6
CONTINUOUS
  0
LAYER
  5
3727
330
2
100
AcDbSymbolTableRecord
100
AcDbLayerTableRecord
  2
AM_CL
 70
     0
 62
     1
  6
AMCONSTR
  0
ENDTAB
  0
TABLE
  2
STYLE
  5
3
330
0
100
AcDbSymbolTable
 70
     5
  0
STYLE
  5
11
330
3
100
AcDbSymbolTableRecord
100
AcDbTextStyleTableRecord
  2
STANDARD
 70
     0
 40
0.0
 41
1.0
 50
0.0
 71
     0
 42
2.5
  3
simplex.shx
  4
EXTFONT.SHX
  0
STYLE
  5
52
330
3
100
AcDbSymbolTableRecord
100
AcDbTextStyleTableRecord
  2

 70
     1
 40
0.0
 41
1.0
 50
0.0
 71
     0
 42
2.5
  3
ltypeshp.shx
  4

  0
STYLE
  5
6B
330
3
100
AcDbSymbolTableRecord
100
AcDbTextStyleTableRecord
  2
ASAMI
 70
     0
 40
0.0
 41
1.0
 50
0.0
 71
     0
 42
2.5
  3
simplex.shx
  4
EXTFONT.SHX
  0
STYLE
  5
262
330
3
100
AcDbSymbolTableRecord
100
AcDbTextStyleTableRecord
  2
ACJISTS
 70
     0
 40
1.0
 41
1.0
 50
0.0
 71
     0
 42
2.5
  3
simplex.shx
  4
bigfont.shx
  0
STYLE
  5
269
330
3
100
AcDbSymbolTableRecord
100
AcDbTextStyleTableRecord
  2
ACJISGDT
 70
     0
 40
0.0
 41
1.0
 50
0.0
 71
     0
 42
2.5
  3
amgdtans.shx
  4

  0
ENDTAB
  0
TABLE
  2
VIEW
  5
6
330
0
100
AcDbSymbolTable
 70
     0
  0
ENDTAB
  0
TABLE
  2
UCS
  5
7
330
0
100
AcDbSymbolTable
 70
     0
  0
ENDTAB
  0
TABLE
  2
APPID
  5
9
330
0
100
AcDbSymbolTable
 70
    23
  0
APPID
  5
12
330
9
100
AcDbSymbolTableRecord
100
AcDbRegAppTableRecord
  2
ACAD
 70
     0
  0
APPID
  5
30
330
9
100
AcDbSymbolTableRecord
100
AcDbRegAppTableRecord
  2
MCAD_NO_VIS
 70
     0
  0
APPID
  5
31
330
9
100
AcDbSymbolTableRecord
100
AcDbRegAppTableRecord
  2
ACAD_TEMP_GRAPHIC
 70
     0
  0
APPID
  5
2C2
330
9
100
AcDbSymbolTableRecord
100
AcDbRegAppTableRecord
  2
GENIUS_GENDTOL_13
 70
     0
  0
APPID
  5
339
330
9
100
AcDbSymbolTableRecord
100
AcDbRegAppTableRecord
  2
GENIUS_GENODEF_13
 70
     0
  0
APPID
  5
33A
330
9
100
AcDbSymbolTableRecord
100
AcDbRegAppTableRecord
  2
GENIUS_GENOBJ-N-RSBK_13
 70
     0
  0
APPID
  5
33B
330
9
100
AcDbSymbolTableRecord
100
AcDbRegAppTableRecord
  2
GENIUS_GENOBJ-N-LIB_13
 70
     0
  0
APPID
  5
33C
330
9
100
AcDbSymbolTableRecord
100
AcDbRegAppTableRecord
  2
GENIUS_GENSCALE_13
 70
     0
  0
APPID
  5
378
330
9
100
AcDbSymbolTableRecord
100
AcDbRegAppTableRecord
  2
GENIUS_GENDIMSH_14
 70
     0
  0
APPID
  5
C82
330
9
100
AcDbSymbolTableRecord
100
AcDbRegAppTableRecord
  2
GENIUS_GENOBJ-N-CRS_13
 70
     0
  0
APPID
  5
C83
330
9
100
AcDbSymbolTableRecord
100
AcDbRegAppTableRecord
  2
GENIUS_GENOENT_13
 70
     0
  0
APPID
  5
C84
330
9
100
AcDbSymbolTableRecord
100
AcDbRegAppTableRecord
  2
GENIUS_GENOREF_13
 70
     0
  0
APPID
  5
C85
330
9
100
AcDbSymbolTableRecord
100
AcDbRegAppTableRecord
  2
GENIUS_GENOLIS_13
 70
     0
  0
APPID
  5
CA0
330
9
100
AcDbSymbolTableRecord
100
AcDbRegAppTableRecord
  2
GENIUS_GENOBJ-N-CEN_13
 70
     0
  0
APPID
  5
1B5D
330
9
100
AcDbSymbolTableRecord
100
AcDbRegAppTableRecord
  2
GENIUS_GENFIL_13
 70
     0
  0
APPID
  5
1B5E
330
9
100
AcDbSymbolTableRecord
100
AcDbRegAppTableRecord
  2
GENIUS_GENOBJ-N-CHA_13
 70
     0
  0
APPID
  5
1FBC
330
9
100
AcDbSymbolTableRecord
100
AcDbRegAppTableRecord
  2
GENIUS_GENREC_14
 70
     0
  0
APPID
  5
1FBD
330
9
100
AcDbSymbolTableRecord
100
AcDbRegAppTableRecord
  2
GENIUS_GENOBJ-N-REC_13
 70
     0
  0
APPID
  5
31DD
330
9
100
AcDbSymbolTableRecord
100
AcDbRegAppTableRecord
  2
AVE_RENDER
 70
     0
  0
APPID
  5
31DE
330
9
100
AcDbSymbolTableRecord
100
AcDbRegAppTableRecord
  2
AVE_ENTITY_MATERIAL
 70
     0
  0
APPID
  5
31EB
330
9
100
AcDbSymbolTableRecord
100
AcDbRegAppTableRecord
  2
AVE_FINISH
 70
     0
  0
APPID
  5
31EC
330
9
100
AcDbSymbolTableRecord
100
AcDbRegAppTableRecord
  2
AVE_MATERIAL
 70
     0
  0
APPID
  5
31ED
330
9
100
AcDbSymbolTableRecord
100
AcDbRegAppTableRecord
  2
AVE_GLOBAL
 70
     0
  0
ENDTAB
  0
TABLE
  2
DIMSTYLE
  5
A
330
0
100
AcDbSymbolTable
 70
     9
  0
DIMSTYLE
105
58
330
A
100
AcDbSymbolTableRecord
100
AcDbDimStyleTableRecord
  2
AM_JIS
 70
     0
  3

  4
"
  5
OPEN30
  6

  7

 40
0.5
 41
2.5
 42
1.0
 43
12.0
 44
1.0
 45
0.0
 46
0.0
 47
0.1
 48
0.1
140
3.2
141
0.0
142
0.0
143
0.0393701
144
1.0
145
0.0
146
0.71
147
1.5
 71
     0
 72
     0
 73
     0
 74
     0
 75
     0
 76
     0
 77
     3
 78
     8
170
     0
171
     2
172
     1
173
     0
174
     0
175
     0
176
   256
177
   256
178
     2
270
     2
271
     3
272
     3
273
     2
274
     2
340
6B
275
     0
280
     0
281
     0
282
     0
283
     0
284
     0
285
     0
286
     0
287
     3
288
     0
  0
DIMSTYLE
105
5F
330
A
100
AcDbSymbolTableRecord
100
AcDbDimStyleTableRecord
  2
AM_JIS$3
 70
     0
  3

  4
"
  5
OPEN30
  6

  7

 40
0.5
 41
2.5
 42
1.0
 43
10.0
 44
1.0
 45
0.0
 46
0.0
 47
0.1
 48
0.1
140
3.2
141
0.0
142
0.0
143
0.0393701
144
1.0
145
0.0
146
0.71
147
1.5
 71
     0
 72
     0
 73
     0
 74
     1
 75
     0
 76
     0
 77
     3
 78
     8
170
     0
171
     2
172
     0
173
     0
174
     0
175
     0
176
   256
177
   256
178
     2
270
     2
271
     2
272
     3
273
     2
274
     2
340
6B
275
     0
280
     0
281
     0
282
     0
283
     0
284
     0
285
     0
286
     0
287
     0
288
     1
  0
DIMSTYLE
105
60
330
A
100
AcDbSymbolTableRecord
100
AcDbDimStyleTableRecord
  2
AM_JIS$4
 70
     0
  3

  4
"
  5
OPEN30
  6

  7

 40
0.5
 41
2.5
 42
1.0
 43
10.0
 44
1.0
 45
0.0
 46
0.0
 47
0.1
 48
0.1
140
3.2
141
0.0
142
0.0
143
0.0393701
144
1.0
145
0.0
146
0.71
147
1.5
 71
     0
 72
     0
 73
     0
 74
     1
 75
     0
 76
     0
 77
     3
 78
     8
170
     0
171
     2
172
     0
173
     0
174
     0
175
     0
176
   256
177
   256
178
     2
270
     2
271
     2
272
     3
273
     2
274
     2
340
6B
275
     0
280
     0
281
     0
282
     0
283
     0
284
     0
285
     0
286
     0
287
     0
288
     1
  0
DIMSTYLE
105
61
330
A
100
AcDbSymbolTableRecord
100
AcDbDimStyleTableRecord
  2
AM_JIS$6
 70
     0
  3

  4
"
  5
OPEN30
  6

  7

 40
0.5
 41
2.5
 42
1.0
 43
10.0
 44
1.0
 45
0.0
 46
0.0
 47
0.1
 48
0.1
140
3.2
141
0.0
142
0.0
143
0.0393701
144
1.0
145
0.0
146
0.71
147
1.5
 71
     0
 72
     0
 73
     0
 74
     0
 75
     0
 76
     0
 77
     0
 78
     8
170
     0
171
     2
172
     1
173
     0
174
     0
175
     0
176
   256
177
   256
178
     2
270
     2
271
     2
272
     2
273
     2
274
     2
340
6B
275
     0
280
     0
281
     0
282
     0
283
     0
284
     0
285
     0
286
     0
287
     3
288
     0
  0
DIMSTYLE
105
62
330
A
100
AcDbSymbolTableRecord
100
AcDbDimStyleTableRecord
  2
AM_JIS$7
 70
     0
  3

  4
"
  5
OPEN30
  6

  7

 40
0.5
 41
2.5
 42
1.0
 43
10.0
 44
1.0
 45
0.0
 46
0.0
 47
0.1
 48
0.1
140
3.2
141
0.0
142
0.0
143
0.0393701
144
1.0
145
0.0
146
0.71
147
1.5
 71
     0
 72
     0
 73
     0
 74
     0
 75
     0
 76
     0
 77
     3
 78
     8
170
     0
171
     2
172
     1
173
     0
174
     0
175
     0
176
   256
177
   256
178
     2
270
     2
271
     2
272
     3
273
     2
274
     2
340
6B
275
     0
280
     0
281
     0
282
     0
283
     0
284
     0
285
     0
286
     0
287
     3
288
     0
  0
DIMSTYLE
105
63
330
A
100
AcDbSymbolTableRecord
100
AcDbDimStyleTableRecord
  2
AM_JIS$SF
 70
     0
  3

  4
"
  5
OPEN30
  6

  7

 40
0.5
 41
2.5
 42
1.0
 43
10.0
 44
1.0
 45
0.0
 46
0.0
 47
0.1
 48
0.1
140
3.2
141
0.0
142
0.0
143
0.0393701
144
1.0
145
0.0
146
0.71
147
1.5
 71
     0
 72
     0
 73
     0
 74
     0
 75
     1
 76
     1
 77
     3
 78
     8
170
     0
171
     2
172
     1
173
     0
174
     0
175
     0
176
   256
177
   256
178
     2
270
     2
271
     2
272
     2
273
     2
274
     2
340
6B
275
     0
280
     0
281
     0
282
     0
283
     0
284
     0
285
     0
286
     0
287
     3
288
     0
  0
DIMSTYLE
105
68
330
A
100
AcDbSymbolTableRecord
100
AcDbDimStyleTableRecord
  2
AM_JIS$SH
 70
     0
  3

  4
"
  5

  6
GENAXEH
  7
OPEN30
 40
0.5
 41
2.5
 42
1.0
 43
10.0
 44
1.0
 45
0.0
 46
0.0
 47
0.1
 48
0.1
140
3.2
141
0.0
142
0.0
143
0.0393701
144
2.0
145
0.0
146
0.71
147
1.5
 71
     0
 72
     0
 73
     0
 74
     0
 75
     1
 76
     1
 77
     3
 78
     8
170
     0
171
     2
172
     1
173
     1
174
     0
175
     0
176
   256
177
   256
178
     2
270
     2
271
     2
272
     2
273
     2
274
     2
340
6B
275
     0
280
     0
281
     0
282
     0
283
     0
284
     0
285
     0
286
     0
287
     3
288
     0
  0
DIMSTYLE
105
B34
102
{ACAD_REACTORS
330
33A9
102
}
330
A
100
AcDbSymbolTableRecord
100
AcDbDimStyleTableRecord
  2
AM_JIS$2
 70
     0
  3

  4
"
  5
OPEN30
  6

  7

 40
0.5
 41
2.5
 42
1.0
 43
12.0
 44
1.0
 45
0.0
 46
0.0
 47
0.1
 48
0.1
140
3.2
141
0.0
142
0.0
143
0.0393701
144
1.0
145
0.0
146
0.71
147
1.5
 71
     0
 72
     0
 73
     0
 74
     0
 75
     0
 76
     0
 77
     3
 78
     8
170
     0
171
     2
172
     1
173
     0
174
     0
175
     0
176
   256
177
   256
178
     2
270
     2
271
     3
272
     3
273
     2
274
     2
340
6B
275
     0
280
     0
281
     0
282
     0
283
     0
284
     0
285
     0
286
     0
287
     3
288
     0
  0
DIMSTYLE
105
BA5
102
{ACAD_REACTORS
330
CC6
330
DF5
330
1DEF
330
1C71
102
}
330
A
100
AcDbSymbolTableRecord
100
AcDbDimStyleTableRecord
  2
AM_JIS$0
 70
     0
  3

  4
"
  5
OPEN30
  6

  7

 40
0.5
 41
2.5
 42
0.0
 43
10.0
 44
1.0
 45
0.0
 46
0.0
 47
0.1
 48
0.1000000001
140
3.799999999999999
141
0.0
142
0.0
143
0.0393701
144
1.0
145
0.0
146
0.71
147
1.5
 71
     0
 72
     0
 73
     0
 74
     0
 75
     0
 76
     0
 77
     3
 78
     1
170
     0
171
     2
172
     1
173
     0
174
     0
175
     0
176
     3
177
     3
178
     2
270
     2
271
     2
272
     2
273
     2
274
     2
340
11
275
     1
280
     0
281
     0
282
     0
283
     0
284
     8
285
     0
286
     0
287
     0
288
     0
  0
ENDTAB
  0
TABLE
  2
BLOCK_RECORD
  5
1
330
0
100
AcDbSymbolTable
 70
    12
  0
BLOCK_RECORD
  5
1F
102
{ACAD_XDICTIONARY
360
74
102
}
330
1
100
AcDbSymbolTableRecord
100
AcDbBlockTableRecord
  2
*MODEL_SPACE
  0
BLOCK_RECORD
  5
101
102
{ACAD_XDICTIONARY
360
37D6
102
}
330
1
100
AcDbSymbolTableRecord
100
AcDbBlockTableRecord
  2
*PAPER_SPACE
  0
BLOCK_RECORD
  5
59
330
1
100
AcDbSymbolTableRecord
100
AcDbBlockTableRecord
  2
_OPEN30
  0
BLOCK_RECORD
  5
64
330
1
100
AcDbSymbolTableRecord
100
AcDbBlockTableRecord
  2
GENAXEH
  0
BLOCK_RECORD
  5
CC8
330
1
100
AcDbSymbolTableRecord
100
AcDbBlockTableRecord
  2
*D5
  0
BLOCK_RECORD
  5
DF6
330
1
100
AcDbSymbolTableRecord
100
AcDbBlockTableRecord
  2
*D6
  0
BLOCK_RECORD
  5
1C72
330
1
100
AcDbSymbolTableRecord
100
AcDbBlockTableRecord
  2
*D7
  0
BLOCK_RECORD
  5
1DF0
330
1
100
AcDbSymbolTableRecord
100
AcDbBlockTableRecord
  2
*D8
  0
BLOCK_RECORD
  5
31E0
330
1
100
AcDbSymbolTableRecord
100
AcDbBlockTableRecord
  2
AVE_RENDER
  0
BLOCK_RECORD
  5
31EE
330
1
100
AcDbSymbolTableRecord
100
AcDbBlockTableRecord
  2
AVE_GLOBAL
  0
BLOCK_RECORD
  5
33AA
330
1
100
AcDbSymbolTableRecord
100
AcDbBlockTableRecord
  2
*D11
  0
ENDTAB
  0
ENDSEC
  0
SECTION
  2
BLOCKS
  0
BLOCK
  5
20
330
1F
100
AcDbEntity
  8
0
100
AcDbBlockBegin
  2
*MODEL_SPACE
 70
     0
 10
0.0
 20
0.0
 30
0.0
  3
*MODEL_SPACE
  1

  0
ENDBLK
  5
21
330
1F
100
AcDbEntity
  8
0
100
AcDbBlockEnd
  0
BLOCK
  5
103
330
101
100
AcDbEntity
 67
     1
  8
0
100
AcDbBlockBegin
  2
*PAPER_SPACE
 70
     0
 10
0.0
 20
0.0
 30
0.0
  3
*PAPER_SPACE
  1

  0
ENDBLK
  5
104
330
101
100
AcDbEntity
 67
     1
  8
0
100
AcDbBlockEnd
  0
BLOCK
  5
5D
330
59
100
AcDbEntity
  8
0
100
AcDbBlockBegin
  2
_OPEN30
 70
     0
 10
0.0
 20
0.0
 30
0.0
  3
_OPEN30
  1

  0
LINE
  5
5A
330
59
100
AcDbEntity
  8
0
 62
     0
100
AcDbLine
 10
-1.0
 20
0.26794919
 30
0.0
 11
0.0
 21
0.0
 31
0.0
  0
LINE
  5
5B
330
59
100
AcDbEntity
  8
0
 62
     0
100
AcDbLine
 10
0.0
 20
0.0
 30
0.0
 11
-1.0
 21
-0.26794919
 31
0.0
  0
LINE
  5
5C
330
59
100
AcDbEntity
  8
0
 62
     0
100
AcDbLine
 10
0.0
 20
0.0
 30
0.0
 11
-1.0
 21
0.0
 31
0.0
  0
ENDBLK
  5
5E
330
59
100
AcDbEntity
  8
0
100
AcDbBlockEnd
  0
BLOCK
  5
66
330
64
100
AcDbEntity
  8
0
100
AcDbBlockBegin
  2
GENAXEH
 70
     0
 10
0.0
 20
0.0
 30
0.0
  3
GENAXEH
  1

  0
LINE
  5
65
330
64
100
AcDbEntity
  8
0
100
AcDbLine
 10
-1.0
 20
0.0
 30
0.0
 11
1.0
 21
0.0
 31
0.0
  0
ENDBLK
  5
67
330
64
100
AcDbEntity
  8
0
100
AcDbBlockEnd
  0
BLOCK
  5
CD2
330
CC8
100
AcDbEntity
  8
0
100
AcDbBlockBegin
  2
*D5
 70
     1
 10
0.0
 20
0.0
 30
0.0
  3
*D5
  1

  0
LINE
  5
3753
330
CC8
100
AcDbEntity
  8
AM_5
 62
     3
100
AcDbLine
 10
-64.0
 20
-1.250006209471268
 30
0.0
 11
-64.0
 21
-14.00000718101105
 31
0.0
  0
LINE
  5
3754
330
CC8
100
AcDbEntity
  8
AM_5
 62
     3
100
AcDbLine
 10
-0.9999961853027247
 20
-0.8999993976152209
 30
0.0
 11
-0.9999961853027256
 21
-14.00000718101105
 31
0.0
  0
LINE
  5
3755
330
CC8
100
AcDbEntity
  8
AM_5
 62
     3
100
AcDbLine
 10
-62.75
 20
-13.50000718101105
 30
0.0
 11
-2.249996185302725
 21
-13.50000718101105
 31
0.0
  0
INSERT
  5
3756
330
CC8
100
AcDbEntity
  8
AM_5
 62
     3
100
AcDbBlockReference
  2
_OPEN30
 10
-64.0
 20
-13.50000718101105
 30
0.0
 41
1.25
 42
1.25
 43
1.25
 50
180.0
  0
INSERT
  5
3757
330
CC8
100
AcDbEntity
  8
AM_5
 62
     3
100
AcDbBlockReference
  2
_OPEN30
 10
-0.9999961853027256
 20
-13.50000718101105
 30
0.0
 41
1.25
 42
1.25
 43
1.25
  0
MTEXT
  5
3758
330
CC8
100
AcDbEntity
  8
AM_5
 62
     2
100
AcDbMText
 10
-32.49999809265136
 20
-11.80000718101105
 30
0.0
 40
1.9
 41
0.0
 71
     5
 72
     1
  1
63
1001
ACAD
1000
MTEXTBEGIN
1070
    73
1070
     1
1070
    44
1040
1.0
1070
    74
1070
     0
1000
MTEXTEND
  0
POINT
  5
3759
330
CC8
100
AcDbEntity
  8
DEFPOINTS
 62
     0
100
AcDbPoint
 10
-64.0
 20
-1.250006209471268
 30
0.0
  0
POINT
  5
375A
330
CC8
100
AcDbEntity
  8
DEFPOINTS
 62
     0
100
AcDbPoint
 10
-0.9999961853027247
 20
-0.8999993976152209
 30
0.0
  0
POINT
  5
375B
330
CC8
100
AcDbEntity
  8
DEFPOINTS
 62
     0
100
AcDbPoint
 10
-0.9999961853027256
 20
-13.50000718101105
 30
0.0
  0
ENDBLK
  5
CD3
330
CC8
100
AcDbEntity
  8
0
100
AcDbBlockEnd
  0
BLOCK
  5
E00
330
DF6
100
AcDbEntity
  8
0
100
AcDbBlockBegin
  2
*D6
 70
     1
 10
0.0
 20
0.0
 30
0.0
  3
*D6
  1

  0
LINE
  5
3772
330
DF6
100
AcDbEntity
  8
AM_5
 62
     3
100
AcDbLine
 10
-15.99999618530275
 20
-1.500000745136692
 30
0.0
 11
-15.99999618530275
 21
-9.000007181011033
 31
0.0
  0
LINE
  5
3773
330
DF6
100
AcDbEntity
  8
AM_5
 62
     3
100
AcDbLine
 10
-0.9999961853027247
 20
-0.8999993976152209
 30
0.0
 11
-0.9999961853027253
 21
-9.000007181011035
 31
0.0
  0
LINE
  5
3774
330
DF6
100
AcDbEntity
  8
AM_5
 62
     3
100
AcDbLine
 10
-14.74999618530275
 20
-8.500007181011033
 30
0.0
 11
-2.249996185302725
 21
-8.500007181011033
 31
0.0
  0
INSERT
  5
3775
330
DF6
100
AcDbEntity
  8
AM_5
 62
     3
100
AcDbBlockReference
  2
_OPEN30
 10
-15.99999618530275
 20
-8.500007181011033
 30
0.0
 41
1.25
 42
1.25
 43
1.25
 50
180.0
  0
INSERT
  5
3776
330
DF6
100
AcDbEntity
  8
AM_5
 62
     3
100
AcDbBlockReference
  2
_OPEN30
 10
-0.9999961853027253
 20
-8.500007181011033
 30
0.0
 41
1.25
 42
1.25
 43
1.25
  0
MTEXT
  5
3777
330
DF6
100
AcDbEntity
  8
AM_5
 62
     2
100
AcDbMText
 10
-8.499996185302741
 20
-6.800007181011033
 30
0.0
 40
1.9
 41
0.0
 71
     5
 72
     1
  1
15
1001
ACAD
1000
MTEXTBEGIN
1070
    73
1070
     1
1070
    44
1040
1.0
1070
    74
1070
     0
1000
MTEXTEND
  0
POINT
  5
3778
330
DF6
100
AcDbEntity
  8
DEFPOINTS
 62
     0
100
AcDbPoint
 10
-15.99999618530275
 20
-1.500000745136692
 30
0.0
  0
POINT
  5
3779
330
DF6
100
AcDbEntity
  8
DEFPOINTS
 62
     0
100
AcDbPoint
 10
-0.9999961853027247
 20
-0.8999993976152209
 30
0.0
  0
POINT
  5
377A
330
DF6
100
AcDbEntity
  8
DEFPOINTS
 62
     0
100
AcDbPoint
 10
-0.9999961853027253
 20
-8.500007181011033
 30
0.0
  0
ENDBLK
  5
E01
330
DF6
100
AcDbEntity
  8
0
100
AcDbBlockEnd
  0
BLOCK
  5
1C7E
330
1C72
100
AcDbEntity
  8
0
100
AcDbBlockBegin
  2
*D7
 70
     1
 10
0.0
 20
0.0
 30
0.0
  3
*D7
  1

  0
LINE
  5
377B
330
1C72
100
AcDbEntity
  8
AM_5
 62
     3
100
AcDbLine
 10
-0.9999961853027247
 20
-0.8999993976152209
 30
0.0
 11
7.795959622153481
 21
-0.8999993976152234
 31
0.0
  0
LINE
  5
377C
330
1C72
100
AcDbEntity
  8
AM_5
 62
     3
100
AcDbLine
 10
-0.9999961853027276
 20
0.9000006023845214
 30
0.0
 11
7.795959622153481
 21
0.9000006023845187
 31
0.0
  0
LINE
  5
377D
330
1C72
100
AcDbEntity
  8
AM_5
 62
     3
100
AcDbLine
 10
7.29595962215348
 20
-2.149999397615223
 30
0.0
 11
7.29595962215348
 21
-3.399999397615223
 31
0.0
  0
LINE
  5
377E
330
1C72
100
AcDbEntity
  8
AM_5
 62
     3
100
AcDbLine
 10
7.295959622153482
 20
2.150000602384518
 30
0.0
 11
7.295959622153484
 21
10.24285781800102
 31
0.0
  0
LINE
  5
377F
330
1C72
100
AcDbEntity
  8
AM_5
 62
     3
100
AcDbLine
 10
7.295959622153481
 20
-0.8999993976152234
 30
0.0
 11
7.295959622153481
 21
0.9000006023845189
 31
0.0
  0
INSERT
  5
3780
330
1C72
100
AcDbEntity
  8
AM_5
 62
     3
100
AcDbBlockReference
  2
_OPEN30
 10
7.295959622153481
 20
-0.8999993976152234
 30
0.0
 41
1.25
 42
1.25
 43
1.25
 50
90.0
  0
INSERT
  5
3781
330
1C72
100
AcDbEntity
  8
AM_5
 62
     3
100
AcDbBlockReference
  2
_OPEN30
 10
7.295959622153481
 20
0.9000006023845189
 30
0.0
 41
1.25
 42
1.25
 43
1.25
 50
270.0
  0
MTEXT
  5
3782
330
1C72
100
AcDbEntity
  8
AM_5
 62
     2
100
AcDbMText
 10
5.595959622153481
 20
6.82381019895341
 30
0.0
 40
1.9
 41
0.0
 71
     5
 72
     1
  1
%%c1.8
 11
0.0000000000000001
 21
1.0
 31
0.0
1001
ACAD
1000
MTEXTBEGIN
1070
    73
1070
     1
1070
    44
1040
1.0
1070
    74
1070
     0
1000
MTEXTEND
  0
POINT
  5
3783
330
1C72
100
AcDbEntity
  8
DEFPOINTS
 62
     0
100
AcDbPoint
 10
-0.9999961853027247
 20
-0.8999993976152209
 30
0.0
  0
POINT
  5
3784
330
1C72
100
AcDbEntity
  8
DEFPOINTS
 62
     0
100
AcDbPoint
 10
-0.9999961853027276
 20
0.9000006023845214
 30
0.0
  0
POINT
  5
3785
330
1C72
100
AcDbEntity
  8
DEFPOINTS
 62
     0
100
AcDbPoint
 10
7.295959622153481
 20
0.9000006023845189
 30
0.0
  0
ENDBLK
  5
1C7F
330
1C72
100
AcDbEntity
  8
0
100
AcDbBlockEnd
  0
BLOCK
  5
1DFC
330
1DF0
100
AcDbEntity
  8
0
100
AcDbBlockBegin
  2
*D8
 70
     1
 10
0.0
 20
0.0
 30
0.0
  3
*D8
  1

  0
LINE
  5
375C
330
1DF0
100
AcDbEntity
  8
AM_5
 62
     3
100
AcDbLine
 10
-63.75000000000003
 20
-1.500006181011319
 30
0.0
 11
-72.25000134152343
 21
-1.500006181011336
 31
0.0
  0
LINE
  5
375D
330
1DF0
100
AcDbEntity
  8
AM_5
 62
     3
100
AcDbLine
 10
-63.75000000000003
 20
1.500013847201684
 30
0.0
 11
-72.25000134152343
 21
1.500013847201668
 31
0.0
  0
LINE
  5
375E
330
1DF0
100
AcDbEntity
  8
AM_5
 62
     3
100
AcDbLine
 10
-71.75000134152343
 20
-2.750006181011335
 30
0.0
 11
-71.75000134152341
 21
-4.000006181011334
 31
0.0
  0
LINE
  5
375F
330
1DF0
100
AcDbEntity
  8
AM_5
 62
     3
100
AcDbLine
 10
-71.75000134152343
 20
2.750013847201669
 30
0.0
 11
-71.75000134152345
 21
4.000013847201669
 31
0.0
  0
LINE
  5
3760
330
1DF0
100
AcDbEntity
  8
AM_5
 62
     3
100
AcDbLine
 10
-71.75000134152343
 20
-1.500006181011335
 30
0.0
 11
-71.75000134152343
 21
1.500013847201669
 31
0.0
  0
INSERT
  5
3761
330
1DF0
100
AcDbEntity
  8
AM_5
 62
     3
100
AcDbBlockReference
  2
_OPEN30
 10
-71.75000134152343
 20
-1.500006181011335
 30
0.0
 41
1.25
 42
1.25
 43
1.25
 50
90.0000000000001
  0
INSERT
  5
3762
330
1DF0
100
AcDbEntity
  8
AM_5
 62
     3
100
AcDbBlockReference
  2
_OPEN30
 10
-71.75000134152343
 20
1.500013847201669
 30
0.0
 41
1.25
 42
1.25
 43
1.25
 50
270.0000000000001
  0
MTEXT
  5
3763
330
1DF0
100
AcDbEntity
  8
AM_5
 62
     2
100
AcDbMText
 10
-73.45000134152343
 20
0.0000038330951664
 30
0.0
 40
1.9
 41
0.0
 71
     5
 72
     1
  1
%%c3
 11
-0.000000000000002
 21
1.0
 31
0.0
1001
ACAD
1000
MTEXTBEGIN
1070
    73
1070
     1
1070
    44
1040
1.0
1070
    74
1070
     0
1000
MTEXTEND
  0
POINT
  5
3764
330
1DF0
100
AcDbEntity
  8
DEFPOINTS
 62
     0
100
AcDbPoint
 10
-63.75000000000003
 20
-1.500006181011178
 30
0.0
  0
POINT
  5
3765
330
1DF0
100
AcDbEntity
  8
DEFPOINTS
 62
     0
100
AcDbPoint
 10
-63.75000000000003
 20
1.500013847201826
 30
0.0
  0
POINT
  5
3766
330
1DF0
100
AcDbEntity
  8
DEFPOINTS
 62
     0
100
AcDbPoint
 10
-71.75000134152343
 20
1.500013847201828
 30
0.0
  0
ENDBLK
  5
1DFD
330
1DF0
100
AcDbEntity
  8
0
100
AcDbBlockEnd
  0
BLOCK
  5
31E1
330
31E0
100
AcDbEntity
  8
ASHADE
100
AcDbBlockBegin
  2
AVE_RENDER
 70
     0
 10
0.0
 20
0.0
 30
0.0
  3
AVE_RENDER
  1
AVE_RENDER
  0
ENDBLK
  5
31E2
330
31E0
100
AcDbEntity
  8
0
100
AcDbBlockEnd
  0
BLOCK
  5
31EF
330
31EE
100
AcDbEntity
  8
ASHADE
100
AcDbBlockBegin
  2
AVE_GLOBAL
 70
     0
 10
0.0
 20
0.0
 30
0.0
  3
AVE_GLOBAL
  1
AVE_GLOBAL
  0
ENDBLK
  5
31F0
330
31EE
100
AcDbEntity
  8
0
100
AcDbBlockEnd
  0
BLOCK
  5
33BA
330
33AA
100
AcDbEntity
  8
0
100
AcDbBlockBegin
  2
*D11
 70
     1
 10
0.0
 20
0.0
 30
0.0
  3
*D11
  1

  0
LINE
  5
37D8
330
33AA
100
AcDbEntity
  8
AM_5
100
AcDbLine
 10
0.1710090616408432
 20
-0.4698466780096577
 30
0.0
 11
4.806137902506096
 21
-13.20484368419846
 31
0.0
  0
LINE
  5
37D9
330
33AA
100
AcDbEntity
  8
AM_5
100
AcDbLine
 10
0.1710103755189633
 20
0.4698461997982625
 30
0.0
 11
4.80617482849921
 21
13.20483024426753
 31
0.0
  0
ARC
  5
37DA
330
33AA
100
AcDbEntity
  8
AM_5
100
AcDbCircle
 10
-0.0000000000000025
 20
0.0000000000000069
 30
0.0
 40
13.55229014296324
100
AcDbArc
 50
295.2864472373159
 51
64.71339254082256
  0
INSERT
  5
37DB
330
33AA
100
AcDbEntity
  8
AM_5
100
AcDbBlockReference
  2
_OPEN30
 10
4.63512884086525
 20
-12.73499700618879
 30
0.0
 41
1.25
 42
1.25
 43
1.25
 50
202.6431620347173
  0
INSERT
  5
37DC
330
33AA
100
AcDbEntity
  8
AM_5
100
AcDbBlockReference
  2
_OPEN30
 10
4.635164452980244
 20
12.73498404446928
 30
0.0
 41
1.25
 42
1.25
 43
1.25
 50
157.356677743421
  0
MTEXT
  5
37DD
330
33AA
100
AcDbEntity
  8
AM_5
 62
     2
100
AcDbMText
 10
12.00229014295151
 20
-0.0000167815961788
 30
0.0
 40
1.6
 41
0.0
 71
     5
 72
     1
  1
140°
  7
ASAMI
 11
0.0000013981995089
 21
0.9999999999990226
 31
0.0
  0
POINT
  5
37DE
330
33AA
100
AcDbEntity
  8
DEFPOINTS
 62
     0
100
AcDbPoint
 10
12.44392224452326
 20
-5.367808425355526
 30
0.0
  0
POINT
  5
37DF
330
33AA
100
AcDbEntity
  8
DEFPOINTS
 62
     0
100
AcDbPoint
 10
-0.0000000000000025
 20
0.0000000000000069
 30
0.0
  0
POINT
  5
37E0
330
33AA
100
AcDbEntity
  8
DEFPOINTS
 62
     0
100
AcDbPoint
 10
-0.0000000000000025
 20
0.0000000000000069
 30
0.0
  0
POINT
  5
37E1
330
33AA
100
AcDbEntity
  8
DEFPOINTS
 62
     0
100
AcDbPoint
 10
-0.1264199045961553
 20
0.3473381564630225
 30
0.0
  0
POINT
  5
37E2
330
33AA
100
AcDbEntity
  8
DEFPOINTS
 62
     0
100
AcDbPoint
 10
-0.1264217016175973
 20
-0.3473400715997302
 30
0.0
  0
ENDBLK
  5
33BB
330
33AA
100
AcDbEntity
  8
0
100
AcDbBlockEnd
  0
ENDSEC
  0
SECTION
  2
ENTITIES
  0
LINE
  5
C1D
330
1F
100
AcDbEntity
  8
AM_0
 48
0.5
100
AcDbLine
 10
-0.0000000000000025
 20
0.0000000000000069
 30
0.0
 11
-0.1264199045961553
 21
0.3473381564630225
 31
0.0
  0
LINE
  5
C20
330
1F
100
AcDbEntity
  8
AM_0
 48
0.5
100
AcDbLine
 10
-0.0000000000000025
 20
0.0000000000000069
 30
0.0
 11
-0.1264217016175973
 21
-0.3473400715997303
 31
0.0
  0
LINE
  5
C2E
330
1F
100
AcDbEntity
  8
AM_0
 48
0.5
100
AcDbLine
 10
-63.75000000000001
 20
-1.500006181011177
 30
0.0
 11
-63.75000000000001
 21
1.500013847201826
 31
0.0
  0
LINE
  5
C30
330
1F
100
AcDbEntity
  8
AM_0
 48
0.5
100
AcDbLine
 10
-64.00000000000002
 20
-1.250006209471253
 30
0.0
 11
-64.00000000000002
 21
1.250005235204432
 31
0.0
  0
LINE
  5
C9F
330
1F
100
AcDbEntity
  8
AM_7
100
AcDbLine
 10
-64.75
 20
-0.0000000000000529
 30
0.0
 11
0.295958565231776
 21
0.0000000000000074
 31
0.0
1001
GENIUS_GENODEF_13
1002
{
1000
HIER
1070
     0
1002
}
1002
{
1000
MANEDIT
1070
     0
1002
}
1002
{
1000
NOSEL
1070
     0
1002
}
1002
{
1000
BEHIND
1070
     0
1002
}
1002
{
1000
REACTOR
1002
}
1001
GENIUS_GENOBJ-N-CEN_13
1002
{
1000
OWNER
1000
GEN
1002
}
  0
DIMENSION
  5
CC6
330
1F
100
AcDbEntity
  8
AM_5
100
AcDbDimension
  2
*D5
 10
-0.9999961853027256
 20
-13.50000718101105
 30
0.0
 11
-32.49999809265136
 21
-11.80000718101105
 31
0.0
 70
    32
  1
<>
  3
AM_JIS$0
100
AcDbAlignedDimension
 13
-64.0
 23
-1.250006209471268
 33
0.0
 14
-0.9999961853027247
 24
-0.8999993976152209
 34
0.0
 50
0.0000000000001132
100
AcDbRotatedDimension
1001
GENIUS_GENDTOL_13
1000

1000
h7
1000

1040
0.0
1001
ACAD
1000
DSTYLE
1002
{
1070
   271
1070
     0
1002
}
  0
DIMENSION
  5
DF5
330
1F
100
AcDbEntity
  8
AM_5
100
AcDbDimension
  2
*D6
 10
-0.9999961853027253
 20
-8.500007181011033
 30
0.0
 11
-8.499996185302741
 21
-6.800007181011033
 31
0.0
 70
    32
  1
<>
  3
AM_JIS$0
100
AcDbAlignedDimension
 13
-15.99999618530275
 23
-1.500000745136692
 33
0.0
 14
-0.9999961853027247
 24
-0.8999993976152209
 34
0.0
 50
0.0000000000001527
100
AcDbRotatedDimension
1001
GENIUS_GENDTOL_13
1000

1000
h7
1000

1040
0.0
1001
ACAD
1000
DSTYLE
1002
{
1070
   271
1070
     0
1002
}
  0
ARC
  5
1450
330
1F
100
AcDbEntity
  8
AM_11
 48
0.5
100
AcDbCircle
 10
-12.11968231201171
 20
6.625451430235449
 30
0.0
 40
7.325448036193749
100
AcDbArc
 50
244.7482808787518
 51
295.2516148471758
  0
ARC
  5
1451
330
1F
100
AcDbEntity
  8
AM_11
 48
0.5
100
AcDbCircle
 10
-12.11968231201171
 20
-6.625446930970548
 30
0.0
 40
7.325448036193749
100
AcDbArc
 50
64.74833051131179
 51
115.2516644797366
  0
ARC
  5
1452
330
1F
100
AcDbEntity
  8
AM_11
 48
0.5
100
AcDbCircle
 10
-5.869682312011712
 20
-6.625446930970548
 30
0.0
 40
7.325448036193749
100
AcDbArc
 50
64.74833051131179
 51
115.2516644797366
  0
ARC
  5
1453
330
1F
100
AcDbEntity
  8
AM_11
 48
0.5
100
AcDbCircle
 10
-5.869682312011712
 20
6.625451430235449
 30
0.0
 40
7.325448036193749
100
AcDbArc
 50
244.7482808787518
 51
295.2516148471758
  0
ARC
  5
18B8
330
1F
100
AcDbEntity
  8
AM_11
 48
0.5
100
AcDbCircle
 10
-30.8696823120099
 20
6.625451430235428
 30
0.0
 40
7.325448036193749
100
AcDbArc
 50
244.7482808787518
 51
295.2516148471758
  0
ARC
  5
18B9
330
1F
100
AcDbEntity
  8
AM_11
 48
0.5
100
AcDbCircle
 10
-30.86968231200991
 20
-6.62544693097057
 30
0.0
 40
7.325448036193749
100
AcDbArc
 50
64.74833051131179
 51
115.2516644797366
  0
ARC
  5
18BA
330
1F
100
AcDbEntity
  8
AM_11
 48
0.5
100
AcDbCircle
 10
-37.11969507921032
 20
6.625457452091314
 30
0.0
 40
7.325448036193749
100
AcDbArc
 50
244.7482808787518
 51
295.2516148471758
  0
ARC
  5
18BB
330
1F
100
AcDbEntity
  8
AM_11
 48
0.5
100
AcDbCircle
 10
-37.11969507921033
 20
-6.625440909114685
 30
0.0
 40
7.325448036193749
100
AcDbArc
 50
64.74833051131179
 51
115.2516644797366
  0
TEXT
  5
19BD
330
1F
100
AcDbEntity
  8
AM_6
100
AcDbText
 10
-43.51190285455611
 20
-24.75000718101108
 30
0.0
 40
2.5
  1
MDW018MHK
 50
0.0000000000001527
 72
     4
 11
-32.49999809265134
 21
-23.50000718101105
 31
0.0
100
AcDbText
  0
LINE
  5
1B5C
330
1F
100
AcDbEntity
  8
AM_0
 48
0.5
100
AcDbLine
 10
-63.75000000000001
 20
1.500005264989126
 30
0.0
 11
-64.00000000000002
 21
1.250005235204432
 31
0.0
1001
GENIUS_GENFIL_13
1070
     0
1040
0.25
1040
0.25
1040
20.0
1040
0.0
1002
{
1002
}
1001
GENIUS_GENODEF_13
1002
{
1000
HIER
1070
     0
1002
}
1002
{
1000
MANEDIT
1070
     0
1002
}
1002
{
1000
NOSEL
1070
     0
1002
}
1002
{
1000
BEHIND
1070
     0
1002
}
1002
{
1000
REACTOR
1002
}
1001
GENIUS_GENOBJ-N-CHA_13
1002
{
1000
OWNER
1000
GEN
1002
}
  0
LINE
  5
1B60
330
1F
100
AcDbEntity
  8
AM_0
 48
0.5
100
AcDbLine
 10
-64.00000000000002
 20
-1.250006209471253
 30
0.0
 11
-63.75000000000001
 21
-1.500006181011177
 31
0.0
1001
GENIUS_GENFIL_13
1070
     0
1040
0.25
1040
0.25
1040
20.0
1040
0.0
1002
{
1002
}
1001
GENIUS_GENODEF_13
1002
{
1000
HIER
1070
     0
1002
}
1002
{
1000
MANEDIT
1070
     0
1002
}
1002
{
1000
NOSEL
1070
     0
1002
}
1002
{
1000
BEHIND
1070
     0
1002
}
1002
{
1000
REACTOR
1002
}
1001
GENIUS_GENOBJ-N-CHA_13
1002
{
1000
OWNER
1000
GEN
1002
}
  0
LINE
  5
1C15
330
1F
100
AcDbEntity
  8
AM_0
 48
0.5
100
AcDbLine
 10
-15.99999618530275
 20
-1.50000074513669
 30
0.0
 11
-15.99999618530276
 21
1.500010953865699
 31
0.0
  0
LINE
  5
1C1A
330
1F
100
AcDbEntity
  8
AM_0
 48
0.5
100
AcDbLine
 10
-15.99999618530276
 20
1.50001209879736
 30
0.0
 11
-63.75000000000001
 21
1.500005264989126
 31
0.0
  0
LINE
  5
1C1E
330
1F
100
AcDbEntity
  8
AM_0
 48
0.5
100
AcDbLine
 10
-15.99999618530275
 20
-1.499999651123712
 30
0.0
 11
-63.75000000000001
 21
-1.500006181011177
 31
0.0
  0
ARC
  5
1C22
330
1F
100
AcDbEntity
  8
AM_11
 48
0.5
100
AcDbCircle
 10
-49.61969507914653
 20
6.6254574520913
 30
0.0
 40
7.325448036193749
100
AcDbArc
 50
244.7482808787518
 51
295.2516148471758
  0
ARC
  5
1C23
330
1F
100
AcDbEntity
  8
AM_11
 48
0.5
100
AcDbCircle
 10
-49.61969507914655
 20
-6.625440909114699
 30
0.0
 40
7.325448036193749
100
AcDbArc
 50
64.74833051131179
 51
115.2516644797366
  0
ARC
  5
1C24
330
1F
100
AcDbEntity
  8
AM_11
 48
0.5
100
AcDbCircle
 10
-43.3696823119461
 20
6.625451430235414
 30
0.0
 40
7.325448036193749
100
AcDbArc
 50
244.7482808787518
 51
295.2516148471758
  0
ARC
  5
1C25
330
1F
100
AcDbEntity
  8
AM_11
 48
0.5
100
AcDbCircle
 10
-43.36968231194612
 20
-6.625446930970584
 30
0.0
 40
7.325448036193749
100
AcDbArc
 50
64.74833051131179
 51
115.2516644797366
  0
ARC
  5
1C26
330
1F
100
AcDbEntity
  8
AM_11
 48
0.5
100
AcDbCircle
 10
-62.11969507908265
 20
6.625457452091246
 30
0.0
 40
7.325448036193749
100
AcDbArc
 50
255.1267719476511
 51
295.2516148471758
  0
ARC
  5
1C27
330
1F
100
AcDbEntity
  8
AM_11
 48
0.5
100
AcDbCircle
 10
-62.11969507908267
 20
-6.625440909114753
 30
0.0
 40
7.325448036193749
100
AcDbArc
 50
64.74833051131179
 51
104.8732280523487
  0
ARC
  5
1C28
330
1F
100
AcDbEntity
  8
AM_11
 48
0.5
100
AcDbCircle
 10
-55.86968231188222
 20
6.62545143023536
 30
0.0
 40
7.325448036193749
100
AcDbArc
 50
244.7482808787518
 51
295.2516148471758
  0
ARC
  5
1C29
330
1F
100
AcDbEntity
  8
AM_11
 48
0.5
100
AcDbCircle
 10
-55.86968231188224
 20
-6.625446930970638
 30
0.0
 40
7.325448036193749
100
AcDbArc
 50
64.74833051131179
 51
115.2516644797366
  0
DIMENSION
  5
1C71
330
1F
100
AcDbEntity
  8
AM_5
100
AcDbDimension
  2
*D7
 10
7.295959622153481
 20
0.9000006023845189
 30
0.0
 11
7.295959622153481
 21
6.823810198953409
 31
0.0
 70
   160
  1
%%c<>
  3
AM_JIS$0
100
AcDbAlignedDimension
 13
-0.9999961853027247
 23
-0.8999993976152209
 33
0.0
 14
-0.9999961853027276
 24
0.9000006023845214
 34
0.0
 50
89.99999999999991
100
AcDbRotatedDimension
1001
GENIUS_GENDTOL_13
1000

1000
h7
1000

1040
0.0
1001
ACAD
1000
DSTYLE
1002
{
1070
   271
1070
     1
1002
}
  0
LINE
  5
1C85
330
1F
100
AcDbEntity
  8
AM_0
 48
0.5
100
AcDbLine
 10
-0.8226279544914373
 20
0.7120561516484317
 30
0.0
 11
-0.9999961853027276
 21
0.9000006023845214
 31
0.0
  0
ELLIPSE
  5
1C86
330
1F
100
AcDbEntity
  8
AM_0
 48
0.5
100
AcDbEllipse
 10
0.40432067224998
 20
1.637891478932477
 30
0.0
 11
1.66608299536568
 21
0.0274162658887327
 31
0.0
210
0.0
220
0.0
230
0.9999999999999998
 40
0.8151640103509405
 41
3.871300040489825
 42
4.374800429995983
  0
LINE
  5
1CF2
330
1F
100
AcDbEntity
  8
AM_0
100
AcDbLine
 10
-15.99999618530275
 20
-1.50000074513669
 30
0.0
 11
-14.96076336678544
 21
-0.8999993976150147
 31
0.0
  0
LINE
  5
1CF3
330
1F
100
AcDbEntity
  8
AM_0
100
AcDbLine
 10
-15.99999618530276
 20
1.500010953865699
 30
0.0
 11
-14.96096923379643
 21
0.9001284637182511
 31
0.0
  0
LINE
  5
1CF4
330
1F
100
AcDbEntity
  8
AM_0
100
AcDbLine
 10
-14.96096923379643
 20
0.9001284637182534
 30
0.0
 11
-14.96076653508561
 21
-0.9000012268339714
 31
0.0
  0
DIMENSION
  5
1DEF
330
1F
100
AcDbEntity
  8
AM_5
100
AcDbDimension
  2
*D8
 10
-71.75000134152343
 20
1.500013847201828
 30
0.0
 11
-71.75000134152343
 21
0.0000038330953147
 31
0.0
 70
   160
  1
%%c<>
 51
359.9999999999998
  3
AM_JIS$0
100
AcDbAlignedDimension
 13
-63.75000000000003
 23
-1.500006181011178
 33
0.0
 14
-63.75000000000003
 24
1.500013847201826
 34
0.0
 50
270.0000065225689
100
AcDbRotatedDimension
1001
ACAD
1000
DSTYLE
1002
{
1070
   271
1070
     0
1002
}
1001
GENIUS_GENDTOL_13
1000

1000
h7
1000

1040
0.0
  0
ELLIPSE
  5
2C98
330
1F
100
AcDbEntity
  8
AM_11
 48
0.5
100
AcDbEllipse
 10
0.5886367294299319
 20
6.323237925714162
 30
0.0
 11
-7.813811238606873
 21
0.0000000000007084
 31
0.0
210
0.0
220
0.0
230
1.0
 40
0.8947368421052422
 41
1.130070686340396
 42
1.291800737381081
  0
ELLIPSE
  5
2DA3
330
1F
100
AcDbEntity
  8
AM_0
 48
0.5
100
AcDbEllipse
 10
0.4043206722499834
 20
-1.637891478932462
 30
0.0
 11
1.66608299536568
 21
-0.0274162658887292
 31
0.0
210
0.0
220
0.0
230
-1.0
 40
0.8151640103509405
 41
3.871300040489825
 42
4.374800429995983
  0
LINE
  5
2DA4
330
1F
100
AcDbEntity
  8
AM_0
 48
0.5
100
AcDbLine
 10
-0.8226279544914358
 20
-0.7120561516484195
 30
0.0
 11
-0.9999961853027247
 21
-0.8999993976152209
 31
0.0
  0
ARC
  5
3174
330
1F
100
AcDbEntity
  8
AM_11
 48
0.5
100
AcDbCircle
 10
-24.61969921169339
 20
-6.625440909114674
 30
0.0
 40
7.325448036193749
100
AcDbArc
 50
64.74833051131179
 51
115.2516644797366
  0
ARC
  5
3175
330
1F
100
AcDbEntity
  8
AM_11
 48
0.5
100
AcDbCircle
 10
-24.61969921169337
 20
6.625457452091325
 30
0.0
 40
7.325448036193749
100
AcDbArc
 50
244.7482808787518
 51
295.2516148471758
  0
ARC
  5
3176
330
1F
100
AcDbEntity
  8
AM_11
 48
0.5
100
AcDbCircle
 10
-18.36968644449295
 20
6.625451430235439
 30
0.0
 40
7.325448036193749
100
AcDbArc
 50
244.7482808787518
 51
295.2516148471758
  0
ARC
  5
3177
330
1F
100
AcDbEntity
  8
AM_11
 48
0.5
100
AcDbCircle
 10
-18.36968644449296
 20
-6.625446930970559
 30
0.0
 40
7.325448036193749
100
AcDbArc
 50
64.74833051131179
 51
115.2516644797366
  0
INSERT
  5
31E3
330
1F
100
AcDbEntity
  8
ASHADE
 62
     1
100
AcDbBlockReference
  2
AVE_RENDER
 10
0.0
 20
0.0
 30
0.0
1001
AVE_RENDER
1002
{
1070
     7
1000
Pref
1070
    30
1070
    20
1070
     1
1070
     0
1000

1070
    10
1070
     1
1070
    10
1040
1.0
1070
     1
1040
0.3
1040
0.7
1040
0.0
1040
10.0
1010
-1.0
1020
-1.0
1030
-1.0
1040
0.3
1070
    49
1070
     0
1070
     0
1010
1.0
1020
1.0
1030
1.0
1040
45.0
1070
     1
1070
     0
1000
WCS
1040
0.0
1070
     0
1040
10.0
1002
}
  0
INSERT
  5
31E4
330
1F
100
AcDbEntity
  8
ASHADE
 62
     3
100
AcDbBlockReference
  2
AVE_RENDER
 10
0.0
 20
0.0
 30
0.0
1001
AVE_RENDER
1002
{
1070
     0
1000
Full Opt
1070
     0
1070
     1
1070
     1
1070
     1
1070
     0
1070
     0
1070
     0
1070
     1
1070
     1
1040
0.0001
1040
0.0001
1002
}
  0
INSERT
  5
31E5
330
1F
100
AcDbEntity
  8
ASHADE
 62
     4
100
AcDbBlockReference
  2
AVE_RENDER
 10
0.0
 20
0.0
 30
0.0
1001
AVE_RENDER
1002
{
1070
     0
1000
Quick Opt
1070
     0
1070
     1
1070
     1
1070
     1
1070
     0
1070
     0
1070
     1
1002
}
  0
INSERT
  5
31E6
330
1F
100
AcDbEntity
  8
ASHADE
 62
     5
100
AcDbBlockReference
  2
AVE_RENDER
 10
0.0
 20
0.0
 30
0.0
1001
AVE_RENDER
1002
{
1070
     1
1000
Scanl Opt
1070
     2
1070
     0
1070
     2
1040
2.0
1040
4.0
1070
     0
1070
     1
1070
     0
1040
0.03
1002
}
  0
INSERT
  5
31E7
330
1F
100
AcDbEntity
  8
ASHADE
 62
     6
100
AcDbBlockReference
  2
AVE_RENDER
 10
0.0
 20
0.0
 30
0.0
1001
AVE_RENDER
1002
{
1070
     2
1000
Raytr Opt
1070
     2
1070
     0
1070
     2
1040
2.0
1040
4.0
1070
     0
1070
     1
1070
     1
1040
0.03
1070
     3
1040
0.03
1002
}
  0
INSERT
  5
31E8
330
1F
100
AcDbEntity
  8
ASHADE
 62
     7
100
AcDbBlockReference
  2
AVE_RENDER
 10
0.0
 20
0.0
 30
0.0
1001
AVE_RENDER
1002
{
1070
     0
1000
RFile Opt
1070
     1
1070
   640
1070
   480
1070
 10000
1070
     1
1070
     8
1070
     8
1070
     0
1070
     0
1070
     0
1070
     0
1070
     0
1070
     0
1070
     0
1002
}
  0
INSERT
  5
31E9
330
1F
100
AcDbEntity
  8
ASHADE
 62
     8
100
AcDbBlockReference
  2
AVE_RENDER
 10
0.0
 20
0.0
 30
0.0
1001
AVE_RENDER
1002
{
1070
     0
1000
Fog Opt
1070
     0
1070
     0
1040
0.0
1040
1.0
1040
0.0
1040
1.0
1010
0.5
1020
0.5
1030
0.5
1002
}
  0
INSERT
  5
31EA
330
1F
100
AcDbEntity
  8
ASHADE
 62
     9
100
AcDbBlockReference
  2
AVE_RENDER
 10
0.0
 20
0.0
 30
0.0
1001
AVE_RENDER
1002
{
1070
     0
1000
BG Opt
1070
     0
1070
     1
1010
0.0
1020
0.0
1030
0.0
1010
1.0
1020
0.0
1030
0.0
1010
0.0
1020
1.0
1030
0.0
1010
0.0
1020
0.0
1030
1.0
1040
0.5
1040
0.33
1040
0.0
1000

1070
     1
1000

1070
     1
1070
     1
1040
1.0
1040
1.0
1040
0.0
1040
0.0
1070
     0
1002
}
  0
INSERT
  5
31F1
330
1F
100
AcDbEntity
  8
ASHADE
 62
     1
100
AcDbBlockReference
  2
AVE_GLOBAL
 10
0.0
 20
0.0
 30
0.0
1001
AVE_MATERIAL
1002
{
1000
*GLOBAL*
1000
2
1000
Global finish.
1002
{
1002
}
1002
{
1070
    63
1002
{
1002
{
1010
-1.0
1020
-1.0
1030
-1.0
1002
}
1040
0.1000000014901161
1000

1040
0.0
1002
{
1002
}
1040
0.0
1002
{
1002
}
1040
0.0
1002
}
1002
{
1002
{
1010
-1.0
1020
-1.0
1030
-1.0
1002
}
1040
0.6999999880790711
1000

1040
0.0
1002
{
1002
}
1040
0.0
1002
{
1002
}
1040
0.0
1002
}
1002
{
1002
{
1010
-1.0
1020
-1.0
1030
-1.0
1002
}
1040
0.2000000029802322
1000

1040
0.0
1002
{
1002
}
1040
0.0
1002
{
1002
}
1040
0.0
1002
}
1002
{
1070
     0
1002
{
1070
     1
1002
{
1040
1.0
1040
1.0
1000

1040
0.0
1002
{
1002
}
1040
0.0
1002
{
1002
}
1040
0.0
1002
}
1002
}
1040
1.0
1040
0.0
1040
0.0
1002
}
1002
{
1040
1.0
1040
1.0
1000

1040
0.0
1002
{
1002
}
1040
0.0
1002
{
1002
}
1040
0.0
1002
}
1002
{
1040
0.5
1040
1.0
1000

1040
0.0
1002
{
1002
}
1040
0.0
1002
{
1002
}
1040
0.0
1002
}
1002
{
1070
     0
1040
0.0
1002
{
1002
}
1040
1.0
1002
{
1002
}
1040
0.0
1002
}
1002
{
1040
0.0
1002
{
1002
{
1010
0.0
1020
0.0
1030
0.0
1002
}
1040
1.0
1000

1040
0.0
1002
{
1002
}
1040
0.0
1002
{
1002
}
1040
0.0
1002
}
1002
}
1002
{
1002
{
1070
     1
1002
{
1040
0.0
1040
1.0
1000

1040
0.0
1002
{
1002
}
1040
0.0
1002
{
1002
}
1040
0.0
1002
}
1002
}
1040
0.0
1002
{
1002
}
1010
1.0
1020
0.0
1030
0.0
1010
0.0
1020
1.0
1030
0.0
1010
0.0
1020
0.0
1030
1.0
1070
     0
1002
}
1002
{
1002
{
1040
1.0
1040
1.0
1002
{
1070
     1
1002
{
1040
1.0
1040
1.0
1000

1040
0.0
1002
{
1002
}
1040
0.0
1002
{
1002
}
1040
0.0
1002
}
1002
}
1002
}
1070
     0
1040
0.0
1002
{
1002
}
1002
}
1002
{
1002
}
1002
}
1002
{
1071
        3
1070
     3
1070
     0
1002
{
1070
     2
1070
     0
1070
     0
1040
0.0
1002
}
1070
     0
1070
     2
1002
{
1002
}
1002
}
1002
{
1040
8030.0
1040
190.3000030517578
1040
0.3050000071525574
1040
228.0
1040
545.0
1040
14.0
1040
17.39999961853027
1040
0.4560000002384186
1002
}
1002
}
  0
LINE
  5
336F
330
1F
100
AcDbEntity
  8
AM_0
100
AcDbLine
 10
-1.066662653958328
 20
0.9000006023845212
 30
0.0
 11
-0.9999961853027238
 21
0.9000006023845214
 31
0.0
  0
DIMENSION
  5
33A9
330
1F
100
AcDbEntity
  8
AM_5
100
AcDbDimension
  2
*D11
 10
-0.1264217016175973
 20
-0.3473400715997303
 30
0.0
 11
12.00229014295151
 21
-0.000016781596205
 31
0.0
 70
    34
  1
<>
 51
359.9999999999998
  3
AM_JIS$2
100
AcDb2LineAngularDimension
 13
-0.0000000000000025
 23
0.0000000000000069
 33
0.0
 14
-0.1264199045961553
 24
0.3473381564630225
 34
0.0
 15
-0.0000000000000025
 25
0.0000000000000069
 35
0.0
 16
12.44392224452326
 26
-5.367808425355526
 36
0.0
1001
GENIUS_GENDTOL_13
1000

1000
h7
1000

1040
0.0
1001
ACAD
1000
DSTYLE
1002
{
1070
   271
1070
     0
1002
}
  0
LINE
  5
36BE
330
1F
100
AcDbEntity
  8
AM_0
100
AcDbLine
 10
-13.23894343839608
 20
-0.8999993976150179
 30
0.0
 11
-14.96076336678544
 21
-0.8999993976150147
 31
0.0
  0
LINE
  5
36BF
330
1F
100
AcDbEntity
  8
AM_0
100
AcDbLine
 10
-12.84953142039847
 20
0.9001284637182243
 30
0.0
 11
-14.96096923379644
 21
0.9001284637182534
 31
0.0
  0
LINE
  5
36C0
330
1F
100
AcDbEntity
  8
AM_0
 48
0.5
100
AcDbLine
 10
-0.0000000000000167
 20
0.0000000000000071
 30
0.0
 11
-0.6691373520938853
 21
0.2842590875095712
 31
0.0
  0
LINE
  5
36C1
330
1F
100
AcDbEntity
  8
AM_11
 48
0.5
100
AcDbLine
 10
-8.116440705704446
 20
0.9001284637180962
 30
0.0
 11
-6.563516906790146
 21
0.900000602384728
 31
0.0
  0
LINE
  5
36C2
330
1F
100
AcDbEntity
  8
AM_11
 48
0.5
100
AcDbLine
 10
-8.472638673091601
 20
-0.8999993976151955
 30
0.0
 11
-5.046392059323745
 21
-0.9001272589486172
 31
0.0
  0
LINE
  5
36C3
330
1F
100
AcDbEntity
  8
AM_0
 48
0.5
100
AcDbLine
 10
-6.518562302906487
 20
0.900000602384728
 30
0.0
 11
-3.068033602538404
 21
0.9000006023846182
 31
0.0
  0
LINE
  5
36C4
330
1F
100
AcDbEntity
  8
AM_0
 48
0.5
100
AcDbLine
 10
-6.090762859286591
 20
-0.8999993976153126
 30
0.0
 11
-3.773456481222532
 21
-0.8999993976153831
 31
0.0
  0
LINE
  5
36C5
330
1F
100
AcDbEntity
  8
AM_0
 48
0.5
100
AcDbLine
 10
-11.678109313227
 20
0.4560139004194805
 30
0.0
 11
-13.49999618530272
 21
-0.0114869717659486
 31
0.0
  0
LINE
  5
36C6
330
1F
100
AcDbEntity
  8
AM_11
 48
0.5
100
AcDbLine
 10
-13.23894343839608
 20
-0.8999993976150179
 30
0.0
 11
-11.36714381221261
 21
-0.8999993976151037
 31
0.0
  0
LINE
  5
36C7
330
1F
100
AcDbEntity
  8
AM_11
 48
0.5
100
AcDbLine
 10
-12.84953142039847
 20
0.9001284637182243
 30
0.0
 11
-11.26269909865925
 21
0.9000006023848914
 31
0.0
  0
LINE
  5
36C8
330
1F
100
AcDbEntity
  8
AM_0
 48
0.5
100
AcDbLine
 10
-11.36714381221261
 20
-0.8999993976151037
 30
0.0
 11
-8.472638673091601
 21
-0.8999993976151955
 31
0.0
  0
LINE
  5
36C9
330
1F
100
AcDbEntity
  8
AM_0
100
AcDbLine
 10
-11.26269909865925
 20
0.9000006023848914
 30
0.0
 11
-8.116440705704446
 21
0.9001284637180962
 31
0.0
  0
LINE
  5
36CA
330
1F
100
AcDbEntity
  8
AM_11
 48
0.5
100
AcDbLine
 10
-3.068033602538404
 20
0.9000006023846182
 30
0.0
 11
-1.066662653958328
 21
0.9000006023845212
 31
0.0
  0
LINE
  5
36CB
330
1F
100
AcDbEntity
  8
AM_11
 48
0.5
100
AcDbLine
 10
-3.773456481222552
 20
-0.8999993976153879
 30
0.0
 11
-0.9999961853027276
 21
-0.8999993976155693
 31
0.0
  0
SPLINE
  5
36CC
330
1F
100
AcDbEntity
  8
AM_0
 48
0.5
100
AcDbSpline
210
0.0
220
0.0
230
1.0
 70
     8
 71
     3
 72
    21
 73
    17
 74
     0
 42
0.0000000001
 43
0.0000000001
 40
11.52779699818346
 40
11.52779699818346
 40
11.52779699818346
 40
11.52779699818346
 40
12.0033633515982
 40
13.08720139956839
 40
14.16337181880432
 40
15.23152222380919
 40
16.29148850140128
 40
17.34331105512262
 40
18.38723020264746
 40
19.42369128463655
 40
20.45333379090873
 40
21.47697865721768
 40
22.49561244472435
 40
23.5103574802404
 40
24.52244778960836
 40
25.53320666051913
 40
25.53320666051913
 40
25.53320666051913
 40
25.53320666051913
 10
-1.431838240123744
 20
0.396508318689987
 30
0.0
 10
-1.500353270101303
 20
0.4525988355315324
 30
0.0
 10
-1.556648050494134
 20
0.481667865620095
 30
0.0
 10
-1.652242454886116
 20
0.5293477621704512
 30
0.0
 10
-1.770167489492336
 20
0.5849030030277551
 30
0.0
 10
-1.888102416137894
 20
0.6368589098294665
 30
0.0
 10
-2.006048687478539
 20
0.6848921443747412
 30
0.0
 10
-2.124006143800943
 20
0.7287081650646688
 30
0.0
 10
-2.241975632368762
 20
0.7680335603889091
 30
0.0
 10
-2.359956736862244
 20
0.8026249516070938
 30
0.0
 10
-2.477948996387572
 20
0.8322703182400388
 30
0.0
 10
-2.595951754373273
 20
0.8567731570470732
 30
0.0
 10
-2.71396317474382
 20
0.8760213250856843
 30
0.0
 10
-2.831981956893588
 20
0.8897533844782511
 30
0.0
 10
-2.950006185022115
 20
0.8983946585875109
 30
0.0
 10
-3.028708397287021
 20
0.8994655227330246
 30
0.0
 10
-3.068033602538404
 20
0.9000006023846182
 30
0.0
  0
SPLINE
  5
36CD
330
1F
100
AcDbEntity
  8
AM_0
 48
0.5
100
AcDbSpline
210
0.0
220
0.0
230
1.0
 70
     8
 71
     3
 72
    10
 73
     6
 74
     0
 42
0.0000000001
 43
0.0000000001
 40
0.0
 40
0.0
 40
0.0
 40
0.0
 40
2.69986029516136
 40
4.147722969032201
 40
6.285750005020438
 40
6.285750005020438
 40
6.285750005020438
 40
6.285750005020438
 10
-1.431838240123744
 20
0.396508318689987
 30
0.0
 10
-1.164760260700665
 20
0.0179654476924208
 30
0.0
 10
-0.9767207013659255
 20
-0.1104919076433775
 30
0.0
 10
-0.5320324033479034
 20
-0.0483034515423159
 30
0.0
 10
-0.6157801444213089
 20
0.1611554973636524
 30
0.0
 10
-0.6711153008601622
 20
0.2888271778838296
 30
0.0
  0
SPLINE
  5
36CE
330
1F
100
AcDbEntity
  8
AM_0
 48
0.5
100
AcDbSpline
210
0.0
220
0.0
230
1.0
 70
     8
 71
     3
 72
    15
 73
    11
 74
     0
 42
0.0000000001
 43
0.0000000001
 40
2.283022377999152
 40
2.283022377999152
 40
2.283022377999152
 40
2.283022377999152
 40
3.037578959561199
 40
4.056212747067873
 40
5.079857613375832
 40
6.109500119648989
 40
7.14596120163808
 40
8.18989512056258
 40
9.241717674284874
 40
9.693948937866434
 40
9.693948937866434
 40
9.693948937866434
 40
9.693948937866434
 10
-1.066662653958328
 20
0.9000006023845212
 30
0.0
 10
-1.14732675062488
 20
0.8907995339744013
 30
0.0
 10
-1.208883131025144
 20
0.8743830727871136
 30
0.0
 10
-1.316850415836662
 20
0.85677320798739
 30
0.0
 10
-1.434853108364268
 20
0.8322701267543218
 30
0.0
 10
-1.552845614360012
 20
0.8026256727618818
 30
0.0
 10
-1.670826350166159
 20
0.7680306771641832
 30
0.0
 10
-1.788799893908843
 20
0.7287180423811892
 30
0.0
 10
-1.884031214728794
 20
0.693303301000266
 30
0.0
 10
-1.939956629829433
 20
0.6711639947745381
 30
0.0
 10
-1.956742439007032
 20
0.6643873013458635
 30
0.0
  0
SPLINE
  5
36CF
330
1F
100
AcDbEntity
  8
AM_0
 48
0.5
100
AcDbSpline
210
0.0
220
0.0
230
1.0
 70
     8
 71
     3
 72
    26
 73
    22
 74
     0
 42
0.0000000001
 43
0.0000000001
 40
0.0
 40
0.0
 40
0.0
 40
0.0
 40
0.2526859211241313
 40
0.5057083941171959
 40
0.7593947393741639
 40
1.01405318625086
 40
1.26996425091637
 40
1.527375060172565
 40
1.786490330669834
 40
2.047470117551047
 40
2.310425755981314
 40
2.575417325379407
 40
2.842456731169063
 40
3.111495753801943
 40
3.382458822635121
 40
3.655202026904655
 40
3.929554512223505
 40
4.205306020962704
 40
4.482215236978595
 40
4.76001530984208
 40
5.029821427366006
 40
5.029821427366006
 40
5.029821427366006
 40
5.029821427366006
 10
-10.89320627053018
 20
-0.8999993976151468
 30
0.0
 10
-10.93718773568324
 20
-0.8994639194423157
 30
0.0
 10
-11.02520924481413
 20
-0.8983922498943485
 30
0.0
 10
-11.15720947571002
 20
-0.8897533895103491
 30
0.0
 10
-11.28920407239693
 20
-0.8760198601186354
 30
0.0
 10
-11.42119049846938
 20
-0.8567717894412824
 30
0.0
 10
-11.55316744378812
 20
-0.8322700560016652
 30
0.0
 10
-11.68513227886049
 20
-0.8026235010438817
 30
0.0
 10
-11.81708491589613
 20
-0.7680324281961799
 30
0.0
 10
-11.94902445498096
 20
-0.7287069262135639
 30
0.0
 10
-12.08095058419714
 20
-0.6848910032652884
 30
0.0
 10
-12.21286438930163
 20
-0.6368573733002443
 30
0.0
 10
-12.34476532368674
 20
-0.5849026285006018
 30
0.0
 10
-12.47665488182716
 20
-0.5293454721543535
 30
0.0
 10
-12.60853482717721
 20
-0.470534019001805
 30
0.0
 10
-12.74040544467988
 20
-0.4088250344736865
 30
0.0
 10
-12.87226771736135
 20
-0.34460190236544
 30
0.0
 10
-13.00412406671709
 20
-0.2782608655363099
 30
0.0
 10
-13.13597231367457
 20
-0.2102014570094416
 30
0.0
 10
-13.26646619267959
 20
-0.141590651187566
 30
0.0
 10
-13.35292329721079
 20
-0.0954974305599229
 30
0.0
 10
-13.49999618530272
 20
-0.0114869717659486
 30
0.0
  0
SPLINE
  5
36D0
330
1F
100
AcDbEntity
  8
AM_0
100
AcDbSpline
210
0.0
220
0.0
230
1.0
 70
     8
 71
     3
 72
    13
 73
     9
 74
     0
 42
0.0000000001
 43
0.0000000001
 40
16.03460056234195
 40
16.03460056234195
 40
16.03460056234195
 40
16.03460056234195
 40
16.35212717791071
 40
17.38177067057215
 40
18.41822498539278
 40
19.46214186516937
 40
20.5139635832251
 40
21.34083983469381
 40
21.34083983469381
 40
21.34083983469381
 40
21.34083983469381
 10
-13.23894343839662
 20
-0.8999993976150609
 30
0.0
 10
-13.20157251387916
 20
-0.8970430966171981
 30
0.0
 10
-13.1440932876069
 20
-0.8838127729788196
 30
0.0
 10
-13.04284315049496
 20
-0.8578889590907127
 30
0.0
 10
-12.91172386990168
 20
-0.8193410882801613
 30
0.0
 10
-12.78072640001783
 20
-0.7760581056801234
 30
0.0
 10
-12.65951064623198
 20
-0.7318190127003886
 30
0.0
 10
-12.58217712991447
 20
-0.7013572488509987
 30
0.0
 10
-12.54825137979825
 20
-0.6875882540234298
 30
0.0
  0
SPLINE
  5
36D1
330
1F
100
AcDbEntity
  8
AM_0
 48
0.5
100
AcDbSpline
210
0.0
220
0.0
230
1.0
 70
     8
 71
     3
 72
    22
 73
    18
 74
     0
 42
0.0000000001
 43
0.0000000001
 40
0.0
 40
0.0
 40
0.0
 40
0.0
 40
1.010743684496582
 40
2.022833993863546
 40
3.037578683882831
 40
4.056212471389632
 40
5.079857945358201
 40
6.109499720892564
 40
7.145961650132166
 40
8.189873411961459
 40
9.241710626092514
 40
10.30166235592959
 40
11.36982472628033
 40
12.44598212828784
 40
13.52983440361964
 40
14.62080578343036
 40
14.90544694398022
 40
14.90544694398022
 40
14.90544694398022
 40
14.90544694398022
 10
-11.36714381218861
 20
-0.8999993976151328
 30
0.0
 10
-11.41112528574049
 20
-0.8994640793941616
 30
0.0
 10
-11.49914682984271
 20
-0.8983927297419
 30
0.0
 10
-11.63114692250671
 20
-0.8897514632548958
 30
0.0
 10
-11.76314166172213
 20
-0.8760202446130698
 30
0.0
 10
-11.89512815911759
 20
-0.8567721612246684
 30
0.0
 10
-12.02710474068358
 20
-0.8322681229524706
 30
0.0
 10
-12.15907002960087
 20
-0.8026241312946273
 30
0.0
 10
-12.29102209210963
 20
-0.7680318014428965
 30
0.0
 10
-12.42296183555827
 20
-0.7287057301076355
 30
0.0
 10
-12.55488807163521
 20
-0.6848914627038375
 30
0.0
 10
-12.68680148977401
 20
-0.6368556577983137
 30
0.0
 10
-12.81870294033154
 20
-0.5849039891799172
 30
0.0
 10
-12.95059232423431
 20
-0.5293453073192978
 30
0.0
 10
-13.08247211227457
 20
-0.4705335461742939
 30
0.0
 10
-13.18158898933029
 20
-0.424154109314252
 30
0.0
 10
-13.23682037204505
 20
-0.3976451140319429
 30
0.0
 10
-13.2288471956215
 20
-0.4014967631813412
 30
0.0
  0
SPLINE
  5
36D2
330
1F
100
AcDbEntity
  8
AM_0
100
AcDbSpline
210
0.0
220
0.0
230
1.0
 70
     8
 71
     3
 72
    55
 73
    51
 74
     0
 42
0.0000000001
 43
0.0000000001
 40
0.0
 40
0.0
 40
0.0
 40
0.0
 40
1.010743684496582
 40
2.022833576467832
 40
3.037578957496688
 40
4.056212745003489
 40
5.079857003664532
 40
6.109500240690281
 40
7.145961322679372
 40
8.189895241603872
 40
9.241717795325891
 40
10.30168407291828
 40
11.36983447792315
 40
12.44600489715814
 40
13.52984294512926
 40
14.62081576220742
 40
15.7182257034828
 40
16.82123173843959
 40
17.92886860250316
 40
19.0400688939571
 40
20.15368796660465
 40
21.26852814259644
 40
22.38336992938901
 40
23.49698739941135
 40
24.6081876908653
 40
25.71582455492886
 40
26.81883757994213
 40
27.91624752121713
 40
29.00722033829659
 40
30.09105838626677
 40
31.16722880550176
 40
32.23537921050758
 40
33.29534548809967
 40
34.347168041821
 40
35.39108718934584
 40
36.42754827133493
 40
37.45720575381954
 40
38.48085062012849
 40
39.49948440763516
 40
40.51422944315121
 40
41.52631975251916
 40
42.53706336719636
 40
43.54780698187354
 40
44.55989729124051
 40
45.57464232675757
 40
46.59327611426424
 40
47.6169209805722
 40
48.64656348684535
 40
49.68302456883444
 40
50.58557219878025
 40
50.58557219878025
 40
50.58557219878025
 40
50.58557219878025
 10
-5.986094595292807
 20
-0.899999397615308
 30
0.0
 10
-6.030076060440573
 20
-0.8994639194191396
 30
0.0
 10
-6.11809756956084
 20
-0.8983922498244776
 30
0.0
 10
-6.250097800536297
 20
-0.8897533897913694
 30
0.0
 10
-6.382092396919598
 20
-0.876019859060751
 30
0.0
 10
-6.514078824133266
 20
-0.8567717934162798
 30
0.0
 10
-6.646055765160535
 20
-0.8322700410509778
 30
0.0
 10
-6.778020616391418
 20
-0.8026235573529842
 30
0.0
 10
-6.909973819242511
 20
-0.768032051603392
 30
0.0
 10
-7.041914203555572
 20
-0.7287073456326487
 30
0.0
 10
-7.173840870576122
 20
-0.6848908907498205
 30
0.0
 10
-7.305754477885657
 20
-0.6368577183128439
 30
0.0
 10
-7.437655378775127
 20
-0.5849017946299706
 30
0.0
 10
-7.569545221240638
 20
-0.5293465585238251
 30
0.0
 10
-7.701424609123017
 20
-0.4705334088233425
 30
0.0
 10
-7.833294765305262
 20
-0.4088250520394724
 30
0.0
 10
-7.96515715224524
 20
-0.3446021794541732
 30
0.0
 10
-8.097012927237665
 20
-0.27825973134778
 30
0.0
 10
-8.228863369957869
 20
-0.2102057395839898
 30
0.0
 10
-8.360709891261612
 20
-0.1408590683968999
 30
0.0
 10
-8.492553647568383
 20
-0.0706460326219795
 30
0.0
 10
-8.624396500716249
 20
0.0000004187520832
 30
0.0
 10
-8.756238762000029
 20
0.0706481418062991
 30
0.0
 10
-8.888082960218332
 20
0.1408600841785429
 30
0.0
 10
-9.019929318755776
 20
0.2102069652740595
 30
0.0
 10
-9.151779996563858
 20
0.278261216293219
 30
0.0
 10
-9.283636318557297
 20
0.3446030982215117
 30
0.0
 10
-9.415498913610958
 20
0.4088262965061305
 30
0.0
 10
-9.547369088830867
 20
0.4705346032508916
 30
0.0
 10
-9.679248471914577
 20
0.5293477653195527
 30
0.0
 10
-9.811138314717803
 20
0.584903001506961
 30
0.0
 10
-9.943039218966889
 20
0.6368589127663923
 30
0.0
 10
-10.07495281266149
 20
0.6848921342496598
 30
0.0
 10
-10.20687891270969
 20
0.7287082022337549
 30
0.0
 10
-10.33881848112386
 20
0.7680334232600325
 30
0.0
 10
-10.47077163502717
 20
0.8026256246012851
 30
0.0
 10
-10.60273742853133
 20
0.8322687222593062
 30
0.0
 10
-10.7347148055731
 20
0.856778058434924
 30
0.0
 10
-10.86670127191345
 20
0.8760033079819674
 30
0.0
 10
-10.99869596001062
 20
0.8898202374418207
 30
0.0
 10
-11.13069607906561
 20
0.8981459588008462
 30
0.0
 10
-11.26269909874317
 20
0.9009273068166839
 30
0.0
 10
-11.3947021182265
 20
0.8981459587964991
 30
0.0
 10
-11.5267022378653
 20
0.8898202374593328
 30
0.0
 10
-11.65869692381306
 20
0.8760033079160596
 30
0.0
 10
-11.79068339821202
 20
0.8567780586827062
 30
0.0
 10
-11.92266010154357
 20
0.8322688408146893
 30
0.0
 10
-12.05462537515273
 20
0.8026259276859811
 30
0.0
 10
-12.18057890550912
 20
0.7696036901964119
 30
0.0
 10
-12.26229899040393
 20
0.7454542157388353
 30
0.0
 10
-12.30021234680409
 20
0.7336849987533478
 30
0.0
  0
SPLINE
  5
36D3
330
1F
100
AcDbEntity
  8
AM_0
100
AcDbSpline
210
0.0
220
0.0
230
1.0
 70
     8
 71
     3
 72
    23
 73
    19
 74
     0
 42
0.0000000001
 43
0.0000000001
 40
16.03460024169435
 40
16.03460024169435
 40
16.03460024169435
 40
16.03460024169435
 40
16.35212704903564
 40
17.38177054169784
 40
18.41822485651776
 40
19.46214173629503
 40
20.51396345435107
 40
21.57393551351153
 40
22.64208202342361
 40
23.7182574881101
 40
24.80209208578934
 40
25.89306333925047
 40
26.99048218457928
 40
28.09348763352352
 40
29.20111863782268
 40
30.31232390128032
 40
31.42594612798585
 40
32.5407912310448
 40
32.5407912310486
 40
32.5407912310486
 40
32.5407912310486
 10
-12.84953142039847
 20
0.9001284637182243
 30
0.0
 10
-12.83597001888477
 20
0.897090222207878
 30
0.0
 10
-12.77849084017536
 20
0.8838595355621148
 30
0.0
 10
-12.67724064787038
 20
0.8579360243370816
 30
0.0
 10
-12.54612138377787
 20
0.8193880466422157
 30
0.0
 10
-12.41512390942528
 20
0.7761050929882542
 30
0.0
 10
-12.28424048406738
 20
0.7283376630343405
 30
0.0
 10
-12.15346646241946
 20
0.676352061271833
 30
0.0
 10
-12.0227942860565
 20
0.620445459323426
 30
0.0
 10
-11.89221485546478
 20
0.5609432195890815
 30
0.0
 10
-11.76172075065207
 20
0.4981822997832098
 30
0.0
 10
-11.63130150943282
 20
0.4325278910745408
 30
0.0
 10
-11.50094656278593
 20
0.3643616052523745
 30
0.0
 10
-11.37064722553312
 20
0.2940753698830402
 30
0.0
 10
-11.24039259568708
 20
0.2220778897999068
 30
0.0
 10
-11.11017060891049
 20
0.1487895774651972
 30
0.0
 10
-10.97997066145764
 20
0.074635118803115
 30
0.0
 10
-10.89319401092939
 20
0.0249186089940849
 30
0.0
 10
-10.84978202113737
 20
0.0000463787518308
 30
0.0
  0
SPLINE
  5
36D4
330
1F
100
AcDbEntity
  8
AM_0
100
AcDbSpline
210
0.0
220
0.0
230
1.0
 70
     8
 71
     3
 72
    46
 73
    42
 74
     0
 42
0.0000000001
 43
0.0000000001
 40
0.0
 40
0.0
 40
0.0
 40
0.0
 40
0.5056245176053715
 40
0.759310862862336
 40
1.013969309739036
 40
1.269880374404297
 40
1.527291183660732
 40
1.786406454158005
 40
2.047386241038974
 40
2.310345544571907
 40
2.575337113970003
 40
2.842374715221223
 40
3.111417320030211
 40
3.382376832022752
 40
3.655120036292296
 40
3.929472521611371
 40
4.205224030350333
 40
4.482133246366229
 40
4.759933319229942
 40
5.038338087391601
 40
5.317048131389549
 40
5.595758175387723
 40
5.874162943549382
 40
6.151963016412868
 40
6.428872232428759
 40
6.704623741167953
 40
6.978976226486702
 40
7.251719430756334
 40
7.522680721168324
 40
7.791723325977308
 40
8.058760927228528
 40
8.323752496626548
 40
8.586708135057122
 40
8.84768792193809
 40
9.106803192435362
 40
9.364213819003406
 40
9.620125035580642
 40
9.874787266973068
 40
10.12847352585207
 40
10.38149610319407
 40
10.63418200686337
 40
10.63418200686337
 40
10.63418200686337
 40
10.63418200686337
 10
-5.616583641904255
 20
-0.8999993976153175
 30
0.0
 10
-5.704609451615179
 20
-0.8979491280444943
 30
0.0
 10
-5.836800338723072
 20
-0.8948701793331133
 30
0.0
 10
-6.012580325921969
 20
-0.8759136577501267
 30
0.0
 10
-6.144568171192854
 20
-0.8568004413361977
 30
0.0
 10
-6.276544734644995
 20
-0.8322623181441052
 30
0.0
 10
-6.408509668606941
 20
-0.8026255804858671
 30
0.0
 10
-6.54046229514894
 20
-0.7680319172156249
 30
0.0
 10
-6.672402393270163
 20
-0.7287066840896658
 30
0.0
 10
-6.80432937579058
 20
-0.6848913438607668
 30
0.0
 10
-6.936243506400594
 20
-0.6368576555176606
 30
0.0
 10
-7.068144430291291
 20
-0.5849018116486985
 30
0.0
 10
-7.200034266521577
 20
-0.5293465539090101
 30
0.0
 10
-7.331913656102444
 20
-0.4705334100916775
 30
0.0
 10
-7.463783811787856
 20
-0.4088250516238985
 30
0.0
 10
-7.59564619900219
 20
-0.3446021798396784
 30
0.0
 10
-7.727501973394091
 20
-0.2782597302168983
 30
0.0
 10
-7.859352418252917
 20
-0.2102057437434282
 30
0.0
 10
-7.991198931569257
 20
-0.1408590528291384
 30
0.0
 10
-8.123042717769626
 20
-0.0706460908766942
 30
0.0
 10
-8.254885395667853
 20
0.0000006023704701
 30
0.0
 10
-8.386728073537105
 20
0.0706472957034856
 30
0.0
 10
-8.518571859824353
 20
0.1408602573985037
 30
0.0
 10
-8.650418372823144
 20
0.210206949253569
 30
0.0
 10
-8.782268818859476
 20
0.278260932238058
 30
0.0
 10
-8.914124588885306
 20
0.3446033947976257
 30
0.0
 10
-9.045986992268664
 20
0.4088262186723815
 30
0.0
 10
-9.177857374825242
 20
0.470534888509051
 30
0.0
 10
-9.309737276825787
 20
0.5293474979791533
 30
0.0
 10
-9.441627348327331
 20
0.5849030405871826
 30
0.0
 10
-9.573528269146999
 20
0.6368588999157741
 30
0.0
 10
-9.705441857868743
 20
0.6848921468703349
 30
0.0
 10
-9.837367961386805
 20
0.7287081648854289
 30
0.0
 10
-9.9693075209374
 20
0.7680335586592666
 30
0.0
 10
-10.10126007111213
 20
0.8026249586304452
 30
0.0
 10
-10.2332251018227
 20
0.8322702921104735
 30
0.0
 10
-10.36520250755946
 20
0.8567733745480039
 30
0.0
 10
-10.49718967273043
 20
0.8760211444448568
 30
0.0
 10
-10.62918500388309
 20
0.8897534147533804
 30
0.0
 10
-10.76118512636809
 20
0.8983946059914377
 30
0.0
 10
-10.84920667235084
 20
0.8994655079034622
 30
0.0
 10
-10.89318814532227
 20
0.9000006023848508
 30
0.0
  0
SPLINE
  5
36D5
330
1F
100
AcDbEntity
  8
AM_0
100
AcDbSpline
210
0.0
220
0.0
230
1.0
 70
     8
 71
     3
 72
    22
 73
    18
 74
     0
 42
0.0000000001
 43
0.0000000001
 40
17.17441611292
 40
17.17441611292
 40
17.17441611292
 40
17.17441611292
 40
17.38177636558528
 40
18.41823744757437
 40
19.46215659509824
 40
20.51397914882054
 40
21.57394542641293
 40
22.64209583141747
 40
23.71826625065247
 40
24.80210429862395
 40
25.8930771157021
 40
26.99048705697709
 40
28.09349309193389
 40
29.20112995599786
 40
30.31233024745139
 40
31.42594771747373
 40
32.5407895042663
 40
32.54078950426994
 40
32.54078950426994
 40
32.54078950426994
 10
-8.976454679253786
 20
-0.8082059114993612
 30
0.0
 10
-8.985293602711204
 20
-0.8061224997729542
 30
0.0
 10
-9.038278121621177
 20
-0.7934322112248934
 30
0.0
 10
-9.135342774598493
 20
-0.7679865310081974
 30
0.0
 10
-9.267282324146075
 20
-0.7286611970002475
 30
0.0
 10
-9.399208429330508
 20
-0.6848451596938689
 30
0.0
 10
-9.531122021542708
 20
-0.6368119296582543
 30
0.0
 10
-9.663022926533992
 20
-0.5848560216115373
 30
0.0
 10
-9.794912767851551
 20
-0.5293007811780415
 30
0.0
 10
-9.92679215618242
 20
-0.4704876329905286
 30
0.0
 10
-10.05866231172454
 20
-0.4087792745112867
 30
0.0
 10
-10.19052470079045
 20
-0.3445564072254083
 30
0.0
 10
-10.32238046786611
 20
-0.2782139394859841
 30
0.0
 10
-10.454230940293
 20
-0.2101600213650656
 30
0.0
 10
-10.58607728681081
 20
-0.1408131074265047
 30
0.0
 10
-10.71792146060849
 20
-0.0706011056118578
 30
0.0
 10
-10.80580032351866
 20
-0.0235114053406504
 30
0.0
 10
-10.84976389593008
 20
0.0000463787521505
 30
0.0
  0
SPLINE
  5
36D6
330
1F
100
AcDbEntity
  8
AM_0
100
AcDbSpline
210
0.0
220
0.0
230
1.0
 70
     8
 71
     3
 72
    17
 73
    13
 74
     0
 42
0.0000000001
 43
0.0000000001
 40
1.580019955310467
 40
1.580019955310467
 40
1.580019955310467
 40
1.580019955310467
 40
2.030549285115227
 40
3.082371838836284
 40
4.126290986361125
 40
5.162752068350215
 40
6.192395305374981
 40
7.216039564037012
 40
8.234688489606833
 40
9.249433870634691
 40
10.26152376260694
 40
11.27226744710342
 40
11.27226744710342
 40
11.27226744710342
 40
11.27226744710352
 10
-7.229269818013357
 20
-0.6642258995465941
 30
0.0
 10
-7.247945647412245
 20
-0.6710668807183588
 30
0.0
 10
-7.310329191977189
 20
-0.6934891102524668
 30
0.0
 10
-7.416833373021171
 20
-0.7286591795580102
 30
0.0
 10
-7.54875455688533
 20
-0.7680449915513785
 30
0.0
 10
-7.680712058527897
 20
-0.8026205051624961
 30
0.0
 10
-7.812675606417125
 20
-0.832269608045701
 30
0.0
 10
-7.944653531498377
 20
-0.8567766311947874
 30
0.0
 10
-8.076640574555769
 20
-0.8760017238347385
 30
0.0
 10
-8.208635836183008
 20
-0.8898203009324527
 30
0.0
 10
-8.340636064358671
 20
-0.8981434107023803
 30
0.0
 10
-8.428657574873918
 20
-0.8999994027650741
 30
0.0
 10
-8.472639039441441
 20
-0.8999993976152252
 30
0.0
  0
SPLINE
  5
36D7
330
1F
100
AcDbEntity
  8
AM_0
100
AcDbSpline
210
0.0
220
0.0
230
1.0
 70
     8
 71
     3
 72
    11
 73
     7
 74
     0
 42
0.0000000001
 43
0.0000000001
 40
11.27226913003534
 40
11.27226913003534
 40
11.27226913003534
 40
11.2722691300354
 40
12.28301561507924
 40
13.29510212255852
 40
14.30984805882082
 40
15.18258238371378
 40
15.18258238371378
 40
15.18258238371378
 40
15.18258238371378
 10
-8.472639039441448
 20
-0.8999993976152252
 30
0.0
 10
-8.516453264828138
 20
-0.8955945360769364
 30
0.0
 10
-8.603999073640851
 20
-0.884930558000126
 30
0.0
 10
-8.734865716624115
 20
-0.8634186764904884
 30
0.0
 10
-8.859060468353471
 20
-0.8377250927130404
 30
0.0
 10
-8.939382343686355
 20
-0.8179736701732089
 30
0.0
 10
-8.976396951003048
 20
-0.8082170129924779
 30
0.0
  0
SPLINE
  5
36D8
330
1F
100
AcDbEntity
  8
AM_0
100
AcDbSpline
210
0.0
220
0.0
230
1.0
 70
     8
 71
     3
 72
    55
 73
    51
 74
     0
 42
0.0000000001
 43
0.0000000001
 40
0.0
 40
0.0
 40
0.0
 40
0.0
 40
1.010743684496582
 40
2.022833576467832
 40
3.037578957496688
 40
4.056212745003489
 40
5.079857003664532
 40
6.109500240690281
 40
7.145961322679372
 40
8.189895241603872
 40
9.241717795325891
 40
10.30168407291828
 40
11.36983447792315
 40
12.44600489715814
 40
13.52984294512926
 40
14.62081576220742
 40
15.7182257034828
 40
16.82123173843959
 40
17.92886860250316
 40
19.0400688939571
 40
20.15368796660465
 40
21.26852814259644
 40
22.38336992938901
 40
23.49698739941135
 40
24.6081876908653
 40
25.71582455492886
 40
26.81883757994213
 40
27.91624752121713
 40
29.00722033829659
 40
30.09105838626677
 40
31.16722880550176
 40
32.23537921050758
 40
33.29534548809967
 40
34.347168041821
 40
35.39108718934584
 40
36.42754827133493
 40
37.45720575381954
 40
38.48085062012849
 40
39.49948440763516
 40
40.51422944315121
 40
41.52631975251916
 40
42.53706336719636
 40
43.54780698187354
 40
44.55989729124051
 40
45.57464232675757
 40
46.59327611426424
 40
47.6169209805722
 40
48.64656348684535
 40
49.68302456883444
 40
50.58557219878025
 40
50.58557219878025
 40
50.58557219878025
 40
50.58557219878025
 10
-1.286912403423747
 20
-0.8999993976154481
 30
0.0
 10
-1.33089386857152
 20
-0.8994639194192796
 30
0.0
 10
-1.41891537769178
 20
-0.8983922498246139
 30
0.0
 10
-1.550915608667241
 20
-0.8897533897915094
 30
0.0
 10
-1.682910205050541
 20
-0.876019859060891
 30
0.0
 10
-1.81489663226421
 20
-0.85677179341642
 30
0.0
 10
-1.946873573291471
 20
-0.8322700410511139
 30
0.0
 10
-2.078838424522361
 20
-0.8026235573531206
 30
0.0
 10
-2.210791627373454
 20
-0.7680320516035282
 30
0.0
 10
-2.342732011686516
 20
-0.7287073456327846
 30
0.0
 10
-2.47465867870706
 20
-0.6848908907499607
 30
0.0
 10
-2.606572286016595
 20
-0.6368577183129843
 30
0.0
 10
-2.738473186906063
 20
-0.5849017946301026
 30
0.0
 10
-2.870363029371575
 20
-0.5293465585239612
 30
0.0
 10
-3.002242417253953
 20
-0.4705334088234826
 30
0.0
 10
-3.134112573436195
 20
-0.4088250520396087
 30
0.0
 10
-3.265974960376176
 20
-0.3446021794543093
 30
0.0
 10
-3.397830735368611
 20
-0.2782597313479162
 30
0.0
 10
-3.529681178088811
 20
-0.21020573958413
 30
0.0
 10
-3.661527699392546
 20
-0.1408590683970401
 30
0.0
 10
-3.793371455699324
 20
-0.0706460326221157
 30
0.0
 10
-3.92521430884719
 20
0.000000418751947
 30
0.0
 10
-4.057056570130966
 20
0.0706481418061589
 30
0.0
 10
-4.188900768349272
 20
0.1408600841784028
 30
0.0
 10
-4.320747126886713
 20
0.2102069652739193
 30
0.0
 10
-4.452597804694791
 20
0.2782612162930828
 30
0.0
 10
-4.584454126688233
 20
0.3446030982213755
 30
0.0
 10
-4.716316721741898
 20
0.4088262965059944
 30
0.0
 10
-4.8481868969618
 20
0.4705346032507515
 30
0.0
 10
-4.98006628004551
 20
0.5293477653194126
 30
0.0
 10
-5.111956122848735
 20
0.584903001506825
 30
0.0
 10
-5.243857027097836
 20
0.636858912766252
 30
0.0
 10
-5.375770620792445
 20
0.6848921342495198
 30
0.0
 10
-5.507696720840637
 20
0.7287082022336147
 30
0.0
 10
-5.639636289254815
 20
0.7680334232598922
 30
0.0
 10
-5.771589443158116
 20
0.8026256246011492
 30
0.0
 10
-5.903555236662277
 20
0.832268722259166
 30
0.0
 10
-6.035532613704055
 20
0.8567780584347836
 30
0.0
 10
-6.167519080044402
 20
0.8760033079818274
 30
0.0
 10
-6.299513768141564
 20
0.8898202374416845
 30
0.0
 10
-6.431513887196557
 20
0.898145958800714
 30
0.0
 10
-6.563516906874116
 20
0.9009273068165478
 30
0.0
 10
-6.695519926357451
 20
0.8981459587963625
 30
0.0
 10
-6.827520045996247
 20
0.8898202374591926
 30
0.0
 10
-6.959514731944007
 20
0.8760033079159235
 30
0.0
 10
-7.091501206342971
 20
0.8567780586825699
 30
0.0
 10
-7.223477909674516
 20
0.8322688408145491
 30
0.0
 10
-7.355443183283671
 20
0.8026259276858411
 30
0.0
 10
-7.481396713640068
 20
0.7696036901962716
 30
0.0
 10
-7.563116798534874
 20
0.745454215738695
 30
0.0
 10
-7.601030154935028
 20
0.7336849987532114
 30
0.0
  0
SPLINE
  5
36D9
330
1F
100
AcDbEntity
  8
AM_0
100
AcDbSpline
210
0.0
220
0.0
230
1.0
 70
     8
 71
     3
 72
    46
 73
    42
 74
     0
 42
0.0000000001
 43
0.0000000001
 40
0.0
 40
0.0
 40
0.0
 40
0.0
 40
0.5056245176053715
 40
0.759310862862336
 40
1.013969309739036
 40
1.269880374404297
 40
1.527291183660732
 40
1.786406454158005
 40
2.047386241038974
 40
2.310345544571907
 40
2.575337113970003
 40
2.842374715221223
 40
3.111417320030211
 40
3.382376832022752
 40
3.655120036292296
 40
3.929472521611371
 40
4.205224030350333
 40
4.482133246366229
 40
4.759933319229942
 40
5.038338087391601
 40
5.317048131389549
 40
5.595758175387723
 40
5.874162943549383
 40
6.151963016412869
 40
6.428872232428759
 40
6.704623741167955
 40
6.978976226486705
 40
7.251719430756336
 40
7.522680721168327
 40
7.791723325977311
 40
8.058760927228529
 40
8.32375249662655
 40
8.586708135057122
 40
8.84768792193809
 40
9.106803192435362
 40
9.364213819003406
 40
9.620125035580644
 40
9.87478726697307
 40
10.12847352585208
 40
10.38149610319407
 40
10.63418200686337
 40
10.63418200686337
 40
10.63418200686337
 40
10.63418200686337
 10
-0.9999961853027116
 20
-0.8999993976155053
 30
0.0
 10
-1.005427259746115
 20
-0.8979491280446342
 30
0.0
 10
-1.137618146854011
 20
-0.8948701793332498
 30
0.0
 10
-1.313398134052908
 20
-0.875913657750263
 30
0.0
 10
-1.445385979323793
 20
-0.8568004413363377
 30
0.0
 10
-1.577362542775938
 20
-0.8322623181442455
 30
0.0
 10
-1.709327476737881
 20
-0.8026255804860035
 30
0.0
 10
-1.841280103279879
 20
-0.7680319172157608
 30
0.0
 10
-1.973220201401106
 20
-0.728706684089802
 30
0.0
 10
-2.105147183921525
 20
-0.6848913438609033
 30
0.0
 10
-2.237061314531531
 20
-0.6368576555177965
 30
0.0
 10
-2.368962238422224
 20
-0.5849018116488347
 30
0.0
 10
-2.500852074652518
 20
-0.5293465539091463
 30
0.0
 10
-2.632731464233381
 20
-0.4705334100918176
 30
0.0
 10
-2.764601619918793
 20
-0.4088250516240387
 30
0.0
 10
-2.896464007133129
 20
-0.3446021798398146
 30
0.0
 10
-3.028319781525031
 20
-0.2782597302170344
 30
0.0
 10
-3.160170226383858
 20
-0.2102057437435643
 30
0.0
 10
-3.292016739700201
 20
-0.1408590528292746
 30
0.0
 10
-3.423860525900567
 20
-0.0706460908768343
 30
0.0
 10
-3.555703203798791
 20
0.0000006023703379
 30
0.0
 10
-3.687545881668046
 20
0.0706472957033494
 30
0.0
 10
-3.819389667955293
 20
0.1408602573983676
 30
0.0
 10
-3.951236180954081
 20
0.2102069492534328
 30
0.0
 10
-4.083086626990409
 20
0.2782609322379217
 30
0.0
 10
-4.214942397016249
 20
0.3446033947974856
 30
0.0
 10
-4.346804800399593
 20
0.4088262186722414
 30
0.0
 10
-4.478675182956178
 20
0.470534888508915
 30
0.0
 10
-4.610555084956726
 20
0.5293474979790211
 30
0.0
 10
-4.742445156458267
 20
0.5849030405870503
 30
0.0
 10
-4.874346077277938
 20
0.6368588999156338
 30
0.0
 10
-5.006259665999682
 20
0.6848921468701947
 30
0.0
 10
-5.138185769517747
 20
0.7287081648852926
 30
0.0
 10
-5.270125329068345
 20
0.7680335586591306
 30
0.0
 10
-5.40207787924309
 20
0.8026249586303048
 30
0.0
 10
-5.53404290995365
 20
0.8322702921103413
 30
0.0
 10
-5.666020315690398
 20
0.8567733745478678
 30
0.0
 10
-5.798007480861381
 20
0.8760211444447165
 30
0.0
 10
-5.930002812014044
 20
0.8897534147532402
 30
0.0
 10
-6.06200293449904
 20
0.8983946059913016
 30
0.0
 10
-6.150024480481795
 20
0.8994655079033259
 30
0.0
 10
-6.194005953453216
 20
0.9000006023847145
 30
0.0
  0
SPLINE
  5
36DA
330
1F
100
AcDbEntity
  8
AM_0
100
AcDbSpline
210
0.0
220
0.0
230
1.0
 70
     8
 71
     3
 72
    23
 73
    19
 74
     0
 42
0.0000000001
 43
0.0000000001
 40
16.03460024169435
 40
16.03460024169435
 40
16.03460024169435
 40
16.03460024169435
 40
16.35212704903564
 40
17.38177054169784
 40
18.41822485651776
 40
19.46214173629503
 40
20.51396345435107
 40
21.57393551351153
 40
22.64208202342361
 40
23.7182574881101
 40
24.80209208578934
 40
25.89306333925047
 40
26.99048218457928
 40
28.09348763352352
 40
29.20111863782268
 40
30.31232390128032
 40
31.42594612798585
 40
32.5407912310448
 40
32.5407912310486
 40
32.5407912310486
 40
32.5407912310486
 10
-8.150331103321542
 20
0.900128463718088
 30
0.0
 10
-8.136769701807844
 20
0.897090222207742
 30
0.0
 10
-8.079290523098423
 20
0.8838595355619787
 30
0.0
 10
-7.97804033079345
 20
0.8579360243369455
 30
0.0
 10
-7.846921066700946
 20
0.8193880466420797
 30
0.0
 10
-7.715923592348349
 20
0.776105092988118
 30
0.0
 10
-7.585040166990449
 20
0.7283376630342002
 30
0.0
 10
-7.454266145342534
 20
0.6763520612716969
 30
0.0
 10
-7.323593968979563
 20
0.6204454593232898
 30
0.0
 10
-7.193014538387839
 20
0.5609432195889412
 30
0.0
 10
-7.062520433575135
 20
0.4981822997830737
 30
0.0
 10
-6.932101192355877
 20
0.4325278910744087
 30
0.0
 10
-6.801746245708994
 20
0.3643616052522343
 30
0.0
 10
-6.67144690845618
 20
0.2940753698829041
 30
0.0
 10
-6.541192278610146
 20
0.2220778897997706
 30
0.0
 10
-6.410970291833563
 20
0.1487895774650611
 30
0.0
 10
-6.280770344380719
 20
0.0746351188029828
 30
0.0
 10
-6.193993693852468
 20
0.0249186089939487
 30
0.0
 10
-6.150581704060441
 20
0.0000463787516906
 30
0.0
  0
SPLINE
  5
36DB
330
1F
100
AcDbEntity
  8
AM_0
100
AcDbSpline
210
0.0
220
0.0
230
1.0
 70
     8
 71
     3
 72
    22
 73
    18
 74
     0
 42
0.0000000001
 43
0.0000000001
 40
17.17441611292
 40
17.17441611292
 40
17.17441611292
 40
17.17441611292
 40
17.38177636558528
 40
18.41823744757437
 40
19.46215659509824
 40
20.51397914882054
 40
21.57394542641293
 40
22.64209583141747
 40
23.71826625065247
 40
24.80210429862395
 40
25.8930771157021
 40
26.99048705697709
 40
28.09349309193389
 40
29.20112995599786
 40
30.31233024745139
 40
31.42594771747373
 40
32.5407895042663
 40
32.54078950426994
 40
32.54078950426994
 40
32.54078950426994
 10
-4.277272487384722
 20
-0.8082059114995015
 30
0.0
 10
-4.28611141084214
 20
-0.8061224997730905
 30
0.0
 10
-4.339095929752113
 20
-0.7934322112250296
 30
0.0
 10
-4.436160582729433
 20
-0.7679865310083374
 30
0.0
 10
-4.568100132277011
 20
-0.7286611970003877
 30
0.0
 10
-4.700026237461448
 20
-0.684845159694009
 30
0.0
 10
-4.831939829673648
 20
-0.6368119296583946
 30
0.0
 10
-4.963840734664935
 20
-0.5848560216116776
 30
0.0
 10
-5.095730575982494
 20
-0.5293007811781776
 30
0.0
 10
-5.227609964313363
 20
-0.4704876329906648
 30
0.0
 10
-5.359480119855491
 20
-0.4087792745114269
 30
0.0
 10
-5.491342508921396
 20
-0.3445564072255486
 30
0.0
 10
-5.623198275997055
 20
-0.2782139394861161
 30
0.0
 10
-5.755048748423948
 20
-0.2101600213652058
 30
0.0
 10
-5.886895094941755
 20
-0.1408131074266409
 30
0.0
 10
-6.018739268739433
 20
-0.070601105611998
 30
0.0
 10
-6.106618131649606
 20
-0.0235114053407906
 30
0.0
 10
-6.150581704061024
 20
0.0000463787520183
 30
0.0
  0
SPLINE
  5
36DC
330
1F
100
AcDbEntity
  8
AM_0
100
AcDbSpline
210
0.0
220
0.0
230
1.0
 70
     8
 71
     3
 72
    11
 73
     7
 74
     0
 42
0.0000000001
 43
0.0000000001
 40
11.27226913003534
 40
11.27226913003534
 40
11.27226913003534
 40
11.2722691300354
 40
12.28301561507924
 40
13.29510212255852
 40
14.30984805882082
 40
15.18258238371378
 40
15.18258238371378
 40
15.18258238371378
 40
15.18258238371378
 10
-3.773456847572393
 20
-0.8999993976153655
 30
0.0
 10
-3.817271072959075
 20
-0.8955945360770725
 30
0.0
 10
-3.904816881771795
 20
-0.8849305580002663
 30
0.0
 10
-4.035683524755056
 20
-0.8634186764906244
 30
0.0
 10
-4.159878276484415
 20
-0.8377250927131766
 30
0.0
 10
-4.240200151817289
 20
-0.817973670173345
 30
0.0
 10
-4.277214759133991
 20
-0.8082170129926183
 30
0.0
  0
SPLINE
  5
36DD
330
1F
100
AcDbEntity
  8
AM_0
100
AcDbSpline
210
0.0
220
0.0
230
1.0
 70
     8
 71
     3
 72
    17
 73
    13
 74
     0
 42
0.0000000001
 43
0.0000000001
 40
1.580019955310467
 40
1.580019955310467
 40
1.580019955310467
 40
1.580019955310467
 40
2.030549285115227
 40
3.082371838836284
 40
4.126290986361125
 40
5.162752068350215
 40
6.192395305374981
 40
7.216039564037012
 40
8.234688489606833
 40
9.249433870634691
 40
10.26152376260694
 40
11.27226744710342
 40
11.27226744710342
 40
11.27226744710342
 40
11.27226744710352
 10
-2.530087626144299
 20
-0.6642258995467304
 30
0.0
 10
-2.548763455543186
 20
-0.671066880718495
 30
0.0
 10
-2.611147000108127
 20
-0.6934891102526031
 30
0.0
 10
-2.717651181152112
 20
-0.7286591795581505
 30
0.0
 10
-2.849572365016273
 20
-0.7680449915515145
 30
0.0
 10
-2.98152986665884
 20
-0.8026205051626323
 30
0.0
 10
-3.113493414548061
 20
-0.8322696080458415
 30
0.0
 10
-3.245471339629324
 20
-0.8567766311949275
 30
0.0
 10
-3.377458382686713
 20
-0.8760017238348748
 30
0.0
 10
-3.509453644313953
 20
-0.889820300932593
 30
0.0
 10
-3.641453872489615
 20
-0.8981434107025203
 30
0.0
 10
-3.729475383004863
 20
-0.8999994027652142
 30
0.0
 10
-3.773456847572385
 20
-0.8999993976153655
 30
0.0
  0
ELLIPSE
  5
36DE
330
1F
100
AcDbEntity
  8
AM_0
 48
0.5
100
AcDbEllipse
 10
-0.0692548900794364
 20
0.7067930239342295
 30
0.0
 11
-0.2374689308127414
 21
1.672548645337776
 31
0.0
210
0.0
220
0.0
230
0.9999999999999998
 40
0.8263351507678263
 41
1.639318060265317
 42
2.157601220674655
  0
ELLIPSE
  5
36DF
330
1F
100
AcDbEntity
  8
AM_0
 48
0.5
100
AcDbEllipse
 10
0.1059531022517536
 20
-0.5776808241247272
 30
0.0
 11
-1.21316184520402
 21
0.079985563829117
 31
0.0
210
0.0
220
0.0
230
1.0
 40
0.7121482592427617
 41
-0.1343356947850447
 42
0.4729274020220431
  0
ELLIPSE
  5
36E0
330
1F
100
AcDbEntity
  8
AM_0
 48
0.5
100
AcDbEllipse
 10
-0.4456201947973652
 20
-0.2345523924229818
 30
0.0
 11
-0.0324724375890663
 21
0.1471683944747823
 31
0.0
210
0.0
220
0.0
230
0.9999999999999998
 40
0.5615726849015528
 41
1.770515056986494
 42
4.905856946698468
  0
ELLIPSE
  5
36E1
330
1F
100
AcDbEntity
  8
AM_0
 48
0.5
100
AcDbEllipse
 10
-0.4456201947973652
 20
-0.2345523924229818
 30
0.0
 11
-0.1497325994503363
 21
0.0706262805656348
 31
0.0
210
0.0
220
0.0
230
0.9999999999999998
 40
0.4653821032746449
 41
4.41888784436996
 42
7.562328185699472
  0
ELLIPSE
  5
36E2
330
1F
100
AcDbEntity
  8
AM_0
 48
0.5
100
AcDbEllipse
 10
-1.766376464664903
 20
1.510526838839256
 30
0.0
 11
-2.12175217031034
 21
1.108749564766685
 31
0.0
210
0.0
220
0.0
230
0.9999999999999998
 40
0.6719201138686313
 41
2.578003573149632
 42
2.811964960297894
  0
ELLIPSE
  5
36E3
330
1F
100
AcDbEntity
  8
AM_0
 48
0.5
100
AcDbEllipse
 10
-1.297023709316151
 20
3.15264021349415
 30
0.0
 11
0.0000000000000365
 21
3.543108809385432
 31
0.0
210
0.0
220
0.0
230
1.0
 40
0.8888888888888931
 41
3.207803435534975
 42
3.39083517910347
  0
ELLIPSE
  5
36E4
330
1F
100
AcDbEntity
  8
AM_0
 48
0.5
100
AcDbEllipse
 10
-13.23894335644264
 20
-0.5999993976150781
 30
0.0
 11
-0.0000000000000422
 21
0.2999999999999977
 31
0.0
210
0.0
220
0.0
230
1.0
 40
0.8702311333890355
 41
1.582043101583908
 42
3.141592339673087
  0
ELLIPSE
  5
36E5
330
1F
100
AcDbEntity
  8
AM_0
 48
0.5
100
AcDbEllipse
 10
-13.30425849467062
 20
-0.6091397937332277
 30
0.0
 11
-0.0000000000000322
 21
0.2249999999999962
 31
0.0
210
0.0
220
0.0
230
1.0
 40
0.8702311333890621
 41
-0.3953601559017323
 42
1.545164924684517
  0
VIEWPORT
  5
110
330
101
100
AcDbEntity
 67
     1
  8
0
100
AcDbViewport
 10
420.5
 20
297.0
 30
0.0
 40
948.9782706766916
 41
628.452
 68
     1
 69
     1
1001
ACAD
1000
MVIEW
1002
{
1070
    16
1010
0.0
1020
0.0
1030
0.0
1010
0.0
1020
0.0
1030
1.0
1040
0.0
1040
628.452
1040
420.5
1040
297.0
1040
50.0
1040
0.0
1040
0.0
1070
     0
1070
   100
1070
     1
1070
     1
1070
     0
1070
     0
1070
     0
1070
     0
1040
0.0
1040
0.0
1040
0.0
1040
10.0
1040
10.0
1040
10.0
1040
10.0
1070
     0
1002
{
1002
}
1002
}
  0
ENDSEC
  0
SECTION
  2
OBJECTS
  0
DICTIONARY
  5
C
330
0
100
AcDbDictionary
  3
ACAD_GROUP
350
D
  3
ACAD_LAYOUT
350
1A
  3
ACAD_MLINESTYLE
350
17
  3
ACAD_PLOTSETTINGS
350
19
  3
ACAD_PLOTSTYLENAME
350
E
  3
ACDBVARIABLEDICTIONARY
350
34
  3
ACMDICTIONARY
350
43
  3
AMG
350
2B
  3
AMGSNAPSETTINGS
350
6E
  3
DWGPROPS
350
37A0
  3
ACDBHEADERROUNDTRIPXREC
350
37AE
  0
DICTIONARY
  5
74
330
1F
100
AcDbDictionary
280
     1
  3
ACAD_INDEX
360
37A2
  3
ACAD_LAYOUTSELFREF
360
37D1
  0
DICTIONARY
  5
37D6
330
101
100
AcDbDictionary
280
     1
  3
ACAD_LAYOUTSELFREF
360
37D7
  0
DICTIONARY
  5
D
102
{ACAD_REACTORS
330
C
102
}
330
C
100
AcDbDictionary
  0
DICTIONARY
  5
1A
102
{ACAD_REACTORS
330
C
102
}
330
C
100
AcDbDictionary
  0
DICTIONARY
  5
17
102
{ACAD_REACTORS
330
C
102
}
330
C
100
AcDbDictionary
  3
STANDARD
350
18
  0
DICTIONARY
  5
19
102
{ACAD_REACTORS
330
C
102
}
330
C
100
AcDbDictionary
  0
ACDBDICTIONARYWDFLT
  5
E
102
{ACAD_REACTORS
330
C
102
}
330
C
100
AcDbDictionary
281
     1
  3
Normal
350
F
100
AcDbDictionaryWithDefault
340
F
  0
DICTIONARY
  5
34
102
{ACAD_REACTORS
330
C
102
}
330
C
100
AcDbDictionary
  3
INDEXCTL
350
35
  3
SORTENTS
350
B5E
  0
DICTIONARY
  5
43
102
{ACAD_REACTORS
330
C
102
}
330
C
100
AcDbDictionary
  3
ACMSTDDICTIONARY
350
260
  0
DICTIONARY
  5
2B
102
{ACAD_REACTORS
330
C
102
}
330
C
100
AcDbDictionary
  3
ACMGSETTINGS
350
2C
  0
DICTIONARY
  5
6E
102
{ACAD_REACTORS
330
C
102
}
330
C
100
AcDbDictionary
  0
XRECORD
  5
37A0
102
{ACAD_REACTORS
330
C
102
}
330
C
100
AcDbXrecord
  1
DWGPROPS COOKIE
  2

  3

  4

  6

  7

  8

  9

300
AmdtFileType=82
301
=
302
=
303
=
304
=
305
=
306
=
307
=
308
=
309
=
 40
0.0760284490740741
 41
2452800.443498622
 42
2452946.591319073
  1

 90
        1
  0
DICTIONARY
  5
37AE
102
{ACAD_REACTORS
330
C
102
}
330
C
100
AcDbDictionary
  3
TSTACKALIGN
350
37AF
  3
TSTACKSIZE
350
37B0
  3
HYPERLINKBASE
350
37B1
  3
STYLESHEET
350
37B2
  3
LAYOUTDICT
350
37B3
  3
PLOTSETDICT
350
37B4
  3
PLOTSTYLNAMDICT
350
37B5
  3
LWETCUNION
350
37B6
  3
INSUNITS
350
37B7
  3
CEPSNTYPE
350
37B8
  3
FINGERPRINTGUID
350
37B9
  3
VERSIONGUID
350
37BA
  3
PSVPSCALE
350
37BB
  3
DIMSTYLEDATA
350
37BC
  3
PUCSORTHOREF
350
37BD
  3
PUCSORTHOVIEW
350
37BE
  3
PUCSBASE
350
37BF
  3
PUCSORGTOP
350
37C0
  3
PUCSORGBOTTOM
350
37C1
  3
PUCSORGLEFT
350
37C2
  3
PUCSORGRIGHT
350
37C3
  3
PUCSORGFRONT
350
37C4
  3
PUCSORGBACK
350
37C5
  3
UCSORTHOREF
350
37C6
  3
UCSORTHOVIEW
350
37C7
  3
UCSBASE
350
37C8
  3
UCSORGTOP
350
37C9
  3
UCSORGBOTTOM
350
37CA
  3
UCSORGLEFT
350
37CB
  3
UCSORGRIGHT
350
37CC
  3
UCSORGFRONT
350
37CD
  3
UCSORGBACK
350
37CE
  0
DICTIONARY
  5
37A2
102
{ACAD_REACTORS
330
74
102
}
330
74
100
AcDbDictionary
  3
*A1
350
37A3
  0
XRECORD
  5
37D1
102
{ACAD_REACTORS
330
74
102
}
330
74
100
AcDbXrecord
340
1F
  0
XRECORD
  5
37D7
102
{ACAD_REACTORS
330
37D6
102
}
330
37D6
100
AcDbXrecord
340
101
  0
MLINESTYLE
  5
18
102
{ACAD_REACTORS
330
17
102
}
330
17
100
AcDbMlineStyle
  2
STANDARD
 70
     0
  3

 62
   256
 51
90.0
 52
90.0
 71
     2
 49
0.5
 62
   256
  6
BYLAYER
 49
-0.5
 62
   256
  6
BYLAYER
  0
ACDBPLACEHOLDER
  5
F
102
{ACAD_REACTORS
330
E
102
}
330
E
100
AcDbPlaceHolder
280
     0
  0
DICTIONARYVAR
  5
35
102
{ACAD_REACTORS
330
34
102
}
330
34
100
DictionaryVariables
280
     0
  1
1
  0
DICTIONARYVAR
  5
B5E
102
{ACAD_REACTORS
330
34
102
}
330
34
100
DictionaryVariables
280
     0
  1
96
  0
DICTIONARY
  5
260
102
{ACAD_REACTORS
330
43
102
}
330
43
100
AcDbDictionary
  0
DICTIONARY
  5
2C
102
{ACAD_REACTORS
330
2B
102
}
330
2B
100
AcDbDictionary
  3
DWGSETTINGS
350
2D
  0
XRECORD
  5
37AF
102
{ACAD_REACTORS
330
37AE
102
}
330
37AE
100
AcDbXrecord
 90
        1
  0
XRECORD
  5
37B0
102
{ACAD_REACTORS
330
37AE
102
}
330
37AE
100
AcDbXrecord
 90
       70
  0
XRECORD
  5
37B1
102
{ACAD_REACTORS
330
37AE
102
}
330
37AE
100
AcDbXrecord
  1

  0
XRECORD
  5
37B2
102
{ACAD_REACTORS
330
37AE
102
}
330
37AE
100
AcDbXrecord
  1
ASAMI.ctb
  0
XRECORD
  5
37B3
102
{ACAD_REACTORS
330
37AE
102
}
330
37AE
100
AcDbXrecord
340
1A
  0
XRECORD
  5
37B4
102
{ACAD_REACTORS
330
37AE
102
}
330
37AE
100
AcDbXrecord
340
19
  0
XRECORD
  5
37B5
102
{ACAD_REACTORS
330
37AE
102
}
330
37AE
100
AcDbXrecord
340
E
  0
XRECORD
  5
37B6
102
{ACAD_REACTORS
330
37AE
102
}
330
37AE
100
AcDbXrecord
 90
    10781
  0
XRECORD
  5
37B7
102
{ACAD_REACTORS
330
37AE
102
}
330
37AE
100
AcDbXrecord
 90
        4
  0
XRECORD
  5
37B8
102
{ACAD_REACTORS
330
37AE
102
}
330
37AE
100
AcDbXrecord
 90
        0
  0
XRECORD
  5
37B9
102
{ACAD_REACTORS
330
37AE
102
}
330
37AE
100
AcDbXrecord
  1
{AFB28963-8C59-40AE-9337-C84526B81ACE}
  0
XRECORD
  5
37BA
102
{ACAD_REACTORS
330
37AE
102
}
330
37AE
100
AcDbXrecord
  1
{8E74525F-523C-4D9C-A738-0F3B12420AA8}
  0
XRECORD
  5
37BB
102
{ACAD_REACTORS
330
37AE
102
}
330
37AE
100
AcDbXrecord
 40
0.0
  0
XRECORD
  5
37BC
102
{ACAD_REACTORS
330
37AE
102
}
330
37AE
100
AcDbXrecord
1000
DSTYLE
1002
{
1070
    79
 70
     2
1070
   341
340
59
1070
   342
340
59
1070
   371
 70
    -1
1070
   372
 70
    -1
1002
}
  0
XRECORD
  5
37BD
102
{ACAD_REACTORS
330
37AE
102
}
330
37AE
100
AcDbXrecord
340
0
  0
XRECORD
  5
37BE
102
{ACAD_REACTORS
330
37AE
102
}
330
37AE
100
AcDbXrecord
 70
     0
  0
XRECORD
  5
37BF
102
{ACAD_REACTORS
330
37AE
102
}
330
37AE
100
AcDbXrecord
340
0
  0
XRECORD
  5
37C0
102
{ACAD_REACTORS
330
37AE
102
}
330
37AE
100
AcDbXrecord
 10
0.0
 20
0.0
 30
0.0
  0
XRECORD
  5
37C1
102
{ACAD_REACTORS
330
37AE
102
}
330
37AE
100
AcDbXrecord
 10
0.0
 20
0.0
 30
0.0
  0
XRECORD
  5
37C2
102
{ACAD_REACTORS
330
37AE
102
}
330
37AE
100
AcDbXrecord
 10
0.0
 20
0.0
 30
0.0
  0
XRECORD
  5
37C3
102
{ACAD_REACTORS
330
37AE
102
}
330
37AE
100
AcDbXrecord
 10
0.0
 20
0.0
 30
0.0
  0
XRECORD
  5
37C4
102
{ACAD_REACTORS
330
37AE
102
}
330
37AE
100
AcDbXrecord
 10
0.0
 20
0.0
 30
0.0
  0
XRECORD
  5
37C5
102
{ACAD_REACTORS
330
37AE
102
}
330
37AE
100
AcDbXrecord
 10
0.0
 20
0.0
 30
0.0
  0
XRECORD
  5
37C6
102
{ACAD_REACTORS
330
37AE
102
}
330
37AE
100
AcDbXrecord
340
0
  0
XRECORD
  5
37C7
102
{ACAD_REACTORS
330
37AE
102
}
330
37AE
100
AcDbXrecord
 70
     0
  0
XRECORD
  5
37C8
102
{ACAD_REACTORS
330
37AE
102
}
330
37AE
100
AcDbXrecord
340
0
  0
XRECORD
  5
37C9
102
{ACAD_REACTORS
330
37AE
102
}
330
37AE
100
AcDbXrecord
 10
0.0
 20
0.0
 30
0.0
  0
XRECORD
  5
37CA
102
{ACAD_REACTORS
330
37AE
102
}
330
37AE
100
AcDbXrecord
 10
0.0
 20
0.0
 30
0.0
  0
XRECORD
  5
37CB
102
{ACAD_REACTORS
330
37AE
102
}
330
37AE
100
AcDbXrecord
 10
0.0
 20
0.0
 30
0.0
  0
XRECORD
  5
37CC
102
{ACAD_REACTORS
330
37AE
102
}
330
37AE
100
AcDbXrecord
 10
0.0
 20
0.0
 30
0.0
  0
XRECORD
  5
37CD
102
{ACAD_REACTORS
330
37AE
102
}
330
37AE
100
AcDbXrecord
 10
0.0
 20
0.0
 30
0.0
  0
XRECORD
  5
37CE
102
{ACAD_REACTORS
330
37AE
102
}
330
37AE
100
AcDbXrecord
 10
0.0
 20
0.0
 30
0.0
  0
LAYER_INDEX
  5
37A3
102
{ACAD_REACTORS
330
37A2
102
}
330
37A2
100
AcDbIndex
 40
2453151.574985521
100
AcDbLayerIndex
  8
0
360
37A4
 90
        0
  8
AM_0
360
37A5
 90
       51
  8
AM_7
360
37A6
 90
        1
  8
AM_11
360
37A7
 90
       27
  8
AM_5
360
37A8
 90
        5
  8
Defpoints
360
37A9
 90
        0
  8
AM_6
360
37AA
 90
        1
  8
ASHADE
360
37AB
 90
        9
  8
AM_CL
360
37AC
 90
        0
  0
XRECORD
  5
2D
102
{ACAD_REACTORS
330
2C
102
}
330
2C
100
AcDbXrecord
  1
VERSION
140
15.0
  1
PRODUCT
  2
AutoCAD Mechanical 2000
  0
IDBUFFER
  5
37A4
330
0
100
AcDbIdBuffer
  0
IDBUFFER
  5
37A5
330
0
100
AcDbIdBuffer
330
36E3
330
36E4
330
36E5
330
C1D
330
C20
330
C2E
330
C30
330
1B5C
330
1B60
330
1C15
330
1C1A
330
1C1E
330
1C85
330
1C86
330
1CF2
330
1CF3
330
1CF4
330
2DA3
330
2DA4
330
336F
330
36BE
330
36BF
330
36C0
330
36C3
330
36C4
330
36C5
330
36C8
330
36C9
330
36CC
330
36CD
330
36CE
330
36CF
330
36D0
330
36D1
330
36D2
330
36D3
330
36D4
330
36D5
330
36D6
330
36D7
330
36D8
330
36D9
330
36DA
330
36DB
330
36DC
330
36DD
330
36DE
330
36DF
330
36E0
330
36E1
330
36E2
  0
IDBUFFER
  5
37A6
330
0
100
AcDbIdBuffer
330
C9F
  0
IDBUFFER
  5
37A7
330
0
100
AcDbIdBuffer
330
2C98
330
3174
330
3175
330
3176
330
3177
330
36C1
330
36C2
330
36C6
330
36C7
330
36CA
330
36CB
330
1450
330
1451
330
1452
330
1453
330
18B8
330
18B9
330
18BA
330
18BB
330
1C22
330
1C23
330
1C24
330
1C25
330
1C26
330
1C27
330
1C28
330
1C29
  0
IDBUFFER
  5
37A8
330
0
100
AcDbIdBuffer
330
CC6
330
DF5
330
1C71
330
1DEF
330
33A9
  0
IDBUFFER
  5
37A9
330
0
100
AcDbIdBuffer
  0
IDBUFFER
  5
37AA
330
0
100
AcDbIdBuffer
330
19BD
  0
IDBUFFER
  5
37AB
330
0
100
AcDbIdBuffer
330
31E3
330
31E4
330
31E5
330
31E6
330
31E7
330
31E8
330
31E9
330
31EA
330
31F1
  0
IDBUFFER
  5
37AC
330
0
100
AcDbIdBuffer
  0
ENDSEC
  0
EOF
