  0
SECTION
  2
HEADER
  9
$ACADVER
  1
AC1014
  9
$ACADMAINTVER
 70
     9
  9
$DWGCODEPAGE
  3
ANSI_932
  9
$INSBASE
 10
0.0
 20
0.0
 30
0.0
  9
$EXTMIN
 10
-79.40000134152341
 20
-24.75000718101108
 30
-0.00000001
  9
$EXTMAX
 10
14.04044543799919
 20
13.66354608949644
 30
0.00000001
  9
$LIMMIN
 10
-82.34037039394099
 20
-37.97145095443895
  9
$LIMMAX
 10
19.32151923811031
 20
24.34159145814783
  9
$ORTHOMODE
 70
     0
  9
$REGENMODE
 70
     1
  9
$FILLMODE
 70
     1
  9
$QTEXTMODE
 70
     0
  9
$MIRRTEXT
 70
     0
  9
$DRAGMODE
 70
     2
  9
$LTSCALE
 40
1.0
  9
$OSMODE
 70
    55
  9
$ATTMODE
 70
     1
  9
$TEXTSIZE
 40
2.5
  9
$TRACEWID
 40
1.0
  9
$TEXTSTYLE
  7
STANDARD
  9
$CLAYER
  8
AM_0
  9
$CELTYPE
  6
BYLAYER
  9
$CECOLOR
 62
   256
  9
$CELTSCALE
 40
1.0
  9
$DELOBJ
 70
     1
  9
$DISPSILH
 70
     0
  9
$DIMSCALE
 40
0.5
  9
$DIMASZ
 40
2.5
  9
$DIMEXO
 40
1.0
  9
$DIMDLI
 40
12.0
  9
$DIMRND
 40
0.0
  9
$DIMDLE
 40
0.0
  9
$DIMEXE
 40
1.0
  9
$DIMTP
 40
0.1
  9
$DIMTM
 40
0.1
  9
$DIMTXT
 40
3.2
  9
$DIMCEN
 40
0.0
  9
$DIMTSZ
 40
0.0
  9
$DIMTOL
 70
     0
  9
$DIMLIM
 70
     0
  9
$DIMTIH
 70
     0
  9
$DIMTOH
 70
     0
  9
$DIMSE1
 70
     0
  9
$DIMSE2
 70
     0
  9
$DIMTAD
 70
     3
  9
$DIMZIN
 70
     8
  9
$DIMBLK
  1
OPEN30
  9
$DIMASO
 70
     1
  9
$DIMSHO
 70
     1
  9
$DIMPOST
  1

  9
$DIMAPOST
  1
"
  9
$DIMALT
 70
     0
  9
$DIMALTD
 70
     2
  9
$DIMALTF
 40
0.0393701
  9
$DIMLFAC
 40
1.0
  9
$DIMTOFL
 70
     1
  9
$DIMTVP
 40
0.0
  9
$DIMTIX
 70
     0
  9
$DIMSOXD
 70
     0
  9
$DIMSAH
 70
     0
  9
$DIMBLK1
  1

  9
$DIMBLK2
  1

  9
$DIMSTYLE
  2
AM_JIS
  9
$DIMCLRD
 70
   256
  9
$DIMCLRE
 70
   256
  9
$DIMCLRT
 70
     2
  9
$DIMTFAC
 40
0.71
  9
$DIMGAP
 40
1.5
  9
$DIMJUST
 70
     0
  9
$DIMSD1
 70
     0
  9
$DIMSD2
 70
     0
  9
$DIMTOLJ
 70
     0
  9
$DIMTZIN
 70
     0
  9
$DIMALTZ
 70
     0
  9
$DIMALTTZ
 70
     0
  9
$DIMFIT
 70
     3
  9
$DIMUPT
 70
     0
  9
$DIMUNIT
 70
     2
  9
$DIMDEC
 70
     3
  9
$DIMTDEC
 70
     3
  9
$DIMALTU
 70
     2
  9
$DIMALTTD
 70
     2
  9
$DIMTXSTY
  7
ASAMI
  9
$DIMAUNIT
 70
     0
  9
$LUNITS
 70
     2
  9
$LUPREC
 70
     2
  9
$SKETCHINC
 40
1.0
  9
$FILLETRAD
 40
2.5
  9
$AUNITS
 70
     0
  9
$AUPREC
 70
     0
  9
$MENU
  1
.
  9
$ELEVATION
 40
0.0
  9
$PELEVATION
 40
0.0
  9
$THICKNESS
 40
0.0
  9
$LIMCHECK
 70
     0
  9
$BLIPMODE
 70
     0
  9
$CHAMFERA
 40
0.25
  9
$CHAMFERB
 40
0.25
  9
$CHAMFERC
 40
20.0
  9
$CHAMFERD
 40
0.0
  9
$SKPOLY
 70
     0
  9
$TDCREATE
 40
2452800.443498622
  9
$TDUPDATE
 40
2453151.575463125
  9
$TDINDWG
 40
0.0463543287
  9
$TDUSRTIMER
 40
0.0463543287
  9
$USRTIMER
 70
     1
  9
$ANGBASE
 50
0.0
  9
$ANGDIR
 70
     0
  9
$PDMODE
 70
     0
  9
$PDSIZE
 40
0.0
  9
$PLINEWID
 40
0.0
  9
$COORDS
 70
     1
  9
$SPLFRAME
 70
     0
  9
$SPLINETYPE
 70
     6
  9
$SPLINESEGS
 70
     8
  9
$ATTDIA
 70
     1
  9
$ATTREQ
 70
     1
  9
$HANDLING
 70
 12289
  9
$HANDSEED
  5
2B35
  9
$SURFTAB1
 70
     6
  9
$SURFTAB2
 70
     6
  9
$SURFTYPE
 70
     6
  9
$SURFU
 70
     6
  9
$SURFV
 70
     6
  9
$UCSNAME
  2

  9
$UCSORG
 10
0.0
 20
0.0
 30
0.0
  9
$UCSXDIR
 10
1.0
 20
0.000000000000002
 30
0.0
  9
$UCSYDIR
 10
-0.000000000000002
 20
1.0
 30
0.0
  9
$PUCSNAME
  2

  9
$PUCSORG
 10
0.0
 20
0.0
 30
0.0
  9
$PUCSXDIR
 10
1.0
 20
0.0
 30
0.0
  9
$PUCSYDIR
 10
0.0
 20
1.0
 30
0.0
  9
$USERI1
 70
     0
  9
$USERI2
 70
     0
  9
$USERI3
 70
     0
  9
$USERI4
 70
     0
  9
$USERI5
 70
     0
  9
$USERR1
 40
0.0
  9
$USERR2
 40
0.0
  9
$USERR3
 40
0.0
  9
$USERR4
 40
0.0
  9
$USERR5
 40
0.0
  9
$WORLDVIEW
 70
     1
  9
$SHADEDGE
 70
     3
  9
$SHADEDIF
 70
    70
  9
$TILEMODE
 70
     1
  9
$MAXACTVP
 70
    64
  9
$PINSBASE
 10
0.0
 20
0.0
 30
0.0
  9
$PLIMCHECK
 70
     0
  9
$PEXTMIN
 10
1.000000000000000E+20
 20
1.000000000000000E+20
 30
1.000000000000000E+20
  9
$PEXTMAX
 10
-1.000000000000000E+20
 20
-1.000000000000000E+20
 30
-1.000000000000000E+20
  9
$PLIMMIN
 10
0.0
 20
0.0
  9
$PLIMMAX
 10
841.0
 20
594.0
  9
$UNITMODE
 70
     0
  9
$VISRETAIN
 70
     1
  9
$PLINEGEN
 70
     0
  9
$PSLTSCALE
 70
     0
  9
$TREEDEPTH
 70
  3020
  9
$PICKSTYLE
 70
     0
  9
$CMLSTYLE
  2
STANDARD
  9
$CMLJUST
 70
     0
  9
$CMLSCALE
 40
20.0
  9
$PROXYGRAPHICS
 70
     1
  9
$MEASUREMENT
 70
     1
  0
ENDSEC
  0
SECTION
  2
CLASSES
  0
CLASS
  1
ACDBDICTIONARYWDFLT
  2
AcDbDictionaryWithDefault
  3
AutoCAD 2000
 90
        0
280
     0
281
     0
  0
CLASS
  1
ACDBPLACEHOLDER
  2
AcDbPlaceHolder
  3
AutoCAD 2000
 90
        0
280
     0
281
     0
  0
CLASS
  1
LAYOUT
  2
AcDbLayout
  3
AutoCAD 2000
 90
        0
280
     0
281
     0
  0
CLASS
  1
AMGSETTINGSOBJ
  2
AmgSettingsObj
  3
"AcadM|Product Description: AutoCAD Mechanical 2000|Company: Autodesk"
 90
        0
280
     0
281
     0
  0
CLASS
  1
ACME_DOCUMENT
  2
AcMeDbDoc
  3
AcMeServices
 90
        0
280
     0
281
     0
  0
CLASS
  1
ACMESCOPE
  2
AcMeScope
  3
AcMeServices
 90
        0
280
     0
281
     0
  0
CLASS
  1
ACMECOMMANDHISTORY
  2
AcMeCommandHistory
  3
AcMeServices
 90
        0
280
     0
281
     0
  0
CLASS
  1
DICTIONARYVAR
  2
AcDbDictionaryVar
  3
AutoCAD 2000
 90
        0
280
     0
281
     0
  0
CLASS
  1
ACIMSYSVARMAN
  2
AcImSysVarManager
  3
AcMeServices
 90
        0
280
     0
281
     0
  0
CLASS
  1
ACIMREALSYSVAR
  2
AcImRealSysVar
  3
AcMeServices
 90
        0
280
     0
281
     0
  0
CLASS
  1
ACIMINTSYSVAR
  2
AcImIntSysVar
  3
AcMeServices
 90
        0
280
     0
281
     0
  0
CLASS
  1
ACMEDRAWINGMAN
  2
AcMeDrawingMan
  3
AcMeServices
 90
        0
280
     0
281
     0
  0
CLASS
  1
ACMEVIEW
  2
AcMeView
  3
AcMeServices
 90
        0
280
     0
281
     0
  0
CLASS
  1
ACDBENTITYCACHE
  2
AcMeEntityCache
  3
AcMeServices
 90
        0
280
     0
281
     0
  0
CLASS
  1
GSMANAGER
  2
AcMeGSManager
  3
AcMeServices
 90
        0
280
     0
281
     0
  0
CLASS
  1
AmdtInternalReactor
  2
AmdtInternalReactor
  3
AcMeServices
 90
        0
280
     0
281
     0
  0
CLASS
  1
ACMESTATEMGR
  2
AcMeStateMgr
  3
AcMeServices
 90
        0
280
     0
281
     0
  0
CLASS
  1
ACME_DATABASE
  2
AcMeDbDatabase
  3
AcMeServices
 90
        0
280
     0
281
     0
  0
CLASS
  1
ACRFINSADJUSTERMGR
  2
AcRfInsAdjusterMgr
  3
AcMeServices
 90
        0
280
     0
281
     0
  0
CLASS
  1
ACMDATADICTIONARY
  2
AcmDataDictionary
  3
"AcmSymBB|Product Description: AutoCAD Mechanical 2000|Company: Autodesk"
 90
        0
280
     0
281
     0
  0
CLASS
  1
ACMDATAENTRYBLOCK
  2
AcmDataEntryBlock
  3
"AcmSymBB|Product Description: AutoCAD Mechanical 2000|Company: Autodesk"
 90
        0
280
     0
281
     0
  0
CLASS
  1
AMGOBJPROPCFG
  2
AmgObjPropCfg
  3
"AmgLay|Product Description: AutoCAD Mechanical 2000|Company: Autodesk"
 90
        1
280
     0
281
     0
  0
CLASS
  1
ACAMGFILTERDAT
  2
AcAmgFilterDat
  3
"AcadM|Product Description: AutoCAD Mechanical 2000|Company: Autodesk"
 90
        0
280
     0
281
     0
  0
CLASS
  1
LAYER_INDEX
  2
AcDbLayerIndex
  3
AutoCAD 2000
 90
        0
280
     0
281
     0
  0
CLASS
  1
IDBUFFER
  2
AcDbIdBuffer
  3
AutoCAD 2000
 90
        0
280
     0
281
     0
  0
CLASS
  1
ACIMSTRSYSVAR
  2
AcImStrSysVar
  3
AcMeServices
 90
        0
280
     0
281
     0
  0
CLASS
  1
ACMSTANDARDJIS
  2
AcmStandardJIS
  3
"AcmSymBB|Product Description: AutoCAD Mechanical 2000|Company: Autodesk"
 90
        0
280
     0
281
     0
  0
CLASS
  1
ACMSURFSTANDARDJIS
  2
AcmSurfTextStdJIS
  3
"AcmSymBB|Product Description: AutoCAD Mechanical 2000|Company: Autodesk"
 90
        0
280
     0
281
     0
  0
CLASS
  1
ACMFCFSTANDARDJIS
  2
AcmFCFStdJIS
  3
"AcmSymBB|Product Description: AutoCAD Mechanical 2000|Company: Autodesk"
 90
        0
280
     0
281
     0
  0
CLASS
  1
ACMWELDSTANDARDJIS
  2
AcmWeldingStdJIS
  3
"AcmSymBB|Product Description: AutoCAD Mechanical 2000|Company: Autodesk"
 90
        0
280
     0
281
     0
  0
CLASS
  1
ACMIDSTANDARDJIS
  2
AcmIdStdJIS
  3
"AcmSymBB|Product Description: AutoCAD Mechanical 2000|Company: Autodesk"
 90
        0
280
     0
281
     0
  0
CLASS
  1
ACMDATUMSTANDARDJIS
  2
AcmDatumStdJIS
  3
"AcmSymBB|Product Description: AutoCAD Mechanical 2000|Company: Autodesk"
 90
        0
280
     0
281
     0
  0
CLASS
  1
ACMBOMSTANDARDJIS
  2
AcmBOMStdJIS
  3
"AcmSymBB|Product Description: AutoCAD Mechanical 2000|Company: Autodesk"
 90
        0
280
     0
281
     0
  0
CLASS
  1
ACMSTANDARDANSI
  2
AcmStandardANSI
  3
"AcmSymBB|Product Description: AutoCAD Mechanical 2000|Company: Autodesk"
 90
        0
280
     0
281
     0
  0
CLASS
  1
ACMSURFSTANDARDANSI
  2
AcmSurfTextStdANSI
  3
"AcmSymBB|Product Description: AutoCAD Mechanical 2000|Company: Autodesk"
 90
        0
280
     0
281
     0
  0
CLASS
  1
ACMFCFSTANDARDANSI
  2
AcmFCFStdANSI
  3
"AcmSymBB|Product Description: AutoCAD Mechanical 2000|Company: Autodesk"
 90
        0
280
     0
281
     0
  0
CLASS
  1
ACMWELDSTANDARDANSI
  2
AcmWeldingStdANSI
  3
"AcmSymBB|Product Description: AutoCAD Mechanical 2000|Company: Autodesk"
 90
        0
280
     0
281
     0
  0
CLASS
  1
ACMIDSTANDARDANSI
  2
AcmIdStdANSI
  3
"AcmSymBB|Product Description: AutoCAD Mechanical 2000|Company: Autodesk"
 90
        0
280
     0
281
     0
  0
CLASS
  1
ACMDATUMSTANDARDANSI
  2
AcmDatumStdANSI
  3
"AcmSymBB|Product Description: AutoCAD Mechanical 2000|Company: Autodesk"
 90
        0
280
     0
281
     0
  0
CLASS
  1
ACMBOMSTANDARDANSI
  2
AcmBOMStdANSI
  3
"AcmSymBB|Product Description: AutoCAD Mechanical 2000|Company: Autodesk"
 90
        0
280
     0
281
     0
  0
CLASS
  1
ACMSTANDARDBSI
  2
AcmStandardBSI
  3
"AcmSymBB|Product Description: AutoCAD Mechanical 2000|Company: Autodesk"
 90
        0
280
     0
281
     0
  0
CLASS
  1
ACMSURFSTANDARDBSI
  2
AcmSurfTextStdBSI
  3
"AcmSymBB|Product Description: AutoCAD Mechanical 2000|Company: Autodesk"
 90
        0
280
     0
281
     0
  0
CLASS
  1
ACMFCFSTANDARDBSI
  2
AcmFCFStdBSI
  3
"AcmSymBB|Product Description: AutoCAD Mechanical 2000|Company: Autodesk"
 90
        0
280
     0
281
     0
  0
CLASS
  1
ACMWELDSTANDARDBSI
  2
AcmWeldingStdBSI
  3
"AcmSymBB|Product Description: AutoCAD Mechanical 2000|Company: Autodesk"
 90
        0
280
     0
281
     0
  0
CLASS
  1
ACMIDSTANDARDBSI
  2
AcmIdStdBSI
  3
"AcmSymBB|Product Description: AutoCAD Mechanical 2000|Company: Autodesk"
 90
        0
280
     0
281
     0
  0
CLASS
  1
ACMDATUMSTANDARDBSI
  2
AcmDatumStdBSI
  3
"AcmSymBB|Product Description: AutoCAD Mechanical 2000|Company: Autodesk"
 90
        0
280
     0
281
     0
  0
CLASS
  1
ACMBOMSTANDARDBSI
  2
AcmBOMStdBSI
  3
"AcmSymBB|Product Description: AutoCAD Mechanical 2000|Company: Autodesk"
 90
        0
280
     0
281
     0
  0
CLASS
  1
LONG_TRANSACTION
  2
AcDbLongTransaction
  3
AutoCAD 2000
 90
        0
280
     0
281
     0
  0
CLASS
  1
LWPOLYLINE
  2
AcDbPolyline
  3
AutoCAD 2000
 90
        0
280
     0
281
     1
  0
CLASS
  1
HATCH
  2
AcDbHatch
  3
AutoCAD 2000
 90
        0
280
     0
281
     1
  0
CLASS
  1
XRECORD
  2
AcDbXrecord
  3
AutoCAD 2000
 90
        0
280
     0
281
     0
  0
ENDSEC
  0
SECTION
  2
TABLES
  0
TABLE
  2
VPORT
  5
8
330
0
100
AcDbSymbolTable
 70
     3
  0
VPORT
  5
2AFF
330
8
100
AcDbSymbolTableRecord
100
AcDbViewportTableRecord
  2
*ACTIVE
 70
     0
 10
0.0
 20
0.0
 11
1.0
 21
1.0
 12
-19.60903273294367
 22
-16.10798281756292
 13
0.0
 23
0.0
 14
2.5
 24
2.5
 15
10.0
 25
10.0
 16
0.0
 26
0.0
 36
1.0
 17
0.0
 27
0.0
 37
0.0
 40
83.89424005704986
 41
1.56570841889117
 42
50.0
 43
0.0
 44
0.0
 50
0.0
 51
0.0
 71
     0
 72
   100
 73
     1
 74
     1
 75
     0
 76
     0
 77
     0
 78
     0
  0
ENDTAB
  0
TABLE
  2
LTYPE
  5
5
330
0
100
AcDbSymbolTable
 70
    10
  0
LTYPE
  5
14
330
5
100
AcDbSymbolTableRecord
100
AcDbLinetypeTableRecord
  2
BYBLOCK
 70
     0
  3

 72
    65
 73
     0
 40
0.0
  0
LTYPE
  5
15
330
5
100
AcDbSymbolTableRecord
100
AcDbLinetypeTableRecord
  2
BYLAYER
 70
     0
  3

 72
    65
 73
     0
 40
0.0
  0
LTYPE
  5
16
330
5
100
AcDbSymbolTableRecord
100
AcDbLinetypeTableRecord
  2
CONTINUOUS
 70
     0
  3
Solid line
 72
    65
 73
     0
 40
0.0
  0
LTYPE
  5
4B
330
5
100
AcDbSymbolTableRecord
100
AcDbLinetypeTableRecord
  2
AM_ISO02W050
 70
     0
  3
__ __ __ __ __ __ __ __ __ __ __ __ __ __ __
 72
    65
 73
     2
 40
7.5
 49
6.0
 74
     0
 49
-1.5
 74
     0
  0
LTYPE
  5
4C
330
5
100
AcDbSymbolTableRecord
100
AcDbLinetypeTableRecord
  2
AM_ISO08W050
 70
     0
  3
____ . ____ . ____ . ____ . ____ . ____ . ____
 72
    65
 73
     4
 40
18.0
 49
12.0
 74
     0
 49
-1.5
 74
     0
 49
3.0
 74
     0
 49
-1.5
 74
     0
  0
LTYPE
  5
4D
330
5
100
AcDbSymbolTableRecord
100
AcDbLinetypeTableRecord
  2
AM_ISO09W050
 70
     0
  3
_____ . . _____ . . _____ . . ____ .. ____
 72
    65
 73
     6
 40
22.5
 49
12.0
 74
     0
 49
-1.5
 74
     0
 49
3.0
 74
     0
 49
-1.5
 74
     0
 49
3.0
 74
     0
 49
-1.5
 74
     0
  0
LTYPE
  5
4E
330
5
100
AcDbSymbolTableRecord
100
AcDbLinetypeTableRecord
  2
AMCONSTR
 70
     0
  3
_______________________
 72
    65
 73
     2
 40
9999.0
 49
9999.0
 74
     0
 49
0.0
 74
     0
  0
LTYPE
  5
4F
330
5
100
AcDbSymbolTableRecord
100
AcDbLinetypeTableRecord
  2
AM_ISO02W050X2
 70
     0
  3
 _ _ _ _ _ _ _ _ _ _ _ _
 72
    65
 73
     2
 40
3.75
 49
3.0
 74
     0
 49
-0.75
 74
     0
  0
LTYPE
  5
50
330
5
100
AcDbSymbolTableRecord
100
AcDbLinetypeTableRecord
  2
AM_ISO08W050X2
 70
     0
  3
__ . __ . __ . __ . __ . __
 72
    65
 73
     4
 40
9.0
 49
6.0
 74
     0
 49
-0.75
 74
     0
 49
1.5
 74
     0
 49
-0.75
 74
     0
  0
LTYPE
  5
53
330
5
100
AcDbSymbolTableRecord
100
AcDbLinetypeTableRecord
  2
AMZIGZAG
 70
     0
  3
/\/-/\/-/\/-/\/-/\/-/\/
 72
    65
 73
     2
 40
11.00009999999999
 49
0.0001
 74
     4
 75
   135
340
52
 46
0.04
 50
0.0
 44
0.0
 45
0.0
 49
-11.0
 74
     0
  0
LTYPE
  5
166
330
5
100
AcDbSymbolTableRecord
100
AcDbLinetypeTableRecord
  2
ACJISTGL
 70
     0
  3
_ _ _ _ _
 72
    65
 73
     2
 40
3.0
 49
2.0
 74
     0
 49
-1.0
 74
     0
  0
LTYPE
  5
26A
330
5
100
AcDbSymbolTableRecord
100
AcDbLinetypeTableRecord
  2
ACJISTGB
 70
     0
  3
__ . . __ . .
 72
    65
 73
     6
 40
9.0
 49
4.0
 74
     0
 49
-1.0
 74
     0
 49
1.0
 74
     0
 49
-1.0
 74
     0
 49
1.0
 74
     0
 49
-1.0
 74
     0
  0
ENDTAB
  0
TABLE
  2
LAYER
  5
2
330
0
100
AcDbSymbolTable
 70
     8
  0
LAYER
  5
10
330
2
100
AcDbSymbolTableRecord
100
AcDbLayerTableRecord
  2
0
 70
     0
 62
     7
  6
CONTINUOUS
  0
LAYER
  5
3F9
330
2
100
AcDbSymbolTableRecord
100
AcDbLayerTableRecord
  2
AM_0
 70
     0
 62
     7
  6
CONTINUOUS
  0
LAYER
  5
C7C
330
2
100
AcDbSymbolTableRecord
100
AcDbLayerTableRecord
  2
AM_7
 70
     0
 62
     4
  6
AM_ISO08W050
  0
LAYER
  5
C97
330
2
100
AcDbSymbolTableRecord
100
AcDbLayerTableRecord
  2
AM_11
 70
     0
 62
     3
  6
AM_ISO09W050
  0
LAYER
  5
CC5
330
2
100
AcDbSymbolTableRecord
100
AcDbLayerTableRecord
  2
AM_5
 70
     0
 62
     3
  6
CONTINUOUS
  0
LAYER
  5
CC7
330
2
100
AcDbSymbolTableRecord
100
AcDbLayerTableRecord
  2
DEFPOINTS
 70
     0
 62
     7
  6
CONTINUOUS
  0
LAYER
  5
19BC
330
2
100
AcDbSymbolTableRecord
100
AcDbLayerTableRecord
  2
AM_6
 70
     0
 62
     2
  6
CONTINUOUS
  0
LAYER
  5
2A4A
330
2
100
AcDbSymbolTableRecord
100
AcDbLayerTableRecord
  2
AM_CL
 70
     0
 62
     1
  6
AMCONSTR
  0
ENDTAB
  0
TABLE
  2
STYLE
  5
3
330
0
100
AcDbSymbolTable
 70
     5
  0
STYLE
  5
11
330
3
100
AcDbSymbolTableRecord
100
AcDbTextStyleTableRecord
  2
STANDARD
 70
     0
 40
0.0
 41
1.0
 50
0.0
 71
     0
 42
2.5
  3
simplex.shx
  4
EXTFONT.SHX
  0
STYLE
  5
52
330
3
100
AcDbSymbolTableRecord
100
AcDbTextStyleTableRecord
  2

 70
     1
 40
0.0
 41
1.0
 50
0.0
 71
     0
 42
2.5
  3
ltypeshp.shx
  4

  0
STYLE
  5
6B
330
3
100
AcDbSymbolTableRecord
100
AcDbTextStyleTableRecord
  2
ASAMI
 70
     0
 40
0.0
 41
1.0
 50
0.0
 71
     0
 42
2.5
  3
simplex.shx
  4
EXTFONT.SHX
  0
STYLE
  5
262
330
3
100
AcDbSymbolTableRecord
100
AcDbTextStyleTableRecord
  2
ACJISTS
 70
     0
 40
1.0
 41
1.0
 50
0.0
 71
     0
 42
2.5
  3
simplex.shx
  4
bigfont.shx
  0
STYLE
  5
269
330
3
100
AcDbSymbolTableRecord
100
AcDbTextStyleTableRecord
  2
ACJISGDT
 70
     0
 40
0.0
 41
1.0
 50
0.0
 71
     0
 42
2.5
  3
amgdtans.shx
  4

  0
ENDTAB
  0
TABLE
  2
VIEW
  5
6
330
0
100
AcDbSymbolTable
 70
     0
  0
ENDTAB
  0
TABLE
  2
UCS
  5
7
330
0
100
AcDbSymbolTable
 70
     0
  0
ENDTAB
  0
TABLE
  2
APPID
  5
9
330
0
100
AcDbSymbolTable
 70
    18
  0
APPID
  5
12
330
9
100
AcDbSymbolTableRecord
100
AcDbRegAppTableRecord
  2
ACAD
 70
     0
  0
APPID
  5
30
330
9
100
AcDbSymbolTableRecord
100
AcDbRegAppTableRecord
  2
MCAD_NO_VIS
 70
     0
  0
APPID
  5
31
330
9
100
AcDbSymbolTableRecord
100
AcDbRegAppTableRecord
  2
ACAD_TEMP_GRAPHIC
 70
     0
  0
APPID
  5
2C2
330
9
100
AcDbSymbolTableRecord
100
AcDbRegAppTableRecord
  2
GENIUS_GENDTOL_13
 70
     0
  0
APPID
  5
339
330
9
100
AcDbSymbolTableRecord
100
AcDbRegAppTableRecord
  2
GENIUS_GENODEF_13
 70
     0
  0
APPID
  5
33A
330
9
100
AcDbSymbolTableRecord
100
AcDbRegAppTableRecord
  2
GENIUS_GENOBJ-N-RSBK_13
 70
     0
  0
APPID
  5
33B
330
9
100
AcDbSymbolTableRecord
100
AcDbRegAppTableRecord
  2
GENIUS_GENOBJ-N-LIB_13
 70
     0
  0
APPID
  5
33C
330
9
100
AcDbSymbolTableRecord
100
AcDbRegAppTableRecord
  2
GENIUS_GENSCALE_13
 70
     0
  0
APPID
  5
378
330
9
100
AcDbSymbolTableRecord
100
AcDbRegAppTableRecord
  2
GENIUS_GENDIMSH_14
 70
     0
  0
APPID
  5
C82
330
9
100
AcDbSymbolTableRecord
100
AcDbRegAppTableRecord
  2
GENIUS_GENOBJ-N-CRS_13
 70
     0
  0
APPID
  5
C83
330
9
100
AcDbSymbolTableRecord
100
AcDbRegAppTableRecord
  2
GENIUS_GENOENT_13
 70
     0
  0
APPID
  5
C84
330
9
100
AcDbSymbolTableRecord
100
AcDbRegAppTableRecord
  2
GENIUS_GENOREF_13
 70
     0
  0
APPID
  5
C85
330
9
100
AcDbSymbolTableRecord
100
AcDbRegAppTableRecord
  2
GENIUS_GENOLIS_13
 70
     0
  0
APPID
  5
CA0
330
9
100
AcDbSymbolTableRecord
100
AcDbRegAppTableRecord
  2
GENIUS_GENOBJ-N-CEN_13
 70
     0
  0
APPID
  5
1B5D
330
9
100
AcDbSymbolTableRecord
100
AcDbRegAppTableRecord
  2
GENIUS_GENFIL_13
 70
     0
  0
APPID
  5
1B5E
330
9
100
AcDbSymbolTableRecord
100
AcDbRegAppTableRecord
  2
GENIUS_GENOBJ-N-CHA_13
 70
     0
  0
APPID
  5
1FBC
330
9
100
AcDbSymbolTableRecord
100
AcDbRegAppTableRecord
  2
GENIUS_GENREC_14
 70
     0
  0
APPID
  5
1FBD
330
9
100
AcDbSymbolTableRecord
100
AcDbRegAppTableRecord
  2
GENIUS_GENOBJ-N-REC_13
 70
     0
  0
ENDTAB
  0
TABLE
  2
DIMSTYLE
  5
A
330
0
100
AcDbSymbolTable
 70
     9
  0
DIMSTYLE
105
58
330
A
100
AcDbSymbolTableRecord
100
AcDbDimStyleTableRecord
  2
AM_JIS
 70
     0
  3

  4
"
  5
OPEN30
  6

  7

 40
0.5
 41
2.5
 42
1.0
 43
12.0
 44
1.0
 45
0.0
 46
0.0
 47
0.1
 48
0.1
140
3.2
141
0.0
142
0.0
143
0.0393701
144
1.0
145
0.0
146
0.71
147
1.5
 71
     0
 72
     0
 73
     0
 74
     0
 75
     0
 76
     0
 77
     3
 78
     8
170
     0
171
     2
172
     1
173
     0
174
     0
175
     0
176
   256
177
   256
178
     2
270
     2
271
     3
272
     3
273
     2
274
     2
340
6B
275
     0
280
     0
281
     0
282
     0
283
     0
284
     0
285
     0
286
     0
287
     3
288
     0
  0
DIMSTYLE
105
5F
330
A
100
AcDbSymbolTableRecord
100
AcDbDimStyleTableRecord
  2
AM_JIS$3
 70
     0
  3

  4
"
  5
OPEN30
  6

  7

 40
0.5
 41
2.5
 42
1.0
 43
10.0
 44
1.0
 45
0.0
 46
0.0
 47
0.1
 48
0.1
140
3.2
141
0.0
142
0.0
143
0.0393701
144
1.0
145
0.0
146
0.71
147
1.5
 71
     0
 72
     0
 73
     0
 74
     1
 75
     0
 76
     0
 77
     3
 78
     8
170
     0
171
     2
172
     0
173
     0
174
     0
175
     0
176
   256
177
   256
178
     2
270
     2
271
     2
272
     3
273
     2
274
     2
340
6B
275
     0
280
     0
281
     0
282
     0
283
     0
284
     0
285
     0
286
     0
287
     0
288
     1
  0
DIMSTYLE
105
60
330
A
100
AcDbSymbolTableRecord
100
AcDbDimStyleTableRecord
  2
AM_JIS$4
 70
     0
  3

  4
"
  5
OPEN30
  6

  7

 40
0.5
 41
2.5
 42
1.0
 43
10.0
 44
1.0
 45
0.0
 46
0.0
 47
0.1
 48
0.1
140
3.2
141
0.0
142
0.0
143
0.0393701
144
1.0
145
0.0
146
0.71
147
1.5
 71
     0
 72
     0
 73
     0
 74
     1
 75
     0
 76
     0
 77
     3
 78
     8
170
     0
171
     2
172
     0
173
     0
174
     0
175
     0
176
   256
177
   256
178
     2
270
     2
271
     2
272
     3
273
     2
274
     2
340
6B
275
     0
280
     0
281
     0
282
     0
283
     0
284
     0
285
     0
286
     0
287
     0
288
     1
  0
DIMSTYLE
105
61
330
A
100
AcDbSymbolTableRecord
100
AcDbDimStyleTableRecord
  2
AM_JIS$6
 70
     0
  3

  4
"
  5
OPEN30
  6

  7

 40
0.5
 41
2.5
 42
1.0
 43
10.0
 44
1.0
 45
0.0
 46
0.0
 47
0.1
 48
0.1
140
3.2
141
0.0
142
0.0
143
0.0393701
144
1.0
145
0.0
146
0.71
147
1.5
 71
     0
 72
     0
 73
     0
 74
     0
 75
     0
 76
     0
 77
     0
 78
     8
170
     0
171
     2
172
     1
173
     0
174
     0
175
     0
176
   256
177
   256
178
     2
270
     2
271
     2
272
     2
273
     2
274
     2
340
6B
275
     0
280
     0
281
     0
282
     0
283
     0
284
     0
285
     0
286
     0
287
     3
288
     0
  0
DIMSTYLE
105
62
330
A
100
AcDbSymbolTableRecord
100
AcDbDimStyleTableRecord
  2
AM_JIS$7
 70
     0
  3

  4
"
  5
OPEN30
  6

  7

 40
0.5
 41
2.5
 42
1.0
 43
10.0
 44
1.0
 45
0.0
 46
0.0
 47
0.1
 48
0.1
140
3.2
141
0.0
142
0.0
143
0.0393701
144
1.0
145
0.0
146
0.71
147
1.5
 71
     0
 72
     0
 73
     0
 74
     0
 75
     0
 76
     0
 77
     3
 78
     8
170
     0
171
     2
172
     1
173
     0
174
     0
175
     0
176
   256
177
   256
178
     2
270
     2
271
     2
272
     3
273
     2
274
     2
340
6B
275
     0
280
     0
281
     0
282
     0
283
     0
284
     0
285
     0
286
     0
287
     3
288
     0
  0
DIMSTYLE
105
63
330
A
100
AcDbSymbolTableRecord
100
AcDbDimStyleTableRecord
  2
AM_JIS$SF
 70
     0
  3

  4
"
  5
OPEN30
  6

  7

 40
0.5
 41
2.5
 42
1.0
 43
10.0
 44
1.0
 45
0.0
 46
0.0
 47
0.1
 48
0.1
140
3.2
141
0.0
142
0.0
143
0.0393701
144
1.0
145
0.0
146
0.71
147
1.5
 71
     0
 72
     0
 73
     0
 74
     0
 75
     1
 76
     1
 77
     3
 78
     8
170
     0
171
     2
172
     1
173
     0
174
     0
175
     0
176
   256
177
   256
178
     2
270
     2
271
     2
272
     2
273
     2
274
     2
340
6B
275
     0
280
     0
281
     0
282
     0
283
     0
284
     0
285
     0
286
     0
287
     3
288
     0
  0
DIMSTYLE
105
68
330
A
100
AcDbSymbolTableRecord
100
AcDbDimStyleTableRecord
  2
AM_JIS$SH
 70
     0
  3

  4
"
  5

  6
GENAXEH
  7
OPEN30
 40
0.5
 41
2.5
 42
1.0
 43
10.0
 44
1.0
 45
0.0
 46
0.0
 47
0.1
 48
0.1
140
3.2
141
0.0
142
0.0
143
0.0393701
144
2.0
145
0.0
146
0.71
147
1.5
 71
     0
 72
     0
 73
     0
 74
     0
 75
     1
 76
     1
 77
     3
 78
     8
170
     0
171
     2
172
     1
173
     1
174
     0
175
     0
176
   256
177
   256
178
     2
270
     2
271
     2
272
     2
273
     2
274
     2
340
6B
275
     0
280
     0
281
     0
282
     0
283
     0
284
     0
285
     0
286
     0
287
     3
288
     0
  0
DIMSTYLE
105
B34
102
{ACAD_REACTORS
330
2365
102
}
330
A
100
AcDbSymbolTableRecord
100
AcDbDimStyleTableRecord
  2
AM_JIS$2
 70
     0
  3

  4
"
  5
OPEN30
  6

  7

 40
0.5
 41
2.5
 42
1.0
 43
12.0
 44
1.0
 45
0.0
 46
0.0
 47
0.1
 48
0.1
140
3.2
141
0.0
142
0.0
143
0.0393701
144
1.0
145
0.0
146
0.71
147
1.5
 71
     0
 72
     0
 73
     0
 74
     0
 75
     0
 76
     0
 77
     3
 78
     8
170
     0
171
     2
172
     1
173
     0
174
     0
175
     0
176
   256
177
   256
178
     2
270
     2
271
     3
272
     3
273
     2
274
     2
340
6B
275
     0
280
     0
281
     0
282
     0
283
     0
284
     0
285
     0
286
     0
287
     3
288
     0
  0
DIMSTYLE
105
BA5
102
{ACAD_REACTORS
330
CC6
330
DF5
330
1DEF
330
1C71
102
}
330
A
100
AcDbSymbolTableRecord
100
AcDbDimStyleTableRecord
  2
AM_JIS$0
 70
     0
  3

  4
"
  5
OPEN30
  6

  7

 40
0.5
 41
2.5
 42
0.0
 43
10.0
 44
1.0
 45
0.0
 46
0.0
 47
0.1
 48
0.1000000001
140
3.799999999999999
141
0.0
142
0.0
143
0.0393701
144
1.0
145
0.0
146
0.71
147
1.5
 71
     0
 72
     0
 73
     0
 74
     0
 75
     0
 76
     0
 77
     3
 78
     1
170
     0
171
     2
172
     1
173
     0
174
     0
175
     0
176
     3
177
     3
178
     2
270
     2
271
     2
272
     2
273
     2
274
     2
340
11
275
     1
280
     0
281
     0
282
     0
283
     0
284
     8
285
     0
286
     0
287
     0
288
     0
  0
ENDTAB
  0
TABLE
  2
BLOCK_RECORD
  5
1
330
0
100
AcDbSymbolTable
 70
    10
  0
BLOCK_RECORD
  5
1F
102
{ACAD_XDICTIONARY
360
74
102
}
330
1
100
AcDbSymbolTableRecord
100
AcDbBlockTableRecord
  2
*MODEL_SPACE
  0
BLOCK_RECORD
  5
101
102
{ACAD_XDICTIONARY
360
2B28
102
}
330
1
100
AcDbSymbolTableRecord
100
AcDbBlockTableRecord
  2
*PAPER_SPACE
  0
BLOCK_RECORD
  5
59
330
1
100
AcDbSymbolTableRecord
100
AcDbBlockTableRecord
  2
_OPEN30
  0
BLOCK_RECORD
  5
64
330
1
100
AcDbSymbolTableRecord
100
AcDbBlockTableRecord
  2
GENAXEH
  0
BLOCK_RECORD
  5
CC8
330
1
100
AcDbSymbolTableRecord
100
AcDbBlockTableRecord
  2
*D5
  0
BLOCK_RECORD
  5
DF6
330
1
100
AcDbSymbolTableRecord
100
AcDbBlockTableRecord
  2
*D6
  0
BLOCK_RECORD
  5
1C72
330
1
100
AcDbSymbolTableRecord
100
AcDbBlockTableRecord
  2
*D7
  0
BLOCK_RECORD
  5
1DF0
330
1
100
AcDbSymbolTableRecord
100
AcDbBlockTableRecord
  2
*D8
  0
BLOCK_RECORD
  5
2366
330
1
100
AcDbSymbolTableRecord
100
AcDbBlockTableRecord
  2
*D9
  0
ENDTAB
  0
ENDSEC
  0
SECTION
  2
BLOCKS
  0
BLOCK
  5
20
330
1F
100
AcDbEntity
  8
0
100
AcDbBlockBegin
  2
*MODEL_SPACE
 70
     0
 10
0.0
 20
0.0
 30
0.0
  3
*MODEL_SPACE
  1

  0
ENDBLK
  5
21
330
1F
100
AcDbEntity
  8
0
100
AcDbBlockEnd
  0
BLOCK
  5
103
330
101
100
AcDbEntity
 67
     1
  8
0
100
AcDbBlockBegin
  2
*PAPER_SPACE
 70
     0
 10
0.0
 20
0.0
 30
0.0
  3
*PAPER_SPACE
  1

  0
ENDBLK
  5
104
330
101
100
AcDbEntity
 67
     1
  8
0
100
AcDbBlockEnd
  0
BLOCK
  5
5D
330
59
100
AcDbEntity
  8
0
100
AcDbBlockBegin
  2
_OPEN30
 70
     0
 10
0.0
 20
0.0
 30
0.0
  3
_OPEN30
  1

  0
LINE
  5
5A
330
59
100
AcDbEntity
  8
0
 62
     0
100
AcDbLine
 10
-1.0
 20
0.26794919
 30
0.0
 11
0.0
 21
0.0
 31
0.0
  0
LINE
  5
5B
330
59
100
AcDbEntity
  8
0
 62
     0
100
AcDbLine
 10
0.0
 20
0.0
 30
0.0
 11
-1.0
 21
-0.26794919
 31
0.0
  0
LINE
  5
5C
330
59
100
AcDbEntity
  8
0
 62
     0
100
AcDbLine
 10
0.0
 20
0.0
 30
0.0
 11
-1.0
 21
0.0
 31
0.0
  0
ENDBLK
  5
5E
330
59
100
AcDbEntity
  8
0
100
AcDbBlockEnd
  0
BLOCK
  5
66
330
64
100
AcDbEntity
  8
0
100
AcDbBlockBegin
  2
GENAXEH
 70
     0
 10
0.0
 20
0.0
 30
0.0
  3
GENAXEH
  1

  0
LINE
  5
65
330
64
100
AcDbEntity
  8
0
100
AcDbLine
 10
-1.0
 20
0.0
 30
0.0
 11
1.0
 21
0.0
 31
0.0
  0
ENDBLK
  5
67
330
64
100
AcDbEntity
  8
0
100
AcDbBlockEnd
  0
BLOCK
  5
CD2
330
CC8
100
AcDbEntity
  8
0
100
AcDbBlockBegin
  2
*D5
 70
     1
 10
0.0
 20
0.0
 30
0.0
  3
*D5
  1

  0
LINE
  5
2AA7
330
CC8
100
AcDbEntity
  8
AM_5
 62
     3
100
AcDbLine
 10
-68.99999999999998
 20
-1.250006209471275
 30
0.0
 11
-68.99999999999998
 21
-14.00000718101106
 31
0.0
  0
LINE
  5
2AA8
330
CC8
100
AcDbEntity
  8
AM_5
 62
     3
100
AcDbLine
 10
-0.9999980904521596
 20
-1.099999292062917
 30
0.0
 11
-0.9999980904521603
 21
-14.00000718101106
 31
0.0
  0
LINE
  5
2AA9
330
CC8
100
AcDbEntity
  8
AM_5
 62
     3
100
AcDbLine
 10
-67.74999999999998
 20
-13.50000718101106
 30
0.0
 11
-2.24999809045216
 21
-13.50000718101106
 31
0.0
  0
INSERT
  5
2AAA
330
CC8
100
AcDbEntity
  8
AM_5
 62
     3
100
AcDbBlockReference
  2
_OPEN30
 10
-68.99999999999998
 20
-13.50000718101106
 30
0.0
 41
1.25
 42
1.25
 43
1.25
 50
180.0
  0
INSERT
  5
2AAB
330
CC8
100
AcDbEntity
  8
AM_5
 62
     3
100
AcDbBlockReference
  2
_OPEN30
 10
-0.9999980904521603
 20
-13.50000718101106
 30
0.0
 41
1.25
 42
1.25
 43
1.25
  0
MTEXT
  5
2AAC
330
CC8
100
AcDbEntity
  8
AM_5
 62
     2
100
AcDbMText
 10
-34.99999904522607
 20
-11.80000718101106
 30
0.0
 40
1.9
 41
0.0
 71
     5
 72
     1
  1
68
1001
ACAD
1000
MTEXTBEGIN
1070
    73
1070
     1
1070
    44
1040
1.0
1070
    74
1070
     0
1000
MTEXTEND
  0
POINT
  5
2AAD
330
CC8
100
AcDbEntity
  8
DEFPOINTS
 62
     0
100
AcDbPoint
 10
-68.99999999999998
 20
-1.250006209471275
 30
0.0
  0
POINT
  5
2AAE
330
CC8
100
AcDbEntity
  8
DEFPOINTS
 62
     0
100
AcDbPoint
 10
-0.9999980904521596
 20
-1.099999292062917
 30
0.0
  0
POINT
  5
2AAF
330
CC8
100
AcDbEntity
  8
DEFPOINTS
 62
     0
100
AcDbPoint
 10
-0.9999980904521603
 20
-13.50000718101106
 30
0.0
  0
ENDBLK
  5
CD3
330
CC8
100
AcDbEntity
  8
0
100
AcDbBlockEnd
  0
BLOCK
  5
E00
330
DF6
100
AcDbEntity
  8
0
100
AcDbBlockBegin
  2
*D6
 70
     1
 10
0.0
 20
0.0
 30
0.0
  3
*D6
  1

  0
LINE
  5
2ABB
330
DF6
100
AcDbEntity
  8
AM_5
 62
     3
100
AcDbLine
 10
-20.99999999999998
 20
-1.499999305169979
 30
0.0
 11
-20.99999999999998
 21
-9.00000718101104
 31
0.0
  0
LINE
  5
2ABC
330
DF6
100
AcDbEntity
  8
AM_5
 62
     3
100
AcDbLine
 10
-0.9999980904521596
 20
-1.099999292062917
 30
0.0
 11
-0.9999980904521599
 21
-9.00000718101104
 31
0.0
  0
LINE
  5
2ABD
330
DF6
100
AcDbEntity
  8
AM_5
 62
     3
100
AcDbLine
 10
-19.74999999999998
 20
-8.50000718101104
 30
0.0
 11
-2.24999809045216
 21
-8.50000718101104
 31
0.0
  0
INSERT
  5
2ABE
330
DF6
100
AcDbEntity
  8
AM_5
 62
     3
100
AcDbBlockReference
  2
_OPEN30
 10
-20.99999999999998
 20
-8.50000718101104
 30
0.0
 41
1.25
 42
1.25
 43
1.25
 50
180.0
  0
INSERT
  5
2ABF
330
DF6
100
AcDbEntity
  8
AM_5
 62
     3
100
AcDbBlockReference
  2
_OPEN30
 10
-0.9999980904521599
 20
-8.50000718101104
 30
0.0
 41
1.25
 42
1.25
 43
1.25
  0
MTEXT
  5
2AC0
330
DF6
100
AcDbEntity
  8
AM_5
 62
     2
100
AcDbMText
 10
-10.99999904522607
 20
-6.80000718101104
 30
0.0
 40
1.9
 41
0.0
 71
     5
 72
     1
  1
20
1001
ACAD
1000
MTEXTBEGIN
1070
    73
1070
     1
1070
    44
1040
1.0
1070
    74
1070
     0
1000
MTEXTEND
  0
POINT
  5
2AC1
330
DF6
100
AcDbEntity
  8
DEFPOINTS
 62
     0
100
AcDbPoint
 10
-20.99999999999998
 20
-1.499999305169979
 30
0.0
  0
POINT
  5
2AC2
330
DF6
100
AcDbEntity
  8
DEFPOINTS
 62
     0
100
AcDbPoint
 10
-0.9999980904521596
 20
-1.099999292062917
 30
0.0
  0
POINT
  5
2AC3
330
DF6
100
AcDbEntity
  8
DEFPOINTS
 62
     0
100
AcDbPoint
 10
-0.9999980904521599
 20
-8.50000718101104
 30
0.0
  0
ENDBLK
  5
E01
330
DF6
100
AcDbEntity
  8
0
100
AcDbBlockEnd
  0
BLOCK
  5
1C7E
330
1C72
100
AcDbEntity
  8
0
100
AcDbBlockBegin
  2
*D7
 70
     1
 10
0.0
 20
0.0
 30
0.0
  3
*D7
  1

  0
LINE
  5
2ACF
330
1C72
100
AcDbEntity
  8
AM_5
 62
     3
100
AcDbLine
 10
-0.9999980904521596
 20
-1.099999292062917
 30
0.0
 11
7.795959616461502
 21
-1.09999929206292
 31
0.0
  0
LINE
  5
2AD0
330
1C72
100
AcDbEntity
  8
AM_5
 62
     3
100
AcDbLine
 10
-0.9999961853026988
 20
1.100000645248401
 30
0.0
 11
7.795959616461502
 21
1.100000645248398
 31
0.0
  0
LINE
  5
2AD1
330
1C72
100
AcDbEntity
  8
AM_5
 62
     3
100
AcDbLine
 10
7.2959596164615
 20
-2.34999929206292
 30
0.0
 11
7.2959596164615
 21
-3.59999929206292
 31
0.0
  0
LINE
  5
2AD2
330
1C72
100
AcDbEntity
  8
AM_5
 62
     3
100
AcDbLine
 10
7.295959616461502
 20
2.350000645248398
 30
0.0
 11
7.295959616461503
 21
10.95000056915857
 31
0.0
  0
LINE
  5
2AD3
330
1C72
100
AcDbEntity
  8
AM_5
 62
     3
100
AcDbLine
 10
7.295959616461501
 20
-1.099999292062919
 30
0.0
 11
7.295959616461501
 21
1.100000645248398
 31
0.0
  0
INSERT
  5
2AD4
330
1C72
100
AcDbEntity
  8
AM_5
 62
     3
100
AcDbBlockReference
  2
_OPEN30
 10
7.295959616461501
 20
-1.099999292062919
 30
0.0
 41
1.25
 42
1.25
 43
1.25
 50
90.0
  0
INSERT
  5
2AD5
330
1C72
100
AcDbEntity
  8
AM_5
 62
     3
100
AcDbBlockReference
  2
_OPEN30
 10
7.295959616461501
 20
1.100000645248398
 30
0.0
 41
1.25
 42
1.25
 43
1.25
 50
270.0
  0
MTEXT
  5
2AD6
330
1C72
100
AcDbEntity
  8
AM_5
 62
     2
100
AcDbMText
 10
5.595959616461501
 20
7.350000569158572
 30
0.0
 40
1.9
 41
0.0
 71
     5
 72
     1
  1
%%c2.2
 11
0.0000000000000001
 21
1.0
 31
0.0
1001
ACAD
1000
MTEXTBEGIN
1070
    73
1070
     1
1070
    44
1040
1.0
1070
    74
1070
     0
1000
MTEXTEND
  0
POINT
  5
2AD7
330
1C72
100
AcDbEntity
  8
DEFPOINTS
 62
     0
100
AcDbPoint
 10
-0.9999980904521596
 20
-1.099999292062917
 30
0.0
  0
POINT
  5
2AD8
330
1C72
100
AcDbEntity
  8
DEFPOINTS
 62
     0
100
AcDbPoint
 10
-0.9999961853026988
 20
1.100000645248401
 30
0.0
  0
POINT
  5
2AD9
330
1C72
100
AcDbEntity
  8
DEFPOINTS
 62
     0
100
AcDbPoint
 10
7.295959616461501
 20
1.100000645248398
 30
0.0
  0
ENDBLK
  5
1C7F
330
1C72
100
AcDbEntity
  8
0
100
AcDbBlockEnd
  0
BLOCK
  5
1DFC
330
1DF0
100
AcDbEntity
  8
0
100
AcDbBlockBegin
  2
*D8
 70
     1
 10
0.0
 20
0.0
 30
0.0
  3
*D8
  1

  0
LINE
  5
2AB0
330
1DF0
100
AcDbEntity
  8
AM_5
 62
     3
100
AcDbLine
 10
-68.75
 20
-1.500006181011352
 30
0.0
 11
-77.2500013415234
 21
-1.500006181011368
 31
0.0
  0
LINE
  5
2AB1
330
1DF0
100
AcDbEntity
  8
AM_5
 62
     3
100
AcDbLine
 10
-68.75
 20
1.500013847201652
 30
0.0
 11
-77.2500013415234
 21
1.500013847201635
 31
0.0
  0
LINE
  5
2AB2
330
1DF0
100
AcDbEntity
  8
AM_5
 62
     3
100
AcDbLine
 10
-76.7500013415234
 20
-2.750006181011367
 30
0.0
 11
-76.75000134152338
 21
-4.000006181011367
 31
0.0
  0
LINE
  5
2AB3
330
1DF0
100
AcDbEntity
  8
AM_5
 62
     3
100
AcDbLine
 10
-76.7500013415234
 20
2.750013847201636
 30
0.0
 11
-76.75000134152341
 21
4.000013847201636
 31
0.0
  0
LINE
  5
2AB4
330
1DF0
100
AcDbEntity
  8
AM_5
 62
     3
100
AcDbLine
 10
-76.7500013415234
 20
-1.500006181011367
 30
0.0
 11
-76.7500013415234
 21
1.500013847201636
 31
0.0
  0
INSERT
  5
2AB5
330
1DF0
100
AcDbEntity
  8
AM_5
 62
     3
100
AcDbBlockReference
  2
_OPEN30
 10
-76.7500013415234
 20
-1.500006181011367
 30
0.0
 41
1.25
 42
1.25
 43
1.25
 50
90.0000000000001
  0
INSERT
  5
2AB6
330
1DF0
100
AcDbEntity
  8
AM_5
 62
     3
100
AcDbBlockReference
  2
_OPEN30
 10
-76.7500013415234
 20
1.500013847201636
 30
0.0
 41
1.25
 42
1.25
 43
1.25
 50
270.0000000000001
  0
MTEXT
  5
2AB7
330
1DF0
100
AcDbEntity
  8
AM_5
 62
     2
100
AcDbMText
 10
-78.4500013415234
 20
0.0000038330951342
 30
0.0
 40
1.9
 41
0.0
 71
     5
 72
     1
  1
%%c3
 11
-0.000000000000002
 21
1.0
 31
0.0
1001
ACAD
1000
MTEXTBEGIN
1070
    73
1070
     1
1070
    44
1040
1.0
1070
    74
1070
     0
1000
MTEXTEND
  0
POINT
  5
2AB8
330
1DF0
100
AcDbEntity
  8
DEFPOINTS
 62
     0
100
AcDbPoint
 10
-68.75
 20
-1.500006181011199
 30
0.0
  0
POINT
  5
2AB9
330
1DF0
100
AcDbEntity
  8
DEFPOINTS
 62
     0
100
AcDbPoint
 10
-68.75
 20
1.500013847201804
 30
0.0
  0
POINT
  5
2ABA
330
1DF0
100
AcDbEntity
  8
DEFPOINTS
 62
     0
100
AcDbPoint
 10
-76.7500013415234
 20
1.500013847201807
 30
0.0
  0
ENDBLK
  5
1DFD
330
1DF0
100
AcDbEntity
  8
0
100
AcDbBlockEnd
  0
BLOCK
  5
2376
330
2366
100
AcDbEntity
  8
0
100
AcDbBlockBegin
  2
*D9
 70
     1
 10
0.0
 20
0.0
 30
0.0
  3
*D9
  1

  0
LINE
  5
2B2A
330
2366
100
AcDbEntity
  8
AM_5
100
AcDbLine
 10
0.1710091105622553
 20
-0.4698466602038542
 30
0.0
 11
4.973097283066464
 21
-13.6635594538523
 31
0.0
  0
LINE
  5
2B2B
330
2366
100
AcDbEntity
  8
AM_5
100
AcDbLine
 10
0.1710103731902225
 20
0.469846200645854
 30
0.0
 11
4.973134001412593
 21
13.66354608949644
 31
0.0
  0
ARC
  5
2B2C
330
2366
100
AcDbEntity
  8
AM_5
100
AcDbCircle
 10
0.0000000000000117
 20
-0.0000000000000035
 30
0.0
 40
14.04044543801184
100
AcDbArc
 50
295.1025270455342
 51
64.89731898234012
  0
INSERT
  5
2B2D
330
2366
100
AcDbEntity
  8
AM_5
100
AcDbBlockReference
  2
_OPEN30
 10
4.802088172504222
 20
-13.19371279364845
 30
0.0
 41
1.25
 42
1.25
 43
1.25
 50
202.5512049217034
  0
INSERT
  5
2B2E
330
2366
100
AcDbEntity
  8
AM_5
100
AcDbBlockReference
  2
_OPEN30
 10
4.802123628222383
 20
13.19369988885058
 30
0.0
 41
1.25
 42
1.25
 43
1.25
 50
157.4486411061708
  0
MTEXT
  5
2B2F
330
2366
100
AcDbEntity
  8
AM_5
 62
     2
100
AcDbMText
 10
12.49044543800058
 20
-0.0000167829153508
 30
0.0
 40
1.6
 41
0.0
 71
     5
 72
     1
  1
140°
  7
ASAMI
 11
0.0000013436602744
 21
0.9999999999990972
 31
0.0
  0
POINT
  5
2B30
330
2366
100
AcDbEntity
  8
DEFPOINTS
 62
     0
100
AcDbPoint
 10
12.89215437553651
 20
-5.561156683202058
 30
0.0
  0
POINT
  5
2B31
330
2366
100
AcDbEntity
  8
DEFPOINTS
 62
     0
100
AcDbPoint
 10
0.0000000000000126
 20
-0.0000000000000011
 30
0.0
  0
POINT
  5
2B32
330
2366
100
AcDbEntity
  8
DEFPOINTS
 62
     0
100
AcDbPoint
 10
0.0000000000000125
 20
-0.0000000000000057
 30
0.0
  0
POINT
  5
2B33
330
2366
100
AcDbEntity
  8
DEFPOINTS
 62
     0
100
AcDbPoint
 10
-0.132740920304654
 20
0.3647050023971203
 30
0.0
  0
POINT
  5
2B34
330
2366
100
AcDbEntity
  8
DEFPOINTS
 62
     0
100
AcDbPoint
 10
-0.132742807177168
 20
-0.3647071370687704
 30
0.0
  0
ENDBLK
  5
2377
330
2366
100
AcDbEntity
  8
0
100
AcDbBlockEnd
  0
ENDSEC
  0
SECTION
  2
ENTITIES
  0
LINE
  5
C1D
330
1F
100
AcDbEntity
  8
AM_0
 48
0.5
100
AcDbLine
 10
0.0000000000000125
 20
-0.0000000000000057
 30
0.0
 11
-0.1327409203046539
 21
0.3647050023971202
 31
0.0
  0
LINE
  5
C20
330
1F
100
AcDbEntity
  8
AM_0
 48
0.5
100
AcDbLine
 10
0.0000000000000126
 20
-0.0000000000000011
 30
0.0
 11
-0.1327428071771679
 21
-0.3647071370687703
 31
0.0
  0
LINE
  5
C2E
330
1F
100
AcDbEntity
  8
AM_0
 48
0.5
100
AcDbLine
 10
-68.74999999999999
 20
-1.500006181011199
 30
0.0
 11
-68.74999999999999
 21
1.500013847201805
 31
0.0
  0
LINE
  5
C30
330
1F
100
AcDbEntity
  8
AM_0
 48
0.5
100
AcDbLine
 10
-68.99999999999998
 20
-1.250006209471275
 30
0.0
 11
-68.99999999999998
 21
1.250005235204411
 31
0.0
  0
LINE
  5
C9F
330
1F
100
AcDbEntity
  8
AM_7
100
AcDbLine
 10
-69.74999999999997
 20
-0.0000000000000742
 30
0.0
 11
0.295958565231807
 21
0.0000000000000003
 31
0.0
1001
GENIUS_GENODEF_13
1002
{
1000
HIER
1070
     0
1002
}
1002
{
1000
MANEDIT
1070
     0
1002
}
1002
{
1000
NOSEL
1070
     0
1002
}
1002
{
1000
BEHIND
1070
     0
1002
}
1002
{
1000
REACTOR
1002
}
1001
GENIUS_GENOBJ-N-CEN_13
1002
{
1000
OWNER
1000
GEN
1002
}
  0
DIMENSION
  5
CC6
330
1F
100
AcDbEntity
  8
AM_5
100
AcDbDimension
  2
*D5
 10
-0.9999980904521603
 20
-13.50000718101106
 30
0.0
 11
-34.99999904522607
 21
-11.80000718101106
 31
0.0
 70
    32
  1
<>
  3
AM_JIS$0
100
AcDbAlignedDimension
 13
-68.99999999999998
 23
-1.250006209471275
 33
0.0
 14
-0.9999980904521596
 24
-1.099999292062917
 34
0.0
 50
0.0000000000001132
100
AcDbRotatedDimension
1001
GENIUS_GENDTOL_13
1000

1000
h7
1000

1040
0.0
1001
ACAD
1000
DSTYLE
1002
{
1070
   271
1070
     0
1002
}
  0
DIMENSION
  5
DF5
330
1F
100
AcDbEntity
  8
AM_5
100
AcDbDimension
  2
*D6
 10
-0.9999980904521599
 20
-8.50000718101104
 30
0.0
 11
-10.99999904522607
 21
-6.80000718101104
 31
0.0
 70
    32
  1
<>
  3
AM_JIS$0
100
AcDbAlignedDimension
 13
-20.99999999999998
 23
-1.499999305169979
 33
0.0
 14
-0.9999980904521596
 24
-1.099999292062917
 34
0.0
 50
0.0000000000001527
100
AcDbRotatedDimension
1001
GENIUS_GENDTOL_13
1000

1000
h7
1000

1040
0.0
1001
ACAD
1000
DSTYLE
1002
{
1070
   271
1070
     0
1002
}
  0
ARC
  5
144A
330
1F
100
AcDbEntity
  8
AM_11
 48
0.5
100
AcDbCircle
 10
-24.61968231200993
 20
-6.625446930970555
 30
0.0
 40
7.325448036193749
100
AcDbArc
 50
64.74833051131179
 51
115.2516644797366
  0
ARC
  5
144B
330
1F
100
AcDbEntity
  8
AM_11
 48
0.5
100
AcDbCircle
 10
-24.61968231200992
 20
6.625451430235442
 30
0.0
 40
7.325448036193749
100
AcDbArc
 50
244.7482808787518
 51
295.2516148471758
  0
ARC
  5
144E
330
1F
100
AcDbEntity
  8
AM_11
 48
0.5
100
AcDbCircle
 10
-18.36968231200992
 20
-6.625446930970555
 30
0.0
 40
7.325448036193749
100
AcDbArc
 50
64.74833051131179
 51
115.2516644797366
  0
ARC
  5
144F
330
1F
100
AcDbEntity
  8
AM_11
 48
0.5
100
AcDbCircle
 10
-18.36968231200992
 20
6.625451430235442
 30
0.0
 40
7.325448036193749
100
AcDbArc
 50
244.7482808787518
 51
295.2516148471758
  0
ARC
  5
1450
330
1F
100
AcDbEntity
  8
AM_11
 48
0.5
100
AcDbCircle
 10
-12.11968231201168
 20
6.625451430235442
 30
0.0
 40
7.325448036193749
100
AcDbArc
 50
244.7482808787518
 51
295.2516148471758
  0
ARC
  5
1451
330
1F
100
AcDbEntity
  8
AM_11
 48
0.5
100
AcDbCircle
 10
-12.11968231201168
 20
-6.625446930970555
 30
0.0
 40
7.325448036193749
100
AcDbArc
 50
64.74833051131179
 51
115.2516644797366
  0
ARC
  5
1452
330
1F
100
AcDbEntity
  8
AM_11
 48
0.5
100
AcDbCircle
 10
-5.869682312011681
 20
-6.625446930970555
 30
0.0
 40
7.325448036193749
100
AcDbArc
 50
64.74833051131179
 51
115.2516644797366
  0
ARC
  5
1453
330
1F
100
AcDbEntity
  8
AM_11
 48
0.5
100
AcDbCircle
 10
-5.869682312011681
 20
6.625451430235442
 30
0.0
 40
7.325448036193749
100
AcDbArc
 50
244.7482808787518
 51
295.2516148471758
  0
ARC
  5
1454
330
1F
100
AcDbEntity
  8
AM_11
 48
0.5
100
AcDbCircle
 10
0.3803176879883256
 20
6.625451430235442
 30
0.0
 40
7.325448036193749
100
AcDbArc
 50
244.7482808787518
 51
254.0147302238188
  0
ARC
  5
18B8
330
1F
100
AcDbEntity
  8
AM_11
 48
0.5
100
AcDbCircle
 10
-30.86968231200987
 20
6.625451430235421
 30
0.0
 40
7.325448036193749
100
AcDbArc
 50
244.7482808787518
 51
295.2516148471758
  0
ARC
  5
18B9
330
1F
100
AcDbEntity
  8
AM_11
 48
0.5
100
AcDbCircle
 10
-30.86968231200988
 20
-6.625446930970577
 30
0.0
 40
7.325448036193749
100
AcDbArc
 50
64.74833051131179
 51
115.2516644797366
  0
ARC
  5
18BA
330
1F
100
AcDbEntity
  8
AM_11
 48
0.5
100
AcDbCircle
 10
-37.11969507921029
 20
6.625457452091307
 30
0.0
 40
7.325448036193749
100
AcDbArc
 50
244.7482808787518
 51
295.2516148471758
  0
ARC
  5
18BB
330
1F
100
AcDbEntity
  8
AM_11
 48
0.5
100
AcDbCircle
 10
-37.11969507921031
 20
-6.625440909114692
 30
0.0
 40
7.325448036193749
100
AcDbArc
 50
64.74833051131179
 51
115.2516644797366
  0
TEXT
  5
19BD
330
1F
100
AcDbEntity
  8
AM_6
100
AcDbText
 10
-46.24999809265132
 20
-24.75000718101108
 30
0.0
 40
2.5
  1
MDW022MHK
 50
0.0000000000001527
 72
     4
 11
-34.99999809265133
 21
-23.50000718101106
 31
0.0
100
AcDbText
  0
LINE
  5
1B5C
330
1F
100
AcDbEntity
  8
AM_0
 48
0.5
100
AcDbLine
 10
-68.74999999999999
 20
1.500005264989105
 30
0.0
 11
-68.99999999999998
 21
1.250005235204411
 31
0.0
1001
GENIUS_GENFIL_13
1070
     0
1040
0.25
1040
0.25
1040
20.0
1040
0.0
1002
{
1002
}
1001
GENIUS_GENODEF_13
1002
{
1000
HIER
1070
     0
1002
}
1002
{
1000
MANEDIT
1070
     0
1002
}
1002
{
1000
NOSEL
1070
     0
1002
}
1002
{
1000
BEHIND
1070
     0
1002
}
1002
{
1000
REACTOR
1002
}
1001
GENIUS_GENOBJ-N-CHA_13
1002
{
1000
OWNER
1000
GEN
1002
}
  0
LINE
  5
1B60
330
1F
100
AcDbEntity
  8
AM_0
 48
0.5
100
AcDbLine
 10
-68.99999999999998
 20
-1.250006209471275
 30
0.0
 11
-68.74999999999999
 21
-1.500006181011199
 31
0.0
1001
GENIUS_GENFIL_13
1070
     0
1040
0.25
1040
0.25
1040
20.0
1040
0.0
1002
{
1002
}
1001
GENIUS_GENODEF_13
1002
{
1000
HIER
1070
     0
1002
}
1002
{
1000
MANEDIT
1070
     0
1002
}
1002
{
1000
NOSEL
1070
     0
1002
}
1002
{
1000
BEHIND
1070
     0
1002
}
1002
{
1000
REACTOR
1002
}
1001
GENIUS_GENOBJ-N-CHA_13
1002
{
1000
OWNER
1000
GEN
1002
}
  0
LINE
  5
1C15
330
1F
100
AcDbEntity
  8
AM_0
 48
0.5
100
AcDbLine
 10
-20.99999999999998
 20
-1.500000745136699
 30
0.0
 11
-20.99999999999999
 21
1.50001095386569
 31
0.0
  0
LINE
  5
1C1A
330
1F
100
AcDbEntity
  8
AM_0
 48
0.5
100
AcDbLine
 10
-20.99999980885465
 20
1.50001084350788
 30
0.0
 11
-68.74999999999999
 21
1.500005264989105
 31
0.0
  0
LINE
  5
1C1E
330
1F
100
AcDbEntity
  8
AM_0
 48
0.5
100
AcDbLine
 10
-20.99999999999999
 20
-1.499999305169979
 30
0.0
 11
-68.74999999999999
 21
-1.500006181011199
 31
0.0
  0
ARC
  5
1C22
330
1F
100
AcDbEntity
  8
AM_11
 48
0.5
100
AcDbCircle
 10
-49.6196950791465
 20
6.625457452091293
 30
0.0
 40
7.325448036193749
100
AcDbArc
 50
244.7482808787518
 51
295.2516148471758
  0
ARC
  5
1C23
330
1F
100
AcDbEntity
  8
AM_11
 48
0.5
100
AcDbCircle
 10
-49.61969507914652
 20
-6.625440909114706
 30
0.0
 40
7.325448036193749
100
AcDbArc
 50
64.74833051131179
 51
115.2516644797366
  0
ARC
  5
1C24
330
1F
100
AcDbEntity
  8
AM_11
 48
0.5
100
AcDbCircle
 10
-43.36968231194608
 20
6.625451430235407
 30
0.0
 40
7.325448036193749
100
AcDbArc
 50
244.7482808787518
 51
295.2516148471758
  0
ARC
  5
1C25
330
1F
100
AcDbEntity
  8
AM_11
 48
0.5
100
AcDbCircle
 10
-43.36968231194609
 20
-6.625446930970591
 30
0.0
 40
7.325448036193749
100
AcDbArc
 50
64.74833051131179
 51
115.2516644797366
  0
ARC
  5
1C26
330
1F
100
AcDbEntity
  8
AM_11
 48
0.5
100
AcDbCircle
 10
-62.11969507908262
 20
6.625457452091239
 30
0.0
 40
7.325448036193749
100
AcDbArc
 50
244.7482808787518
 51
295.2516148471758
  0
ARC
  5
1C27
330
1F
100
AcDbEntity
  8
AM_11
 48
0.5
100
AcDbCircle
 10
-62.11969507908264
 20
-6.62544090911476
 30
0.0
 40
7.325448036193749
100
AcDbArc
 50
64.74833051131179
 51
115.2516644797366
  0
ARC
  5
1C28
330
1F
100
AcDbEntity
  8
AM_11
 48
0.5
100
AcDbCircle
 10
-55.8696823118822
 20
6.625451430235353
 30
0.0
 40
7.325448036193749
100
AcDbArc
 50
244.7482808787518
 51
295.2516148471758
  0
ARC
  5
1C29
330
1F
100
AcDbEntity
  8
AM_11
 48
0.5
100
AcDbCircle
 10
-55.86968231188222
 20
-6.625446930970645
 30
0.0
 40
7.325448036193749
100
AcDbArc
 50
64.74833051131179
 51
115.2516644797366
  0
ARC
  5
1C2C
330
1F
100
AcDbEntity
  8
AM_11
 48
0.5
100
AcDbCircle
 10
-68.36968231181836
 20
6.625451430235318
 30
0.0
 40
7.325448036193749
100
AcDbArc
 50
265.0638846988117
 51
295.2516148471758
  0
ARC
  5
1C2D
330
1F
100
AcDbEntity
  8
AM_11
 48
0.5
100
AcDbCircle
 10
-68.36968231181836
 20
-6.62544693097068
 30
0.0
 40
7.325448036193749
100
AcDbArc
 50
64.74833051131179
 51
94.93611530118821
  0
DIMENSION
  5
1C71
330
1F
100
AcDbEntity
  8
AM_5
100
AcDbDimension
  2
*D7
 10
7.295959616461501
 20
1.100000645248398
 30
0.0
 11
7.295959616461502
 21
7.350000569158571
 31
0.0
 70
   160
  1
%%c<>
  3
AM_JIS$0
100
AcDbAlignedDimension
 13
-0.9999980904521596
 23
-1.099999292062917
 33
0.0
 14
-0.9999961853026988
 24
1.100000645248401
 34
0.0
 50
89.99999999999991
100
AcDbRotatedDimension
1001
GENIUS_GENDTOL_13
1000

1000
h7
1000

1040
0.0
1001
ACAD
1000
DSTYLE
1002
{
1070
   271
1070
     1
1002
}
  0
LINE
  5
1C85
330
1F
100
AcDbEntity
  8
AM_0
 48
0.5
100
AcDbLine
 10
-0.6234759835289908
 20
0.9597720226039683
 30
0.0
 11
-0.9999961853026988
 21
1.100000645248401
 31
0.0
  0
ELLIPSE
  5
1C86
330
1F
100
AcDbEntity
  8
AM_0
 48
0.5
100
AcDbEllipse
 10
2.100295910586382
 20
1.545378141536061
 30
0.0
 11
2.72778212456667
 21
0.5674865287294156
 31
0.0
210
0.0
220
0.0
230
0.9999999999999998
 40
0.512157548330619
 41
3.154597222684332
 42
3.655201069360919
  0
LINE
  5
1CF2
330
1F
100
AcDbEntity
  8
AM_0
100
AcDbLine
 10
-20.99999999999998
 20
-1.500000745136699
 30
0.0
 11
-20.30719015938062
 21
-1.100006797157883
 31
0.0
  0
LINE
  5
1CF3
330
1F
100
AcDbEntity
  8
AM_0
100
AcDbLine
 10
-20.99999999999999
 20
1.50001095386569
 30
0.0
 11
-20.30718942917776
 21
1.100016584304068
 31
0.0
  0
LINE
  5
1CF4
330
1F
100
AcDbEntity
  8
AM_0
100
AcDbLine
 10
-20.30718942917777
 20
1.100016584304069
 30
0.0
 11
-20.30719015938062
 21
-1.100006797157881
 31
0.0
  0
DIMENSION
  5
1DEF
330
1F
100
AcDbEntity
  8
AM_5
100
AcDbDimension
  2
*D8
 10
-76.7500013415234
 20
1.500013847201807
 30
0.0
 11
-76.7500013415234
 21
0.0000038330952925
 31
0.0
 70
   160
  1
%%c<>
 51
359.9999999999998
  3
AM_JIS$0
100
AcDbAlignedDimension
 13
-68.75
 23
-1.500006181011199
 33
0.0
 14
-68.75
 24
1.500013847201804
 34
0.0
 50
270.0000065225689
100
AcDbRotatedDimension
1001
ACAD
1000
DSTYLE
1002
{
1070
   271
1070
     0
1002
}
1001
GENIUS_GENDTOL_13
1000

1000
h7
1000

1040
0.0
  0
DIMENSION
  5
2365
330
1F
100
AcDbEntity
  8
AM_5
100
AcDbDimension
  2
*D9
 10
-0.1327428071771679
 20
-0.3647071370687703
 30
0.0
 11
12.49044543800058
 21
-0.0000167829153753
 31
0.0
 70
    34
  1
<>
 51
359.9999999999998
  3
AM_JIS$2
100
AcDb2LineAngularDimension
 13
0.0000000000000125
 23
-0.0000000000000057
 33
0.0
 14
-0.1327409203046539
 24
0.3647050023971202
 34
0.0
 15
0.0000000000000126
 25
-0.0000000000000011
 35
0.0
 16
12.89215437553651
 26
-5.561156683202058
 36
0.0
1001
GENIUS_GENDTOL_13
1000

1000
h7
1000

1040
0.0
1001
ACAD
1000
DSTYLE
1002
{
1070
   271
1070
     0
1002
}
  0
ELLIPSE
  5
25CA
330
1F
100
AcDbEntity
  8
AM_0
 48
0.5
100
AcDbEllipse
 10
2.100295910586385
 20
-1.545378141536056
 30
0.0
 11
2.727782124566671
 21
-0.5674865287294094
 31
0.0
210
0.0
220
0.0
230
-1.0
 40
0.512157548330619
 41
3.154597222684332
 42
3.655201069360919
  0
LINE
  5
25CB
330
1F
100
AcDbEntity
  8
AM_0
 48
0.5
100
AcDbLine
 10
-0.6234759835289888
 20
-0.9597720226039697
 30
0.0
 11
-0.9999980904521596
 21
-1.099999292062917
 31
0.0
  0
LINE
  5
29E8
330
1F
100
AcDbEntity
  8
AM_0
 48
0.5
100
AcDbLine
 10
-20.30717726875445
 20
-1.099999354751397
 30
0.0
 11
-15.50881233214353
 21
-1.099999354751462
 31
0.0
  0
LINE
  5
29E9
330
1F
100
AcDbEntity
  8
AM_0
100
AcDbLine
 10
-20.30718942917777
 20
1.100016584304069
 30
0.0
 11
-14.95431732729627
 21
1.100156920211483
 31
0.0
  0
LINE
  5
29EA
330
1F
100
AcDbEntity
  8
AM_0
 48
0.5
100
AcDbLine
 10
-1.809497833251953
 20
1.100000645248409
 30
0.0
 11
-0.9999961853026988
 21
1.100000645248401
 31
0.0
  0
LINE
  5
29EB
330
1F
100
AcDbEntity
  8
AM_0
 48
0.5
100
AcDbLine
 10
-1.809497833251981
 20
-1.09999935475159
 30
0.0
 11
-0.9999961853027274
 21
-1.099999354751599
 31
0.0
  0
LINE
  5
29EC
330
1F
100
AcDbEntity
  8
AM_0
 48
0.5
100
AcDbLine
 10
0.0000000000000111
 20
-0.0000000000000018
 30
0.0
 11
-1.195800413838609
 21
0.4223671846826466
 31
0.0
  0
LINE
  5
29ED
330
1F
100
AcDbEntity
  8
AM_0
 48
0.5
100
AcDbLine
 10
-11.91524887084945
 20
1.10000064524852
 30
0.0
 11
-6.571727752685447
 21
1.100000645248461
 31
0.0
  0
LINE
  5
29EE
330
1F
100
AcDbEntity
  8
AM_0
 48
0.5
100
AcDbLine
 10
-11.92243899290538
 20
-1.099999354751515
 30
0.0
 11
-6.571727752685475
 21
-1.099999354751538
 31
0.0
  0
LINE
  5
29EF
330
1F
100
AcDbEntity
  8
AM_11
 48
0.5
100
AcDbLine
 10
-14.95431732729627
 20
1.100156920211483
 30
0.0
 11
-11.91524476916883
 21
1.10000064524852
 31
0.0
  0
LINE
  5
29F0
330
1F
100
AcDbEntity
  8
AM_11
 48
0.5
100
AcDbLine
 10
-15.49995592384562
 20
-1.100055948893109
 30
0.0
 11
-11.91508337238329
 21
-1.100055948893162
 31
0.0
  0
LINE
  5
29F1
330
1F
100
AcDbEntity
  8
AM_0
 48
0.5
100
AcDbLine
 10
-12.71071624975775
 20
0.5572936375935808
 30
0.0
 11
-15.99999618530272
 21
-0.0890181859333478
 31
0.0
  0
LINE
  5
29F2
330
1F
100
AcDbEntity
  8
AM_11
 48
0.5
100
AcDbLine
 10
-15.50881233214353
 20
-1.099999354751462
 30
0.0
 11
-10.8093715671196
 21
-1.100155629714441
 31
0.0
  0
LINE
  5
29F3
330
1F
100
AcDbEntity
  8
AM_11
 48
0.5
100
AcDbLine
 10
-6.571727752685447
 20
1.100000645248461
 30
0.0
 11
-1.809497833251953
 21
1.100000645248409
 31
0.0
  0
LINE
  5
29F4
330
1F
100
AcDbEntity
  8
AM_11
 48
0.5
100
AcDbLine
 10
-6.571727752685475
 20
-1.099999354751538
 30
0.0
 11
-1.809497833251981
 21
-1.09999935475159
 31
0.0
  0
SPLINE
  5
29F5
330
1F
100
AcDbEntity
  8
AM_0
100
AcDbSpline
210
0.0
220
0.0
230
1.0
 70
     8
 71
     3
 72
    23
 73
    19
 74
     0
 42
0.0000000001
 43
0.0000000001
 40
16.03460024169435
 40
16.03460024169435
 40
16.03460024169435
 40
16.03460024169435
 40
16.35212704903564
 40
17.38177054169784
 40
18.41822485651776
 40
19.46214173629503
 40
20.51396345435107
 40
21.57393551351153
 40
22.64208202342361
 40
23.7182574881101
 40
24.80209208578934
 40
25.89306333925047
 40
26.99048218457928
 40
28.09348763352352
 40
29.20111863782268
 40
30.31232390128032
 40
31.42594612798585
 40
32.5407912310448
 40
32.5407912310486
 40
32.5407912310486
 40
32.5407912310486
 10
-14.95431732729627
 20
1.100156920211483
 30
0.0
 10
-14.92834453111724
 20
1.09644351392106
 30
0.0
 10
-14.81826040805296
 20
1.080272674687351
 30
0.0
 10
-14.62434603975047
 20
1.04858838319009
 30
0.0
 10
-14.37322642516049
 20
1.001474188229702
 30
0.0
 10
-14.12234006228041
 20
0.9485728004304183
 30
0.0
 10
-13.87167212603496
 20
0.8901903860423024
 30
0.0
 10
-13.62121371977487
 20
0.8266524283325773
 30
0.0
 10
-13.37095036760451
 20
0.7583221370623038
 30
0.0
 10
-13.12086464213524
 20
0.6855971773869929
 30
0.0
 10
-12.87094233259794
 20
0.6088893865131537
 30
0.0
 10
-12.62116340181481
 20
0.5286451092025632
 30
0.0
 10
-12.3715076079967
 20
0.4453307598643577
 30
0.0
 10
-12.12195831729012
 20
0.3594253610796192
 30
0.0
 10
-11.87249465020899
 20
0.2714284409780156
 30
0.0
 10
-11.62309350113448
 20
0.1818538370133751
 30
0.0
 10
-11.37373456177278
 20
0.0912206097597254
 30
0.0
 10
-11.20753992068107
 20
0.030455986659799
 30
0.0
 10
-11.12439727783139
 20
0.0000565941414864
 30
0.0
  0
SPLINE
  5
29F6
330
1F
100
AcDbEntity
  8
AM_0
 48
0.5
100
AcDbSpline
210
0.0
220
0.0
230
1.0
 70
     8
 71
     3
 72
    17
 73
    13
 74
     0
 42
0.0000000001
 43
0.0000000001
 40
0.0
 40
0.0
 40
0.0
 40
0.0
 40
1.010743614677189
 40
2.022833924044153
 40
3.037578959561199
 40
4.056212747067873
 40
5.079857613375832
 40
6.109500119648989
 40
7.14596120163808
 40
8.18989512056258
 40
9.241717674284874
 40
9.693948937866434
 40
9.693948937866434
 40
9.693948937866434
 40
9.693948937866434
 10
-1.809497833251953
 20
1.100000645248409
 30
0.0
 10
-1.893731150632419
 20
1.09934664354286
 30
0.0
 10
-2.062310016190146
 20
1.098037768752906
 30
0.0
 10
-2.315116645576196
 20
1.087476272784048
 30
0.0
 10
-2.567912867060059
 20
1.070692622942777
 30
0.0
 10
-2.820693366770314
 20
1.047167163207457
 30
0.0
 10
-3.073455134164448
 20
1.017218952811481
 30
0.0
 10
-3.326195082007332
 20
0.9809868423762727
 30
0.0
 10
-3.578909818104095
 20
0.9387040699790828
 30
0.0
 10
-3.831609148800924
 20
0.8906552941331973
 30
0.0
 10
-4.035594637997259
 20
0.8473706102231776
 30
0.0
 10
-4.155386877142827
 20
0.820311458169508
 30
0.0
 10
-4.191342080401245
 20
0.8120288328677943
 30
0.0
  0
SPLINE
  5
29F7
330
1F
100
AcDbEntity
  8
AM_0
 48
0.5
100
AcDbSpline
210
0.0
220
0.0
230
1.0
 70
     8
 71
     3
 72
    16
 73
    12
 74
     0
 42
0.0000000001
 43
0.0000000001
 40
0.0
 40
0.0
 40
0.0
 40
0.0
 40
1.010743614677189
 40
2.022833924044153
 40
3.037578959561199
 40
4.056212747067873
 40
5.079857613375832
 40
6.109500119648989
 40
7.14596120163808
 40
8.18989512056258
 40
8.545190612624931
 40
8.545190612624931
 40
8.545190612624931
 40
8.545190612624931
 10
-1.809497833251953
 20
1.100000645248409
 30
0.0
 10
-1.893726467808377
 20
1.099994035184219
 30
0.0
 10
-2.062312192906844
 20
1.097736931437828
 30
0.0
 10
-2.315116058305228
 20
1.087557147190748
 30
0.0
 10
-2.567913033000892
 20
1.070670856081809
 30
0.0
 10
-2.820693292843217
 20
1.047172975575147
 30
0.0
 10
-3.073455263807724
 20
1.017217608891533
 30
0.0
 10
-3.326194633890823
 20
0.9809863527334254
 30
0.0
 10
-3.578911496743353
 20
0.9387074193782876
 30
0.0
 10
-3.775410570665324
 20
0.9013307440331688
 30
0.0
 10
-3.887725423709798
 20
0.8783431632531881
 30
0.0
 10
-3.916207843175389
 20
0.8724110511889941
 30
0.0
  0
SPLINE
  5
29F8
330
1F
100
AcDbEntity
  8
AM_0
 48
0.5
100
AcDbSpline
210
0.0
220
0.0
230
1.0
 70
     8
 71
     3
 72
    25
 73
    21
 74
     0
 42
0.0000000001
 43
0.0000000001
 40
6.846175049578289
 40
6.846175049578289
 40
6.846175049578289
 40
6.846175049578289
 40
7.604337694224321
 40
8.711974558287883
 40
9.814980593243754
 40
10.91239053451967
 40
12.0033633515982
 40
13.08720139956839
 40
14.16337181880432
 40
15.23152222380919
 40
16.29148850140128
 40
17.34331105512262
 40
18.38723020264746
 40
19.42369128463655
 40
20.45333379090873
 40
21.47697865721768
 40
22.49561244472435
 40
23.5103574802404
 40
24.52244778960836
 40
25.53320666051913
 40
25.53320666051913
 40
25.53320666051913
 40
25.53320666051913
 10
-2.10433424149056
 20
0.1991078467843353
 30
0.0
 10
-2.161763302216482
 20
0.2184218904415383
 30
0.0
 10
-2.30321414679236
 20
0.2657594937500549
 30
0.0
 10
-2.528896986215566
 20
0.3400965716648331
 30
0.0
 10
-2.781427137517874
 20
0.4211818329254423
 30
0.0
 10
-3.033969988725503
 20
0.4996764423958647
 30
0.0
 10
-3.286527709652196
 20
0.5750977710744946
 30
0.0
 10
-3.539103114414237
 20
0.6469805072089661
 30
0.0
 10
-3.791698538540762
 20
0.7148813571456678
 30
0.0
 10
-4.044315151415549
 20
0.7783830210144222
 30
0.0
 10
-4.296956064627212
 20
0.8370903076808653
 30
0.0
 10
-4.549620936069803
 20
0.8906432218574401
 30
0.0
 10
-4.802311580582073
 20
0.9387075939203967
 30
0.0
 10
-5.055027106407112
 20
0.980985960964842
 30
0.0
 10
-5.307766526310361
 20
1.017219186849548
 30
0.0
 10
-5.560528433915735
 20
1.047167100947031
 30
0.0
 10
-5.813308896349448
 20
1.070692639660886
 30
0.0
 10
-6.066105127714251
 20
1.087476267807353
 30
0.0
 10
-6.318913024365556
 20
1.098037825052
 30
0.0
 10
-6.487493163036987
 20
1.099346659007625
 30
0.0
 10
-6.571727752685447
 20
1.100000645248461
 30
0.0
  0
SPLINE
  5
29F9
330
1F
100
AcDbEntity
  8
AM_0
 48
0.5
100
AcDbSpline
210
0.0
220
0.0
230
1.0
 70
     8
 71
     3
 72
    10
 73
     6
 74
     0
 42
0.0000000001
 43
0.0000000001
 40
0.0
 40
0.0
 40
0.0
 40
0.0
 40
2.69986029516136
 40
4.147722969032201
 40
6.285750005020438
 40
6.285750005020438
 40
6.285750005020438
 40
6.285750005020438
 10
-2.104293823242213
 20
0.1990947818043818
 30
0.0
 10
-1.924366089490894
 20
0.096897180461789
 30
0.0
 10
-1.647947937268825
 20
-0.0601062538375166
 30
0.0
 10
-0.9942561391823332
 20
0.0159018591749007
 30
0.0
 10
-1.117365318560242
 20
0.2719072411710826
 30
0.0
 10
-1.198707998525359
 20
0.4279504062512984
 30
0.0
  0
SPLINE
  5
29FA
330
1F
100
AcDbEntity
  8
AM_0
100
AcDbSpline
210
0.0
220
0.0
230
1.0
 70
     8
 71
     3
 72
    46
 73
    42
 74
     0
 42
0.0000000001
 43
0.0000000001
 40
0.0
 40
0.0
 40
0.0
 40
0.0
 40
0.5056245176053715
 40
0.759310862862336
 40
1.013969309739036
 40
1.269880374404297
 40
1.527291183660732
 40
1.786406454158005
 40
2.047386241038974
 40
2.310345544571907
 40
2.575337113970003
 40
2.842374715221223
 40
3.111417320030211
 40
3.382376832022752
 40
3.655120036292296
 40
3.929472521611371
 40
4.205224030350333
 40
4.482133246366229
 40
4.759933319229942
 40
5.038338087391601
 40
5.317048131389549
 40
5.595758175387723
 40
5.874162943549383
 40
6.151963016412869
 40
6.428872232428759
 40
6.704623741167955
 40
6.978976226486705
 40
7.251719430756336
 40
7.522680721168327
 40
7.791723325977311
 40
8.058760927228529
 40
8.32375249662655
 40
8.586708135057122
 40
8.84768792193809
 40
9.106803192435362
 40
9.364213819003406
 40
9.620125035580644
 40
9.87478726697307
 40
10.12847352585208
 40
10.38149610319407
 40
10.63418200686337
 40
10.63418200686337
 40
10.63418200686337
 40
10.63418200686337
 10
-1.10181045532223
 20
-1.099999354751598
 30
0.0
 10
-1.270397486080586
 20
-1.09749346972059
 30
0.0
 10
-1.523569473069626
 20
-1.093730310184459
 30
0.0
 10
-1.860223304552951
 20
-1.070561228249699
 30
0.0
 10
-2.113006425815754
 20
-1.047200630410457
 30
0.0
 10
-2.365767940139301
 20
-1.017209590953459
 30
0.0
 10
-2.618507181663216
 20
-0.9809869115933874
 30
0.0
 10
-2.87122285201645
 20
-0.93870576759643
 30
0.0
 10
-3.123914527938224
 20
-0.8906415937758179
 30
0.0
 10
-3.37658108486133
 20
-0.8370895112738326
 30
0.0
 10
-3.629223027805617
 20
-0.7783816699655933
 30
0.0
 10
-3.881839677241073
 20
-0.714880083014645
 30
0.0
 10
-4.134435091589333
 20
-0.6469792124439114
 30
0.0
 10
-4.387010498514603
 20
-0.5750964811116239
 30
0.0
 10
-4.639568220683305
 20
-0.4996751540954508
 30
0.0
 10
-4.892111064676205
 20
-0.4211805330258498
 30
0.0
 10
-5.144641243791574
 20
-0.3400953168202335
 30
0.0
 10
-5.397161215785205
 20
-0.256918222241551
 30
0.0
 10
-5.649673658088662
 20
-0.1721611555685305
 30
0.0
 10
-5.902180877419608
 20
-0.0863453131822145
 30
0.0
 10
-6.154685974130283
 20
0.0000006452309865
 30
0.0
 10
-6.407191070785481
 20
0.086346603749115
 30
0.0
 10
-6.659698290282819
 20
0.1721624458208013
 30
0.0
 10
-6.912210731978101
 20
0.2569195136436543
 30
0.0
 10
-7.16473070622688
 20
0.3400966039580275
 30
0.0
 10
-7.417260876980367
 20
0.4211818359752691
 30
0.0
 10
-7.669803751940155
 20
0.4996763984888574
 30
0.0
 10
-7.922361908612519
 20
0.5750981060670112
 30
0.0
 10
-8.174938296923969
 20
0.6469801843082458
 30
0.0
 10
-8.427534161863727
 20
0.7148814030513901
 30
0.0
 10
-8.680150805417557
 20
0.7783830088974399
 30
0.0
 10
-8.932791710537443
 20
0.8370903107307885
 30
0.0
 10
-9.185456583995236
 20
0.8906432216381269
 30
0.0
 10
-9.438147228446542
 20
0.9387075918061494
 30
0.0
 10
-9.690862752541216
 20
0.9809859695486927
 30
0.0
 10
-9.943602179358077
 20
1.017219154913175
 30
0.0
 10
-10.19636530682511
 20
1.047167366781262
 30
0.0
 10
-10.44914712556057
 20
1.07069241887741
 30
0.0
 10
-10.70194458378415
 20
1.087476304810046
 30
0.0
 10
-10.95475121836741
 20
1.098037760767676
 30
0.0
 10
-11.12333008323358
 20
1.099346640882371
 30
0.0
 10
-11.20756340026845
 20
1.100000645248513
 30
0.0
  0
SPLINE
  5
29FB
330
1F
100
AcDbEntity
  8
AM_0
100
AcDbSpline
210
0.0
220
0.0
230
1.0
 70
     8
 71
     3
 72
    55
 73
    51
 74
     0
 42
0.0000000001
 43
0.0000000001
 40
0.0
 40
0.0
 40
0.0
 40
0.0
 40
1.010743684496582
 40
2.022833576467832
 40
3.037578957496688
 40
4.056212745003489
 40
5.079857003664532
 40
6.109500240690281
 40
7.145961322679372
 40
8.189895241603872
 40
9.241717795325891
 40
10.30168407291828
 40
11.36983447792315
 40
12.44600489715814
 40
13.52984294512926
 40
14.62081576220742
 40
15.7182257034828
 40
16.82123173843959
 40
17.92886860250316
 40
19.0400688939571
 40
20.15368796660465
 40
21.26852814259644
 40
22.38336992938901
 40
23.49698739941135
 40
24.6081876908653
 40
25.71582455492886
 40
26.81883757994213
 40
27.91624752121713
 40
29.00722033829659
 40
30.09105838626677
 40
31.16722880550176
 40
32.23537921050758
 40
33.29534548809967
 40
34.347168041821
 40
35.39108718934584
 40
36.42754827133493
 40
37.45720575381954
 40
38.48085062012849
 40
39.49948440763516
 40
40.51422944315121
 40
41.52631975251916
 40
42.53706336719636
 40
43.54780698187354
 40
44.55989729124051
 40
45.57464232675757
 40
46.59327611426424
 40
47.6169209805722
 40
48.64656348684535
 40
49.68302456883444
 40
50.58557219878025
 40
50.58557219878025
 40
50.58557219878025
 40
50.58557219878025
 10
-1.809497833251981
 20
-1.09999935475159
 30
0.0
 10
-1.893731135302993
 20
-1.099344881400718
 30
0.0
 10
-2.062309929570119
 20
-1.098035063007242
 30
0.0
 10
-2.315116771934319
 20
-1.087476456300115
 30
0.0
 10
-2.567912822927616
 20
-1.07069102985158
 30
0.0
 10
-2.820693228327235
 20
-1.047165616286123
 30
0.0
 10
-3.073455465782649
 20
-1.017219030061865
 30
0.0
 10
-3.326194548860049
 20
-0.9809844388754298
 30
0.0
 10
-3.578911322960462
 20
-0.938705931848154
 30
0.0
 10
-3.831603546996834
 20
-0.8906424023283591
 30
0.0
 10
-4.084269499674586
 20
-0.8370889574715711
 30
0.0
 10
-4.336910440393809
 20
-0.7783817467152679
 30
0.0
 10
-4.589527045777328
 20
-0.7148800622139778
 30
0.0
 10
-4.842122472067274
 20
-0.6469792180842501
 30
0.0
 10
-5.094697875739605
 20
-0.5750964795614477
 30
0.0
 10
-5.347255598859836
 20
-0.4996751546033812
 30
0.0
 10
-5.59979844232729
 20
-0.4211805325546867
 30
0.0
 10
-5.852328622592798
 20
-0.3400953182024296
 30
0.0
 10
-6.104848590490532
 20
-0.256918217157803
 30
0.0
 10
-6.357361048091448
 20
-0.1721611745958036
 30
0.0
 10
-6.609868210170183
 20
-0.08634524198201
 30
0.0
 10
-6.862373642518982
 20
0.000000420808507
 30
0.0
 10
-7.114877941329666
 20
0.0863476378747654
 30
0.0
 10
-7.367385949757368
 20
0.1721622341075
 30
0.0
 10
-7.619898095628274
 20
0.2569195332242419
 30
0.0
 10
-7.872418513766313
 20
0.3400969511365496
 30
0.0
 10
-8.124949741648148
 20
0.421181473493349
 30
0.0
 10
-8.377492983694931
 20
0.4996764936189929
 30
0.0
 10
-8.63005074327609
 20
0.5750977574181409
 30
0.0
 10
-8.882626137758011
 20
0.6469805110576133
 30
0.0
 10
-9.135221564694756
 20
0.7148813552866662
 30
0.0
 10
-9.387838176512618
 20
0.778383024603746
 30
0.0
 10
-9.640479091156539
 20
0.8370902953055125
 30
0.0
 10
-9.893143957968842
 20
0.890643267286069
 30
0.0
 10
-10.14583461939567
 20
0.9387074263181844
 30
0.0
 10
-10.39855129975127
 20
0.9809867835130489
 30
0.0
 10
-10.65129218747044
 20
1.01721723620618
 30
0.0
 10
-10.90405525998086
 20
1.047173091531936
 30
0.0
 10
-11.15683574031589
 20
1.070670618756098
 30
0.0
 10
-11.40963196695957
 20
1.087557976984806
 30
0.0
 10
-11.6624385949737
 20
1.097733858645837
 30
0.0
 10
-11.91525077826016
 20
1.101133283998519
 30
0.0
 10
-12.16806296117464
 20
1.097733858640512
 30
0.0
 10
-12.42086959030686
 20
1.087557977006196
 30
0.0
 10
-12.67366581283401
 20
1.070670618675527
 30
0.0
 10
-12.9264463086029
 20
1.047173091834759
 30
0.0
 10
-13.17920809082348
 20
1.01721738110718
 30
0.0
 10
-13.43194798283974
 20
0.9809871539498697
 30
0.0
 10
-13.67317418417831
 20
0.9406266414626138
 30
0.0
 10
-13.82968449076884
 20
0.9111106171255746
 30
0.0
 10
-13.90229615094642
 20
0.8967260185877572
 30
0.0
  0
SPLINE
  5
29FC
330
1F
100
AcDbEntity
  8
AM_0
100
AcDbSpline
210
0.0
220
0.0
230
1.0
 70
     8
 71
     3
 72
    11
 73
     7
 74
     0
 42
0.0000000001
 43
0.0000000001
 40
11.27226913003534
 40
11.27226913003534
 40
11.27226913003534
 40
11.2722691300354
 40
12.28301561507924
 40
13.29510212255852
 40
14.30984805882082
 40
15.18258238371378
 40
15.18258238371378
 40
15.18258238371378
 40
15.18258238371378
 10
-6.571727752685468
 20
-1.099999354751538
 30
0.0
 10
-6.655640757146046
 20
-1.094615635093625
 30
0.0
 10
-6.823308490184168
 20
-1.081581884110862
 30
0.0
 10
-7.073944284825707
 20
-1.055289584487971
 30
0.0
 10
-7.31180207333777
 20
-1.023886315426649
 30
0.0
 10
-7.465634528975297
 20
-0.9997456878779694
 30
0.0
 10
-7.536524904908237
 20
-0.9878208846570808
 30
0.0
  0
SPLINE
  5
29FD
330
1F
100
AcDbEntity
  8
AM_0
100
AcDbSpline
210
0.0
220
0.0
230
1.0
 70
     8
 71
     3
 72
    22
 73
    18
 74
     0
 42
0.0000000001
 43
0.0000000001
 40
17.17441611292
 40
17.17441611292
 40
17.17441611292
 40
17.17441611292
 40
17.38177636558528
 40
18.41823744757437
 40
19.46215659509824
 40
20.51397914882054
 40
21.57394542641293
 40
22.64209583141747
 40
23.71826625065247
 40
24.80210429862395
 40
25.8930771157021
 40
26.99048705697709
 40
28.09349309193389
 40
29.20112995599786
 40
30.31233024745139
 40
31.42594771747373
 40
32.5407895042663
 40
32.54078950426994
 40
32.54078950426994
 40
32.54078950426994
 10
-7.536635466054041
 20
-0.9878073161654921
 30
0.0
 10
-7.55356377225969
 20
-0.9852609240554388
 30
0.0
 10
-7.655039722876072
 20
-0.9697505713855861
 30
0.0
 10
-7.840937946258232
 20
-0.9386502955651851
 30
0.0
 10
-8.093628571551757
 20
-0.8905859984443599
 30
0.0
 10
-8.346293448200992
 20
-0.8370330639587896
 30
0.0
 10
-8.598934360005802
 20
-0.7783257828041475
 30
0.0
 10
-8.851550973245114
 20
-0.7148241174137177
 30
0.0
 10
-9.104146397336503
 20
-0.6469232679950005
 30
0.0
 10
-9.356721801867788
 20
-0.5750405313213789
 30
0.0
 10
-9.609279523762072
 20
-0.4996192042911991
 30
0.0
 10
-9.861822371301093
 20
-0.4211245887195733
 30
0.0
 10
-10.11435253640439
 20
-0.3400393503713865
 30
0.0
 10
-10.36687256119638
 20
-0.256862339334716
 30
0.0
 10
-10.61938468404729
 20
-0.1721050000764752
 30
0.0
 10
-10.8718926457046
 20
-0.0862903311919071
 30
0.0
 10
-11.04019824395017
 20
-0.0287362530826581
 30
0.0
 10
-11.12439727783251
 20
0.0000565941418816
 30
0.0
  0
SPLINE
  5
29FE
330
1F
100
AcDbEntity
  8
AM_0
100
AcDbSpline
210
0.0
220
0.0
230
1.0
 70
     8
 71
     3
 72
    17
 73
    13
 74
     0
 42
0.0000000001
 43
0.0000000001
 40
1.580019955310467
 40
1.580019955310467
 40
1.580019955310467
 40
1.580019955310467
 40
2.030549285115227
 40
3.082371838836284
 40
4.126290986361125
 40
5.162752068350215
 40
6.192395305374981
 40
7.216039564037012
 40
8.234688489606833
 40
9.249433870634691
 40
10.26152376260694
 40
11.27226744710342
 40
11.27226744710342
 40
11.27226744710342
 40
11.27226744710352
 10
-4.190427019806389
 20
-0.8118317460009606
 30
0.0
 10
-4.226194968271141
 20
-0.8201929452108959
 30
0.0
 10
-4.345671932821911
 20
-0.8475978924192521
 30
0.0
 10
-4.549648740357352
 20
-0.8905835326815845
 30
0.0
 10
-4.802304191693989
 20
-0.9387217473401481
 30
0.0
 10
-5.05502919883983
 20
-0.9809807084204077
 30
0.0
 10
-5.307765785757274
 20
-1.01721850083322
 30
0.0
 10
-5.560529907872903
 20
-1.047171529126547
 30
0.0
 10
-5.813311492736416
 20
-1.070668864575378
 30
0.0
 10
-6.066108817804902
 20
-1.0875582365837
 30
0.0
 10
-6.31891565480693
 20
-1.097730926302501
 30
0.0
 10
-6.487494451745732
 20
-1.099999361045797
 30
0.0
 10
-6.571727752685454
 20
-1.099999354751538
 30
0.0
  0
SPLINE
  5
29FF
330
1F
100
AcDbEntity
  8
AM_0
 48
0.5
100
AcDbSpline
210
0.0
220
0.0
230
1.0
 70
     8
 71
     3
 72
    22
 73
    18
 74
     0
 42
0.0000000001
 43
0.0000000001
 40
0.0
 40
0.0
 40
0.0
 40
0.0
 40
1.010743684496582
 40
2.022833993863546
 40
3.037578683882831
 40
4.056212471389632
 40
5.079857945358201
 40
6.109499720892564
 40
7.145961650132166
 40
8.189873411961459
 40
9.241710626092514
 40
10.30166235592959
 40
11.36982472628033
 40
12.44598212828784
 40
13.52983440361964
 40
14.62080578343036
 40
14.90544694398022
 40
14.90544694398022
 40
14.90544694398022
 40
14.90544694398022
 10
-11.91515732031453
 20
-1.100055948893161
 30
0.0
 10
-11.99939063846109
 20
-1.099401671067529
 30
0.0
 10
-12.16796949972565
 20
-1.098092243714769
 30
0.0
 10
-12.42077607719576
 20
-1.087530695786211
 30
0.0
 10
-12.67357240174112
 20
-1.07074809522398
 30
0.0
 10
-12.92635294155292
 20
-1.047222659971493
 30
0.0
 10
-13.1791144905681
 20
-1.017273279861029
 30
0.0
 10
-13.43185441190251
 20
-0.9810417345014471
 30
0.0
 10
-13.68456900201928
 20
-0.9387622202382186
 30
0.0
 10
-13.9372599986721
 20
-0.8906970219395693
 30
0.0
 10
-14.18992512600667
 20
-0.8371462506682654
 30
0.0
 10
-14.4425657044261
 20
-0.778435822450407
 30
0.0
 10
-14.69518336253387
 20
-0.7149393385834788
 30
0.0
 10
-14.94777791058447
 20
-0.6470342829760602
 30
0.0
 10
-15.20035408063919
 20
-0.5751532415766124
 30
0.0
 10
-15.3901827235763
 20
-0.5184672631921168
 30
0.0
 10
-15.49596186775159
 20
-0.4860673800692971
 30
0.0
 10
-15.48069164026521
 20
-0.4907749512518959
 30
0.0
  0
SPLINE
  5
2A00
330
1F
100
AcDbEntity
  8
AM_0
 48
0.5
100
AcDbSpline
210
0.0
220
0.0
230
1.0
 70
     8
 71
     3
 72
    26
 73
    22
 74
     0
 42
0.0000000001
 43
0.0000000001
 40
0.0
 40
0.0
 40
0.0
 40
0.0
 40
0.2526859211241313
 40
0.5057083941171959
 40
0.7593947393741639
 40
1.01405318625086
 40
1.26996425091637
 40
1.527375060172565
 40
1.786490330669834
 40
2.047470117551047
 40
2.310425755981314
 40
2.575417325379407
 40
2.842456731169063
 40
3.111495753801943
 40
3.382458822635121
 40
3.655202026904655
 40
3.929554512223505
 40
4.205306020962704
 40
4.482215236978595
 40
4.76001530984208
 40
5.029821427366006
 40
5.029821427366006
 40
5.029821427366006
 40
5.029821427366006
 10
-11.20746994238479
 20
-1.100055948893168
 30
0.0
 10
-11.29170324444593
 20
-1.099401475570817
 30
0.0
 10
-11.46028203873342
 20
-1.098091657234414
 30
0.0
 10
-11.71308888094522
 20
-1.087533050098419
 30
0.0
 10
-11.96588493251999
 20
-1.070747625286331
 30
0.0
 10
-12.21866533573393
 20
-1.047222205569569
 30
0.0
 10
-12.4714275814084
 20
-1.017275642476702
 30
0.0
 10
-12.72416663353901
 20
-0.9810409641949744
 30
0.0
 10
-12.97688232398966
 20
-0.9387629862700029
 30
0.0
 10
-13.22957292924492
 20
-0.8906984838468108
 30
0.0
 10
-13.48223785191975
 20
-0.8371456891322516
 30
0.0
 10
-13.73487917145589
 20
-0.7784379191749814
 30
0.0
 10
-13.98749584099025
 20
-0.7149376755309711
 30
0.0
 10
-14.24009072274077
 20
-0.6470344844411221
 30
0.0
 10
-14.4926671940752
 20
-0.5751538194768992
 30
0.0
 10
-14.74522580071632
 20
-0.4997317272758687
 30
0.0
 10
-14.99776842535585
 20
-0.4212367880324571
 30
0.0
 10
-15.25029970564198
 20
-0.3401532985746322
 30
0.0
 10
-15.50281546821494
 20
-0.2569695770417909
 30
0.0
 10
-15.75273734528535
 20
-0.1731119254817258
 30
0.0
 10
-15.9183199918835
 20
-0.116775766936833
 30
0.0
 10
-15.99999618530272
 20
-0.0890181859333478
 30
0.0
  0
SPLINE
  5
2A01
330
1F
100
AcDbEntity
  8
AM_0
100
AcDbSpline
210
0.0
220
0.0
230
1.0
 70
     8
 71
     3
 72
    13
 73
     9
 74
     0
 42
0.0000000001
 43
0.0000000001
 40
16.03460056234195
 40
16.03460056234195
 40
16.03460056234195
 40
16.03460056234195
 40
16.35212717791071
 40
17.38177067057215
 40
18.41822498539278
 40
19.46214186516937
 40
20.5139635832251
 40
21.34083983469381
 40
21.34083983469381
 40
21.34083983469381
 40
21.34083983469381
 10
-15.50002796442811
 20
-1.100055948893109
 30
0.0
 10
-15.42845516979227
 20
-1.096442692117941
 30
0.0
 10
-15.31837095563563
 20
-1.080272296559924
 30
0.0
 10
-15.12445669303885
 20
-1.048587635141123
 30
0.0
 10
-14.87333704684661
 20
-1.001473570817115
 30
0.0
 10
-14.62245069252506
 20
-0.9485721476392912
 30
0.0
 10
-14.3902982808744
 20
-0.8945021451085024
 30
0.0
 10
-14.2421891304231
 20
-0.8572711004036893
 30
0.0
 10
-14.17721453380052
 20
-0.8404423289477719
 30
0.0
  0
ELLIPSE
  5
2A02
330
1F
100
AcDbEntity
  8
AM_0
 48
0.5
100
AcDbEllipse
 10
0.5035095214845591
 20
1.320618321029628
 30
0.0
 11
3.02316713333124
 21
0.0000000000000082
 31
0.0
210
0.0
220
0.0
230
1.0
 40
0.733333333333333
 41
3.67196020682387
 42
4.080081137018767
  0
ELLIPSE
  5
2A03
330
1F
100
AcDbEntity
  8
AM_0
 48
0.5
100
AcDbEllipse
 10
1.097408294677784
 20
-0.2445142015533118
 30
0.0
 11
-2.400000095367424
 21
0.000000000000014
 31
0.0
210
0.0
220
0.0
230
1.0
 40
0.7333333333333317
 41
0.1271824985742862
 42
0.5075883269309843
  0
ELLIPSE
  5
2A04
330
1F
100
AcDbEntity
  8
AM_0
 48
0.5
100
AcDbEllipse
 10
-0.6550613325050599
 20
-0.2866752372940783
 30
0.0
 11
-0.0586194885103736
 21
0.1770888538101021
 31
0.0
210
0.0
220
0.0
230
0.9999999999999998
 40
0.6585818540753394
 41
1.679152880003652
 42
4.814494769715626
  0
ELLIPSE
  5
2A05
330
1F
100
AcDbEntity
  8
AM_0
 48
0.5
100
AcDbEllipse
 10
-0.6550613325050599
 20
-0.2866752372940783
 30
0.0
 11
-0.2229610497911992
 21
0.080114395101865
 31
0.0
210
0.0
220
0.0
230
0.9999999999999998
 40
0.4082805460677632
 41
4.348466753326677
 42
7.491907094656189
  0
ELLIPSE
  5
2A06
330
1F
100
AcDbEntity
  8
AM_0
 48
0.5
100
AcDbEllipse
 10
-2.596573049210363
 20
1.846199378693075
 30
0.0
 11
-3.241328860911508
 21
1.098570327175913
 31
0.0
210
0.0
220
0.0
230
0.9999999999999998
 40
0.590684243995354
 41
2.437918257188357
 42
2.671880339622505
  0
ELLIPSE
  5
2A07
330
1F
100
AcDbEntity
  8
AM_0
 48
0.5
100
AcDbEllipse
 10
-0.7644579115636035
 20
-1.243673537672145
 30
0.0
 11
1.975207630643956
 21
0.4417195981327464
 31
0.0
210
0.0
220
0.0
230
1.0
 40
0.4361397616010452
 41
1.473653707690043
 42
1.738031086235975
  0
ELLIPSE
  5
2A08
330
1F
100
AcDbEntity
  8
AM_0
 48
0.5
100
AcDbEllipse
 10
-15.6251193602041
 20
-0.7445608774819773
 30
0.0
 11
-0.3749999999999984
 21
0.0000000000000108
 31
0.0
210
0.0
220
0.0
230
1.0
 40
0.7333333333333391
 41
4.317028824483101
 42
6.257553905069387
  0
ELLIPSE
  5
2A09
330
1F
100
AcDbEntity
  8
AM_0
 48
0.5
100
AcDbEllipse
 10
-15.50002780746985
 20
-0.7333892822264606
 30
0.0
 11
-0.500000000000001
 21
0.0000000000000167
 31
0.0
210
0.0
220
0.0
230
1.0
 40
0.7333333333333316
 41
0.0112467747891916
 42
1.570796012878404
  0
VIEWPORT
  5
110
330
101
100
AcDbEntity
 67
     1
  8
0
100
AcDbViewport
 10
420.5
 20
297.0
 30
0.0
 40
948.9782706766916
 41
628.452
 68
     1
 69
     1
1001
ACAD
1000
MVIEW
1002
{
1070
    16
1010
0.0
1020
0.0
1030
0.0
1010
0.0
1020
0.0
1030
1.0
1040
0.0
1040
628.452
1040
420.5
1040
297.0
1040
50.0
1040
0.0
1040
0.0
1070
     0
1070
   100
1070
     1
1070
     1
1070
     0
1070
     0
1070
     0
1070
     0
1040
0.0
1040
0.0
1040
0.0
1040
10.0
1040
10.0
1040
10.0
1040
10.0
1070
     0
1002
{
1002
}
1002
}
  0
ENDSEC
  0
SECTION
  2
OBJECTS
  0
DICTIONARY
  5
C
330
0
100
AcDbDictionary
  3
ACAD_GROUP
350
D
  3
ACAD_LAYOUT
350
1A
  3
ACAD_MLINESTYLE
350
17
  3
ACAD_PLOTSETTINGS
350
19
  3
ACAD_PLOTSTYLENAME
350
E
  3
ACDBVARIABLEDICTIONARY
350
34
  3
ACMDICTIONARY
350
43
  3
AMG
350
2B
  3
AMGSNAPSETTINGS
350
6E
  3
DWGPROPS
350
2AF3
  3
ACDBHEADERROUNDTRIPXREC
350
2B00
  0
DICTIONARY
  5
74
330
1F
100
AcDbDictionary
280
     1
  3
ACAD_INDEX
360
2AF5
  3
ACAD_LAYOUTSELFREF
360
2B23
  0
DICTIONARY
  5
2B28
330
101
100
AcDbDictionary
280
     1
  3
ACAD_LAYOUTSELFREF
360
2B29
  0
DICTIONARY
  5
D
102
{ACAD_REACTORS
330
C
102
}
330
C
100
AcDbDictionary
  0
DICTIONARY
  5
1A
102
{ACAD_REACTORS
330
C
102
}
330
C
100
AcDbDictionary
  0
DICTIONARY
  5
17
102
{ACAD_REACTORS
330
C
102
}
330
C
100
AcDbDictionary
  3
STANDARD
350
18
  0
DICTIONARY
  5
19
102
{ACAD_REACTORS
330
C
102
}
330
C
100
AcDbDictionary
  0
ACDBDICTIONARYWDFLT
  5
E
102
{ACAD_REACTORS
330
C
102
}
330
C
100
AcDbDictionary
281
     1
  3
Normal
350
F
100
AcDbDictionaryWithDefault
340
F
  0
DICTIONARY
  5
34
102
{ACAD_REACTORS
330
C
102
}
330
C
100
AcDbDictionary
  3
INDEXCTL
350
35
  3
SORTENTS
350
B5E
  0
DICTIONARY
  5
43
102
{ACAD_REACTORS
330
C
102
}
330
C
100
AcDbDictionary
  3
ACMSTDDICTIONARY
350
260
  0
DICTIONARY
  5
2B
102
{ACAD_REACTORS
330
C
102
}
330
C
100
AcDbDictionary
  3
ACMGSETTINGS
350
2C
  0
DICTIONARY
  5
6E
102
{ACAD_REACTORS
330
C
102
}
330
C
100
AcDbDictionary
  0
XRECORD
  5
2AF3
102
{ACAD_REACTORS
330
C
102
}
330
C
100
AcDbXrecord
  1
DWGPROPS COOKIE
  2

  3

  4

  6

  7

  8

  9

300
AmdtFileType=82
301
=
302
=
303
=
304
=
305
=
306
=
307
=
308
=
309
=
 40
0.0462617361111111
 41
2452800.443498622
 42
2452946.593977673
  1

 90
        1
  0
DICTIONARY
  5
2B00
102
{ACAD_REACTORS
330
C
102
}
330
C
100
AcDbDictionary
  3
TSTACKALIGN
350
2B01
  3
TSTACKSIZE
350
2B02
  3
HYPERLINKBASE
350
2B03
  3
STYLESHEET
350
2B04
  3
LAYOUTDICT
350
2B05
  3
PLOTSETDICT
350
2B06
  3
PLOTSTYLNAMDICT
350
2B07
  3
LWETCUNION
350
2B08
  3
INSUNITS
350
2B09
  3
CEPSNTYPE
350
2B0A
  3
FINGERPRINTGUID
350
2B0B
  3
VERSIONGUID
350
2B0C
  3
PSVPSCALE
350
2B0D
  3
DIMSTYLEDATA
350
2B0E
  3
PUCSORTHOREF
350
2B0F
  3
PUCSORTHOVIEW
350
2B10
  3
PUCSBASE
350
2B11
  3
PUCSORGTOP
350
2B12
  3
PUCSORGBOTTOM
350
2B13
  3
PUCSORGLEFT
350
2B14
  3
PUCSORGRIGHT
350
2B15
  3
PUCSORGFRONT
350
2B16
  3
PUCSORGBACK
350
2B17
  3
UCSORTHOREF
350
2B18
  3
UCSORTHOVIEW
350
2B19
  3
UCSBASE
350
2B1A
  3
UCSORGTOP
350
2B1B
  3
UCSORGBOTTOM
350
2B1C
  3
UCSORGLEFT
350
2B1D
  3
UCSORGRIGHT
350
2B1E
  3
UCSORGFRONT
350
2B1F
  3
UCSORGBACK
350
2B20
  0
DICTIONARY
  5
2AF5
102
{ACAD_REACTORS
330
74
102
}
330
74
100
AcDbDictionary
  3
*A1
350
2AF6
  0
XRECORD
  5
2B23
102
{ACAD_REACTORS
330
74
102
}
330
74
100
AcDbXrecord
340
1F
  0
XRECORD
  5
2B29
102
{ACAD_REACTORS
330
2B28
102
}
330
2B28
100
AcDbXrecord
340
101
  0
MLINESTYLE
  5
18
102
{ACAD_REACTORS
330
17
102
}
330
17
100
AcDbMlineStyle
  2
STANDARD
 70
     0
  3

 62
   256
 51
90.0
 52
90.0
 71
     2
 49
0.5
 62
   256
  6
BYLAYER
 49
-0.5
 62
   256
  6
BYLAYER
  0
ACDBPLACEHOLDER
  5
F
102
{ACAD_REACTORS
330
E
102
}
330
E
100
AcDbPlaceHolder
280
     0
  0
DICTIONARYVAR
  5
35
102
{ACAD_REACTORS
330
34
102
}
330
34
100
DictionaryVariables
280
     0
  1
1
  0
DICTIONARYVAR
  5
B5E
102
{ACAD_REACTORS
330
34
102
}
330
34
100
DictionaryVariables
280
     0
  1
96
  0
DICTIONARY
  5
260
102
{ACAD_REACTORS
330
43
102
}
330
43
100
AcDbDictionary
  0
DICTIONARY
  5
2C
102
{ACAD_REACTORS
330
2B
102
}
330
2B
100
AcDbDictionary
  3
DWGSETTINGS
350
2D
  0
XRECORD
  5
2B01
102
{ACAD_REACTORS
330
2B00
102
}
330
2B00
100
AcDbXrecord
 90
        1
  0
XRECORD
  5
2B02
102
{ACAD_REACTORS
330
2B00
102
}
330
2B00
100
AcDbXrecord
 90
       70
  0
XRECORD
  5
2B03
102
{ACAD_REACTORS
330
2B00
102
}
330
2B00
100
AcDbXrecord
  1

  0
XRECORD
  5
2B04
102
{ACAD_REACTORS
330
2B00
102
}
330
2B00
100
AcDbXrecord
  1
ASAMI.ctb
  0
XRECORD
  5
2B05
102
{ACAD_REACTORS
330
2B00
102
}
330
2B00
100
AcDbXrecord
340
1A
  0
XRECORD
  5
2B06
102
{ACAD_REACTORS
330
2B00
102
}
330
2B00
100
AcDbXrecord
340
19
  0
XRECORD
  5
2B07
102
{ACAD_REACTORS
330
2B00
102
}
330
2B00
100
AcDbXrecord
340
E
  0
XRECORD
  5
2B08
102
{ACAD_REACTORS
330
2B00
102
}
330
2B00
100
AcDbXrecord
 90
    10781
  0
XRECORD
  5
2B09
102
{ACAD_REACTORS
330
2B00
102
}
330
2B00
100
AcDbXrecord
 90
        4
  0
XRECORD
  5
2B0A
102
{ACAD_REACTORS
330
2B00
102
}
330
2B00
100
AcDbXrecord
 90
        0
  0
XRECORD
  5
2B0B
102
{ACAD_REACTORS
330
2B00
102
}
330
2B00
100
AcDbXrecord
  1
{AFB28963-8C59-40AE-9337-C84526B81ACE}
  0
XRECORD
  5
2B0C
102
{ACAD_REACTORS
330
2B00
102
}
330
2B00
100
AcDbXrecord
  1
{C749899D-9BEE-472A-9161-6CA41B425418}
  0
XRECORD
  5
2B0D
102
{ACAD_REACTORS
330
2B00
102
}
330
2B00
100
AcDbXrecord
 40
0.0
  0
XRECORD
  5
2B0E
102
{ACAD_REACTORS
330
2B00
102
}
330
2B00
100
AcDbXrecord
1000
DSTYLE
1002
{
1070
    79
 70
     2
1070
   341
340
59
1070
   342
340
59
1070
   371
 70
    -1
1070
   372
 70
    -1
1002
}
  0
XRECORD
  5
2B0F
102
{ACAD_REACTORS
330
2B00
102
}
330
2B00
100
AcDbXrecord
340
0
  0
XRECORD
  5
2B10
102
{ACAD_REACTORS
330
2B00
102
}
330
2B00
100
AcDbXrecord
 70
     0
  0
XRECORD
  5
2B11
102
{ACAD_REACTORS
330
2B00
102
}
330
2B00
100
AcDbXrecord
340
0
  0
XRECORD
  5
2B12
102
{ACAD_REACTORS
330
2B00
102
}
330
2B00
100
AcDbXrecord
 10
0.0
 20
0.0
 30
0.0
  0
XRECORD
  5
2B13
102
{ACAD_REACTORS
330
2B00
102
}
330
2B00
100
AcDbXrecord
 10
0.0
 20
0.0
 30
0.0
  0
XRECORD
  5
2B14
102
{ACAD_REACTORS
330
2B00
102
}
330
2B00
100
AcDbXrecord
 10
0.0
 20
0.0
 30
0.0
  0
XRECORD
  5
2B15
102
{ACAD_REACTORS
330
2B00
102
}
330
2B00
100
AcDbXrecord
 10
0.0
 20
0.0
 30
0.0
  0
XRECORD
  5
2B16
102
{ACAD_REACTORS
330
2B00
102
}
330
2B00
100
AcDbXrecord
 10
0.0
 20
0.0
 30
0.0
  0
XRECORD
  5
2B17
102
{ACAD_REACTORS
330
2B00
102
}
330
2B00
100
AcDbXrecord
 10
0.0
 20
0.0
 30
0.0
  0
XRECORD
  5
2B18
102
{ACAD_REACTORS
330
2B00
102
}
330
2B00
100
AcDbXrecord
340
0
  0
XRECORD
  5
2B19
102
{ACAD_REACTORS
330
2B00
102
}
330
2B00
100
AcDbXrecord
 70
     0
  0
XRECORD
  5
2B1A
102
{ACAD_REACTORS
330
2B00
102
}
330
2B00
100
AcDbXrecord
340
0
  0
XRECORD
  5
2B1B
102
{ACAD_REACTORS
330
2B00
102
}
330
2B00
100
AcDbXrecord
 10
0.0
 20
0.0
 30
0.0
  0
XRECORD
  5
2B1C
102
{ACAD_REACTORS
330
2B00
102
}
330
2B00
100
AcDbXrecord
 10
0.0
 20
0.0
 30
0.0
  0
XRECORD
  5
2B1D
102
{ACAD_REACTORS
330
2B00
102
}
330
2B00
100
AcDbXrecord
 10
0.0
 20
0.0
 30
0.0
  0
XRECORD
  5
2B1E
102
{ACAD_REACTORS
330
2B00
102
}
330
2B00
100
AcDbXrecord
 10
0.0
 20
0.0
 30
0.0
  0
XRECORD
  5
2B1F
102
{ACAD_REACTORS
330
2B00
102
}
330
2B00
100
AcDbXrecord
 10
0.0
 20
0.0
 30
0.0
  0
XRECORD
  5
2B20
102
{ACAD_REACTORS
330
2B00
102
}
330
2B00
100
AcDbXrecord
 10
0.0
 20
0.0
 30
0.0
  0
LAYER_INDEX
  5
2AF6
102
{ACAD_REACTORS
330
2AF5
102
}
330
2AF5
100
AcDbIndex
 40
2453151.575463125
100
AcDbLayerIndex
  8
0
360
2AF7
 90
        0
  8
AM_0
360
2AF8
 90
       45
  8
AM_7
360
2AF9
 90
        1
  8
AM_11
360
2AFA
 90
       28
  8
AM_5
360
2AFB
 90
        5
  8
Defpoints
360
2AFC
 90
        0
  8
AM_6
360
2AFD
 90
        1
  8
AM_CL
360
2AFE
 90
        0
  0
XRECORD
  5
2D
102
{ACAD_REACTORS
330
2C
102
}
330
2C
100
AcDbXrecord
  1
VERSION
140
15.0
  1
PRODUCT
  2
AutoCAD Mechanical 2000
  0
IDBUFFER
  5
2AF7
330
0
100
AcDbIdBuffer
  0
IDBUFFER
  5
2AF8
330
0
100
AcDbIdBuffer
330
29E8
330
29E9
330
29EA
330
29EB
330
29EC
330
29ED
330
29EE
330
29F1
330
29F5
330
29F6
330
29F7
330
29F8
330
29F9
330
29FA
330
29FB
330
29FC
330
29FD
330
29FE
330
29FF
330
2A00
330
2A01
330
2A02
330
2A03
330
2A04
330
2A05
330
2A06
330
2A07
330
2A08
330
2A09
330
C1D
330
C20
330
C2E
330
C30
330
1B5C
330
1B60
330
1C15
330
1C1A
330
1C1E
330
1C85
330
1C86
330
1CF2
330
1CF3
330
1CF4
330
25CA
330
25CB
  0
IDBUFFER
  5
2AF9
330
0
100
AcDbIdBuffer
330
C9F
  0
IDBUFFER
  5
2AFA
330
0
100
AcDbIdBuffer
330
1C25
330
1C26
330
1C27
330
1C28
330
1C29
330
1C2C
330
1C2D
330
29EF
330
29F0
330
29F2
330
29F3
330
29F4
330
144A
330
144B
330
144E
330
144F
330
1450
330
1451
330
1452
330
1453
330
1454
330
18B8
330
18B9
330
18BA
330
18BB
330
1C22
330
1C23
330
1C24
  0
IDBUFFER
  5
2AFB
330
0
100
AcDbIdBuffer
330
CC6
330
DF5
330
1C71
330
1DEF
330
2365
  0
IDBUFFER
  5
2AFC
330
0
100
AcDbIdBuffer
  0
IDBUFFER
  5
2AFD
330
0
100
AcDbIdBuffer
330
19BD
  0
IDBUFFER
  5
2AFE
330
0
100
AcDbIdBuffer
  0
ENDSEC
  0
EOF
