  0
SECTION
  2
HEADER
  9
$ACADVER
  1
AC1014
  9
$ACADMAINTVER
 70
     9
  9
$DWGCODEPAGE
  3
ANSI_932
  9
$INSBASE
 10
0.0
 20
0.0
 30
0.0
  9
$EXTMIN
 10
-79.40000134152342
 20
-24.75000718101108
 30
-0.00000001
  9
$EXTMAX
 10
14.04044543799915
 20
13.66354608949642
 30
0.00000001
  9
$LIMMIN
 10
-82.34037039394099
 20
-37.97145095443895
  9
$LIMMAX
 10
19.32151923811031
 20
24.34159145814783
  9
$ORTHOMODE
 70
     0
  9
$REGENMODE
 70
     1
  9
$FILLMODE
 70
     1
  9
$QTEXTMODE
 70
     0
  9
$MIRRTEXT
 70
     0
  9
$DRAGMODE
 70
     2
  9
$LTSCALE
 40
1.0
  9
$OSMODE
 70
    55
  9
$ATTMODE
 70
     1
  9
$TEXTSIZE
 40
2.5
  9
$TRACEWID
 40
1.0
  9
$TEXTSTYLE
  7
STANDARD
  9
$CLAYER
  8
AM_0
  9
$CELTYPE
  6
BYLAYER
  9
$CECOLOR
 62
   256
  9
$CELTSCALE
 40
1.0
  9
$DELOBJ
 70
     1
  9
$DISPSILH
 70
     0
  9
$DIMSCALE
 40
0.5
  9
$DIMASZ
 40
2.5
  9
$DIMEXO
 40
1.0
  9
$DIMDLI
 40
12.0
  9
$DIMRND
 40
0.0
  9
$DIMDLE
 40
0.0
  9
$DIMEXE
 40
1.0
  9
$DIMTP
 40
0.1
  9
$DIMTM
 40
0.1
  9
$DIMTXT
 40
3.2
  9
$DIMCEN
 40
0.0
  9
$DIMTSZ
 40
0.0
  9
$DIMTOL
 70
     0
  9
$DIMLIM
 70
     0
  9
$DIMTIH
 70
     0
  9
$DIMTOH
 70
     0
  9
$DIMSE1
 70
     0
  9
$DIMSE2
 70
     0
  9
$DIMTAD
 70
     3
  9
$DIMZIN
 70
     8
  9
$DIMBLK
  1
OPEN30
  9
$DIMASO
 70
     1
  9
$DIMSHO
 70
     1
  9
$DIMPOST
  1

  9
$DIMAPOST
  1
"
  9
$DIMALT
 70
     0
  9
$DIMALTD
 70
     2
  9
$DIMALTF
 40
0.0393701
  9
$DIMLFAC
 40
1.0
  9
$DIMTOFL
 70
     1
  9
$DIMTVP
 40
0.0
  9
$DIMTIX
 70
     0
  9
$DIMSOXD
 70
     0
  9
$DIMSAH
 70
     0
  9
$DIMBLK1
  1

  9
$DIMBLK2
  1

  9
$DIMSTYLE
  2
AM_JIS
  9
$DIMCLRD
 70
   256
  9
$DIMCLRE
 70
   256
  9
$DIMCLRT
 70
     2
  9
$DIMTFAC
 40
0.71
  9
$DIMGAP
 40
1.5
  9
$DIMJUST
 70
     0
  9
$DIMSD1
 70
     0
  9
$DIMSD2
 70
     0
  9
$DIMTOLJ
 70
     0
  9
$DIMTZIN
 70
     0
  9
$DIMALTZ
 70
     0
  9
$DIMALTTZ
 70
     0
  9
$DIMFIT
 70
     3
  9
$DIMUPT
 70
     0
  9
$DIMUNIT
 70
     2
  9
$DIMDEC
 70
     3
  9
$DIMTDEC
 70
     3
  9
$DIMALTU
 70
     2
  9
$DIMALTTD
 70
     2
  9
$DIMTXSTY
  7
ASAMI
  9
$DIMAUNIT
 70
     0
  9
$LUNITS
 70
     2
  9
$LUPREC
 70
     2
  9
$SKETCHINC
 40
1.0
  9
$FILLETRAD
 40
2.5
  9
$AUNITS
 70
     0
  9
$AUPREC
 70
     0
  9
$MENU
  1
.
  9
$ELEVATION
 40
0.0
  9
$PELEVATION
 40
0.0
  9
$THICKNESS
 40
0.0
  9
$LIMCHECK
 70
     0
  9
$BLIPMODE
 70
     0
  9
$CHAMFERA
 40
0.25
  9
$CHAMFERB
 40
0.25
  9
$CHAMFERC
 40
20.0
  9
$CHAMFERD
 40
0.0
  9
$SKPOLY
 70
     0
  9
$TDCREATE
 40
2452800.443498622
  9
$TDUPDATE
 40
2453151.575582662
  9
$TDINDWG
 40
0.0468860185
  9
$TDUSRTIMER
 40
0.0468860185
  9
$USRTIMER
 70
     1
  9
$ANGBASE
 50
0.0
  9
$ANGDIR
 70
     0
  9
$PDMODE
 70
     0
  9
$PDSIZE
 40
0.0
  9
$PLINEWID
 40
0.0
  9
$COORDS
 70
     1
  9
$SPLFRAME
 70
     0
  9
$SPLINETYPE
 70
     6
  9
$SPLINESEGS
 70
     8
  9
$ATTDIA
 70
     1
  9
$ATTREQ
 70
     1
  9
$HANDLING
 70
 12289
  9
$HANDSEED
  5
2B7D
  9
$SURFTAB1
 70
     6
  9
$SURFTAB2
 70
     6
  9
$SURFTYPE
 70
     6
  9
$SURFU
 70
     6
  9
$SURFV
 70
     6
  9
$UCSNAME
  2

  9
$UCSORG
 10
0.0
 20
0.0
 30
0.0
  9
$UCSXDIR
 10
1.0
 20
0.000000000000002
 30
0.0
  9
$UCSYDIR
 10
-0.000000000000002
 20
1.0
 30
0.0
  9
$PUCSNAME
  2

  9
$PUCSORG
 10
0.0
 20
0.0
 30
0.0
  9
$PUCSXDIR
 10
1.0
 20
0.0
 30
0.0
  9
$PUCSYDIR
 10
0.0
 20
1.0
 30
0.0
  9
$USERI1
 70
     0
  9
$USERI2
 70
     0
  9
$USERI3
 70
     0
  9
$USERI4
 70
     0
  9
$USERI5
 70
     0
  9
$USERR1
 40
0.0
  9
$USERR2
 40
0.0
  9
$USERR3
 40
0.0
  9
$USERR4
 40
0.0
  9
$USERR5
 40
0.0
  9
$WORLDVIEW
 70
     1
  9
$SHADEDGE
 70
     3
  9
$SHADEDIF
 70
    70
  9
$TILEMODE
 70
     1
  9
$MAXACTVP
 70
    64
  9
$PINSBASE
 10
0.0
 20
0.0
 30
0.0
  9
$PLIMCHECK
 70
     0
  9
$PEXTMIN
 10
1.000000000000000E+20
 20
1.000000000000000E+20
 30
1.000000000000000E+20
  9
$PEXTMAX
 10
-1.000000000000000E+20
 20
-1.000000000000000E+20
 30
-1.000000000000000E+20
  9
$PLIMMIN
 10
0.0
 20
0.0
  9
$PLIMMAX
 10
841.0
 20
594.0
  9
$UNITMODE
 70
     0
  9
$VISRETAIN
 70
     1
  9
$PLINEGEN
 70
     0
  9
$PSLTSCALE
 70
     0
  9
$TREEDEPTH
 70
  3020
  9
$PICKSTYLE
 70
     0
  9
$CMLSTYLE
  2
STANDARD
  9
$CMLJUST
 70
     0
  9
$CMLSCALE
 40
20.0
  9
$PROXYGRAPHICS
 70
     1
  9
$MEASUREMENT
 70
     1
  0
ENDSEC
  0
SECTION
  2
CLASSES
  0
CLASS
  1
ACDBDICTIONARYWDFLT
  2
AcDbDictionaryWithDefault
  3
AutoCAD 2000
 90
        0
280
     0
281
     0
  0
CLASS
  1
ACDBPLACEHOLDER
  2
AcDbPlaceHolder
  3
AutoCAD 2000
 90
        0
280
     0
281
     0
  0
CLASS
  1
LAYOUT
  2
AcDbLayout
  3
AutoCAD 2000
 90
        0
280
     0
281
     0
  0
CLASS
  1
AMGSETTINGSOBJ
  2
AmgSettingsObj
  3
"AcadM|Product Description: AutoCAD Mechanical 2000|Company: Autodesk"
 90
        0
280
     0
281
     0
  0
CLASS
  1
ACME_DOCUMENT
  2
AcMeDbDoc
  3
AcMeServices
 90
        0
280
     0
281
     0
  0
CLASS
  1
ACMESCOPE
  2
AcMeScope
  3
AcMeServices
 90
        0
280
     0
281
     0
  0
CLASS
  1
ACMECOMMANDHISTORY
  2
AcMeCommandHistory
  3
AcMeServices
 90
        0
280
     0
281
     0
  0
CLASS
  1
DICTIONARYVAR
  2
AcDbDictionaryVar
  3
AutoCAD 2000
 90
        0
280
     0
281
     0
  0
CLASS
  1
ACIMSYSVARMAN
  2
AcImSysVarManager
  3
AcMeServices
 90
        0
280
     0
281
     0
  0
CLASS
  1
ACIMREALSYSVAR
  2
AcImRealSysVar
  3
AcMeServices
 90
        0
280
     0
281
     0
  0
CLASS
  1
ACIMINTSYSVAR
  2
AcImIntSysVar
  3
AcMeServices
 90
        0
280
     0
281
     0
  0
CLASS
  1
ACMEDRAWINGMAN
  2
AcMeDrawingMan
  3
AcMeServices
 90
        0
280
     0
281
     0
  0
CLASS
  1
ACMEVIEW
  2
AcMeView
  3
AcMeServices
 90
        0
280
     0
281
     0
  0
CLASS
  1
ACDBENTITYCACHE
  2
AcMeEntityCache
  3
AcMeServices
 90
        0
280
     0
281
     0
  0
CLASS
  1
GSMANAGER
  2
AcMeGSManager
  3
AcMeServices
 90
        0
280
     0
281
     0
  0
CLASS
  1
AmdtInternalReactor
  2
AmdtInternalReactor
  3
AcMeServices
 90
        0
280
     0
281
     0
  0
CLASS
  1
ACMESTATEMGR
  2
AcMeStateMgr
  3
AcMeServices
 90
        0
280
     0
281
     0
  0
CLASS
  1
ACME_DATABASE
  2
AcMeDbDatabase
  3
AcMeServices
 90
        0
280
     0
281
     0
  0
CLASS
  1
ACRFINSADJUSTERMGR
  2
AcRfInsAdjusterMgr
  3
AcMeServices
 90
        0
280
     0
281
     0
  0
CLASS
  1
ACMDATADICTIONARY
  2
AcmDataDictionary
  3
"AcmSymBB|Product Description: AutoCAD Mechanical 2000|Company: Autodesk"
 90
        0
280
     0
281
     0
  0
CLASS
  1
ACMDATAENTRYBLOCK
  2
AcmDataEntryBlock
  3
"AcmSymBB|Product Description: AutoCAD Mechanical 2000|Company: Autodesk"
 90
        0
280
     0
281
     0
  0
CLASS
  1
AMGOBJPROPCFG
  2
AmgObjPropCfg
  3
"AmgLay|Product Description: AutoCAD Mechanical 2000|Company: Autodesk"
 90
        1
280
     0
281
     0
  0
CLASS
  1
ACAMGFILTERDAT
  2
AcAmgFilterDat
  3
"AcadM|Product Description: AutoCAD Mechanical 2000|Company: Autodesk"
 90
        0
280
     0
281
     0
  0
CLASS
  1
LAYER_INDEX
  2
AcDbLayerIndex
  3
AutoCAD 2000
 90
        0
280
     0
281
     0
  0
CLASS
  1
IDBUFFER
  2
AcDbIdBuffer
  3
AutoCAD 2000
 90
        0
280
     0
281
     0
  0
CLASS
  1
ACIMSTRSYSVAR
  2
AcImStrSysVar
  3
AcMeServices
 90
        0
280
     0
281
     0
  0
CLASS
  1
ACMSTANDARDJIS
  2
AcmStandardJIS
  3
"AcmSymBB|Product Description: AutoCAD Mechanical 2000|Company: Autodesk"
 90
        0
280
     0
281
     0
  0
CLASS
  1
ACMSURFSTANDARDJIS
  2
AcmSurfTextStdJIS
  3
"AcmSymBB|Product Description: AutoCAD Mechanical 2000|Company: Autodesk"
 90
        0
280
     0
281
     0
  0
CLASS
  1
ACMFCFSTANDARDJIS
  2
AcmFCFStdJIS
  3
"AcmSymBB|Product Description: AutoCAD Mechanical 2000|Company: Autodesk"
 90
        0
280
     0
281
     0
  0
CLASS
  1
ACMWELDSTANDARDJIS
  2
AcmWeldingStdJIS
  3
"AcmSymBB|Product Description: AutoCAD Mechanical 2000|Company: Autodesk"
 90
        0
280
     0
281
     0
  0
CLASS
  1
ACMIDSTANDARDJIS
  2
AcmIdStdJIS
  3
"AcmSymBB|Product Description: AutoCAD Mechanical 2000|Company: Autodesk"
 90
        0
280
     0
281
     0
  0
CLASS
  1
ACMDATUMSTANDARDJIS
  2
AcmDatumStdJIS
  3
"AcmSymBB|Product Description: AutoCAD Mechanical 2000|Company: Autodesk"
 90
        0
280
     0
281
     0
  0
CLASS
  1
ACMBOMSTANDARDJIS
  2
AcmBOMStdJIS
  3
"AcmSymBB|Product Description: AutoCAD Mechanical 2000|Company: Autodesk"
 90
        0
280
     0
281
     0
  0
CLASS
  1
ACMSTANDARDANSI
  2
AcmStandardANSI
  3
"AcmSymBB|Product Description: AutoCAD Mechanical 2000|Company: Autodesk"
 90
        0
280
     0
281
     0
  0
CLASS
  1
ACMSURFSTANDARDANSI
  2
AcmSurfTextStdANSI
  3
"AcmSymBB|Product Description: AutoCAD Mechanical 2000|Company: Autodesk"
 90
        0
280
     0
281
     0
  0
CLASS
  1
ACMFCFSTANDARDANSI
  2
AcmFCFStdANSI
  3
"AcmSymBB|Product Description: AutoCAD Mechanical 2000|Company: Autodesk"
 90
        0
280
     0
281
     0
  0
CLASS
  1
ACMWELDSTANDARDANSI
  2
AcmWeldingStdANSI
  3
"AcmSymBB|Product Description: AutoCAD Mechanical 2000|Company: Autodesk"
 90
        0
280
     0
281
     0
  0
CLASS
  1
ACMIDSTANDARDANSI
  2
AcmIdStdANSI
  3
"AcmSymBB|Product Description: AutoCAD Mechanical 2000|Company: Autodesk"
 90
        0
280
     0
281
     0
  0
CLASS
  1
ACMDATUMSTANDARDANSI
  2
AcmDatumStdANSI
  3
"AcmSymBB|Product Description: AutoCAD Mechanical 2000|Company: Autodesk"
 90
        0
280
     0
281
     0
  0
CLASS
  1
ACMBOMSTANDARDANSI
  2
AcmBOMStdANSI
  3
"AcmSymBB|Product Description: AutoCAD Mechanical 2000|Company: Autodesk"
 90
        0
280
     0
281
     0
  0
CLASS
  1
ACMSTANDARDBSI
  2
AcmStandardBSI
  3
"AcmSymBB|Product Description: AutoCAD Mechanical 2000|Company: Autodesk"
 90
        0
280
     0
281
     0
  0
CLASS
  1
ACMSURFSTANDARDBSI
  2
AcmSurfTextStdBSI
  3
"AcmSymBB|Product Description: AutoCAD Mechanical 2000|Company: Autodesk"
 90
        0
280
     0
281
     0
  0
CLASS
  1
ACMFCFSTANDARDBSI
  2
AcmFCFStdBSI
  3
"AcmSymBB|Product Description: AutoCAD Mechanical 2000|Company: Autodesk"
 90
        0
280
     0
281
     0
  0
CLASS
  1
ACMWELDSTANDARDBSI
  2
AcmWeldingStdBSI
  3
"AcmSymBB|Product Description: AutoCAD Mechanical 2000|Company: Autodesk"
 90
        0
280
     0
281
     0
  0
CLASS
  1
ACMIDSTANDARDBSI
  2
AcmIdStdBSI
  3
"AcmSymBB|Product Description: AutoCAD Mechanical 2000|Company: Autodesk"
 90
        0
280
     0
281
     0
  0
CLASS
  1
ACMDATUMSTANDARDBSI
  2
AcmDatumStdBSI
  3
"AcmSymBB|Product Description: AutoCAD Mechanical 2000|Company: Autodesk"
 90
        0
280
     0
281
     0
  0
CLASS
  1
ACMBOMSTANDARDBSI
  2
AcmBOMStdBSI
  3
"AcmSymBB|Product Description: AutoCAD Mechanical 2000|Company: Autodesk"
 90
        0
280
     0
281
     0
  0
CLASS
  1
LONG_TRANSACTION
  2
AcDbLongTransaction
  3
AutoCAD 2000
 90
        0
280
     0
281
     0
  0
CLASS
  1
LWPOLYLINE
  2
AcDbPolyline
  3
AutoCAD 2000
 90
        0
280
     0
281
     1
  0
CLASS
  1
HATCH
  2
AcDbHatch
  3
AutoCAD 2000
 90
        0
280
     0
281
     1
  0
CLASS
  1
XRECORD
  2
AcDbXrecord
  3
AutoCAD 2000
 90
        0
280
     0
281
     0
  0
ENDSEC
  0
SECTION
  2
TABLES
  0
TABLE
  2
VPORT
  5
8
330
0
100
AcDbSymbolTable
 70
     3
  0
VPORT
  5
2B47
330
8
100
AcDbSymbolTableRecord
100
AcDbViewportTableRecord
  2
*ACTIVE
 70
     0
 10
0.0
 20
0.0
 11
1.0
 21
1.0
 12
-23.9272026639871
 22
-9.258004226866667
 13
0.0
 23
0.0
 14
2.5
 24
2.5
 15
10.0
 25
10.0
 16
0.0
 26
0.0
 36
1.0
 17
0.0
 27
0.0
 37
0.0
 40
93.26196536144646
 41
1.56570841889117
 42
50.0
 43
0.0
 44
0.0
 50
0.0
 51
0.0
 71
     0
 72
   100
 73
     1
 74
     1
 75
     0
 76
     0
 77
     0
 78
     0
  0
ENDTAB
  0
TABLE
  2
LTYPE
  5
5
330
0
100
AcDbSymbolTable
 70
    10
  0
LTYPE
  5
14
330
5
100
AcDbSymbolTableRecord
100
AcDbLinetypeTableRecord
  2
BYBLOCK
 70
     0
  3

 72
    65
 73
     0
 40
0.0
  0
LTYPE
  5
15
330
5
100
AcDbSymbolTableRecord
100
AcDbLinetypeTableRecord
  2
BYLAYER
 70
     0
  3

 72
    65
 73
     0
 40
0.0
  0
LTYPE
  5
16
330
5
100
AcDbSymbolTableRecord
100
AcDbLinetypeTableRecord
  2
CONTINUOUS
 70
     0
  3
Solid line
 72
    65
 73
     0
 40
0.0
  0
LTYPE
  5
4B
330
5
100
AcDbSymbolTableRecord
100
AcDbLinetypeTableRecord
  2
AM_ISO02W050
 70
     0
  3
__ __ __ __ __ __ __ __ __ __ __ __ __ __ __
 72
    65
 73
     2
 40
7.5
 49
6.0
 74
     0
 49
-1.5
 74
     0
  0
LTYPE
  5
4C
330
5
100
AcDbSymbolTableRecord
100
AcDbLinetypeTableRecord
  2
AM_ISO08W050
 70
     0
  3
____ . ____ . ____ . ____ . ____ . ____ . ____
 72
    65
 73
     4
 40
18.0
 49
12.0
 74
     0
 49
-1.5
 74
     0
 49
3.0
 74
     0
 49
-1.5
 74
     0
  0
LTYPE
  5
4D
330
5
100
AcDbSymbolTableRecord
100
AcDbLinetypeTableRecord
  2
AM_ISO09W050
 70
     0
  3
_____ . . _____ . . _____ . . ____ .. ____
 72
    65
 73
     6
 40
22.5
 49
12.0
 74
     0
 49
-1.5
 74
     0
 49
3.0
 74
     0
 49
-1.5
 74
     0
 49
3.0
 74
     0
 49
-1.5
 74
     0
  0
LTYPE
  5
4E
330
5
100
AcDbSymbolTableRecord
100
AcDbLinetypeTableRecord
  2
AMCONSTR
 70
     0
  3
_______________________
 72
    65
 73
     2
 40
9999.0
 49
9999.0
 74
     0
 49
0.0
 74
     0
  0
LTYPE
  5
4F
330
5
100
AcDbSymbolTableRecord
100
AcDbLinetypeTableRecord
  2
AM_ISO02W050X2
 70
     0
  3
 _ _ _ _ _ _ _ _ _ _ _ _
 72
    65
 73
     2
 40
3.75
 49
3.0
 74
     0
 49
-0.75
 74
     0
  0
LTYPE
  5
50
330
5
100
AcDbSymbolTableRecord
100
AcDbLinetypeTableRecord
  2
AM_ISO08W050X2
 70
     0
  3
__ . __ . __ . __ . __ . __
 72
    65
 73
     4
 40
9.0
 49
6.0
 74
     0
 49
-0.75
 74
     0
 49
1.5
 74
     0
 49
-0.75
 74
     0
  0
LTYPE
  5
53
330
5
100
AcDbSymbolTableRecord
100
AcDbLinetypeTableRecord
  2
AMZIGZAG
 70
     0
  3
/\/-/\/-/\/-/\/-/\/-/\/
 72
    65
 73
     2
 40
11.00009999999999
 49
0.0001
 74
     4
 75
   135
340
52
 46
0.04
 50
0.0
 44
0.0
 45
0.0
 49
-11.0
 74
     0
  0
LTYPE
  5
166
330
5
100
AcDbSymbolTableRecord
100
AcDbLinetypeTableRecord
  2
ACJISTGL
 70
     0
  3
_ _ _ _ _
 72
    65
 73
     2
 40
3.0
 49
2.0
 74
     0
 49
-1.0
 74
     0
  0
LTYPE
  5
26A
330
5
100
AcDbSymbolTableRecord
100
AcDbLinetypeTableRecord
  2
ACJISTGB
 70
     0
  3
__ . . __ . .
 72
    65
 73
     6
 40
9.0
 49
4.0
 74
     0
 49
-1.0
 74
     0
 49
1.0
 74
     0
 49
-1.0
 74
     0
 49
1.0
 74
     0
 49
-1.0
 74
     0
  0
ENDTAB
  0
TABLE
  2
LAYER
  5
2
330
0
100
AcDbSymbolTable
 70
     8
  0
LAYER
  5
10
330
2
100
AcDbSymbolTableRecord
100
AcDbLayerTableRecord
  2
0
 70
     0
 62
     7
  6
CONTINUOUS
  0
LAYER
  5
3F9
330
2
100
AcDbSymbolTableRecord
100
AcDbLayerTableRecord
  2
AM_0
 70
     0
 62
     7
  6
CONTINUOUS
  0
LAYER
  5
C7C
330
2
100
AcDbSymbolTableRecord
100
AcDbLayerTableRecord
  2
AM_7
 70
     0
 62
     4
  6
AM_ISO08W050
  0
LAYER
  5
C97
330
2
100
AcDbSymbolTableRecord
100
AcDbLayerTableRecord
  2
AM_11
 70
     0
 62
     3
  6
AM_ISO09W050
  0
LAYER
  5
CC5
330
2
100
AcDbSymbolTableRecord
100
AcDbLayerTableRecord
  2
AM_5
 70
     0
 62
     3
  6
CONTINUOUS
  0
LAYER
  5
CC7
330
2
100
AcDbSymbolTableRecord
100
AcDbLayerTableRecord
  2
DEFPOINTS
 70
     0
 62
     7
  6
CONTINUOUS
  0
LAYER
  5
19BC
330
2
100
AcDbSymbolTableRecord
100
AcDbLayerTableRecord
  2
AM_6
 70
     0
 62
     2
  6
CONTINUOUS
  0
LAYER
  5
2AC7
330
2
100
AcDbSymbolTableRecord
100
AcDbLayerTableRecord
  2
AM_CL
 70
     0
 62
     1
  6
AMCONSTR
  0
ENDTAB
  0
TABLE
  2
STYLE
  5
3
330
0
100
AcDbSymbolTable
 70
     5
  0
STYLE
  5
11
330
3
100
AcDbSymbolTableRecord
100
AcDbTextStyleTableRecord
  2
STANDARD
 70
     0
 40
0.0
 41
1.0
 50
0.0
 71
     0
 42
2.5
  3
simplex.shx
  4
EXTFONT.SHX
  0
STYLE
  5
52
330
3
100
AcDbSymbolTableRecord
100
AcDbTextStyleTableRecord
  2

 70
     1
 40
0.0
 41
1.0
 50
0.0
 71
     0
 42
2.5
  3
ltypeshp.shx
  4

  0
STYLE
  5
6B
330
3
100
AcDbSymbolTableRecord
100
AcDbTextStyleTableRecord
  2
ASAMI
 70
     0
 40
0.0
 41
1.0
 50
0.0
 71
     0
 42
2.5
  3
simplex.shx
  4
EXTFONT.SHX
  0
STYLE
  5
262
330
3
100
AcDbSymbolTableRecord
100
AcDbTextStyleTableRecord
  2
ACJISTS
 70
     0
 40
1.0
 41
1.0
 50
0.0
 71
     0
 42
2.5
  3
simplex.shx
  4
bigfont.shx
  0
STYLE
  5
269
330
3
100
AcDbSymbolTableRecord
100
AcDbTextStyleTableRecord
  2
ACJISGDT
 70
     0
 40
0.0
 41
1.0
 50
0.0
 71
     0
 42
2.5
  3
amgdtans.shx
  4

  0
ENDTAB
  0
TABLE
  2
VIEW
  5
6
330
0
100
AcDbSymbolTable
 70
     0
  0
ENDTAB
  0
TABLE
  2
UCS
  5
7
330
0
100
AcDbSymbolTable
 70
     0
  0
ENDTAB
  0
TABLE
  2
APPID
  5
9
330
0
100
AcDbSymbolTable
 70
    18
  0
APPID
  5
12
330
9
100
AcDbSymbolTableRecord
100
AcDbRegAppTableRecord
  2
ACAD
 70
     0
  0
APPID
  5
30
330
9
100
AcDbSymbolTableRecord
100
AcDbRegAppTableRecord
  2
MCAD_NO_VIS
 70
     0
  0
APPID
  5
31
330
9
100
AcDbSymbolTableRecord
100
AcDbRegAppTableRecord
  2
ACAD_TEMP_GRAPHIC
 70
     0
  0
APPID
  5
2C2
330
9
100
AcDbSymbolTableRecord
100
AcDbRegAppTableRecord
  2
GENIUS_GENDTOL_13
 70
     0
  0
APPID
  5
339
330
9
100
AcDbSymbolTableRecord
100
AcDbRegAppTableRecord
  2
GENIUS_GENODEF_13
 70
     0
  0
APPID
  5
33A
330
9
100
AcDbSymbolTableRecord
100
AcDbRegAppTableRecord
  2
GENIUS_GENOBJ-N-RSBK_13
 70
     0
  0
APPID
  5
33B
330
9
100
AcDbSymbolTableRecord
100
AcDbRegAppTableRecord
  2
GENIUS_GENOBJ-N-LIB_13
 70
     0
  0
APPID
  5
33C
330
9
100
AcDbSymbolTableRecord
100
AcDbRegAppTableRecord
  2
GENIUS_GENSCALE_13
 70
     0
  0
APPID
  5
378
330
9
100
AcDbSymbolTableRecord
100
AcDbRegAppTableRecord
  2
GENIUS_GENDIMSH_14
 70
     0
  0
APPID
  5
C82
330
9
100
AcDbSymbolTableRecord
100
AcDbRegAppTableRecord
  2
GENIUS_GENOBJ-N-CRS_13
 70
     0
  0
APPID
  5
C83
330
9
100
AcDbSymbolTableRecord
100
AcDbRegAppTableRecord
  2
GENIUS_GENOENT_13
 70
     0
  0
APPID
  5
C84
330
9
100
AcDbSymbolTableRecord
100
AcDbRegAppTableRecord
  2
GENIUS_GENOREF_13
 70
     0
  0
APPID
  5
C85
330
9
100
AcDbSymbolTableRecord
100
AcDbRegAppTableRecord
  2
GENIUS_GENOLIS_13
 70
     0
  0
APPID
  5
CA0
330
9
100
AcDbSymbolTableRecord
100
AcDbRegAppTableRecord
  2
GENIUS_GENOBJ-N-CEN_13
 70
     0
  0
APPID
  5
1B5D
330
9
100
AcDbSymbolTableRecord
100
AcDbRegAppTableRecord
  2
GENIUS_GENFIL_13
 70
     0
  0
APPID
  5
1B5E
330
9
100
AcDbSymbolTableRecord
100
AcDbRegAppTableRecord
  2
GENIUS_GENOBJ-N-CHA_13
 70
     0
  0
APPID
  5
1FBC
330
9
100
AcDbSymbolTableRecord
100
AcDbRegAppTableRecord
  2
GENIUS_GENREC_14
 70
     0
  0
APPID
  5
1FBD
330
9
100
AcDbSymbolTableRecord
100
AcDbRegAppTableRecord
  2
GENIUS_GENOBJ-N-REC_13
 70
     0
  0
ENDTAB
  0
TABLE
  2
DIMSTYLE
  5
A
330
0
100
AcDbSymbolTable
 70
     9
  0
DIMSTYLE
105
58
330
A
100
AcDbSymbolTableRecord
100
AcDbDimStyleTableRecord
  2
AM_JIS
 70
     0
  3

  4
"
  5
OPEN30
  6

  7

 40
0.5
 41
2.5
 42
1.0
 43
12.0
 44
1.0
 45
0.0
 46
0.0
 47
0.1
 48
0.1
140
3.2
141
0.0
142
0.0
143
0.0393701
144
1.0
145
0.0
146
0.71
147
1.5
 71
     0
 72
     0
 73
     0
 74
     0
 75
     0
 76
     0
 77
     3
 78
     8
170
     0
171
     2
172
     1
173
     0
174
     0
175
     0
176
   256
177
   256
178
     2
270
     2
271
     3
272
     3
273
     2
274
     2
340
6B
275
     0
280
     0
281
     0
282
     0
283
     0
284
     0
285
     0
286
     0
287
     3
288
     0
  0
DIMSTYLE
105
5F
330
A
100
AcDbSymbolTableRecord
100
AcDbDimStyleTableRecord
  2
AM_JIS$3
 70
     0
  3

  4
"
  5
OPEN30
  6

  7

 40
0.5
 41
2.5
 42
1.0
 43
10.0
 44
1.0
 45
0.0
 46
0.0
 47
0.1
 48
0.1
140
3.2
141
0.0
142
0.0
143
0.0393701
144
1.0
145
0.0
146
0.71
147
1.5
 71
     0
 72
     0
 73
     0
 74
     1
 75
     0
 76
     0
 77
     3
 78
     8
170
     0
171
     2
172
     0
173
     0
174
     0
175
     0
176
   256
177
   256
178
     2
270
     2
271
     2
272
     3
273
     2
274
     2
340
6B
275
     0
280
     0
281
     0
282
     0
283
     0
284
     0
285
     0
286
     0
287
     0
288
     1
  0
DIMSTYLE
105
60
330
A
100
AcDbSymbolTableRecord
100
AcDbDimStyleTableRecord
  2
AM_JIS$4
 70
     0
  3

  4
"
  5
OPEN30
  6

  7

 40
0.5
 41
2.5
 42
1.0
 43
10.0
 44
1.0
 45
0.0
 46
0.0
 47
0.1
 48
0.1
140
3.2
141
0.0
142
0.0
143
0.0393701
144
1.0
145
0.0
146
0.71
147
1.5
 71
     0
 72
     0
 73
     0
 74
     1
 75
     0
 76
     0
 77
     3
 78
     8
170
     0
171
     2
172
     0
173
     0
174
     0
175
     0
176
   256
177
   256
178
     2
270
     2
271
     2
272
     3
273
     2
274
     2
340
6B
275
     0
280
     0
281
     0
282
     0
283
     0
284
     0
285
     0
286
     0
287
     0
288
     1
  0
DIMSTYLE
105
61
330
A
100
AcDbSymbolTableRecord
100
AcDbDimStyleTableRecord
  2
AM_JIS$6
 70
     0
  3

  4
"
  5
OPEN30
  6

  7

 40
0.5
 41
2.5
 42
1.0
 43
10.0
 44
1.0
 45
0.0
 46
0.0
 47
0.1
 48
0.1
140
3.2
141
0.0
142
0.0
143
0.0393701
144
1.0
145
0.0
146
0.71
147
1.5
 71
     0
 72
     0
 73
     0
 74
     0
 75
     0
 76
     0
 77
     0
 78
     8
170
     0
171
     2
172
     1
173
     0
174
     0
175
     0
176
   256
177
   256
178
     2
270
     2
271
     2
272
     2
273
     2
274
     2
340
6B
275
     0
280
     0
281
     0
282
     0
283
     0
284
     0
285
     0
286
     0
287
     3
288
     0
  0
DIMSTYLE
105
62
330
A
100
AcDbSymbolTableRecord
100
AcDbDimStyleTableRecord
  2
AM_JIS$7
 70
     0
  3

  4
"
  5
OPEN30
  6

  7

 40
0.5
 41
2.5
 42
1.0
 43
10.0
 44
1.0
 45
0.0
 46
0.0
 47
0.1
 48
0.1
140
3.2
141
0.0
142
0.0
143
0.0393701
144
1.0
145
0.0
146
0.71
147
1.5
 71
     0
 72
     0
 73
     0
 74
     0
 75
     0
 76
     0
 77
     3
 78
     8
170
     0
171
     2
172
     1
173
     0
174
     0
175
     0
176
   256
177
   256
178
     2
270
     2
271
     2
272
     3
273
     2
274
     2
340
6B
275
     0
280
     0
281
     0
282
     0
283
     0
284
     0
285
     0
286
     0
287
     3
288
     0
  0
DIMSTYLE
105
63
330
A
100
AcDbSymbolTableRecord
100
AcDbDimStyleTableRecord
  2
AM_JIS$SF
 70
     0
  3

  4
"
  5
OPEN30
  6

  7

 40
0.5
 41
2.5
 42
1.0
 43
10.0
 44
1.0
 45
0.0
 46
0.0
 47
0.1
 48
0.1
140
3.2
141
0.0
142
0.0
143
0.0393701
144
1.0
145
0.0
146
0.71
147
1.5
 71
     0
 72
     0
 73
     0
 74
     0
 75
     1
 76
     1
 77
     3
 78
     8
170
     0
171
     2
172
     1
173
     0
174
     0
175
     0
176
   256
177
   256
178
     2
270
     2
271
     2
272
     2
273
     2
274
     2
340
6B
275
     0
280
     0
281
     0
282
     0
283
     0
284
     0
285
     0
286
     0
287
     3
288
     0
  0
DIMSTYLE
105
68
330
A
100
AcDbSymbolTableRecord
100
AcDbDimStyleTableRecord
  2
AM_JIS$SH
 70
     0
  3

  4
"
  5

  6
GENAXEH
  7
OPEN30
 40
0.5
 41
2.5
 42
1.0
 43
10.0
 44
1.0
 45
0.0
 46
0.0
 47
0.1
 48
0.1
140
3.2
141
0.0
142
0.0
143
0.0393701
144
2.0
145
0.0
146
0.71
147
1.5
 71
     0
 72
     0
 73
     0
 74
     0
 75
     1
 76
     1
 77
     3
 78
     8
170
     0
171
     2
172
     1
173
     1
174
     0
175
     0
176
   256
177
   256
178
     2
270
     2
271
     2
272
     2
273
     2
274
     2
340
6B
275
     0
280
     0
281
     0
282
     0
283
     0
284
     0
285
     0
286
     0
287
     3
288
     0
  0
DIMSTYLE
105
B34
102
{ACAD_REACTORS
330
2365
102
}
330
A
100
AcDbSymbolTableRecord
100
AcDbDimStyleTableRecord
  2
AM_JIS$2
 70
     0
  3

  4
"
  5
OPEN30
  6

  7

 40
0.5
 41
2.5
 42
1.0
 43
12.0
 44
1.0
 45
0.0
 46
0.0
 47
0.1
 48
0.1
140
3.2
141
0.0
142
0.0
143
0.0393701
144
1.0
145
0.0
146
0.71
147
1.5
 71
     0
 72
     0
 73
     0
 74
     0
 75
     0
 76
     0
 77
     3
 78
     8
170
     0
171
     2
172
     1
173
     0
174
     0
175
     0
176
   256
177
   256
178
     2
270
     2
271
     3
272
     3
273
     2
274
     2
340
6B
275
     0
280
     0
281
     0
282
     0
283
     0
284
     0
285
     0
286
     0
287
     3
288
     0
  0
DIMSTYLE
105
BA5
102
{ACAD_REACTORS
330
CC6
330
DF5
330
1DEF
330
1C71
102
}
330
A
100
AcDbSymbolTableRecord
100
AcDbDimStyleTableRecord
  2
AM_JIS$0
 70
     0
  3

  4
"
  5
OPEN30
  6

  7

 40
0.5
 41
2.5
 42
0.0
 43
10.0
 44
1.0
 45
0.0
 46
0.0
 47
0.1
 48
0.1000000001
140
3.799999999999999
141
0.0
142
0.0
143
0.0393701
144
1.0
145
0.0
146
0.71
147
1.5
 71
     0
 72
     0
 73
     0
 74
     0
 75
     0
 76
     0
 77
     3
 78
     1
170
     0
171
     2
172
     1
173
     0
174
     0
175
     0
176
     3
177
     3
178
     2
270
     2
271
     2
272
     2
273
     2
274
     2
340
11
275
     1
280
     0
281
     0
282
     0
283
     0
284
     8
285
     0
286
     0
287
     0
288
     0
  0
ENDTAB
  0
TABLE
  2
BLOCK_RECORD
  5
1
330
0
100
AcDbSymbolTable
 70
    10
  0
BLOCK_RECORD
  5
1F
102
{ACAD_XDICTIONARY
360
74
102
}
330
1
100
AcDbSymbolTableRecord
100
AcDbBlockTableRecord
  2
*MODEL_SPACE
  0
BLOCK_RECORD
  5
101
102
{ACAD_XDICTIONARY
360
2B70
102
}
330
1
100
AcDbSymbolTableRecord
100
AcDbBlockTableRecord
  2
*PAPER_SPACE
  0
BLOCK_RECORD
  5
59
330
1
100
AcDbSymbolTableRecord
100
AcDbBlockTableRecord
  2
_OPEN30
  0
BLOCK_RECORD
  5
64
330
1
100
AcDbSymbolTableRecord
100
AcDbBlockTableRecord
  2
GENAXEH
  0
BLOCK_RECORD
  5
CC8
330
1
100
AcDbSymbolTableRecord
100
AcDbBlockTableRecord
  2
*D5
  0
BLOCK_RECORD
  5
DF6
330
1
100
AcDbSymbolTableRecord
100
AcDbBlockTableRecord
  2
*D6
  0
BLOCK_RECORD
  5
1C72
330
1
100
AcDbSymbolTableRecord
100
AcDbBlockTableRecord
  2
*D7
  0
BLOCK_RECORD
  5
1DF0
330
1
100
AcDbSymbolTableRecord
100
AcDbBlockTableRecord
  2
*D8
  0
BLOCK_RECORD
  5
2366
330
1
100
AcDbSymbolTableRecord
100
AcDbBlockTableRecord
  2
*D9
  0
ENDTAB
  0
ENDSEC
  0
SECTION
  2
BLOCKS
  0
BLOCK
  5
20
330
1F
100
AcDbEntity
  8
0
100
AcDbBlockBegin
  2
*MODEL_SPACE
 70
     0
 10
0.0
 20
0.0
 30
0.0
  3
*MODEL_SPACE
  1

  0
ENDBLK
  5
21
330
1F
100
AcDbEntity
  8
0
100
AcDbBlockEnd
  0
BLOCK
  5
103
330
101
100
AcDbEntity
 67
     1
  8
0
100
AcDbBlockBegin
  2
*PAPER_SPACE
 70
     0
 10
0.0
 20
0.0
 30
0.0
  3
*PAPER_SPACE
  1

  0
ENDBLK
  5
104
330
101
100
AcDbEntity
 67
     1
  8
0
100
AcDbBlockEnd
  0
BLOCK
  5
5D
330
59
100
AcDbEntity
  8
0
100
AcDbBlockBegin
  2
_OPEN30
 70
     0
 10
0.0
 20
0.0
 30
0.0
  3
_OPEN30
  1

  0
LINE
  5
5A
330
59
100
AcDbEntity
  8
0
 62
     0
100
AcDbLine
 10
-1.0
 20
0.26794919
 30
0.0
 11
0.0
 21
0.0
 31
0.0
  0
LINE
  5
5B
330
59
100
AcDbEntity
  8
0
 62
     0
100
AcDbLine
 10
0.0
 20
0.0
 30
0.0
 11
-1.0
 21
-0.26794919
 31
0.0
  0
LINE
  5
5C
330
59
100
AcDbEntity
  8
0
 62
     0
100
AcDbLine
 10
0.0
 20
0.0
 30
0.0
 11
-1.0
 21
0.0
 31
0.0
  0
ENDBLK
  5
5E
330
59
100
AcDbEntity
  8
0
100
AcDbBlockEnd
  0
BLOCK
  5
66
330
64
100
AcDbEntity
  8
0
100
AcDbBlockBegin
  2
GENAXEH
 70
     0
 10
0.0
 20
0.0
 30
0.0
  3
GENAXEH
  1

  0
LINE
  5
65
330
64
100
AcDbEntity
  8
0
100
AcDbLine
 10
-1.0
 20
0.0
 30
0.0
 11
1.0
 21
0.0
 31
0.0
  0
ENDBLK
  5
67
330
64
100
AcDbEntity
  8
0
100
AcDbBlockEnd
  0
BLOCK
  5
CD2
330
CC8
100
AcDbEntity
  8
0
100
AcDbBlockBegin
  2
*D5
 70
     1
 10
0.0
 20
0.0
 30
0.0
  3
*D5
  1

  0
LINE
  5
2AEF
330
CC8
100
AcDbEntity
  8
AM_5
 62
     3
100
AcDbLine
 10
-69.0
 20
-1.250006209471275
 30
0.0
 11
-69.0
 21
-14.00000718101106
 31
0.0
  0
LINE
  5
2AF0
330
CC8
100
AcDbEntity
  8
AM_5
 62
     3
100
AcDbLine
 10
-0.9999961853027439
 20
-1.149999325422123
 30
0.0
 11
-0.9999961853027446
 21
-14.00000718101106
 31
0.0
  0
LINE
  5
2AF1
330
CC8
100
AcDbEntity
  8
AM_5
 62
     3
100
AcDbLine
 10
-67.75
 20
-13.50000718101106
 30
0.0
 11
-2.249996185302744
 21
-13.50000718101106
 31
0.0
  0
INSERT
  5
2AF2
330
CC8
100
AcDbEntity
  8
AM_5
 62
     3
100
AcDbBlockReference
  2
_OPEN30
 10
-69.0
 20
-13.50000718101106
 30
0.0
 41
1.25
 42
1.25
 43
1.25
 50
180.0
  0
INSERT
  5
2AF3
330
CC8
100
AcDbEntity
  8
AM_5
 62
     3
100
AcDbBlockReference
  2
_OPEN30
 10
-0.9999961853027446
 20
-13.50000718101106
 30
0.0
 41
1.25
 42
1.25
 43
1.25
  0
MTEXT
  5
2AF4
330
CC8
100
AcDbEntity
  8
AM_5
 62
     2
100
AcDbMText
 10
-34.99999809265137
 20
-11.80000718101106
 30
0.0
 40
1.9
 41
0.0
 71
     5
 72
     1
  1
68
1001
ACAD
1000
MTEXTBEGIN
1070
    73
1070
     1
1070
    44
1040
1.0
1070
    74
1070
     0
1000
MTEXTEND
  0
POINT
  5
2AF5
330
CC8
100
AcDbEntity
  8
DEFPOINTS
 62
     0
100
AcDbPoint
 10
-69.0
 20
-1.250006209471275
 30
0.0
  0
POINT
  5
2AF6
330
CC8
100
AcDbEntity
  8
DEFPOINTS
 62
     0
100
AcDbPoint
 10
-0.9999961853027439
 20
-1.149999325422123
 30
0.0
  0
POINT
  5
2AF7
330
CC8
100
AcDbEntity
  8
DEFPOINTS
 62
     0
100
AcDbPoint
 10
-0.9999961853027446
 20
-13.50000718101106
 30
0.0
  0
ENDBLK
  5
CD3
330
CC8
100
AcDbEntity
  8
0
100
AcDbBlockEnd
  0
BLOCK
  5
E00
330
DF6
100
AcDbEntity
  8
0
100
AcDbBlockBegin
  2
*D6
 70
     1
 10
0.0
 20
0.0
 30
0.0
  3
*D6
  1

  0
LINE
  5
2B03
330
DF6
100
AcDbEntity
  8
AM_5
 62
     3
100
AcDbLine
 10
-21.0
 20
-1.499999305169979
 30
0.0
 11
-21.0
 21
-9.00000718101104
 31
0.0
  0
LINE
  5
2B04
330
DF6
100
AcDbEntity
  8
AM_5
 62
     3
100
AcDbLine
 10
-0.9999961853027439
 20
-1.149999325422123
 30
0.0
 11
-0.9999961853027443
 21
-9.00000718101104
 31
0.0
  0
LINE
  5
2B05
330
DF6
100
AcDbEntity
  8
AM_5
 62
     3
100
AcDbLine
 10
-19.75
 20
-8.50000718101104
 30
0.0
 11
-2.249996185302744
 21
-8.50000718101104
 31
0.0
  0
INSERT
  5
2B06
330
DF6
100
AcDbEntity
  8
AM_5
 62
     3
100
AcDbBlockReference
  2
_OPEN30
 10
-21.0
 20
-8.50000718101104
 30
0.0
 41
1.25
 42
1.25
 43
1.25
 50
180.0
  0
INSERT
  5
2B07
330
DF6
100
AcDbEntity
  8
AM_5
 62
     3
100
AcDbBlockReference
  2
_OPEN30
 10
-0.9999961853027443
 20
-8.50000718101104
 30
0.0
 41
1.25
 42
1.25
 43
1.25
  0
MTEXT
  5
2B08
330
DF6
100
AcDbEntity
  8
AM_5
 62
     2
100
AcDbMText
 10
-10.99999809265137
 20
-6.80000718101104
 30
0.0
 40
1.9
 41
0.0
 71
     5
 72
     1
  1
20
1001
ACAD
1000
MTEXTBEGIN
1070
    73
1070
     1
1070
    44
1040
1.0
1070
    74
1070
     0
1000
MTEXTEND
  0
POINT
  5
2B09
330
DF6
100
AcDbEntity
  8
DEFPOINTS
 62
     0
100
AcDbPoint
 10
-21.0
 20
-1.499999305169979
 30
0.0
  0
POINT
  5
2B0A
330
DF6
100
AcDbEntity
  8
DEFPOINTS
 62
     0
100
AcDbPoint
 10
-0.9999961853027439
 20
-1.149999325422123
 30
0.0
  0
POINT
  5
2B0B
330
DF6
100
AcDbEntity
  8
DEFPOINTS
 62
     0
100
AcDbPoint
 10
-0.9999961853027443
 20
-8.50000718101104
 30
0.0
  0
ENDBLK
  5
E01
330
DF6
100
AcDbEntity
  8
0
100
AcDbBlockEnd
  0
BLOCK
  5
1C7E
330
1C72
100
AcDbEntity
  8
0
100
AcDbBlockBegin
  2
*D7
 70
     1
 10
0.0
 20
0.0
 30
0.0
  3
*D7
  1

  0
LINE
  5
2B0C
330
1C72
100
AcDbEntity
  8
AM_5
 62
     3
100
AcDbLine
 10
-0.9999961853027439
 20
-1.149999325422123
 30
0.0
 11
7.795959616461487
 21
-1.149999325422126
 31
0.0
  0
LINE
  5
2B0D
330
1C72
100
AcDbEntity
  8
AM_5
 62
     3
100
AcDbLine
 10
-0.9999961853027109
 20
1.150000674577876
 30
0.0
 11
7.795959616461486
 21
1.150000674577873
 31
0.0
  0
LINE
  5
2B0E
330
1C72
100
AcDbEntity
  8
AM_5
 62
     3
100
AcDbLine
 10
7.295959616461486
 20
-2.399999325422126
 30
0.0
 11
7.295959616461486
 21
-3.649999325422126
 31
0.0
  0
LINE
  5
2B0F
330
1C72
100
AcDbEntity
  8
AM_5
 62
     3
100
AcDbLine
 10
7.295959616461487
 20
2.400000674577873
 30
0.0
 11
7.295959616461489
 21
10.95000056915857
 31
0.0
  0
LINE
  5
2B10
330
1C72
100
AcDbEntity
  8
AM_5
 62
     3
100
AcDbLine
 10
7.295959616461487
 20
-1.149999325422126
 30
0.0
 11
7.295959616461487
 21
1.150000674577873
 31
0.0
  0
INSERT
  5
2B11
330
1C72
100
AcDbEntity
  8
AM_5
 62
     3
100
AcDbBlockReference
  2
_OPEN30
 10
7.295959616461487
 20
-1.149999325422126
 30
0.0
 41
1.25
 42
1.25
 43
1.25
 50
90.0
  0
INSERT
  5
2B12
330
1C72
100
AcDbEntity
  8
AM_5
 62
     3
100
AcDbBlockReference
  2
_OPEN30
 10
7.295959616461487
 20
1.150000674577873
 30
0.0
 41
1.25
 42
1.25
 43
1.25
 50
270.0
  0
MTEXT
  5
2B13
330
1C72
100
AcDbEntity
  8
AM_5
 62
     2
100
AcDbMText
 10
5.595959616461487
 20
7.350000569158572
 30
0.0
 40
1.9
 41
0.0
 71
     5
 72
     1
  1
%%c2.3
 11
0.0000000000000001
 21
1.0
 31
0.0
1001
ACAD
1000
MTEXTBEGIN
1070
    73
1070
     1
1070
    44
1040
1.0
1070
    74
1070
     0
1000
MTEXTEND
  0
POINT
  5
2B14
330
1C72
100
AcDbEntity
  8
DEFPOINTS
 62
     0
100
AcDbPoint
 10
-0.9999961853027439
 20
-1.149999325422123
 30
0.0
  0
POINT
  5
2B15
330
1C72
100
AcDbEntity
  8
DEFPOINTS
 62
     0
100
AcDbPoint
 10
-0.9999961853027109
 20
1.150000674577876
 30
0.0
  0
POINT
  5
2B16
330
1C72
100
AcDbEntity
  8
DEFPOINTS
 62
     0
100
AcDbPoint
 10
7.295959616461487
 20
1.150000674577873
 30
0.0
  0
ENDBLK
  5
1C7F
330
1C72
100
AcDbEntity
  8
0
100
AcDbBlockEnd
  0
BLOCK
  5
1DFC
330
1DF0
100
AcDbEntity
  8
0
100
AcDbBlockBegin
  2
*D8
 70
     1
 10
0.0
 20
0.0
 30
0.0
  3
*D8
  1

  0
LINE
  5
2B17
330
1DF0
100
AcDbEntity
  8
AM_5
 62
     3
100
AcDbLine
 10
-68.75000000000001
 20
-1.500006181011352
 30
0.0
 11
-77.25000134152342
 21
-1.500006181011368
 31
0.0
  0
LINE
  5
2B18
330
1DF0
100
AcDbEntity
  8
AM_5
 62
     3
100
AcDbLine
 10
-68.75000000000001
 20
1.500013847201652
 30
0.0
 11
-77.25000134152342
 21
1.500013847201635
 31
0.0
  0
LINE
  5
2B19
330
1DF0
100
AcDbEntity
  8
AM_5
 62
     3
100
AcDbLine
 10
-76.75000134152341
 20
-2.750006181011367
 30
0.0
 11
-76.7500013415234
 21
-4.000006181011367
 31
0.0
  0
LINE
  5
2B1A
330
1DF0
100
AcDbEntity
  8
AM_5
 62
     3
100
AcDbLine
 10
-76.75000134152341
 20
2.750013847201636
 30
0.0
 11
-76.75000134152343
 21
4.000013847201636
 31
0.0
  0
LINE
  5
2B1B
330
1DF0
100
AcDbEntity
  8
AM_5
 62
     3
100
AcDbLine
 10
-76.75000134152341
 20
-1.500006181011367
 30
0.0
 11
-76.75000134152341
 21
1.500013847201636
 31
0.0
  0
INSERT
  5
2B1C
330
1DF0
100
AcDbEntity
  8
AM_5
 62
     3
100
AcDbBlockReference
  2
_OPEN30
 10
-76.75000134152341
 20
-1.500006181011367
 30
0.0
 41
1.25
 42
1.25
 43
1.25
 50
90.0000000000001
  0
INSERT
  5
2B1D
330
1DF0
100
AcDbEntity
  8
AM_5
 62
     3
100
AcDbBlockReference
  2
_OPEN30
 10
-76.75000134152341
 20
1.500013847201636
 30
0.0
 41
1.25
 42
1.25
 43
1.25
 50
270.0000000000001
  0
MTEXT
  5
2B1E
330
1DF0
100
AcDbEntity
  8
AM_5
 62
     2
100
AcDbMText
 10
-78.45000134152342
 20
0.0000038330951342
 30
0.0
 40
1.9
 41
0.0
 71
     5
 72
     1
  1
%%c3
 11
-0.000000000000002
 21
1.0
 31
0.0
1001
ACAD
1000
MTEXTBEGIN
1070
    73
1070
     1
1070
    44
1040
1.0
1070
    74
1070
     0
1000
MTEXTEND
  0
POINT
  5
2B1F
330
1DF0
100
AcDbEntity
  8
DEFPOINTS
 62
     0
100
AcDbPoint
 10
-68.75000000000001
 20
-1.500006181011199
 30
0.0
  0
POINT
  5
2B20
330
1DF0
100
AcDbEntity
  8
DEFPOINTS
 62
     0
100
AcDbPoint
 10
-68.75000000000001
 20
1.500013847201804
 30
0.0
  0
POINT
  5
2B21
330
1DF0
100
AcDbEntity
  8
DEFPOINTS
 62
     0
100
AcDbPoint
 10
-76.75000134152341
 20
1.500013847201807
 30
0.0
  0
ENDBLK
  5
1DFD
330
1DF0
100
AcDbEntity
  8
0
100
AcDbBlockEnd
  0
BLOCK
  5
2376
330
2366
100
AcDbEntity
  8
0
100
AcDbBlockBegin
  2
*D9
 70
     1
 10
0.0
 20
0.0
 30
0.0
  3
*D9
  1

  0
LINE
  5
2B72
330
2366
100
AcDbEntity
  8
AM_5
100
AcDbLine
 10
0.1710091105622469
 20
-0.4698466602038472
 30
0.0
 11
4.97309728306657
 21
-13.66355945385224
 31
0.0
  0
LINE
  5
2B73
330
2366
100
AcDbEntity
  8
AM_5
100
AcDbLine
 10
0.1710103731902115
 20
0.4698462006458543
 30
0.0
 11
4.973134001412629
 21
13.66354608949642
 31
0.0
  0
ARC
  5
2B74
330
2366
100
AcDbEntity
  8
AM_5
100
AcDbCircle
 10
-0.0000000000000001
 20
-0.0000000000000002
 30
0.0
 40
14.04044543801184
100
AcDbArc
 50
295.1025270455347
 51
64.89731898233992
  0
INSERT
  5
2B75
330
2366
100
AcDbEntity
  8
AM_5
100
AcDbBlockReference
  2
_OPEN30
 10
4.802088172504324
 20
-13.1937127936484
 30
0.0
 41
1.25
 42
1.25
 43
1.25
 50
202.5512049217039
  0
INSERT
  5
2B76
330
2366
100
AcDbEntity
  8
AM_5
100
AcDbBlockReference
  2
_OPEN30
 10
4.802123628222418
 20
13.19369988885056
 30
0.0
 41
1.25
 42
1.25
 43
1.25
 50
157.4486411061706
  0
MTEXT
  5
2B77
330
2366
100
AcDbEntity
  8
AM_5
 62
     2
100
AcDbMText
 10
12.49044543800056
 20
-0.0000167829153031
 30
0.0
 40
1.6
 41
0.0
 71
     5
 72
     1
  1
140°
  7
ASAMI
 11
0.0000013436602709
 21
0.9999999999990972
 31
0.0
  0
POINT
  5
2B78
330
2366
100
AcDbEntity
  8
DEFPOINTS
 62
     0
100
AcDbPoint
 10
12.89215437553651
 20
-5.561156683201995
 30
0.0
  0
POINT
  5
2B79
330
2366
100
AcDbEntity
  8
DEFPOINTS
 62
     0
100
AcDbPoint
 10
-0.0000000000000001
 20
-0.0000000000000002
 30
0.0
  0
POINT
  5
2B7A
330
2366
100
AcDbEntity
  8
DEFPOINTS
 62
     0
100
AcDbPoint
 10
-0.0000000000000001
 20
-0.0000000000000002
 30
0.0
  0
POINT
  5
2B7B
330
2366
100
AcDbEntity
  8
DEFPOINTS
 62
     0
100
AcDbPoint
 10
-0.1327409203046682
 20
0.3647050023971202
 30
0.0
  0
POINT
  5
2B7C
330
2366
100
AcDbEntity
  8
DEFPOINTS
 62
     0
100
AcDbPoint
 10
-0.1327428071771822
 20
-0.3647071370687703
 30
0.0
  0
ENDBLK
  5
2377
330
2366
100
AcDbEntity
  8
0
100
AcDbBlockEnd
  0
ENDSEC
  0
SECTION
  2
ENTITIES
  0
LINE
  5
C1D
330
1F
100
AcDbEntity
  8
AM_0
 48
0.5
100
AcDbLine
 10
-0.0000000000000001
 20
-0.0000000000000002
 30
0.0
 11
-0.1327409203046682
 21
0.3647050023971202
 31
0.0
  0
LINE
  5
C20
330
1F
100
AcDbEntity
  8
AM_0
 48
0.5
100
AcDbLine
 10
-0.0000000000000001
 20
-0.0000000000000002
 30
0.0
 11
-0.1327428071771822
 21
-0.3647071370687703
 31
0.0
  0
LINE
  5
C2E
330
1F
100
AcDbEntity
  8
AM_0
 48
0.5
100
AcDbLine
 10
-68.75
 20
-1.500006181011199
 30
0.0
 11
-68.75
 21
1.500013847201805
 31
0.0
  0
LINE
  5
C30
330
1F
100
AcDbEntity
  8
AM_0
 48
0.5
100
AcDbLine
 10
-69.0
 20
-1.250006209471275
 30
0.0
 11
-69.0
 21
1.250005235204411
 31
0.0
  0
LINE
  5
C9F
330
1F
100
AcDbEntity
  8
AM_7
100
AcDbLine
 10
-69.74999999999998
 20
-0.0000000000000743
 30
0.0
 11
0.2959585652317927
 21
0.0000000000000003
 31
0.0
1001
GENIUS_GENODEF_13
1002
{
1000
HIER
1070
     0
1002
}
1002
{
1000
MANEDIT
1070
     0
1002
}
1002
{
1000
NOSEL
1070
     0
1002
}
1002
{
1000
BEHIND
1070
     0
1002
}
1002
{
1000
REACTOR
1002
}
1001
GENIUS_GENOBJ-N-CEN_13
1002
{
1000
OWNER
1000
GEN
1002
}
  0
DIMENSION
  5
CC6
330
1F
100
AcDbEntity
  8
AM_5
100
AcDbDimension
  2
*D5
 10
-0.9999961853027446
 20
-13.50000718101106
 30
0.0
 11
-34.99999809265137
 21
-11.80000718101106
 31
0.0
 70
    32
  1
<>
  3
AM_JIS$0
100
AcDbAlignedDimension
 13
-69.0
 23
-1.250006209471275
 33
0.0
 14
-0.9999961853027439
 24
-1.149999325422123
 34
0.0
 50
0.0000000000001132
100
AcDbRotatedDimension
1001
GENIUS_GENDTOL_13
1000

1000
h7
1000

1040
0.0
1001
ACAD
1000
DSTYLE
1002
{
1070
   271
1070
     0
1002
}
  0
DIMENSION
  5
DF5
330
1F
100
AcDbEntity
  8
AM_5
100
AcDbDimension
  2
*D6
 10
-0.9999961853027443
 20
-8.50000718101104
 30
0.0
 11
-10.99999809265137
 21
-6.80000718101104
 31
0.0
 70
    32
  1
<>
  3
AM_JIS$0
100
AcDbAlignedDimension
 13
-21.0
 23
-1.499999305169979
 33
0.0
 14
-0.9999961853027439
 24
-1.149999325422123
 34
0.0
 50
0.0000000000001527
100
AcDbRotatedDimension
1001
GENIUS_GENDTOL_13
1000

1000
h7
1000

1040
0.0
1001
ACAD
1000
DSTYLE
1002
{
1070
   271
1070
     0
1002
}
  0
ARC
  5
144A
330
1F
100
AcDbEntity
  8
AM_11
 48
0.5
100
AcDbCircle
 10
-24.61968231200994
 20
-6.625446930970555
 30
0.0
 40
7.325448036193749
100
AcDbArc
 50
64.74833051131179
 51
115.2516644797366
  0
ARC
  5
144B
330
1F
100
AcDbEntity
  8
AM_11
 48
0.5
100
AcDbCircle
 10
-24.61968231200994
 20
6.625451430235442
 30
0.0
 40
7.325448036193749
100
AcDbArc
 50
244.7482808787518
 51
295.2516148471758
  0
ARC
  5
144E
330
1F
100
AcDbEntity
  8
AM_11
 48
0.5
100
AcDbCircle
 10
-18.36968231200994
 20
-6.625446930970555
 30
0.0
 40
7.325448036193749
100
AcDbArc
 50
64.74833051131179
 51
115.2516644797366
  0
ARC
  5
144F
330
1F
100
AcDbEntity
  8
AM_11
 48
0.5
100
AcDbCircle
 10
-18.36968231200994
 20
6.625451430235442
 30
0.0
 40
7.325448036193749
100
AcDbArc
 50
244.7482808787518
 51
295.2516148471758
  0
ARC
  5
1450
330
1F
100
AcDbEntity
  8
AM_11
 48
0.5
100
AcDbCircle
 10
-12.11968231201169
 20
6.625451430235442
 30
0.0
 40
7.325448036193749
100
AcDbArc
 50
244.7482808787518
 51
295.2516148471758
  0
ARC
  5
1451
330
1F
100
AcDbEntity
  8
AM_11
 48
0.5
100
AcDbCircle
 10
-12.11968231201169
 20
-6.625446930970555
 30
0.0
 40
7.325448036193749
100
AcDbArc
 50
64.74833051131179
 51
115.2516644797366
  0
ARC
  5
1452
330
1F
100
AcDbEntity
  8
AM_11
 48
0.5
100
AcDbCircle
 10
-5.869682312011695
 20
-6.625446930970555
 30
0.0
 40
7.325448036193749
100
AcDbArc
 50
64.74833051131179
 51
115.2516644797366
  0
ARC
  5
1453
330
1F
100
AcDbEntity
  8
AM_11
 48
0.5
100
AcDbCircle
 10
-5.869682312011695
 20
6.625451430235442
 30
0.0
 40
7.325448036193749
100
AcDbArc
 50
244.7482808787518
 51
295.2516148471758
  0
ARC
  5
1454
330
1F
100
AcDbEntity
  8
AM_11
 48
0.5
100
AcDbCircle
 10
0.3803176879883114
 20
6.625451430235442
 30
0.0
 40
7.325448036193749
100
AcDbArc
 50
244.7482808787518
 51
254.0147302238188
  0
ARC
  5
18B8
330
1F
100
AcDbEntity
  8
AM_11
 48
0.5
100
AcDbCircle
 10
-30.86968231200989
 20
6.625451430235421
 30
0.0
 40
7.325448036193749
100
AcDbArc
 50
244.7482808787518
 51
295.2516148471758
  0
ARC
  5
18B9
330
1F
100
AcDbEntity
  8
AM_11
 48
0.5
100
AcDbCircle
 10
-30.86968231200989
 20
-6.625446930970577
 30
0.0
 40
7.325448036193749
100
AcDbArc
 50
64.74833051131179
 51
115.2516644797366
  0
ARC
  5
18BA
330
1F
100
AcDbEntity
  8
AM_11
 48
0.5
100
AcDbCircle
 10
-37.11969507921031
 20
6.625457452091307
 30
0.0
 40
7.325448036193749
100
AcDbArc
 50
244.7482808787518
 51
295.2516148471758
  0
ARC
  5
18BB
330
1F
100
AcDbEntity
  8
AM_11
 48
0.5
100
AcDbCircle
 10
-37.11969507921032
 20
-6.625440909114692
 30
0.0
 40
7.325448036193749
100
AcDbArc
 50
64.74833051131179
 51
115.2516644797366
  0
TEXT
  5
19BD
330
1F
100
AcDbEntity
  8
AM_6
100
AcDbText
 10
-46.24999809265133
 20
-24.75000718101108
 30
0.0
 40
2.5
  1
MDW023MHK
 50
0.0000000000001527
 72
     4
 11
-34.99999809265134
 21
-23.50000718101106
 31
0.0
100
AcDbText
  0
LINE
  5
1B5C
330
1F
100
AcDbEntity
  8
AM_0
 48
0.5
100
AcDbLine
 10
-68.75
 20
1.500005264989105
 30
0.0
 11
-69.0
 21
1.250005235204411
 31
0.0
1001
GENIUS_GENFIL_13
1070
     0
1040
0.25
1040
0.25
1040
20.0
1040
0.0
1002
{
1002
}
1001
GENIUS_GENODEF_13
1002
{
1000
HIER
1070
     0
1002
}
1002
{
1000
MANEDIT
1070
     0
1002
}
1002
{
1000
NOSEL
1070
     0
1002
}
1002
{
1000
BEHIND
1070
     0
1002
}
1002
{
1000
REACTOR
1002
}
1001
GENIUS_GENOBJ-N-CHA_13
1002
{
1000
OWNER
1000
GEN
1002
}
  0
LINE
  5
1B60
330
1F
100
AcDbEntity
  8
AM_0
 48
0.5
100
AcDbLine
 10
-69.0
 20
-1.250006209471275
 30
0.0
 11
-68.75
 21
-1.500006181011199
 31
0.0
1001
GENIUS_GENFIL_13
1070
     0
1040
0.25
1040
0.25
1040
20.0
1040
0.0
1002
{
1002
}
1001
GENIUS_GENODEF_13
1002
{
1000
HIER
1070
     0
1002
}
1002
{
1000
MANEDIT
1070
     0
1002
}
1002
{
1000
NOSEL
1070
     0
1002
}
1002
{
1000
BEHIND
1070
     0
1002
}
1002
{
1000
REACTOR
1002
}
1001
GENIUS_GENOBJ-N-CHA_13
1002
{
1000
OWNER
1000
GEN
1002
}
  0
LINE
  5
1C15
330
1F
100
AcDbEntity
  8
AM_0
 48
0.5
100
AcDbLine
 10
-21.0
 20
-1.500000745136699
 30
0.0
 11
-21.0
 21
1.50001095386569
 31
0.0
  0
LINE
  5
1C1A
330
1F
100
AcDbEntity
  8
AM_0
 48
0.5
100
AcDbLine
 10
-20.99999980885467
 20
1.50001084350788
 30
0.0
 11
-68.75
 21
1.500005264989105
 31
0.0
  0
LINE
  5
1C1E
330
1F
100
AcDbEntity
  8
AM_0
 48
0.5
100
AcDbLine
 10
-21.0
 20
-1.499999305169979
 30
0.0
 11
-68.75
 21
-1.500006181011199
 31
0.0
  0
ARC
  5
1C22
330
1F
100
AcDbEntity
  8
AM_11
 48
0.5
100
AcDbCircle
 10
-49.61969507914652
 20
6.625457452091293
 30
0.0
 40
7.325448036193749
100
AcDbArc
 50
244.7482808787518
 51
295.2516148471758
  0
ARC
  5
1C23
330
1F
100
AcDbEntity
  8
AM_11
 48
0.5
100
AcDbCircle
 10
-49.61969507914653
 20
-6.625440909114706
 30
0.0
 40
7.325448036193749
100
AcDbArc
 50
64.74833051131179
 51
115.2516644797366
  0
ARC
  5
1C24
330
1F
100
AcDbEntity
  8
AM_11
 48
0.5
100
AcDbCircle
 10
-43.36968231194609
 20
6.625451430235407
 30
0.0
 40
7.325448036193749
100
AcDbArc
 50
244.7482808787518
 51
295.2516148471758
  0
ARC
  5
1C25
330
1F
100
AcDbEntity
  8
AM_11
 48
0.5
100
AcDbCircle
 10
-43.3696823119461
 20
-6.625446930970591
 30
0.0
 40
7.325448036193749
100
AcDbArc
 50
64.74833051131179
 51
115.2516644797366
  0
ARC
  5
1C26
330
1F
100
AcDbEntity
  8
AM_11
 48
0.5
100
AcDbCircle
 10
-62.11969507908264
 20
6.625457452091239
 30
0.0
 40
7.325448036193749
100
AcDbArc
 50
244.7482808787518
 51
295.2516148471758
  0
ARC
  5
1C27
330
1F
100
AcDbEntity
  8
AM_11
 48
0.5
100
AcDbCircle
 10
-62.11969507908265
 20
-6.62544090911476
 30
0.0
 40
7.325448036193749
100
AcDbArc
 50
64.74833051131179
 51
115.2516644797366
  0
ARC
  5
1C28
330
1F
100
AcDbEntity
  8
AM_11
 48
0.5
100
AcDbCircle
 10
-55.86968231188222
 20
6.625451430235353
 30
0.0
 40
7.325448036193749
100
AcDbArc
 50
244.7482808787518
 51
295.2516148471758
  0
ARC
  5
1C29
330
1F
100
AcDbEntity
  8
AM_11
 48
0.5
100
AcDbCircle
 10
-55.86968231188222
 20
-6.625446930970645
 30
0.0
 40
7.325448036193749
100
AcDbArc
 50
64.74833051131179
 51
115.2516644797366
  0
ARC
  5
1C2C
330
1F
100
AcDbEntity
  8
AM_11
 48
0.5
100
AcDbCircle
 10
-68.36968231181838
 20
6.625451430235318
 30
0.0
 40
7.325448036193749
100
AcDbArc
 50
265.0638846988117
 51
295.2516148471758
  0
ARC
  5
1C2D
330
1F
100
AcDbEntity
  8
AM_11
 48
0.5
100
AcDbCircle
 10
-68.36968231181838
 20
-6.62544693097068
 30
0.0
 40
7.325448036193749
100
AcDbArc
 50
64.74833051131179
 51
94.93611530118821
  0
DIMENSION
  5
1C71
330
1F
100
AcDbEntity
  8
AM_5
100
AcDbDimension
  2
*D7
 10
7.295959616461487
 20
1.150000674577873
 30
0.0
 11
7.295959616461487
 21
7.350000569158571
 31
0.0
 70
   160
  1
%%c<>
  3
AM_JIS$0
100
AcDbAlignedDimension
 13
-0.9999961853027439
 23
-1.149999325422123
 33
0.0
 14
-0.9999961853027109
 24
1.150000674577876
 34
0.0
 50
89.99999999999991
100
AcDbRotatedDimension
1001
GENIUS_GENDTOL_13
1000

1000
h7
1000

1040
0.0
1001
ACAD
1000
DSTYLE
1002
{
1070
   271
1070
     1
1002
}
  0
LINE
  5
1C85
330
1F
100
AcDbEntity
  8
AM_0
 48
0.5
100
AcDbLine
 10
-0.6234759835290051
 20
0.9597720226039683
 30
0.0
 11
-0.9999961853027109
 21
1.150000674577876
 31
0.0
  0
ELLIPSE
  5
1C86
330
1F
100
AcDbEntity
  8
AM_0
 48
0.5
100
AcDbEllipse
 10
2.100295910586368
 20
1.545378141536061
 30
0.0
 11
2.72778212456667
 21
0.5674865287294156
 31
0.0
210
0.0
220
0.0
230
0.9999999999999998
 40
0.512157548330619
 41
3.154597222684332
 42
3.655201069360919
  0
LINE
  5
1CF2
330
1F
100
AcDbEntity
  8
AM_0
100
AcDbLine
 10
-20.99999999999999
 20
-1.500000745136699
 30
0.0
 11
-20.39378992746498
 21
-1.150005196573142
 31
0.0
  0
LINE
  5
1CF3
330
1F
100
AcDbEntity
  8
AM_0
100
AcDbLine
 10
-21.0
 20
1.50001095386569
 30
0.0
 11
-20.39378916407252
 21
1.150014964557296
 31
0.0
  0
LINE
  5
1CF4
330
1F
100
AcDbEntity
  8
AM_0
100
AcDbLine
 10
-20.39378916407251
 20
1.150014964557294
 30
0.0
 11
-20.39378992746498
 21
-1.150005196573142
 31
0.0
  0
DIMENSION
  5
1DEF
330
1F
100
AcDbEntity
  8
AM_5
100
AcDbDimension
  2
*D8
 10
-76.75000134152341
 20
1.500013847201807
 30
0.0
 11
-76.75000134152341
 21
0.0000038330952925
 31
0.0
 70
   160
  1
%%c<>
 51
359.9999999999998
  3
AM_JIS$0
100
AcDbAlignedDimension
 13
-68.75000000000001
 23
-1.500006181011199
 33
0.0
 14
-68.75000000000001
 24
1.500013847201804
 34
0.0
 50
270.0000065225689
100
AcDbRotatedDimension
1001
ACAD
1000
DSTYLE
1002
{
1070
   271
1070
     0
1002
}
1001
GENIUS_GENDTOL_13
1000

1000
h7
1000

1040
0.0
  0
DIMENSION
  5
2365
330
1F
100
AcDbEntity
  8
AM_5
100
AcDbDimension
  2
*D9
 10
-0.1327428071771822
 20
-0.3647071370687703
 30
0.0
 11
12.49044543800056
 21
-0.000016782915329
 31
0.0
 70
    34
  1
<>
 51
359.9999999999998
  3
AM_JIS$2
100
AcDb2LineAngularDimension
 13
-0.0000000000000001
 23
-0.0000000000000002
 33
0.0
 14
-0.1327409203046682
 24
0.3647050023971202
 34
0.0
 15
-0.0000000000000001
 25
-0.0000000000000002
 35
0.0
 16
12.89215437553651
 26
-5.561156683201995
 36
0.0
1001
GENIUS_GENDTOL_13
1000

1000
h7
1000

1040
0.0
1001
ACAD
1000
DSTYLE
1002
{
1070
   271
1070
     0
1002
}
  0
ELLIPSE
  5
25CA
330
1F
100
AcDbEntity
  8
AM_0
 48
0.5
100
AcDbEllipse
 10
2.100295910586371
 20
-1.545378141536056
 30
0.0
 11
2.727782124566671
 21
-0.5674865287294094
 31
0.0
210
0.0
220
0.0
230
-1.0
 40
0.512157548330619
 41
3.154597222684332
 42
3.655201069360919
  0
LINE
  5
25CB
330
1F
100
AcDbEntity
  8
AM_0
 48
0.5
100
AcDbLine
 10
-0.623475983529003
 20
-0.9597720226039697
 30
0.0
 11
-0.9999961853027439
 21
-1.149999325422123
 31
0.0
  0
LINE
  5
2A66
330
1F
100
AcDbEntity
  8
AM_0
 48
0.5
100
AcDbLine
 10
-20.39377975833269
 20
-1.149999325421872
 30
0.0
 11
-15.50881233214354
 21
-1.149999325421951
 31
0.0
  0
LINE
  5
2A67
330
1F
100
AcDbEntity
  8
AM_0
100
AcDbLine
 10
-20.39378916407252
 20
1.150014964557294
 30
0.0
 11
-14.95431732729628
 21
1.150164052948399
 31
0.0
  0
LINE
  5
2A68
330
1F
100
AcDbEntity
  8
AM_0
 48
0.5
100
AcDbLine
 10
-1.809497833251965
 20
1.150000674577886
 30
0.0
 11
-0.9999961853027109
 21
1.150000674577876
 31
0.0
  0
LINE
  5
2A69
330
1F
100
AcDbEntity
  8
AM_0
 48
0.5
100
AcDbLine
 10
-1.809497833251997
 20
-1.149999325422113
 30
0.0
 11
-0.9999961853027439
 21
-1.149999325422123
 31
0.0
  0
LINE
  5
2A6A
330
1F
100
AcDbEntity
  8
AM_0
 48
0.5
100
AcDbLine
 10
-0.0000000000000001
 20
-0.0000000000000002
 30
0.0
 11
-1.195800413838622
 21
0.441565693077315
 31
0.0
  0
LINE
  5
2A6B
330
1F
100
AcDbEntity
  8
AM_0
 48
0.5
100
AcDbLine
 10
-11.91524887084946
 20
1.150000674578023
 30
0.0
 11
-6.571727752685459
 21
1.15000067457795
 31
0.0
  0
LINE
  5
2A6C
330
1F
100
AcDbEntity
  8
AM_0
 48
0.5
100
AcDbLine
 10
-11.9224389929054
 20
-1.149999325422014
 30
0.0
 11
-6.571727752685491
 21
-1.149999325422049
 31
0.0
  0
LINE
  5
2A6D
330
1F
100
AcDbEntity
  8
AM_11
 48
0.5
100
AcDbLine
 10
-14.95431732729628
 20
1.150164052948399
 30
0.0
 11
-11.91524476916884
 21
1.150000674578023
 31
0.0
  0
LINE
  5
2A6E
330
1F
100
AcDbEntity
  8
AM_11
 48
0.5
100
AcDbLine
 10
-15.49995592384564
 20
-1.150058492024582
 30
0.0
 11
-11.91508337238331
 21
-1.150058492024644
 31
0.0
  0
LINE
  5
2A6F
330
1F
100
AcDbEntity
  8
AM_0
 48
0.5
100
AcDbLine
 10
-12.71071624975776
 20
0.5826251665751335
 30
0.0
 11
-15.99999618530274
 21
-0.0930644671121031
 31
0.0
  0
LINE
  5
2A70
330
1F
100
AcDbEntity
  8
AM_11
 48
0.5
100
AcDbLine
 10
-15.50881233214354
 20
-1.149999325421951
 30
0.0
 11
-10.80937156711962
 21
-1.150162703792348
 31
0.0
  0
LINE
  5
2A71
330
1F
100
AcDbEntity
  8
AM_11
 48
0.5
100
AcDbLine
 10
-6.571727752685459
 20
1.15000067457795
 30
0.0
 11
-1.809497833251965
 21
1.150000674577886
 31
0.0
  0
LINE
  5
2A72
330
1F
100
AcDbEntity
  8
AM_11
 48
0.5
100
AcDbLine
 10
-6.571727752685491
 20
-1.149999325422049
 30
0.0
 11
-1.809497833251997
 21
-1.149999325422113
 31
0.0
  0
SPLINE
  5
2A73
330
1F
100
AcDbEntity
  8
AM_0
100
AcDbSpline
210
0.0
220
0.0
230
1.0
 70
     8
 71
     3
 72
    23
 73
    19
 74
     0
 42
0.0000000001
 43
0.0000000001
 40
16.03460024169435
 40
16.03460024169435
 40
16.03460024169435
 40
16.03460024169435
 40
16.35212704903564
 40
17.38177054169784
 40
18.41822485651776
 40
19.46214173629503
 40
20.51396345435107
 40
21.57393551351153
 40
22.64208202342361
 40
23.7182574881101
 40
24.80209208578934
 40
25.89306333925047
 40
26.99048218457928
 40
28.09348763352352
 40
29.20111863782268
 40
30.31232390128032
 40
31.42594612798585
 40
32.5407912310448
 40
32.5407912310486
 40
32.5407912310486
 40
32.5407912310486
 10
-14.95431732729628
 20
1.150164052948399
 30
0.0
 10
-14.92834453111725
 20
1.146281855462957
 30
0.0
 10
-14.81826040805297
 20
1.129375978082261
 30
0.0
 10
-14.62434603975048
 20
1.096251491516943
 30
0.0
 10
-14.37322642516051
 20
1.046995742240173
 30
0.0
 10
-14.12234006228042
 20
0.9916897459045575
 30
0.0
 10
-13.87167212603497
 20
0.9306535854078903
 30
0.0
 10
-13.62121371977488
 20
0.864227538711359
 30
0.0
 10
-13.37095036760452
 20
0.792791325110618
 30
0.0
 10
-13.12086464213526
 20
0.7167606854500653
 30
0.0
 10
-12.87094233259796
 20
0.6365661768092329
 30
0.0
 10
-12.62116340181482
 20
0.5526744323481604
 30
0.0
 10
-12.37150760799671
 20
0.4655730671309452
 30
0.0
 10
-12.12195831729013
 20
0.3757628774923544
 30
0.0
 10
-11.87249465020901
 20
0.2837660973861318
 30
0.0
 10
-11.62309350113449
 20
0.1901199205140072
 30
0.0
 10
-11.3737345617728
 20
0.0953670011124638
 30
0.0
 10
-11.20753992068109
 20
0.0318403496898132
 30
0.0
 10
-11.12439727783141
 20
0.0000591666024862
 30
0.0
  0
SPLINE
  5
2A74
330
1F
100
AcDbEntity
  8
AM_0
 48
0.5
100
AcDbSpline
210
0.0
220
0.0
230
1.0
 70
     8
 71
     3
 72
    17
 73
    13
 74
     0
 42
0.0000000001
 43
0.0000000001
 40
0.0
 40
0.0
 40
0.0
 40
0.0
 40
1.010743614677189
 40
2.022833924044153
 40
3.037578959561199
 40
4.056212747067873
 40
5.079857613375832
 40
6.109500119648989
 40
7.14596120163808
 40
8.18989512056258
 40
9.241717674284874
 40
9.693948937866434
 40
9.693948937866434
 40
9.693948937866434
 40
9.693948937866434
 10
-1.809497833251965
 20
1.150000674577886
 30
0.0
 10
-1.893731150632431
 20
1.149316945522085
 30
0.0
 10
-2.062310016190158
 20
1.147948576423497
 30
0.0
 10
-2.315116645576208
 20
1.136907012456056
 30
0.0
 10
-2.567912867060071
 20
1.119360469440181
 30
0.0
 10
-2.820693366770326
 20
1.094765670625983
 30
0.0
 10
-3.07345513416446
 20
1.063456177939282
 30
0.0
 10
-3.326195082007344
 20
1.025577153393383
 30
0.0
 10
-3.578909818104108
 20
0.9813724367963214
 30
0.0
 10
-3.831609148800937
 20
0.9311396256847142
 30
0.0
 10
-4.035594637997271
 20
0.8858874561424215
 30
0.0
 10
-4.15538687714284
 20
0.8575983426317669
 30
0.0
 10
-4.191342080401257
 20
0.8489392343617938
 30
0.0
  0
SPLINE
  5
2A75
330
1F
100
AcDbEntity
  8
AM_0
 48
0.5
100
AcDbSpline
210
0.0
220
0.0
230
1.0
 70
     8
 71
     3
 72
    16
 73
    12
 74
     0
 42
0.0000000001
 43
0.0000000001
 40
0.0
 40
0.0
 40
0.0
 40
0.0
 40
1.010743614677189
 40
2.022833924044153
 40
3.037578959561199
 40
4.056212747067873
 40
5.079857613375832
 40
6.109500119648989
 40
7.14596120163808
 40
8.18989512056258
 40
8.545190612624931
 40
8.545190612624931
 40
8.545190612624931
 40
8.545190612624931
 10
-1.809497833251965
 20
1.150000674577886
 30
0.0
 10
-1.893726467808389
 20
1.149993764056233
 30
0.0
 10
-2.062312192906856
 20
1.147634064685006
 30
0.0
 10
-2.31511605830524
 20
1.13699156297215
 30
0.0
 10
-2.567913033000904
 20
1.119337713176442
 30
0.0
 10
-2.820693292843229
 20
1.094771747192205
 30
0.0
 10
-3.073455263807735
 20
1.063454772932064
 30
0.0
 10
-3.326194633890835
 20
1.025576641494042
 30
0.0
 10
-3.578911496743366
 20
0.9813759384409445
 30
0.0
 10
-3.775410570665337
 20
0.9423003233074117
 30
0.0
 10
-3.88772542370981
 20
0.9182678524919774
 30
0.0
 10
-3.916207843175401
 20
0.9120660989703203
 30
0.0
  0
SPLINE
  5
2A76
330
1F
100
AcDbEntity
  8
AM_0
 48
0.5
100
AcDbSpline
210
0.0
220
0.0
230
1.0
 70
     8
 71
     3
 72
    25
 73
    21
 74
     0
 42
0.0000000001
 43
0.0000000001
 40
6.846175049578289
 40
6.846175049578289
 40
6.846175049578289
 40
6.846175049578289
 40
7.604337694224321
 40
8.711974558287883
 40
9.814980593243754
 40
10.91239053451967
 40
12.0033633515982
 40
13.08720139956839
 40
14.16337181880432
 40
15.23152222380919
 40
16.29148850140128
 40
17.34331105512262
 40
18.38723020264746
 40
19.42369128463655
 40
20.45333379090873
 40
21.47697865721768
 40
22.49561244472435
 40
23.5103574802404
 40
24.52244778960836
 40
25.53320666051913
 40
25.53320666051913
 40
25.53320666051913
 40
25.53320666051913
 10
-2.104334241490574
 20
0.208158203456355
 30
0.0
 10
-2.161763302216496
 20
0.2283501581888856
 30
0.0
 10
-2.303214146792373
 20
0.2778394707386988
 30
0.0
 10
-2.528896986215579
 20
0.3555555067405127
 30
0.0
 10
-2.781427137517887
 20
0.4403264616947865
 30
0.0
 10
-3.033969988725516
 20
0.5223890079593195
 30
0.0
 10
-3.286527709652209
 20
0.6012385788506149
 30
0.0
 10
-3.53910311441425
 20
0.6763887120821083
 30
0.0
 10
-3.791698538540775
 20
0.7473759642886605
 30
0.0
 10
-4.044315151415561
 20
0.8137640674241771
 30
0.0
 10
-4.296956064627225
 20
0.8751398671209136
 30
0.0
 10
-4.549620936069815
 20
0.9311270046691516
 30
0.0
 10
-4.802311580582085
 20
0.9813761209167884
 30
0.0
 10
-5.055027106407124
 20
1.025576231917799
 30
0.0
 10
-5.307766526310373
 20
1.063456422615448
 30
0.0
 10
-5.560528433915748
 20
1.094765605535544
 30
0.0
 10
-5.81330889634946
 20
1.119360486918211
 30
0.0
 10
-6.066105127714264
 20
1.136907007253154
 30
0.0
 10
-6.318913024365569
 20
1.147948635281649
 30
0.0
 10
-6.487493163036999
 20
1.149316961689804
 30
0.0
 10
-6.571727752685459
 20
1.15000067457795
 30
0.0
  0
SPLINE
  5
2A77
330
1F
100
AcDbEntity
  8
AM_0
 48
0.5
100
AcDbSpline
210
0.0
220
0.0
230
1.0
 70
     8
 71
     3
 72
    10
 73
     6
 74
     0
 42
0.0000000001
 43
0.0000000001
 40
0.0
 40
0.0
 40
0.0
 40
0.0
 40
2.69986029516136
 40
4.147722969032201
 40
6.285750005020438
 40
6.285750005020438
 40
6.285750005020438
 40
6.285750005020438
 10
-2.104293823242227
 20
0.2081445446136764
 30
0.0
 10
-1.924366089490908
 20
0.1013015977555109
 30
0.0
 10
-1.64794793726884
 20
-0.0628383562846728
 30
0.0
 10
-0.9942561391823474
 20
0.0166246709555803
 30
0.0
 10
-1.117365318560256
 20
0.2842666612243161
 30
0.0
 10
-1.198707998525372
 20
0.4474026974445419
 30
0.0
  0
SPLINE
  5
2A78
330
1F
100
AcDbEntity
  8
AM_0
100
AcDbSpline
210
0.0
220
0.0
230
1.0
 70
     8
 71
     3
 72
    46
 73
    42
 74
     0
 42
0.0000000001
 43
0.0000000001
 40
0.0
 40
0.0
 40
0.0
 40
0.0
 40
0.5056245176053715
 40
0.759310862862336
 40
1.013969309739036
 40
1.269880374404297
 40
1.527291183660732
 40
1.786406454158005
 40
2.047386241038974
 40
2.310345544571907
 40
2.575337113970003
 40
2.842374715221223
 40
3.111417320030211
 40
3.382376832022752
 40
3.655120036292296
 40
3.929472521611371
 40
4.205224030350333
 40
4.482133246366229
 40
4.759933319229942
 40
5.038338087391601
 40
5.317048131389549
 40
5.595758175387723
 40
5.874162943549383
 40
6.151963016412869
 40
6.428872232428759
 40
6.704623741167955
 40
6.978976226486705
 40
7.251719430756336
 40
7.522680721168327
 40
7.791723325977311
 40
8.058760927228529
 40
8.32375249662655
 40
8.586708135057122
 40
8.84768792193809
 40
9.106803192435362
 40
9.364213819003406
 40
9.620125035580644
 40
9.87478726697307
 40
10.12847352585208
 40
10.38149610319407
 40
10.63418200686337
 40
10.63418200686337
 40
10.63418200686337
 40
10.63418200686337
 10
-1.101810455322246
 20
-1.149999325422122
 30
0.0
 10
-1.270397486080602
 20
-1.147379536526069
 30
0.0
 10
-1.523569473069642
 20
-1.143445324283749
 30
0.0
 10
-1.860223304552967
 20
-1.119223102261045
 30
0.0
 10
-2.113006425815771
 20
-1.094800659065473
 30
0.0
 10
-2.365767940139317
 20
-1.063446390542247
 30
0.0
 10
-2.618507181663232
 20
-1.025577225756717
 30
0.0
 10
-2.871222852016466
 20
-0.9813742115780799
 30
0.0
 10
-3.12391452793824
 20
-0.9311253025838029
 30
0.0
 10
-3.376581084861346
 20
-0.8751390345135451
 30
0.0
 10
-3.629223027805632
 20
-0.8137626549640216
 30
0.0
 10
-3.881839677241089
 20
-0.7473746322425753
 30
0.0
 10
-4.134435091589348
 20
-0.6763873584640806
 30
0.0
 10
-4.387010498514618
 20
-0.6012372302530523
 30
0.0
 10
-4.639568220683321
 20
-0.5223876610997796
 30
0.0
 10
-4.89211106467622
 20
-0.4403251027088327
 30
0.0
 10
-5.144641243791589
 20
-0.3555541948575061
 30
0.0
 10
-5.39716121578522
 20
-0.2685963232525192
 30
0.0
 10
-5.649673658088676
 20
-0.1799866626398155
 30
0.0
 10
-5.902180877419622
 20
-0.09027010014503
 30
0.0
 10
-6.154685974130297
 20
0.0000006745596806
 30
0.0
 10
-6.407191070785495
 20
0.0902714493740882
 30
0.0
 10
-6.659698290282833
 20
0.1799880115399426
 30
0.0
 10
-6.912210731978114
 20
0.2685976733547439
 30
0.0
 10
-7.164730706226893
 20
0.3555555405015892
 30
0.0
 10
-7.41726087698038
 20
0.4403264648832514
 30
0.0
 10
-7.669803751940168
 20
0.5223889620565489
 30
0.0
 10
-7.922361908612533
 20
0.6012389290700737
 30
0.0
 10
-8.174938296923981
 20
0.6763883745040921
 30
0.0
 10
-8.427534161863739
 20
0.7473760122810163
 30
0.0
 10
-8.68015080541757
 20
0.8137640547564323
 30
0.0
 10
-8.932791710537456
 20
0.8751398703094793
 30
0.0
 10
-9.185456583995248
 20
0.9311270044398789
 30
0.0
 10
-9.438147228446554
 20
0.9813761187064486
 30
0.0
 10
-9.690862752541228
 20
1.025576240891835
 30
0.0
 10
-9.943602179358089
 20
1.063456389227431
 30
0.0
 10
-10.19636530682512
 20
1.094765883453159
 30
0.0
 10
-10.44914712556058
 20
1.119360256099132
 30
0.0
 10
-10.70194458378416
 20
1.136907045937797
 30
0.0
 10
-10.95475121836743
 20
1.14794856807532
 30
0.0
 10
-11.12333008323359
 20
1.149316942740683
 30
0.0
 10
-11.20756340026847
 20
1.150000674578014
 30
0.0
  0
SPLINE
  5
2A79
330
1F
100
AcDbEntity
  8
AM_0
100
AcDbSpline
210
0.0
220
0.0
230
1.0
 70
     8
 71
     3
 72
    55
 73
    51
 74
     0
 42
0.0000000001
 43
0.0000000001
 40
0.0
 40
0.0
 40
0.0
 40
0.0
 40
1.010743684496582
 40
2.022833576467832
 40
3.037578957496688
 40
4.056212745003489
 40
5.079857003664532
 40
6.109500240690281
 40
7.145961322679372
 40
8.189895241603872
 40
9.241717795325891
 40
10.30168407291828
 40
11.36983447792315
 40
12.44600489715814
 40
13.52984294512926
 40
14.62081576220742
 40
15.7182257034828
 40
16.82123173843959
 40
17.92886860250316
 40
19.0400688939571
 40
20.15368796660465
 40
21.26852814259644
 40
22.38336992938901
 40
23.49698739941135
 40
24.6081876908653
 40
25.71582455492886
 40
26.81883757994213
 40
27.91624752121713
 40
29.00722033829659
 40
30.09105838626677
 40
31.16722880550176
 40
32.23537921050758
 40
33.29534548809967
 40
34.347168041821
 40
35.39108718934584
 40
36.42754827133493
 40
37.45720575381954
 40
38.48085062012849
 40
39.49948440763516
 40
40.51422944315121
 40
41.52631975251916
 40
42.53706336719636
 40
43.54780698187354
 40
44.55989729124051
 40
45.57464232675757
 40
46.59327611426424
 40
47.6169209805722
 40
48.64656348684535
 40
49.68302456883444
 40
50.58557219878025
 40
50.58557219878025
 40
50.58557219878025
 40
50.58557219878025
 10
-1.809497833251997
 20
-1.149999325422113
 30
0.0
 10
-1.893731135303009
 20
-1.149315103282565
 30
0.0
 10
-2.062309929570135
 20
-1.147945747689385
 30
0.0
 10
-2.315116771934336
 20
-1.136907204313752
 30
0.0
 10
-2.567912822927633
 20
-1.119358803935737
 30
0.0
 10
-2.820693228327251
 20
-1.094764053390032
 30
0.0
 10
-3.073455465782665
 20
-1.063456258701034
 30
0.0
 10
-3.326194548860065
 20
-1.025574640642487
 30
0.0
 10
-3.578911322960478
 20
-0.9813743832957896
 30
0.0
 10
-3.83160354699685
 20
-0.9311261478887312
 30
0.0
 10
-4.084269499674602
 20
-0.8751384555384522
 30
0.0
 10
-4.336910440393825
 20
-0.8137627352023162
 30
0.0
 10
-4.589527045777344
 20
-0.7473746104964216
 30
0.0
 10
-4.842122472067289
 20
-0.6763873643607968
 30
0.0
 10
-5.09469787573962
 20
-0.6012372286324119
 30
0.0
 10
-5.347255598859852
 20
-0.5223876616307964
 30
0.0
 10
-5.599798442327305
 20
-0.4403251022162517
 30
0.0
 10
-5.852328622592813
 20
-0.3555541963025278
 30
0.0
 10
-6.104848590490547
 20
-0.2685963179376904
 30
0.0
 10
-6.357361048091462
 20
-0.1799866825319632
 30
0.0
 10
-6.609868210170198
 20
-0.0902700257084512
 30
0.0
 10
-6.862373642518996
 20
0.0000004399361808
 30
0.0
 10
-7.11487794132968
 20
0.0902725305054514
 30
0.0
 10
-7.367385949757382
 20
0.1799877902033108
 30
0.0
 10
-7.619898095628287
 20
0.2685976938253598
 30
0.0
 10
-7.872418513766326
 20
0.3555559034609547
 30
0.0
 10
-8.12494974164816
 20
0.4403260859248818
 30
0.0
 10
-8.377492983694944
 20
0.5223890615107828
 30
0.0
 10
-8.630050743276102
 20
0.6012385645735288
 30
0.0
 10
-8.882626137758023
 20
0.6763887161057051
 30
0.0
 10
-9.135221564694768
 20
0.7473759623451699
 30
0.0
 10
-9.38783817651263
 20
0.813764071176663
 30
0.0
 10
-9.640479091156551
 20
0.8751398541830559
 30
0.0
 10
-9.893143957968854
 20
0.9311270521627291
 30
0.0
 10
-10.14583461939568
 20
0.9813759456963047
 30
0.0
 10
-10.39855129975129
 20
1.025577091854572
 30
0.0
 10
-10.65129218747045
 20
1.063454383306483
 30
0.0
 10
-10.90405525998087
 20
1.094771868419774
 30
0.0
 10
-11.15683574031591
 20
1.119337465063217
 30
0.0
 10
-11.40963196695958
 20
1.136992430484139
 30
0.0
 10
-11.66243859497371
 20
1.147630852220673
 30
0.0
 10
-11.91525077826017
 20
1.151184796907568
 30
0.0
 10
-12.16806296117465
 20
1.147630852215106
 30
0.0
 10
-12.42086959030687
 20
1.136992430506504
 30
0.0
 10
-12.67366581283403
 20
1.119337464978987
 30
0.0
 10
-12.92644630860292
 20
1.094771868736366
 30
0.0
 10
-13.17920809082349
 20
1.063454534793897
 30
0.0
 10
-13.43194798283975
 20
1.025577479129437
 30
0.0
 10
-13.67317418417832
 20
0.9833823978927609
 30
0.0
 10
-13.82968449076885
 20
0.9525247360858568
 30
0.0
 10
-13.90229615094643
 20
0.9374862921599568
 30
0.0
  0
SPLINE
  5
2A7A
330
1F
100
AcDbEntity
  8
AM_0
100
AcDbSpline
210
0.0
220
0.0
230
1.0
 70
     8
 71
     3
 72
    11
 73
     7
 74
     0
 42
0.0000000001
 43
0.0000000001
 40
11.27226913003534
 40
11.27226913003534
 40
11.27226913003534
 40
11.2722691300354
 40
12.28301561507924
 40
13.29510212255852
 40
14.30984805882082
 40
15.18258238371378
 40
15.18258238371378
 40
15.18258238371378
 40
15.18258238371378
 10
-6.571727752685484
 20
-1.149999325422049
 30
0.0
 10
-6.655640757146062
 20
-1.14437089123423
 30
0.0
 10
-6.823308490184184
 20
-1.130744697024978
 30
0.0
 10
-7.073944284825723
 20
-1.103257292873773
 30
0.0
 10
-7.311802073337786
 20
-1.070426602491481
 30
0.0
 10
-7.465634528975313
 20
-1.045188673690588
 30
0.0
 10
-7.536524904908253
 20
-1.032721833959659
 30
0.0
  0
SPLINE
  5
2A7B
330
1F
100
AcDbEntity
  8
AM_0
100
AcDbSpline
210
0.0
220
0.0
230
1.0
 70
     8
 71
     3
 72
    22
 73
    18
 74
     0
 42
0.0000000001
 43
0.0000000001
 40
17.17441611292
 40
17.17441611292
 40
17.17441611292
 40
17.17441611292
 40
17.38177636558528
 40
18.41823744757437
 40
19.46215659509824
 40
20.51397914882054
 40
21.57394542641293
 40
22.64209583141747
 40
23.71826625065247
 40
24.80210429862395
 40
25.8930771157021
 40
26.99048705697709
 40
28.09349309193389
 40
29.20112995599786
 40
30.31233024745139
 40
31.42594771747373
 40
32.5407895042663
 40
32.54078950426994
 40
32.54078950426994
 40
32.54078950426994
 10
-7.536635466054057
 20
-1.032707648718453
 30
0.0
 10
-7.553563772259706
 20
-1.030045511512488
 30
0.0
 10
-7.655039722876088
 20
-1.013830142812187
 30
0.0
 10
-7.840937946258248
 20
-0.9813162180908589
 30
0.0
 10
-8.093628571551773
 20
-0.931067180191814
 30
0.0
 10
-8.346293448201008
 20
-0.8750800214114445
 30
0.0
 10
-8.598934360005818
 20
-0.8137042274770452
 30
0.0
 10
-8.85155097324513
 20
-0.7473161227506865
 30
0.0
 10
-9.104146397336519
 20
-0.6763288710856634
 30
0.0
 10
-9.356721801867804
 20
-0.6011787372905131
 30
0.0
 10
-9.609279523762088
 20
-0.5223291681225972
 30
0.0
 10
-9.861822371301107
 20
-0.4402666154795333
 30
0.0
 10
-10.11435253640441
 20
-0.3554956844791556
 30
0.0
 10
-10.3668725611964
 20
-0.2685379002135451
 30
0.0
 10
-10.6193846840473
 20
-0.1799279546253838
 30
0.0
 10
-10.87189264570461
 20
-0.0902126189733347
 30
0.0
 10
-11.04019824395018
 20
-0.0300424464045741
 30
0.0
 10
-11.12439727783252
 20
0.0000591666028994
 30
0.0
  0
SPLINE
  5
2A7C
330
1F
100
AcDbEntity
  8
AM_0
100
AcDbSpline
210
0.0
220
0.0
230
1.0
 70
     8
 71
     3
 72
    17
 73
    13
 74
     0
 42
0.0000000001
 43
0.0000000001
 40
1.580019955310467
 40
1.580019955310467
 40
1.580019955310467
 40
1.580019955310467
 40
2.030549285115227
 40
3.082371838836284
 40
4.126290986361125
 40
5.162752068350215
 40
6.192395305374981
 40
7.216039564037012
 40
8.234688489606833
 40
9.249433870634691
 40
10.26152376260694
 40
11.27226744710342
 40
11.27226744710342
 40
11.27226744710342
 40
11.27226744710352
 10
-4.190427019806405
 20
-0.8487331890009956
 30
0.0
 10
-4.226194968271157
 20
-0.8574744427204732
 30
0.0
 10
-4.345671932821927
 20
-0.8861250693473909
 30
0.0
 10
-4.549648740357368
 20
-0.9310646023489196
 30
0.0
 10
-4.802304191694005
 20
-0.9813909176737812
 30
0.0
 10
-5.055029198839846
 20
-1.025570740621324
 30
0.0
 10
-5.30776578575729
 20
-1.063455705416537
 30
0.0
 10
-5.560529907872919
 20
-1.094770234995924
 30
0.0
 10
-5.813311492736432
 20
-1.119335631146974
 30
0.0
 10
-6.066108817804918
 20
-1.136992701882946
 30
0.0
 10
-6.318915654806946
 20
-1.147627786588965
 30
0.0
 10
-6.487494451745748
 20
-1.14999933200241
 30
0.0
 10
-6.57172775268547
 20
-1.149999325422049
 30
0.0
  0
SPLINE
  5
2A7D
330
1F
100
AcDbEntity
  8
AM_0
 48
0.5
100
AcDbSpline
210
0.0
220
0.0
230
1.0
 70
     8
 71
     3
 72
    22
 73
    18
 74
     0
 42
0.0000000001
 43
0.0000000001
 40
0.0
 40
0.0
 40
0.0
 40
0.0
 40
1.010743684496582
 40
2.022833993863546
 40
3.037578683882831
 40
4.056212471389632
 40
5.079857945358201
 40
6.109499720892564
 40
7.145961650132166
 40
8.189873411961459
 40
9.241710626092514
 40
10.30166235592959
 40
11.36982472628033
 40
12.44598212828784
 40
13.52983440361964
 40
14.62080578343036
 40
14.90544694398022
 40
14.90544694398022
 40
14.90544694398022
 40
14.90544694398022
 10
-11.91515732031455
 20
-1.150058492024643
 30
0.0
 10
-11.9993906384611
 20
-1.149374474297846
 30
0.0
 10
-12.16796949972567
 20
-1.148005527519961
 30
0.0
 10
-12.42077607719577
 20
-1.136963909231013
 30
0.0
 10
-12.67357240174113
 20
-1.11941846318868
 30
0.0
 10
-12.92635294155294
 20
-1.094823689970171
 30
0.0
 10
-13.17911449056812
 20
-1.063512974400139
 30
0.0
 10
-13.43185441190253
 20
-1.025634540615121
 30
0.0
 10
-13.6845690020193
 20
-0.9814332302490182
 30
0.0
 10
-13.93725999867212
 20
-0.9311832502095208
 30
0.0
 10
-14.18992512600669
 20
-0.8751983529713388
 30
0.0
 10
-14.44256570442612
 20
-0.8138192689253955
 30
0.0
 10
-14.69518336253389
 20
-0.7474365812463337
 30
0.0
 10
-14.94777791058449
 20
-0.6764449322022138
 30
0.0
 10
-15.20035408063921
 20
-0.6012965707391543
 30
0.0
 10
-15.39018272357632
 20
-0.5420339569735447
 30
0.0
 10
-15.4959618677516
 20
-0.5081613518905966
 30
0.0
 10
-15.48069164026522
 20
-0.5130829035814953
 30
0.0
  0
SPLINE
  5
2A7E
330
1F
100
AcDbEntity
  8
AM_0
 48
0.5
100
AcDbSpline
210
0.0
220
0.0
230
1.0
 70
     8
 71
     3
 72
    26
 73
    22
 74
     0
 42
0.0000000001
 43
0.0000000001
 40
0.0
 40
0.0
 40
0.0
 40
0.0
 40
0.2526859211241313
 40
0.5057083941171959
 40
0.7593947393741639
 40
1.01405318625086
 40
1.26996425091637
 40
1.527375060172565
 40
1.786490330669834
 40
2.047470117551047
 40
2.310425755981314
 40
2.575417325379407
 40
2.842456731169063
 40
3.111495753801943
 40
3.382458822635121
 40
3.655202026904655
 40
3.929554512223505
 40
4.205306020962704
 40
4.482215236978595
 40
4.76001530984208
 40
5.029821427366006
 40
5.029821427366006
 40
5.029821427366006
 40
5.029821427366006
 10
-11.2074699423848
 20
-1.150058492024652
 30
0.0
 10
-11.29170324444594
 20
-1.149374269914922
 30
0.0
 10
-11.46028203873343
 20
-1.148004914381409
 30
0.0
 10
-11.71308888094524
 20
-1.136966370557413
 30
0.0
 10
-11.96588493252001
 20
-1.11941797189023
 30
0.0
 10
-12.21866533573394
 20
-1.094823214913614
 30
0.0
 10
-12.47142758140842
 20
-1.063515444407435
 30
0.0
 10
-12.72416663353902
 20
-1.025633735294719
 30
0.0
 10
-12.97688232398967
 20
-0.9814340311004306
 30
0.0
 10
-13.22957292924494
 20
-0.9311847785670931
 30
0.0
 10
-13.48223785191977
 20
-0.8751977659109623
 30
0.0
 10
-13.7348791714559
 20
-0.8138214609556339
 30
0.0
 10
-13.98749584099026
 20
-0.7474348426005317
 30
0.0
 10
-14.24009072274079
 20
-0.67644514282478
 30
0.0
 10
-14.49266719407521
 20
-0.6012971749076371
 30
0.0
 10
-14.74522580071633
 20
-0.5224468057883774
 30
0.0
 10
-14.99776842535587
 20
-0.440383914761174
 30
0.0
 10
-15.25029970564199
 20
-0.3556148121461747
 30
0.0
 10
-15.50281546821495
 20
-0.26865001236184
 30
0.0
 10
-15.75273734528536
 20
-0.180980649367226
 30
0.0
 10
-15.91831999188351
 20
-0.1220837563430196
 30
0.0
 10
-15.99999618530274
 20
-0.0930644671121031
 30
0.0
  0
SPLINE
  5
2A7F
330
1F
100
AcDbEntity
  8
AM_0
100
AcDbSpline
210
0.0
220
0.0
230
1.0
 70
     8
 71
     3
 72
    13
 73
     9
 74
     0
 42
0.0000000001
 43
0.0000000001
 40
16.03460056234195
 40
16.03460056234195
 40
16.03460056234195
 40
16.03460056234195
 40
16.35212717791071
 40
17.38177067057215
 40
18.41822498539278
 40
19.46214186516937
 40
20.5139635832251
 40
21.34083983469381
 40
21.34083983469381
 40
21.34083983469381
 40
21.34083983469381
 10
-15.50002796442813
 20
-1.150058492024581
 30
0.0
 10
-15.42845516979228
 20
-1.146280996305088
 30
0.0
 10
-15.31837095563565
 20
-1.129375582767161
 30
0.0
 10
-15.12445669303887
 20
-1.096250709465688
 30
0.0
 10
-14.87333704684663
 20
-1.046995096763317
 30
0.0
 10
-14.62245069252507
 20
-0.9916890634410467
 30
0.0
 10
-14.39029828087442
 20
-0.9351613335224953
 30
0.0
 10
-14.24218913042311
 20
-0.8962379686038275
 30
0.0
 10
-14.17721453380054
 20
-0.878644252990823
 30
0.0
  0
ELLIPSE
  5
2A80
330
1F
100
AcDbEntity
  8
AM_0
 48
0.5
100
AcDbEllipse
 10
0.5035095214845473
 20
1.380646426530974
 30
0.0
 11
-3.023167133331241
 21
0.0000000000000009
 31
0.0
210
0.0
220
0.0
230
1.0
 40
0.7666666666666661
 41
0.5303675532340786
 42
0.9384884834289755
  0
ELLIPSE
  5
2A81
330
1F
100
AcDbEntity
  8
AM_0
 48
0.5
100
AcDbEllipse
 10
1.09740829467777
 20
-0.2556284834421008
 30
0.0
 11
-2.400000095367424
 21
0.0000000000000231
 31
0.0
210
0.0
220
0.0
230
1.0
 40
0.7666666666666653
 41
0.127182498574288
 42
0.5075883269309856
  0
ELLIPSE
  5
2A82
330
1F
100
AcDbEntity
  8
AM_0
 48
0.5
100
AcDbEllipse
 10
-0.6550613325050748
 20
-0.2997059298983531
 30
0.0
 11
-0.0553025478432923
 21
0.186204290558941
 31
0.0
210
0.0
220
0.0
230
1.0
 40
0.634982178427317
 41
1.707396641621087
 42
4.84273853133306
  0
ELLIPSE
  5
2A83
330
1F
100
AcDbEntity
  8
AM_0
 48
0.5
100
AcDbEllipse
 10
-0.6550613325050748
 20
-0.2997059298983531
 30
0.0
 11
-0.2224616733745919
 21
0.0851314174416578
 31
0.0
210
0.0
220
0.0
230
1.0
 40
0.4222751350223385
 41
4.363013270684183
 42
7.506453612013695
  0
ELLIPSE
  5
2A84
330
1F
100
AcDbEntity
  8
AM_0
 48
0.5
100
AcDbEllipse
 10
-2.596573049210373
 20
1.930117532270039
 30
0.0
 11
-3.223062607616806
 21
1.200962390273081
 31
0.0
210
0.0
220
0.0
230
1.0
 40
0.6114067762074313
 41
2.464328600212086
 42
2.698290682646236
  0
ELLIPSE
  5
2A85
330
1F
100
AcDbEntity
  8
AM_0
 48
0.5
100
AcDbEllipse
 10
-0.7644579115636202
 20
-1.300204153020877
 30
0.0
 11
1.973005539371121
 21
0.471523758186054
 31
0.0
210
0.0
220
0.0
230
0.9999999999999998
 40
0.4539117654098962
 41
1.462824255768406
 42
1.727201634314335
  0
ELLIPSE
  5
2A86
330
1F
100
AcDbEntity
  8
AM_0
 48
0.5
100
AcDbEllipse
 10
-15.62511936020412
 20
-0.7784045537311256
 30
0.0
 11
-0.3749999999999984
 21
0.0000000000000148
 31
0.0
210
0.0
220
0.0
230
1.0
 40
0.7666666666666728
 41
4.31702882448311
 42
6.257553905069396
  0
ELLIPSE
  5
2A87
330
1F
100
AcDbEntity
  8
AM_0
 48
0.5
100
AcDbEllipse
 10
-15.50002780746986
 20
-0.7667251586912675
 30
0.0
 11
-0.5000000000000009
 21
0.0000000000000226
 31
0.0
210
0.0
220
0.0
230
1.0
 40
0.7666666666666644
 41
0.0112467747892016
 42
1.570796012878415
  0
VIEWPORT
  5
110
330
101
100
AcDbEntity
 67
     1
  8
0
100
AcDbViewport
 10
420.5
 20
297.0
 30
0.0
 40
948.9782706766916
 41
628.452
 68
     1
 69
     1
1001
ACAD
1000
MVIEW
1002
{
1070
    16
1010
0.0
1020
0.0
1030
0.0
1010
0.0
1020
0.0
1030
1.0
1040
0.0
1040
628.452
1040
420.5
1040
297.0
1040
50.0
1040
0.0
1040
0.0
1070
     0
1070
   100
1070
     1
1070
     1
1070
     0
1070
     0
1070
     0
1070
     0
1040
0.0
1040
0.0
1040
0.0
1040
10.0
1040
10.0
1040
10.0
1040
10.0
1070
     0
1002
{
1002
}
1002
}
  0
ENDSEC
  0
SECTION
  2
OBJECTS
  0
DICTIONARY
  5
C
330
0
100
AcDbDictionary
  3
ACAD_GROUP
350
D
  3
ACAD_LAYOUT
350
1A
  3
ACAD_MLINESTYLE
350
17
  3
ACAD_PLOTSETTINGS
350
19
  3
ACAD_PLOTSTYLENAME
350
E
  3
ACDBVARIABLEDICTIONARY
350
34
  3
ACMDICTIONARY
350
43
  3
AMG
350
2B
  3
AMGSNAPSETTINGS
350
6E
  3
DWGPROPS
350
2B3B
  3
ACDBHEADERROUNDTRIPXREC
350
2B48
  0
DICTIONARY
  5
74
330
1F
100
AcDbDictionary
280
     1
  3
ACAD_INDEX
360
2B3D
  3
ACAD_LAYOUTSELFREF
360
2B6B
  0
DICTIONARY
  5
2B70
330
101
100
AcDbDictionary
280
     1
  3
ACAD_LAYOUTSELFREF
360
2B71
  0
DICTIONARY
  5
D
102
{ACAD_REACTORS
330
C
102
}
330
C
100
AcDbDictionary
  0
DICTIONARY
  5
1A
102
{ACAD_REACTORS
330
C
102
}
330
C
100
AcDbDictionary
  0
DICTIONARY
  5
17
102
{ACAD_REACTORS
330
C
102
}
330
C
100
AcDbDictionary
  3
STANDARD
350
18
  0
DICTIONARY
  5
19
102
{ACAD_REACTORS
330
C
102
}
330
C
100
AcDbDictionary
  0
ACDBDICTIONARYWDFLT
  5
E
102
{ACAD_REACTORS
330
C
102
}
330
C
100
AcDbDictionary
281
     1
  3
Normal
350
F
100
AcDbDictionaryWithDefault
340
F
  0
DICTIONARY
  5
34
102
{ACAD_REACTORS
330
C
102
}
330
C
100
AcDbDictionary
  3
INDEXCTL
350
35
  3
SORTENTS
350
B5E
  0
DICTIONARY
  5
43
102
{ACAD_REACTORS
330
C
102
}
330
C
100
AcDbDictionary
  3
ACMSTDDICTIONARY
350
260
  0
DICTIONARY
  5
2B
102
{ACAD_REACTORS
330
C
102
}
330
C
100
AcDbDictionary
  3
ACMGSETTINGS
350
2C
  0
DICTIONARY
  5
6E
102
{ACAD_REACTORS
330
C
102
}
330
C
100
AcDbDictionary
  0
XRECORD
  5
2B3B
102
{ACAD_REACTORS
330
C
102
}
330
C
100
AcDbXrecord
  1
DWGPROPS COOKIE
  2

  3

  4

  6

  7

  8

  9

300
AmdtFileType=82
301
=
302
=
303
=
304
=
305
=
306
=
307
=
308
=
309
=
 40
0.0467997569444445
 41
2452800.443498622
 42
2452946.59449544
  1

 90
        1
  0
DICTIONARY
  5
2B48
102
{ACAD_REACTORS
330
C
102
}
330
C
100
AcDbDictionary
  3
TSTACKALIGN
350
2B49
  3
TSTACKSIZE
350
2B4A
  3
HYPERLINKBASE
350
2B4B
  3
STYLESHEET
350
2B4C
  3
LAYOUTDICT
350
2B4D
  3
PLOTSETDICT
350
2B4E
  3
PLOTSTYLNAMDICT
350
2B4F
  3
LWETCUNION
350
2B50
  3
INSUNITS
350
2B51
  3
CEPSNTYPE
350
2B52
  3
FINGERPRINTGUID
350
2B53
  3
VERSIONGUID
350
2B54
  3
PSVPSCALE
350
2B55
  3
DIMSTYLEDATA
350
2B56
  3
PUCSORTHOREF
350
2B57
  3
PUCSORTHOVIEW
350
2B58
  3
PUCSBASE
350
2B59
  3
PUCSORGTOP
350
2B5A
  3
PUCSORGBOTTOM
350
2B5B
  3
PUCSORGLEFT
350
2B5C
  3
PUCSORGRIGHT
350
2B5D
  3
PUCSORGFRONT
350
2B5E
  3
PUCSORGBACK
350
2B5F
  3
UCSORTHOREF
350
2B60
  3
UCSORTHOVIEW
350
2B61
  3
UCSBASE
350
2B62
  3
UCSORGTOP
350
2B63
  3
UCSORGBOTTOM
350
2B64
  3
UCSORGLEFT
350
2B65
  3
UCSORGRIGHT
350
2B66
  3
UCSORGFRONT
350
2B67
  3
UCSORGBACK
350
2B68
  0
DICTIONARY
  5
2B3D
102
{ACAD_REACTORS
330
74
102
}
330
74
100
AcDbDictionary
  3
*A1
350
2B3E
  0
XRECORD
  5
2B6B
102
{ACAD_REACTORS
330
74
102
}
330
74
100
AcDbXrecord
340
1F
  0
XRECORD
  5
2B71
102
{ACAD_REACTORS
330
2B70
102
}
330
2B70
100
AcDbXrecord
340
101
  0
MLINESTYLE
  5
18
102
{ACAD_REACTORS
330
17
102
}
330
17
100
AcDbMlineStyle
  2
STANDARD
 70
     0
  3

 62
   256
 51
90.0
 52
90.0
 71
     2
 49
0.5
 62
   256
  6
BYLAYER
 49
-0.5
 62
   256
  6
BYLAYER
  0
ACDBPLACEHOLDER
  5
F
102
{ACAD_REACTORS
330
E
102
}
330
E
100
AcDbPlaceHolder
280
     0
  0
DICTIONARYVAR
  5
35
102
{ACAD_REACTORS
330
34
102
}
330
34
100
DictionaryVariables
280
     0
  1
1
  0
DICTIONARYVAR
  5
B5E
102
{ACAD_REACTORS
330
34
102
}
330
34
100
DictionaryVariables
280
     0
  1
96
  0
DICTIONARY
  5
260
102
{ACAD_REACTORS
330
43
102
}
330
43
100
AcDbDictionary
  0
DICTIONARY
  5
2C
102
{ACAD_REACTORS
330
2B
102
}
330
2B
100
AcDbDictionary
  3
DWGSETTINGS
350
2D
  0
XRECORD
  5
2B49
102
{ACAD_REACTORS
330
2B48
102
}
330
2B48
100
AcDbXrecord
 90
        1
  0
XRECORD
  5
2B4A
102
{ACAD_REACTORS
330
2B48
102
}
330
2B48
100
AcDbXrecord
 90
       70
  0
XRECORD
  5
2B4B
102
{ACAD_REACTORS
330
2B48
102
}
330
2B48
100
AcDbXrecord
  1

  0
XRECORD
  5
2B4C
102
{ACAD_REACTORS
330
2B48
102
}
330
2B48
100
AcDbXrecord
  1
ASAMI.ctb
  0
XRECORD
  5
2B4D
102
{ACAD_REACTORS
330
2B48
102
}
330
2B48
100
AcDbXrecord
340
1A
  0
XRECORD
  5
2B4E
102
{ACAD_REACTORS
330
2B48
102
}
330
2B48
100
AcDbXrecord
340
19
  0
XRECORD
  5
2B4F
102
{ACAD_REACTORS
330
2B48
102
}
330
2B48
100
AcDbXrecord
340
E
  0
XRECORD
  5
2B50
102
{ACAD_REACTORS
330
2B48
102
}
330
2B48
100
AcDbXrecord
 90
    10781
  0
XRECORD
  5
2B51
102
{ACAD_REACTORS
330
2B48
102
}
330
2B48
100
AcDbXrecord
 90
        4
  0
XRECORD
  5
2B52
102
{ACAD_REACTORS
330
2B48
102
}
330
2B48
100
AcDbXrecord
 90
        0
  0
XRECORD
  5
2B53
102
{ACAD_REACTORS
330
2B48
102
}
330
2B48
100
AcDbXrecord
  1
{AFB28963-8C59-40AE-9337-C84526B81ACE}
  0
XRECORD
  5
2B54
102
{ACAD_REACTORS
330
2B48
102
}
330
2B48
100
AcDbXrecord
  1
{F2B6F5B8-A8AE-4EDC-B375-21179950A9D6}
  0
XRECORD
  5
2B55
102
{ACAD_REACTORS
330
2B48
102
}
330
2B48
100
AcDbXrecord
 40
0.0
  0
XRECORD
  5
2B56
102
{ACAD_REACTORS
330
2B48
102
}
330
2B48
100
AcDbXrecord
1000
DSTYLE
1002
{
1070
    79
 70
     2
1070
   341
340
59
1070
   342
340
59
1070
   371
 70
    -1
1070
   372
 70
    -1
1002
}
  0
XRECORD
  5
2B57
102
{ACAD_REACTORS
330
2B48
102
}
330
2B48
100
AcDbXrecord
340
0
  0
XRECORD
  5
2B58
102
{ACAD_REACTORS
330
2B48
102
}
330
2B48
100
AcDbXrecord
 70
     0
  0
XRECORD
  5
2B59
102
{ACAD_REACTORS
330
2B48
102
}
330
2B48
100
AcDbXrecord
340
0
  0
XRECORD
  5
2B5A
102
{ACAD_REACTORS
330
2B48
102
}
330
2B48
100
AcDbXrecord
 10
0.0
 20
0.0
 30
0.0
  0
XRECORD
  5
2B5B
102
{ACAD_REACTORS
330
2B48
102
}
330
2B48
100
AcDbXrecord
 10
0.0
 20
0.0
 30
0.0
  0
XRECORD
  5
2B5C
102
{ACAD_REACTORS
330
2B48
102
}
330
2B48
100
AcDbXrecord
 10
0.0
 20
0.0
 30
0.0
  0
XRECORD
  5
2B5D
102
{ACAD_REACTORS
330
2B48
102
}
330
2B48
100
AcDbXrecord
 10
0.0
 20
0.0
 30
0.0
  0
XRECORD
  5
2B5E
102
{ACAD_REACTORS
330
2B48
102
}
330
2B48
100
AcDbXrecord
 10
0.0
 20
0.0
 30
0.0
  0
XRECORD
  5
2B5F
102
{ACAD_REACTORS
330
2B48
102
}
330
2B48
100
AcDbXrecord
 10
0.0
 20
0.0
 30
0.0
  0
XRECORD
  5
2B60
102
{ACAD_REACTORS
330
2B48
102
}
330
2B48
100
AcDbXrecord
340
0
  0
XRECORD
  5
2B61
102
{ACAD_REACTORS
330
2B48
102
}
330
2B48
100
AcDbXrecord
 70
     0
  0
XRECORD
  5
2B62
102
{ACAD_REACTORS
330
2B48
102
}
330
2B48
100
AcDbXrecord
340
0
  0
XRECORD
  5
2B63
102
{ACAD_REACTORS
330
2B48
102
}
330
2B48
100
AcDbXrecord
 10
0.0
 20
0.0
 30
0.0
  0
XRECORD
  5
2B64
102
{ACAD_REACTORS
330
2B48
102
}
330
2B48
100
AcDbXrecord
 10
0.0
 20
0.0
 30
0.0
  0
XRECORD
  5
2B65
102
{ACAD_REACTORS
330
2B48
102
}
330
2B48
100
AcDbXrecord
 10
0.0
 20
0.0
 30
0.0
  0
XRECORD
  5
2B66
102
{ACAD_REACTORS
330
2B48
102
}
330
2B48
100
AcDbXrecord
 10
0.0
 20
0.0
 30
0.0
  0
XRECORD
  5
2B67
102
{ACAD_REACTORS
330
2B48
102
}
330
2B48
100
AcDbXrecord
 10
0.0
 20
0.0
 30
0.0
  0
XRECORD
  5
2B68
102
{ACAD_REACTORS
330
2B48
102
}
330
2B48
100
AcDbXrecord
 10
0.0
 20
0.0
 30
0.0
  0
LAYER_INDEX
  5
2B3E
102
{ACAD_REACTORS
330
2B3D
102
}
330
2B3D
100
AcDbIndex
 40
2453151.575582662
100
AcDbLayerIndex
  8
0
360
2B3F
 90
        0
  8
AM_0
360
2B40
 90
       45
  8
AM_7
360
2B41
 90
        1
  8
AM_11
360
2B42
 90
       28
  8
AM_5
360
2B43
 90
        5
  8
Defpoints
360
2B44
 90
        0
  8
AM_6
360
2B45
 90
        1
  8
AM_CL
360
2B46
 90
        0
  0
XRECORD
  5
2D
102
{ACAD_REACTORS
330
2C
102
}
330
2C
100
AcDbXrecord
  1
VERSION
140
15.0
  1
PRODUCT
  2
AutoCAD Mechanical 2000
  0
IDBUFFER
  5
2B3F
330
0
100
AcDbIdBuffer
  0
IDBUFFER
  5
2B40
330
0
100
AcDbIdBuffer
330
2A66
330
2A67
330
2A68
330
2A69
330
2A6A
330
2A6B
330
2A6C
330
2A6F
330
2A73
330
2A74
330
2A75
330
2A76
330
2A77
330
2A78
330
2A79
330
2A7A
330
2A7B
330
2A7C
330
2A7D
330
2A7E
330
2A7F
330
2A80
330
2A81
330
2A82
330
2A83
330
2A84
330
2A85
330
2A86
330
2A87
330
C1D
330
C20
330
C2E
330
C30
330
1B5C
330
1B60
330
1C15
330
1C1A
330
1C1E
330
1C85
330
1C86
330
1CF2
330
1CF3
330
1CF4
330
25CA
330
25CB
  0
IDBUFFER
  5
2B41
330
0
100
AcDbIdBuffer
330
C9F
  0
IDBUFFER
  5
2B42
330
0
100
AcDbIdBuffer
330
1C25
330
1C26
330
1C27
330
1C28
330
1C29
330
1C2C
330
1C2D
330
2A6D
330
2A6E
330
2A70
330
2A71
330
2A72
330
144A
330
144B
330
144E
330
144F
330
1450
330
1451
330
1452
330
1453
330
1454
330
18B8
330
18B9
330
18BA
330
18BB
330
1C22
330
1C23
330
1C24
  0
IDBUFFER
  5
2B43
330
0
100
AcDbIdBuffer
330
CC6
330
DF5
330
1C71
330
1DEF
330
2365
  0
IDBUFFER
  5
2B44
330
0
100
AcDbIdBuffer
  0
IDBUFFER
  5
2B45
330
0
100
AcDbIdBuffer
330
19BD
  0
IDBUFFER
  5
2B46
330
0
100
AcDbIdBuffer
  0
ENDSEC
  0
EOF
