  0
SECTION
  2
HEADER
  9
$ACADVER
  1
AC1014
  9
$ACADMAINTVER
 70
     9
  9
$DWGCODEPAGE
  3
ANSI_932
  9
$INSBASE
 10
0.0
 20
0.0
 30
0.0
  9
$EXTMIN
 10
-92.40000134152342
 20
-24.75000718101109
 30
-0.00000001
  9
$EXTMAX
 10
14.38476508050694
 20
13.98710390828407
 30
0.00000001
  9
$LIMMIN
 10
-96.76670544857802
 20
-37.46872677076842
  9
$LIMMAX
 10
19.44672719135235
 20
25.46646081872504
  9
$ORTHOMODE
 70
     0
  9
$REGENMODE
 70
     1
  9
$FILLMODE
 70
     1
  9
$QTEXTMODE
 70
     0
  9
$MIRRTEXT
 70
     0
  9
$DRAGMODE
 70
     2
  9
$LTSCALE
 40
1.0
  9
$OSMODE
 70
    55
  9
$ATTMODE
 70
     1
  9
$TEXTSIZE
 40
2.5
  9
$TRACEWID
 40
1.0
  9
$TEXTSTYLE
  7
STANDARD
  9
$CLAYER
  8
AM_0
  9
$CELTYPE
  6
BYLAYER
  9
$CECOLOR
 62
   256
  9
$CELTSCALE
 40
1.0
  9
$DELOBJ
 70
     1
  9
$DISPSILH
 70
     0
  9
$DIMSCALE
 40
0.5
  9
$DIMASZ
 40
2.5
  9
$DIMEXO
 40
1.0
  9
$DIMDLI
 40
12.0
  9
$DIMRND
 40
0.0
  9
$DIMDLE
 40
0.0
  9
$DIMEXE
 40
1.0
  9
$DIMTP
 40
0.1
  9
$DIMTM
 40
0.1
  9
$DIMTXT
 40
3.2
  9
$DIMCEN
 40
0.0
  9
$DIMTSZ
 40
0.0
  9
$DIMTOL
 70
     0
  9
$DIMLIM
 70
     0
  9
$DIMTIH
 70
     0
  9
$DIMTOH
 70
     0
  9
$DIMSE1
 70
     0
  9
$DIMSE2
 70
     0
  9
$DIMTAD
 70
     3
  9
$DIMZIN
 70
     8
  9
$DIMBLK
  1
OPEN30
  9
$DIMASO
 70
     1
  9
$DIMSHO
 70
     1
  9
$DIMPOST
  1

  9
$DIMAPOST
  1
"
  9
$DIMALT
 70
     0
  9
$DIMALTD
 70
     2
  9
$DIMALTF
 40
0.0393701
  9
$DIMLFAC
 40
1.0
  9
$DIMTOFL
 70
     1
  9
$DIMTVP
 40
0.0
  9
$DIMTIX
 70
     0
  9
$DIMSOXD
 70
     0
  9
$DIMSAH
 70
     0
  9
$DIMBLK1
  1

  9
$DIMBLK2
  1

  9
$DIMSTYLE
  2
AM_JIS
  9
$DIMCLRD
 70
   256
  9
$DIMCLRE
 70
   256
  9
$DIMCLRT
 70
     2
  9
$DIMTFAC
 40
0.71
  9
$DIMGAP
 40
1.5
  9
$DIMJUST
 70
     0
  9
$DIMSD1
 70
     0
  9
$DIMSD2
 70
     0
  9
$DIMTOLJ
 70
     0
  9
$DIMTZIN
 70
     0
  9
$DIMALTZ
 70
     0
  9
$DIMALTTZ
 70
     0
  9
$DIMFIT
 70
     3
  9
$DIMUPT
 70
     0
  9
$DIMUNIT
 70
     2
  9
$DIMDEC
 70
     3
  9
$DIMTDEC
 70
     3
  9
$DIMALTU
 70
     2
  9
$DIMALTTD
 70
     2
  9
$DIMTXSTY
  7
ASAMI
  9
$DIMAUNIT
 70
     0
  9
$LUNITS
 70
     2
  9
$LUPREC
 70
     2
  9
$SKETCHINC
 40
1.0
  9
$FILLETRAD
 40
2.5
  9
$AUNITS
 70
     0
  9
$AUPREC
 70
     0
  9
$MENU
  1
.
  9
$ELEVATION
 40
0.0
  9
$PELEVATION
 40
0.0
  9
$THICKNESS
 40
0.0
  9
$LIMCHECK
 70
     0
  9
$BLIPMODE
 70
     0
  9
$CHAMFERA
 40
0.25
  9
$CHAMFERB
 40
0.25
  9
$CHAMFERC
 40
20.0
  9
$CHAMFERD
 40
0.0
  9
$SKPOLY
 70
     0
  9
$TDCREATE
 40
2452800.443498622
  9
$TDUPDATE
 40
2453151.720695879
  9
$TDINDWG
 40
0.0946981713
  9
$TDUSRTIMER
 40
0.0946981713
  9
$USRTIMER
 70
     1
  9
$ANGBASE
 50
0.0
  9
$ANGDIR
 70
     0
  9
$PDMODE
 70
     0
  9
$PDSIZE
 40
0.0
  9
$PLINEWID
 40
0.0
  9
$COORDS
 70
     1
  9
$SPLFRAME
 70
     0
  9
$SPLINETYPE
 70
     6
  9
$SPLINESEGS
 70
     8
  9
$ATTDIA
 70
     1
  9
$ATTREQ
 70
     1
  9
$HANDLING
 70
 12289
  9
$HANDSEED
  5
405F
  9
$SURFTAB1
 70
     6
  9
$SURFTAB2
 70
     6
  9
$SURFTYPE
 70
     6
  9
$SURFU
 70
     6
  9
$SURFV
 70
     6
  9
$UCSNAME
  2

  9
$UCSORG
 10
0.0
 20
0.0
 30
0.0
  9
$UCSXDIR
 10
1.0
 20
0.000000000000002
 30
0.0
  9
$UCSYDIR
 10
-0.000000000000002
 20
1.0
 30
0.0
  9
$PUCSNAME
  2

  9
$PUCSORG
 10
0.0
 20
0.0
 30
0.0
  9
$PUCSXDIR
 10
1.0
 20
0.0
 30
0.0
  9
$PUCSYDIR
 10
0.0
 20
1.0
 30
0.0
  9
$USERI1
 70
     0
  9
$USERI2
 70
     0
  9
$USERI3
 70
     0
  9
$USERI4
 70
     0
  9
$USERI5
 70
     0
  9
$USERR1
 40
0.0
  9
$USERR2
 40
0.0
  9
$USERR3
 40
0.0
  9
$USERR4
 40
0.0
  9
$USERR5
 40
0.0
  9
$WORLDVIEW
 70
     1
  9
$SHADEDGE
 70
     3
  9
$SHADEDIF
 70
    70
  9
$TILEMODE
 70
     1
  9
$MAXACTVP
 70
    64
  9
$PINSBASE
 10
0.0
 20
0.0
 30
0.0
  9
$PLIMCHECK
 70
     0
  9
$PEXTMIN
 10
1.000000000000000E+20
 20
1.000000000000000E+20
 30
1.000000000000000E+20
  9
$PEXTMAX
 10
-1.000000000000000E+20
 20
-1.000000000000000E+20
 30
-1.000000000000000E+20
  9
$PLIMMIN
 10
0.0
 20
0.0
  9
$PLIMMAX
 10
841.0
 20
594.0
  9
$UNITMODE
 70
     0
  9
$VISRETAIN
 70
     1
  9
$PLINEGEN
 70
     0
  9
$PSLTSCALE
 70
     0
  9
$TREEDEPTH
 70
  3020
  9
$PICKSTYLE
 70
     0
  9
$CMLSTYLE
  2
STANDARD
  9
$CMLJUST
 70
     0
  9
$CMLSCALE
 40
20.0
  9
$PROXYGRAPHICS
 70
     1
  9
$MEASUREMENT
 70
     1
  0
ENDSEC
  0
SECTION
  2
CLASSES
  0
CLASS
  1
ACDBDICTIONARYWDFLT
  2
AcDbDictionaryWithDefault
  3
AutoCAD 2000
 90
        0
280
     0
281
     0
  0
CLASS
  1
ACDBPLACEHOLDER
  2
AcDbPlaceHolder
  3
AutoCAD 2000
 90
        0
280
     0
281
     0
  0
CLASS
  1
LAYOUT
  2
AcDbLayout
  3
AutoCAD 2000
 90
        0
280
     0
281
     0
  0
CLASS
  1
AMGSETTINGSOBJ
  2
AmgSettingsObj
  3
"AcadM|Product Description: AutoCAD Mechanical 2000|Company: Autodesk"
 90
        0
280
     0
281
     0
  0
CLASS
  1
ACME_DOCUMENT
  2
AcMeDbDoc
  3
AcMeServices
 90
        0
280
     0
281
     0
  0
CLASS
  1
ACMESCOPE
  2
AcMeScope
  3
AcMeServices
 90
        0
280
     0
281
     0
  0
CLASS
  1
ACMECOMMANDHISTORY
  2
AcMeCommandHistory
  3
AcMeServices
 90
        0
280
     0
281
     0
  0
CLASS
  1
DICTIONARYVAR
  2
AcDbDictionaryVar
  3
AutoCAD 2000
 90
        0
280
     0
281
     0
  0
CLASS
  1
ACIMSYSVARMAN
  2
AcImSysVarManager
  3
AcMeServices
 90
        0
280
     0
281
     0
  0
CLASS
  1
ACIMREALSYSVAR
  2
AcImRealSysVar
  3
AcMeServices
 90
        0
280
     0
281
     0
  0
CLASS
  1
ACIMINTSYSVAR
  2
AcImIntSysVar
  3
AcMeServices
 90
        0
280
     0
281
     0
  0
CLASS
  1
ACMEDRAWINGMAN
  2
AcMeDrawingMan
  3
AcMeServices
 90
        0
280
     0
281
     0
  0
CLASS
  1
ACMEVIEW
  2
AcMeView
  3
AcMeServices
 90
        0
280
     0
281
     0
  0
CLASS
  1
ACDBENTITYCACHE
  2
AcMeEntityCache
  3
AcMeServices
 90
        0
280
     0
281
     0
  0
CLASS
  1
GSMANAGER
  2
AcMeGSManager
  3
AcMeServices
 90
        0
280
     0
281
     0
  0
CLASS
  1
AmdtInternalReactor
  2
AmdtInternalReactor
  3
AcMeServices
 90
        0
280
     0
281
     0
  0
CLASS
  1
ACMESTATEMGR
  2
AcMeStateMgr
  3
AcMeServices
 90
        0
280
     0
281
     0
  0
CLASS
  1
ACME_DATABASE
  2
AcMeDbDatabase
  3
AcMeServices
 90
        0
280
     0
281
     0
  0
CLASS
  1
ACRFINSADJUSTERMGR
  2
AcRfInsAdjusterMgr
  3
AcMeServices
 90
        0
280
     0
281
     0
  0
CLASS
  1
ACMDATADICTIONARY
  2
AcmDataDictionary
  3
"AcmSymBB|Product Description: AutoCAD Mechanical 2000|Company: Autodesk"
 90
        0
280
     0
281
     0
  0
CLASS
  1
ACMDATAENTRYBLOCK
  2
AcmDataEntryBlock
  3
"AcmSymBB|Product Description: AutoCAD Mechanical 2000|Company: Autodesk"
 90
        0
280
     0
281
     0
  0
CLASS
  1
AMGOBJPROPCFG
  2
AmgObjPropCfg
  3
"AmgLay|Product Description: AutoCAD Mechanical 2000|Company: Autodesk"
 90
        1
280
     0
281
     0
  0
CLASS
  1
ACAMGFILTERDAT
  2
AcAmgFilterDat
  3
"AcadM|Product Description: AutoCAD Mechanical 2000|Company: Autodesk"
 90
        0
280
     0
281
     0
  0
CLASS
  1
LAYER_INDEX
  2
AcDbLayerIndex
  3
AutoCAD 2000
 90
        0
280
     0
281
     0
  0
CLASS
  1
IDBUFFER
  2
AcDbIdBuffer
  3
AutoCAD 2000
 90
        0
280
     0
281
     0
  0
CLASS
  1
ACIMSTRSYSVAR
  2
AcImStrSysVar
  3
AcMeServices
 90
        0
280
     0
281
     0
  0
CLASS
  1
ACMSTANDARDJIS
  2
AcmStandardJIS
  3
"AcmSymBB|Product Description: AutoCAD Mechanical 2000|Company: Autodesk"
 90
        0
280
     0
281
     0
  0
CLASS
  1
ACMSURFSTANDARDJIS
  2
AcmSurfTextStdJIS
  3
"AcmSymBB|Product Description: AutoCAD Mechanical 2000|Company: Autodesk"
 90
        0
280
     0
281
     0
  0
CLASS
  1
ACMFCFSTANDARDJIS
  2
AcmFCFStdJIS
  3
"AcmSymBB|Product Description: AutoCAD Mechanical 2000|Company: Autodesk"
 90
        0
280
     0
281
     0
  0
CLASS
  1
ACMWELDSTANDARDJIS
  2
AcmWeldingStdJIS
  3
"AcmSymBB|Product Description: AutoCAD Mechanical 2000|Company: Autodesk"
 90
        0
280
     0
281
     0
  0
CLASS
  1
ACMIDSTANDARDJIS
  2
AcmIdStdJIS
  3
"AcmSymBB|Product Description: AutoCAD Mechanical 2000|Company: Autodesk"
 90
        0
280
     0
281
     0
  0
CLASS
  1
ACMDATUMSTANDARDJIS
  2
AcmDatumStdJIS
  3
"AcmSymBB|Product Description: AutoCAD Mechanical 2000|Company: Autodesk"
 90
        0
280
     0
281
     0
  0
CLASS
  1
ACMBOMSTANDARDJIS
  2
AcmBOMStdJIS
  3
"AcmSymBB|Product Description: AutoCAD Mechanical 2000|Company: Autodesk"
 90
        0
280
     0
281
     0
  0
CLASS
  1
ACMSTANDARDANSI
  2
AcmStandardANSI
  3
"AcmSymBB|Product Description: AutoCAD Mechanical 2000|Company: Autodesk"
 90
        0
280
     0
281
     0
  0
CLASS
  1
ACMSURFSTANDARDANSI
  2
AcmSurfTextStdANSI
  3
"AcmSymBB|Product Description: AutoCAD Mechanical 2000|Company: Autodesk"
 90
        0
280
     0
281
     0
  0
CLASS
  1
ACMFCFSTANDARDANSI
  2
AcmFCFStdANSI
  3
"AcmSymBB|Product Description: AutoCAD Mechanical 2000|Company: Autodesk"
 90
        0
280
     0
281
     0
  0
CLASS
  1
ACMWELDSTANDARDANSI
  2
AcmWeldingStdANSI
  3
"AcmSymBB|Product Description: AutoCAD Mechanical 2000|Company: Autodesk"
 90
        0
280
     0
281
     0
  0
CLASS
  1
ACMIDSTANDARDANSI
  2
AcmIdStdANSI
  3
"AcmSymBB|Product Description: AutoCAD Mechanical 2000|Company: Autodesk"
 90
        0
280
     0
281
     0
  0
CLASS
  1
ACMDATUMSTANDARDANSI
  2
AcmDatumStdANSI
  3
"AcmSymBB|Product Description: AutoCAD Mechanical 2000|Company: Autodesk"
 90
        0
280
     0
281
     0
  0
CLASS
  1
ACMBOMSTANDARDANSI
  2
AcmBOMStdANSI
  3
"AcmSymBB|Product Description: AutoCAD Mechanical 2000|Company: Autodesk"
 90
        0
280
     0
281
     0
  0
CLASS
  1
ACMSTANDARDBSI
  2
AcmStandardBSI
  3
"AcmSymBB|Product Description: AutoCAD Mechanical 2000|Company: Autodesk"
 90
        0
280
     0
281
     0
  0
CLASS
  1
ACMSURFSTANDARDBSI
  2
AcmSurfTextStdBSI
  3
"AcmSymBB|Product Description: AutoCAD Mechanical 2000|Company: Autodesk"
 90
        0
280
     0
281
     0
  0
CLASS
  1
ACMFCFSTANDARDBSI
  2
AcmFCFStdBSI
  3
"AcmSymBB|Product Description: AutoCAD Mechanical 2000|Company: Autodesk"
 90
        0
280
     0
281
     0
  0
CLASS
  1
ACMWELDSTANDARDBSI
  2
AcmWeldingStdBSI
  3
"AcmSymBB|Product Description: AutoCAD Mechanical 2000|Company: Autodesk"
 90
        0
280
     0
281
     0
  0
CLASS
  1
ACMIDSTANDARDBSI
  2
AcmIdStdBSI
  3
"AcmSymBB|Product Description: AutoCAD Mechanical 2000|Company: Autodesk"
 90
        0
280
     0
281
     0
  0
CLASS
  1
ACMDATUMSTANDARDBSI
  2
AcmDatumStdBSI
  3
"AcmSymBB|Product Description: AutoCAD Mechanical 2000|Company: Autodesk"
 90
        0
280
     0
281
     0
  0
CLASS
  1
ACMBOMSTANDARDBSI
  2
AcmBOMStdBSI
  3
"AcmSymBB|Product Description: AutoCAD Mechanical 2000|Company: Autodesk"
 90
        0
280
     0
281
     0
  0
CLASS
  1
LONG_TRANSACTION
  2
AcDbLongTransaction
  3
AutoCAD 2000
 90
        0
280
     0
281
     0
  0
CLASS
  1
LWPOLYLINE
  2
AcDbPolyline
  3
AutoCAD 2000
 90
        0
280
     0
281
     1
  0
CLASS
  1
HATCH
  2
AcDbHatch
  3
AutoCAD 2000
 90
        0
280
     0
281
     1
  0
CLASS
  1
XRECORD
  2
AcDbXrecord
  3
AutoCAD 2000
 90
        0
280
     0
281
     0
  0
ENDSEC
  0
SECTION
  2
TABLES
  0
TABLE
  2
VPORT
  5
8
330
0
100
AcDbSymbolTable
 70
     3
  0
VPORT
  5
4034
330
8
100
AcDbSymbolTableRecord
100
AcDbViewportTableRecord
  2
*ACTIVE
 70
     0
 10
0.0
 20
0.0
 11
1.0
 21
1.0
 12
-25.03567686258446
 22
-6.203953704483865
 13
0.0
 23
0.0
 14
2.5
 24
2.5
 15
10.0
 25
10.0
 16
0.0
 26
0.0
 36
1.0
 17
0.0
 27
0.0
 37
0.0
 40
93.07642488915041
 41
1.56570841889117
 42
50.0
 43
0.0
 44
0.0
 50
0.0
 51
0.0
 71
     0
 72
   100
 73
     1
 74
     1
 75
     0
 76
     0
 77
     0
 78
     0
  0
ENDTAB
  0
TABLE
  2
LTYPE
  5
5
330
0
100
AcDbSymbolTable
 70
    10
  0
LTYPE
  5
14
330
5
100
AcDbSymbolTableRecord
100
AcDbLinetypeTableRecord
  2
BYBLOCK
 70
     0
  3

 72
    65
 73
     0
 40
0.0
  0
LTYPE
  5
15
330
5
100
AcDbSymbolTableRecord
100
AcDbLinetypeTableRecord
  2
BYLAYER
 70
     0
  3

 72
    65
 73
     0
 40
0.0
  0
LTYPE
  5
16
330
5
100
AcDbSymbolTableRecord
100
AcDbLinetypeTableRecord
  2
CONTINUOUS
 70
     0
  3
Solid line
 72
    65
 73
     0
 40
0.0
  0
LTYPE
  5
4B
330
5
100
AcDbSymbolTableRecord
100
AcDbLinetypeTableRecord
  2
AM_ISO02W050
 70
     0
  3
__ __ __ __ __ __ __ __ __ __ __ __ __ __ __
 72
    65
 73
     2
 40
7.5
 49
6.0
 74
     0
 49
-1.5
 74
     0
  0
LTYPE
  5
4C
330
5
100
AcDbSymbolTableRecord
100
AcDbLinetypeTableRecord
  2
AM_ISO08W050
 70
     0
  3
____ . ____ . ____ . ____ . ____ . ____ . ____
 72
    65
 73
     4
 40
18.0
 49
12.0
 74
     0
 49
-1.5
 74
     0
 49
3.0
 74
     0
 49
-1.5
 74
     0
  0
LTYPE
  5
4D
330
5
100
AcDbSymbolTableRecord
100
AcDbLinetypeTableRecord
  2
AM_ISO09W050
 70
     0
  3
_____ . . _____ . . _____ . . ____ .. ____
 72
    65
 73
     6
 40
22.5
 49
12.0
 74
     0
 49
-1.5
 74
     0
 49
3.0
 74
     0
 49
-1.5
 74
     0
 49
3.0
 74
     0
 49
-1.5
 74
     0
  0
LTYPE
  5
4E
330
5
100
AcDbSymbolTableRecord
100
AcDbLinetypeTableRecord
  2
AMCONSTR
 70
     0
  3
_______________________
 72
    65
 73
     2
 40
9999.0
 49
9999.0
 74
     0
 49
0.0
 74
     0
  0
LTYPE
  5
4F
330
5
100
AcDbSymbolTableRecord
100
AcDbLinetypeTableRecord
  2
AM_ISO02W050X2
 70
     0
  3
 _ _ _ _ _ _ _ _ _ _ _ _
 72
    65
 73
     2
 40
3.75
 49
3.0
 74
     0
 49
-0.75
 74
     0
  0
LTYPE
  5
50
330
5
100
AcDbSymbolTableRecord
100
AcDbLinetypeTableRecord
  2
AM_ISO08W050X2
 70
     0
  3
__ . __ . __ . __ . __ . __
 72
    65
 73
     4
 40
9.0
 49
6.0
 74
     0
 49
-0.75
 74
     0
 49
1.5
 74
     0
 49
-0.75
 74
     0
  0
LTYPE
  5
53
330
5
100
AcDbSymbolTableRecord
100
AcDbLinetypeTableRecord
  2
AMZIGZAG
 70
     0
  3
/\/-/\/-/\/-/\/-/\/-/\/
 72
    65
 73
     2
 40
11.00009999999999
 49
0.0001
 74
     4
 75
   135
340
52
 46
0.04
 50
0.0
 44
0.0
 45
0.0
 49
-11.0
 74
     0
  0
LTYPE
  5
166
330
5
100
AcDbSymbolTableRecord
100
AcDbLinetypeTableRecord
  2
ACJISTGL
 70
     0
  3
_ _ _ _ _
 72
    65
 73
     2
 40
3.0
 49
2.0
 74
     0
 49
-1.0
 74
     0
  0
LTYPE
  5
26A
330
5
100
AcDbSymbolTableRecord
100
AcDbLinetypeTableRecord
  2
ACJISTGB
 70
     0
  3
__ . . __ . .
 72
    65
 73
     6
 40
9.0
 49
4.0
 74
     0
 49
-1.0
 74
     0
 49
1.0
 74
     0
 49
-1.0
 74
     0
 49
1.0
 74
     0
 49
-1.0
 74
     0
  0
ENDTAB
  0
TABLE
  2
LAYER
  5
2
330
0
100
AcDbSymbolTable
 70
     7
  0
LAYER
  5
10
330
2
100
AcDbSymbolTableRecord
100
AcDbLayerTableRecord
  2
0
 70
     0
 62
     7
  6
CONTINUOUS
  0
LAYER
  5
3F9
330
2
100
AcDbSymbolTableRecord
100
AcDbLayerTableRecord
  2
AM_0
 70
     0
 62
     7
  6
CONTINUOUS
  0
LAYER
  5
C7C
330
2
100
AcDbSymbolTableRecord
100
AcDbLayerTableRecord
  2
AM_7
 70
     0
 62
     4
  6
AM_ISO08W050
  0
LAYER
  5
C97
330
2
100
AcDbSymbolTableRecord
100
AcDbLayerTableRecord
  2
AM_11
 70
     0
 62
     3
  6
AM_ISO09W050
  0
LAYER
  5
CC5
330
2
100
AcDbSymbolTableRecord
100
AcDbLayerTableRecord
  2
AM_5
 70
     0
 62
     3
  6
CONTINUOUS
  0
LAYER
  5
CC7
330
2
100
AcDbSymbolTableRecord
100
AcDbLayerTableRecord
  2
DEFPOINTS
 70
     0
 62
     7
  6
CONTINUOUS
  0
LAYER
  5
19BC
330
2
100
AcDbSymbolTableRecord
100
AcDbLayerTableRecord
  2
AM_6
 70
     0
 62
     2
  6
CONTINUOUS
  0
ENDTAB
  0
TABLE
  2
STYLE
  5
3
330
0
100
AcDbSymbolTable
 70
     5
  0
STYLE
  5
11
330
3
100
AcDbSymbolTableRecord
100
AcDbTextStyleTableRecord
  2
STANDARD
 70
     0
 40
0.0
 41
1.0
 50
0.0
 71
     0
 42
2.5
  3
simplex.shx
  4
EXTFONT.SHX
  0
STYLE
  5
52
330
3
100
AcDbSymbolTableRecord
100
AcDbTextStyleTableRecord
  2

 70
     1
 40
0.0
 41
1.0
 50
0.0
 71
     0
 42
2.5
  3
ltypeshp.shx
  4

  0
STYLE
  5
6B
330
3
100
AcDbSymbolTableRecord
100
AcDbTextStyleTableRecord
  2
ASAMI
 70
     0
 40
0.0
 41
1.0
 50
0.0
 71
     0
 42
2.5
  3
simplex.shx
  4
EXTFONT.SHX
  0
STYLE
  5
262
330
3
100
AcDbSymbolTableRecord
100
AcDbTextStyleTableRecord
  2
ACJISTS
 70
     0
 40
1.0
 41
1.0
 50
0.0
 71
     0
 42
2.5
  3
simplex.shx
  4
bigfont.shx
  0
STYLE
  5
269
330
3
100
AcDbSymbolTableRecord
100
AcDbTextStyleTableRecord
  2
ACJISGDT
 70
     0
 40
0.0
 41
1.0
 50
0.0
 71
     0
 42
2.5
  3
amgdtans.shx
  4

  0
ENDTAB
  0
TABLE
  2
VIEW
  5
6
330
0
100
AcDbSymbolTable
 70
     0
  0
ENDTAB
  0
TABLE
  2
UCS
  5
7
330
0
100
AcDbSymbolTable
 70
     0
  0
ENDTAB
  0
TABLE
  2
APPID
  5
9
330
0
100
AcDbSymbolTable
 70
    18
  0
APPID
  5
12
330
9
100
AcDbSymbolTableRecord
100
AcDbRegAppTableRecord
  2
ACAD
 70
     0
  0
APPID
  5
30
330
9
100
AcDbSymbolTableRecord
100
AcDbRegAppTableRecord
  2
MCAD_NO_VIS
 70
     0
  0
APPID
  5
31
330
9
100
AcDbSymbolTableRecord
100
AcDbRegAppTableRecord
  2
ACAD_TEMP_GRAPHIC
 70
     0
  0
APPID
  5
2C2
330
9
100
AcDbSymbolTableRecord
100
AcDbRegAppTableRecord
  2
GENIUS_GENDTOL_13
 70
     0
  0
APPID
  5
339
330
9
100
AcDbSymbolTableRecord
100
AcDbRegAppTableRecord
  2
GENIUS_GENODEF_13
 70
     0
  0
APPID
  5
33A
330
9
100
AcDbSymbolTableRecord
100
AcDbRegAppTableRecord
  2
GENIUS_GENOBJ-N-RSBK_13
 70
     0
  0
APPID
  5
33B
330
9
100
AcDbSymbolTableRecord
100
AcDbRegAppTableRecord
  2
GENIUS_GENOBJ-N-LIB_13
 70
     0
  0
APPID
  5
33C
330
9
100
AcDbSymbolTableRecord
100
AcDbRegAppTableRecord
  2
GENIUS_GENSCALE_13
 70
     0
  0
APPID
  5
378
330
9
100
AcDbSymbolTableRecord
100
AcDbRegAppTableRecord
  2
GENIUS_GENDIMSH_14
 70
     0
  0
APPID
  5
C82
330
9
100
AcDbSymbolTableRecord
100
AcDbRegAppTableRecord
  2
GENIUS_GENOBJ-N-CRS_13
 70
     0
  0
APPID
  5
C83
330
9
100
AcDbSymbolTableRecord
100
AcDbRegAppTableRecord
  2
GENIUS_GENOENT_13
 70
     0
  0
APPID
  5
C84
330
9
100
AcDbSymbolTableRecord
100
AcDbRegAppTableRecord
  2
GENIUS_GENOREF_13
 70
     0
  0
APPID
  5
C85
330
9
100
AcDbSymbolTableRecord
100
AcDbRegAppTableRecord
  2
GENIUS_GENOLIS_13
 70
     0
  0
APPID
  5
CA0
330
9
100
AcDbSymbolTableRecord
100
AcDbRegAppTableRecord
  2
GENIUS_GENOBJ-N-CEN_13
 70
     0
  0
APPID
  5
1B5D
330
9
100
AcDbSymbolTableRecord
100
AcDbRegAppTableRecord
  2
GENIUS_GENFIL_13
 70
     0
  0
APPID
  5
1B5E
330
9
100
AcDbSymbolTableRecord
100
AcDbRegAppTableRecord
  2
GENIUS_GENOBJ-N-CHA_13
 70
     0
  0
APPID
  5
1FBC
330
9
100
AcDbSymbolTableRecord
100
AcDbRegAppTableRecord
  2
GENIUS_GENREC_14
 70
     0
  0
APPID
  5
1FBD
330
9
100
AcDbSymbolTableRecord
100
AcDbRegAppTableRecord
  2
GENIUS_GENOBJ-N-REC_13
 70
     0
  0
ENDTAB
  0
TABLE
  2
DIMSTYLE
  5
A
330
0
100
AcDbSymbolTable
 70
     9
  0
DIMSTYLE
105
58
330
A
100
AcDbSymbolTableRecord
100
AcDbDimStyleTableRecord
  2
AM_JIS
 70
     0
  3

  4
"
  5
OPEN30
  6

  7

 40
0.5
 41
2.5
 42
1.0
 43
12.0
 44
1.0
 45
0.0
 46
0.0
 47
0.1
 48
0.1
140
3.2
141
0.0
142
0.0
143
0.0393701
144
1.0
145
0.0
146
0.71
147
1.5
 71
     0
 72
     0
 73
     0
 74
     0
 75
     0
 76
     0
 77
     3
 78
     8
170
     0
171
     2
172
     1
173
     0
174
     0
175
     0
176
   256
177
   256
178
     2
270
     2
271
     3
272
     3
273
     2
274
     2
340
6B
275
     0
280
     0
281
     0
282
     0
283
     0
284
     0
285
     0
286
     0
287
     3
288
     0
  0
DIMSTYLE
105
5F
330
A
100
AcDbSymbolTableRecord
100
AcDbDimStyleTableRecord
  2
AM_JIS$3
 70
     0
  3

  4
"
  5
OPEN30
  6

  7

 40
0.5
 41
2.5
 42
1.0
 43
10.0
 44
1.0
 45
0.0
 46
0.0
 47
0.1
 48
0.1
140
3.2
141
0.0
142
0.0
143
0.0393701
144
1.0
145
0.0
146
0.71
147
1.5
 71
     0
 72
     0
 73
     0
 74
     1
 75
     0
 76
     0
 77
     3
 78
     8
170
     0
171
     2
172
     0
173
     0
174
     0
175
     0
176
   256
177
   256
178
     2
270
     2
271
     2
272
     3
273
     2
274
     2
340
6B
275
     0
280
     0
281
     0
282
     0
283
     0
284
     0
285
     0
286
     0
287
     0
288
     1
  0
DIMSTYLE
105
60
330
A
100
AcDbSymbolTableRecord
100
AcDbDimStyleTableRecord
  2
AM_JIS$4
 70
     0
  3

  4
"
  5
OPEN30
  6

  7

 40
0.5
 41
2.5
 42
1.0
 43
10.0
 44
1.0
 45
0.0
 46
0.0
 47
0.1
 48
0.1
140
3.2
141
0.0
142
0.0
143
0.0393701
144
1.0
145
0.0
146
0.71
147
1.5
 71
     0
 72
     0
 73
     0
 74
     1
 75
     0
 76
     0
 77
     3
 78
     8
170
     0
171
     2
172
     0
173
     0
174
     0
175
     0
176
   256
177
   256
178
     2
270
     2
271
     2
272
     3
273
     2
274
     2
340
6B
275
     0
280
     0
281
     0
282
     0
283
     0
284
     0
285
     0
286
     0
287
     0
288
     1
  0
DIMSTYLE
105
61
330
A
100
AcDbSymbolTableRecord
100
AcDbDimStyleTableRecord
  2
AM_JIS$6
 70
     0
  3

  4
"
  5
OPEN30
  6

  7

 40
0.5
 41
2.5
 42
1.0
 43
10.0
 44
1.0
 45
0.0
 46
0.0
 47
0.1
 48
0.1
140
3.2
141
0.0
142
0.0
143
0.0393701
144
1.0
145
0.0
146
0.71
147
1.5
 71
     0
 72
     0
 73
     0
 74
     0
 75
     0
 76
     0
 77
     0
 78
     8
170
     0
171
     2
172
     1
173
     0
174
     0
175
     0
176
   256
177
   256
178
     2
270
     2
271
     2
272
     2
273
     2
274
     2
340
6B
275
     0
280
     0
281
     0
282
     0
283
     0
284
     0
285
     0
286
     0
287
     3
288
     0
  0
DIMSTYLE
105
62
330
A
100
AcDbSymbolTableRecord
100
AcDbDimStyleTableRecord
  2
AM_JIS$7
 70
     0
  3

  4
"
  5
OPEN30
  6

  7

 40
0.5
 41
2.5
 42
1.0
 43
10.0
 44
1.0
 45
0.0
 46
0.0
 47
0.1
 48
0.1
140
3.2
141
0.0
142
0.0
143
0.0393701
144
1.0
145
0.0
146
0.71
147
1.5
 71
     0
 72
     0
 73
     0
 74
     0
 75
     0
 76
     0
 77
     3
 78
     8
170
     0
171
     2
172
     1
173
     0
174
     0
175
     0
176
   256
177
   256
178
     2
270
     2
271
     2
272
     3
273
     2
274
     2
340
6B
275
     0
280
     0
281
     0
282
     0
283
     0
284
     0
285
     0
286
     0
287
     3
288
     0
  0
DIMSTYLE
105
63
330
A
100
AcDbSymbolTableRecord
100
AcDbDimStyleTableRecord
  2
AM_JIS$SF
 70
     0
  3

  4
"
  5
OPEN30
  6

  7

 40
0.5
 41
2.5
 42
1.0
 43
10.0
 44
1.0
 45
0.0
 46
0.0
 47
0.1
 48
0.1
140
3.2
141
0.0
142
0.0
143
0.0393701
144
1.0
145
0.0
146
0.71
147
1.5
 71
     0
 72
     0
 73
     0
 74
     0
 75
     1
 76
     1
 77
     3
 78
     8
170
     0
171
     2
172
     1
173
     0
174
     0
175
     0
176
   256
177
   256
178
     2
270
     2
271
     2
272
     2
273
     2
274
     2
340
6B
275
     0
280
     0
281
     0
282
     0
283
     0
284
     0
285
     0
286
     0
287
     3
288
     0
  0
DIMSTYLE
105
68
330
A
100
AcDbSymbolTableRecord
100
AcDbDimStyleTableRecord
  2
AM_JIS$SH
 70
     0
  3

  4
"
  5

  6
GENAXEH
  7
OPEN30
 40
0.5
 41
2.5
 42
1.0
 43
10.0
 44
1.0
 45
0.0
 46
0.0
 47
0.1
 48
0.1
140
3.2
141
0.0
142
0.0
143
0.0393701
144
2.0
145
0.0
146
0.71
147
1.5
 71
     0
 72
     0
 73
     0
 74
     0
 75
     1
 76
     1
 77
     3
 78
     8
170
     0
171
     2
172
     1
173
     1
174
     0
175
     0
176
   256
177
   256
178
     2
270
     2
271
     2
272
     2
273
     2
274
     2
340
6B
275
     0
280
     0
281
     0
282
     0
283
     0
284
     0
285
     0
286
     0
287
     3
288
     0
  0
DIMSTYLE
105
B34
102
{ACAD_REACTORS
330
3B34
102
}
330
A
100
AcDbSymbolTableRecord
100
AcDbDimStyleTableRecord
  2
AM_JIS$2
 70
     0
  3

  4
"
  5
OPEN30
  6

  7

 40
0.5
 41
2.5
 42
1.0
 43
12.0
 44
1.0
 45
0.0
 46
0.0
 47
0.1
 48
0.1
140
3.2
141
0.0
142
0.0
143
0.0393701
144
1.0
145
0.0
146
0.71
147
1.5
 71
     0
 72
     0
 73
     0
 74
     0
 75
     0
 76
     0
 77
     3
 78
     8
170
     0
171
     2
172
     1
173
     0
174
     0
175
     0
176
   256
177
   256
178
     2
270
     2
271
     3
272
     3
273
     2
274
     2
340
6B
275
     0
280
     0
281
     0
282
     0
283
     0
284
     0
285
     0
286
     0
287
     3
288
     0
  0
DIMSTYLE
105
BA5
102
{ACAD_REACTORS
330
CC6
330
DF5
330
1DEF
330
1C71
102
}
330
A
100
AcDbSymbolTableRecord
100
AcDbDimStyleTableRecord
  2
AM_JIS$0
 70
     0
  3

  4
"
  5
OPEN30
  6

  7

 40
0.5
 41
2.5
 42
0.0
 43
10.0
 44
1.0
 45
0.0
 46
0.0
 47
0.1
 48
0.1000000001
140
3.799999999999999
141
0.0
142
0.0
143
0.0393701
144
1.0
145
0.0
146
0.71
147
1.5
 71
     0
 72
     0
 73
     0
 74
     0
 75
     0
 76
     0
 77
     3
 78
     1
170
     0
171
     2
172
     1
173
     0
174
     0
175
     0
176
     3
177
     3
178
     2
270
     2
271
     2
272
     2
273
     2
274
     2
340
11
275
     1
280
     0
281
     0
282
     0
283
     0
284
     8
285
     0
286
     0
287
     0
288
     0
  0
ENDTAB
  0
TABLE
  2
BLOCK_RECORD
  5
1
330
0
100
AcDbSymbolTable
 70
    10
  0
BLOCK_RECORD
  5
1F
102
{ACAD_XDICTIONARY
360
74
102
}
330
1
100
AcDbSymbolTableRecord
100
AcDbBlockTableRecord
  2
*MODEL_SPACE
  0
BLOCK_RECORD
  5
101
102
{ACAD_XDICTIONARY
360
405D
102
}
330
1
100
AcDbSymbolTableRecord
100
AcDbBlockTableRecord
  2
*PAPER_SPACE
  0
BLOCK_RECORD
  5
59
330
1
100
AcDbSymbolTableRecord
100
AcDbBlockTableRecord
  2
_OPEN30
  0
BLOCK_RECORD
  5
64
330
1
100
AcDbSymbolTableRecord
100
AcDbBlockTableRecord
  2
GENAXEH
  0
BLOCK_RECORD
  5
CC8
330
1
100
AcDbSymbolTableRecord
100
AcDbBlockTableRecord
  2
*D5
  0
BLOCK_RECORD
  5
DF6
330
1
100
AcDbSymbolTableRecord
100
AcDbBlockTableRecord
  2
*D6
  0
BLOCK_RECORD
  5
1C72
330
1
100
AcDbSymbolTableRecord
100
AcDbBlockTableRecord
  2
*D7
  0
BLOCK_RECORD
  5
1DF0
330
1
100
AcDbSymbolTableRecord
100
AcDbBlockTableRecord
  2
*D8
  0
BLOCK_RECORD
  5
3B35
330
1
100
AcDbSymbolTableRecord
100
AcDbBlockTableRecord
  2
*D9
  0
ENDTAB
  0
ENDSEC
  0
SECTION
  2
BLOCKS
  0
BLOCK
  5
20
330
1F
100
AcDbEntity
  8
0
100
AcDbBlockBegin
  2
*MODEL_SPACE
 70
     0
 10
0.0
 20
0.0
 30
0.0
  3
*MODEL_SPACE
  1

  0
ENDBLK
  5
21
330
1F
100
AcDbEntity
  8
0
100
AcDbBlockEnd
  0
BLOCK
  5
103
330
101
100
AcDbEntity
 67
     1
  8
0
100
AcDbBlockBegin
  2
*PAPER_SPACE
 70
     0
 10
0.0
 20
0.0
 30
0.0
  3
*PAPER_SPACE
  1

  0
ENDBLK
  5
104
330
101
100
AcDbEntity
 67
     1
  8
0
100
AcDbBlockEnd
  0
BLOCK
  5
5D
330
59
100
AcDbEntity
  8
0
100
AcDbBlockBegin
  2
_OPEN30
 70
     0
 10
0.0
 20
0.0
 30
0.0
  3
_OPEN30
  1

  0
LINE
  5
5A
330
59
100
AcDbEntity
  8
0
 62
     0
100
AcDbLine
 10
-1.0
 20
0.26794919
 30
0.0
 11
0.0
 21
0.0
 31
0.0
  0
LINE
  5
5B
330
59
100
AcDbEntity
  8
0
 62
     0
100
AcDbLine
 10
0.0
 20
0.0
 30
0.0
 11
-1.0
 21
-0.26794919
 31
0.0
  0
LINE
  5
5C
330
59
100
AcDbEntity
  8
0
 62
     0
100
AcDbLine
 10
0.0
 20
0.0
 30
0.0
 11
-1.0
 21
0.0
 31
0.0
  0
ENDBLK
  5
5E
330
59
100
AcDbEntity
  8
0
100
AcDbBlockEnd
  0
BLOCK
  5
66
330
64
100
AcDbEntity
  8
0
100
AcDbBlockBegin
  2
GENAXEH
 70
     0
 10
0.0
 20
0.0
 30
0.0
  3
GENAXEH
  1

  0
LINE
  5
65
330
64
100
AcDbEntity
  8
0
100
AcDbLine
 10
-1.0
 20
0.0
 30
0.0
 11
1.0
 21
0.0
 31
0.0
  0
ENDBLK
  5
67
330
64
100
AcDbEntity
  8
0
100
AcDbBlockEnd
  0
BLOCK
  5
CD2
330
CC8
100
AcDbEntity
  8
0
100
AcDbBlockBegin
  2
*D5
 70
     1
 10
0.0
 20
0.0
 30
0.0
  3
*D5
  1

  0
LINE
  5
3FDC
330
CC8
100
AcDbEntity
  8
AM_5
 62
     3
100
AcDbLine
 10
-81.99999999999999
 20
-1.250006209471323
 30
0.0
 11
-81.99999999999999
 21
-14.00000718101106
 31
0.0
  0
LINE
  5
3FDD
330
CC8
100
AcDbEntity
  8
AM_5
 62
     3
100
AcDbLine
 10
-1.000000000000005
 20
-1.249999015849334
 30
0.0
 11
-1.000000000000006
 21
-14.00000718101106
 31
0.0
  0
LINE
  5
3FDE
330
CC8
100
AcDbEntity
  8
AM_5
 62
     3
100
AcDbLine
 10
-80.74999999999999
 20
-13.50000718101106
 30
0.0
 11
-2.250000000000006
 21
-13.50000718101106
 31
0.0
  0
INSERT
  5
3FDF
330
CC8
100
AcDbEntity
  8
AM_5
 62
     3
100
AcDbBlockReference
  2
_OPEN30
 10
-81.99999999999999
 20
-13.50000718101106
 30
0.0
 41
1.25
 42
1.25
 43
1.25
 50
180.0
  0
INSERT
  5
3FE0
330
CC8
100
AcDbEntity
  8
AM_5
 62
     3
100
AcDbBlockReference
  2
_OPEN30
 10
-1.000000000000005
 20
-13.50000718101106
 30
0.0
 41
1.25
 42
1.25
 43
1.25
  0
MTEXT
  5
3FE1
330
CC8
100
AcDbEntity
  8
AM_5
 62
     2
100
AcDbMText
 10
-41.49999999999999
 20
-11.80000718101106
 30
0.0
 40
1.9
 41
0.0
 71
     5
 72
     1
  1
81
1001
ACAD
1000
MTEXTBEGIN
1070
    73
1070
     1
1070
    44
1040
1.0
1070
    74
1070
     0
1000
MTEXTEND
  0
POINT
  5
3FE2
330
CC8
100
AcDbEntity
  8
DEFPOINTS
 62
     0
100
AcDbPoint
 10
-81.99999999999999
 20
-1.250006209471323
 30
0.0
  0
POINT
  5
3FE3
330
CC8
100
AcDbEntity
  8
DEFPOINTS
 62
     0
100
AcDbPoint
 10
-1.000000000000005
 20
-1.249999015849334
 30
0.0
  0
POINT
  5
3FE4
330
CC8
100
AcDbEntity
  8
DEFPOINTS
 62
     0
100
AcDbPoint
 10
-1.000000000000005
 20
-13.50000718101106
 30
0.0
  0
ENDBLK
  5
CD3
330
CC8
100
AcDbEntity
  8
0
100
AcDbBlockEnd
  0
BLOCK
  5
E00
330
DF6
100
AcDbEntity
  8
0
100
AcDbBlockBegin
  2
*D6
 70
     1
 10
0.0
 20
0.0
 30
0.0
  3
*D6
  1

  0
LINE
  5
3FFB
330
DF6
100
AcDbEntity
  8
AM_5
 62
     3
100
AcDbLine
 10
-34.00000000000001
 20
-1.500000929896742
 30
0.0
 11
-34.00000000000001
 21
-7.300007181011049
 31
0.0
  0
LINE
  5
3FFC
330
DF6
100
AcDbEntity
  8
AM_5
 62
     3
100
AcDbLine
 10
-1.000000000000005
 20
-1.249999015849334
 30
0.0
 11
-1.000000000000005
 21
-7.300007181011049
 31
0.0
  0
LINE
  5
3FFD
330
DF6
100
AcDbEntity
  8
AM_5
 62
     3
100
AcDbLine
 10
-32.75000000000001
 20
-6.800007181011049
 30
0.0
 11
-2.250000000000005
 21
-6.800007181011049
 31
0.0
  0
INSERT
  5
3FFE
330
DF6
100
AcDbEntity
  8
AM_5
 62
     3
100
AcDbBlockReference
  2
_OPEN30
 10
-34.00000000000001
 20
-6.800007181011049
 30
0.0
 41
1.25
 42
1.25
 43
1.25
 50
180.0
  0
INSERT
  5
3FFF
330
DF6
100
AcDbEntity
  8
AM_5
 62
     3
100
AcDbBlockReference
  2
_OPEN30
 10
-1.000000000000005
 20
-6.800007181011049
 30
0.0
 41
1.25
 42
1.25
 43
1.25
  0
MTEXT
  5
4000
330
DF6
100
AcDbEntity
  8
AM_5
 62
     2
100
AcDbMText
 10
-19.03809005616875
 20
-5.100007181011049
 30
0.0
 40
1.9
 41
0.0
 71
     5
 72
     1
  1
33
1001
ACAD
1000
MTEXTBEGIN
1070
    73
1070
     1
1070
    44
1040
1.0
1070
    74
1070
     0
1000
MTEXTEND
  0
POINT
  5
4001
330
DF6
100
AcDbEntity
  8
DEFPOINTS
 62
     0
100
AcDbPoint
 10
-34.00000000000001
 20
-1.500000929896742
 30
0.0
  0
POINT
  5
4002
330
DF6
100
AcDbEntity
  8
DEFPOINTS
 62
     0
100
AcDbPoint
 10
-1.000000000000005
 20
-1.249999015849334
 30
0.0
  0
POINT
  5
4003
330
DF6
100
AcDbEntity
  8
DEFPOINTS
 62
     0
100
AcDbPoint
 10
-1.000000000000005
 20
-6.800007181011049
 30
0.0
  0
ENDBLK
  5
E01
330
DF6
100
AcDbEntity
  8
0
100
AcDbBlockEnd
  0
BLOCK
  5
1C7E
330
1C72
100
AcDbEntity
  8
0
100
AcDbBlockBegin
  2
*D7
 70
     1
 10
0.0
 20
0.0
 30
0.0
  3
*D7
  1

  0
LINE
  5
4004
330
1C72
100
AcDbEntity
  8
AM_5
 62
     3
100
AcDbLine
 10
-1.000000000000005
 20
-1.249999015849334
 30
0.0
 11
7.79595962215351
 21
-1.249999015849336
 31
0.0
  0
LINE
  5
4005
330
1C72
100
AcDbEntity
  8
AM_5
 62
     3
100
AcDbLine
 10
-1.000000000000015
 20
1.250000984150593
 30
0.0
 11
7.79595962215351
 21
1.25000098415059
 31
0.0
  0
LINE
  5
4006
330
1C72
100
AcDbEntity
  8
AM_5
 62
     3
100
AcDbLine
 10
7.29595962215351
 20
-2.499999015849336
 30
0.0
 11
7.29595962215351
 21
-3.749999015849336
 31
0.0
  0
LINE
  5
4007
330
1C72
100
AcDbEntity
  8
AM_5
 62
     3
100
AcDbLine
 10
7.295959622153512
 20
2.50000098415059
 30
0.0
 11
7.295959622153514
 21
10.95000098415058
 31
0.0
  0
LINE
  5
4008
330
1C72
100
AcDbEntity
  8
AM_5
 62
     3
100
AcDbLine
 10
7.295959622153511
 20
-1.249999015849336
 30
0.0
 11
7.295959622153511
 21
1.250000984150591
 31
0.0
  0
INSERT
  5
4009
330
1C72
100
AcDbEntity
  8
AM_5
 62
     3
100
AcDbBlockReference
  2
_OPEN30
 10
7.295959622153511
 20
-1.249999015849336
 30
0.0
 41
1.25
 42
1.25
 43
1.25
 50
90.0
  0
INSERT
  5
400A
330
1C72
100
AcDbEntity
  8
AM_5
 62
     3
100
AcDbBlockReference
  2
_OPEN30
 10
7.295959622153511
 20
1.250000984150591
 30
0.0
 41
1.25
 42
1.25
 43
1.25
 50
270.0
  0
MTEXT
  5
400B
330
1C72
100
AcDbEntity
  8
AM_5
 62
     2
100
AcDbMText
 10
5.595959622153512
 20
7.350000984150592
 30
0.0
 40
1.9
 41
0.0
 71
     5
 72
     1
  1
%%c2.5
 11
0.0000000000000001
 21
1.0
 31
0.0
1001
ACAD
1000
MTEXTBEGIN
1070
    73
1070
     1
1070
    44
1040
1.0
1070
    74
1070
     0
1000
MTEXTEND
  0
POINT
  5
400C
330
1C72
100
AcDbEntity
  8
DEFPOINTS
 62
     0
100
AcDbPoint
 10
-1.000000000000005
 20
-1.249999015849334
 30
0.0
  0
POINT
  5
400D
330
1C72
100
AcDbEntity
  8
DEFPOINTS
 62
     0
100
AcDbPoint
 10
-1.000000000000015
 20
1.250000984150593
 30
0.0
  0
POINT
  5
400E
330
1C72
100
AcDbEntity
  8
DEFPOINTS
 62
     0
100
AcDbPoint
 10
7.295959622153511
 20
1.250000984150591
 30
0.0
  0
ENDBLK
  5
1C7F
330
1C72
100
AcDbEntity
  8
0
100
AcDbBlockEnd
  0
BLOCK
  5
1DFC
330
1DF0
100
AcDbEntity
  8
0
100
AcDbBlockBegin
  2
*D8
 70
     1
 10
0.0
 20
0.0
 30
0.0
  3
*D8
  1

  0
LINE
  5
3FE5
330
1DF0
100
AcDbEntity
  8
AM_5
 62
     3
100
AcDbLine
 10
-81.75000000000002
 20
-1.500006181011415
 30
0.0
 11
-90.25000134152341
 21
-1.500006181011432
 31
0.0
  0
LINE
  5
3FE6
330
1DF0
100
AcDbEntity
  8
AM_5
 62
     3
100
AcDbLine
 10
-81.75000000000002
 20
1.500013847201588
 30
0.0
 11
-90.25000134152341
 21
1.500013847201572
 31
0.0
  0
LINE
  5
3FE7
330
1DF0
100
AcDbEntity
  8
AM_5
 62
     3
100
AcDbLine
 10
-89.75000134152342
 20
-2.750006181011431
 30
0.0
 11
-89.7500013415234
 21
-4.00000618101143
 31
0.0
  0
LINE
  5
3FE8
330
1DF0
100
AcDbEntity
  8
AM_5
 62
     3
100
AcDbLine
 10
-89.75000134152342
 20
2.750013847201573
 30
0.0
 11
-89.75000134152343
 21
4.000013847201573
 31
0.0
  0
LINE
  5
3FE9
330
1DF0
100
AcDbEntity
  8
AM_5
 62
     3
100
AcDbLine
 10
-89.75000134152342
 20
-1.500006181011431
 30
0.0
 11
-89.75000134152342
 21
1.500013847201573
 31
0.0
  0
INSERT
  5
3FEA
330
1DF0
100
AcDbEntity
  8
AM_5
 62
     3
100
AcDbBlockReference
  2
_OPEN30
 10
-89.75000134152342
 20
-1.500006181011431
 30
0.0
 41
1.25
 42
1.25
 43
1.25
 50
90.0000000000001
  0
INSERT
  5
3FEB
330
1DF0
100
AcDbEntity
  8
AM_5
 62
     3
100
AcDbBlockReference
  2
_OPEN30
 10
-89.75000134152342
 20
1.500013847201573
 30
0.0
 41
1.25
 42
1.25
 43
1.25
 50
270.0000000000001
  0
MTEXT
  5
3FEC
330
1DF0
100
AcDbEntity
  8
AM_5
 62
     2
100
AcDbMText
 10
-91.45000134152342
 20
0.0000038330950714
 30
0.0
 40
1.9
 41
0.0
 71
     5
 72
     1
  1
%%c3
 11
-0.000000000000002
 21
1.0
 31
0.0
1001
ACAD
1000
MTEXTBEGIN
1070
    73
1070
     1
1070
    44
1040
1.0
1070
    74
1070
     0
1000
MTEXTEND
  0
POINT
  5
3FED
330
1DF0
100
AcDbEntity
  8
DEFPOINTS
 62
     0
100
AcDbPoint
 10
-81.75000000000002
 20
-1.500006181011233
 30
0.0
  0
POINT
  5
3FEE
330
1DF0
100
AcDbEntity
  8
DEFPOINTS
 62
     0
100
AcDbPoint
 10
-81.75000000000002
 20
1.50001384720177
 30
0.0
  0
POINT
  5
3FEF
330
1DF0
100
AcDbEntity
  8
DEFPOINTS
 62
     0
100
AcDbPoint
 10
-89.75000134152342
 20
1.500013847201772
 30
0.0
  0
ENDBLK
  5
1DFD
330
1DF0
100
AcDbEntity
  8
0
100
AcDbBlockEnd
  0
BLOCK
  5
3B45
330
3B35
100
AcDbEntity
  8
0
100
AcDbBlockBegin
  2
*D9
 70
     1
 10
0.0
 20
0.0
 30
0.0
  3
*D9
  1

  0
LINE
  5
3FF0
330
3B35
100
AcDbEntity
  8
AM_5
100
AcDbLine
 10
0.1710100716628361
 20
-0.4698463103929586
 30
0.0
 11
5.090889486203935
 21
-13.98710390828409
 31
0.0
  0
LINE
  5
3FF1
330
3B35
100
AcDbEntity
  8
AM_5
100
AcDbLine
 10
0.1710100716628383
 20
0.4698463103929528
 30
0.0
 11
5.090889486204003
 21
13.98710390828407
 31
0.0
  0
ARC
  5
3FF2
330
3B35
100
AcDbEntity
  8
AM_5
100
AcDbCircle
 10
-0.0000000000000009
 20
-0.0000000000000025
 30
0.0
 40
14.38476508050691
100
AcDbArc
 50
294.9804273500255
 51
65.01957264997415
  0
INSERT
  5
3FF3
330
3B35
100
AcDbEntity
  8
AM_5
100
AcDbBlockReference
  2
_OPEN30
 10
4.919879414541099
 20
-13.51725759789114
 30
0.0
 41
1.25
 42
1.25
 43
1.25
 50
202.4902136750128
  0
INSERT
  5
3FF4
330
3B35
100
AcDbEntity
  8
AM_5
100
AcDbBlockReference
  2
_OPEN30
 10
4.919879414541164
 20
13.51725759789112
 30
0.0
 41
1.25
 42
1.25
 43
1.25
 50
157.5097863249868
  0
MTEXT
  5
3FF5
330
3B35
100
AcDbEntity
  8
AM_5
 62
     2
100
AcDbMText
 10
12.83476508050691
 20
-0.0000000000000438
 30
0.0
 40
1.6
 41
0.0
 71
     5
 72
     1
  1
140°
  7
ASAMI
 11
-0.000000000000002
 21
1.0
 31
0.0
1001
ACAD
1000
MTEXTBEGIN
1070
    73
1070
     1
1070
    44
1040
1.0
1070
    74
1070
     0
1000
MTEXTEND
  0
POINT
  5
3FF6
330
3B35
100
AcDbEntity
  8
DEFPOINTS
 62
     0
100
AcDbPoint
 10
13.20832299061035
 20
-5.697514387615452
 30
0.0
  0
POINT
  5
3FF7
330
3B35
100
AcDbEntity
  8
DEFPOINTS
 62
     0
100
AcDbPoint
 10
0.0
 20
0.0
 30
0.0
  0
POINT
  5
3FF8
330
3B35
100
AcDbEntity
  8
DEFPOINTS
 62
     0
100
AcDbPoint
 10
0.0
 20
-0.000000000000005
 30
0.0
  0
POINT
  5
3FF9
330
3B35
100
AcDbEntity
  8
DEFPOINTS
 62
     0
100
AcDbPoint
 10
-0.1975325635639735
 20
0.5427162579989941
 30
0.0
  0
POINT
  5
3FFA
330
3B35
100
AcDbEntity
  8
DEFPOINTS
 62
     0
100
AcDbPoint
 10
-0.1975325635639782
 20
-0.5427162579989974
 30
0.0
  0
ENDBLK
  5
3B46
330
3B35
100
AcDbEntity
  8
0
100
AcDbBlockEnd
  0
ENDSEC
  0
SECTION
  2
ENTITIES
  0
LINE
  5
C1D
330
1F
100
AcDbEntity
  8
AM_0
 48
0.5
100
AcDbLine
 10
0.0
 20
-0.000000000000005
 30
0.0
 11
-0.1975325635639735
 21
0.5427162579989941
 31
0.0
  0
LINE
  5
C2E
330
1F
100
AcDbEntity
  8
AM_0
 48
0.5
100
AcDbLine
 10
-81.75
 20
-1.500006181011233
 30
0.0
 11
-81.75
 21
1.50001384720177
 31
0.0
  0
LINE
  5
C30
330
1F
100
AcDbEntity
  8
AM_0
 48
0.5
100
AcDbLine
 10
-82.0
 20
-1.250006209471309
 30
0.0
 11
-82.0
 21
1.250005235204377
 31
0.0
  0
LINE
  5
C9F
330
1F
100
AcDbEntity
  8
AM_7
100
AcDbLine
 10
-82.74999999999998
 20
-0.0000000000001087
 30
0.0
 11
0.2959585652317916
 21
-0.000000000000004
 31
0.0
1001
GENIUS_GENODEF_13
1002
{
1000
HIER
1070
     0
1002
}
1002
{
1000
MANEDIT
1070
     0
1002
}
1002
{
1000
NOSEL
1070
     0
1002
}
1002
{
1000
BEHIND
1070
     0
1002
}
1002
{
1000
REACTOR
1002
}
1001
GENIUS_GENOBJ-N-CEN_13
1002
{
1000
OWNER
1000
GEN
1002
}
  0
DIMENSION
  5
CC6
330
1F
100
AcDbEntity
  8
AM_5
100
AcDbDimension
  2
*D5
 10
-1.000000000000005
 20
-13.50000718101106
 30
0.0
 11
-41.49999999999999
 21
-11.80000718101106
 31
0.0
 70
    32
  1
<>
  3
AM_JIS$0
100
AcDbAlignedDimension
 13
-81.99999999999999
 23
-1.250006209471323
 33
0.0
 14
-1.000000000000005
 24
-1.249999015849334
 34
0.0
 50
0.0000000000001132
100
AcDbRotatedDimension
1001
GENIUS_GENDTOL_13
1000

1000
h7
1000

1040
0.0
1001
ACAD
1000
DSTYLE
1002
{
1070
   271
1070
     0
1002
}
  0
DIMENSION
  5
DF5
330
1F
100
AcDbEntity
  8
AM_5
100
AcDbDimension
  2
*D6
 10
-1.000000000000005
 20
-6.800007181011049
 30
0.0
 11
-19.03809005616875
 21
-6.800007181011049
 31
0.0
 70
   160
  1
<>
  3
AM_JIS$0
100
AcDbAlignedDimension
 13
-34.00000000000001
 23
-1.500000929896742
 33
0.0
 14
-1.000000000000005
 24
-1.249999015849334
 34
0.0
 50
0.0000000000001527
100
AcDbRotatedDimension
1001
GENIUS_GENDTOL_13
1000

1000
h7
1000

1040
0.0
1001
ACAD
1000
DSTYLE
1002
{
1070
   271
1070
     0
1002
}
  0
ARC
  5
144A
330
1F
100
AcDbEntity
  8
AM_11
 48
0.5
100
AcDbCircle
 10
-24.61968231200994
 20
-6.62544693097056
 30
0.0
 40
7.325448036193749
100
AcDbArc
 50
64.74833051131179
 51
115.2516644797366
  0
ARC
  5
144B
330
1F
100
AcDbEntity
  8
AM_11
 48
0.5
100
AcDbCircle
 10
-24.61968231200994
 20
6.625451430235438
 30
0.0
 40
7.325448036193749
100
AcDbArc
 50
244.7482808787518
 51
295.2516148471758
  0
ARC
  5
144E
330
1F
100
AcDbEntity
  8
AM_11
 48
0.5
100
AcDbCircle
 10
-18.36968231200994
 20
-6.62544693097056
 30
0.0
 40
7.325448036193749
100
AcDbArc
 50
64.74833051131179
 51
115.2516644797366
  0
ARC
  5
144F
330
1F
100
AcDbEntity
  8
AM_11
 48
0.5
100
AcDbCircle
 10
-18.36968231200994
 20
6.625451430235438
 30
0.0
 40
7.325448036193749
100
AcDbArc
 50
244.7482808787518
 51
295.2516148471758
  0
ARC
  5
1450
330
1F
100
AcDbEntity
  8
AM_11
 48
0.5
100
AcDbCircle
 10
-12.11968231201169
 20
6.625451430235438
 30
0.0
 40
7.325448036193749
100
AcDbArc
 50
244.7482808787518
 51
295.2516148471758
  0
ARC
  5
1451
330
1F
100
AcDbEntity
  8
AM_11
 48
0.5
100
AcDbCircle
 10
-12.11968231201169
 20
-6.62544693097056
 30
0.0
 40
7.325448036193749
100
AcDbArc
 50
64.74833051131179
 51
115.2516644797366
  0
ARC
  5
1452
330
1F
100
AcDbEntity
  8
AM_11
 48
0.5
100
AcDbCircle
 10
-5.869682312011696
 20
-6.62544693097056
 30
0.0
 40
7.325448036193749
100
AcDbArc
 50
64.74833051131179
 51
115.2516644797366
  0
ARC
  5
1453
330
1F
100
AcDbEntity
  8
AM_11
 48
0.5
100
AcDbCircle
 10
-5.869682312011696
 20
6.625451430235438
 30
0.0
 40
7.325448036193749
100
AcDbArc
 50
244.7482808787518
 51
295.2516148471758
  0
ARC
  5
18B8
330
1F
100
AcDbEntity
  8
AM_11
 48
0.5
100
AcDbCircle
 10
-30.86968231200989
 20
6.625451430235417
 30
0.0
 40
7.325448036193749
100
AcDbArc
 50
244.7482808787518
 51
295.2516148471758
  0
ARC
  5
18B9
330
1F
100
AcDbEntity
  8
AM_11
 48
0.5
100
AcDbCircle
 10
-30.86968231200989
 20
-6.625446930970581
 30
0.0
 40
7.325448036193749
100
AcDbArc
 50
64.74833051131179
 51
115.2516644797366
  0
ARC
  5
18BA
330
1F
100
AcDbEntity
  8
AM_11
 48
0.5
100
AcDbCircle
 10
-37.11969507921031
 20
6.625457452091302
 30
0.0
 40
7.325448036193749
100
AcDbArc
 50
244.7482808787518
 51
295.2516148471758
  0
ARC
  5
18BB
330
1F
100
AcDbEntity
  8
AM_11
 48
0.5
100
AcDbCircle
 10
-37.11969507921032
 20
-6.625440909114696
 30
0.0
 40
7.325448036193749
100
AcDbArc
 50
64.74833051131179
 51
115.2516644797366
  0
TEXT
  5
19BD
330
1F
100
AcDbEntity
  8
AM_6
100
AcDbText
 10
-52.57143076693692
 20
-24.75000718101109
 30
0.0
 40
2.5
  1
MDW025DHK
 50
0.0000000000001527
 72
     4
 11
-41.50000219550835
 21
-23.50000718101106
 31
0.0
100
AcDbText
  0
LINE
  5
1B5C
330
1F
100
AcDbEntity
  8
AM_0
 48
0.5
100
AcDbLine
 10
-81.75
 20
1.500005264989071
 30
0.0
 11
-82.0
 21
1.250005235204377
 31
0.0
1001
GENIUS_GENFIL_13
1070
     0
1040
0.25
1040
0.25
1040
20.0
1040
0.0
1002
{
1002
}
1001
GENIUS_GENODEF_13
1002
{
1000
HIER
1070
     0
1002
}
1002
{
1000
MANEDIT
1070
     0
1002
}
1002
{
1000
NOSEL
1070
     0
1002
}
1002
{
1000
BEHIND
1070
     0
1002
}
1002
{
1000
REACTOR
1002
}
1001
GENIUS_GENOBJ-N-CHA_13
1002
{
1000
OWNER
1000
GEN
1002
}
  0
LINE
  5
1B60
330
1F
100
AcDbEntity
  8
AM_0
 48
0.5
100
AcDbLine
 10
-82.0
 20
-1.250006209471309
 30
0.0
 11
-81.75
 21
-1.500006181011233
 31
0.0
1001
GENIUS_GENFIL_13
1070
     0
1040
0.25
1040
0.25
1040
20.0
1040
0.0
1002
{
1002
}
1001
GENIUS_GENODEF_13
1002
{
1000
HIER
1070
     0
1002
}
1002
{
1000
MANEDIT
1070
     0
1002
}
1002
{
1000
NOSEL
1070
     0
1002
}
1002
{
1000
BEHIND
1070
     0
1002
}
1002
{
1000
REACTOR
1002
}
1001
GENIUS_GENOBJ-N-CHA_13
1002
{
1000
OWNER
1000
GEN
1002
}
  0
LINE
  5
1C15
330
1F
100
AcDbEntity
  8
AM_0
 48
0.5
100
AcDbLine
 10
-34.00000000000001
 20
-1.500000929896742
 30
0.0
 11
-34.00000000000002
 21
1.500010760506356
 31
0.0
  0
LINE
  5
1C1A
330
1F
100
AcDbEntity
  8
AM_0
 48
0.5
100
AcDbLine
 10
-34.00000000000002
 20
1.500010760506356
 30
0.0
 11
-81.75
 21
1.500005264989071
 31
0.0
  0
LINE
  5
1C1E
330
1F
100
AcDbEntity
  8
AM_0
 48
0.5
100
AcDbLine
 10
-34.00000000000001
 20
-1.500000929896742
 30
0.0
 11
-81.75
 21
-1.500006181011233
 31
0.0
  0
ARC
  5
1C22
330
1F
100
AcDbEntity
  8
AM_11
 48
0.5
100
AcDbCircle
 10
-49.61969507914652
 20
6.625457452091288
 30
0.0
 40
7.325448036193749
100
AcDbArc
 50
244.7482808787518
 51
295.2516148471758
  0
ARC
  5
1C23
330
1F
100
AcDbEntity
  8
AM_11
 48
0.5
100
AcDbCircle
 10
-49.61969507914653
 20
-6.62544090911471
 30
0.0
 40
7.325448036193749
100
AcDbArc
 50
64.74833051131179
 51
115.2516644797366
  0
ARC
  5
1C24
330
1F
100
AcDbEntity
  8
AM_11
 48
0.5
100
AcDbCircle
 10
-43.36968231194609
 20
6.625451430235402
 30
0.0
 40
7.325448036193749
100
AcDbArc
 50
244.7482808787518
 51
295.2516148471758
  0
ARC
  5
1C25
330
1F
100
AcDbEntity
  8
AM_11
 48
0.5
100
AcDbCircle
 10
-43.3696823119461
 20
-6.625446930970595
 30
0.0
 40
7.325448036193749
100
AcDbArc
 50
64.74833051131179
 51
115.2516644797366
  0
ARC
  5
1C26
330
1F
100
AcDbEntity
  8
AM_11
 48
0.5
100
AcDbCircle
 10
-62.11969507908264
 20
6.625457452091234
 30
0.0
 40
7.325448036193749
100
AcDbArc
 50
244.7482808787518
 51
295.2516148471758
  0
ARC
  5
1C27
330
1F
100
AcDbEntity
  8
AM_11
 48
0.5
100
AcDbCircle
 10
-62.11969507908265
 20
-6.625440909114765
 30
0.0
 40
7.325448036193749
100
AcDbArc
 50
64.74833051131179
 51
115.2516644797366
  0
ARC
  5
1C28
330
1F
100
AcDbEntity
  8
AM_11
 48
0.5
100
AcDbCircle
 10
-55.86968231188222
 20
6.625451430235348
 30
0.0
 40
7.325448036193749
100
AcDbArc
 50
244.7482808787518
 51
295.2516148471758
  0
ARC
  5
1C29
330
1F
100
AcDbEntity
  8
AM_11
 48
0.5
100
AcDbCircle
 10
-55.86968231188222
 20
-6.62544693097065
 30
0.0
 40
7.325448036193749
100
AcDbArc
 50
64.74833051131179
 51
115.2516644797366
  0
DIMENSION
  5
1C71
330
1F
100
AcDbEntity
  8
AM_5
100
AcDbDimension
  2
*D7
 10
7.295959622153511
 20
1.250000984150591
 30
0.0
 11
7.295959622153512
 21
7.350000984150591
 31
0.0
 70
   160
  1
%%c<>
  3
AM_JIS$0
100
AcDbAlignedDimension
 13
-1.000000000000005
 23
-1.249999015849334
 33
0.0
 14
-1.000000000000015
 24
1.250000984150593
 34
0.0
 50
89.99999999999991
100
AcDbRotatedDimension
1001
ACAD
1000
DSTYLE
1002
{
1070
   271
1070
     1
1002
}
1001
GENIUS_GENDTOL_13
1000

1000
h7
1000

1040
0.0
  0
LINE
  5
1C85
330
1F
100
AcDbEntity
  8
AM_0
 48
0.5
100
AcDbLine
 10
-0.8537553006442674
 20
1.160372922528603
 30
0.0
 11
-1.000000000000015
 21
1.250000984150593
 31
0.0
  0
ELLIPSE
  5
1C86
330
1F
100
AcDbEntity
  8
AM_0
 48
0.5
100
AcDbEllipse
 10
0.6317511383625778
 20
2.55920543583198
 30
0.0
 11
0.2303491065851743
 21
2.204766891614971
 31
0.0
210
0.0
220
0.0
230
1.0
 40
0.8383002011722076
 41
2.340506699735703
 42
2.804141823834006
  0
LINE
  5
1CF2
330
1F
100
AcDbEntity
  8
AM_0
100
AcDbLine
 10
-34.00000000000001
 20
-1.500000929896742
 30
0.0
 11
-33.56698398287517
 21
-1.24999901584629
 31
0.0
  0
LINE
  5
1CF3
330
1F
100
AcDbEntity
  8
AM_0
100
AcDbLine
 10
-34.00000000000002
 20
1.500010760506356
 30
0.0
 11
-33.56719788815345
 21
1.25013234472591
 31
0.0
  0
LINE
  5
1CF4
330
1F
100
AcDbEntity
  8
AM_0
100
AcDbLine
 10
-33.56719788815346
 20
1.250132344725912
 30
0.0
 11
-33.56698398287517
 21
-1.24999901584629
 31
0.0
  0
DIMENSION
  5
1DEF
330
1F
100
AcDbEntity
  8
AM_5
100
AcDbDimension
  2
*D8
 10
-89.75000134152342
 20
1.500013847201772
 30
0.0
 11
-89.75000134152342
 21
0.000003833095256
 31
0.0
 70
   160
  1
%%c<>
 51
359.9999999999998
  3
AM_JIS$0
100
AcDbAlignedDimension
 13
-81.75000000000002
 23
-1.500006181011233
 33
0.0
 14
-81.75000000000002
 24
1.50001384720177
 34
0.0
 50
270.0000065225689
100
AcDbRotatedDimension
1001
ACAD
1000
DSTYLE
1002
{
1070
   271
1070
     0
1002
}
1001
GENIUS_GENDTOL_13
1000

1000
h7
1000

1040
0.0
  0
ELLIPSE
  5
2C98
330
1F
100
AcDbEntity
  8
AM_11
 48
0.5
100
AcDbEllipse
 10
0.3803176879883358
 20
5.928035555357016
 30
0.0
 11
-7.325448036193943
 21
0.0000000000006641
 31
0.0
210
0.0
220
0.0
230
1.0
 40
0.8947368421052424
 41
1.130070686340396
 42
1.291800737381081
  0
LINE
  5
2D2A
330
1F
100
AcDbEntity
  8
AM_0
 48
0.5
100
AcDbLine
 10
0.0000000000000001
 20
-0.0000000000000023
 30
0.0
 11
-1.463737312701019
 21
0.3948044357132825
 31
0.0
  0
SPLINE
  5
2D48
330
1F
100
AcDbEntity
  8
AM_0
 48
0.5
100
AcDbSpline
210
0.0
220
0.0
230
1.0
 70
     8
 71
     3
 72
    10
 73
     6
 74
     0
 42
0.0000000001
 43
0.0000000001
 40
0.0
 40
0.0
 40
0.0
 40
0.0
 40
2.69986029516136
 40
4.147722969032201
 40
6.285750005020438
 40
6.285750005020438
 40
6.285750005020438
 40
6.285750005020438
 10
-3.186039499338535
 20
0.573627753736238
 30
0.0
 10
-2.547912425278348
 20
0.0249521581894576
 30
0.0
 10
-2.136575889233603
 20
-0.1534608353324826
 30
0.0
 10
-1.16382023731918
 20
-0.0670879796365591
 30
0.0
 10
-1.347018420917257
 20
0.2238272271772848
 30
0.0
 10
-1.46806407562725
 20
0.4011490056775305
 30
0.0
  0
ELLIPSE
  5
2D49
330
1F
100
AcDbEntity
  8
AM_0
 48
0.5
100
AcDbEllipse
 10
0.7492702397030204
 20
1.500702888447527
 30
0.0
 11
4.069474939296682
 21
0.4958975844582587
 31
0.0
210
0.0
220
0.0
230
0.9999999999999998
 40
0.5477528270938295
 41
3.340737328821044
 42
4.019909230761381
  0
ELLIPSE
  5
2D4A
330
1F
100
AcDbEntity
  8
AM_0
 48
0.5
100
AcDbEllipse
 10
-0.3406275210472143
 20
-0.401443899073933
 30
0.0
 11
-1.312955080532757
 21
0.0327274594549407
 31
0.0
210
0.0
220
0.0
230
1.0
 40
0.7532581993655642
 41
0.164929745224812
 42
1.063525944876084
  0
ELLIPSE
  5
2D4B
330
1F
100
AcDbEntity
  8
AM_0
 48
0.5
100
AcDbEllipse
 10
-0.6812821104059675
 20
-0.2517877167972837
 30
0.0
 11
-0.1391756280942112
 21
0.1758380815607442
 31
0.0
210
0.0
220
0.0
230
1.0
 40
0.7705910092763734
 41
1.346113611091114
 42
4.481455500803088
  0
ELLIPSE
  5
2D4C
330
1F
100
AcDbEntity
  8
AM_0
 48
0.5
100
AcDbEllipse
 10
-0.6812821104059675
 20
-0.2517877167972837
 30
0.0
 11
-0.3342097052175921
 21
0.0842818707209159
 31
0.0
210
0.0
220
0.0
230
1.0
 40
0.3262019338085742
 41
4.284880031841795
 42
7.428320373171306
  0
ELLIPSE
  5
2D4D
330
1F
100
AcDbEntity
  8
AM_0
 48
0.5
100
AcDbEllipse
 10
-3.863947871450134
 20
2.097954090337832
 30
0.0
 11
-4.895714190165663
 21
1.024943239808077
 31
0.0
210
0.0
220
0.0
230
1.0
 40
0.4676417335767412
 41
2.416497005983218
 42
2.571885057488811
  0
ELLIPSE
  5
2D4E
330
1F
100
AcDbEntity
  8
AM_0
 48
0.5
100
AcDbEllipse
 10
-1.137586059475811
 20
-1.413265132804477
 30
0.0
 11
1.928451208308546
 21
0.6308420777393499
 31
0.0
210
0.0
220
0.0
230
1.0
 40
0.4924568352206255
 41
1.260369111256358
 42
1.671110318800765
  0
ARC
  5
314F
330
1F
100
AcDbEntity
  8
AM_11
 48
0.5
100
AcDbCircle
 10
-68.36968231181839
 20
-6.625446930970684
 30
0.0
 40
7.325448036193749
100
AcDbArc
 50
64.74833051131179
 51
115.2516644797366
  0
ARC
  5
3152
330
1F
100
AcDbEntity
  8
AM_11
 48
0.5
100
AcDbCircle
 10
-68.36968231181838
 20
6.625451430235314
 30
0.0
 40
7.325448036193749
100
AcDbArc
 50
244.7482808787518
 51
295.2516148471758
  0
LINE
  5
37ED
330
1F
100
AcDbEntity
  8
AM_0
 48
0.5
100
AcDbLine
 10
0.0
 20
0.0
 30
0.0
 11
-0.1975325635639782
 21
-0.5427162579989974
 31
0.0
  0
ARC
  5
3A44
330
1F
100
AcDbEntity
  8
AM_11
 48
0.5
100
AcDbCircle
 10
-80.86968231175456
 20
6.625451430235279
 30
0.0
 40
7.325448036193749
100
AcDbArc
 50
244.7482808787518
 51
244.7483500411031
  0
ARC
  5
3A45
330
1F
100
AcDbEntity
  8
AM_11
 48
0.5
100
AcDbCircle
 10
-80.86968231175456
 20
-6.625446930970719
 30
0.0
 40
7.325448036193749
100
AcDbArc
 50
64.74833051131179
 51
98.87620917737255
  0
ARC
  5
3A46
330
1F
100
AcDbEntity
  8
AM_11
 48
0.5
100
AcDbCircle
 10
-74.61969507901881
 20
6.625457452091199
 30
0.0
 40
7.325448036193749
100
AcDbArc
 50
244.7482808787518
 51
295.2516148471758
  0
ARC
  5
3A47
330
1F
100
AcDbEntity
  8
AM_11
 48
0.5
100
AcDbCircle
 10
-74.61969507901883
 20
-6.625440909114799
 30
0.0
 40
7.325448036193749
100
AcDbArc
 50
64.74833051131179
 51
115.2516644797366
  0
ARC
  5
3A48
330
1F
100
AcDbEntity
  8
AM_11
 48
0.5
100
AcDbCircle
 10
-80.86968231175456
 20
6.625451430235279
 30
0.0
 40
7.325448036193749
100
AcDbArc
 50
261.1237908226274
 51
295.2516148471758
  0
ELLIPSE
  5
3AC1
330
1F
100
AcDbEntity
  8
AM_0
 48
0.5
100
AcDbEllipse
 10
0.6317511383625842
 20
-2.559205435831987
 30
0.0
 11
0.2303491065851799
 21
-2.20476689161497
 31
0.0
210
0.0
220
0.0
230
-1.0
 40
0.8383002011722076
 41
2.340506699735703
 42
2.804141823834006
  0
LINE
  5
3AC2
330
1F
100
AcDbEntity
  8
AM_0
 48
0.5
100
AcDbLine
 10
-0.8537553006442644
 20
-1.160372922528614
 30
0.0
 11
-1.000000000000001
 21
-1.249999015849332
 31
0.0
  0
DIMENSION
  5
3B34
330
1F
100
AcDbEntity
  8
AM_5
100
AcDbDimension
  2
*D9
 10
-0.1975325635639782
 20
-0.5427162579989974
 30
0.0
 11
12.83476508050691
 21
-0.0000000000000718
 31
0.0
 70
    34
  1
<>
 51
359.9999999999998
  3
AM_JIS$2
100
AcDb2LineAngularDimension
 13
0.0
 23
-0.000000000000005
 33
0.0
 14
-0.1975325635639735
 24
0.5427162579989941
 34
0.0
 15
0.0
 25
0.0
 35
0.0
 16
13.20832299061035
 26
-5.697514387615452
 36
0.0
1001
ACAD
1000
DSTYLE
1002
{
1070
   179
1070
     3
1002
}
1001
GENIUS_GENDTOL_13
1000

1000
h7
1000

1040
0.0
  0
LINE
  5
3E00
330
1F
100
AcDbEntity
  8
AM_0
 48
0.5
100
AcDbLine
 10
-2.694392614848819
 20
-1.249999015849262
 30
0.0
 11
-1.000000000000005
 21
-1.249999015849334
 31
0.0
  0
LINE
  5
3E01
330
1F
100
AcDbEntity
  8
AM_0
100
AcDbLine
 10
-1.000000000000015
 20
1.250000984150593
 30
0.0
 11
-2.032174060676231
 21
1.250000984150727
 31
0.0
  0
LINE
  5
3E02
330
1F
100
AcDbEntity
  8
AM_0
 48
0.5
100
AcDbLine
 10
-11.7902314767606
 20
-1.249999015848994
 30
0.0
 11
-7.16805681450857
 21
-1.24999901584911
 31
0.0
  0
LINE
  5
3E03
330
1F
100
AcDbEntity
  8
AM_11
 48
0.5
100
AcDbLine
 10
-16.98459405967641
 20
-1.249999015848834
 30
0.0
 11
-11.7902314767606
 21
-1.250176601034138
 31
0.0
  0
LINE
  5
3E04
330
1F
100
AcDbEntity
  8
AM_11
 48
0.5
100
AcDbLine
 10
-27.65552324581909
 20
-1.249999015848618
 30
0.0
 11
-23.10710844876203
 21
-1.249934453409917
 31
0.0
  0
LINE
  5
3E05
330
1F
100
AcDbEntity
  8
AM_0
100
AcDbLine
 10
-27.65552324581909
 20
-1.249999015848618
 30
0.0
 11
-33.56698398287902
 21
-1.249999015848513
 31
0.0
  0
LINE
  5
3E06
330
1F
100
AcDbEntity
  8
AM_0
 48
0.5
100
AcDbLine
 10
-23.10710844876203
 20
-1.249934453409917
 30
0.0
 11
-16.98459405967745
 21
-1.249999015848809
 31
0.0
  0
LINE
  5
3E07
330
1F
100
AcDbEntity
  8
AM_11
 48
0.5
100
AcDbLine
 10
-7.168056049207872
 20
-1.249999015849106
 30
0.0
 11
-2.694392614848775
 21
-1.24999901584927
 31
0.0
  0
SPLINE
  5
3E08
330
1F
100
AcDbEntity
  8
AM_0
100
AcDbSpline
210
0.0
220
0.0
230
1.0
 70
     8
 71
     3
 72
    17
 73
    13
 74
     0
 42
0.0000000001
 43
0.0000000001
 40
1.580019955310467
 40
1.580019955310467
 40
1.580019955310467
 40
1.580019955310467
 40
2.030549285115227
 40
3.082371838836284
 40
4.126290986361125
 40
5.162752068350215
 40
6.192395305374981
 40
7.216039564037012
 40
8.234688489606833
 40
9.249433870634691
 40
10.26152376260694
 40
11.27226744710342
 40
11.27226744710342
 40
11.27226744710342
 40
11.27226744710352
 10
-4.570672892522255
 20
-0.9225358240871404
 30
0.0
 10
-4.609686484120347
 20
-0.9320371868257019
 30
0.0
 10
-4.740004987149869
 20
-0.9631791722897414
 30
0.0
 10
-4.962490989457565
 20
-1.012026490769659
 30
0.0
 10
-5.238072816667836
 20
-1.066729007427112
 30
0.0
 10
-5.513730511297124
 20
-1.114750554109221
 30
0.0
 10
-5.789400836465754
 20
-1.155929863669229
 30
0.0
 10
-6.065101195422244
 20
-1.189967395820733
 30
0.0
 10
-6.340820601725405
 20
-1.216668913376217
 30
0.0
 10
-6.616557176525919
 20
-1.235861381567486
 30
0.0
 10
-6.892304126388642
 20
-1.247421256247937
 30
0.0
 10
-7.076180043743796
 20
-1.249999023001678
 30
0.0
 10
-7.168056814508546
 20
-1.24999901584911
 30
0.0
  0
SPLINE
  5
3E09
330
1F
100
AcDbEntity
  8
AM_0
100
AcDbSpline
210
0.0
220
0.0
230
1.0
 70
     8
 71
     3
 72
    11
 73
     7
 74
     0
 42
0.0000000001
 43
0.0000000001
 40
11.27226913003534
 40
11.27226913003534
 40
11.27226913003534
 40
11.2722691300354
 40
12.28301561507924
 40
13.29510212255852
 40
14.30984805882082
 40
15.18258238371378
 40
15.18258238371378
 40
15.18258238371378
 40
15.18258238371378
 10
-7.168056814508561
 20
-1.24999901584911
 30
0.0
 10
-7.259584224558933
 20
-1.243881152601479
 30
0.0
 10
-7.442466406559764
 20
-1.229070071939247
 30
0.0
 10
-7.715845310067308
 20
-1.19919245873141
 30
0.0
 10
-7.975286709916666
 20
-1.163506925707176
 30
0.0
 10
-8.143078178434585
 20
-1.136074394401854
 30
0.0
 10
-8.220401264985333
 20
-1.122523481650843
 30
0.0
  0
SPLINE
  5
3E0A
330
1F
100
AcDbEntity
  8
AM_0
100
AcDbSpline
210
0.0
220
0.0
230
1.0
 70
     8
 71
     3
 72
    22
 73
    18
 74
     0
 42
0.0000000001
 43
0.0000000001
 40
17.17441611292
 40
17.17441611292
 40
17.17441611292
 40
17.17441611292
 40
17.38177636558528
 40
18.41823744757437
 40
19.46215659509824
 40
20.51397914882054
 40
21.57394542641293
 40
22.64209583141747
 40
23.71826625065247
 40
24.80210429862395
 40
25.8930771157021
 40
26.99048705697709
 40
28.09349309193389
 40
29.20112995599786
 40
30.31233024745139
 40
31.42594771747373
 40
32.5407895042663
 40
32.54078950426994
 40
32.54078950426994
 40
32.54078950426994
 10
-8.220521858633398
 20
-1.122508062910401
 30
0.0
 10
-8.238986267499491
 20
-1.119614435512612
 30
0.0
 10
-8.349670314650731
 20
-1.101989034751414
 30
0.0
 10
-8.552437252010573
 20
-1.066647812228227
 30
0.0
 10
-8.82805744492108
 20
-1.012029292772739
 30
0.0
 10
-9.103649552712491
 20
-0.9511736854027681
 30
0.0
 10
-9.37921552104963
 20
-0.8844608659088512
 30
0.0
 10
-9.654754985929026
 20
-0.81229988251063
 30
0.0
 10
-9.930271338921976
 20
-0.7351398263529917
 30
0.0
 10
-10.20576585574664
 20
-0.6534548983147799
 30
0.0
 10
-10.48124108538241
 20
-0.567748844871389
 30
0.0
 10
-10.75670009093919
 20
-0.4785504180854451
 30
0.0
 10
-11.03214526323492
 20
-0.3864081017806821
 30
0.0
 10
-11.30757937507064
 20
-0.2918887710571876
 30
0.0
 10
-11.58300486792999
 20
-0.1955736128091815
 30
0.0
 10
-11.85842582200213
 20
-0.0980569436221671
 30
0.0
 10
-12.04200375016023
 20
-0.0326545821343807
 30
0.0
 10
-12.13384314441783
 20
0.0000645624389616
 30
0.0
  0
SPLINE
  5
3E0B
330
1F
100
AcDbEntity
  8
AM_0
100
AcDbSpline
210
0.0
220
0.0
230
1.0
 70
     8
 71
     3
 72
    17
 73
    13
 74
     0
 42
0.0000000001
 43
0.0000000001
 40
1.580019955310467
 40
1.580019955310467
 40
1.580019955310467
 40
1.580019955310467
 40
2.030549285115227
 40
3.082371838836284
 40
4.126290986361125
 40
5.162752068350215
 40
6.192395305374981
 40
7.216039564037012
 40
8.234688489606833
 40
9.249433870634691
 40
10.26152376260694
 40
11.27226744710342
 40
11.27226744710342
 40
11.27226744710342
 40
11.27226744710352
 10
-14.38721013769077
 20
-0.9225358240868651
 30
0.0
 10
-14.42622372928886
 20
-0.9320371868254275
 30
0.0
 10
-14.55654223231838
 20
-0.9631791722894668
 30
0.0
 10
-14.77902823462607
 20
-1.012026490769384
 30
0.0
 10
-15.05461006183634
 20
-1.066729007426838
 30
0.0
 10
-15.33026775646563
 20
-1.114750554108946
 30
0.0
 10
-15.60593808163426
 20
-1.155929863668955
 30
0.0
 10
-15.88163844059075
 20
-1.189967395820457
 30
0.0
 10
-16.15735784689391
 20
-1.216668913375943
 30
0.0
 10
-16.43309442169442
 20
-1.235861381567212
 30
0.0
 10
-16.70884137155714
 20
-1.247421256247662
 30
0.0
 10
-16.89271728891229
 20
-1.249999023001404
 30
0.0
 10
-16.98459405967705
 20
-1.249999015848835
 30
0.0
  0
SPLINE
  5
3E0C
330
1F
100
AcDbEntity
  8
AM_0
100
AcDbSpline
210
0.0
220
0.0
230
1.0
 70
     8
 71
     3
 72
    22
 73
    18
 74
     0
 42
0.0000000001
 43
0.0000000001
 40
17.17441611292
 40
17.17441611292
 40
17.17441611292
 40
17.17441611292
 40
17.38177636558528
 40
18.41823744757437
 40
19.46215659509824
 40
20.51397914882054
 40
21.57394542641293
 40
22.64209583141747
 40
23.71826625065247
 40
24.80210429862395
 40
25.8930771157021
 40
26.99048705697709
 40
28.09349309193389
 40
29.20112995599786
 40
30.31233024745139
 40
31.42594771747373
 40
32.5407895042663
 40
32.54078950426994
 40
32.54078950426994
 40
32.54078950426994
 10
-18.03705910380192
 20
-1.122508062910126
 30
0.0
 10
-18.05552351266801
 20
-1.119614435512338
 30
0.0
 10
-18.16620755981925
 20
-1.10198903475114
 30
0.0
 10
-18.36897449717909
 20
-1.066647812227953
 30
0.0
 10
-18.6445946900896
 20
-1.012029292772465
 30
0.0
 10
-18.920186797881
 20
-0.9511736854024926
 30
0.0
 10
-19.19575276621813
 20
-0.8844608659085768
 30
0.0
 10
-19.47129223109752
 20
-0.8122998825103548
 30
0.0
 10
-19.74680858409046
 20
-0.7351398263527171
 30
0.0
 10
-20.02230310091512
 20
-0.6534548983145049
 30
0.0
 10
-20.29777833055089
 20
-0.5677488448711148
 30
0.0
 10
-20.57323733610767
 20
-0.4785504180851704
 30
0.0
 10
-20.84868250840342
 20
-0.3864081017804075
 30
0.0
 10
-21.12411662023914
 20
-0.2918887710569132
 30
0.0
 10
-21.3995421130985
 20
-0.1955736128089072
 30
0.0
 10
-21.67496306717064
 20
-0.0980569436218927
 30
0.0
 10
-21.85854099532874
 20
-0.0326545821341062
 30
0.0
 10
-21.95038038958633
 20
0.0000645624392361
 30
0.0
  0
SPLINE
  5
3E0D
330
1F
100
AcDbEntity
  8
AM_0
100
AcDbSpline
210
0.0
220
0.0
230
1.0
 70
     8
 71
     3
 72
    11
 73
     7
 74
     0
 42
0.0000000001
 43
0.0000000001
 40
11.27226913003534
 40
11.27226913003534
 40
11.27226913003534
 40
11.2722691300354
 40
12.28301561507924
 40
13.29510212255852
 40
14.30984805882082
 40
15.18258238371378
 40
15.18258238371378
 40
15.18258238371378
 40
15.18258238371378
 10
-16.98459405967706
 20
-1.249999015848835
 30
0.0
 10
-17.07612146972744
 20
-1.243881152601205
 30
0.0
 10
-17.25900365172826
 20
-1.229070071938972
 30
0.0
 10
-17.53238255523581
 20
-1.199192458731136
 30
0.0
 10
-17.79182395508517
 20
-1.163506925706901
 30
0.0
 10
-17.9596154236031
 20
-1.136074394401579
 30
0.0
 10
-18.03693851015385
 20
-1.122523481650568
 30
0.0
  0
LINE
  5
3E0E
330
1F
100
AcDbEntity
  8
AM_11
 48
0.5
100
AcDbLine
 10
-16.31129650913538
 20
1.250178569336316
 30
0.0
 11
-12.9964534524643
 21
1.250000984151067
 31
0.0
  0
LINE
  5
3E0F
330
1F
100
AcDbEntity
  8
AM_0
 48
0.5
100
AcDbLine
 10
-12.99645792633824
 20
1.250000984151067
 30
0.0
 11
-7.168056814508487
 21
1.250000984150889
 31
0.0
  0
LINE
  5
3E10
330
1F
100
AcDbEntity
  8
AM_11
 48
0.5
100
AcDbLine
 10
-26.38191956983726
 20
1.250000984151357
 30
0.0
 11
-22.81303303485633
 21
1.250000984151342
 31
0.0
  0
LINE
  5
3E12
330
1F
100
AcDbEntity
  8
AM_0
100
AcDbLine
 10
-22.81303303485633
 20
1.250000984151342
 30
0.0
 11
-16.31129650913538
 21
1.250178569336316
 31
0.0
  0
LINE
  5
3E13
330
1F
100
AcDbEntity
  8
AM_11
 48
0.5
100
AcDbLine
 10
-7.168056814502432
 20
1.250000984150848
 30
0.0
 11
-1.973694231593393
 21
1.250000984150719
 31
0.0
  0
SPLINE
  5
3E14
330
1F
100
AcDbEntity
  8
AM_0
 48
0.5
100
AcDbSpline
210
0.0
220
0.0
230
1.0
 70
     8
 71
     3
 72
    17
 73
    13
 74
     0
 42
0.0000000001
 43
0.0000000001
 40
0.0
 40
0.0
 40
0.0
 40
0.0
 40
1.010743614677189
 40
2.022833924044153
 40
3.037578959561199
 40
4.056212747067873
 40
5.079857613375832
 40
6.109500119648989
 40
7.14596120163808
 40
8.18989512056258
 40
9.241717674284874
 40
9.693948937866434
 40
9.693948937866434
 40
9.693948937866434
 40
9.693948937866434
 10
-1.97369423159202
 20
1.25000098415073
 30
0.0
 10
-2.065571020289376
 20
1.249257800394426
 30
0.0
 10
-2.249447012490049
 20
1.247770442678572
 30
0.0
 10
-2.525193735897378
 20
1.235768742713967
 30
0.0
 10
-2.800929106972165
 20
1.21669641334889
 30
0.0
 10
-3.076647329653458
 20
1.189962936376941
 30
0.0
 10
-3.352345120217107
 20
1.155930879108792
 30
0.0
 10
-3.628019111287136
 20
1.114758026341515
 30
0.0
 10
-3.903665602855271
 20
1.066709421344713
 30
0.0
 10
-4.179295291111859
 20
1.012108539701667
 30
0.0
 10
-4.401790762868798
 20
0.9629213988948311
 30
0.0
 10
-4.532453149034213
 20
0.9321723624702094
 30
0.0
 10
-4.571670987237393
 20
0.9227602882637169
 30
0.0
  0
SPLINE
  5
3E15
330
1F
100
AcDbEntity
  8
AM_0
100
AcDbSpline
210
0.0
220
0.0
230
1.0
 70
     8
 71
     3
 72
    52
 73
    48
 74
     0
 42
0.0000000001
 43
0.0000000001
 40
3.537595802313026
 40
3.537595802313026
 40
3.537595802313026
 40
3.537595802313026
 40
4.056212745003489
 40
5.079857003664532
 40
6.109500240690281
 40
7.145961322679372
 40
8.189895241603872
 40
9.241717795325891
 40
10.30168407291828
 40
11.36983447792315
 40
12.44600489715814
 40
13.52984294512926
 40
14.62081576220742
 40
15.7182257034828
 40
16.82123173843959
 40
17.92886860250316
 40
19.0400688939571
 40
20.15368796660465
 40
21.26852814259644
 40
22.38336992938901
 40
23.49698739941135
 40
24.6081876908653
 40
25.71582455492886
 40
26.81883757994213
 40
27.91624752121713
 40
29.00722033829659
 40
30.09105838626677
 40
31.16722880550176
 40
32.23537921050758
 40
33.29534548809967
 40
34.347168041821
 40
35.39108718934584
 40
36.42754827133493
 40
37.45720575381954
 40
38.48085062012849
 40
39.49948440763516
 40
40.51422944315121
 40
41.52631975251916
 40
42.53706336719636
 40
43.54780698187354
 40
44.55989729124051
 40
45.57464232675757
 40
46.59327611426424
 40
47.6169209805722
 40
48.64656348684535
 40
49.68302456883444
 40
50.58557219878025
 40
50.58557219878025
 40
50.58557219878025
 40
50.58557219878025
 10
-2.694392614848775
 20
-1.24999901584927
 30
0.0
 10
-2.982591058489263
 20
-1.217071678090139
 30
0.0
 10
-3.12152261099733
 20
-1.184421576728813
 30
0.0
 10
-3.352345481926943
 20
-1.155930465065464
 30
0.0
 10
-3.62801852976123
 20
-1.114754793262691
 30
0.0
 10
-3.903667244264853
 20
-1.066711035277146
 30
0.0
 10
-4.179289180990791
 20
-1.012093388095555
 30
0.0
 10
-4.454882462451332
 20
-0.9512372007582905
 30
0.0
 10
-4.730448462326628
 20
-0.8845244612624865
 30
0.0
 10
-5.005987918637385
 20
-0.8123634561473782
 30
0.0
 10
-5.281504274028392
 20
-0.7352034059999557
 30
0.0
 10
-5.556998789916158
 20
-0.6535184758604019
 30
0.0
 10
-5.832474020889123
 20
-0.567812424771685
 30
0.0
 10
-6.107933022004866
 20
-0.478613990625436
 30
0.0
 10
-6.383378210838662
 20
-0.386471701588775
 30
0.0
 10
-6.658812260617442
 20
-0.291952268583512
 30
0.0
 10
-6.934238118602577
 20
-0.1956374474903258
 30
0.0
 10
-7.209658200541047
 20
-0.0981193422473734
 30
0.0
 10
-7.485076395791009
 20
0.0000007291054922
 30
0.0
 10
-7.76049335464372
 20
0.098122566680791
 30
0.0
 10
-8.03591435973027
 20
0.1956391533089038
 30
0.0
 10
-8.3113398776985
 20
0.2919542659415705
 30
0.0
 10
-8.586774418573133
 20
0.3864740590237435
 30
0.0
 10
-8.8622207500857
 20
0.4786155617019299
 30
0.0
 10
-9.137680185948529
 20
0.5678144482083484
 30
0.0
 10
-9.413155456690947
 20
0.6535204297982953
 30
0.0
 10
-9.688649962554352
 20
0.7352053771158826
 30
0.0
 10
-9.96416631865085
 20
0.8123654273761758
 30
0.0
 10
-10.23970578197981
 20
0.8845264152364975
 30
0.0
 10
-10.51527175341369
 20
0.9512392228521472
 30
0.0
 10
-10.79086385047554
 20
1.012094872830058
 30
0.0
 10
-11.06648408279815
 20
1.066713235366557
 30
0.0
 10
-11.34213269505041
 20
1.114757959451636
 30
0.0
 10
-11.61780771128265
 20
1.155928928421108
 30
0.0
 10
-11.893506925391
 20
1.189969673109473
 30
0.0
 10
-12.16922512693894
 20
1.216671408591481
 30
0.0
 10
-12.44496050364175
 20
1.235861588396836
 30
0.0
 10
-12.72070722555267
 20
1.247425090284377
 30
0.0
 10
-12.99646000683057
 20
1.251288073639702
 30
0.0
 10
-13.27221278770273
 20
1.247425090278337
 30
0.0
 10
-13.5479595108332
 20
1.235861588421164
 30
0.0
 10
-13.82369488304594
 20
1.216671408499955
 30
0.0
 10
-14.09941310142822
 20
1.189969673453632
 30
0.0
 10
-14.37511090816369
 20
1.155929093081389
 30
0.0
 10
-14.6507848383413
 20
1.114758380402633
 30
0.0
 10
-14.91390030639943
 20
1.068894161667119
 30
0.0
 10
-15.08461261851966
 20
1.035353224920487
 30
0.0
 10
-15.16381318151027
 20
1.019007090218423
 30
0.0
  0
SPLINE
  5
3E16
330
1F
100
AcDbEntity
  8
AM_0
100
AcDbSpline
210
0.0
220
0.0
230
1.0
 70
     8
 71
     3
 72
    23
 73
    19
 74
     0
 42
0.0000000001
 43
0.0000000001
 40
16.03460024169435
 40
16.03460024169435
 40
16.03460024169435
 40
16.03460024169435
 40
16.35212704903564
 40
17.38177054169784
 40
18.41822485651776
 40
19.46214173629503
 40
20.51396345435107
 40
21.57393551351153
 40
22.64208202342361
 40
23.7182574881101
 40
24.80209208578934
 40
25.89306333925047
 40
26.99048218457928
 40
28.09348763352352
 40
29.20111863782268
 40
30.31232390128032
 40
31.42594612798585
 40
32.5407912310448
 40
32.5407912310486
 40
32.5407912310486
 40
32.5407912310486
 10
-16.31129650913538
 20
1.250178569336316
 30
0.0
 10
-16.28296689823282
 20
1.245958789460835
 30
0.0
 10
-16.16289355874856
 20
1.227582835786163
 30
0.0
 10
-15.95138307814576
 20
1.191577959084726
 30
0.0
 10
-15.67747645206297
 20
1.138039101175189
 30
0.0
 10
-15.40382424333818
 20
1.077923887766907
 30
0.0
 10
-15.13041028164412
 20
1.011580235053133
 30
0.0
 10
-14.8572248630348
 20
0.9393780103829858
 30
0.0
 10
-14.58425219804771
 20
0.8617299521213068
 30
0.0
 10
-14.31147327790402
 20
0.7790879524902664
 30
0.0
 10
-14.03887260232575
 20
0.691920008315444
 30
0.0
 10
-13.76642831592828
 20
0.6007333295534034
 30
0.0
 10
-13.49411834014883
 20
0.5060579325781651
 30
0.0
 10
-13.22192453175039
 20
0.4084381612318661
 30
0.0
 10
-12.94982411660759
 20
0.3084416611164022
 30
0.0
 10
-12.6777918924593
 20
0.2066523384293055
 30
0.0
 10
-12.40580570820338
 20
0.103660034731971
 30
0.0
 10
-12.22453028896224
 20
0.0346093266638695
 30
0.0
 10
-12.13384314441661
 20
0.0000645624385125
 30
0.0
  0
SPLINE
  5
3E17
330
1F
100
AcDbEntity
  8
AM_0
100
AcDbSpline
210
0.0
220
0.0
230
1.0
 70
     8
 71
     3
 72
    46
 73
    42
 74
     0
 42
0.0000000001
 43
0.0000000001
 40
0.0
 40
0.0
 40
0.0
 40
0.0
 40
0.5056245176053715
 40
0.759310862862336
 40
1.013969309739036
 40
1.269880374404297
 40
1.527291183660732
 40
1.786406454158005
 40
2.047386241038974
 40
2.310345544571907
 40
2.575337113970003
 40
2.842374715221223
 40
3.111417320030211
 40
3.382376832022752
 40
3.655120036292296
 40
3.929472521611371
 40
4.205224030350333
 40
4.482133246366229
 40
4.759933319229942
 40
5.038338087391601
 40
5.317048131389549
 40
5.595758175387723
 40
5.874162943549382
 40
6.151963016412868
 40
6.428872232428759
 40
6.704623741167953
 40
6.978976226486702
 40
7.251719430756334
 40
7.522680721168324
 40
7.791723325977308
 40
8.058760927228528
 40
8.323752496626548
 40
8.586708135057122
 40
8.84768792193809
 40
9.106803192435362
 40
9.364213819003406
 40
9.620125035580642
 40
9.874787266973068
 40
10.12847352585207
 40
10.38149610319407
 40
10.63418200686337
 40
10.63418200686337
 40
10.63418200686337
 40
10.63418200686337
 10
-11.01832736912401
 20
-1.249999015849017
 30
0.0
 10
-11.2022122674492
 20
-1.24715141922287
 30
0.0
 10
-11.47835750161609
 20
-1.24287510156817
 30
0.0
 10
-11.84555986169459
 20
-1.216546599369571
 30
0.0
 10
-12.12128094381247
 20
-1.190000465461338
 30
0.0
 10
-12.39697845834149
 20
-1.155919738805653
 30
0.0
 10
-12.67265167899998
 20
-1.114757603169201
 30
0.0
 10
-12.94829918960058
 20
-1.066710848627199
 30
0.0
 10
-13.22392052847509
 20
-1.01209246928559
 30
0.0
 10
-13.49951446901121
 20
-0.9512378300787824
 30
0.0
 10
-13.77508156205515
 20
-0.884524374046687
 30
0.0
 10
-14.05062106641519
 20
-0.8123634797842401
 30
0.0
 10
-14.3261374087809
 20
-0.7352033995902191
 30
0.0
 10
-14.60163192821678
 20
-0.6535184776217062
 30
0.0
 10
-14.87710715815188
 20
-0.567812424194231
 30
0.0
 10
-15.15256615984074
 20
-0.4786139911605888
 30
0.0
 10
-15.42801134742003
 20
-0.3864717000178381
 30
0.0
 10
-15.70344540166636
 20
-0.2919522743602388
 30
0.0
 10
-15.97887124296593
 20
-0.195637425868165
 30
0.0
 10
-16.25429138735177
 20
-0.098119423156437
 30
0.0
 10
-16.52970921650726
 20
0.0000009841312965
 30
0.0
 10
-16.80512704560221
 20
0.0981213915382665
 30
0.0
 10
-17.08054719016955
 20
0.1956393938924601
 30
0.0
 10
-17.35597303080575
 20
0.2919542436911626
 30
0.0
 10
-17.63140708751189
 20
0.3864736645029548
 30
0.0
 10
-17.90685226597051
 20
0.4786159736134629
 30
0.0
 10
-18.18231130143626
 20
0.5678143401061819
 30
0.0
 10
-18.4577870053026
 20
0.6535208259904528
 30
0.0
 10
-18.73328259517728
 20
0.735205005810043
 30
0.0
 10
-19.0087994290219
 20
0.8123654816545306
 30
0.0
 10
-19.28433892696662
 20
0.8845263973886829
 30
0.0
 10
-19.55990488801221
 20
0.9512392403811301
 30
0.0
 10
-19.83549699232258
 20
1.012094820957656
 30
0.0
 10
-20.11111720612928
 20
1.066713423421322
 30
0.0
 10
-20.38676455719956
 20
1.1147570344924
 30
0.0
 10
-20.6624379799648
 20
1.155931108770225
 30
0.0
 10
-20.93813725401662
 20
1.18996316771124
 30
0.0
 10
-21.21385691541366
 20
1.216696181456867
 30
0.0
 10
-21.48959363545198
 20
1.235768779107596
 30
0.0
 10
-21.76534036452813
 20
1.247770433604908
 30
0.0
 10
-21.94921635597448
 20
1.249257797371609
 30
0.0
 10
-22.0410931442949
 20
1.250000984151318
 30
0.0
  0
SPLINE
  5
3E18
330
1F
100
AcDbEntity
  8
AM_0
100
AcDbSpline
210
0.0
220
0.0
230
1.0
 70
     8
 71
     3
 72
    23
 73
    19
 74
     0
 42
0.0000000001
 43
0.0000000001
 40
16.03460024169435
 40
16.03460024169435
 40
16.03460024169435
 40
16.03460024169435
 40
16.35212704903564
 40
17.38177054169784
 40
18.41822485651776
 40
19.46214173629503
 40
20.51396345435107
 40
21.57393551351153
 40
22.64208202342361
 40
23.7182574881101
 40
24.80209208578934
 40
25.89306333925047
 40
26.99048218457928
 40
28.09348763352352
 40
29.20111863782268
 40
30.31232390128032
 40
31.42594612798585
 40
32.5407912310448
 40
32.5407912310486
 40
32.5407912310486
 40
32.5407912310486
 10
-26.38191956983726
 20
1.250000984151357
 30
0.0
 10
-26.10128893219714
 20
1.232132891289093
 30
0.0
 10
-25.96770721823548
 20
1.215821386755268
 30
0.0
 10
-25.76795818666387
 20
1.191577959085
 30
0.0
 10
-25.49405156058107
 20
1.138039101175462
 30
0.0
 10
-25.22039935185627
 20
1.07792388776718
 30
0.0
 10
-24.94698539016223
 20
1.011580235053407
 30
0.0
 10
-24.6737999715529
 20
0.9393780103832593
 30
0.0
 10
-24.40082730656584
 20
0.8617299521215802
 30
0.0
 10
-24.12804838642215
 20
0.7790879524905407
 30
0.0
 10
-23.85544771084389
 20
0.6919200083157179
 30
0.0
 10
-23.58300342444642
 20
0.6007333295536775
 30
0.0
 10
-23.31069344866696
 20
0.5060579325784386
 30
0.0
 10
-23.03849964026851
 20
0.4084381612321401
 30
0.0
 10
-22.76639922512571
 20
0.3084416611166763
 30
0.0
 10
-22.49436700097741
 20
0.2066523384295793
 30
0.0
 10
-22.22238081672148
 20
0.1036600347322448
 30
0.0
 10
-22.04110539748034
 20
0.0346093266641432
 30
0.0
 10
-21.95041825293472
 20
0.0000645624387862
 30
0.0
  0
SPLINE
  5
3E19
330
1F
100
AcDbEntity
  8
AM_0
100
AcDbSpline
210
0.0
220
0.0
230
1.0
 70
     8
 71
     3
 72
    55
 73
    51
 74
     0
 42
0.0000000001
 43
0.0000000001
 40
0.0
 40
0.0
 40
0.0
 40
0.0
 40
1.010743684496582
 40
2.022833576467832
 40
3.037578957496688
 40
4.056212745003489
 40
5.079857003664532
 40
6.109500240690281
 40
7.145961322679372
 40
8.189895241603872
 40
9.241717795325891
 40
10.30168407291828
 40
11.36983447792315
 40
12.44600489715814
 40
13.52984294512926
 40
14.62081576220742
 40
15.7182257034828
 40
16.82123173843959
 40
17.92886860250316
 40
19.0400688939571
 40
20.15368796660465
 40
21.26852814259644
 40
22.38336992938901
 40
23.49698739941135
 40
24.6081876908653
 40
25.71582455492886
 40
26.81883757994213
 40
27.91624752121713
 40
29.00722033829659
 40
30.09105838626677
 40
31.16722880550176
 40
32.23537921050758
 40
33.29534548809967
 40
34.347168041821
 40
35.39108718934584
 40
36.42754827133493
 40
37.45720575381954
 40
38.48085062012849
 40
39.49948440763516
 40
40.51422944315121
 40
41.52631975251916
 40
42.53706336719636
 40
43.54780698187354
 40
44.55989729124051
 40
45.57464232675757
 40
46.59327611426424
 40
47.6169209805722
 40
48.64656348684535
 40
49.68302456883444
 40
50.58557219878025
 40
50.58557219878025
 40
50.58557219878025
 40
50.58557219878025
 10
-11.7902314767606
 20
-1.249999015848994
 30
0.0
 10
-11.88210824873749
 20
-1.249255296132092
 30
0.0
 10
-12.06598416317853
 20
-1.247766866139503
 30
0.0
 10
-12.34173111889
 20
-1.235768449426853
 30
0.0
 10
-12.61746630400362
 20
-1.216694101189877
 30
0.0
 10
-12.89318442381637
 20
-1.18996067668367
 30
0.0
 10
-13.16888272709545
 20
-1.155930465065189
 30
0.0
 10
-13.44455577492973
 20
-1.114754793262417
 30
0.0
 10
-13.72020448943336
 20
-1.06671103527687
 30
0.0
 10
-13.99582642615929
 20
-1.01209338809528
 30
0.0
 10
-14.27141970761984
 20
-0.9512372007580163
 30
0.0
 10
-14.54698570749514
 20
-0.8845244612622119
 30
0.0
 10
-14.82252516380589
 20
-0.8123634561471039
 30
0.0
 10
-15.0980415191969
 20
-0.7352034059996813
 30
0.0
 10
-15.37353603508468
 20
-0.6535184758601273
 30
0.0
 10
-15.64901126605763
 20
-0.5678124247714106
 30
0.0
 10
-15.92447026717336
 20
-0.4786139906251615
 30
0.0
 10
-16.19991545600715
 20
-0.3864717015885006
 30
0.0
 10
-16.47534950578593
 20
-0.2919522685832379
 30
0.0
 10
-16.75077536377108
 20
-0.1956374474900513
 30
0.0
 10
-17.02619544570955
 20
-0.0981193422470989
 30
0.0
 10
-17.30161364095951
 20
0.0000007291057667
 30
0.0
 10
-17.57703059981222
 20
0.0981225666810654
 30
0.0
 10
-17.85245160489878
 20
0.1956391533091783
 30
0.0
 10
-18.12787712286701
 20
0.2919542659418452
 30
0.0
 10
-18.40331166374165
 20
0.3864740590240178
 30
0.0
 10
-18.67875799525421
 20
0.4786155617022047
 30
0.0
 10
-18.95421743111704
 20
0.5678144482086234
 30
0.0
 10
-19.22969270185947
 20
0.65352042979857
 30
0.0
 10
-19.50518720772288
 20
0.7352053771161567
 30
0.0
 10
-19.78070356381936
 20
0.81236542737645
 30
0.0
 10
-20.05624302714831
 20
0.8845264152367734
 30
0.0
 10
-20.33180899858217
 20
0.9512392228524227
 30
0.0
 10
-20.60740109564403
 20
1.012094872830332
 30
0.0
 10
-20.88302132796664
 20
1.066713235366832
 30
0.0
 10
-21.15866994021889
 20
1.114757959451911
 30
0.0
 10
-21.43434495645114
 20
1.155928928421383
 30
0.0
 10
-21.7100441705595
 20
1.189969673109747
 30
0.0
 10
-21.98576237210744
 20
1.216671408591756
 30
0.0
 10
-22.26149774881025
 20
1.235861588397111
 30
0.0
 10
-22.53724447072116
 20
1.247425090284651
 30
0.0
 10
-22.81299725199905
 20
1.251288073639977
 30
0.0
 10
-23.08875003287122
 20
1.247425090278611
 30
0.0
 10
-23.36449675600169
 20
1.23586158842144
 30
0.0
 10
-23.64023212821443
 20
1.21667140850023
 30
0.0
 10
-23.91595034659671
 20
1.189969673453907
 30
0.0
 10
-24.19164815333218
 20
1.155929093081664
 30
0.0
 10
-24.4673220835098
 20
1.114758380402907
 30
0.0
 10
-24.73043755156792
 20
1.068894161667393
 30
0.0
 10
-24.90114986368816
 20
1.035353224920762
 30
0.0
 10
-24.98035042667877
 20
1.019007090218697
 30
0.0
  0
SPLINE
  5
3E1A
330
1F
100
AcDbEntity
  8
AM_0
 48
0.5
100
AcDbSpline
210
0.0
220
0.0
230
1.0
 70
     8
 71
     3
 72
    20
 73
    16
 74
     0
 42
0.0000000001
 43
0.0000000001
 40
12.04260318190555
 40
12.04260318190555
 40
12.04260318190555
 40
12.04260318190555
 40
13.08720139956839
 40
14.16337181880432
 40
15.23152222380919
 40
16.29148850140128
 40
17.34331105512262
 40
18.38723020264746
 40
19.42369128463655
 40
20.45333379090873
 40
21.47697865721768
 40
22.49561244472435
 40
23.5103574802404
 40
24.52244778960836
 40
25.53320666051913
 40
25.53320666051913
 40
25.53320666051913
 40
25.53320666051913
 10
-3.186039499338539
 20
0.5736277537362461
 30
0.0
 10
-3.269394441579693
 20
0.606777312567661
 30
0.0
 10
-3.529415460593556
 20
0.6747918947694287
 30
0.0
 10
-4.135763125696926
 20
0.8123654294885646
 30
0.0
 10
-4.41130259017872
 20
0.8845264111576092
 30
0.0
 10
-4.686868560050373
 20
0.9512392369149365
 30
0.0
 10
-4.962460662162678
 20
1.012094821206503
 30
0.0
 10
-5.238080876035871
 20
1.066713425823506
 30
0.0
 10
-5.513728228993538
 20
1.114757024737652
 30
0.0
 10
-5.789401644217809
 20
1.155931145061188
 30
0.0
 10
-6.0650995877157
 20
1.189962865626515
 30
0.0
 10
-6.340817769737913
 20
1.216696432346809
 30
0.0
 10
-6.616553151590252
 20
1.23576873705871
 30
0.0
 10
-6.892301257256593
 20
1.247770506654905
 30
0.0
 10
-7.076178638095422
 20
1.249257817968119
 30
0.0
 10
-7.168056814508488
 20
1.250000984150888
 30
0.0
  0
SPLINE
  5
3E1B
330
1F
100
AcDbEntity
  8
AM_0
100
AcDbSpline
210
0.0
220
0.0
230
1.0
 70
     8
 71
     3
 72
    42
 73
    38
 74
     0
 42
0.0000000001
 43
0.0000000001
 40
1.278384351700087
 40
1.278384351700087
 40
1.278384351700087
 40
1.278384351700087
 40
1.527291183660732
 40
1.786406454158005
 40
2.047386241038974
 40
2.310345544571907
 40
2.575337113970003
 40
2.842374715221223
 40
3.111417320030211
 40
3.382376832022752
 40
3.655120036292296
 40
3.929472521611371
 40
4.205224030350333
 40
4.482133246366229
 40
4.759933319229942
 40
5.038338087391601
 40
5.317048131389549
 40
5.595758175387723
 40
5.874162943549383
 40
6.151963016412869
 40
6.428872232428759
 40
6.704623741167955
 40
6.978976226486705
 40
7.251719430756336
 40
7.522680721168327
 40
7.791723325977311
 40
8.058760927228529
 40
8.32375249662655
 40
8.586708135057122
 40
8.84768792193809
 40
9.106803192435362
 40
9.364213819003406
 40
9.620125035580644
 40
9.87478726697307
 40
10.12847352585208
 40
10.38149610319407
 40
10.63418200686337
 40
10.63418200686337
 40
10.63418200686337
 40
10.63418200686337
 10
-1.862542234048262
 20
-1.249999015849296
 30
0.0
 10
-2.608977976382429
 20
-1.17860053916284
 30
0.0
 10
-2.79100595394313
 20
-1.151057047146835
 30
0.0
 10
-3.131761944432074
 20
-1.066710848627474
 30
0.0
 10
-3.407383283306583
 20
-1.012092469285864
 30
0.0
 10
-3.682977223842705
 20
-0.9512378300790569
 30
0.0
 10
-3.958544316886637
 20
-0.8845243740469619
 30
0.0
 10
-4.234083821246677
 20
-0.8123634797845149
 30
0.0
 10
-4.509600163612387
 20
-0.7352033995904944
 30
0.0
 10
-4.785094683048271
 20
-0.6535184776219804
 30
0.0
 10
-5.060569912983365
 20
-0.567812424194506
 30
0.0
 10
-5.336028914672232
 20
-0.4786139911608633
 30
0.0
 10
-5.611474102251521
 20
-0.3864717000181125
 30
0.0
 10
-5.886908156497868
 20
-0.2919522743605133
 30
0.0
 10
-6.16233399779743
 20
-0.1956374258684395
 30
0.0
 10
-6.43775414218327
 20
-0.0981194231567115
 30
0.0
 10
-6.713171971338748
 20
0.0000009841310223
 30
0.0
 10
-6.988589800433712
 20
0.0981213915379916
 30
0.0
 10
-7.264009945001042
 20
0.1956393938921859
 30
0.0
 10
-7.539435785637241
 20
0.2919542436908879
 30
0.0
 10
-7.814869842343367
 20
0.3864736645026809
 30
0.0
 10
-8.090315020802005
 20
0.4786159736131878
 30
0.0
 10
-8.365774056267753
 20
0.5678143401059069
 30
0.0
 10
-8.641249760134092
 20
0.6535208259901787
 30
0.0
 10
-8.916745350008769
 20
0.7352050058097683
 30
0.0
 10
-9.192262183853404
 20
0.8123654816542558
 30
0.0
 10
-9.467801681798105
 20
0.8845263973884087
 30
0.0
 10
-9.743367642843727
 20
0.9512392403808551
 30
0.0
 10
-10.01895974715409
 20
1.012094820957381
 30
0.0
 10
-10.29457996096079
 20
1.066713423421048
 30
0.0
 10
-10.57022731203107
 20
1.114757034492126
 30
0.0
 10
-10.84590073479631
 20
1.155931108769952
 30
0.0
 10
-11.12160000884813
 20
1.189963167710965
 30
0.0
 10
-11.39731967024517
 20
1.216696181456593
 30
0.0
 10
-11.6730563902835
 20
1.235768779107321
 30
0.0
 10
-11.94880311935964
 20
1.247770433604633
 30
0.0
 10
-12.132679110806
 20
1.249257797371335
 30
0.0
 10
-12.22455589912641
 20
1.250000984151044
 30
0.0
  0
SPLINE
  5
3E1C
330
1F
100
AcDbEntity
  8
AM_0
 48
0.5
100
AcDbSpline
210
0.0
220
0.0
230
1.0
 70
     8
 71
     3
 72
    26
 73
    22
 74
     0
 42
0.0000000001
 43
0.0000000001
 40
0.0
 40
0.0
 40
0.0
 40
0.0
 40
0.2526859211241313
 40
0.5057083941171959
 40
0.7593947393741639
 40
1.01405318625086
 40
1.26996425091637
 40
1.527375060172565
 40
1.786490330669834
 40
2.047470117551047
 40
2.310425755981314
 40
2.575417325379407
 40
2.842456731169063
 40
3.111495753801943
 40
3.382458822635121
 40
3.655202026904655
 40
3.929554512223505
 40
4.205306020962704
 40
4.482215236978595
 40
4.76001530984208
 40
5.029821427366006
 40
5.029821427366006
 40
5.029821427366006
 40
5.029821427366006
 10
-22.04771864976082
 20
-1.249934453409927
 30
0.0
 10
-22.14603016010295
 20
-1.249190733725434
 30
0.0
 10
-22.34278412168966
 20
-1.247702303797701
 30
0.0
 10
-22.63784346133929
 20
-1.235703886597708
 30
0.0
 10
-22.93289020687474
 20
-1.216629540220335
 30
0.0
 10
-23.22791868868372
 20
-1.189896108724013
 30
0.0
 10
-23.52292597821976
 20
-1.15586592339121
 30
0.0
 10
-23.81790619779328
 20
-1.114690152616518
 30
0.0
 10
-24.11285915116706
 20
-1.066646995883594
 30
0.0
 10
-24.40778282676845
 20
-1.012028243129968
 30
0.0
 10
-24.70267652736932
 20
-0.9511727945906933
 30
0.0
 10
-24.99754267995584
 20
-0.8844594196392492
 30
0.0
 10
-25.29238006269903
 20
-0.812300051861964
 30
0.0
 10
-25.58719201618936
 20
-0.735137334714409
 30
0.0
 10
-25.88198248226596
 20
-0.6534547608914281
 30
0.0
 10
-26.17675209786017
 20
-0.5677478379357091
 30
0.0
 10
-26.47150306032462
 20
-0.4785490433409231
 30
0.0
 10
-26.76624078241393
 20
-0.3864087144115729
 30
0.0
 10
-27.06096039326006
 20
-0.291881758124255
 30
0.0
 10
-27.35265259338892
 20
-0.1965889722605425
 30
0.0
 10
-27.5459096505763
 20
-0.1325706102777034
 30
0.0
 10
-28.50000000000001
 20
0.2235674399686653
 30
0.0
  0
SPLINE
  5
3E1D
330
1F
100
AcDbEntity
  8
AM_0
 48
0.5
100
AcDbSpline
210
0.0
220
0.0
230
1.0
 70
     8
 71
     3
 72
    22
 73
    18
 74
     0
 42
0.0000000001
 43
0.0000000001
 40
0.0
 40
0.0
 40
0.0
 40
0.0
 40
1.010743684496582
 40
2.022833993863546
 40
3.037578683882831
 40
4.056212471389632
 40
5.079857945358201
 40
6.109499720892564
 40
7.145961650132166
 40
8.189873411961459
 40
9.241710626092514
 40
10.30166235592959
 40
11.36982472628033
 40
12.44598212828784
 40
13.52983440361964
 40
14.62080578343036
 40
14.90544694398022
 40
14.90544694398022
 40
14.90544694398022
 40
14.90544694398022
 10
-23.10710844876203
 20
-1.249934453409917
 30
0.0
 10
-23.20541997787799
 20
-1.249190955880788
 30
0.0
 10
-23.40217401763587
 20
-1.247702970252653
 30
0.0
 10
-23.6972330482966
 20
-1.235701211242925
 30
0.0
 10
-23.99228011242518
 20
-1.216630074240388
 30
0.0
 10
-24.28730875366211
 20
-1.189896625089836
 30
0.0
 10
-24.58231523010372
 20
-1.155863238600669
 30
0.0
 10
-24.87729646415413
 20
-1.114691027964777
 30
0.0
 10
-25.17224813329136
 20
-1.066646125392928
 30
0.0
 10
-25.46717226570596
 20
-1.012026581871733
 30
0.0
 10
-25.76206620517207
 20
-0.9511734326998002
 30
0.0
 10
-26.05693149277644
 20
-0.8844570369976842
 30
0.0
 10
-26.3517700293168
 20
-0.8123019416943577
 30
0.0
 10
-26.64658159333477
 20
-0.7351371057768326
 30
0.0
 10
-26.94137170777771
 20
-0.6534541041865545
 30
0.0
 10
-27.16292708001991
 20
-0.5890382196587148
 30
0.0
 10
-27.2863854649117
 20
-0.552220170655513
 30
0.0
 10
-27.91961135578213
 20
-0.3399367638969309
 30
0.0
  0
ELLIPSE
  5
3E1E
330
1F
100
AcDbEntity
  8
AM_0
 48
0.5
100
AcDbEllipse
 10
-28.06452080966353
 20
-0.6399176798147815
 30
0.0
 11
0.4350990377319601
 21
0.0315298706837079
 31
0.0
210
0.0
220
0.0
230
1.0
 40
0.7158392917764221
 41
1.179907314446573
 42
3.120432395032853
  0
ELLIPSE
  5
3E1F
330
1F
100
AcDbEntity
  8
AM_0
 48
0.5
100
AcDbEllipse
 10
-27.71547487627939
 20
-0.7752927183121608
 30
0.0
 11
-0.7812882758383985
 21
0.2647849197667662
 31
0.0
210
0.0
220
0.0
230
0.9999999999999998
 40
0.5392903750649236
 41
0.3372660679681496
 42
1.827126696077685
  0
SPLINE
  5
3E20
330
1F
100
AcDbEntity
  8
AM_0
100
AcDbSpline
210
0.0
220
0.0
230
1.0
 70
     8
 71
     3
 72
    13
 73
     9
 74
     0
 42
0.0000000001
 43
0.0000000001
 40
16.03460056234195
 40
16.03460056234195
 40
16.03460056234195
 40
16.03460056234195
 40
16.35212717791071
 40
17.38177067057215
 40
18.41822498539278
 40
19.46214186516937
 40
20.5139635832251
 40
21.34083983469381
 40
21.34083983469381
 40
21.34083983469381
 40
21.34083983469381
 10
-27.65552324581765
 20
-1.249999015848604
 30
0.0
 10
-27.20759613489383
 20
-1.245828479801698
 30
0.0
 10
-27.07911315852054
 20
-1.227453030303951
 30
0.0
 10
-26.85278932262328
 20
-1.191447733237129
 30
0.0
 10
-26.55969916600301
 20
-1.137909023778032
 30
0.0
 10
-26.26688129214498
 20
-1.07779377016687
 30
0.0
 10
-25.99592843074132
 20
-1.016350585472793
 30
0.0
 10
-25.82306527661982
 20
-0.9740425801264187
 30
0.0
 10
-25.74723124694827
 20
-0.954918976199238
 30
0.0
  0
LINE
  5
3E21
330
1F
100
AcDbEntity
  8
AM_0
 48
0.5
100
AcDbLine
 10
-23.70616674086881
 20
0.641796268575278
 30
0.0
 11
-28.50000000000001
 21
0.2235674399686653
 31
0.0
  0
LINE
  5
3E26
330
1F
100
AcDbEntity
  8
AM_0
100
AcDbLine
 10
-26.38191956983726
 20
1.250000984151357
 30
0.0
 11
-33.56719787691456
 21
1.250132338237135
 31
0.0
  0
VIEWPORT
  5
110
330
101
100
AcDbEntity
 67
     1
  8
0
100
AcDbViewport
 10
420.5
 20
297.0
 30
0.0
 40
948.9782706766916
 41
628.452
 68
     1
 69
     1
1001
ACAD
1000
MVIEW
1002
{
1070
    16
1010
0.0
1020
0.0
1030
0.0
1010
0.0
1020
0.0
1030
1.0
1040
0.0
1040
628.452
1040
420.5
1040
297.0
1040
50.0
1040
0.0
1040
0.0
1070
     0
1070
   100
1070
     1
1070
     1
1070
     0
1070
     0
1070
     0
1070
     0
1040
0.0
1040
0.0
1040
0.0
1040
10.0
1040
10.0
1040
10.0
1040
10.0
1070
     0
1002
{
1002
}
1002
}
  0
ENDSEC
  0
SECTION
  2
OBJECTS
  0
DICTIONARY
  5
C
330
0
100
AcDbDictionary
  3
ACAD_GROUP
350
D
  3
ACAD_LAYOUT
350
1A
  3
ACAD_MLINESTYLE
350
17
  3
ACAD_PLOTSETTINGS
350
19
  3
ACAD_PLOTSTYLENAME
350
E
  3
ACDBVARIABLEDICTIONARY
350
34
  3
ACMDICTIONARY
350
43
  3
AMG
350
2B
  3
AMGSNAPSETTINGS
350
6E
  3
DWGPROPS
350
4029
  3
ACDBHEADERROUNDTRIPXREC
350
4035
  0
DICTIONARY
  5
74
330
1F
100
AcDbDictionary
280
     1
  3
ACAD_INDEX
360
402B
  3
ACAD_LAYOUTSELFREF
360
4058
  0
DICTIONARY
  5
405D
330
101
100
AcDbDictionary
280
     1
  3
ACAD_LAYOUTSELFREF
360
405E
  0
DICTIONARY
  5
D
102
{ACAD_REACTORS
330
C
102
}
330
C
100
AcDbDictionary
  0
DICTIONARY
  5
1A
102
{ACAD_REACTORS
330
C
102
}
330
C
100
AcDbDictionary
  0
DICTIONARY
  5
17
102
{ACAD_REACTORS
330
C
102
}
330
C
100
AcDbDictionary
  3
STANDARD
350
18
  0
DICTIONARY
  5
19
102
{ACAD_REACTORS
330
C
102
}
330
C
100
AcDbDictionary
  0
ACDBDICTIONARYWDFLT
  5
E
102
{ACAD_REACTORS
330
C
102
}
330
C
100
AcDbDictionary
281
     1
  3
Normal
350
F
100
AcDbDictionaryWithDefault
340
F
  0
DICTIONARY
  5
34
102
{ACAD_REACTORS
330
C
102
}
330
C
100
AcDbDictionary
  3
INDEXCTL
350
35
  3
SORTENTS
350
B5E
  0
DICTIONARY
  5
43
102
{ACAD_REACTORS
330
C
102
}
330
C
100
AcDbDictionary
  3
ACMSTDDICTIONARY
350
260
  0
DICTIONARY
  5
2B
102
{ACAD_REACTORS
330
C
102
}
330
C
100
AcDbDictionary
  3
ACMGSETTINGS
350
2C
  0
DICTIONARY
  5
6E
102
{ACAD_REACTORS
330
C
102
}
330
C
100
AcDbDictionary
  0
XRECORD
  5
4029
102
{ACAD_REACTORS
330
C
102
}
330
C
100
AcDbXrecord
  1
DWGPROPS COOKIE
  2

  3

  4

  6

  7

  8

  9

300
AmdtFileType=82
301
=
302
=
303
=
304
=
305
=
306
=
307
=
308
=
309
=
 40
0.0945218402777778
 41
2452800.443498622
 42
2452946.581920382
  1

 90
        1
  0
DICTIONARY
  5
4035
102
{ACAD_REACTORS
330
C
102
}
330
C
100
AcDbDictionary
  3
TSTACKALIGN
350
4036
  3
TSTACKSIZE
350
4037
  3
HYPERLINKBASE
350
4038
  3
STYLESHEET
350
4039
  3
LAYOUTDICT
350
403A
  3
PLOTSETDICT
350
403B
  3
PLOTSTYLNAMDICT
350
403C
  3
LWETCUNION
350
403D
  3
INSUNITS
350
403E
  3
CEPSNTYPE
350
403F
  3
FINGERPRINTGUID
350
4040
  3
VERSIONGUID
350
4041
  3
PSVPSCALE
350
4042
  3
DIMSTYLEDATA
350
4043
  3
PUCSORTHOREF
350
4044
  3
PUCSORTHOVIEW
350
4045
  3
PUCSBASE
350
4046
  3
PUCSORGTOP
350
4047
  3
PUCSORGBOTTOM
350
4048
  3
PUCSORGLEFT
350
4049
  3
PUCSORGRIGHT
350
404A
  3
PUCSORGFRONT
350
404B
  3
PUCSORGBACK
350
404C
  3
UCSORTHOREF
350
404D
  3
UCSORTHOVIEW
350
404E
  3
UCSBASE
350
404F
  3
UCSORGTOP
350
4050
  3
UCSORGBOTTOM
350
4051
  3
UCSORGLEFT
350
4052
  3
UCSORGRIGHT
350
4053
  3
UCSORGFRONT
350
4054
  3
UCSORGBACK
350
4055
  0
DICTIONARY
  5
402B
102
{ACAD_REACTORS
330
74
102
}
330
74
100
AcDbDictionary
  3
*A1
350
402C
  0
XRECORD
  5
4058
102
{ACAD_REACTORS
330
74
102
}
330
74
100
AcDbXrecord
340
1F
  0
XRECORD
  5
405E
102
{ACAD_REACTORS
330
405D
102
}
330
405D
100
AcDbXrecord
340
101
  0
MLINESTYLE
  5
18
102
{ACAD_REACTORS
330
17
102
}
330
17
100
AcDbMlineStyle
  2
STANDARD
 70
     0
  3

 62
   256
 51
90.0
 52
90.0
 71
     2
 49
0.5
 62
   256
  6
BYLAYER
 49
-0.5
 62
   256
  6
BYLAYER
  0
ACDBPLACEHOLDER
  5
F
102
{ACAD_REACTORS
330
E
102
}
330
E
100
AcDbPlaceHolder
280
     0
  0
DICTIONARYVAR
  5
35
102
{ACAD_REACTORS
330
34
102
}
330
34
100
DictionaryVariables
280
     0
  1
1
  0
DICTIONARYVAR
  5
B5E
102
{ACAD_REACTORS
330
34
102
}
330
34
100
DictionaryVariables
280
     0
  1
96
  0
DICTIONARY
  5
260
102
{ACAD_REACTORS
330
43
102
}
330
43
100
AcDbDictionary
  0
DICTIONARY
  5
2C
102
{ACAD_REACTORS
330
2B
102
}
330
2B
100
AcDbDictionary
  3
DWGSETTINGS
350
2D
  0
XRECORD
  5
4036
102
{ACAD_REACTORS
330
4035
102
}
330
4035
100
AcDbXrecord
 90
        1
  0
XRECORD
  5
4037
102
{ACAD_REACTORS
330
4035
102
}
330
4035
100
AcDbXrecord
 90
       70
  0
XRECORD
  5
4038
102
{ACAD_REACTORS
330
4035
102
}
330
4035
100
AcDbXrecord
  1

  0
XRECORD
  5
4039
102
{ACAD_REACTORS
330
4035
102
}
330
4035
100
AcDbXrecord
  1
ASAMI.ctb
  0
XRECORD
  5
403A
102
{ACAD_REACTORS
330
4035
102
}
330
4035
100
AcDbXrecord
340
1A
  0
XRECORD
  5
403B
102
{ACAD_REACTORS
330
4035
102
}
330
4035
100
AcDbXrecord
340
19
  0
XRECORD
  5
403C
102
{ACAD_REACTORS
330
4035
102
}
330
4035
100
AcDbXrecord
340
E
  0
XRECORD
  5
403D
102
{ACAD_REACTORS
330
4035
102
}
330
4035
100
AcDbXrecord
 90
    10781
  0
XRECORD
  5
403E
102
{ACAD_REACTORS
330
4035
102
}
330
4035
100
AcDbXrecord
 90
        4
  0
XRECORD
  5
403F
102
{ACAD_REACTORS
330
4035
102
}
330
4035
100
AcDbXrecord
 90
        0
  0
XRECORD
  5
4040
102
{ACAD_REACTORS
330
4035
102
}
330
4035
100
AcDbXrecord
  1
{AFB28963-8C59-40AE-9337-C84526B81ACE}
  0
XRECORD
  5
4041
102
{ACAD_REACTORS
330
4035
102
}
330
4035
100
AcDbXrecord
  1
{09421FF4-44E0-458A-B31F-FE33FE10F21B}
  0
XRECORD
  5
4042
102
{ACAD_REACTORS
330
4035
102
}
330
4035
100
AcDbXrecord
 40
0.0
  0
XRECORD
  5
4043
102
{ACAD_REACTORS
330
4035
102
}
330
4035
100
AcDbXrecord
1000
DSTYLE
1002
{
1070
    79
 70
     2
1070
   341
340
59
1070
   342
340
59
1070
   371
 70
    -1
1070
   372
 70
    -1
1002
}
  0
XRECORD
  5
4044
102
{ACAD_REACTORS
330
4035
102
}
330
4035
100
AcDbXrecord
340
0
  0
XRECORD
  5
4045
102
{ACAD_REACTORS
330
4035
102
}
330
4035
100
AcDbXrecord
 70
     0
  0
XRECORD
  5
4046
102
{ACAD_REACTORS
330
4035
102
}
330
4035
100
AcDbXrecord
340
0
  0
XRECORD
  5
4047
102
{ACAD_REACTORS
330
4035
102
}
330
4035
100
AcDbXrecord
 10
0.0
 20
0.0
 30
0.0
  0
XRECORD
  5
4048
102
{ACAD_REACTORS
330
4035
102
}
330
4035
100
AcDbXrecord
 10
0.0
 20
0.0
 30
0.0
  0
XRECORD
  5
4049
102
{ACAD_REACTORS
330
4035
102
}
330
4035
100
AcDbXrecord
 10
0.0
 20
0.0
 30
0.0
  0
XRECORD
  5
404A
102
{ACAD_REACTORS
330
4035
102
}
330
4035
100
AcDbXrecord
 10
0.0
 20
0.0
 30
0.0
  0
XRECORD
  5
404B
102
{ACAD_REACTORS
330
4035
102
}
330
4035
100
AcDbXrecord
 10
0.0
 20
0.0
 30
0.0
  0
XRECORD
  5
404C
102
{ACAD_REACTORS
330
4035
102
}
330
4035
100
AcDbXrecord
 10
0.0
 20
0.0
 30
0.0
  0
XRECORD
  5
404D
102
{ACAD_REACTORS
330
4035
102
}
330
4035
100
AcDbXrecord
340
0
  0
XRECORD
  5
404E
102
{ACAD_REACTORS
330
4035
102
}
330
4035
100
AcDbXrecord
 70
     0
  0
XRECORD
  5
404F
102
{ACAD_REACTORS
330
4035
102
}
330
4035
100
AcDbXrecord
340
0
  0
XRECORD
  5
4050
102
{ACAD_REACTORS
330
4035
102
}
330
4035
100
AcDbXrecord
 10
0.0
 20
0.0
 30
0.0
  0
XRECORD
  5
4051
102
{ACAD_REACTORS
330
4035
102
}
330
4035
100
AcDbXrecord
 10
0.0
 20
0.0
 30
0.0
  0
XRECORD
  5
4052
102
{ACAD_REACTORS
330
4035
102
}
330
4035
100
AcDbXrecord
 10
0.0
 20
0.0
 30
0.0
  0
XRECORD
  5
4053
102
{ACAD_REACTORS
330
4035
102
}
330
4035
100
AcDbXrecord
 10
0.0
 20
0.0
 30
0.0
  0
XRECORD
  5
4054
102
{ACAD_REACTORS
330
4035
102
}
330
4035
100
AcDbXrecord
 10
0.0
 20
0.0
 30
0.0
  0
XRECORD
  5
4055
102
{ACAD_REACTORS
330
4035
102
}
330
4035
100
AcDbXrecord
 10
0.0
 20
0.0
 30
0.0
  0
LAYER_INDEX
  5
402C
102
{ACAD_REACTORS
330
402B
102
}
330
402B
100
AcDbIndex
 40
2453151.720695879
100
AcDbLayerIndex
  8
0
360
402D
 90
        0
  8
AM_0
360
402E
 90
       52
  8
AM_7
360
402F
 90
        1
  8
AM_11
360
4030
 90
       34
  8
AM_5
360
4031
 90
        5
  8
Defpoints
360
4032
 90
        0
  8
AM_6
360
4033
 90
        1
  0
XRECORD
  5
2D
102
{ACAD_REACTORS
330
2C
102
}
330
2C
100
AcDbXrecord
  1
VERSION
140
15.0
  1
PRODUCT
  2
AutoCAD Mechanical 2000
  0
IDBUFFER
  5
402D
330
0
100
AcDbIdBuffer
  0
IDBUFFER
  5
402E
330
0
100
AcDbIdBuffer
330
3E1F
330
3E20
330
3E21
330
3E26
330
C1D
330
C2E
330
C30
330
1B5C
330
1B60
330
1C15
330
1C1A
330
1C1E
330
1C85
330
1C86
330
1CF2
330
1CF3
330
1CF4
330
2D2A
330
2D48
330
2D49
330
2D4A
330
2D4B
330
2D4C
330
2D4D
330
2D4E
330
37ED
330
3AC1
330
3AC2
330
3E00
330
3E01
330
3E02
330
3E05
330
3E06
330
3E08
330
3E09
330
3E0A
330
3E0B
330
3E0C
330
3E0D
330
3E0F
330
3E12
330
3E14
330
3E15
330
3E16
330
3E17
330
3E18
330
3E19
330
3E1A
330
3E1B
330
3E1C
330
3E1D
330
3E1E
  0
IDBUFFER
  5
402F
330
0
100
AcDbIdBuffer
330
C9F
  0
IDBUFFER
  5
4030
330
0
100
AcDbIdBuffer
330
1C26
330
1C27
330
1C28
330
1C29
330
2C98
330
314F
330
3152
330
3A44
330
3A45
330
3A46
330
3A47
330
3A48
330
3E03
330
3E04
330
3E07
330
3E0E
330
3E10
330
3E13
330
144A
330
144B
330
144E
330
144F
330
1450
330
1451
330
1452
330
1453
330
18B8
330
18B9
330
18BA
330
18BB
330
1C22
330
1C23
330
1C24
330
1C25
  0
IDBUFFER
  5
4031
330
0
100
AcDbIdBuffer
330
CC6
330
DF5
330
1C71
330
1DEF
330
3B34
  0
IDBUFFER
  5
4032
330
0
100
AcDbIdBuffer
  0
IDBUFFER
  5
4033
330
0
100
AcDbIdBuffer
330
19BD
  0
ENDSEC
  0
EOF
