  0
SECTION
  2
HEADER
  9
$ACADVER
  1
AC1014
  9
$ACADMAINTVER
 70
     9
  9
$DWGCODEPAGE
  3
ANSI_932
  9
$INSBASE
 10
0.0
 20
0.0
 30
0.0
  9
$EXTMIN
 10
-89.40000135426984
 20
-24.75000718101107
 30
-0.00000001
  9
$EXTMAX
 10
14.66525937816018
 20
14.28154298629634
 30
0.00000001
  9
$LIMMIN
 10
-96.12196957558735
 20
-43.13016537284911
  9
$LIMMAX
 10
26.69094453213699
 20
26.35397811229907
  9
$ORTHOMODE
 70
     0
  9
$REGENMODE
 70
     1
  9
$FILLMODE
 70
     1
  9
$QTEXTMODE
 70
     0
  9
$MIRRTEXT
 70
     0
  9
$DRAGMODE
 70
     2
  9
$LTSCALE
 40
1.0
  9
$OSMODE
 70
    55
  9
$ATTMODE
 70
     1
  9
$TEXTSIZE
 40
2.5
  9
$TRACEWID
 40
1.0
  9
$TEXTSTYLE
  7
STANDARD
  9
$CLAYER
  8
AM_0
  9
$CELTYPE
  6
BYLAYER
  9
$CECOLOR
 62
   256
  9
$CELTSCALE
 40
1.0
  9
$DELOBJ
 70
     1
  9
$DISPSILH
 70
     0
  9
$DIMSCALE
 40
0.5
  9
$DIMASZ
 40
2.5
  9
$DIMEXO
 40
1.0
  9
$DIMDLI
 40
12.0
  9
$DIMRND
 40
0.0
  9
$DIMDLE
 40
0.0
  9
$DIMEXE
 40
1.0
  9
$DIMTP
 40
0.1
  9
$DIMTM
 40
0.1
  9
$DIMTXT
 40
3.2
  9
$DIMCEN
 40
0.0
  9
$DIMTSZ
 40
0.0
  9
$DIMTOL
 70
     0
  9
$DIMLIM
 70
     0
  9
$DIMTIH
 70
     0
  9
$DIMTOH
 70
     0
  9
$DIMSE1
 70
     0
  9
$DIMSE2
 70
     0
  9
$DIMTAD
 70
     3
  9
$DIMZIN
 70
     8
  9
$DIMBLK
  1
OPEN30
  9
$DIMASO
 70
     1
  9
$DIMSHO
 70
     1
  9
$DIMPOST
  1

  9
$DIMAPOST
  1
"
  9
$DIMALT
 70
     0
  9
$DIMALTD
 70
     2
  9
$DIMALTF
 40
0.0393701
  9
$DIMLFAC
 40
1.0
  9
$DIMTOFL
 70
     1
  9
$DIMTVP
 40
0.0
  9
$DIMTIX
 70
     0
  9
$DIMSOXD
 70
     0
  9
$DIMSAH
 70
     0
  9
$DIMBLK1
  1

  9
$DIMBLK2
  1

  9
$DIMSTYLE
  2
AM_JIS
  9
$DIMCLRD
 70
   256
  9
$DIMCLRE
 70
   256
  9
$DIMCLRT
 70
     2
  9
$DIMTFAC
 40
0.71
  9
$DIMGAP
 40
1.5
  9
$DIMJUST
 70
     0
  9
$DIMSD1
 70
     0
  9
$DIMSD2
 70
     0
  9
$DIMTOLJ
 70
     0
  9
$DIMTZIN
 70
     0
  9
$DIMALTZ
 70
     0
  9
$DIMALTTZ
 70
     0
  9
$DIMFIT
 70
     3
  9
$DIMUPT
 70
     0
  9
$DIMUNIT
 70
     2
  9
$DIMDEC
 70
     3
  9
$DIMTDEC
 70
     3
  9
$DIMALTU
 70
     2
  9
$DIMALTTD
 70
     2
  9
$DIMTXSTY
  7
ASAMI
  9
$DIMAUNIT
 70
     0
  9
$LUNITS
 70
     2
  9
$LUPREC
 70
     2
  9
$SKETCHINC
 40
1.0
  9
$FILLETRAD
 40
2.5
  9
$AUNITS
 70
     0
  9
$AUPREC
 70
     0
  9
$MENU
  1
.
  9
$ELEVATION
 40
0.0
  9
$PELEVATION
 40
0.0
  9
$THICKNESS
 40
0.0
  9
$LIMCHECK
 70
     0
  9
$BLIPMODE
 70
     0
  9
$CHAMFERA
 40
0.25
  9
$CHAMFERB
 40
0.25
  9
$CHAMFERC
 40
20.0
  9
$CHAMFERD
 40
0.0
  9
$SKPOLY
 70
     0
  9
$TDCREATE
 40
2452800.443498622
  9
$TDUPDATE
 40
2453151.687714468
  9
$TDINDWG
 40
0.0416370023
  9
$TDUSRTIMER
 40
0.0416370023
  9
$USRTIMER
 70
     1
  9
$ANGBASE
 50
0.0
  9
$ANGDIR
 70
     0
  9
$PDMODE
 70
     0
  9
$PDSIZE
 40
0.0
  9
$PLINEWID
 40
0.0
  9
$COORDS
 70
     1
  9
$SPLFRAME
 70
     0
  9
$SPLINETYPE
 70
     6
  9
$SPLINESEGS
 70
     8
  9
$ATTDIA
 70
     1
  9
$ATTREQ
 70
     1
  9
$HANDLING
 70
 12289
  9
$HANDSEED
  5
25A2
  9
$SURFTAB1
 70
     6
  9
$SURFTAB2
 70
     6
  9
$SURFTYPE
 70
     6
  9
$SURFU
 70
     6
  9
$SURFV
 70
     6
  9
$UCSNAME
  2

  9
$UCSORG
 10
0.0
 20
-0.0000000000000003
 30
0.0
  9
$UCSXDIR
 10
1.0
 20
0.000000000000002
 30
0.0
  9
$UCSYDIR
 10
-0.000000000000002
 20
1.0
 30
0.0
  9
$PUCSNAME
  2

  9
$PUCSORG
 10
0.0
 20
0.0
 30
0.0
  9
$PUCSXDIR
 10
1.0
 20
0.0
 30
0.0
  9
$PUCSYDIR
 10
0.0
 20
1.0
 30
0.0
  9
$USERI1
 70
     0
  9
$USERI2
 70
     0
  9
$USERI3
 70
     0
  9
$USERI4
 70
     0
  9
$USERI5
 70
     0
  9
$USERR1
 40
0.0
  9
$USERR2
 40
0.0
  9
$USERR3
 40
0.0
  9
$USERR4
 40
0.0
  9
$USERR5
 40
0.0
  9
$WORLDVIEW
 70
     1
  9
$SHADEDGE
 70
     3
  9
$SHADEDIF
 70
    70
  9
$TILEMODE
 70
     1
  9
$MAXACTVP
 70
    64
  9
$PINSBASE
 10
0.0
 20
0.0
 30
0.0
  9
$PLIMCHECK
 70
     0
  9
$PEXTMIN
 10
1.000000000000000E+20
 20
1.000000000000000E+20
 30
1.000000000000000E+20
  9
$PEXTMAX
 10
-1.000000000000000E+20
 20
-1.000000000000000E+20
 30
-1.000000000000000E+20
  9
$PLIMMIN
 10
0.0
 20
0.0
  9
$PLIMMAX
 10
841.0
 20
594.0
  9
$UNITMODE
 70
     0
  9
$VISRETAIN
 70
     1
  9
$PLINEGEN
 70
     0
  9
$PSLTSCALE
 70
     0
  9
$TREEDEPTH
 70
  3020
  9
$PICKSTYLE
 70
     0
  9
$CMLSTYLE
  2
STANDARD
  9
$CMLJUST
 70
     0
  9
$CMLSCALE
 40
20.0
  9
$PROXYGRAPHICS
 70
     1
  9
$MEASUREMENT
 70
     1
  0
ENDSEC
  0
SECTION
  2
CLASSES
  0
CLASS
  1
ACDBDICTIONARYWDFLT
  2
AcDbDictionaryWithDefault
  3
AutoCAD 2000
 90
        0
280
     0
281
     0
  0
CLASS
  1
ACDBPLACEHOLDER
  2
AcDbPlaceHolder
  3
AutoCAD 2000
 90
        0
280
     0
281
     0
  0
CLASS
  1
LAYOUT
  2
AcDbLayout
  3
AutoCAD 2000
 90
        0
280
     0
281
     0
  0
CLASS
  1
AMGSETTINGSOBJ
  2
AmgSettingsObj
  3
"AcadM|Product Description: AutoCAD Mechanical 2000|Company: Autodesk"
 90
        0
280
     0
281
     0
  0
CLASS
  1
ACME_DOCUMENT
  2
AcMeDbDoc
  3
AcMeServices
 90
        0
280
     0
281
     0
  0
CLASS
  1
ACMESCOPE
  2
AcMeScope
  3
AcMeServices
 90
        0
280
     0
281
     0
  0
CLASS
  1
ACMECOMMANDHISTORY
  2
AcMeCommandHistory
  3
AcMeServices
 90
        0
280
     0
281
     0
  0
CLASS
  1
DICTIONARYVAR
  2
AcDbDictionaryVar
  3
AutoCAD 2000
 90
        0
280
     0
281
     0
  0
CLASS
  1
ACIMSYSVARMAN
  2
AcImSysVarManager
  3
AcMeServices
 90
        0
280
     0
281
     0
  0
CLASS
  1
ACIMREALSYSVAR
  2
AcImRealSysVar
  3
AcMeServices
 90
        0
280
     0
281
     0
  0
CLASS
  1
ACIMINTSYSVAR
  2
AcImIntSysVar
  3
AcMeServices
 90
        0
280
     0
281
     0
  0
CLASS
  1
ACMEDRAWINGMAN
  2
AcMeDrawingMan
  3
AcMeServices
 90
        0
280
     0
281
     0
  0
CLASS
  1
ACMEVIEW
  2
AcMeView
  3
AcMeServices
 90
        0
280
     0
281
     0
  0
CLASS
  1
ACDBENTITYCACHE
  2
AcMeEntityCache
  3
AcMeServices
 90
        0
280
     0
281
     0
  0
CLASS
  1
GSMANAGER
  2
AcMeGSManager
  3
AcMeServices
 90
        0
280
     0
281
     0
  0
CLASS
  1
AmdtInternalReactor
  2
AmdtInternalReactor
  3
AcMeServices
 90
        0
280
     0
281
     0
  0
CLASS
  1
ACMESTATEMGR
  2
AcMeStateMgr
  3
AcMeServices
 90
        0
280
     0
281
     0
  0
CLASS
  1
ACME_DATABASE
  2
AcMeDbDatabase
  3
AcMeServices
 90
        0
280
     0
281
     0
  0
CLASS
  1
ACRFINSADJUSTERMGR
  2
AcRfInsAdjusterMgr
  3
AcMeServices
 90
        0
280
     0
281
     0
  0
CLASS
  1
ACMDATADICTIONARY
  2
AcmDataDictionary
  3
"AcmSymBB|Product Description: AutoCAD Mechanical 2000|Company: Autodesk"
 90
        0
280
     0
281
     0
  0
CLASS
  1
ACMDATAENTRYBLOCK
  2
AcmDataEntryBlock
  3
"AcmSymBB|Product Description: AutoCAD Mechanical 2000|Company: Autodesk"
 90
        0
280
     0
281
     0
  0
CLASS
  1
AMGOBJPROPCFG
  2
AmgObjPropCfg
  3
"AmgLay|Product Description: AutoCAD Mechanical 2000|Company: Autodesk"
 90
        1
280
     0
281
     0
  0
CLASS
  1
ACAMGFILTERDAT
  2
AcAmgFilterDat
  3
"AcadM|Product Description: AutoCAD Mechanical 2000|Company: Autodesk"
 90
        0
280
     0
281
     0
  0
CLASS
  1
LAYER_INDEX
  2
AcDbLayerIndex
  3
AutoCAD 2000
 90
        0
280
     0
281
     0
  0
CLASS
  1
IDBUFFER
  2
AcDbIdBuffer
  3
AutoCAD 2000
 90
        0
280
     0
281
     0
  0
CLASS
  1
ACIMSTRSYSVAR
  2
AcImStrSysVar
  3
AcMeServices
 90
        0
280
     0
281
     0
  0
CLASS
  1
ACMSTANDARDJIS
  2
AcmStandardJIS
  3
"AcmSymBB|Product Description: AutoCAD Mechanical 2000|Company: Autodesk"
 90
        0
280
     0
281
     0
  0
CLASS
  1
ACMSURFSTANDARDJIS
  2
AcmSurfTextStdJIS
  3
"AcmSymBB|Product Description: AutoCAD Mechanical 2000|Company: Autodesk"
 90
        0
280
     0
281
     0
  0
CLASS
  1
ACMFCFSTANDARDJIS
  2
AcmFCFStdJIS
  3
"AcmSymBB|Product Description: AutoCAD Mechanical 2000|Company: Autodesk"
 90
        0
280
     0
281
     0
  0
CLASS
  1
ACMWELDSTANDARDJIS
  2
AcmWeldingStdJIS
  3
"AcmSymBB|Product Description: AutoCAD Mechanical 2000|Company: Autodesk"
 90
        0
280
     0
281
     0
  0
CLASS
  1
ACMIDSTANDARDJIS
  2
AcmIdStdJIS
  3
"AcmSymBB|Product Description: AutoCAD Mechanical 2000|Company: Autodesk"
 90
        0
280
     0
281
     0
  0
CLASS
  1
ACMDATUMSTANDARDJIS
  2
AcmDatumStdJIS
  3
"AcmSymBB|Product Description: AutoCAD Mechanical 2000|Company: Autodesk"
 90
        0
280
     0
281
     0
  0
CLASS
  1
ACMBOMSTANDARDJIS
  2
AcmBOMStdJIS
  3
"AcmSymBB|Product Description: AutoCAD Mechanical 2000|Company: Autodesk"
 90
        0
280
     0
281
     0
  0
CLASS
  1
ACMSTANDARDANSI
  2
AcmStandardANSI
  3
"AcmSymBB|Product Description: AutoCAD Mechanical 2000|Company: Autodesk"
 90
        0
280
     0
281
     0
  0
CLASS
  1
ACMSURFSTANDARDANSI
  2
AcmSurfTextStdANSI
  3
"AcmSymBB|Product Description: AutoCAD Mechanical 2000|Company: Autodesk"
 90
        0
280
     0
281
     0
  0
CLASS
  1
ACMFCFSTANDARDANSI
  2
AcmFCFStdANSI
  3
"AcmSymBB|Product Description: AutoCAD Mechanical 2000|Company: Autodesk"
 90
        0
280
     0
281
     0
  0
CLASS
  1
ACMWELDSTANDARDANSI
  2
AcmWeldingStdANSI
  3
"AcmSymBB|Product Description: AutoCAD Mechanical 2000|Company: Autodesk"
 90
        0
280
     0
281
     0
  0
CLASS
  1
ACMIDSTANDARDANSI
  2
AcmIdStdANSI
  3
"AcmSymBB|Product Description: AutoCAD Mechanical 2000|Company: Autodesk"
 90
        0
280
     0
281
     0
  0
CLASS
  1
ACMDATUMSTANDARDANSI
  2
AcmDatumStdANSI
  3
"AcmSymBB|Product Description: AutoCAD Mechanical 2000|Company: Autodesk"
 90
        0
280
     0
281
     0
  0
CLASS
  1
ACMBOMSTANDARDANSI
  2
AcmBOMStdANSI
  3
"AcmSymBB|Product Description: AutoCAD Mechanical 2000|Company: Autodesk"
 90
        0
280
     0
281
     0
  0
CLASS
  1
ACMSTANDARDBSI
  2
AcmStandardBSI
  3
"AcmSymBB|Product Description: AutoCAD Mechanical 2000|Company: Autodesk"
 90
        0
280
     0
281
     0
  0
CLASS
  1
ACMSURFSTANDARDBSI
  2
AcmSurfTextStdBSI
  3
"AcmSymBB|Product Description: AutoCAD Mechanical 2000|Company: Autodesk"
 90
        0
280
     0
281
     0
  0
CLASS
  1
ACMFCFSTANDARDBSI
  2
AcmFCFStdBSI
  3
"AcmSymBB|Product Description: AutoCAD Mechanical 2000|Company: Autodesk"
 90
        0
280
     0
281
     0
  0
CLASS
  1
ACMWELDSTANDARDBSI
  2
AcmWeldingStdBSI
  3
"AcmSymBB|Product Description: AutoCAD Mechanical 2000|Company: Autodesk"
 90
        0
280
     0
281
     0
  0
CLASS
  1
ACMIDSTANDARDBSI
  2
AcmIdStdBSI
  3
"AcmSymBB|Product Description: AutoCAD Mechanical 2000|Company: Autodesk"
 90
        0
280
     0
281
     0
  0
CLASS
  1
ACMDATUMSTANDARDBSI
  2
AcmDatumStdBSI
  3
"AcmSymBB|Product Description: AutoCAD Mechanical 2000|Company: Autodesk"
 90
        0
280
     0
281
     0
  0
CLASS
  1
ACMBOMSTANDARDBSI
  2
AcmBOMStdBSI
  3
"AcmSymBB|Product Description: AutoCAD Mechanical 2000|Company: Autodesk"
 90
        0
280
     0
281
     0
  0
CLASS
  1
LONG_TRANSACTION
  2
AcDbLongTransaction
  3
AutoCAD 2000
 90
        0
280
     0
281
     0
  0
CLASS
  1
LWPOLYLINE
  2
AcDbPolyline
  3
AutoCAD 2000
 90
        0
280
     0
281
     1
  0
CLASS
  1
HATCH
  2
AcDbHatch
  3
AutoCAD 2000
 90
        0
280
     0
281
     1
  0
CLASS
  1
XRECORD
  2
AcDbXrecord
  3
AutoCAD 2000
 90
        0
280
     0
281
     0
  0
ENDSEC
  0
SECTION
  2
TABLES
  0
TABLE
  2
VPORT
  5
8
330
0
100
AcDbSymbolTable
 70
     3
  0
VPORT
  5
2577
330
8
100
AcDbSymbolTableRecord
100
AcDbViewportTableRecord
  2
*ACTIVE
 70
     0
 10
0.0
 20
0.0
 11
1.0
 21
1.0
 12
-35.4240420700597
 22
-5.233867896153256
 13
0.0
 23
0.0
 14
2.5
 24
2.5
 15
10.0
 25
10.0
 16
0.0
 26
0.0
 36
1.0
 17
0.0
 27
0.0
 37
0.0
 40
69.28791698628389
 41
1.56570841889117
 42
50.0
 43
0.0
 44
0.0
 50
0.0
 51
0.0
 71
     0
 72
   100
 73
     1
 74
     1
 75
     0
 76
     0
 77
     0
 78
     0
  0
ENDTAB
  0
TABLE
  2
LTYPE
  5
5
330
0
100
AcDbSymbolTable
 70
    10
  0
LTYPE
  5
14
330
5
100
AcDbSymbolTableRecord
100
AcDbLinetypeTableRecord
  2
BYBLOCK
 70
     0
  3

 72
    65
 73
     0
 40
0.0
  0
LTYPE
  5
15
330
5
100
AcDbSymbolTableRecord
100
AcDbLinetypeTableRecord
  2
BYLAYER
 70
     0
  3

 72
    65
 73
     0
 40
0.0
  0
LTYPE
  5
16
330
5
100
AcDbSymbolTableRecord
100
AcDbLinetypeTableRecord
  2
CONTINUOUS
 70
     0
  3
Solid line
 72
    65
 73
     0
 40
0.0
  0
LTYPE
  5
4B
330
5
100
AcDbSymbolTableRecord
100
AcDbLinetypeTableRecord
  2
AM_ISO02W050
 70
     0
  3
__ __ __ __ __ __ __ __ __ __ __ __ __ __ __
 72
    65
 73
     2
 40
7.5
 49
6.0
 74
     0
 49
-1.5
 74
     0
  0
LTYPE
  5
4C
330
5
100
AcDbSymbolTableRecord
100
AcDbLinetypeTableRecord
  2
AM_ISO08W050
 70
     0
  3
____ . ____ . ____ . ____ . ____ . ____ . ____
 72
    65
 73
     4
 40
18.0
 49
12.0
 74
     0
 49
-1.5
 74
     0
 49
3.0
 74
     0
 49
-1.5
 74
     0
  0
LTYPE
  5
4D
330
5
100
AcDbSymbolTableRecord
100
AcDbLinetypeTableRecord
  2
AM_ISO09W050
 70
     0
  3
_____ . . _____ . . _____ . . ____ .. ____
 72
    65
 73
     6
 40
22.5
 49
12.0
 74
     0
 49
-1.5
 74
     0
 49
3.0
 74
     0
 49
-1.5
 74
     0
 49
3.0
 74
     0
 49
-1.5
 74
     0
  0
LTYPE
  5
4E
330
5
100
AcDbSymbolTableRecord
100
AcDbLinetypeTableRecord
  2
AMCONSTR
 70
     0
  3
_______________________
 72
    65
 73
     2
 40
9999.0
 49
9999.0
 74
     0
 49
0.0
 74
     0
  0
LTYPE
  5
4F
330
5
100
AcDbSymbolTableRecord
100
AcDbLinetypeTableRecord
  2
AM_ISO02W050X2
 70
     0
  3
 _ _ _ _ _ _ _ _ _ _ _ _
 72
    65
 73
     2
 40
3.75
 49
3.0
 74
     0
 49
-0.75
 74
     0
  0
LTYPE
  5
50
330
5
100
AcDbSymbolTableRecord
100
AcDbLinetypeTableRecord
  2
AM_ISO08W050X2
 70
     0
  3
__ . __ . __ . __ . __ . __
 72
    65
 73
     4
 40
9.0
 49
6.0
 74
     0
 49
-0.75
 74
     0
 49
1.5
 74
     0
 49
-0.75
 74
     0
  0
LTYPE
  5
53
330
5
100
AcDbSymbolTableRecord
100
AcDbLinetypeTableRecord
  2
AMZIGZAG
 70
     0
  3
/\/-/\/-/\/-/\/-/\/-/\/
 72
    65
 73
     2
 40
11.00009999999999
 49
0.0001
 74
     4
 75
   135
340
52
 46
0.04
 50
0.0
 44
0.0
 45
0.0
 49
-11.0
 74
     0
  0
LTYPE
  5
166
330
5
100
AcDbSymbolTableRecord
100
AcDbLinetypeTableRecord
  2
ACJISTGL
 70
     0
  3
_ _ _ _ _
 72
    65
 73
     2
 40
3.0
 49
2.0
 74
     0
 49
-1.0
 74
     0
  0
LTYPE
  5
26A
330
5
100
AcDbSymbolTableRecord
100
AcDbLinetypeTableRecord
  2
ACJISTGB
 70
     0
  3
__ . . __ . .
 72
    65
 73
     6
 40
9.0
 49
4.0
 74
     0
 49
-1.0
 74
     0
 49
1.0
 74
     0
 49
-1.0
 74
     0
 49
1.0
 74
     0
 49
-1.0
 74
     0
  0
ENDTAB
  0
TABLE
  2
LAYER
  5
2
330
0
100
AcDbSymbolTable
 70
     8
  0
LAYER
  5
10
330
2
100
AcDbSymbolTableRecord
100
AcDbLayerTableRecord
  2
0
 70
     0
 62
     7
  6
CONTINUOUS
  0
LAYER
  5
3F9
330
2
100
AcDbSymbolTableRecord
100
AcDbLayerTableRecord
  2
AM_0
 70
     0
 62
     7
  6
CONTINUOUS
  0
LAYER
  5
C7C
330
2
100
AcDbSymbolTableRecord
100
AcDbLayerTableRecord
  2
AM_7
 70
     0
 62
     4
  6
AM_ISO08W050
  0
LAYER
  5
C97
330
2
100
AcDbSymbolTableRecord
100
AcDbLayerTableRecord
  2
AM_11
 70
     0
 62
     3
  6
AM_ISO09W050
  0
LAYER
  5
CC5
330
2
100
AcDbSymbolTableRecord
100
AcDbLayerTableRecord
  2
AM_5
 70
     0
 62
     3
  6
CONTINUOUS
  0
LAYER
  5
CC7
330
2
100
AcDbSymbolTableRecord
100
AcDbLayerTableRecord
  2
DEFPOINTS
 70
     0
 62
     7
  6
CONTINUOUS
  0
LAYER
  5
19BC
330
2
100
AcDbSymbolTableRecord
100
AcDbLayerTableRecord
  2
AM_6
 70
     0
 62
     2
  6
CONTINUOUS
  0
LAYER
  5
2403
330
2
100
AcDbSymbolTableRecord
100
AcDbLayerTableRecord
  2
AM_CL
 70
     0
 62
     1
  6
AMCONSTR
  0
ENDTAB
  0
TABLE
  2
STYLE
  5
3
330
0
100
AcDbSymbolTable
 70
     5
  0
STYLE
  5
11
330
3
100
AcDbSymbolTableRecord
100
AcDbTextStyleTableRecord
  2
STANDARD
 70
     0
 40
0.0
 41
1.0
 50
0.0
 71
     0
 42
2.5
  3
simplex.shx
  4
EXTFONT.SHX
  0
STYLE
  5
52
330
3
100
AcDbSymbolTableRecord
100
AcDbTextStyleTableRecord
  2

 70
     1
 40
0.0
 41
1.0
 50
0.0
 71
     0
 42
2.5
  3
ltypeshp.shx
  4

  0
STYLE
  5
6B
330
3
100
AcDbSymbolTableRecord
100
AcDbTextStyleTableRecord
  2
ASAMI
 70
     0
 40
0.0
 41
1.0
 50
0.0
 71
     0
 42
2.5
  3
simplex.shx
  4
EXTFONT.SHX
  0
STYLE
  5
262
330
3
100
AcDbSymbolTableRecord
100
AcDbTextStyleTableRecord
  2
ACJISTS
 70
     0
 40
1.0
 41
1.0
 50
0.0
 71
     0
 42
2.5
  3
simplex.shx
  4
bigfont.shx
  0
STYLE
  5
269
330
3
100
AcDbSymbolTableRecord
100
AcDbTextStyleTableRecord
  2
ACJISGDT
 70
     0
 40
0.0
 41
1.0
 50
0.0
 71
     0
 42
2.5
  3
amgdtans.shx
  4

  0
ENDTAB
  0
TABLE
  2
VIEW
  5
6
330
0
100
AcDbSymbolTable
 70
     0
  0
ENDTAB
  0
TABLE
  2
UCS
  5
7
330
0
100
AcDbSymbolTable
 70
     0
  0
ENDTAB
  0
TABLE
  2
APPID
  5
9
330
0
100
AcDbSymbolTable
 70
    16
  0
APPID
  5
12
330
9
100
AcDbSymbolTableRecord
100
AcDbRegAppTableRecord
  2
ACAD
 70
     0
  0
APPID
  5
30
330
9
100
AcDbSymbolTableRecord
100
AcDbRegAppTableRecord
  2
MCAD_NO_VIS
 70
     0
  0
APPID
  5
31
330
9
100
AcDbSymbolTableRecord
100
AcDbRegAppTableRecord
  2
ACAD_TEMP_GRAPHIC
 70
     0
  0
APPID
  5
2C2
330
9
100
AcDbSymbolTableRecord
100
AcDbRegAppTableRecord
  2
GENIUS_GENDTOL_13
 70
     0
  0
APPID
  5
339
330
9
100
AcDbSymbolTableRecord
100
AcDbRegAppTableRecord
  2
GENIUS_GENODEF_13
 70
     0
  0
APPID
  5
33A
330
9
100
AcDbSymbolTableRecord
100
AcDbRegAppTableRecord
  2
GENIUS_GENOBJ-N-RSBK_13
 70
     0
  0
APPID
  5
33B
330
9
100
AcDbSymbolTableRecord
100
AcDbRegAppTableRecord
  2
GENIUS_GENOBJ-N-LIB_13
 70
     0
  0
APPID
  5
33C
330
9
100
AcDbSymbolTableRecord
100
AcDbRegAppTableRecord
  2
GENIUS_GENSCALE_13
 70
     0
  0
APPID
  5
378
330
9
100
AcDbSymbolTableRecord
100
AcDbRegAppTableRecord
  2
GENIUS_GENDIMSH_14
 70
     0
  0
APPID
  5
C82
330
9
100
AcDbSymbolTableRecord
100
AcDbRegAppTableRecord
  2
GENIUS_GENOBJ-N-CRS_13
 70
     0
  0
APPID
  5
C83
330
9
100
AcDbSymbolTableRecord
100
AcDbRegAppTableRecord
  2
GENIUS_GENOENT_13
 70
     0
  0
APPID
  5
C84
330
9
100
AcDbSymbolTableRecord
100
AcDbRegAppTableRecord
  2
GENIUS_GENOREF_13
 70
     0
  0
APPID
  5
C85
330
9
100
AcDbSymbolTableRecord
100
AcDbRegAppTableRecord
  2
GENIUS_GENOLIS_13
 70
     0
  0
APPID
  5
CA0
330
9
100
AcDbSymbolTableRecord
100
AcDbRegAppTableRecord
  2
GENIUS_GENOBJ-N-CEN_13
 70
     0
  0
APPID
  5
1B6F
330
9
100
AcDbSymbolTableRecord
100
AcDbRegAppTableRecord
  2
GENIUS_GENFIL_13
 70
     0
  0
APPID
  5
1B70
330
9
100
AcDbSymbolTableRecord
100
AcDbRegAppTableRecord
  2
GENIUS_GENOBJ-N-CHA_13
 70
     0
  0
ENDTAB
  0
TABLE
  2
DIMSTYLE
  5
A
330
0
100
AcDbSymbolTable
 70
     9
  0
DIMSTYLE
105
58
330
A
100
AcDbSymbolTableRecord
100
AcDbDimStyleTableRecord
  2
AM_JIS
 70
     0
  3

  4
"
  5
OPEN30
  6

  7

 40
0.5
 41
2.5
 42
1.0
 43
12.0
 44
1.0
 45
0.0
 46
0.0
 47
0.1
 48
0.1
140
3.2
141
0.0
142
0.0
143
0.0393701
144
1.0
145
0.0
146
0.71
147
1.5
 71
     0
 72
     0
 73
     0
 74
     0
 75
     0
 76
     0
 77
     3
 78
     8
170
     0
171
     2
172
     1
173
     0
174
     0
175
     0
176
   256
177
   256
178
     2
270
     2
271
     3
272
     3
273
     2
274
     2
340
6B
275
     0
280
     0
281
     0
282
     0
283
     0
284
     0
285
     0
286
     0
287
     3
288
     0
  0
DIMSTYLE
105
5F
330
A
100
AcDbSymbolTableRecord
100
AcDbDimStyleTableRecord
  2
AM_JIS$3
 70
     0
  3

  4
"
  5
OPEN30
  6

  7

 40
0.5
 41
2.5
 42
1.0
 43
10.0
 44
1.0
 45
0.0
 46
0.0
 47
0.1
 48
0.1
140
3.2
141
0.0
142
0.0
143
0.0393701
144
1.0
145
0.0
146
0.71
147
1.5
 71
     0
 72
     0
 73
     0
 74
     1
 75
     0
 76
     0
 77
     3
 78
     8
170
     0
171
     2
172
     0
173
     0
174
     0
175
     0
176
   256
177
   256
178
     2
270
     2
271
     2
272
     3
273
     2
274
     2
340
6B
275
     0
280
     0
281
     0
282
     0
283
     0
284
     0
285
     0
286
     0
287
     0
288
     1
  0
DIMSTYLE
105
60
330
A
100
AcDbSymbolTableRecord
100
AcDbDimStyleTableRecord
  2
AM_JIS$4
 70
     0
  3

  4
"
  5
OPEN30
  6

  7

 40
0.5
 41
2.5
 42
1.0
 43
10.0
 44
1.0
 45
0.0
 46
0.0
 47
0.1
 48
0.1
140
3.2
141
0.0
142
0.0
143
0.0393701
144
1.0
145
0.0
146
0.71
147
1.5
 71
     0
 72
     0
 73
     0
 74
     1
 75
     0
 76
     0
 77
     3
 78
     8
170
     0
171
     2
172
     0
173
     0
174
     0
175
     0
176
   256
177
   256
178
     2
270
     2
271
     2
272
     3
273
     2
274
     2
340
6B
275
     0
280
     0
281
     0
282
     0
283
     0
284
     0
285
     0
286
     0
287
     0
288
     1
  0
DIMSTYLE
105
61
330
A
100
AcDbSymbolTableRecord
100
AcDbDimStyleTableRecord
  2
AM_JIS$6
 70
     0
  3

  4
"
  5
OPEN30
  6

  7

 40
0.5
 41
2.5
 42
1.0
 43
10.0
 44
1.0
 45
0.0
 46
0.0
 47
0.1
 48
0.1
140
3.2
141
0.0
142
0.0
143
0.0393701
144
1.0
145
0.0
146
0.71
147
1.5
 71
     0
 72
     0
 73
     0
 74
     0
 75
     0
 76
     0
 77
     0
 78
     8
170
     0
171
     2
172
     1
173
     0
174
     0
175
     0
176
   256
177
   256
178
     2
270
     2
271
     2
272
     2
273
     2
274
     2
340
6B
275
     0
280
     0
281
     0
282
     0
283
     0
284
     0
285
     0
286
     0
287
     3
288
     0
  0
DIMSTYLE
105
62
330
A
100
AcDbSymbolTableRecord
100
AcDbDimStyleTableRecord
  2
AM_JIS$7
 70
     0
  3

  4
"
  5
OPEN30
  6

  7

 40
0.5
 41
2.5
 42
1.0
 43
10.0
 44
1.0
 45
0.0
 46
0.0
 47
0.1
 48
0.1
140
3.2
141
0.0
142
0.0
143
0.0393701
144
1.0
145
0.0
146
0.71
147
1.5
 71
     0
 72
     0
 73
     0
 74
     0
 75
     0
 76
     0
 77
     3
 78
     8
170
     0
171
     2
172
     1
173
     0
174
     0
175
     0
176
   256
177
   256
178
     2
270
     2
271
     2
272
     3
273
     2
274
     2
340
6B
275
     0
280
     0
281
     0
282
     0
283
     0
284
     0
285
     0
286
     0
287
     3
288
     0
  0
DIMSTYLE
105
63
330
A
100
AcDbSymbolTableRecord
100
AcDbDimStyleTableRecord
  2
AM_JIS$SF
 70
     0
  3

  4
"
  5
OPEN30
  6

  7

 40
0.5
 41
2.5
 42
1.0
 43
10.0
 44
1.0
 45
0.0
 46
0.0
 47
0.1
 48
0.1
140
3.2
141
0.0
142
0.0
143
0.0393701
144
1.0
145
0.0
146
0.71
147
1.5
 71
     0
 72
     0
 73
     0
 74
     0
 75
     1
 76
     1
 77
     3
 78
     8
170
     0
171
     2
172
     1
173
     0
174
     0
175
     0
176
   256
177
   256
178
     2
270
     2
271
     2
272
     2
273
     2
274
     2
340
6B
275
     0
280
     0
281
     0
282
     0
283
     0
284
     0
285
     0
286
     0
287
     3
288
     0
  0
DIMSTYLE
105
68
330
A
100
AcDbSymbolTableRecord
100
AcDbDimStyleTableRecord
  2
AM_JIS$SH
 70
     0
  3

  4
"
  5

  6
GENAXEH
  7
OPEN30
 40
0.5
 41
2.5
 42
1.0
 43
10.0
 44
1.0
 45
0.0
 46
0.0
 47
0.1
 48
0.1
140
3.2
141
0.0
142
0.0
143
0.0393701
144
2.0
145
0.0
146
0.71
147
1.5
 71
     0
 72
     0
 73
     0
 74
     0
 75
     1
 76
     1
 77
     3
 78
     8
170
     0
171
     2
172
     1
173
     1
174
     0
175
     0
176
   256
177
   256
178
     2
270
     2
271
     2
272
     2
273
     2
274
     2
340
6B
275
     0
280
     0
281
     0
282
     0
283
     0
284
     0
285
     0
286
     0
287
     3
288
     0
  0
DIMSTYLE
105
B34
102
{ACAD_REACTORS
330
2485
102
}
330
A
100
AcDbSymbolTableRecord
100
AcDbDimStyleTableRecord
  2
AM_JIS$2
 70
     0
  3

  4
"
  5
OPEN30
  6

  7

 40
0.5
 41
2.5
 42
1.0
 43
12.0
 44
1.0
 45
0.0
 46
0.0
 47
0.1
 48
0.1
140
3.2
141
0.0
142
0.0
143
0.0393701
144
1.0
145
0.0
146
0.71
147
1.5
 71
     0
 72
     0
 73
     0
 74
     0
 75
     0
 76
     0
 77
     3
 78
     8
170
     0
171
     2
172
     1
173
     0
174
     0
175
     0
176
   256
177
   256
178
     2
270
     2
271
     3
272
     3
273
     2
274
     2
340
6B
275
     0
280
     0
281
     0
282
     0
283
     0
284
     0
285
     0
286
     0
287
     3
288
     0
  0
DIMSTYLE
105
BA5
102
{ACAD_REACTORS
330
CC6
330
1BC7
330
1F56
330
2279
102
}
330
A
100
AcDbSymbolTableRecord
100
AcDbDimStyleTableRecord
  2
AM_JIS$0
 70
     0
  3

  4
"
  5
OPEN30
  6

  7

 40
0.5
 41
2.5
 42
0.0
 43
10.0
 44
1.0
 45
0.0
 46
0.0
 47
0.1
 48
0.1000000001
140
3.799999999999999
141
0.0
142
0.0
143
0.0393701
144
1.0
145
0.0
146
0.71
147
1.5
 71
     0
 72
     0
 73
     0
 74
     0
 75
     0
 76
     0
 77
     3
 78
     1
170
     0
171
     2
172
     1
173
     0
174
     0
175
     0
176
     3
177
     3
178
     2
270
     2
271
     2
272
     2
273
     2
274
     2
340
11
275
     1
280
     0
281
     0
282
     0
283
     0
284
     8
285
     0
286
     0
287
     0
288
     0
  0
ENDTAB
  0
TABLE
  2
BLOCK_RECORD
  5
1
330
0
100
AcDbSymbolTable
 70
    11
  0
BLOCK_RECORD
  5
1F
102
{ACAD_XDICTIONARY
360
74
102
}
330
1
100
AcDbSymbolTableRecord
100
AcDbBlockTableRecord
  2
*MODEL_SPACE
  0
BLOCK_RECORD
  5
101
102
{ACAD_XDICTIONARY
360
25A0
102
}
330
1
100
AcDbSymbolTableRecord
100
AcDbBlockTableRecord
  2
*PAPER_SPACE
  0
BLOCK_RECORD
  5
59
330
1
100
AcDbSymbolTableRecord
100
AcDbBlockTableRecord
  2
_OPEN30
  0
BLOCK_RECORD
  5
64
330
1
100
AcDbSymbolTableRecord
100
AcDbBlockTableRecord
  2
GENAXEH
  0
BLOCK_RECORD
  5
CC8
330
1
100
AcDbSymbolTableRecord
100
AcDbBlockTableRecord
  2
*D5
  0
BLOCK_RECORD
  5
1BC8
330
1
100
AcDbSymbolTableRecord
100
AcDbBlockTableRecord
  2
*D7
  0
BLOCK_RECORD
  5
1F57
330
1
100
AcDbSymbolTableRecord
100
AcDbBlockTableRecord
  2
*D8
  0
BLOCK_RECORD
  5
227A
330
1
100
AcDbSymbolTableRecord
100
AcDbBlockTableRecord
  2
*D9
  0
BLOCK_RECORD
  5
2486
330
1
100
AcDbSymbolTableRecord
100
AcDbBlockTableRecord
  2
*D10
  0
ENDTAB
  0
ENDSEC
  0
SECTION
  2
BLOCKS
  0
BLOCK
  5
20
330
1F
100
AcDbEntity
  8
0
100
AcDbBlockBegin
  2
*MODEL_SPACE
 70
     0
 10
0.0
 20
0.0
 30
0.0
  3
*MODEL_SPACE
  1

  0
ENDBLK
  5
21
330
1F
100
AcDbEntity
  8
0
100
AcDbBlockEnd
  0
BLOCK
  5
103
330
101
100
AcDbEntity
 67
     1
  8
0
100
AcDbBlockBegin
  2
*PAPER_SPACE
 70
     0
 10
0.0
 20
0.0
 30
0.0
  3
*PAPER_SPACE
  1

  0
ENDBLK
  5
104
330
101
100
AcDbEntity
 67
     1
  8
0
100
AcDbBlockEnd
  0
BLOCK
  5
5D
330
59
100
AcDbEntity
  8
0
100
AcDbBlockBegin
  2
_OPEN30
 70
     0
 10
0.0
 20
0.0
 30
0.0
  3
_OPEN30
  1

  0
LINE
  5
5A
330
59
100
AcDbEntity
  8
0
 62
     0
100
AcDbLine
 10
-1.0
 20
0.26794919
 30
0.0
 11
0.0
 21
0.0
 31
0.0
  0
LINE
  5
5B
330
59
100
AcDbEntity
  8
0
 62
     0
100
AcDbLine
 10
0.0
 20
0.0
 30
0.0
 11
-1.0
 21
-0.26794919
 31
0.0
  0
LINE
  5
5C
330
59
100
AcDbEntity
  8
0
 62
     0
100
AcDbLine
 10
0.0
 20
0.0
 30
0.0
 11
-1.0
 21
0.0
 31
0.0
  0
ENDBLK
  5
5E
330
59
100
AcDbEntity
  8
0
100
AcDbBlockEnd
  0
BLOCK
  5
66
330
64
100
AcDbEntity
  8
0
100
AcDbBlockBegin
  2
GENAXEH
 70
     0
 10
0.0
 20
0.0
 30
0.0
  3
GENAXEH
  1

  0
LINE
  5
65
330
64
100
AcDbEntity
  8
0
100
AcDbLine
 10
-1.0
 20
0.0
 30
0.0
 11
1.0
 21
0.0
 31
0.0
  0
ENDBLK
  5
67
330
64
100
AcDbEntity
  8
0
100
AcDbBlockEnd
  0
BLOCK
  5
CD2
330
CC8
100
AcDbEntity
  8
0
100
AcDbBlockBegin
  2
*D5
 70
     1
 10
0.0
 20
0.0
 30
0.0
  3
*D5
  1

  0
LINE
  5
2444
330
CC8
100
AcDbEntity
  8
AM_5
 62
     3
100
AcDbLine
 10
-79.0
 20
-1.250006209471279
 30
0.0
 11
-79.0
 21
-14.00000718101105
 31
0.0
  0
LINE
  5
2445
330
CC8
100
AcDbEntity
  8
AM_5
 62
     3
100
AcDbLine
 10
-0.9999999999999937
 20
-1.29999084044646
 30
0.0
 11
-0.9999999999999944
 21
-14.00000718101105
 31
0.0
  0
LINE
  5
2446
330
CC8
100
AcDbEntity
  8
AM_5
 62
     3
100
AcDbLine
 10
-77.75
 20
-13.50000718101105
 30
0.0
 11
-2.249999999999994
 21
-13.50000718101105
 31
0.0
  0
INSERT
  5
2447
330
CC8
100
AcDbEntity
  8
AM_5
 62
     3
100
AcDbBlockReference
  2
_OPEN30
 10
-79.0
 20
-13.50000718101105
 30
0.0
 41
1.25
 42
1.25
 43
1.25
 50
180.0
  0
INSERT
  5
2448
330
CC8
100
AcDbEntity
  8
AM_5
 62
     3
100
AcDbBlockReference
  2
_OPEN30
 10
-0.9999999999999944
 20
-13.50000718101105
 30
0.0
 41
1.25
 42
1.25
 43
1.25
  0
MTEXT
  5
2449
330
CC8
100
AcDbEntity
  8
AM_5
 62
     2
100
AcDbMText
 10
-40.0
 20
-11.80000718101105
 30
0.0
 40
1.9
 41
0.0
 71
     5
 72
     1
  1
78
1001
ACAD
1000
MTEXTBEGIN
1070
    73
1070
     1
1070
    44
1040
1.0
1070
    74
1070
     0
1000
MTEXTEND
  0
POINT
  5
244A
330
CC8
100
AcDbEntity
  8
DEFPOINTS
 62
     0
100
AcDbPoint
 10
-79.0
 20
-1.250006209471279
 30
0.0
  0
POINT
  5
244B
330
CC8
100
AcDbEntity
  8
DEFPOINTS
 62
     0
100
AcDbPoint
 10
-0.9999999999999937
 20
-1.29999084044646
 30
0.0
  0
POINT
  5
244C
330
CC8
100
AcDbEntity
  8
DEFPOINTS
 62
     0
100
AcDbPoint
 10
-0.9999999999999944
 20
-13.50000718101105
 30
0.0
  0
ENDBLK
  5
CD3
330
CC8
100
AcDbEntity
  8
0
100
AcDbBlockEnd
  0
BLOCK
  5
1BD2
330
1BC8
100
AcDbEntity
  8
0
100
AcDbBlockBegin
  2
*D7
 70
     1
 10
0.0
 20
0.0
 30
0.0
  3
*D7
  1

  0
LINE
  5
2458
330
1BC8
100
AcDbEntity
  8
AM_5
 62
     3
100
AcDbLine
 10
-30.99999999999999
 20
-1.500000542241561
 30
0.0
 11
-30.99999999999999
 21
-9.000007181011088
 31
0.0
  0
LINE
  5
2459
330
1BC8
100
AcDbEntity
  8
AM_5
 62
     3
100
AcDbLine
 10
-1.000004132588682
 20
-1.500000000000004
 30
0.0
 11
-1.000004132588682
 21
-9.000007181011088
 31
0.0
  0
LINE
  5
245A
330
1BC8
100
AcDbEntity
  8
AM_5
 62
     3
100
AcDbLine
 10
-29.74999999999999
 20
-8.500007181011088
 30
0.0
 11
-2.250004132588682
 21
-8.500007181011088
 31
0.0
  0
INSERT
  5
245B
330
1BC8
100
AcDbEntity
  8
AM_5
 62
     3
100
AcDbBlockReference
  2
_OPEN30
 10
-30.99999999999999
 20
-8.500007181011088
 30
0.0
 41
1.25
 42
1.25
 43
1.25
 50
180.0
  0
INSERT
  5
245C
330
1BC8
100
AcDbEntity
  8
AM_5
 62
     3
100
AcDbBlockReference
  2
_OPEN30
 10
-1.000004132588682
 20
-8.500007181011088
 30
0.0
 41
1.25
 42
1.25
 43
1.25
  0
MTEXT
  5
245D
330
1BC8
100
AcDbEntity
  8
AM_5
 62
     2
100
AcDbMText
 10
-16.00000206629434
 20
-6.800007181011088
 30
0.0
 40
1.9
 41
0.0
 71
     5
 72
     1
  1
30
1001
ACAD
1000
MTEXTBEGIN
1070
    73
1070
     1
1070
    44
1040
1.0
1070
    74
1070
     0
1000
MTEXTEND
  0
POINT
  5
245E
330
1BC8
100
AcDbEntity
  8
DEFPOINTS
 62
     0
100
AcDbPoint
 10
-30.99999999999999
 20
-1.500000542241561
 30
0.0
  0
POINT
  5
245F
330
1BC8
100
AcDbEntity
  8
DEFPOINTS
 62
     0
100
AcDbPoint
 10
-1.000004132588682
 20
-1.500000000000004
 30
0.0
  0
POINT
  5
2460
330
1BC8
100
AcDbEntity
  8
DEFPOINTS
 62
     0
100
AcDbPoint
 10
-1.000004132588682
 20
-8.500007181011088
 30
0.0
  0
ENDBLK
  5
1BD3
330
1BC8
100
AcDbEntity
  8
0
100
AcDbBlockEnd
  0
BLOCK
  5
1F63
330
1F57
100
AcDbEntity
  8
0
100
AcDbBlockBegin
  2
*D8
 70
     1
 10
0.0
 20
0.0
 30
0.0
  3
*D8
  1

  0
LINE
  5
244D
330
1F57
100
AcDbEntity
  8
AM_5
 62
     3
100
AcDbLine
 10
-78.74999999999997
 20
-1.500006181011378
 30
0.0
 11
-87.25000135426984
 21
-1.500006181011395
 31
0.0
  0
LINE
  5
244E
330
1F57
100
AcDbEntity
  8
AM_5
 62
     3
100
AcDbLine
 10
-78.74999999999997
 20
1.500005264989025
 30
0.0
 11
-87.25000135426984
 21
1.500005264989009
 31
0.0
  0
LINE
  5
244F
330
1F57
100
AcDbEntity
  8
AM_5
 62
     3
100
AcDbLine
 10
-86.75000135426984
 20
-2.750006181011394
 30
0.0
 11
-86.75000135426982
 21
-4.000006181011394
 31
0.0
  0
LINE
  5
2450
330
1F57
100
AcDbEntity
  8
AM_5
 62
     3
100
AcDbLine
 10
-86.75000135426984
 20
2.75000526498901
 30
0.0
 11
-86.75000135426985
 21
4.00000526498901
 31
0.0
  0
LINE
  5
2451
330
1F57
100
AcDbEntity
  8
AM_5
 62
     3
100
AcDbLine
 10
-86.75000135426984
 20
-1.500006181011394
 30
0.0
 11
-86.75000135426984
 21
1.500005264989009
 31
0.0
  0
INSERT
  5
2452
330
1F57
100
AcDbEntity
  8
AM_5
 62
     3
100
AcDbBlockReference
  2
_OPEN30
 10
-86.75000135426984
 20
-1.500006181011394
 30
0.0
 41
1.25
 42
1.25
 43
1.25
 50
90.0000000000001
  0
INSERT
  5
2453
330
1F57
100
AcDbEntity
  8
AM_5
 62
     3
100
AcDbBlockReference
  2
_OPEN30
 10
-86.75000135426984
 20
1.500005264989009
 30
0.0
 41
1.25
 42
1.25
 43
1.25
 50
270.0000000000001
  0
MTEXT
  5
2454
330
1F57
100
AcDbEntity
  8
AM_5
 62
     2
100
AcDbMText
 10
-88.45000135426984
 20
-0.0000004580111922
 30
0.0
 40
1.9
 41
0.0
 71
     5
 72
     1
  1
%%c3
 11
-0.000000000000002
 21
1.0
 31
0.0
1001
ACAD
1000
MTEXTBEGIN
1070
    73
1070
     1
1070
    44
1040
1.0
1070
    74
1070
     0
1000
MTEXTEND
  0
POINT
  5
2455
330
1F57
100
AcDbEntity
  8
DEFPOINTS
 62
     0
100
AcDbPoint
 10
-78.74999999999997
 20
-1.500006181011204
 30
0.0
  0
POINT
  5
2456
330
1F57
100
AcDbEntity
  8
DEFPOINTS
 62
     0
100
AcDbPoint
 10
-78.74999999999997
 20
1.5000052649892
 30
0.0
  0
POINT
  5
2457
330
1F57
100
AcDbEntity
  8
DEFPOINTS
 62
     0
100
AcDbPoint
 10
-86.75000135426984
 20
1.500005264989202
 30
0.0
  0
ENDBLK
  5
1F64
330
1F57
100
AcDbEntity
  8
0
100
AcDbBlockEnd
  0
BLOCK
  5
2286
330
227A
100
AcDbEntity
  8
0
100
AcDbBlockBegin
  2
*D9
 70
     1
 10
0.0
 20
0.0
 30
0.0
  3
*D9
  1

  0
LINE
  5
2461
330
227A
100
AcDbEntity
  8
AM_5
 62
     3
100
AcDbLine
 10
-1.000000000000004
 20
-1.299999923808336
 30
0.0
 11
7.298892490728607
 21
-1.299999923808339
 31
0.0
  0
LINE
  5
2462
330
227A
100
AcDbEntity
  8
AM_5
 62
     3
100
AcDbLine
 10
-0.9999999999999754
 20
1.300000076191663
 30
0.0
 11
7.298892490728607
 21
1.30000007619166
 31
0.0
  0
LINE
  5
2463
330
227A
100
AcDbEntity
  8
AM_5
 62
     3
100
AcDbLine
 10
6.798892490728605
 20
-2.549999923808338
 30
0.0
 11
6.798892490728605
 21
-3.799999923808338
 31
0.0
  0
LINE
  5
2464
330
227A
100
AcDbEntity
  8
AM_5
 62
     3
100
AcDbLine
 10
6.798892490728607
 20
2.550000076191661
 30
0.0
 11
6.798892490728609
 21
10.90952388571547
 31
0.0
  0
LINE
  5
2465
330
227A
100
AcDbEntity
  8
AM_5
 62
     3
100
AcDbLine
 10
6.798892490728606
 20
-1.299999923808339
 30
0.0
 11
6.798892490728606
 21
1.30000007619166
 31
0.0
  0
INSERT
  5
2466
330
227A
100
AcDbEntity
  8
AM_5
 62
     3
100
AcDbBlockReference
  2
_OPEN30
 10
6.798892490728606
 20
-1.299999923808339
 30
0.0
 41
1.25
 42
1.25
 43
1.25
 50
90.0
  0
INSERT
  5
2467
330
227A
100
AcDbEntity
  8
AM_5
 62
     3
100
AcDbBlockReference
  2
_OPEN30
 10
6.798892490728606
 20
1.30000007619166
 30
0.0
 41
1.25
 42
1.25
 43
1.25
 50
270.0
  0
MTEXT
  5
2468
330
227A
100
AcDbEntity
  8
AM_5
 62
     2
100
AcDbMText
 10
5.098892490728607
 20
7.354761980953567
 30
0.0
 40
1.9
 41
0.0
 71
     5
 72
     1
  1
%%c2.6
 11
0.0000000000000001
 21
1.0
 31
0.0
1001
ACAD
1000
MTEXTBEGIN
1070
    73
1070
     1
1070
    44
1040
1.0
1070
    74
1070
     0
1000
MTEXTEND
  0
POINT
  5
2469
330
227A
100
AcDbEntity
  8
DEFPOINTS
 62
     0
100
AcDbPoint
 10
-1.000000000000004
 20
-1.299999923808336
 30
0.0
  0
POINT
  5
246A
330
227A
100
AcDbEntity
  8
DEFPOINTS
 62
     0
100
AcDbPoint
 10
-0.9999999999999754
 20
1.300000076191663
 30
0.0
  0
POINT
  5
246B
330
227A
100
AcDbEntity
  8
DEFPOINTS
 62
     0
100
AcDbPoint
 10
6.798892490728606
 20
1.30000007619166
 30
0.0
  0
ENDBLK
  5
2287
330
227A
100
AcDbEntity
  8
0
100
AcDbBlockEnd
  0
BLOCK
  5
2496
330
2486
100
AcDbEntity
  8
0
100
AcDbBlockBegin
  2
*D10
 70
     1
 10
0.0
 20
0.0
 30
0.0
  3
*D10
  1

  0
LINE
  5
254D
330
2486
100
AcDbEntity
  8
AM_5
100
AcDbLine
 10
0.1710087926304776
 20
-0.4698467759206883
 30
0.0
 11
5.198017588534094
 21
-14.28155691636956
 31
0.0
  0
LINE
  5
254E
330
2486
100
AcDbEntity
  8
AM_5
100
AcDbLine
 10
0.1710100517590966
 20
0.4698463176373239
 30
0.0
 11
5.198055861260352
 21
14.28154298629634
 31
0.0
  0
ARC
  5
254F
330
2486
100
AcDbEntity
  8
AM_5
100
AcDbCircle
 10
0.0000000000000017
 20
0.0000000000000015
 30
0.0
 40
14.69810036834252
100
AcDbArc
 50
294.874033448861
 51
65.12581300578197
  0
INSERT
  5
2550
330
2486
100
AcDbEntity
  8
AM_5
100
AcDbBlockReference
  2
_OPEN30
 10
5.027008795903618
 20
-13.81171014044888
 30
0.0
 41
1.25
 42
1.25
 43
1.25
 50
202.4369387381633
  0
INSERT
  5
2551
330
2486
100
AcDbEntity
  8
AM_5
100
AcDbBlockReference
  2
_OPEN30
 10
5.027045809501257
 20
13.81169666865902
 30
0.0
 41
1.25
 42
1.25
 43
1.25
 50
157.5629077164795
  0
MTEXT
  5
2552
330
2486
100
AcDbEntity
  8
AM_5
 62
     2
100
AcDbMText
 10
13.14810036833072
 20
-0.0000176176132115
 30
0.0
 40
1.6
 41
0.0
 71
     5
 72
     1
  1
140°
  7
ASAMI
 11
0.0000013399360144
 21
0.9999999999991022
 31
0.0
1001
ACAD
1000
MTEXTBEGIN
1070
    73
1070
     1
1070
    44
1040
1.0
1070
    74
1070
     0
1000
MTEXTEND
  0
POINT
  5
2553
330
2486
100
AcDbEntity
  8
DEFPOINTS
 62
     0
100
AcDbPoint
 10
13.49602201572948
 20
-5.821644457437773
 30
0.0
  0
POINT
  5
2554
330
2486
100
AcDbEntity
  8
DEFPOINTS
 62
     0
100
AcDbPoint
 10
0.0000000000000017
 20
0.0000000000000015
 30
0.0
  0
POINT
  5
2555
330
2486
100
AcDbEntity
  8
DEFPOINTS
 62
     0
100
AcDbPoint
 10
0.0000000000000017
 20
0.0000000000000015
 30
0.0
  0
POINT
  5
2556
330
2486
100
AcDbEntity
  8
DEFPOINTS
 62
     0
100
AcDbPoint
 10
-0.1332386856516279
 20
0.3660733808968644
 30
0.0
  0
POINT
  5
2557
330
2486
100
AcDbEntity
  8
DEFPOINTS
 62
     0
100
AcDbPoint
 10
-0.1332411609958311
 20
-0.3660771294298124
 30
0.0
  0
ENDBLK
  5
2497
330
2486
100
AcDbEntity
  8
0
100
AcDbBlockEnd
  0
ENDSEC
  0
SECTION
  2
ENTITIES
  0
LINE
  5
C1D
330
1F
100
AcDbEntity
  8
AM_0
 48
0.5
100
AcDbLine
 10
0.0000000000000017
 20
0.0000000000000015
 30
0.0
 11
-0.1332386856516278
 21
0.3660733808968644
 31
0.0
  0
LINE
  5
C20
330
1F
100
AcDbEntity
  8
AM_0
 48
0.5
100
AcDbLine
 10
0.0000000000000017
 20
0.0000000000000015
 30
0.0
 11
-0.1332411609958311
 21
-0.3660771294298124
 31
0.0
  0
LINE
  5
C30
330
1F
100
AcDbEntity
  8
AM_0
 48
0.5
100
AcDbLine
 10
-79.0
 20
-1.250006209471279
 30
0.0
 11
-79.00000000000007
 21
1.250005235204406
 31
0.0
  0
LINE
  5
C9F
330
1F
100
AcDbEntity
  8
AM_7
100
AcDbLine
 10
-79.74999999999997
 20
-0.000000000000079
 30
0.0
 11
0.3414507133674736
 21
0.0000000000000019
 31
0.0
1001
GENIUS_GENODEF_13
1002
{
1000
HIER
1070
     0
1002
}
1002
{
1000
MANEDIT
1070
     0
1002
}
1002
{
1000
NOSEL
1070
     0
1002
}
1002
{
1000
BEHIND
1070
     0
1002
}
1002
{
1000
REACTOR
1002
}
1001
GENIUS_GENOBJ-N-CEN_13
1002
{
1000
OWNER
1000
GEN
1002
}
  0
DIMENSION
  5
CC6
330
1F
100
AcDbEntity
  8
AM_5
100
AcDbDimension
  2
*D5
 10
-0.9999999999999944
 20
-13.50000718101105
 30
0.0
 11
-40.0
 21
-11.80000718101105
 31
0.0
 70
    32
  1
<>
  3
AM_JIS$0
100
AcDbAlignedDimension
 13
-79.0
 23
-1.250006209471279
 33
0.0
 14
-0.9999999999999937
 24
-1.29999084044646
 34
0.0
 50
0.0000000000001132
100
AcDbRotatedDimension
1001
GENIUS_GENDTOL_13
1000

1000
h7
1000

1040
0.0
1001
ACAD
1000
DSTYLE
1002
{
1070
   271
1070
     0
1002
}
  0
ARC
  5
144A
330
1F
100
AcDbEntity
  8
AM_11
 48
0.5
100
AcDbCircle
 10
-24.57419016387426
 20
-6.625446930970554
 30
0.0
 40
7.325448036193749
100
AcDbArc
 50
64.74833051131179
 51
115.2516644797366
  0
ARC
  5
144B
330
1F
100
AcDbEntity
  8
AM_11
 48
0.5
100
AcDbCircle
 10
-24.57419016387426
 20
6.625451430235444
 30
0.0
 40
7.325448036193749
100
AcDbArc
 50
244.7482808787518
 51
295.2516148471758
  0
ARC
  5
144E
330
1F
100
AcDbEntity
  8
AM_11
 48
0.5
100
AcDbCircle
 10
-18.32419016387426
 20
-6.625446930970554
 30
0.0
 40
7.325448036193749
100
AcDbArc
 50
64.74833051131179
 51
115.2516644797366
  0
ARC
  5
144F
330
1F
100
AcDbEntity
  8
AM_11
 48
0.5
100
AcDbCircle
 10
-18.32419016387426
 20
6.625451430235444
 30
0.0
 40
7.325448036193749
100
AcDbArc
 50
244.7482808787518
 51
295.2516148471758
  0
ARC
  5
1450
330
1F
100
AcDbEntity
  8
AM_11
 48
0.5
100
AcDbCircle
 10
-12.07419016387601
 20
6.625451430235444
 30
0.0
 40
7.325448036193749
100
AcDbArc
 50
244.7482808787518
 51
295.2516148471758
  0
ARC
  5
1451
330
1F
100
AcDbEntity
  8
AM_11
 48
0.5
100
AcDbCircle
 10
-12.07419016387601
 20
-6.625446930970554
 30
0.0
 40
7.325448036193749
100
AcDbArc
 50
64.74833051131179
 51
115.2516644797366
  0
ARC
  5
1452
330
1F
100
AcDbEntity
  8
AM_11
 48
0.5
100
AcDbCircle
 10
-5.824190163876014
 20
-6.625446930970554
 30
0.0
 40
7.325448036193749
100
AcDbArc
 50
64.74833051131179
 51
115.2516644797366
  0
ARC
  5
1453
330
1F
100
AcDbEntity
  8
AM_11
 48
0.5
100
AcDbCircle
 10
-5.824190163876014
 20
6.625451430235444
 30
0.0
 40
7.325448036193749
100
AcDbArc
 50
244.7482808787518
 51
295.2516148471758
  0
ARC
  5
1454
330
1F
100
AcDbEntity
  8
AM_11
 48
0.5
100
AcDbCircle
 10
0.4258098361239923
 20
6.625451430235444
 30
0.0
 40
7.325448036193749
100
AcDbArc
 50
244.7482808787518
 51
254.0147302238188
  0
ARC
  5
18B8
330
1F
100
AcDbEntity
  8
AM_11
 48
0.5
100
AcDbCircle
 10
-30.8241901638742
 20
6.625451430235423
 30
0.0
 40
7.325448036193749
100
AcDbArc
 50
244.7482808787518
 51
295.2516148471758
  0
ARC
  5
18B9
330
1F
100
AcDbEntity
  8
AM_11
 48
0.5
100
AcDbCircle
 10
-30.82419016387421
 20
-6.625446930970575
 30
0.0
 40
7.325448036193749
100
AcDbArc
 50
64.74833051131179
 51
115.2516644797366
  0
ARC
  5
18BA
330
1F
100
AcDbEntity
  8
AM_11
 48
0.5
100
AcDbCircle
 10
-37.07420293107463
 20
6.625457452091309
 30
0.0
 40
7.325448036193749
100
AcDbArc
 50
244.7482808787518
 51
295.2516148471758
  0
ARC
  5
18BB
330
1F
100
AcDbEntity
  8
AM_11
 48
0.5
100
AcDbCircle
 10
-37.07420293107464
 20
-6.62544090911469
 30
0.0
 40
7.325448036193749
100
AcDbArc
 50
64.74833051131179
 51
115.2516644797366
  0
TEXT
  5
19BD
330
1F
100
AcDbEntity
  8
AM_6
100
AcDbText
 10
-50.8333333333333
 20
-24.75000718101107
 30
0.0
 40
2.5
  1
MDW026LHK
 50
0.0000000000001527
 72
     4
 11
-39.99999999999997
 21
-23.50000718101104
 31
0.0
100
AcDbText
  0
LINE
  5
1B73
330
1F
100
AcDbEntity
  8
AM_0
 48
0.5
100
AcDbLine
 10
-79.00000000000007
 20
1.250005235204406
 30
0.0
 11
-78.75000000000008
 21
1.5000052649891
 31
0.0
1001
GENIUS_GENFIL_13
1070
     0
1040
0.25
1040
0.25
1040
20.0
1040
0.0
1002
{
1002
}
1001
GENIUS_GENODEF_13
1002
{
1000
HIER
1070
     0
1002
}
1002
{
1000
MANEDIT
1070
     0
1002
}
1002
{
1000
NOSEL
1070
     0
1002
}
1002
{
1000
BEHIND
1070
     0
1002
}
1002
{
1000
REACTOR
1002
}
1001
GENIUS_GENOBJ-N-CHA_13
1002
{
1000
OWNER
1000
GEN
1002
}
  0
LINE
  5
1B77
330
1F
100
AcDbEntity
  8
AM_0
 48
0.5
100
AcDbLine
 10
-78.74999999999999
 20
-1.500006181011204
 30
0.0
 11
-79.0
 21
-1.250006209471279
 31
0.0
1001
GENIUS_GENFIL_13
1070
     0
1040
0.25
1040
0.25
1040
20.0
1040
0.0
1002
{
1002
}
1001
GENIUS_GENODEF_13
1002
{
1000
HIER
1070
     0
1002
}
1002
{
1000
MANEDIT
1070
     0
1002
}
1002
{
1000
NOSEL
1070
     0
1002
}
1002
{
1000
BEHIND
1070
     0
1002
}
1002
{
1000
REACTOR
1002
}
1001
GENIUS_GENOBJ-N-CHA_13
1002
{
1000
OWNER
1000
GEN
1002
}
  0
LINE
  5
1B8A
330
1F
100
AcDbEntity
  8
AM_0
100
AcDbLine
 10
-78.74999999999999
 20
-1.500006181011204
 30
0.0
 11
-78.74999999999999
 21
1.5000052649891
 31
0.0
  0
DIMENSION
  5
1BC7
330
1F
100
AcDbEntity
  8
AM_5
100
AcDbDimension
  2
*D7
 10
-1.000004132588682
 20
-8.500007181011088
 30
0.0
 11
-16.00000206629434
 21
-6.800007181011088
 31
0.0
 70
    32
  1
<>
  3
AM_JIS$0
100
AcDbAlignedDimension
 13
-30.99999999999999
 23
-1.500000542241561
 33
0.0
 14
-1.000004132588682
 24
-1.500000000000004
 34
0.0
 50
0.0000000000000364
100
AcDbRotatedDimension
1001
GENIUS_GENDTOL_13
1000

1000
h7
1000

1040
0.0
1001
ACAD
1000
DSTYLE
1002
{
1070
   271
1070
     0
1002
}
  0
ARC
  5
1C60
330
1F
100
AcDbEntity
  8
AM_11
 48
0.5
100
AcDbCircle
 10
-49.57421569827501
 20
-6.625446930970601
 30
0.0
 40
7.325448036193749
100
AcDbArc
 50
64.74833051131179
 51
115.2516644797366
  0
ARC
  5
1C61
330
1F
100
AcDbEntity
  8
AM_11
 48
0.5
100
AcDbCircle
 10
-49.57421569827499
 20
6.625451430235398
 30
0.0
 40
7.325448036193749
100
AcDbArc
 50
244.7482808787518
 51
295.2516148471758
  0
ARC
  5
1C62
330
1F
100
AcDbEntity
  8
AM_11
 48
0.5
100
AcDbCircle
 10
-43.32420293107458
 20
-6.625452952826486
 30
0.0
 40
7.325448036193749
100
AcDbArc
 50
64.74833051131179
 51
115.2516644797366
  0
ARC
  5
1C63
330
1F
100
AcDbEntity
  8
AM_11
 48
0.5
100
AcDbCircle
 10
-43.32420293107458
 20
6.625445408379512
 30
0.0
 40
7.325448036193749
100
AcDbArc
 50
244.7482808787518
 51
295.2516148471758
  0
ARC
  5
1C64
330
1F
100
AcDbEntity
  8
AM_11
 48
0.5
100
AcDbCircle
 10
-62.07422846547538
 20
-6.625440909114736
 30
0.0
 40
7.325448036193749
100
AcDbArc
 50
64.74833051131179
 51
115.2516644797366
  0
ARC
  5
1C65
330
1F
100
AcDbEntity
  8
AM_11
 48
0.5
100
AcDbCircle
 10
-62.07422846547537
 20
6.625457452091263
 30
0.0
 40
7.325448036193749
100
AcDbArc
 50
244.7482808787518
 51
295.2516148471758
  0
ARC
  5
1C66
330
1F
100
AcDbEntity
  8
AM_11
 48
0.5
100
AcDbCircle
 10
-55.82421569827495
 20
-6.625446930970621
 30
0.0
 40
7.325448036193749
100
AcDbArc
 50
64.74833051131179
 51
115.2516644797366
  0
ARC
  5
1C67
330
1F
100
AcDbEntity
  8
AM_11
 48
0.5
100
AcDbCircle
 10
-55.82421569827495
 20
6.625451430235377
 30
0.0
 40
7.325448036193749
100
AcDbArc
 50
244.7482808787518
 51
295.2516148471758
  0
ARC
  5
1C68
330
1F
100
AcDbEntity
  8
AM_11
 48
0.5
100
AcDbCircle
 10
-74.57421569821118
 20
-6.625446930970627
 30
0.0
 40
7.325448036193749
100
AcDbArc
 50
64.74833051131179
 51
115.2516644797366
  0
ARC
  5
1C69
330
1F
100
AcDbEntity
  8
AM_11
 48
0.5
100
AcDbCircle
 10
-74.57421569821116
 20
6.625451430235371
 30
0.0
 40
7.325448036193749
100
AcDbArc
 50
244.7482808787518
 51
295.2516148471758
  0
ARC
  5
1C6A
330
1F
100
AcDbEntity
  8
AM_11
 48
0.5
100
AcDbCircle
 10
-68.32420293101074
 20
-6.625452952826512
 30
0.0
 40
7.325448036193749
100
AcDbArc
 50
64.74833051131179
 51
115.2516644797366
  0
ARC
  5
1C6B
330
1F
100
AcDbEntity
  8
AM_11
 48
0.5
100
AcDbCircle
 10
-68.32420293101074
 20
6.625445408379485
 30
0.0
 40
7.325448036193749
100
AcDbArc
 50
244.7482808787518
 51
295.2516148471758
  0
ARC
  5
1C6C
330
1F
100
AcDbEntity
  8
AM_11
 48
0.5
100
AcDbCircle
 10
-80.82420202669728
 20
6.625451430235354
 30
0.0
 40
7.325448036193749
100
AcDbArc
 50
284.4196815136692
 51
295.2516148471758
  0
ARC
  5
1C6D
330
1F
100
AcDbEntity
  8
AM_11
 48
0.5
100
AcDbCircle
 10
-80.8242020266973
 20
-6.625446930970644
 30
0.0
 40
7.325448036193749
100
AcDbArc
 50
64.74833051131179
 51
75.58031848633074
  0
LINE
  5
1D7E
330
1F
100
AcDbEntity
  8
AM_0
 48
0.5
100
AcDbLine
 10
-30.99999999999999
 20
-1.500000542241557
 30
0.0
 11
-31.00000000000008
 21
1.500000511136404
 31
0.0
  0
LINE
  5
1D83
330
1F
100
AcDbEntity
  8
AM_0
 48
0.5
100
AcDbLine
 10
-31.00000000000008
 20
1.500000511136404
 30
0.0
 11
-78.75000000000008
 21
1.5000052649891
 31
0.0
  0
LINE
  5
1D87
330
1F
100
AcDbEntity
  8
AM_0
 48
0.5
100
AcDbLine
 10
-30.99999999999999
 20
-1.500000542241557
 30
0.0
 11
-78.74999999999999
 21
-1.500006181011204
 31
0.0
  0
LINE
  5
1E69
330
1F
100
AcDbEntity
  8
AM_0
100
AcDbLine
 10
-30.99999999999999
 20
-1.500000542241557
 30
0.0
 11
-30.65358951988612
 21
-1.300000358297712
 31
0.0
  0
LINE
  5
1E6A
330
1F
100
AcDbEntity
  8
AM_0
100
AcDbLine
 10
-31.00000000000008
 20
1.500000511136404
 30
0.0
 11
-30.6535898006429
 21
1.300000489287508
 31
0.0
  0
DIMENSION
  5
1F56
330
1F
100
AcDbEntity
  8
AM_5
100
AcDbDimension
  2
*D8
 10
-86.75000135426984
 20
1.500005264989202
 30
0.0
 11
-86.75000135426984
 21
-0.0000004580110136
 31
0.0
 70
   160
  1
%%c<>
 51
359.9999999999998
  3
AM_JIS$0
100
AcDbAlignedDimension
 13
-78.74999999999997
 23
-1.500006181011204
 33
0.0
 14
-78.74999999999997
 24
1.5000052649892
 34
0.0
 50
270.0000067660251
100
AcDbRotatedDimension
1001
ACAD
1000
DSTYLE
1002
{
1070
   271
1070
     0
1002
}
1001
GENIUS_GENDTOL_13
1000

1000
h7
1000

1040
0.0
  0
ELLIPSE
  5
2278
330
1F
100
AcDbEntity
  8
AM_0
 48
0.5
100
AcDbEllipse
 10
0.6287978490195534
 20
1.560730056660392
 30
0.0
 11
1.949136886255643
 21
2.065717809954269
 31
0.0
210
0.0
220
0.0
230
1.0
 40
0.7777456143968743
 41
2.747563616722619
 42
3.231703436548901
  0
DIMENSION
  5
2279
330
1F
100
AcDbEntity
  8
AM_5
100
AcDbDimension
  2
*D9
 10
6.798892490728606
 20
1.30000007619166
 30
0.0
 11
6.798892490728607
 21
7.354761980953567
 31
0.0
 70
   160
  1
%%c<>
  3
AM_JIS$0
100
AcDbAlignedDimension
 13
-1.000000000000004
 23
-1.299999923808336
 33
0.0
 14
-0.9999999999999754
 24
1.300000076191663
 34
0.0
 50
89.99999999999953
100
AcDbRotatedDimension
1001
ACAD
1000
DSTYLE
1002
{
1070
   271
1070
     1
1002
}
1001
GENIUS_GENDTOL_13
1000

1000
h7
1000

1040
0.0
  0
ELLIPSE
  5
2288
330
1F
100
AcDbEntity
  8
AM_0
 48
0.5
100
AcDbEllipse
 10
-2.812953751098346
 20
2.18187136321958
 30
0.0
 11
-3.917995491203941
 21
0.0001957897491244
 31
0.0
210
0.0
220
0.0
230
1.0
 40
0.800002914788182
 41
2.243974158376915
 42
2.371699722597257
  0
LINE
  5
2289
330
1F
100
AcDbEntity
  8
AM_0
 48
0.5
100
AcDbLine
 10
0.0000000000000017
 20
0.0000000000000015
 30
0.0
 11
-0.7986153372240608
 21
0.4991605884799854
 31
0.0
  0
LINE
  5
228A
330
1F
100
AcDbEntity
  8
AM_0
 48
0.5
100
AcDbLine
 10
-1.876960118611696
 20
-1.299999923808329
 30
0.0
 11
-1.000000000000004
 21
-1.299999923808336
 31
0.0
  0
LINE
  5
228B
330
1F
100
AcDbEntity
  8
AM_0
 48
0.5
100
AcDbLine
 10
-1.876960118611668
 20
1.300000076191671
 30
0.0
 11
-0.9999999999999754
 21
1.300000076191663
 31
0.0
  0
LINE
  5
228C
330
1F
100
AcDbEntity
  8
AM_0
 48
0.5
100
AcDbLine
 10
-0.7374672547451553
 20
1.138317511997687
 30
0.0
 11
-0.9999999999999754
 21
1.300000076191663
 31
0.0
  0
LINE
  5
228E
330
1F
100
AcDbEntity
  8
AM_0
 48
0.5
100
AcDbLine
 10
-11.62682333030162
 20
-1.299999923808269
 30
0.0
 11
-7.036042531331314
 21
-1.299999923808283
 31
0.0
  0
LINE
  5
228F
330
1F
100
AcDbEntity
  8
AM_0
 48
0.5
100
AcDbLine
 10
-12.82485707600895
 20
1.300000076191766
 30
0.0
 11
-7.036042531331286
 21
1.300000076191716
 31
0.0
  0
LINE
  5
2290
330
1F
100
AcDbEntity
  8
AM_0
100
AcDbLine
 10
-22.57475789388018
 20
1.300000076191826
 30
0.0
 11
-16.11718123715968
 21
1.300184764784349
 31
0.0
  0
LINE
  5
2291
330
1F
100
AcDbEntity
  8
AM_0
 48
0.5
100
AcDbLine
 10
-22.57475996018417
 20
-1.299999923808156
 30
0.0
 11
-16.78590574302164
 21
-1.299999923808195
 31
0.0
  0
LINE
  5
2292
330
1F
100
AcDbEntity
  8
AM_11
 48
0.5
100
AcDbLine
 10
-16.11718123715968
 20
1.300184764784349
 30
0.0
 11
-12.82485263252161
 21
1.300000076191766
 31
0.0
  0
LINE
  5
2293
330
1F
100
AcDbEntity
  8
AM_11
 48
0.5
100
AcDbLine
 10
-16.78590574302059
 20
-1.299999923808224
 30
0.0
 11
-11.62682333030162
 21
-1.300184612400819
 31
0.0
  0
LINE
  5
2294
330
1F
100
AcDbEntity
  8
AM_11
 48
0.5
100
AcDbLine
 10
-7.036042531331314
 20
-1.299999923808283
 30
0.0
 11
-1.876960118611696
 21
-1.299999923808329
 31
0.0
  0
LINE
  5
2295
330
1F
100
AcDbEntity
  8
AM_11
 48
0.5
100
AcDbLine
 10
-7.036042531331286
 20
1.300000076191716
 30
0.0
 11
-1.876960118611668
 21
1.300000076191671
 31
0.0
  0
LINE
  5
2296
330
1F
100
AcDbEntity
  8
AM_0
100
AcDbLine
 10
-28.99999999999998
 20
0.9652359370558103
 30
0.0
 11
-25.8670820550309
 21
1.300000174045367
 31
0.0
  0
POLYLINE
  5
2297
330
1F
100
AcDbEntity
  8
AM_0
100
AcDb2dPolyline
 66
     1
 10
0.0
 20
0.0
 30
0.0
 70
     2
  0
VERTEX
  5
2298
330
2297
100
AcDbEntity
  8
AM_0
100
AcDbVertex
100
AcDb2dVertex
 10
-26.99999999999999
 20
0.0557033412391602
 30
0.0
 42
0.0328772359659946
  0
VERTEX
  5
2299
330
2297
100
AcDbEntity
  8
AM_0
100
AcDbVertex
100
AcDb2dVertex
 10
-27.4079493986279
 20
0.1685257888917951
 30
0.0
 42
0.0406441426826111
 70
     1
  0
VERTEX
  5
229A
330
2297
100
AcDbEntity
  8
AM_0
100
AcDbVertex
100
AcDb2dVertex
 10
-27.74999999999999
 20
0.2169495654919602
 30
0.0
 42
0.0349480616290147
  0
VERTEX
  5
229B
330
2297
100
AcDbEntity
  8
AM_0
100
AcDbVertex
100
AcDb2dVertex
 10
-28.46068563533544
 20
0.2236065197820888
 30
0.0
 42
0.0841411130651936
 70
     1
  0
VERTEX
  5
229C
330
2297
100
AcDbEntity
  8
AM_0
100
AcDbVertex
100
AcDb2dVertex
 10
-28.74999999999999
 20
0.1657045547883998
 30
0.0
 42
0.0979526151427332
  0
VERTEX
  5
229D
330
2297
100
AcDbEntity
  8
AM_0
100
AcDbVertex
100
AcDb2dVertex
 10
-28.95085340515315
 20
0.0491238051212291
 30
0.0
 42
0.1938983539896396
 70
     1
  0
VERTEX
  5
229E
330
2297
100
AcDbEntity
  8
AM_0
100
AcDbVertex
100
AcDb2dVertex
 10
-28.99999999999998
 20
-0.0509621118782644
 30
0.0
 42
0.1455033175112951
  0
VERTEX
  5
229F
330
2297
100
AcDbEntity
  8
AM_0
100
AcDbVertex
100
AcDb2dVertex
 10
-28.96116188432687
 20
-0.1727409266647198
 30
0.0
 42
0.0623373512118238
 70
     1
  0
VERTEX
  5
22A0
330
2297
100
AcDbEntity
  8
AM_0
100
AcDbVertex
100
AcDb2dVertex
 10
-28.74999999999998
 20
-0.3975925666785684
 30
0.0
 42
0.038537546653951
  0
VERTEX
  5
22A1
330
2297
100
AcDbEntity
  8
AM_0
100
AcDbVertex
100
AcDb2dVertex
 10
-28.40593432441943
 20
-0.6417438832331244
 30
0.0
 42
0.0220442519779929
 70
     1
  0
VERTEX
  5
22A2
330
2297
100
AcDbEntity
  8
AM_0
100
AcDbVertex
100
AcDb2dVertex
 10
-27.750000000086
 20
-1.002096183547126
 30
0.0
 42
0.0372086905244029
  0
VERTEX
  5
22A3
330
2297
100
AcDbEntity
  8
AM_0
100
AcDbVertex
100
AcDb2dVertex
 10
-27.46801360741433
 20
-1.119096918361843
 30
0.0
 42
0.0235344846445626
 70
     1
  0
VERTEX
  5
22A4
330
2297
100
AcDbEntity
  8
AM_0
100
AcDbVertex
100
AcDb2dVertex
 10
-27.00000000017201
 20
-1.255793913905075
 30
0.0
  0
SEQEND
  5
22A5
330
2297
100
AcDbEntity
  8
AM_0
  0
LINE
  5
22A6
330
1F
100
AcDbEntity
  8
AM_11
 48
0.5
100
AcDbLine
 10
-26.40909353892024
 20
1.30000007619186
 30
0.0
 11
-22.57475789388018
 21
1.300000076191826
 31
0.0
  0
LINE
  5
22A7
330
1F
100
AcDbEntity
  8
AM_11
 48
0.5
100
AcDbLine
 10
-26.40909353892028
 20
-1.29999992380814
 30
0.0
 11
-21.3766865427811
 21
-1.299999923808182
 31
0.0
  0
ELLIPSE
  5
22A8
330
1F
100
AcDbEntity
  8
AM_0
 48
0.5
100
AcDbEllipse
 10
-2.812953751098346
 20
2.18187136321958
 30
0.0
 11
5.537742723265149
 21
1.531257567924926
 31
0.0
210
0.0
220
0.0
230
1.0
 40
0.5544071532722467
 41
-1.424880376263004
 42
-1.31755376938518
  0
ELLIPSE
  5
22A9
330
1F
100
AcDbEntity
  8
AM_0
 48
0.5
100
AcDbEllipse
 10
1.272188186645548
 20
-0.2889720154830812
 30
0.0
 11
2.287826177773065
 21
0.9753442062586284
 31
0.0
210
0.0
220
0.0
230
1.0
 40
0.8852101656107887
 41
2.846434497036509
 42
3.159288725944209
  0
SPLINE
  5
22AA
330
1F
100
AcDbEntity
  8
AM_0
100
AcDbSpline
210
0.0
220
0.0
230
1.0
 70
     8
 71
     3
 72
    17
 73
    13
 74
     0
 42
0.0000000001
 43
0.0000000001
 40
1.580019955310467
 40
1.580019955310467
 40
1.580019955310467
 40
1.580019955310467
 40
2.030549285115227
 40
3.082371838836284
 40
4.126290986361125
 40
5.162752068350215
 40
6.192395305374981
 40
7.216039564037012
 40
8.234688489606833
 40
9.249433870634691
 40
10.26152376260694
 40
11.27226744710342
 40
11.27226744710342
 40
11.27226744710342
 40
11.27226744710352
 10
-4.456300070712304
 20
-0.9594382043757748
 30
0.0
 10
-4.495048681549118
 20
-0.9693196216238805
 30
0.0
 10
-4.624482059812454
 20
-1.001707286506482
 30
0.0
 10
-4.845456934642515
 20
-1.052508497725604
 30
0.0
 10
-5.119167006923873
 20
-1.109399115049361
 30
0.0
 10
-5.392952431331867
 20
-1.15934152359876
 30
0.0
 10
-5.66675040049243
 20
-1.202168005541175
 30
0.0
 10
-5.940578199451028
 20
-1.237567038978745
 30
0.0
 10
-6.214424916386501
 20
-1.265336617236455
 30
0.0
 10
-6.488288685210693
 20
-1.285296784155383
 30
0.0
 10
-6.762162758629556
 20
-1.297319053823056
 30
0.0
 10
-6.944789788646591
 20
-1.299999931246953
 30
0.0
 10
-7.036042531331291
 20
-1.299999923808283
 30
0.0
  0
SPLINE
  5
22AB
330
1F
100
AcDbEntity
  8
AM_0
100
AcDbSpline
210
0.0
220
0.0
230
1.0
 70
     8
 71
     3
 72
    22
 73
    18
 74
     0
 42
0.0000000001
 43
0.0000000001
 40
17.17441611292
 40
17.17441611292
 40
17.17441611292
 40
17.17441611292
 40
17.38177636558528
 40
18.41823744757437
 40
19.46215659509824
 40
20.51397914882054
 40
21.57394542641293
 40
22.64209583141747
 40
23.71826625065247
 40
24.80210429862395
 40
25.8930771157021
 40
26.99048705697709
 40
28.09349309193389
 40
29.20112995599786
 40
30.31233024745139
 40
31.42594771747373
 40
32.5407895042663
 40
32.54078950426994
 40
32.54078950426994
 40
32.54078950426994
 10
-8.081359220813931
 20
-1.16740933275205
 30
0.0
 10
-8.099698219203382
 20
-1.164399960258351
 30
0.0
 10
-8.209630499037796
 20
-1.146069543466707
 30
0.0
 10
-8.411020241035133
 20
-1.109314672042597
 30
0.0
 10
-8.684768418436453
 20
-1.052511411808896
 30
0.0
 10
-8.958488701473124
 20
-0.989221580144132
 30
0.0
 10
-9.232183022595
 20
-0.919840247870465
 30
0.0
 10
-9.50585102027092
 20
-0.8447928251363212
 30
0.0
 10
-9.779496063036592
 20
-0.764546366732384
 30
0.0
 10
-10.05311941794548
 20
-0.6795940415726497
 30
0.0
 10
-10.32672361666429
 20
-0.5904597459915299
 30
0.0
 10
-10.60031170149823
 20
-0.4976933821341546
 30
0.0
 10
-10.87388604702681
 20
-0.4018653731772074
 30
0.0
 10
-11.14744940721813
 20
-0.3035652692247796
 30
0.0
 10
-11.42100420697328
 20
-0.2033975046468594
 30
0.0
 10
-11.6945544987687
 20
-0.1019801686923705
 30
0.0
 10
-11.87688556353473
 20
-0.0339617127450769
 30
0.0
 10
-11.96810118357394
 20
0.000066197611197
 30
0.0
  0
SPLINE
  5
22AC
330
1F
100
AcDbEntity
  8
AM_0
100
AcDbSpline
210
0.0
220
0.0
230
1.0
 70
     8
 71
     3
 72
    11
 73
     7
 74
     0
 42
0.0000000001
 43
0.0000000001
 40
11.27226913003534
 40
11.27226913003534
 40
11.27226913003534
 40
11.2722691300354
 40
12.28301561507924
 40
13.29510212255852
 40
14.30984805882082
 40
15.18258238371378
 40
15.18258238371378
 40
15.18258238371378
 40
15.18258238371378
 10
-7.036042531331306
 20
-1.299999923808283
 30
0.0
 10
-7.126948286163599
 20
-1.293637346030749
 30
0.0
 10
-7.308588330288231
 20
-1.278233822142032
 30
0.0
 10
-7.580110441149899
 20
-1.247161104405888
 30
0.0
 10
-7.837789712037968
 20
-1.21004815006069
 30
0.0
 10
-8.004441538978623
 20
-1.181518317503158
 30
0.0
 10
-8.081239446239308
 20
-1.167425368242109
 30
0.0
  0
SPLINE
  5
22AD
330
1F
100
AcDbEntity
  8
AM_0
100
AcDbSpline
210
0.0
220
0.0
230
1.0
 70
     8
 71
     3
 72
    55
 73
    51
 74
     0
 42
0.0000000001
 43
0.0000000001
 40
0.0
 40
0.0
 40
0.0
 40
0.0
 40
1.010743684496582
 40
2.022833576467832
 40
3.037578957496688
 40
4.056212745003489
 40
5.079857003664532
 40
6.109500240690281
 40
7.145961322679372
 40
8.189895241603872
 40
9.241717795325891
 40
10.30168407291828
 40
11.36983447792315
 40
12.44600489715814
 40
13.52984294512926
 40
14.62081576220742
 40
15.7182257034828
 40
16.82123173843959
 40
17.92886860250316
 40
19.0400688939571
 40
20.15368796660465
 40
21.26852814259644
 40
22.38336992938901
 40
23.49698739941135
 40
24.6081876908653
 40
25.71582455492886
 40
26.81883757994213
 40
27.91624752121713
 40
29.00722033829659
 40
30.09105838626677
 40
31.16722880550176
 40
32.23537921050758
 40
33.29534548809967
 40
34.347168041821
 40
35.39108718934584
 40
36.42754827133493
 40
37.45720575381954
 40
38.48085062012849
 40
39.49948440763516
 40
40.51422944315121
 40
41.52631975251916
 40
42.53706336719636
 40
43.54780698187354
 40
44.55989729124051
 40
45.57464232675757
 40
46.59327611426424
 40
47.6169209805722
 40
48.64656348684535
 40
49.68302456883444
 40
50.58557219878025
 40
50.58557219878025
 40
50.58557219878025
 40
50.58557219878025
 10
-1.876960118611696
 20
-1.299999923808329
 30
0.0
 10
-1.968212862500292
 20
-1.299226455302753
 30
0.0
 10
-2.150839889623012
 20
-1.297678488110463
 30
0.0
 10
-2.424713968850896
 20
-1.285200134729315
 30
0.0
 10
-2.698576357426967
 20
-1.265362812562865
 30
0.0
 10
-2.972421796609888
 20
-1.237560051076416
 30
0.0
 10
-3.246247553853253
 20
-1.202168630993203
 30
0.0
 10
-3.520048227187103
 20
-1.159345932318326
 30
0.0
 10
-3.79382473246255
 20
-1.109380424013365
 30
0.0
 10
-4.067574641835287
 20
-1.052578070944516
 30
0.0
 10
-4.341296090569519
 20
-0.9892876361137689
 30
0.0
 10
-4.614990443015344
 20
-0.9199063870381385
 30
0.0
 10
-4.88865843218082
 20
-0.8448589417184328
 30
0.0
 10
-5.162303477328264
 20
-0.7646124895651191
 30
0.0
 10
-5.435926831306625
 20
-0.6796601622199901
 30
0.0
 10
-5.70953103135354
 20
-0.5905258690877303
 30
0.0
 10
-5.983119111776614
 20
-0.4977594975756377
 30
0.0
 10
-6.256693473730914
 20
-0.4019315169775166
 30
0.0
 10
-6.530256772286793
 20
-0.3036313066520497
 30
0.0
 10
-6.803811934687788
 20
-0.2034638927151421
 30
0.0
 10
-7.077361360273083
 20
-0.1020450632624777
 30
0.0
 10
-7.350908911984281
 20
-0.000000189055504
 30
0.0
 10
-7.624455235695855
 20
0.1020465220228005
 30
0.0
 10
-7.898005578159197
 20
0.2034637721160314
 30
0.0
 10
-8.171560402852682
 20
0.3036314892539983
 30
0.0
 10
-8.445124189168893
 20
0.4019320740594521
 30
0.0
 10
-8.718699686040872
 20
0.4977592368447594
 30
0.0
 10
-8.99228819825822
 20
0.5905260788114289
 30
0.0
 10
-9.265892437804483
 20
0.6796602996649666
 30
0.0
 10
-9.539515781826565
 20
0.7646126448752507
 30
0.0
 10
-9.813160827674705
 20
0.8448590971459491
 30
0.0
 10
-10.08682882381072
 20
0.9199065245206787
 30
0.0
 10
-10.3605231480083
 20
0.9892878444409484
 30
0.0
 10
-10.63424342038829
 20
1.052577720417968
 30
0.0
 10
-10.90799163693403
 20
1.109380817455921
 30
0.0
 10
-11.1817680406526
 20
1.159347330504397
 30
0.0
 10
-11.45557066901502
 20
1.202165138232642
 30
0.0
 10
-11.72939733090131
 20
1.237567512708535
 30
0.0
 10
-12.00324285126427
 20
1.265337317609816
 30
0.0
 10
-12.27710543012825
 20
1.28529510460738
 30
0.0
 10
-12.55097927714355
 20
1.297321146570416
 30
0.0
 10
-12.82485914237055
 20
1.301338649259948
 30
0.0
 10
-13.09873900719457
 20
1.297321146564121
 30
0.0
 10
-13.37261285542115
 20
1.285295104632655
 30
0.0
 10
-13.64647542982556
 20
1.265337317514591
 30
0.0
 10
-13.92032096690853
 20
1.237567513066409
 30
0.0
 10
-14.19414623098082
 20
1.202165309479271
 30
0.0
 10
-14.46794778066511
 20
1.159347768293357
 30
0.0
 10
-14.72927616544855
 20
1.111648980808416
 30
0.0
 10
-14.89882899758829
 20
1.076766406591915
 30
0.0
 10
-14.97749162944734
 20
1.059766426501768
 30
0.0
  0
SPLINE
  5
22AE
330
1F
100
AcDbEntity
  8
AM_0
100
AcDbSpline
210
0.0
220
0.0
230
1.0
 70
     8
 71
     3
 72
    46
 73
    42
 74
     0
 42
0.0000000001
 43
0.0000000001
 40
0.0
 40
0.0
 40
0.0
 40
0.0
 40
0.5056245176053715
 40
0.759310862862336
 40
1.013969309739036
 40
1.269880374404297
 40
1.527291183660732
 40
1.786406454158005
 40
2.047386241038974
 40
2.310345544571907
 40
2.575337113970003
 40
2.842374715221223
 40
3.111417320030211
 40
3.382376832022752
 40
3.655120036292296
 40
3.929472521611371
 40
4.205224030350333
 40
4.482133246366229
 40
4.759933319229942
 40
5.038338087391601
 40
5.317048131389549
 40
5.595758175387723
 40
5.874162943549383
 40
6.151963016412869
 40
6.428872232428759
 40
6.704623741167955
 40
6.978976226486705
 40
7.251719430756336
 40
7.522680721168327
 40
7.791723325977311
 40
8.058760927228529
 40
8.32375249662655
 40
8.586708135057122
 40
8.84768792193809
 40
9.106803192435362
 40
9.364213819003406
 40
9.620125035580644
 40
9.87478726697307
 40
10.12847352585208
 40
10.38149610319407
 40
10.63418200686337
 40
10.63418200686337
 40
10.63418200686337
 40
10.63418200686337
 10
-1.110298792521132
 20
-1.299999923808335
 30
0.0
 10
-1.292934742509352
 20
-1.297038423317145
 30
0.0
 10
-1.567204395080811
 20
-1.292591052956264
 30
0.0
 10
-1.93191271252108
 20
-1.26520941066973
 30
0.0
 10
-2.205761093889117
 20
-1.237601431405173
 30
0.0
 10
-2.479586067739627
 20
-1.202157475683267
 30
0.0
 10
-2.753386912723867
 20
-1.159348854621364
 30
0.0
 10
-3.027162222273204
 20
-1.109380229897688
 30
0.0
 10
-3.300911537855126
 20
-1.05257711538242
 30
0.0
 10
-3.574633641188491
 20
-0.9892882906073483
 30
0.0
 10
-3.848329079378135
 20
-0.9199062963339747
 30
0.0
 10
-4.121997116266546
 20
-0.844858966301037
 30
0.0
 10
-4.39564214847716
 20
-0.7646124828992614
 30
0.0
 10
-4.669265505979536
 20
-0.6796601640520139
 30
0.0
 10
-4.942869704995631
 20
-0.5905258684874461
 30
0.0
 10
-5.216457785987938
 20
-0.4977594981324641
 30
0.0
 10
-5.490032146696255
 20
-0.4019315153440096
 30
0.0
 10
-5.763595449689355
 20
-0.303631312660113
 30
0.0
 10
-6.037150595518103
 20
-0.2034638702283624
 30
0.0
 10
-6.310700083126626
 20
-0.1020451474081716
 30
0.0
 10
-6.584247271229857
 20
0.0000000761710651
 30
0.0
 10
-6.857794459272988
 20
0.102045299874307
 30
0.0
 10
-7.131343947061769
 20
0.2034640223226626
 30
0.0
 10
-7.404899092231661
 20
0.3036314661133062
 30
0.0
 10
-7.678462397667838
 20
0.4019316637575647
 30
0.0
 10
-7.952036749317449
 20
0.4977596652324855
 30
0.0
 10
-8.22562486385722
 20
0.5905259663849075
 30
0.0
 10
-8.49922953358561
 20
0.6796607117045426
 30
0.0
 10
-8.772853954256353
 20
0.7646122587169101
 30
0.0
 10
-9.04649947460776
 20
0.8448591535951702
 30
0.0
 10
-9.320167505124407
 20
0.9199065059586828
 30
0.0
 10
-9.593861819004283
 20
0.9892878626708217
 30
0.0
 10
-9.867582098583559
 20
1.052577666470402
 30
0.0
 10
-10.14133029673913
 20
1.10938101303261
 30
0.0
 10
-10.4151054478417
 20
1.159346368546524
 30
0.0
 10
-10.68890649355996
 20
1.202167405795457
 30
0.0
 10
-10.96273321498258
 20
1.237560747094104
 30
0.0
 10
-11.23658018527933
 20
1.26536308138955
 30
0.0
 10
-11.51044409835488
 20
1.285198582946302
 30
0.0
 10
-11.78431795248675
 20
1.2976803036235
 30
0.0
 10
-11.96694505609175
 20
1.299227161940866
 30
0.0
 10
-12.05819781621287
 20
1.30000007619176
 30
0.0
  0
SPLINE
  5
22AF
330
1F
100
AcDbEntity
  8
AM_0
 48
0.5
100
AcDbSpline
210
0.0
220
0.0
230
1.0
 70
     8
 71
     3
 72
    10
 73
     6
 74
     0
 42
0.0000000001
 43
0.0000000001
 40
0.0
 40
0.0
 40
0.0
 40
0.0
 40
2.69986029516136
 40
4.147722969032201
 40
6.285750005020438
 40
6.285750005020438
 40
6.285750005020438
 40
6.285750005020438
 10
-1.787770073425186
 20
0.2352931466669107
 30
0.0
 10
-1.592848361861257
 20
0.114514163262029
 30
0.0
 10
-1.293395363620682
 20
-0.0710353500007858
 30
0.0
 10
-0.5852292490269826
 20
0.0187924199229822
 30
0.0
 10
-0.7185975266863846
 20
0.3213442350093786
 30
0.0
 10
-0.8067187633152606
 20
0.505758884649633
 30
0.0
  0
SPLINE
  5
22B0
330
1F
100
AcDbEntity
  8
AM_0
 48
0.5
100
AcDbSpline
210
0.0
220
0.0
230
1.0
 70
     8
 71
     3
 72
    25
 73
    21
 74
     0
 42
0.0000000001
 43
0.0000000001
 40
6.846175049578289
 40
6.846175049578289
 40
6.846175049578289
 40
6.846175049578289
 40
7.604337694224321
 40
8.711974558287883
 40
9.814980593243754
 40
10.91239053451967
 40
12.0033633515982
 40
13.08720139956839
 40
14.16337181880432
 40
15.23152222380919
 40
16.29148850140128
 40
17.34331105512262
 40
18.38723020264746
 40
19.42369128463655
 40
20.45333379090873
 40
21.47697865721768
 40
22.49561244472435
 40
23.5103574802404
 40
24.52244778960836
 40
25.53320666051913
 40
25.53320666051913
 40
25.53320666051913
 40
25.53320666051913
 10
-1.787770073425186
 20
0.2352931466669125
 30
0.0
 10
-2.014660639415039
 20
0.2581342750562767
 30
0.0
 10
-2.411819458280441
 20
0.3140787153299769
 30
0.0
 10
-2.656309200988915
 20
0.4019316255928961
 30
0.0
 10
-2.929883531566416
 20
0.4977596616281605
 30
0.0
 10
-3.203471620374679
 20
0.5905260182750225
 30
0.0
 10
-3.477075818045265
 20
0.6796603158043118
 30
0.0
 10
-3.750699173204142
 20
0.7646126403268676
 30
0.0
 10
-4.024344216007878
 20
0.8448590993429688
 30
0.0
 10
-4.298012213288897
 20
0.9199065202787688
 30
0.0
 10
-4.571706535934866
 20
0.9892878590663826
 30
0.0
 10
-4.845426813331004
 20
1.052577666729606
 30
0.0
 10
-5.119175011552629
 20
1.109381015531281
 30
0.0
 10
-5.392950164529755
 20
1.159346358401988
 30
0.0
 10
-5.666751202758275
 20
1.202167443538459
 30
0.0
 10
-5.940576602664098
 20
1.237560432926393
 30
0.0
 10
-6.214422103633953
 20
1.265363342315493
 30
0.0
 10
-6.488284687612491
 20
1.285198539215862
 30
0.0
 10
-6.762159908984738
 20
1.297680379595899
 30
0.0
 10
-6.944788392545454
 20
1.299227183361636
 30
0.0
 10
-7.036042531331286
 20
1.300000076191716
 30
0.0
  0
SPLINE
  5
22B1
330
1F
100
AcDbEntity
  8
AM_0
 48
0.5
100
AcDbSpline
210
0.0
220
0.0
230
1.0
 70
     8
 71
     3
 72
    17
 73
    13
 74
     0
 42
0.0000000001
 43
0.0000000001
 40
0.0
 40
0.0
 40
0.0
 40
0.0
 40
1.010743614677189
 40
2.022833924044153
 40
3.037578959561199
 40
4.056212747067873
 40
5.079857613375832
 40
6.109500119648989
 40
7.14596120163808
 40
8.18989512056258
 40
9.241717674284874
 40
9.693948937866434
 40
9.693948937866434
 40
9.693948937866434
 40
9.693948937866434
 10
-1.876960118611668
 20
1.300000076191671
 30
0.0
 10
-1.968212879107173
 20
1.299227165085112
 30
0.0
 10
-2.150839983461377
 20
1.297680313060621
 30
0.0
 10
-2.424713831962931
 20
1.285198545097423
 30
0.0
 10
-2.698576405237116
 20
1.265363322557738
 30
0.0
 10
-2.972421946589892
 20
1.237560506506905
 30
0.0
 10
-3.246247194600204
 20
1.202167166948024
 30
0.0
 10
-3.520048804763328
 20
1.159347400070049
 30
0.0
 10
-3.793823102201488
 20
1.109376850873368
 30
0.0
 10
-4.067580710456387
 20
1.052591933964595
 30
0.0
 10
-4.288564990419082
 20
1.001437307525479
 30
0.0
 10
-4.418339916160116
 20
0.96945830964387
 30
0.0
 10
-4.457291386356735
 20
0.9596697524691169
 30
0.0
  0
ELLIPSE
  5
22B2
330
1F
100
AcDbEntity
  8
AM_0
 48
0.5
100
AcDbEllipse
 10
-0.4841532317909395
 20
-0.3387986374925047
 30
0.0
 11
-0.2403768658788902
 21
0.0978470841303519
 31
0.0
210
0.0
220
0.0
230
1.0
 40
0.4356078197020576
 41
4.378295523223194
 42
7.521735864552704
  0
ELLIPSE
  5
22B3
330
1F
100
AcDbEntity
  8
AM_0
 48
0.5
100
AcDbEllipse
 10
-0.4841532317909395
 20
-0.3387986374925047
 30
0.0
 11
-0.0569783155195105
 21
0.2113412965216311
 31
0.0
210
0.0
220
0.0
230
1.0
 40
0.6123776719086898
 41
1.730173618767749
 42
4.865515508479723
  0
SPLINE
  5
22B4
330
1F
100
AcDbEntity
  8
AM_0
100
AcDbSpline
210
0.0
220
0.0
230
1.0
 70
     8
 71
     3
 72
    23
 73
    19
 74
     0
 42
0.0000000001
 43
0.0000000001
 40
16.03460024169435
 40
16.03460024169435
 40
16.03460024169435
 40
16.03460024169435
 40
16.35212704903564
 40
17.38177054169784
 40
18.41822485651776
 40
19.46214173629503
 40
20.51396345435107
 40
21.57393551351153
 40
22.64208202342361
 40
23.7182574881101
 40
24.80209208578934
 40
25.89306333925047
 40
26.99048218457928
 40
28.09348763352352
 40
29.20111863782268
 40
30.31232390128032
 40
31.42594612798585
 40
32.5407912310448
 40
32.5407912310486
 40
32.5407912310486
 40
32.5407912310486
 10
-25.8670820550309
 20
1.300184764784408
 30
0.0
 10
-25.83894485917028
 20
1.295796193713907
 30
0.0
 10
-25.71968705918398
 20
1.276685201892251
 30
0.0
 10
-25.50961316018961
 20
1.239240130122762
 30
0.0
 10
-25.23756691105047
 20
1.18355971789685
 30
0.0
 10
-24.96577335126372
 20
1.121039895952242
 30
0.0
 10
-24.69421642033115
 20
1.052042497129924
 30
0.0
 10
-24.42288648021604
 20
0.9769521834729781
 30
0.0
 10
-24.15176784869816
 20
0.8961982028808369
 30
0.0
 10
-23.88084164610646
 20
0.810250523264562
 30
0.0
 10
-23.61009247744106
 20
0.7195958613227525
 30
0.0
 10
-23.33949863575934
 20
0.624761715410237
 30
0.0
 10
-23.06903819245638
 20
0.5262993025559952
 30
0.0
 10
-22.79869312752424
 20
0.4247747403558511
 30
0.0
 10
-22.52844082151969
 20
0.3207783802357746
 30
0.0
 10
-22.25825624335563
 20
0.2149174846412003
 30
0.0
 10
-21.98811739238046
 20
0.1078054887959788
 30
0.0
 10
-21.80807319786445
 20
0.0359927524051573
 30
0.0
 10
-21.71800200144395
 20
0.0000661976107881
 30
0.0
  0
SPLINE
  5
22B5
330
1F
100
AcDbEntity
  8
AM_0
100
AcDbSpline
210
0.0
220
0.0
230
1.0
 70
     8
 71
     3
 72
    55
 73
    51
 74
     0
 42
0.0000000001
 43
0.0000000001
 40
0.0
 40
0.0
 40
0.0
 40
0.0
 40
1.010743684496582
 40
2.022833576467832
 40
3.037578957496688
 40
4.056212745003489
 40
5.079857003664532
 40
6.109500240690281
 40
7.145961322679372
 40
8.189895241603872
 40
9.241717795325891
 40
10.30168407291828
 40
11.36983447792315
 40
12.44600489715814
 40
13.52984294512926
 40
14.62081576220742
 40
15.7182257034828
 40
16.82123173843959
 40
17.92886860250316
 40
19.0400688939571
 40
20.15368796660465
 40
21.26852814259644
 40
22.38336992938901
 40
23.49698739941135
 40
24.6081876908653
 40
25.71582455492886
 40
26.81883757994213
 40
27.91624752121713
 40
29.00722033829659
 40
30.09105838626677
 40
31.16722880550176
 40
32.23537921050758
 40
33.29534548809967
 40
34.347168041821
 40
35.39108718934584
 40
36.42754827133493
 40
37.45720575381954
 40
38.48085062012849
 40
39.49948440763516
 40
40.51422944315121
 40
41.52631975251916
 40
42.53706336719636
 40
43.54780698187354
 40
44.55989729124051
 40
45.57464232675757
 40
46.59327611426424
 40
47.6169209805722
 40
48.64656348684535
 40
49.68302456883444
 40
50.58557219878025
 40
50.58557219878025
 40
50.58557219878025
 40
50.58557219878025
 10
-11.62682333030162
 20
-1.299999923808269
 30
0.0
 10
-11.71807607419022
 20
-1.299226455302693
 30
0.0
 10
-11.90070310131294
 20
-1.297678488110404
 30
0.0
 10
-12.17457718054082
 20
-1.285200134729256
 30
0.0
 10
-12.44843956911689
 20
-1.265362812562806
 30
0.0
 10
-12.72228500829981
 20
-1.237560051076357
 30
0.0
 10
-12.99611076554318
 20
-1.202168630993143
 30
0.0
 10
-13.26991143887702
 20
-1.159345932318267
 30
0.0
 10
-13.54368794415247
 20
-1.109380424013305
 30
0.0
 10
-13.81743785352521
 20
-1.052578070944458
 30
0.0
 10
-14.09115930225944
 20
-0.9892876361137098
 30
0.0
 10
-14.36485365470527
 20
-0.9199063870380793
 30
0.0
 10
-14.63852164387074
 20
-0.844858941718374
 30
0.0
 10
-14.91216668901819
 20
-0.7646124895650601
 30
0.0
 10
-15.18579004299655
 20
-0.6796601622199309
 30
0.0
 10
-15.45939424304347
 20
-0.5905258690876712
 30
0.0
 10
-15.73298232346654
 20
-0.4977594975755786
 30
0.0
 10
-16.00655668542084
 20
-0.4019315169774575
 30
0.0
 10
-16.28011998397671
 20
-0.3036313066519907
 30
0.0
 10
-16.55367514637771
 20
-0.203463892715083
 30
0.0
 10
-16.82722457196301
 20
-0.1020450632624187
 30
0.0
 10
-17.1007721236742
 20
-0.000000189055445
 30
0.0
 10
-17.37431844738578
 20
0.1020465220228595
 30
0.0
 10
-17.64786878984912
 20
0.2034637721160904
 30
0.0
 10
-17.92142361454261
 20
0.3036314892540574
 30
0.0
 10
-18.19498740085882
 20
0.4019320740595111
 30
0.0
 10
-18.4685628977308
 20
0.4977592368448184
 30
0.0
 10
-18.74215140994815
 20
0.5905260788114876
 30
0.0
 10
-19.01575564949442
 20
0.6796602996650256
 30
0.0
 10
-19.2893789935165
 20
0.7646126448753101
 30
0.0
 10
-19.56302403936463
 20
0.8448590971460083
 30
0.0
 10
-19.83669203550064
 20
0.919906524520738
 30
0.0
 10
-20.11038635969822
 20
0.9892878444410067
 30
0.0
 10
-20.38410663207821
 20
1.052577720418027
 30
0.0
 10
-20.65785484862395
 20
1.109380817455981
 30
0.0
 10
-20.93163125234252
 20
1.159347330504457
 30
0.0
 10
-21.20543388070494
 20
1.202165138232701
 30
0.0
 10
-21.47926054259124
 20
1.237567512708593
 30
0.0
 10
-21.7531060629542
 20
1.265337317609876
 30
0.0
 10
-22.02696864181818
 20
1.285295104607439
 30
0.0
 10
-22.30084248883348
 20
1.297321146570475
 30
0.0
 10
-22.57472235406048
 20
1.301338649260007
 30
0.0
 10
-22.8486022188845
 20
1.29732114656418
 30
0.0
 10
-23.12247606711108
 20
1.285295104632715
 30
0.0
 10
-23.39633864151549
 20
1.26533731751465
 30
0.0
 10
-23.67018417859845
 20
1.237567513066469
 30
0.0
 10
-23.94400944267074
 20
1.202165309479329
 30
0.0
 10
-24.21781099235502
 20
1.159347768293416
 30
0.0
 10
-24.47913937713847
 20
1.111648980808476
 30
0.0
 10
-24.64869220927822
 20
1.076766406591975
 30
0.0
 10
-24.72735484113727
 20
1.059766426501826
 30
0.0
  0
SPLINE
  5
22B6
330
1F
100
AcDbEntity
  8
AM_0
100
AcDbSpline
210
0.0
220
0.0
230
1.0
 70
     8
 71
     3
 72
    46
 73
    42
 74
     0
 42
0.0000000001
 43
0.0000000001
 40
0.0
 40
0.0
 40
0.0
 40
0.0
 40
0.5056245176053715
 40
0.759310862862336
 40
1.013969309739036
 40
1.269880374404297
 40
1.527291183660732
 40
1.786406454158005
 40
2.047386241038974
 40
2.310345544571907
 40
2.575337113970003
 40
2.842374715221223
 40
3.111417320030211
 40
3.382376832022752
 40
3.655120036292296
 40
3.929472521611371
 40
4.205224030350333
 40
4.482133246366229
 40
4.759933319229942
 40
5.038338087391601
 40
5.317048131389549
 40
5.595758175387723
 40
5.874162943549382
 40
6.151963016412868
 40
6.428872232428759
 40
6.704623741167953
 40
6.978976226486702
 40
7.251719430756334
 40
7.522680721168324
 40
7.791723325977308
 40
8.058760927228528
 40
8.323752496626548
 40
8.586708135057122
 40
8.84768792193809
 40
9.106803192435362
 40
9.364213819003406
 40
9.620125035580642
 40
9.874787266973068
 40
10.12847352585207
 40
10.38149610319407
 40
10.63418200686337
 40
10.63418200686337
 40
10.63418200686337
 40
10.63418200686337
 10
-10.86016200421106
 20
-1.299999923808276
 30
0.0
 10
-11.04279795419927
 20
-1.297038423317086
 30
0.0
 10
-11.31706760677074
 20
-1.292591052956205
 30
0.0
 10
-11.681775924211
 20
-1.265209410669672
 30
0.0
 10
-11.95562430557904
 20
-1.237601431405114
 30
0.0
 10
-12.22944927942955
 20
-1.202157475683208
 30
0.0
 10
-12.50325012441378
 20
-1.159348854621305
 30
0.0
 10
-12.77702543396312
 20
-1.109380229897629
 30
0.0
 10
-13.05077474954505
 20
-1.052577115382362
 30
0.0
 10
-13.32449685287841
 20
-0.9892882906072888
 30
0.0
 10
-13.59819229106806
 20
-0.9199062963339159
 30
0.0
 10
-13.87186032795647
 20
-0.8448589663009778
 30
0.0
 10
-14.14550536016708
 20
-0.7646124828992024
 30
0.0
 10
-14.41912871766946
 20
-0.679660164051955
 30
0.0
 10
-14.69273291668556
 20
-0.5905258684873873
 30
0.0
 10
-14.96632099767787
 20
-0.4977594981324053
 30
0.0
 10
-15.23989535838618
 20
-0.4019315153439506
 30
0.0
 10
-15.51345866137927
 20
-0.303631312660054
 30
0.0
 10
-15.78701380720802
 20
-0.2034638702283034
 30
0.0
 10
-16.06056329481655
 20
-0.1020451474081125
 30
0.0
 10
-16.33411048291979
 20
0.0000000761711239
 30
0.0
 10
-16.60765767096291
 20
0.1020452998743663
 30
0.0
 10
-16.8812071587517
 20
0.2034640223227214
 30
0.0
 10
-17.15476230392159
 20
0.3036314661133654
 30
0.0
 10
-17.42832560935777
 20
0.4019316637576233
 30
0.0
 10
-17.70189996100737
 20
0.4977596652325448
 30
0.0
 10
-17.97548807554715
 20
0.5905259663849666
 30
0.0
 10
-18.24909274527554
 20
0.6796607117046014
 30
0.0
 10
-18.52271716594628
 20
0.7646122587169693
 30
0.0
 10
-18.79636268629768
 20
0.8448591535952296
 30
0.0
 10
-19.07003071681432
 20
0.9199065059587416
 30
0.0
 10
-19.3437250306942
 20
0.9892878626708808
 30
0.0
 10
-19.61744531027347
 20
1.052577666470461
 30
0.0
 10
-19.89119350842906
 20
1.109381013032668
 30
0.0
 10
-20.16496865953162
 20
1.159346368546583
 30
0.0
 10
-20.43876970524989
 20
1.202167405795515
 30
0.0
 10
-20.71259642667251
 20
1.237560747094163
 30
0.0
 10
-20.98644339696926
 20
1.265363081389609
 30
0.0
 10
-21.2603073100448
 20
1.285198582946362
 30
0.0
 10
-21.53418116417667
 20
1.297680303623559
 30
0.0
 10
-21.71680826778168
 20
1.299227161940925
 30
0.0
 10
-21.8080610279028
 20
1.300000076191819
 30
0.0
  0
SPLINE
  5
22B7
330
1F
100
AcDbEntity
  8
AM_0
100
AcDbSpline
210
0.0
220
0.0
230
1.0
 70
     8
 71
     3
 72
    22
 73
    18
 74
     0
 42
0.0000000001
 43
0.0000000001
 40
17.17441611292
 40
17.17441611292
 40
17.17441611292
 40
17.17441611292
 40
17.38177636558528
 40
18.41823744757437
 40
19.46215659509824
 40
20.51397914882054
 40
21.57394542641293
 40
22.64209583141747
 40
23.71826625065247
 40
24.80210429862395
 40
25.8930771157021
 40
26.99048705697709
 40
28.09349309193389
 40
29.20112995599786
 40
30.31233024745139
 40
31.42594771747373
 40
32.5407895042663
 40
32.54078950426994
 40
32.54078950426994
 40
32.54078950426994
 10
-17.83122243250386
 20
-1.167409332751991
 30
0.0
 10
-17.84956143089331
 20
-1.164399960258292
 30
0.0
 10
-17.95949371072772
 20
-1.146069543466648
 30
0.0
 10
-18.16088345272507
 20
-1.109314672042538
 30
0.0
 10
-18.43463163012639
 20
-1.052511411808837
 30
0.0
 10
-18.70835191316306
 20
-0.9892215801440727
 30
0.0
 10
-18.98204623428494
 20
-0.9198402478704062
 30
0.0
 10
-19.25571423196085
 20
-0.8447928251362622
 30
0.0
 10
-19.52935927472651
 20
-0.7645463667323252
 30
0.0
 10
-19.8029826296354
 20
-0.6795940415725909
 30
0.0
 10
-20.07658682835421
 20
-0.5904597459914707
 30
0.0
 10
-20.35017491318815
 20
-0.4976933821340953
 30
0.0
 10
-20.62374925871674
 20
-0.4018653731771485
 30
0.0
 10
-20.89731261890806
 20
-0.3035652692247205
 30
0.0
 10
-21.17086741866321
 20
-0.2033975046468004
 30
0.0
 10
-21.44441771045863
 20
-0.1019801686923115
 30
0.0
 10
-21.62674877522465
 20
-0.0339617127450179
 30
0.0
 10
-21.71796439526386
 20
0.000066197611256
 30
0.0
  0
SPLINE
  5
22B8
330
1F
100
AcDbEntity
  8
AM_0
100
AcDbSpline
210
0.0
220
0.0
230
1.0
 70
     8
 71
     3
 72
    17
 73
    13
 74
     0
 42
0.0000000001
 43
0.0000000001
 40
1.580019955310467
 40
1.580019955310467
 40
1.580019955310467
 40
1.580019955310467
 40
2.030549285115227
 40
3.082371838836284
 40
4.126290986361125
 40
5.162752068350215
 40
6.192395305374981
 40
7.216039564037012
 40
8.234688489606833
 40
9.249433870634691
 40
10.26152376260694
 40
11.27226744710342
 40
11.27226744710342
 40
11.27226744710342
 40
11.27226744710352
 10
-14.20616328240223
 20
-0.9594382043757155
 30
0.0
 10
-14.24491189323904
 20
-0.9693196216238211
 30
0.0
 10
-14.37434527150237
 20
-1.001707286506424
 30
0.0
 10
-14.59532014633244
 20
-1.052508497725544
 30
0.0
 10
-14.86903021861379
 20
-1.109399115049302
 30
0.0
 10
-15.14281564302178
 20
-1.159341523598701
 30
0.0
 10
-15.41661361218235
 20
-1.202168005541116
 30
0.0
 10
-15.69044141114095
 20
-1.237567038978686
 30
0.0
 10
-15.96428812807643
 20
-1.265336617236397
 30
0.0
 10
-16.23815189690062
 20
-1.285296784155323
 30
0.0
 10
-16.51202597031948
 20
-1.297319053822997
 30
0.0
 10
-16.69465300033652
 20
-1.299999931246893
 30
0.0
 10
-16.78590574302122
 20
-1.299999923808224
 30
0.0
  0
SPLINE
  5
22B9
330
1F
100
AcDbEntity
  8
AM_0
100
AcDbSpline
210
0.0
220
0.0
230
1.0
 70
     8
 71
     3
 72
    11
 73
     7
 74
     0
 42
0.0000000001
 43
0.0000000001
 40
11.27226913003534
 40
11.27226913003534
 40
11.27226913003534
 40
11.2722691300354
 40
12.28301561507924
 40
13.29510212255852
 40
14.30984805882082
 40
15.18258238371378
 40
15.18258238371378
 40
15.18258238371378
 40
15.18258238371378
 10
-16.78590574302123
 20
-1.299999923808224
 30
0.0
 10
-16.87681149785353
 20
-1.29363734603069
 30
0.0
 10
-17.05845154197816
 20
-1.278233822141973
 30
0.0
 10
-17.32997365283982
 20
-1.247161104405829
 30
0.0
 10
-17.58765292372789
 20
-1.210048150060631
 30
0.0
 10
-17.75430475066855
 20
-1.1815183175031
 30
0.0
 10
-17.83110265792924
 20
-1.16742536824205
 30
0.0
  0
SPLINE
  5
22BA
330
1F
100
AcDbEntity
  8
AM_0
100
AcDbSpline
210
0.0
220
0.0
230
1.0
 70
     8
 71
     3
 72
    23
 73
    19
 74
     0
 42
0.0000000001
 43
0.0000000001
 40
16.03460024169435
 40
16.03460024169435
 40
16.03460024169435
 40
16.03460024169435
 40
16.35212704903564
 40
17.38177054169784
 40
18.41822485651776
 40
19.46214173629503
 40
20.51396345435107
 40
21.57393551351153
 40
22.64208202342361
 40
23.7182574881101
 40
24.80209208578934
 40
25.89306333925047
 40
26.99048218457928
 40
28.09348763352352
 40
29.20111863782268
 40
30.31232390128032
 40
31.42594612798585
 40
32.5407912310448
 40
32.5407912310486
 40
32.5407912310486
 40
32.5407912310486
 10
-16.11718123715968
 20
1.300184764784349
 30
0.0
 10
-16.08904404129906
 20
1.29579619371385
 30
0.0
 10
-15.96978624131276
 20
1.276685201892193
 30
0.0
 10
-15.75971234231839
 20
1.239240130122705
 30
0.0
 10
-15.48766609317925
 20
1.183559717896791
 30
0.0
 10
-15.2158725333925
 20
1.121039895952185
 30
0.0
 10
-14.94431560245993
 20
1.052042497129866
 30
0.0
 10
-14.67298566234482
 20
0.97695218347292
 30
0.0
 10
-14.40186703082694
 20
0.8961982028807787
 30
0.0
 10
-14.13094082823523
 20
0.8102505232645038
 30
0.0
 10
-13.86019165956982
 20
0.7195958613226942
 30
0.0
 10
-13.5895978178881
 20
0.624761715410179
 30
0.0
 10
-13.31913737458514
 20
0.5262993025559372
 30
0.0
 10
-13.04879230965301
 20
0.4247747403557927
 30
0.0
 10
-12.77854000364846
 20
0.3207783802357164
 30
0.0
 10
-12.5083554254844
 20
0.214917484641142
 30
0.0
 10
-12.23821657450923
 20
0.1078054887959206
 30
0.0
 10
-12.05817237999321
 20
0.0359927524050991
 30
0.0
 10
-11.96810118357272
 20
0.0000661976107299
 30
0.0
  0
SPLINE
  5
22BB
330
1F
100
AcDbEntity
  8
AM_0
100
AcDbSpline
210
0.0
220
0.0
230
1.0
 70
     8
 71
     3
 72
    17
 73
    13
 74
     0
 42
0.0000000001
 43
0.0000000001
 40
1.580019955310467
 40
1.580019955310467
 40
1.580019955310467
 40
1.580019955310467
 40
2.030549285115227
 40
3.082371838836284
 40
4.126290986361125
 40
5.162752068350215
 40
6.192395305374981
 40
7.216039564037012
 40
8.234688489606833
 40
9.249433870634691
 40
10.26152376260694
 40
11.27226744710342
 40
11.27226744710342
 40
11.27226744710342
 40
11.27226744710352
 10
-23.95602649488171
 20
-0.9594382043756283
 30
0.0
 10
-23.99477510571853
 20
-0.9693196216237341
 30
0.0
 10
-24.12420848398186
 20
-1.001707286506337
 30
0.0
 10
-24.34518335881192
 20
-1.052508497725457
 30
0.0
 10
-24.61889343109328
 20
-1.109399115049216
 30
0.0
 10
-24.89267885550127
 20
-1.159341523598614
 30
0.0
 10
-25.16647682466184
 20
-1.202168005541029
 30
0.0
 10
-25.44030462362043
 20
-1.237567038978599
 30
0.0
 10
-25.71415134055591
 20
-1.26533661723631
 30
0.0
 10
-25.9880151093801
 20
-1.285296784155236
 30
0.0
 10
-26.26188918279896
 20
-1.29731905382291
 30
0.0
 10
-26.444516212816
 20
-1.299999931246806
 30
0.0
 10
-26.5357689555007
 20
-1.299999923808138
 30
0.0
  0
SPLINE
  5
22BC
330
1F
100
AcDbEntity
  8
AM_0
100
AcDbSpline
210
0.0
220
0.0
230
1.0
 70
     8
 71
     3
 72
    37
 73
    33
 74
     0
 42
0.0000000001
 43
0.0000000001
 40
0.0
 40
0.0
 40
0.0
 40
0.0
 40
0.5056245176053715
 40
0.759310862862336
 40
1.013969309739036
 40
1.269880374404297
 40
1.527291183660732
 40
1.786406454158005
 40
2.047386241038974
 40
2.310345544571907
 40
2.575337113970003
 40
2.842374715221223
 40
3.111417320030211
 40
3.382376832022752
 40
3.655120036292296
 40
3.929472521611371
 40
4.205224030350333
 40
4.482133246366229
 40
4.759933319229942
 40
5.038338087391601
 40
5.317048131389549
 40
5.595758175387723
 40
5.874162943549382
 40
6.151963016412868
 40
6.428872232428759
 40
6.704623741167953
 40
6.978976226486702
 40
7.251719430756334
 40
7.522680721168324
 40
7.791723325977308
 40
8.058760927228528
 40
8.232349533780283
 40
8.232349533780283
 40
8.232349533780283
 40
8.232349533780283
 10
-20.61002521669054
 20
-1.299999923808189
 30
0.0
 10
-20.79266116667876
 20
-1.297038423317
 30
0.0
 10
-21.06693081925022
 20
-1.292591052956118
 30
0.0
 10
-21.43163913669048
 20
-1.265209410669585
 30
0.0
 10
-21.70548751805852
 20
-1.237601431405028
 30
0.0
 10
-21.97931249190903
 20
-1.202157475683121
 30
0.0
 10
-22.25311333689327
 20
-1.159348854621218
 30
0.0
 10
-22.52688864644261
 20
-1.109380229897543
 30
0.0
 10
-22.80063796202453
 20
-1.052577115382275
 30
0.0
 10
-23.0743600653579
 20
-0.9892882906072019
 30
0.0
 10
-23.34805550354754
 20
-0.919906296333829
 30
0.0
 10
-23.62172354043595
 20
-0.8448589663008913
 30
0.0
 10
-23.89536857264655
 20
-0.7646124828991156
 30
0.0
 10
-24.16899193014893
 20
-0.6796601640518678
 30
0.0
 10
-24.44259612916503
 20
-0.5905258684873003
 30
0.0
 10
-24.71618421015734
 20
-0.4977594981323184
 30
0.0
 10
-24.98975857086566
 20
-0.4019315153438638
 30
0.0
 10
-25.26332187385875
 20
-0.3036313126599673
 30
0.0
 10
-25.5368770196875
 20
-0.2034638702282166
 30
0.0
 10
-25.81042650729603
 20
-0.1020451474080258
 30
0.0
 10
-26.08397369539927
 20
0.0000000761712106
 30
0.0
 10
-26.35752088344239
 20
0.102045299874453
 30
0.0
 10
-26.63107037123117
 20
0.2034640223228081
 30
0.0
 10
-26.90462551640107
 20
0.3036314661134522
 30
0.0
 10
-27.17818882183724
 20
0.4019316637577101
 30
0.0
 10
-27.45176317348685
 20
0.4977596652326313
 30
0.0
 10
-27.72535128802663
 20
0.5905259663850531
 30
0.0
 10
-27.99895595775502
 20
0.6796607117046884
 30
0.0
 10
-28.27258037842576
 20
0.7646122587170562
 30
0.0
 10
-28.54622589877715
 20
0.8448591535953166
 30
0.0
 10
-28.78866817700561
 20
0.9113435399800692
 30
0.0
 10
-28.94016475991438
 20
0.9502838959367158
 30
0.0
 10
-29.00000000002495
 20
0.9652359370620505
 30
0.0
  0
SPLINE
  5
22BD
330
1F
100
AcDbEntity
  8
AM_0
100
AcDbSpline
210
0.0
220
0.0
230
1.0
 70
     8
 71
     3
 72
     9
 73
     5
 74
     0
 42
0.0000000001
 43
0.0000000001
 40
11.27226913003534
 40
11.27226913003534
 40
11.27226913003534
 40
11.2722691300354
 40
12.28301561507924
 40
12.99863635197729
 40
12.99863635197729
 40
12.99863635197729
 40
12.99863635197729
 10
-26.53576895550071
 20
-1.299999923808138
 30
0.0
 10
-26.626674710333
 20
-1.293637346030604
 30
0.0
 10
-26.7816936464132
 20
-1.280491357784331
 30
0.0
 10
-26.93611262418355
 20
-1.263493132925019
 30
0.0
 10
-27.00000000017201
 20
-1.255793913905075
 30
0.0
  0
SPLINE
  5
22BE
330
1F
100
AcDbEntity
  8
AM_0
100
AcDbSpline
210
0.0
220
0.0
230
1.0
 70
     8
 71
     3
 72
    28
 73
    24
 74
     0
 42
0.0000000001
 43
0.0000000001
 40
0.0
 40
0.0
 40
0.0
 40
0.0
 40
1.010743684496582
 40
2.022833576467832
 40
3.037578957496688
 40
4.056212745003489
 40
5.079857003664532
 40
6.109500240690281
 40
7.145961322679372
 40
8.189895241603872
 40
9.241717795325891
 40
10.30168407291828
 40
11.36983447792315
 40
12.44600489715814
 40
13.52984294512926
 40
14.62081576220742
 40
15.7182257034828
 40
16.82123173843959
 40
17.92886860250316
 40
19.0400688939571
 40
20.15368796660465
 40
21.26852814259644
 40
21.87700996060819
 40
21.87700996060819
 40
21.87700996060819
 40
21.87700996060819
 10
-21.3766865427811
 20
-1.299999923808182
 30
0.0
 10
-21.4679392866697
 20
-1.299226455302607
 30
0.0
 10
-21.65056631379242
 20
-1.297678488110317
 30
0.0
 10
-21.9244403930203
 20
-1.28520013472917
 30
0.0
 10
-22.19830278159637
 20
-1.265362812562719
 30
0.0
 10
-22.4721482207793
 20
-1.237560051076271
 30
0.0
 10
-22.74597397802266
 20
-1.202168630993056
 30
0.0
 10
-23.01977465135651
 20
-1.15934593231818
 30
0.0
 10
-23.29355115663196
 20
-1.109380424013219
 30
0.0
 10
-23.56730106600469
 20
-1.052578070944371
 30
0.0
 10
-23.84102251473893
 20
-0.9892876361136233
 30
0.0
 10
-24.11471686718476
 20
-0.9199063870379923
 30
0.0
 10
-24.38838485635022
 20
-0.8448589417182871
 30
0.0
 10
-24.66202990149766
 20
-0.7646124895649732
 30
0.0
 10
-24.93565325547602
 20
-0.6796601622198441
 30
0.0
 10
-25.20925745552294
 20
-0.5905258690875845
 30
0.0
 10
-25.48284553594601
 20
-0.4977594975754919
 30
0.0
 10
-25.75641989790031
 20
-0.4019315169773707
 30
0.0
 10
-26.02998319645619
 20
-0.3036313066519039
 30
0.0
 10
-26.30353835885719
 20
-0.2034638927149963
 30
0.0
 10
-26.57708778444249
 20
-0.102045063262332
 30
0.0
 10
-26.80920516630759
 20
-0.0154554049542792
 30
0.0
 10
-26.95020624466867
 20
0.0371449101293161
 30
0.0
 10
-27.00000000000004
 20
0.0557033412391786
 30
0.0
  0
ELLIPSE
  5
22C0
330
1F
100
AcDbEntity
  8
AM_0
 48
0.5
100
AcDbEllipse
 10
2.904860689175484
 20
3.365685712787191
 30
0.0
 11
-3.018917186091199
 21
3.018917186091199
 31
0.0
210
0.0
220
0.0
230
1.0
 40
0.9999999999999943
 41
1.334247580774354
 42
1.564421971156354
  0
LINE
  5
22C1
330
1F
100
AcDbEntity
  8
AM_0
 48
0.5
100
AcDbLine
 10
-26.40821197802685
 20
-1.29999992380814
 30
0.0
 11
-30.65358951988612
 21
-1.300000358297712
 31
0.0
  0
LINE
  5
22C2
330
1F
100
AcDbEntity
  8
AM_0
 48
0.5
100
AcDbLine
 10
-25.86589838437436
 20
1.300000076191855
 30
0.0
 11
-30.6535898006429
 21
1.300000489287508
 31
0.0
  0
LINE
  5
22D1
330
1F
100
AcDbEntity
  8
AM_0
100
AcDbLine
 10
-30.65358951988612
 20
-1.300000358297712
 30
0.0
 11
-30.65358951988612
 21
1.3000003271925
 31
0.0
  0
ELLIPSE
  5
243E
330
1F
100
AcDbEntity
  8
AM_0
 48
0.5
100
AcDbEllipse
 10
2.90486068917549
 20
-3.365685712787182
 30
0.0
 11
-3.018917186091193
 21
-3.018917186091205
 31
0.0
210
0.0
220
0.0
230
-1.0
 40
0.9999999999999943
 41
1.334247580774354
 42
1.564421971156354
  0
LINE
  5
243F
330
1F
100
AcDbEntity
  8
AM_0
 48
0.5
100
AcDbLine
 10
-0.7374672547451531
 20
-1.138317511997686
 30
0.0
 11
-0.9999999999999729
 21
-1.300000076191661
 31
0.0
  0
DIMENSION
  5
2485
330
1F
100
AcDbEntity
  8
AM_5
100
AcDbDimension
  2
*D10
 10
-0.1332411609958311
 20
-0.3660771294298124
 30
0.0
 11
13.14810036833072
 21
-0.0000176176132358
 31
0.0
 70
    34
  1
<>
 51
359.9999999999998
  3
AM_JIS$2
100
AcDb2LineAngularDimension
 13
0.0000000000000017
 23
0.0000000000000015
 33
0.0
 14
-0.1332386856516278
 24
0.3660733808968644
 34
0.0
 15
0.0000000000000017
 25
0.0000000000000015
 35
0.0
 16
13.49602201572948
 26
-5.821644457437773
 36
0.0
1001
ACAD
1000
DSTYLE
1002
{
1070
   179
1070
     3
1002
}
1001
GENIUS_GENDTOL_13
1000

1000
h7
1000

1040
0.0
  0
VIEWPORT
  5
110
330
101
100
AcDbEntity
 67
     1
  8
0
100
AcDbViewport
 10
420.5
 20
297.0
 30
0.0
 40
948.9782706766916
 41
628.452
 68
     1
 69
     1
1001
ACAD
1000
MVIEW
1002
{
1070
    16
1010
0.0
1020
0.0
1030
0.0
1010
0.0
1020
0.0
1030
1.0
1040
0.0
1040
628.452
1040
420.5
1040
297.0
1040
50.0
1040
0.0
1040
0.0
1070
     0
1070
   100
1070
     1
1070
     1
1070
     0
1070
     0
1070
     0
1070
     0
1040
0.0
1040
0.0
1040
0.0
1040
10.0
1040
10.0
1040
10.0
1040
10.0
1070
     0
1002
{
1002
}
1002
}
  0
ENDSEC
  0
SECTION
  2
OBJECTS
  0
DICTIONARY
  5
C
330
0
100
AcDbDictionary
  3
ACAD_GROUP
350
D
  3
ACAD_LAYOUT
350
1A
  3
ACAD_MLINESTYLE
350
17
  3
ACAD_PLOTSETTINGS
350
19
  3
ACAD_PLOTSTYLENAME
350
E
  3
ACDBVARIABLEDICTIONARY
350
34
  3
ACMDICTIONARY
350
43
  3
AMG
350
2B
  3
AMGSNAPSETTINGS
350
6E
  3
DWGPROPS
350
256B
  3
ACDBHEADERROUNDTRIPXREC
350
2578
  0
DICTIONARY
  5
74
330
1F
100
AcDbDictionary
280
     1
  3
ACAD_INDEX
360
256D
  3
ACAD_LAYOUTSELFREF
360
259B
  0
DICTIONARY
  5
25A0
330
101
100
AcDbDictionary
280
     1
  3
ACAD_LAYOUTSELFREF
360
25A1
  0
DICTIONARY
  5
D
102
{ACAD_REACTORS
330
C
102
}
330
C
100
AcDbDictionary
  0
DICTIONARY
  5
1A
102
{ACAD_REACTORS
330
C
102
}
330
C
100
AcDbDictionary
  0
DICTIONARY
  5
17
102
{ACAD_REACTORS
330
C
102
}
330
C
100
AcDbDictionary
  3
STANDARD
350
18
  0
DICTIONARY
  5
19
102
{ACAD_REACTORS
330
C
102
}
330
C
100
AcDbDictionary
  0
ACDBDICTIONARYWDFLT
  5
E
102
{ACAD_REACTORS
330
C
102
}
330
C
100
AcDbDictionary
281
     1
  3
Normal
350
F
100
AcDbDictionaryWithDefault
340
F
  0
DICTIONARY
  5
34
102
{ACAD_REACTORS
330
C
102
}
330
C
100
AcDbDictionary
  3
INDEXCTL
350
35
  3
SORTENTS
350
B5E
  0
DICTIONARY
  5
43
102
{ACAD_REACTORS
330
C
102
}
330
C
100
AcDbDictionary
  3
ACMSTDDICTIONARY
350
260
  0
DICTIONARY
  5
2B
102
{ACAD_REACTORS
330
C
102
}
330
C
100
AcDbDictionary
  3
ACMGSETTINGS
350
2C
  0
DICTIONARY
  5
6E
102
{ACAD_REACTORS
330
C
102
}
330
C
100
AcDbDictionary
  0
XRECORD
  5
256B
102
{ACAD_REACTORS
330
C
102
}
330
C
100
AcDbXrecord
  1
DWGPROPS COOKIE
  2

  3

  4

  6

  7

  8

  9

300
AmdtFileType=82
301
=
302
=
303
=
304
=
305
=
306
=
307
=
308
=
309
=
 40
0.0414762268518519
 41
2452800.443498622
 42
2452946.658802083
  1

 90
        1
  0
DICTIONARY
  5
2578
102
{ACAD_REACTORS
330
C
102
}
330
C
100
AcDbDictionary
  3
TSTACKALIGN
350
2579
  3
TSTACKSIZE
350
257A
  3
HYPERLINKBASE
350
257B
  3
STYLESHEET
350
257C
  3
LAYOUTDICT
350
257D
  3
PLOTSETDICT
350
257E
  3
PLOTSTYLNAMDICT
350
257F
  3
LWETCUNION
350
2580
  3
INSUNITS
350
2581
  3
CEPSNTYPE
350
2582
  3
FINGERPRINTGUID
350
2583
  3
VERSIONGUID
350
2584
  3
PSVPSCALE
350
2585
  3
DIMSTYLEDATA
350
2586
  3
PUCSORTHOREF
350
2587
  3
PUCSORTHOVIEW
350
2588
  3
PUCSBASE
350
2589
  3
PUCSORGTOP
350
258A
  3
PUCSORGBOTTOM
350
258B
  3
PUCSORGLEFT
350
258C
  3
PUCSORGRIGHT
350
258D
  3
PUCSORGFRONT
350
258E
  3
PUCSORGBACK
350
258F
  3
UCSORTHOREF
350
2590
  3
UCSORTHOVIEW
350
2591
  3
UCSBASE
350
2592
  3
UCSORGTOP
350
2593
  3
UCSORGBOTTOM
350
2594
  3
UCSORGLEFT
350
2595
  3
UCSORGRIGHT
350
2596
  3
UCSORGFRONT
350
2597
  3
UCSORGBACK
350
2598
  0
DICTIONARY
  5
256D
102
{ACAD_REACTORS
330
74
102
}
330
74
100
AcDbDictionary
  3
*A1
350
256E
  0
XRECORD
  5
259B
102
{ACAD_REACTORS
330
74
102
}
330
74
100
AcDbXrecord
340
1F
  0
XRECORD
  5
25A1
102
{ACAD_REACTORS
330
25A0
102
}
330
25A0
100
AcDbXrecord
340
101
  0
MLINESTYLE
  5
18
102
{ACAD_REACTORS
330
17
102
}
330
17
100
AcDbMlineStyle
  2
STANDARD
 70
     0
  3

 62
   256
 51
90.0
 52
90.0
 71
     2
 49
0.5
 62
   256
  6
BYLAYER
 49
-0.5
 62
   256
  6
BYLAYER
  0
ACDBPLACEHOLDER
  5
F
102
{ACAD_REACTORS
330
E
102
}
330
E
100
AcDbPlaceHolder
280
     0
  0
DICTIONARYVAR
  5
35
102
{ACAD_REACTORS
330
34
102
}
330
34
100
DictionaryVariables
280
     0
  1
1
  0
DICTIONARYVAR
  5
B5E
102
{ACAD_REACTORS
330
34
102
}
330
34
100
DictionaryVariables
280
     0
  1
96
  0
DICTIONARY
  5
260
102
{ACAD_REACTORS
330
43
102
}
330
43
100
AcDbDictionary
  0
DICTIONARY
  5
2C
102
{ACAD_REACTORS
330
2B
102
}
330
2B
100
AcDbDictionary
  3
DWGSETTINGS
350
2D
  0
XRECORD
  5
2579
102
{ACAD_REACTORS
330
2578
102
}
330
2578
100
AcDbXrecord
 90
        1
  0
XRECORD
  5
257A
102
{ACAD_REACTORS
330
2578
102
}
330
2578
100
AcDbXrecord
 90
       70
  0
XRECORD
  5
257B
102
{ACAD_REACTORS
330
2578
102
}
330
2578
100
AcDbXrecord
  1

  0
XRECORD
  5
257C
102
{ACAD_REACTORS
330
2578
102
}
330
2578
100
AcDbXrecord
  1
ASAMI.ctb
  0
XRECORD
  5
257D
102
{ACAD_REACTORS
330
2578
102
}
330
2578
100
AcDbXrecord
340
1A
  0
XRECORD
  5
257E
102
{ACAD_REACTORS
330
2578
102
}
330
2578
100
AcDbXrecord
340
19
  0
XRECORD
  5
257F
102
{ACAD_REACTORS
330
2578
102
}
330
2578
100
AcDbXrecord
340
E
  0
XRECORD
  5
2580
102
{ACAD_REACTORS
330
2578
102
}
330
2578
100
AcDbXrecord
 90
    10781
  0
XRECORD
  5
2581
102
{ACAD_REACTORS
330
2578
102
}
330
2578
100
AcDbXrecord
 90
        4
  0
XRECORD
  5
2582
102
{ACAD_REACTORS
330
2578
102
}
330
2578
100
AcDbXrecord
 90
        0
  0
XRECORD
  5
2583
102
{ACAD_REACTORS
330
2578
102
}
330
2578
100
AcDbXrecord
  1
{AFB28963-8C59-40AE-9337-C84526B81ACE}
  0
XRECORD
  5
2584
102
{ACAD_REACTORS
330
2578
102
}
330
2578
100
AcDbXrecord
  1
{BF2DD557-C14C-4F1B-A6A5-EFDE4AD05626}
  0
XRECORD
  5
2585
102
{ACAD_REACTORS
330
2578
102
}
330
2578
100
AcDbXrecord
 40
0.0
  0
XRECORD
  5
2586
102
{ACAD_REACTORS
330
2578
102
}
330
2578
100
AcDbXrecord
1000
DSTYLE
1002
{
1070
    79
 70
     2
1070
   341
340
59
1070
   342
340
59
1070
   371
 70
    -1
1070
   372
 70
    -1
1002
}
  0
XRECORD
  5
2587
102
{ACAD_REACTORS
330
2578
102
}
330
2578
100
AcDbXrecord
340
0
  0
XRECORD
  5
2588
102
{ACAD_REACTORS
330
2578
102
}
330
2578
100
AcDbXrecord
 70
     0
  0
XRECORD
  5
2589
102
{ACAD_REACTORS
330
2578
102
}
330
2578
100
AcDbXrecord
340
0
  0
XRECORD
  5
258A
102
{ACAD_REACTORS
330
2578
102
}
330
2578
100
AcDbXrecord
 10
0.0
 20
0.0
 30
0.0
  0
XRECORD
  5
258B
102
{ACAD_REACTORS
330
2578
102
}
330
2578
100
AcDbXrecord
 10
0.0
 20
0.0
 30
0.0
  0
XRECORD
  5
258C
102
{ACAD_REACTORS
330
2578
102
}
330
2578
100
AcDbXrecord
 10
0.0
 20
0.0
 30
0.0
  0
XRECORD
  5
258D
102
{ACAD_REACTORS
330
2578
102
}
330
2578
100
AcDbXrecord
 10
0.0
 20
0.0
 30
0.0
  0
XRECORD
  5
258E
102
{ACAD_REACTORS
330
2578
102
}
330
2578
100
AcDbXrecord
 10
0.0
 20
0.0
 30
0.0
  0
XRECORD
  5
258F
102
{ACAD_REACTORS
330
2578
102
}
330
2578
100
AcDbXrecord
 10
0.0
 20
0.0
 30
0.0
  0
XRECORD
  5
2590
102
{ACAD_REACTORS
330
2578
102
}
330
2578
100
AcDbXrecord
340
0
  0
XRECORD
  5
2591
102
{ACAD_REACTORS
330
2578
102
}
330
2578
100
AcDbXrecord
 70
     0
  0
XRECORD
  5
2592
102
{ACAD_REACTORS
330
2578
102
}
330
2578
100
AcDbXrecord
340
0
  0
XRECORD
  5
2593
102
{ACAD_REACTORS
330
2578
102
}
330
2578
100
AcDbXrecord
 10
0.0
 20
0.0
 30
0.0
  0
XRECORD
  5
2594
102
{ACAD_REACTORS
330
2578
102
}
330
2578
100
AcDbXrecord
 10
0.0
 20
0.0
 30
0.0
  0
XRECORD
  5
2595
102
{ACAD_REACTORS
330
2578
102
}
330
2578
100
AcDbXrecord
 10
0.0
 20
0.0
 30
0.0
  0
XRECORD
  5
2596
102
{ACAD_REACTORS
330
2578
102
}
330
2578
100
AcDbXrecord
 10
0.0
 20
0.0
 30
0.0
  0
XRECORD
  5
2597
102
{ACAD_REACTORS
330
2578
102
}
330
2578
100
AcDbXrecord
 10
0.0
 20
0.0
 30
0.0
  0
XRECORD
  5
2598
102
{ACAD_REACTORS
330
2578
102
}
330
2578
100
AcDbXrecord
 10
0.0
 20
0.0
 30
0.0
  0
LAYER_INDEX
  5
256E
102
{ACAD_REACTORS
330
256D
102
}
330
256D
100
AcDbIndex
 40
2453151.687714468
100
AcDbLayerIndex
  8
0
360
256F
 90
        0
  8
AM_0
360
2570
 90
       52
  8
AM_7
360
2571
 90
        1
  8
AM_11
360
2572
 90
       33
  8
AM_5
360
2573
 90
        5
  8
Defpoints
360
2574
 90
        0
  8
AM_6
360
2575
 90
        1
  8
AM_CL
360
2576
 90
        0
  0
XRECORD
  5
2D
102
{ACAD_REACTORS
330
2C
102
}
330
2C
100
AcDbXrecord
  1
VERSION
140
15.0
  1
PRODUCT
  2
AutoCAD Mechanical 2000
  0
IDBUFFER
  5
256F
330
0
100
AcDbIdBuffer
  0
IDBUFFER
  5
2570
330
0
100
AcDbIdBuffer
330
22C2
330
22D1
330
243E
330
243F
330
C1D
330
C20
330
C30
330
1B73
330
1B77
330
1B8A
330
1D7E
330
1D83
330
1D87
330
1E69
330
1E6A
330
2278
330
2288
330
2289
330
228A
330
228B
330
228C
330
228E
330
228F
330
2290
330
2291
330
2296
330
2297
330
22A8
330
22A9
330
22AA
330
22AB
330
22AC
330
22AD
330
22AE
330
22AF
330
22B0
330
22B1
330
22B2
330
22B3
330
22B4
330
22B5
330
22B6
330
22B7
330
22B8
330
22B9
330
22BA
330
22BB
330
22BC
330
22BD
330
22BE
330
22C0
330
22C1
  0
IDBUFFER
  5
2571
330
0
100
AcDbIdBuffer
330
C9F
  0
IDBUFFER
  5
2572
330
0
100
AcDbIdBuffer
330
1C63
330
1C64
330
1C65
330
1C66
330
1C67
330
1C68
330
1C69
330
1C6A
330
1C6B
330
1C6C
330
1C6D
330
2292
330
2293
330
2294
330
2295
330
22A6
330
22A7
330
144A
330
144B
330
144E
330
144F
330
1450
330
1451
330
1452
330
1453
330
1454
330
18B8
330
18B9
330
18BA
330
18BB
330
1C60
330
1C61
330
1C62
  0
IDBUFFER
  5
2573
330
0
100
AcDbIdBuffer
330
CC6
330
1BC7
330
1F56
330
2279
330
2485
  0
IDBUFFER
  5
2574
330
0
100
AcDbIdBuffer
  0
IDBUFFER
  5
2575
330
0
100
AcDbIdBuffer
330
19BD
  0
IDBUFFER
  5
2576
330
0
100
AcDbIdBuffer
  0
ENDSEC
  0
EOF
