  0
SECTION
  2
HEADER
  9
$ACADVER
  1
AC1014
  9
$ACADMAINTVER
 70
     9
  9
$DWGCODEPAGE
  3
ANSI_932
  9
$INSBASE
 10
0.0
 20
0.0
 30
0.0
  9
$EXTMIN
 10
-79.40000131162642
 20
-24.75000713500412
 30
-0.00000001
  9
$EXTMAX
 10
14.17201308610518
 20
13.81684582923475
 30
0.00000001
  9
$LIMMIN
 10
-82.34037039394099
 20
-37.97145095443895
  9
$LIMMAX
 10
19.32151923811031
 20
24.34159145814783
  9
$ORTHOMODE
 70
     0
  9
$REGENMODE
 70
     1
  9
$FILLMODE
 70
     1
  9
$QTEXTMODE
 70
     0
  9
$MIRRTEXT
 70
     0
  9
$DRAGMODE
 70
     2
  9
$LTSCALE
 40
1.0
  9
$OSMODE
 70
    55
  9
$ATTMODE
 70
     1
  9
$TEXTSIZE
 40
2.5
  9
$TRACEWID
 40
1.0
  9
$TEXTSTYLE
  7
STANDARD
  9
$CLAYER
  8
AM_0
  9
$CELTYPE
  6
BYLAYER
  9
$CECOLOR
 62
   256
  9
$CELTSCALE
 40
1.0
  9
$DELOBJ
 70
     1
  9
$DISPSILH
 70
     0
  9
$DIMSCALE
 40
0.5
  9
$DIMASZ
 40
2.5
  9
$DIMEXO
 40
1.0
  9
$DIMDLI
 40
12.0
  9
$DIMRND
 40
0.0
  9
$DIMDLE
 40
0.0
  9
$DIMEXE
 40
1.0
  9
$DIMTP
 40
0.1
  9
$DIMTM
 40
0.1
  9
$DIMTXT
 40
3.2
  9
$DIMCEN
 40
0.0
  9
$DIMTSZ
 40
0.0
  9
$DIMTOL
 70
     0
  9
$DIMLIM
 70
     0
  9
$DIMTIH
 70
     0
  9
$DIMTOH
 70
     0
  9
$DIMSE1
 70
     0
  9
$DIMSE2
 70
     0
  9
$DIMTAD
 70
     3
  9
$DIMZIN
 70
     8
  9
$DIMBLK
  1
OPEN30
  9
$DIMASO
 70
     1
  9
$DIMSHO
 70
     1
  9
$DIMPOST
  1

  9
$DIMAPOST
  1
"
  9
$DIMALT
 70
     0
  9
$DIMALTD
 70
     2
  9
$DIMALTF
 40
0.0393701
  9
$DIMLFAC
 40
1.0
  9
$DIMTOFL
 70
     1
  9
$DIMTVP
 40
0.0
  9
$DIMTIX
 70
     0
  9
$DIMSOXD
 70
     0
  9
$DIMSAH
 70
     0
  9
$DIMBLK1
  1

  9
$DIMBLK2
  1

  9
$DIMSTYLE
  2
AM_JIS
  9
$DIMCLRD
 70
   256
  9
$DIMCLRE
 70
   256
  9
$DIMCLRT
 70
     2
  9
$DIMTFAC
 40
0.71
  9
$DIMGAP
 40
1.5
  9
$DIMJUST
 70
     0
  9
$DIMSD1
 70
     0
  9
$DIMSD2
 70
     0
  9
$DIMTOLJ
 70
     0
  9
$DIMTZIN
 70
     0
  9
$DIMALTZ
 70
     0
  9
$DIMALTTZ
 70
     0
  9
$DIMFIT
 70
     3
  9
$DIMUPT
 70
     0
  9
$DIMUNIT
 70
     2
  9
$DIMDEC
 70
     3
  9
$DIMTDEC
 70
     3
  9
$DIMALTU
 70
     2
  9
$DIMALTTD
 70
     2
  9
$DIMTXSTY
  7
ASAMI
  9
$DIMAUNIT
 70
     0
  9
$LUNITS
 70
     2
  9
$LUPREC
 70
     2
  9
$SKETCHINC
 40
1.0
  9
$FILLETRAD
 40
2.5
  9
$AUNITS
 70
     0
  9
$AUPREC
 70
     0
  9
$MENU
  1
.
  9
$ELEVATION
 40
0.0
  9
$PELEVATION
 40
0.0
  9
$THICKNESS
 40
0.0
  9
$LIMCHECK
 70
     0
  9
$BLIPMODE
 70
     0
  9
$CHAMFERA
 40
0.25
  9
$CHAMFERB
 40
0.25
  9
$CHAMFERC
 40
20.0
  9
$CHAMFERD
 40
0.0
  9
$SKPOLY
 70
     0
  9
$TDCREATE
 40
2452800.443498622
  9
$TDUPDATE
 40
2453151.576057743
  9
$TDINDWG
 40
0.0585420139
  9
$TDUSRTIMER
 40
0.0585420139
  9
$USRTIMER
 70
     1
  9
$ANGBASE
 50
0.0
  9
$ANGDIR
 70
     0
  9
$PDMODE
 70
     0
  9
$PDSIZE
 40
0.0
  9
$PLINEWID
 40
0.0
  9
$COORDS
 70
     1
  9
$SPLFRAME
 70
     0
  9
$SPLINETYPE
 70
     6
  9
$SPLINESEGS
 70
     8
  9
$ATTDIA
 70
     1
  9
$ATTREQ
 70
     1
  9
$HANDLING
 70
 12289
  9
$HANDSEED
  5
2F8F
  9
$SURFTAB1
 70
     6
  9
$SURFTAB2
 70
     6
  9
$SURFTYPE
 70
     6
  9
$SURFU
 70
     6
  9
$SURFV
 70
     6
  9
$UCSNAME
  2

  9
$UCSORG
 10
0.0
 20
0.0
 30
0.0
  9
$UCSXDIR
 10
1.0
 20
0.000000000000002
 30
0.0
  9
$UCSYDIR
 10
-0.000000000000002
 20
1.0
 30
0.0
  9
$PUCSNAME
  2

  9
$PUCSORG
 10
0.0
 20
0.0
 30
0.0
  9
$PUCSXDIR
 10
1.0
 20
0.0
 30
0.0
  9
$PUCSYDIR
 10
0.0
 20
1.0
 30
0.0
  9
$USERI1
 70
     0
  9
$USERI2
 70
     0
  9
$USERI3
 70
     0
  9
$USERI4
 70
     0
  9
$USERI5
 70
     0
  9
$USERR1
 40
0.0
  9
$USERR2
 40
0.0
  9
$USERR3
 40
0.0
  9
$USERR4
 40
0.0
  9
$USERR5
 40
0.0
  9
$WORLDVIEW
 70
     1
  9
$SHADEDGE
 70
     3
  9
$SHADEDIF
 70
    70
  9
$TILEMODE
 70
     1
  9
$MAXACTVP
 70
    64
  9
$PINSBASE
 10
0.0
 20
0.0
 30
0.0
  9
$PLIMCHECK
 70
     0
  9
$PEXTMIN
 10
1.000000000000000E+20
 20
1.000000000000000E+20
 30
1.000000000000000E+20
  9
$PEXTMAX
 10
-1.000000000000000E+20
 20
-1.000000000000000E+20
 30
-1.000000000000000E+20
  9
$PLIMMIN
 10
0.0
 20
0.0
  9
$PLIMMAX
 10
841.0
 20
594.0
  9
$UNITMODE
 70
     0
  9
$VISRETAIN
 70
     1
  9
$PLINEGEN
 70
     0
  9
$PSLTSCALE
 70
     0
  9
$TREEDEPTH
 70
  3020
  9
$PICKSTYLE
 70
     0
  9
$CMLSTYLE
  2
STANDARD
  9
$CMLJUST
 70
     0
  9
$CMLSCALE
 40
20.0
  9
$PROXYGRAPHICS
 70
     1
  9
$MEASUREMENT
 70
     1
  0
ENDSEC
  0
SECTION
  2
CLASSES
  0
CLASS
  1
ACDBDICTIONARYWDFLT
  2
AcDbDictionaryWithDefault
  3
AutoCAD 2000
 90
        0
280
     0
281
     0
  0
CLASS
  1
ACDBPLACEHOLDER
  2
AcDbPlaceHolder
  3
AutoCAD 2000
 90
        0
280
     0
281
     0
  0
CLASS
  1
LAYOUT
  2
AcDbLayout
  3
AutoCAD 2000
 90
        0
280
     0
281
     0
  0
CLASS
  1
AMGSETTINGSOBJ
  2
AmgSettingsObj
  3
"AcadM|Product Description: AutoCAD Mechanical 2000|Company: Autodesk"
 90
        0
280
     0
281
     0
  0
CLASS
  1
ACME_DOCUMENT
  2
AcMeDbDoc
  3
AcMeServices
 90
        0
280
     0
281
     0
  0
CLASS
  1
ACMESCOPE
  2
AcMeScope
  3
AcMeServices
 90
        0
280
     0
281
     0
  0
CLASS
  1
ACMECOMMANDHISTORY
  2
AcMeCommandHistory
  3
AcMeServices
 90
        0
280
     0
281
     0
  0
CLASS
  1
DICTIONARYVAR
  2
AcDbDictionaryVar
  3
AutoCAD 2000
 90
        0
280
     0
281
     0
  0
CLASS
  1
ACIMSYSVARMAN
  2
AcImSysVarManager
  3
AcMeServices
 90
        0
280
     0
281
     0
  0
CLASS
  1
ACIMREALSYSVAR
  2
AcImRealSysVar
  3
AcMeServices
 90
        0
280
     0
281
     0
  0
CLASS
  1
ACIMINTSYSVAR
  2
AcImIntSysVar
  3
AcMeServices
 90
        0
280
     0
281
     0
  0
CLASS
  1
ACMEDRAWINGMAN
  2
AcMeDrawingMan
  3
AcMeServices
 90
        0
280
     0
281
     0
  0
CLASS
  1
ACMEVIEW
  2
AcMeView
  3
AcMeServices
 90
        0
280
     0
281
     0
  0
CLASS
  1
ACDBENTITYCACHE
  2
AcMeEntityCache
  3
AcMeServices
 90
        0
280
     0
281
     0
  0
CLASS
  1
GSMANAGER
  2
AcMeGSManager
  3
AcMeServices
 90
        0
280
     0
281
     0
  0
CLASS
  1
AmdtInternalReactor
  2
AmdtInternalReactor
  3
AcMeServices
 90
        0
280
     0
281
     0
  0
CLASS
  1
ACMESTATEMGR
  2
AcMeStateMgr
  3
AcMeServices
 90
        0
280
     0
281
     0
  0
CLASS
  1
ACME_DATABASE
  2
AcMeDbDatabase
  3
AcMeServices
 90
        0
280
     0
281
     0
  0
CLASS
  1
ACRFINSADJUSTERMGR
  2
AcRfInsAdjusterMgr
  3
AcMeServices
 90
        0
280
     0
281
     0
  0
CLASS
  1
ACMDATADICTIONARY
  2
AcmDataDictionary
  3
"AcmSymBB|Product Description: AutoCAD Mechanical 2000|Company: Autodesk"
 90
        0
280
     0
281
     0
  0
CLASS
  1
ACMDATAENTRYBLOCK
  2
AcmDataEntryBlock
  3
"AcmSymBB|Product Description: AutoCAD Mechanical 2000|Company: Autodesk"
 90
        0
280
     0
281
     0
  0
CLASS
  1
AMGOBJPROPCFG
  2
AmgObjPropCfg
  3
"AmgLay|Product Description: AutoCAD Mechanical 2000|Company: Autodesk"
 90
        1
280
     0
281
     0
  0
CLASS
  1
ACAMGFILTERDAT
  2
AcAmgFilterDat
  3
"AcadM|Product Description: AutoCAD Mechanical 2000|Company: Autodesk"
 90
        0
280
     0
281
     0
  0
CLASS
  1
LAYER_INDEX
  2
AcDbLayerIndex
  3
AutoCAD 2000
 90
        0
280
     0
281
     0
  0
CLASS
  1
IDBUFFER
  2
AcDbIdBuffer
  3
AutoCAD 2000
 90
        0
280
     0
281
     0
  0
CLASS
  1
ACIMSTRSYSVAR
  2
AcImStrSysVar
  3
AcMeServices
 90
        0
280
     0
281
     0
  0
CLASS
  1
ACMSTANDARDJIS
  2
AcmStandardJIS
  3
"AcmSymBB|Product Description: AutoCAD Mechanical 2000|Company: Autodesk"
 90
        0
280
     0
281
     0
  0
CLASS
  1
ACMSURFSTANDARDJIS
  2
AcmSurfTextStdJIS
  3
"AcmSymBB|Product Description: AutoCAD Mechanical 2000|Company: Autodesk"
 90
        0
280
     0
281
     0
  0
CLASS
  1
ACMFCFSTANDARDJIS
  2
AcmFCFStdJIS
  3
"AcmSymBB|Product Description: AutoCAD Mechanical 2000|Company: Autodesk"
 90
        0
280
     0
281
     0
  0
CLASS
  1
ACMWELDSTANDARDJIS
  2
AcmWeldingStdJIS
  3
"AcmSymBB|Product Description: AutoCAD Mechanical 2000|Company: Autodesk"
 90
        0
280
     0
281
     0
  0
CLASS
  1
ACMIDSTANDARDJIS
  2
AcmIdStdJIS
  3
"AcmSymBB|Product Description: AutoCAD Mechanical 2000|Company: Autodesk"
 90
        0
280
     0
281
     0
  0
CLASS
  1
ACMDATUMSTANDARDJIS
  2
AcmDatumStdJIS
  3
"AcmSymBB|Product Description: AutoCAD Mechanical 2000|Company: Autodesk"
 90
        0
280
     0
281
     0
  0
CLASS
  1
ACMBOMSTANDARDJIS
  2
AcmBOMStdJIS
  3
"AcmSymBB|Product Description: AutoCAD Mechanical 2000|Company: Autodesk"
 90
        0
280
     0
281
     0
  0
CLASS
  1
ACMSTANDARDANSI
  2
AcmStandardANSI
  3
"AcmSymBB|Product Description: AutoCAD Mechanical 2000|Company: Autodesk"
 90
        0
280
     0
281
     0
  0
CLASS
  1
ACMSURFSTANDARDANSI
  2
AcmSurfTextStdANSI
  3
"AcmSymBB|Product Description: AutoCAD Mechanical 2000|Company: Autodesk"
 90
        0
280
     0
281
     0
  0
CLASS
  1
ACMFCFSTANDARDANSI
  2
AcmFCFStdANSI
  3
"AcmSymBB|Product Description: AutoCAD Mechanical 2000|Company: Autodesk"
 90
        0
280
     0
281
     0
  0
CLASS
  1
ACMWELDSTANDARDANSI
  2
AcmWeldingStdANSI
  3
"AcmSymBB|Product Description: AutoCAD Mechanical 2000|Company: Autodesk"
 90
        0
280
     0
281
     0
  0
CLASS
  1
ACMIDSTANDARDANSI
  2
AcmIdStdANSI
  3
"AcmSymBB|Product Description: AutoCAD Mechanical 2000|Company: Autodesk"
 90
        0
280
     0
281
     0
  0
CLASS
  1
ACMDATUMSTANDARDANSI
  2
AcmDatumStdANSI
  3
"AcmSymBB|Product Description: AutoCAD Mechanical 2000|Company: Autodesk"
 90
        0
280
     0
281
     0
  0
CLASS
  1
ACMBOMSTANDARDANSI
  2
AcmBOMStdANSI
  3
"AcmSymBB|Product Description: AutoCAD Mechanical 2000|Company: Autodesk"
 90
        0
280
     0
281
     0
  0
CLASS
  1
ACMSTANDARDBSI
  2
AcmStandardBSI
  3
"AcmSymBB|Product Description: AutoCAD Mechanical 2000|Company: Autodesk"
 90
        0
280
     0
281
     0
  0
CLASS
  1
ACMSURFSTANDARDBSI
  2
AcmSurfTextStdBSI
  3
"AcmSymBB|Product Description: AutoCAD Mechanical 2000|Company: Autodesk"
 90
        0
280
     0
281
     0
  0
CLASS
  1
ACMFCFSTANDARDBSI
  2
AcmFCFStdBSI
  3
"AcmSymBB|Product Description: AutoCAD Mechanical 2000|Company: Autodesk"
 90
        0
280
     0
281
     0
  0
CLASS
  1
ACMWELDSTANDARDBSI
  2
AcmWeldingStdBSI
  3
"AcmSymBB|Product Description: AutoCAD Mechanical 2000|Company: Autodesk"
 90
        0
280
     0
281
     0
  0
CLASS
  1
ACMIDSTANDARDBSI
  2
AcmIdStdBSI
  3
"AcmSymBB|Product Description: AutoCAD Mechanical 2000|Company: Autodesk"
 90
        0
280
     0
281
     0
  0
CLASS
  1
ACMDATUMSTANDARDBSI
  2
AcmDatumStdBSI
  3
"AcmSymBB|Product Description: AutoCAD Mechanical 2000|Company: Autodesk"
 90
        0
280
     0
281
     0
  0
CLASS
  1
ACMBOMSTANDARDBSI
  2
AcmBOMStdBSI
  3
"AcmSymBB|Product Description: AutoCAD Mechanical 2000|Company: Autodesk"
 90
        0
280
     0
281
     0
  0
CLASS
  1
LONG_TRANSACTION
  2
AcDbLongTransaction
  3
AutoCAD 2000
 90
        0
280
     0
281
     0
  0
CLASS
  1
LWPOLYLINE
  2
AcDbPolyline
  3
AutoCAD 2000
 90
        0
280
     0
281
     1
  0
CLASS
  1
HATCH
  2
AcDbHatch
  3
AutoCAD 2000
 90
        0
280
     0
281
     1
  0
CLASS
  1
XRECORD
  2
AcDbXrecord
  3
AutoCAD 2000
 90
        0
280
     0
281
     0
  0
ENDSEC
  0
SECTION
  2
TABLES
  0
TABLE
  2
VPORT
  5
8
330
0
100
AcDbSymbolTable
 70
     3
  0
VPORT
  5
2F59
330
8
100
AcDbSymbolTableRecord
100
AcDbViewportTableRecord
  2
*ACTIVE
 70
     0
 10
0.0
 20
0.0
 11
1.0
 21
1.0
 12
-30.86454584419571
 22
-5.467140025994584
 13
0.0
 23
0.0
 14
2.5
 24
2.5
 15
10.0
 25
10.0
 16
0.0
 26
0.0
 36
1.0
 17
0.0
 27
0.0
 37
0.0
 40
62.3031311194569
 41
1.56570841889117
 42
50.0
 43
0.0
 44
0.0
 50
0.0
 51
0.0
 71
     0
 72
   100
 73
     1
 74
     1
 75
     0
 76
     0
 77
     0
 78
     0
  0
ENDTAB
  0
TABLE
  2
LTYPE
  5
5
330
0
100
AcDbSymbolTable
 70
    10
  0
LTYPE
  5
14
330
5
100
AcDbSymbolTableRecord
100
AcDbLinetypeTableRecord
  2
BYBLOCK
 70
     0
  3

 72
    65
 73
     0
 40
0.0
  0
LTYPE
  5
15
330
5
100
AcDbSymbolTableRecord
100
AcDbLinetypeTableRecord
  2
BYLAYER
 70
     0
  3

 72
    65
 73
     0
 40
0.0
  0
LTYPE
  5
16
330
5
100
AcDbSymbolTableRecord
100
AcDbLinetypeTableRecord
  2
CONTINUOUS
 70
     0
  3
Solid line
 72
    65
 73
     0
 40
0.0
  0
LTYPE
  5
4B
330
5
100
AcDbSymbolTableRecord
100
AcDbLinetypeTableRecord
  2
AM_ISO02W050
 70
     0
  3
__ __ __ __ __ __ __ __ __ __ __ __ __ __ __
 72
    65
 73
     2
 40
7.5
 49
6.0
 74
     0
 49
-1.5
 74
     0
  0
LTYPE
  5
4C
330
5
100
AcDbSymbolTableRecord
100
AcDbLinetypeTableRecord
  2
AM_ISO08W050
 70
     0
  3
____ . ____ . ____ . ____ . ____ . ____ . ____
 72
    65
 73
     4
 40
18.0
 49
12.0
 74
     0
 49
-1.5
 74
     0
 49
3.0
 74
     0
 49
-1.5
 74
     0
  0
LTYPE
  5
4D
330
5
100
AcDbSymbolTableRecord
100
AcDbLinetypeTableRecord
  2
AM_ISO09W050
 70
     0
  3
_____ . . _____ . . _____ . . ____ .. ____
 72
    65
 73
     6
 40
22.5
 49
12.0
 74
     0
 49
-1.5
 74
     0
 49
3.0
 74
     0
 49
-1.5
 74
     0
 49
3.0
 74
     0
 49
-1.5
 74
     0
  0
LTYPE
  5
4E
330
5
100
AcDbSymbolTableRecord
100
AcDbLinetypeTableRecord
  2
AMCONSTR
 70
     0
  3
_______________________
 72
    65
 73
     2
 40
9999.0
 49
9999.0
 74
     0
 49
0.0
 74
     0
  0
LTYPE
  5
4F
330
5
100
AcDbSymbolTableRecord
100
AcDbLinetypeTableRecord
  2
AM_ISO02W050X2
 70
     0
  3
 _ _ _ _ _ _ _ _ _ _ _ _
 72
    65
 73
     2
 40
3.75
 49
3.0
 74
     0
 49
-0.75
 74
     0
  0
LTYPE
  5
50
330
5
100
AcDbSymbolTableRecord
100
AcDbLinetypeTableRecord
  2
AM_ISO08W050X2
 70
     0
  3
__ . __ . __ . __ . __ . __
 72
    65
 73
     4
 40
9.0
 49
6.0
 74
     0
 49
-0.75
 74
     0
 49
1.5
 74
     0
 49
-0.75
 74
     0
  0
LTYPE
  5
53
330
5
100
AcDbSymbolTableRecord
100
AcDbLinetypeTableRecord
  2
AMZIGZAG
 70
     0
  3
/\/-/\/-/\/-/\/-/\/-/\/
 72
    65
 73
     2
 40
11.00009999999999
 49
0.0001
 74
     4
 75
   135
340
52
 46
0.04
 50
0.0
 44
0.0
 45
0.0
 49
-11.0
 74
     0
  0
LTYPE
  5
166
330
5
100
AcDbSymbolTableRecord
100
AcDbLinetypeTableRecord
  2
ACJISTGL
 70
     0
  3
_ _ _ _ _
 72
    65
 73
     2
 40
3.0
 49
2.0
 74
     0
 49
-1.0
 74
     0
  0
LTYPE
  5
26A
330
5
100
AcDbSymbolTableRecord
100
AcDbLinetypeTableRecord
  2
ACJISTGB
 70
     0
  3
__ . . __ . .
 72
    65
 73
     6
 40
9.0
 49
4.0
 74
     0
 49
-1.0
 74
     0
 49
1.0
 74
     0
 49
-1.0
 74
     0
 49
1.0
 74
     0
 49
-1.0
 74
     0
  0
ENDTAB
  0
TABLE
  2
LAYER
  5
2
330
0
100
AcDbSymbolTable
 70
     8
  0
LAYER
  5
10
330
2
100
AcDbSymbolTableRecord
100
AcDbLayerTableRecord
  2
0
 70
     0
 62
     7
  6
CONTINUOUS
  0
LAYER
  5
3F9
330
2
100
AcDbSymbolTableRecord
100
AcDbLayerTableRecord
  2
AM_0
 70
     0
 62
     7
  6
CONTINUOUS
  0
LAYER
  5
C7C
330
2
100
AcDbSymbolTableRecord
100
AcDbLayerTableRecord
  2
AM_7
 70
     0
 62
     4
  6
AM_ISO08W050
  0
LAYER
  5
C97
330
2
100
AcDbSymbolTableRecord
100
AcDbLayerTableRecord
  2
AM_11
 70
     0
 62
     3
  6
AM_ISO09W050
  0
LAYER
  5
CC5
330
2
100
AcDbSymbolTableRecord
100
AcDbLayerTableRecord
  2
AM_5
 70
     0
 62
     3
  6
CONTINUOUS
  0
LAYER
  5
CC7
330
2
100
AcDbSymbolTableRecord
100
AcDbLayerTableRecord
  2
DEFPOINTS
 70
     0
 62
     7
  6
CONTINUOUS
  0
LAYER
  5
19BC
330
2
100
AcDbSymbolTableRecord
100
AcDbLayerTableRecord
  2
AM_6
 70
     0
 62
     2
  6
CONTINUOUS
  0
LAYER
  5
2ED9
330
2
100
AcDbSymbolTableRecord
100
AcDbLayerTableRecord
  2
AM_CL
 70
     0
 62
     1
  6
AMCONSTR
  0
ENDTAB
  0
TABLE
  2
STYLE
  5
3
330
0
100
AcDbSymbolTable
 70
     5
  0
STYLE
  5
11
330
3
100
AcDbSymbolTableRecord
100
AcDbTextStyleTableRecord
  2
STANDARD
 70
     0
 40
0.0
 41
1.0
 50
0.0
 71
     0
 42
2.5
  3
simplex.shx
  4
EXTFONT.SHX
  0
STYLE
  5
52
330
3
100
AcDbSymbolTableRecord
100
AcDbTextStyleTableRecord
  2

 70
     1
 40
0.0
 41
1.0
 50
0.0
 71
     0
 42
2.5
  3
ltypeshp.shx
  4

  0
STYLE
  5
6B
330
3
100
AcDbSymbolTableRecord
100
AcDbTextStyleTableRecord
  2
ASAMI
 70
     0
 40
0.0
 41
1.0
 50
0.0
 71
     0
 42
2.5
  3
simplex.shx
  4
EXTFONT.SHX
  0
STYLE
  5
262
330
3
100
AcDbSymbolTableRecord
100
AcDbTextStyleTableRecord
  2
ACJISTS
 70
     0
 40
1.0
 41
1.0
 50
0.0
 71
     0
 42
2.5
  3
simplex.shx
  4
bigfont.shx
  0
STYLE
  5
269
330
3
100
AcDbSymbolTableRecord
100
AcDbTextStyleTableRecord
  2
ACJISGDT
 70
     0
 40
0.0
 41
1.0
 50
0.0
 71
     0
 42
2.5
  3
amgdtans.shx
  4

  0
ENDTAB
  0
TABLE
  2
VIEW
  5
6
330
0
100
AcDbSymbolTable
 70
     0
  0
ENDTAB
  0
TABLE
  2
UCS
  5
7
330
0
100
AcDbSymbolTable
 70
     0
  0
ENDTAB
  0
TABLE
  2
APPID
  5
9
330
0
100
AcDbSymbolTable
 70
    18
  0
APPID
  5
12
330
9
100
AcDbSymbolTableRecord
100
AcDbRegAppTableRecord
  2
ACAD
 70
     0
  0
APPID
  5
30
330
9
100
AcDbSymbolTableRecord
100
AcDbRegAppTableRecord
  2
MCAD_NO_VIS
 70
     0
  0
APPID
  5
31
330
9
100
AcDbSymbolTableRecord
100
AcDbRegAppTableRecord
  2
ACAD_TEMP_GRAPHIC
 70
     0
  0
APPID
  5
2C2
330
9
100
AcDbSymbolTableRecord
100
AcDbRegAppTableRecord
  2
GENIUS_GENDTOL_13
 70
     0
  0
APPID
  5
339
330
9
100
AcDbSymbolTableRecord
100
AcDbRegAppTableRecord
  2
GENIUS_GENODEF_13
 70
     0
  0
APPID
  5
33A
330
9
100
AcDbSymbolTableRecord
100
AcDbRegAppTableRecord
  2
GENIUS_GENOBJ-N-RSBK_13
 70
     0
  0
APPID
  5
33B
330
9
100
AcDbSymbolTableRecord
100
AcDbRegAppTableRecord
  2
GENIUS_GENOBJ-N-LIB_13
 70
     0
  0
APPID
  5
33C
330
9
100
AcDbSymbolTableRecord
100
AcDbRegAppTableRecord
  2
GENIUS_GENSCALE_13
 70
     0
  0
APPID
  5
378
330
9
100
AcDbSymbolTableRecord
100
AcDbRegAppTableRecord
  2
GENIUS_GENDIMSH_14
 70
     0
  0
APPID
  5
C82
330
9
100
AcDbSymbolTableRecord
100
AcDbRegAppTableRecord
  2
GENIUS_GENOBJ-N-CRS_13
 70
     0
  0
APPID
  5
C83
330
9
100
AcDbSymbolTableRecord
100
AcDbRegAppTableRecord
  2
GENIUS_GENOENT_13
 70
     0
  0
APPID
  5
C84
330
9
100
AcDbSymbolTableRecord
100
AcDbRegAppTableRecord
  2
GENIUS_GENOREF_13
 70
     0
  0
APPID
  5
C85
330
9
100
AcDbSymbolTableRecord
100
AcDbRegAppTableRecord
  2
GENIUS_GENOLIS_13
 70
     0
  0
APPID
  5
CA0
330
9
100
AcDbSymbolTableRecord
100
AcDbRegAppTableRecord
  2
GENIUS_GENOBJ-N-CEN_13
 70
     0
  0
APPID
  5
1B5D
330
9
100
AcDbSymbolTableRecord
100
AcDbRegAppTableRecord
  2
GENIUS_GENFIL_13
 70
     0
  0
APPID
  5
1B5E
330
9
100
AcDbSymbolTableRecord
100
AcDbRegAppTableRecord
  2
GENIUS_GENOBJ-N-CHA_13
 70
     0
  0
APPID
  5
1FBC
330
9
100
AcDbSymbolTableRecord
100
AcDbRegAppTableRecord
  2
GENIUS_GENREC_14
 70
     0
  0
APPID
  5
1FBD
330
9
100
AcDbSymbolTableRecord
100
AcDbRegAppTableRecord
  2
GENIUS_GENOBJ-N-REC_13
 70
     0
  0
ENDTAB
  0
TABLE
  2
DIMSTYLE
  5
A
330
0
100
AcDbSymbolTable
 70
     9
  0
DIMSTYLE
105
58
330
A
100
AcDbSymbolTableRecord
100
AcDbDimStyleTableRecord
  2
AM_JIS
 70
     0
  3

  4
"
  5
OPEN30
  6

  7

 40
0.5
 41
2.5
 42
1.0
 43
12.0
 44
1.0
 45
0.0
 46
0.0
 47
0.1
 48
0.1
140
3.2
141
0.0
142
0.0
143
0.0393701
144
1.0
145
0.0
146
0.71
147
1.5
 71
     0
 72
     0
 73
     0
 74
     0
 75
     0
 76
     0
 77
     3
 78
     8
170
     0
171
     2
172
     1
173
     0
174
     0
175
     0
176
   256
177
   256
178
     2
270
     2
271
     3
272
     3
273
     2
274
     2
340
6B
275
     0
280
     0
281
     0
282
     0
283
     0
284
     0
285
     0
286
     0
287
     3
288
     0
  0
DIMSTYLE
105
5F
330
A
100
AcDbSymbolTableRecord
100
AcDbDimStyleTableRecord
  2
AM_JIS$3
 70
     0
  3

  4
"
  5
OPEN30
  6

  7

 40
0.5
 41
2.5
 42
1.0
 43
10.0
 44
1.0
 45
0.0
 46
0.0
 47
0.1
 48
0.1
140
3.2
141
0.0
142
0.0
143
0.0393701
144
1.0
145
0.0
146
0.71
147
1.5
 71
     0
 72
     0
 73
     0
 74
     1
 75
     0
 76
     0
 77
     3
 78
     8
170
     0
171
     2
172
     0
173
     0
174
     0
175
     0
176
   256
177
   256
178
     2
270
     2
271
     2
272
     3
273
     2
274
     2
340
6B
275
     0
280
     0
281
     0
282
     0
283
     0
284
     0
285
     0
286
     0
287
     0
288
     1
  0
DIMSTYLE
105
60
330
A
100
AcDbSymbolTableRecord
100
AcDbDimStyleTableRecord
  2
AM_JIS$4
 70
     0
  3

  4
"
  5
OPEN30
  6

  7

 40
0.5
 41
2.5
 42
1.0
 43
10.0
 44
1.0
 45
0.0
 46
0.0
 47
0.1
 48
0.1
140
3.2
141
0.0
142
0.0
143
0.0393701
144
1.0
145
0.0
146
0.71
147
1.5
 71
     0
 72
     0
 73
     0
 74
     1
 75
     0
 76
     0
 77
     3
 78
     8
170
     0
171
     2
172
     0
173
     0
174
     0
175
     0
176
   256
177
   256
178
     2
270
     2
271
     2
272
     3
273
     2
274
     2
340
6B
275
     0
280
     0
281
     0
282
     0
283
     0
284
     0
285
     0
286
     0
287
     0
288
     1
  0
DIMSTYLE
105
61
330
A
100
AcDbSymbolTableRecord
100
AcDbDimStyleTableRecord
  2
AM_JIS$6
 70
     0
  3

  4
"
  5
OPEN30
  6

  7

 40
0.5
 41
2.5
 42
1.0
 43
10.0
 44
1.0
 45
0.0
 46
0.0
 47
0.1
 48
0.1
140
3.2
141
0.0
142
0.0
143
0.0393701
144
1.0
145
0.0
146
0.71
147
1.5
 71
     0
 72
     0
 73
     0
 74
     0
 75
     0
 76
     0
 77
     0
 78
     8
170
     0
171
     2
172
     1
173
     0
174
     0
175
     0
176
   256
177
   256
178
     2
270
     2
271
     2
272
     2
273
     2
274
     2
340
6B
275
     0
280
     0
281
     0
282
     0
283
     0
284
     0
285
     0
286
     0
287
     3
288
     0
  0
DIMSTYLE
105
62
330
A
100
AcDbSymbolTableRecord
100
AcDbDimStyleTableRecord
  2
AM_JIS$7
 70
     0
  3

  4
"
  5
OPEN30
  6

  7

 40
0.5
 41
2.5
 42
1.0
 43
10.0
 44
1.0
 45
0.0
 46
0.0
 47
0.1
 48
0.1
140
3.2
141
0.0
142
0.0
143
0.0393701
144
1.0
145
0.0
146
0.71
147
1.5
 71
     0
 72
     0
 73
     0
 74
     0
 75
     0
 76
     0
 77
     3
 78
     8
170
     0
171
     2
172
     1
173
     0
174
     0
175
     0
176
   256
177
   256
178
     2
270
     2
271
     2
272
     3
273
     2
274
     2
340
6B
275
     0
280
     0
281
     0
282
     0
283
     0
284
     0
285
     0
286
     0
287
     3
288
     0
  0
DIMSTYLE
105
63
330
A
100
AcDbSymbolTableRecord
100
AcDbDimStyleTableRecord
  2
AM_JIS$SF
 70
     0
  3

  4
"
  5
OPEN30
  6

  7

 40
0.5
 41
2.5
 42
1.0
 43
10.0
 44
1.0
 45
0.0
 46
0.0
 47
0.1
 48
0.1
140
3.2
141
0.0
142
0.0
143
0.0393701
144
1.0
145
0.0
146
0.71
147
1.5
 71
     0
 72
     0
 73
     0
 74
     0
 75
     1
 76
     1
 77
     3
 78
     8
170
     0
171
     2
172
     1
173
     0
174
     0
175
     0
176
   256
177
   256
178
     2
270
     2
271
     2
272
     2
273
     2
274
     2
340
6B
275
     0
280
     0
281
     0
282
     0
283
     0
284
     0
285
     0
286
     0
287
     3
288
     0
  0
DIMSTYLE
105
68
330
A
100
AcDbSymbolTableRecord
100
AcDbDimStyleTableRecord
  2
AM_JIS$SH
 70
     0
  3

  4
"
  5

  6
GENAXEH
  7
OPEN30
 40
0.5
 41
2.5
 42
1.0
 43
10.0
 44
1.0
 45
0.0
 46
0.0
 47
0.1
 48
0.1
140
3.2
141
0.0
142
0.0
143
0.0393701
144
2.0
145
0.0
146
0.71
147
1.5
 71
     0
 72
     0
 73
     0
 74
     0
 75
     1
 76
     1
 77
     3
 78
     8
170
     0
171
     2
172
     1
173
     1
174
     0
175
     0
176
   256
177
   256
178
     2
270
     2
271
     2
272
     2
273
     2
274
     2
340
6B
275
     0
280
     0
281
     0
282
     0
283
     0
284
     0
285
     0
286
     0
287
     3
288
     0
  0
DIMSTYLE
105
B34
102
{ACAD_REACTORS
330
2C50
102
}
330
A
100
AcDbSymbolTableRecord
100
AcDbDimStyleTableRecord
  2
AM_JIS$2
 70
     0
  3

  4
"
  5
OPEN30
  6

  7

 40
0.5
 41
2.5
 42
1.0
 43
12.0
 44
1.0
 45
0.0
 46
0.0
 47
0.1
 48
0.1
140
3.2
141
0.0
142
0.0
143
0.0393701
144
1.0
145
0.0
146
0.71
147
1.5
 71
     0
 72
     0
 73
     0
 74
     0
 75
     0
 76
     0
 77
     3
 78
     8
170
     0
171
     2
172
     1
173
     0
174
     0
175
     0
176
   256
177
   256
178
     2
270
     2
271
     3
272
     3
273
     2
274
     2
340
6B
275
     0
280
     0
281
     0
282
     0
283
     0
284
     0
285
     0
286
     0
287
     3
288
     0
  0
DIMSTYLE
105
BA5
102
{ACAD_REACTORS
330
CC6
330
DF5
330
1DEF
330
1C71
102
}
330
A
100
AcDbSymbolTableRecord
100
AcDbDimStyleTableRecord
  2
AM_JIS$0
 70
     0
  3

  4
"
  5
OPEN30
  6

  7

 40
0.5
 41
2.5
 42
0.0
 43
10.0
 44
1.0
 45
0.0
 46
0.0
 47
0.1
 48
0.1000000001
140
3.799999999999999
141
0.0
142
0.0
143
0.0393701
144
1.0
145
0.0
146
0.71
147
1.5
 71
     0
 72
     0
 73
     0
 74
     0
 75
     0
 76
     0
 77
     3
 78
     1
170
     0
171
     2
172
     1
173
     0
174
     0
175
     0
176
     3
177
     3
178
     2
270
     2
271
     2
272
     2
273
     2
274
     2
340
11
275
     1
280
     0
281
     0
282
     0
283
     0
284
     8
285
     0
286
     0
287
     0
288
     0
  0
ENDTAB
  0
TABLE
  2
BLOCK_RECORD
  5
1
330
0
100
AcDbSymbolTable
 70
    10
  0
BLOCK_RECORD
  5
1F
102
{ACAD_XDICTIONARY
360
74
102
}
330
1
100
AcDbSymbolTableRecord
100
AcDbBlockTableRecord
  2
*MODEL_SPACE
  0
BLOCK_RECORD
  5
101
102
{ACAD_XDICTIONARY
360
2F82
102
}
330
1
100
AcDbSymbolTableRecord
100
AcDbBlockTableRecord
  2
*PAPER_SPACE
  0
BLOCK_RECORD
  5
59
330
1
100
AcDbSymbolTableRecord
100
AcDbBlockTableRecord
  2
_OPEN30
  0
BLOCK_RECORD
  5
64
330
1
100
AcDbSymbolTableRecord
100
AcDbBlockTableRecord
  2
GENAXEH
  0
BLOCK_RECORD
  5
CC8
330
1
100
AcDbSymbolTableRecord
100
AcDbBlockTableRecord
  2
*D5
  0
BLOCK_RECORD
  5
DF6
330
1
100
AcDbSymbolTableRecord
100
AcDbBlockTableRecord
  2
*D6
  0
BLOCK_RECORD
  5
1C72
330
1
100
AcDbSymbolTableRecord
100
AcDbBlockTableRecord
  2
*D7
  0
BLOCK_RECORD
  5
1DF0
330
1
100
AcDbSymbolTableRecord
100
AcDbBlockTableRecord
  2
*D8
  0
BLOCK_RECORD
  5
2C51
330
1
100
AcDbSymbolTableRecord
100
AcDbBlockTableRecord
  2
*D9
  0
ENDTAB
  0
ENDSEC
  0
SECTION
  2
BLOCKS
  0
BLOCK
  5
20
330
1F
100
AcDbEntity
  8
0
100
AcDbBlockBegin
  2
*MODEL_SPACE
 70
     0
 10
0.0
 20
0.0
 30
0.0
  3
*MODEL_SPACE
  1

  0
ENDBLK
  5
21
330
1F
100
AcDbEntity
  8
0
100
AcDbBlockEnd
  0
BLOCK
  5
103
330
101
100
AcDbEntity
 67
     1
  8
0
100
AcDbBlockBegin
  2
*PAPER_SPACE
 70
     0
 10
0.0
 20
0.0
 30
0.0
  3
*PAPER_SPACE
  1

  0
ENDBLK
  5
104
330
101
100
AcDbEntity
 67
     1
  8
0
100
AcDbBlockEnd
  0
BLOCK
  5
5D
330
59
100
AcDbEntity
  8
0
100
AcDbBlockBegin
  2
_OPEN30
 70
     0
 10
0.0
 20
0.0
 30
0.0
  3
_OPEN30
  1

  0
LINE
  5
5A
330
59
100
AcDbEntity
  8
0
 62
     0
100
AcDbLine
 10
-1.0
 20
0.26794919
 30
0.0
 11
0.0
 21
0.0
 31
0.0
  0
LINE
  5
5B
330
59
100
AcDbEntity
  8
0
 62
     0
100
AcDbLine
 10
0.0
 20
0.0
 30
0.0
 11
-1.0
 21
-0.26794919
 31
0.0
  0
LINE
  5
5C
330
59
100
AcDbEntity
  8
0
 62
     0
100
AcDbLine
 10
0.0
 20
0.0
 30
0.0
 11
-1.0
 21
0.0
 31
0.0
  0
ENDBLK
  5
5E
330
59
100
AcDbEntity
  8
0
100
AcDbBlockEnd
  0
BLOCK
  5
66
330
64
100
AcDbEntity
  8
0
100
AcDbBlockBegin
  2
GENAXEH
 70
     0
 10
0.0
 20
0.0
 30
0.0
  3
GENAXEH
  1

  0
LINE
  5
65
330
64
100
AcDbEntity
  8
0
100
AcDbLine
 10
-1.0
 20
0.0
 30
0.0
 11
1.0
 21
0.0
 31
0.0
  0
ENDBLK
  5
67
330
64
100
AcDbEntity
  8
0
100
AcDbBlockEnd
  0
BLOCK
  5
CD2
330
CC8
100
AcDbEntity
  8
0
100
AcDbBlockBegin
  2
*D5
 70
     1
 10
0.0
 20
0.0
 30
0.0
  3
*D5
  1

  0
LINE
  5
2F01
330
CC8
100
AcDbEntity
  8
AM_5
 62
     3
100
AcDbLine
 10
-68.99999997010301
 20
-1.25000616346431
 30
0.0
 11
-68.99999997010301
 21
-14.0000071350041
 31
0.0
  0
LINE
  5
2F02
330
CC8
100
AcDbEntity
  8
AM_5
 62
     3
100
AcDbLine
 10
-0.9999961554057531
 20
-1.349999162097264
 30
0.0
 11
-0.9999961554057538
 21
-14.0000071350041
 31
0.0
  0
LINE
  5
2F03
330
CC8
100
AcDbEntity
  8
AM_5
 62
     3
100
AcDbLine
 10
-67.74999997010301
 20
-13.50000713500409
 30
0.0
 11
-2.249996155405753
 21
-13.50000713500409
 31
0.0
  0
INSERT
  5
2F04
330
CC8
100
AcDbEntity
  8
AM_5
 62
     3
100
AcDbBlockReference
  2
_OPEN30
 10
-68.99999997010301
 20
-13.50000713500409
 30
0.0
 41
1.25
 42
1.25
 43
1.25
 50
180.0
  0
INSERT
  5
2F05
330
CC8
100
AcDbEntity
  8
AM_5
 62
     3
100
AcDbBlockReference
  2
_OPEN30
 10
-0.9999961554057538
 20
-13.50000713500409
 30
0.0
 41
1.25
 42
1.25
 43
1.25
  0
MTEXT
  5
2F06
330
CC8
100
AcDbEntity
  8
AM_5
 62
     2
100
AcDbMText
 10
-34.99999806275438
 20
-11.8000071350041
 30
0.0
 40
1.9
 41
0.0
 71
     5
 72
     1
  1
68
1001
ACAD
1000
MTEXTBEGIN
1070
    73
1070
     1
1070
    44
1040
1.0
1070
    74
1070
     0
1000
MTEXTEND
  0
POINT
  5
2F07
330
CC8
100
AcDbEntity
  8
DEFPOINTS
 62
     0
100
AcDbPoint
 10
-68.99999997010301
 20
-1.25000616346431
 30
0.0
  0
POINT
  5
2F08
330
CC8
100
AcDbEntity
  8
DEFPOINTS
 62
     0
100
AcDbPoint
 10
-0.9999961554057531
 20
-1.349999162097264
 30
0.0
  0
POINT
  5
2F09
330
CC8
100
AcDbEntity
  8
DEFPOINTS
 62
     0
100
AcDbPoint
 10
-0.9999961554057538
 20
-13.50000713500409
 30
0.0
  0
ENDBLK
  5
CD3
330
CC8
100
AcDbEntity
  8
0
100
AcDbBlockEnd
  0
BLOCK
  5
E00
330
DF6
100
AcDbEntity
  8
0
100
AcDbBlockBegin
  2
*D6
 70
     1
 10
0.0
 20
0.0
 30
0.0
  3
*D6
  1

  0
LINE
  5
2F20
330
DF6
100
AcDbEntity
  8
AM_5
 62
     3
100
AcDbLine
 10
-20.999999970103
 20
-1.499999259163015
 30
0.0
 11
-20.999999970103
 21
-9.000007135004077
 31
0.0
  0
LINE
  5
2F21
330
DF6
100
AcDbEntity
  8
AM_5
 62
     3
100
AcDbLine
 10
-0.9999961554057531
 20
-1.349999162097264
 30
0.0
 11
-0.9999961554057536
 21
-9.000007135004077
 31
0.0
  0
LINE
  5
2F22
330
DF6
100
AcDbEntity
  8
AM_5
 62
     3
100
AcDbLine
 10
-19.749999970103
 20
-8.500007135004077
 30
0.0
 11
-2.249996155405753
 21
-8.500007135004077
 31
0.0
  0
INSERT
  5
2F23
330
DF6
100
AcDbEntity
  8
AM_5
 62
     3
100
AcDbBlockReference
  2
_OPEN30
 10
-20.999999970103
 20
-8.500007135004077
 30
0.0
 41
1.25
 42
1.25
 43
1.25
 50
180.0
  0
INSERT
  5
2F24
330
DF6
100
AcDbEntity
  8
AM_5
 62
     3
100
AcDbBlockReference
  2
_OPEN30
 10
-0.9999961554057536
 20
-8.500007135004077
 30
0.0
 41
1.25
 42
1.25
 43
1.25
  0
MTEXT
  5
2F25
330
DF6
100
AcDbEntity
  8
AM_5
 62
     2
100
AcDbMText
 10
-10.99999806275437
 20
-6.800007135004077
 30
0.0
 40
1.9
 41
0.0
 71
     5
 72
     1
  1
20
1001
ACAD
1000
MTEXTBEGIN
1070
    73
1070
     1
1070
    44
1040
1.0
1070
    74
1070
     0
1000
MTEXTEND
  0
POINT
  5
2F26
330
DF6
100
AcDbEntity
  8
DEFPOINTS
 62
     0
100
AcDbPoint
 10
-20.999999970103
 20
-1.499999259163015
 30
0.0
  0
POINT
  5
2F27
330
DF6
100
AcDbEntity
  8
DEFPOINTS
 62
     0
100
AcDbPoint
 10
-0.9999961554057531
 20
-1.349999162097264
 30
0.0
  0
POINT
  5
2F28
330
DF6
100
AcDbEntity
  8
DEFPOINTS
 62
     0
100
AcDbPoint
 10
-0.9999961554057536
 20
-8.500007135004077
 30
0.0
  0
ENDBLK
  5
E01
330
DF6
100
AcDbEntity
  8
0
100
AcDbBlockEnd
  0
BLOCK
  5
1C7E
330
1C72
100
AcDbEntity
  8
0
100
AcDbBlockBegin
  2
*D7
 70
     1
 10
0.0
 20
0.0
 30
0.0
  3
*D7
  1

  0
LINE
  5
2F29
330
1C72
100
AcDbEntity
  8
AM_5
 62
     3
100
AcDbLine
 10
-0.9999961554057531
 20
-1.349999162097264
 30
0.0
 11
7.795959646358482
 21
-1.349999162097267
 31
0.0
  0
LINE
  5
2F2A
330
1C72
100
AcDbEntity
  8
AM_5
 62
     3
100
AcDbLine
 10
-0.9999961554057557
 20
1.350000837902738
 30
0.0
 11
7.795959646358482
 21
1.350000837902736
 31
0.0
  0
LINE
  5
2F2B
330
1C72
100
AcDbEntity
  8
AM_5
 62
     3
100
AcDbLine
 10
7.295959646358481
 20
-2.599999162097267
 30
0.0
 11
7.295959646358481
 21
-3.849999162097267
 31
0.0
  0
LINE
  5
2F2C
330
1C72
100
AcDbEntity
  8
AM_5
 62
     3
100
AcDbLine
 10
7.295959646358483
 20
2.600000837902736
 30
0.0
 11
7.295959646358484
 21
11.05000083790273
 31
0.0
  0
LINE
  5
2F2D
330
1C72
100
AcDbEntity
  8
AM_5
 62
     3
100
AcDbLine
 10
7.295959646358482
 20
-1.349999162097267
 30
0.0
 11
7.295959646358482
 21
1.350000837902736
 31
0.0
  0
INSERT
  5
2F2E
330
1C72
100
AcDbEntity
  8
AM_5
 62
     3
100
AcDbBlockReference
  2
_OPEN30
 10
7.295959646358482
 20
-1.349999162097267
 30
0.0
 41
1.25
 42
1.25
 43
1.25
 50
90.0
  0
INSERT
  5
2F2F
330
1C72
100
AcDbEntity
  8
AM_5
 62
     3
100
AcDbBlockReference
  2
_OPEN30
 10
7.295959646358482
 20
1.350000837902736
 30
0.0
 41
1.25
 42
1.25
 43
1.25
 50
270.0
  0
MTEXT
  5
2F30
330
1C72
100
AcDbEntity
  8
AM_5
 62
     2
100
AcDbMText
 10
5.595959646358482
 20
7.450000837902737
 30
0.0
 40
1.9
 41
0.0
 71
     5
 72
     1
  1
%%c2.7
 11
0.0000000000000001
 21
1.0
 31
0.0
1001
ACAD
1000
MTEXTBEGIN
1070
    73
1070
     1
1070
    44
1040
1.0
1070
    74
1070
     0
1000
MTEXTEND
  0
POINT
  5
2F31
330
1C72
100
AcDbEntity
  8
DEFPOINTS
 62
     0
100
AcDbPoint
 10
-0.9999961554057531
 20
-1.349999162097264
 30
0.0
  0
POINT
  5
2F32
330
1C72
100
AcDbEntity
  8
DEFPOINTS
 62
     0
100
AcDbPoint
 10
-0.9999961554057557
 20
1.350000837902738
 30
0.0
  0
POINT
  5
2F33
330
1C72
100
AcDbEntity
  8
DEFPOINTS
 62
     0
100
AcDbPoint
 10
7.295959646358482
 20
1.350000837902736
 30
0.0
  0
ENDBLK
  5
1C7F
330
1C72
100
AcDbEntity
  8
0
100
AcDbBlockEnd
  0
BLOCK
  5
1DFC
330
1DF0
100
AcDbEntity
  8
0
100
AcDbBlockBegin
  2
*D8
 70
     1
 10
0.0
 20
0.0
 30
0.0
  3
*D8
  1

  0
LINE
  5
2F0A
330
1DF0
100
AcDbEntity
  8
AM_5
 62
     3
100
AcDbLine
 10
-68.74999997010302
 20
-1.500006135004388
 30
0.0
 11
-77.25000131162642
 21
-1.500006135004404
 31
0.0
  0
LINE
  5
2F0B
330
1DF0
100
AcDbEntity
  8
AM_5
 62
     3
100
AcDbLine
 10
-68.74999997010302
 20
1.500013893208616
 30
0.0
 11
-77.25000131162642
 21
1.5000138932086
 31
0.0
  0
LINE
  5
2F0C
330
1DF0
100
AcDbEntity
  8
AM_5
 62
     3
100
AcDbLine
 10
-76.75000131162642
 20
-2.750006135004403
 30
0.0
 11
-76.7500013116264
 21
-4.000006135004404
 31
0.0
  0
LINE
  5
2F0D
330
1DF0
100
AcDbEntity
  8
AM_5
 62
     3
100
AcDbLine
 10
-76.75000131162642
 20
2.7500138932086
 30
0.0
 11
-76.75000131162644
 21
4.0000138932086
 31
0.0
  0
LINE
  5
2F0E
330
1DF0
100
AcDbEntity
  8
AM_5
 62
     3
100
AcDbLine
 10
-76.75000131162642
 20
-1.500006135004403
 30
0.0
 11
-76.75000131162642
 21
1.5000138932086
 31
0.0
  0
INSERT
  5
2F0F
330
1DF0
100
AcDbEntity
  8
AM_5
 62
     3
100
AcDbBlockReference
  2
_OPEN30
 10
-76.75000131162642
 20
-1.500006135004403
 30
0.0
 41
1.25
 42
1.25
 43
1.25
 50
90.0000000000001
  0
INSERT
  5
2F10
330
1DF0
100
AcDbEntity
  8
AM_5
 62
     3
100
AcDbBlockReference
  2
_OPEN30
 10
-76.75000131162642
 20
1.5000138932086
 30
0.0
 41
1.25
 42
1.25
 43
1.25
 50
270.0000000000001
  0
MTEXT
  5
2F11
330
1DF0
100
AcDbEntity
  8
AM_5
 62
     2
100
AcDbMText
 10
-78.45000131162642
 20
0.0000038791020984
 30
0.0
 40
1.9
 41
0.0
 71
     5
 72
     1
  1
%%c3
 11
-0.000000000000002
 21
1.0
 31
0.0
1001
ACAD
1000
MTEXTBEGIN
1070
    73
1070
     1
1070
    44
1040
1.0
1070
    74
1070
     0
1000
MTEXTEND
  0
POINT
  5
2F12
330
1DF0
100
AcDbEntity
  8
DEFPOINTS
 62
     0
100
AcDbPoint
 10
-68.74999997010302
 20
-1.500006135004235
 30
0.0
  0
POINT
  5
2F13
330
1DF0
100
AcDbEntity
  8
DEFPOINTS
 62
     0
100
AcDbPoint
 10
-68.74999997010302
 20
1.500013893208769
 30
0.0
  0
POINT
  5
2F14
330
1DF0
100
AcDbEntity
  8
DEFPOINTS
 62
     0
100
AcDbPoint
 10
-76.75000131162642
 20
1.500013893208771
 30
0.0
  0
ENDBLK
  5
1DFD
330
1DF0
100
AcDbEntity
  8
0
100
AcDbBlockEnd
  0
BLOCK
  5
2C61
330
2C51
100
AcDbEntity
  8
0
100
AcDbBlockBegin
  2
*D9
 70
     1
 10
0.0
 20
0.0
 30
0.0
  3
*D9
  1

  0
LINE
  5
2F84
330
2C51
100
AcDbEntity
  8
AM_5
100
AcDbLine
 10
0.1710091498386872
 20
-0.4698466059962393
 30
0.0
 11
5.028894275054499
 21
-13.81685925151974
 31
0.0
  0
LINE
  5
2F85
330
2C51
100
AcDbEntity
  8
AM_5
100
AcDbLine
 10
0.1710104256182536
 20
0.4698462745863476
 30
0.0
 11
5.028931405361144
 21
13.81684582923475
 31
0.0
  0
ARC
  5
2F86
330
2C51
100
AcDbEntity
  8
AM_5
100
AcDbCircle
 10
0.0000000167452
 20
0.0000000460069585
 30
0.0
 40
14.20358385934893
100
AcDbArc
 50
295.0438841368865
 51
64.95596189100905
  0
INSERT
  5
2F87
330
2C51
100
AcDbEntity
  8
AM_5
100
AcDbBlockReference
  2
_OPEN30
 10
4.857885141961013
 20
-13.34701259951655
 30
0.0
 41
1.25
 42
1.25
 43
1.25
 50
202.5218848411737
  0
INSERT
  5
2F88
330
2C51
100
AcDbEntity
  8
AM_5
100
AcDbBlockReference
  2
_OPEN30
 10
4.857921009639886
 20
13.34699963678954
 30
0.0
 41
1.25
 42
1.25
 43
1.25
 50
157.4779611867217
  0
MTEXT
  5
2F89
330
2C51
100
AcDbEntity
  8
AM_5
 62
     2
100
AcDbMText
 10
12.65358387608271
 20
-0.0000169561086616
 30
0.0
 40
1.6
 41
0.0
 71
     5
 72
     1
  1
140°
  7
ASAMI
 11
0.0000013436600897
 21
0.9999999999990972
 31
0.0
  0
POINT
  5
2F8A
330
2C51
100
AcDbEntity
  8
DEFPOINTS
 62
     0
100
AcDbPoint
 10
13.04195070639217
 20
-5.625772492798207
 30
0.0
  0
POINT
  5
2F8B
330
2C51
100
AcDbEntity
  8
DEFPOINTS
 62
     0
100
AcDbPoint
 10
0.000000029896995
 20
0.0000000821411406
 30
0.0
  0
POINT
  5
2F8C
330
2C51
100
AcDbEntity
  8
DEFPOINTS
 62
     0
100
AcDbPoint
 10
0.0000000167452001
 20
0.0000000460069584
 30
0.0
  0
POINT
  5
2F8D
330
2C51
100
AcDbEntity
  8
DEFPOINTS
 62
     0
100
AcDbPoint
 10
-0.1380505609699745
 20
0.3792932484999695
 30
0.0
  0
POINT
  5
2F8E
330
2C51
100
AcDbEntity
  8
DEFPOINTS
 62
     0
100
AcDbPoint
 10
-0.138052523317389
 20
-0.3792953765445567
 30
0.0
  0
ENDBLK
  5
2C62
330
2C51
100
AcDbEntity
  8
0
100
AcDbBlockEnd
  0
ENDSEC
  0
SECTION
  2
ENTITIES
  0
LINE
  5
C1D
330
1F
100
AcDbEntity
  8
AM_0
 48
0.5
100
AcDbLine
 10
0.0000000167452001
 20
0.0000000460069584
 30
0.0
 11
-0.1380505609699745
 21
0.3792932484999695
 31
0.0
  0
LINE
  5
C20
330
1F
100
AcDbEntity
  8
AM_0
 48
0.5
100
AcDbLine
 10
0.000000029896995
 20
0.0000000821411406
 30
0.0
 11
-0.138052523317389
 21
-0.3792953765445567
 31
0.0
  0
LINE
  5
C2E
330
1F
100
AcDbEntity
  8
AM_0
 48
0.5
100
AcDbLine
 10
-68.749999970103
 20
-1.500006135004235
 30
0.0
 11
-68.749999970103
 21
1.500013893208769
 31
0.0
  0
LINE
  5
C30
330
1F
100
AcDbEntity
  8
AM_0
 48
0.5
100
AcDbLine
 10
-68.99999997010301
 20
-1.25000616346431
 30
0.0
 11
-68.99999997010301
 21
1.250005281211375
 31
0.0
  0
LINE
  5
C9F
330
1F
100
AcDbEntity
  8
AM_7
100
AcDbLine
 10
-69.74999997010299
 20
0.00000004600689
 30
0.0
 11
0.2959585951287877
 21
0.0000000460069645
 31
0.0
1001
GENIUS_GENODEF_13
1002
{
1000
HIER
1070
     0
1002
}
1002
{
1000
MANEDIT
1070
     0
1002
}
1002
{
1000
NOSEL
1070
     0
1002
}
1002
{
1000
BEHIND
1070
     0
1002
}
1002
{
1000
REACTOR
1002
}
1001
GENIUS_GENOBJ-N-CEN_13
1002
{
1000
OWNER
1000
GEN
1002
}
  0
DIMENSION
  5
CC6
330
1F
100
AcDbEntity
  8
AM_5
100
AcDbDimension
  2
*D5
 10
-0.9999961554057538
 20
-13.50000713500409
 30
0.0
 11
-34.99999806275438
 21
-11.8000071350041
 31
0.0
 70
    32
  1
<>
  3
AM_JIS$0
100
AcDbAlignedDimension
 13
-68.99999997010301
 23
-1.25000616346431
 33
0.0
 14
-0.9999961554057531
 24
-1.349999162097264
 34
0.0
 50
0.0000000000001132
100
AcDbRotatedDimension
1001
GENIUS_GENDTOL_13
1000

1000
h7
1000

1040
0.0
1001
ACAD
1000
DSTYLE
1002
{
1070
   271
1070
     0
1002
}
  0
DIMENSION
  5
DF5
330
1F
100
AcDbEntity
  8
AM_5
100
AcDbDimension
  2
*D6
 10
-0.9999961554057536
 20
-8.500007135004077
 30
0.0
 11
-10.99999806275437
 21
-6.800007135004077
 31
0.0
 70
    32
  1
<>
  3
AM_JIS$0
100
AcDbAlignedDimension
 13
-20.999999970103
 23
-1.499999259163015
 33
0.0
 14
-0.9999961554057531
 24
-1.349999162097264
 34
0.0
 50
0.0000000000001527
100
AcDbRotatedDimension
1001
GENIUS_GENDTOL_13
1000

1000
h7
1000

1040
0.0
1001
ACAD
1000
DSTYLE
1002
{
1070
   271
1070
     0
1002
}
  0
ARC
  5
144A
330
1F
100
AcDbEntity
  8
AM_11
 48
0.5
100
AcDbCircle
 10
-24.61968228211295
 20
-6.625446884963592
 30
0.0
 40
7.325448036193749
100
AcDbArc
 50
64.74833051131179
 51
115.2516644797366
  0
ARC
  5
144B
330
1F
100
AcDbEntity
  8
AM_11
 48
0.5
100
AcDbCircle
 10
-24.61968228211294
 20
6.625451476242407
 30
0.0
 40
7.325448036193749
100
AcDbArc
 50
244.7482808787518
 51
295.2516148471758
  0
ARC
  5
144E
330
1F
100
AcDbEntity
  8
AM_11
 48
0.5
100
AcDbCircle
 10
-18.36968228211294
 20
-6.625446884963592
 30
0.0
 40
7.325448036193749
100
AcDbArc
 50
64.74833051131179
 51
115.2516644797366
  0
ARC
  5
144F
330
1F
100
AcDbEntity
  8
AM_11
 48
0.5
100
AcDbCircle
 10
-18.36968228211294
 20
6.625451476242407
 30
0.0
 40
7.325448036193749
100
AcDbArc
 50
244.7482808787518
 51
295.2516148471758
  0
ARC
  5
1450
330
1F
100
AcDbEntity
  8
AM_11
 48
0.5
100
AcDbCircle
 10
-12.1196822821147
 20
6.625451476242407
 30
0.0
 40
7.325448036193749
100
AcDbArc
 50
244.7482808787518
 51
295.2516148471758
  0
ARC
  5
1451
330
1F
100
AcDbEntity
  8
AM_11
 48
0.5
100
AcDbCircle
 10
-12.1196822821147
 20
-6.625446884963592
 30
0.0
 40
7.325448036193749
100
AcDbArc
 50
64.74833051131179
 51
115.2516644797366
  0
ARC
  5
1452
330
1F
100
AcDbEntity
  8
AM_11
 48
0.5
100
AcDbCircle
 10
-5.8696822821147
 20
-6.625446884963592
 30
0.0
 40
7.325448036193749
100
AcDbArc
 50
64.74833051131179
 51
115.2516644797366
  0
ARC
  5
1453
330
1F
100
AcDbEntity
  8
AM_11
 48
0.5
100
AcDbCircle
 10
-5.8696822821147
 20
6.625451476242407
 30
0.0
 40
7.325448036193749
100
AcDbArc
 50
244.7482808787518
 51
295.2516148471758
  0
ARC
  5
1454
330
1F
100
AcDbEntity
  8
AM_11
 48
0.5
100
AcDbCircle
 10
0.3803177178853065
 20
6.625451476242407
 30
0.0
 40
7.325448036193749
100
AcDbArc
 50
244.7482808787518
 51
254.0147302238188
  0
ARC
  5
18B8
330
1F
100
AcDbEntity
  8
AM_11
 48
0.5
100
AcDbCircle
 10
-30.86968228211289
 20
6.625451476242385
 30
0.0
 40
7.325448036193749
100
AcDbArc
 50
244.7482808787518
 51
295.2516148471758
  0
ARC
  5
18B9
330
1F
100
AcDbEntity
  8
AM_11
 48
0.5
100
AcDbCircle
 10
-30.8696822821129
 20
-6.625446884963613
 30
0.0
 40
7.325448036193749
100
AcDbArc
 50
64.74833051131179
 51
115.2516644797366
  0
ARC
  5
18BA
330
1F
100
AcDbEntity
  8
AM_11
 48
0.5
100
AcDbCircle
 10
-37.11969504931331
 20
6.625457498098271
 30
0.0
 40
7.325448036193749
100
AcDbArc
 50
244.7482808787518
 51
295.2516148471758
  0
ARC
  5
18BB
330
1F
100
AcDbEntity
  8
AM_11
 48
0.5
100
AcDbCircle
 10
-37.11969504931333
 20
-6.625440863107728
 30
0.0
 40
7.325448036193749
100
AcDbArc
 50
64.74833051131179
 51
115.2516644797366
  0
TEXT
  5
19BD
330
1F
100
AcDbEntity
  8
AM_6
100
AcDbText
 10
-46.24999806275435
 20
-24.75000713500412
 30
0.0
 40
2.5
  1
MDW027MHK
 50
0.0000000000001527
 72
     4
 11
-34.99999806275435
 21
-23.50000713500409
 31
0.0
100
AcDbText
  0
LINE
  5
1B5C
330
1F
100
AcDbEntity
  8
AM_0
 48
0.5
100
AcDbLine
 10
-68.749999970103
 20
1.500005310996069
 30
0.0
 11
-68.99999997010301
 21
1.250005281211375
 31
0.0
1001
GENIUS_GENFIL_13
1070
     0
1040
0.25
1040
0.25
1040
20.0
1040
0.0
1002
{
1002
}
1001
GENIUS_GENODEF_13
1002
{
1000
HIER
1070
     0
1002
}
1002
{
1000
MANEDIT
1070
     0
1002
}
1002
{
1000
NOSEL
1070
     0
1002
}
1002
{
1000
BEHIND
1070
     0
1002
}
1002
{
1000
REACTOR
1002
}
1001
GENIUS_GENOBJ-N-CHA_13
1002
{
1000
OWNER
1000
GEN
1002
}
  0
LINE
  5
1B60
330
1F
100
AcDbEntity
  8
AM_0
 48
0.5
100
AcDbLine
 10
-68.99999997010301
 20
-1.25000616346431
 30
0.0
 11
-68.749999970103
 21
-1.500006135004235
 31
0.0
1001
GENIUS_GENFIL_13
1070
     0
1040
0.25
1040
0.25
1040
20.0
1040
0.0
1002
{
1002
}
1001
GENIUS_GENODEF_13
1002
{
1000
HIER
1070
     0
1002
}
1002
{
1000
MANEDIT
1070
     0
1002
}
1002
{
1000
NOSEL
1070
     0
1002
}
1002
{
1000
BEHIND
1070
     0
1002
}
1002
{
1000
REACTOR
1002
}
1001
GENIUS_GENOBJ-N-CHA_13
1002
{
1000
OWNER
1000
GEN
1002
}
  0
LINE
  5
1C15
330
1F
100
AcDbEntity
  8
AM_0
 48
0.5
100
AcDbLine
 10
-20.999999970103
 20
-1.500000699129734
 30
0.0
 11
-20.999999970103
 21
1.500010999872654
 31
0.0
  0
LINE
  5
1C1A
330
1F
100
AcDbEntity
  8
AM_0
 48
0.5
100
AcDbLine
 10
-20.99999977895767
 20
1.500010889514844
 30
0.0
 11
-68.749999970103
 21
1.500005310996069
 31
0.0
  0
LINE
  5
1C1E
330
1F
100
AcDbEntity
  8
AM_0
 48
0.5
100
AcDbLine
 10
-20.999999970103
 20
-1.499999259163015
 30
0.0
 11
-68.749999970103
 21
-1.500006135004235
 31
0.0
  0
ARC
  5
1C22
330
1F
100
AcDbEntity
  8
AM_11
 48
0.5
100
AcDbCircle
 10
-49.61969504924952
 20
6.625457498098256
 30
0.0
 40
7.325448036193749
100
AcDbArc
 50
244.7482808787518
 51
295.2516148471758
  0
ARC
  5
1C23
330
1F
100
AcDbEntity
  8
AM_11
 48
0.5
100
AcDbCircle
 10
-49.61969504924954
 20
-6.625440863107742
 30
0.0
 40
7.325448036193749
100
AcDbArc
 50
64.74833051131179
 51
115.2516644797366
  0
ARC
  5
1C24
330
1F
100
AcDbEntity
  8
AM_11
 48
0.5
100
AcDbCircle
 10
-43.36968228204909
 20
6.625451476242371
 30
0.0
 40
7.325448036193749
100
AcDbArc
 50
244.7482808787518
 51
295.2516148471758
  0
ARC
  5
1C25
330
1F
100
AcDbEntity
  8
AM_11
 48
0.5
100
AcDbCircle
 10
-43.36968228204911
 20
-6.625446884963627
 30
0.0
 40
7.325448036193749
100
AcDbArc
 50
64.74833051131179
 51
115.2516644797366
  0
ARC
  5
1C26
330
1F
100
AcDbEntity
  8
AM_11
 48
0.5
100
AcDbCircle
 10
-62.11969504918564
 20
6.625457498098203
 30
0.0
 40
7.325448036193749
100
AcDbArc
 50
244.7482808787518
 51
295.2516148471758
  0
ARC
  5
1C27
330
1F
100
AcDbEntity
  8
AM_11
 48
0.5
100
AcDbCircle
 10
-62.11969504918566
 20
-6.625440863107796
 30
0.0
 40
7.325448036193749
100
AcDbArc
 50
64.74833051131179
 51
115.2516644797366
  0
ARC
  5
1C28
330
1F
100
AcDbEntity
  8
AM_11
 48
0.5
100
AcDbCircle
 10
-55.86968228198522
 20
6.625451476242316
 30
0.0
 40
7.325448036193749
100
AcDbArc
 50
244.7482808787518
 51
295.2516148471758
  0
ARC
  5
1C29
330
1F
100
AcDbEntity
  8
AM_11
 48
0.5
100
AcDbCircle
 10
-55.86968228198523
 20
-6.625446884963681
 30
0.0
 40
7.325448036193749
100
AcDbArc
 50
64.74833051131179
 51
115.2516644797366
  0
ARC
  5
1C2C
330
1F
100
AcDbEntity
  8
AM_11
 48
0.5
100
AcDbCircle
 10
-68.36968228192138
 20
6.625451476242282
 30
0.0
 40
7.325448036193749
100
AcDbArc
 50
265.0638846988117
 51
295.2516148471758
  0
ARC
  5
1C2D
330
1F
100
AcDbEntity
  8
AM_11
 48
0.5
100
AcDbCircle
 10
-68.36968228192138
 20
-6.625446884963716
 30
0.0
 40
7.325448036193749
100
AcDbArc
 50
64.74833051131179
 51
94.93611530118821
  0
DIMENSION
  5
1C71
330
1F
100
AcDbEntity
  8
AM_5
100
AcDbDimension
  2
*D7
 10
7.295959646358482
 20
1.350000837902736
 30
0.0
 11
7.295959646358483
 21
7.450000837902736
 31
0.0
 70
   160
  1
%%c<>
  3
AM_JIS$0
100
AcDbAlignedDimension
 13
-0.9999961554057531
 23
-1.349999162097264
 33
0.0
 14
-0.9999961554057557
 24
1.350000837902738
 34
0.0
 50
89.99999999999991
100
AcDbRotatedDimension
1001
GENIUS_GENDTOL_13
1000

1000
h7
1000

1040
0.0
1001
ACAD
1000
DSTYLE
1002
{
1070
   271
1070
     1
1002
}
  0
LINE
  5
1C85
330
1F
100
AcDbEntity
  8
AM_0
 48
0.5
100
AcDbLine
 10
-0.6484150267232849
 20
0.9981629495150915
 30
0.0
 11
-0.9999961554057557
 21
1.350000837902738
 31
0.0
  0
ELLIPSE
  5
1C86
330
1F
100
AcDbEntity
  8
AM_0
 48
0.5
100
AcDbEllipse
 10
2.184307743156703
 20
1.607193313204468
 30
0.0
 11
2.836893409549336
 21
0.5901859898785923
 31
0.0
210
0.0
220
0.0
230
1.0
 40
0.5121575483306189
 41
3.154597222684332
 42
3.655201069360919
  0
LINE
  5
1CF2
330
1F
100
AcDbEntity
  8
AM_0
100
AcDbLine
 10
-20.999999970103
 20
-1.500000699129734
 30
0.0
 11
-20.74025545146918
 21
-1.350037131375967
 31
0.0
  0
LINE
  5
1CF3
330
1F
100
AcDbEntity
  8
AM_0
100
AcDbLine
 10
-20.999999970103
 20
1.500010999872654
 30
0.0
 11
-20.74035596108831
 21
1.35010546137455
 31
0.0
  0
LINE
  5
1CF4
330
1F
100
AcDbEntity
  8
AM_0
100
AcDbLine
 10
-20.74035596108831
 20
1.350105461374553
 30
0.0
 11
-20.7403568573036
 21
-1.350095678061766
 31
0.0
  0
DIMENSION
  5
1DEF
330
1F
100
AcDbEntity
  8
AM_5
100
AcDbDimension
  2
*D8
 10
-76.75000131162642
 20
1.500013893208771
 30
0.0
 11
-76.75000131162642
 21
0.0000038791022568
 31
0.0
 70
   160
  1
%%c<>
 51
359.9999999999998
  3
AM_JIS$0
100
AcDbAlignedDimension
 13
-68.74999997010302
 23
-1.500006135004235
 33
0.0
 14
-68.74999997010302
 24
1.500013893208769
 34
0.0
 50
270.0000065225689
100
AcDbRotatedDimension
1001
ACAD
1000
DSTYLE
1002
{
1070
   271
1070
     0
1002
}
1001
GENIUS_GENDTOL_13
1000

1000
h7
1000

1040
0.0
  0
ELLIPSE
  5
25CA
330
1F
100
AcDbEntity
  8
AM_0
 48
0.5
100
AcDbEllipse
 10
2.184307743156707
 20
-1.607193221190534
 30
0.0
 11
2.836893409549338
 21
-0.5901859898785859
 31
0.0
210
0.0
220
0.0
230
-1.0
 40
0.5121575483306189
 41
3.154597222684332
 42
3.655201069360919
  0
LINE
  5
25CB
330
1F
100
AcDbEntity
  8
AM_0
 48
0.5
100
AcDbLine
 10
-0.6484150267232827
 20
-0.9981628575011642
 30
0.0
 11
-0.9999961554057531
 21
-1.349999162097264
 31
0.0
  0
DIMENSION
  5
2C50
330
1F
100
AcDbEntity
  8
AM_5
100
AcDbDimension
  2
*D9
 10
-0.138052523317389
 20
-0.3792953765445567
 30
0.0
 11
12.65358387608271
 21
-0.0000169561086892
 31
0.0
 70
    34
  1
<>
 51
359.9999999999998
  3
AM_JIS$2
100
AcDb2LineAngularDimension
 13
0.0000000167452001
 23
0.0000000460069584
 33
0.0
 14
-0.1380505609699745
 24
0.3792932484999695
 34
0.0
 15
0.000000029896995
 25
0.0000000821411406
 35
0.0
 16
13.04195070639217
 26
-5.625772492798207
 36
0.0
1001
GENIUS_GENDTOL_13
1000

1000
h7
1000

1040
0.0
1001
ACAD
1000
DSTYLE
1002
{
1070
   271
1070
     0
1002
}
  0
LINE
  5
2E7A
330
1F
100
AcDbEntity
  8
AM_0
 48
0.5
100
AcDbLine
 10
-20.74025545146918
 20
-1.350037131375967
 30
0.0
 11
-17.91293669605622
 21
-1.35006861854349
 31
0.0
  0
LINE
  5
2E7B
330
1F
100
AcDbEntity
  8
AM_0
100
AcDbLine
 10
-20.74035596108832
 20
1.350105461374552
 30
0.0
 11
-17.55926285186561
 21
1.350192629903048
 31
0.0
  0
LINE
  5
2E7C
330
1F
100
AcDbEntity
  8
AM_0
 48
0.5
100
AcDbLine
 10
-2.12470060724582
 20
1.350000837902761
 30
0.0
 11
-0.9999961554057557
 21
1.350000837902738
 31
0.0
  0
LINE
  5
2E7D
330
1F
100
AcDbEntity
  8
AM_0
 48
0.5
100
AcDbLine
 10
-2.124700607245324
 20
-1.349999162097243
 30
0.0
 11
-0.9999961554057559
 21
-1.349999162097261
 31
0.0
  0
LINE
  5
2E7E
330
1F
100
AcDbEntity
  8
AM_0
 48
0.5
100
AcDbLine
 10
0.0000000167452001
 20
0.0000000460069584
 30
0.0
 11
-1.243632434245284
 21
0.5183597726629511
 31
0.0
  0
LINE
  5
2E7F
330
1F
100
AcDbEntity
  8
AM_0
 48
0.5
100
AcDbLine
 10
-13.99080827719902
 20
1.350000837903013
 30
0.0
 11
-7.716480254580633
 21
1.350000837902879
 31
0.0
  0
LINE
  5
2E80
330
1F
100
AcDbEntity
  8
AM_0
 48
0.5
100
AcDbLine
 10
-13.70360471393575
 20
-1.350068618543595
 30
0.0
 11
-7.716480254580695
 21
-1.349999162097121
 31
0.0
  0
LINE
  5
2E81
330
1F
100
AcDbEntity
  8
AM_0
 48
0.5
100
AcDbLine
 10
-14.81682157923461
 20
0.6471738670971341
 30
0.0
 11
-18.49999615540575
 21
-0.1092495458201412
 31
0.0
  0
LINE
  5
2E82
330
1F
100
AcDbEntity
  8
AM_11
 48
0.5
100
AcDbLine
 10
-17.55926285186561
 20
1.350192629903048
 30
0.0
 11
-13.9908034610321
 21
1.350000837903013
 31
0.0
  0
LINE
  5
2E83
330
1F
100
AcDbEntity
  8
AM_11
 48
0.5
100
AcDbLine
 10
-17.91293669605622
 20
-1.35006861854349
 30
0.0
 11
-12.88287499589026
 21
-1.34998545064276
 31
0.0
  0
LINE
  5
2E84
330
1F
100
AcDbEntity
  8
AM_11
 48
0.5
100
AcDbLine
 10
-7.716480254580695
 20
-1.349999162097121
 30
0.0
 11
-2.124700607245881
 21
-1.349999162097239
 31
0.0
  0
LINE
  5
2E85
330
1F
100
AcDbEntity
  8
AM_11
 48
0.5
100
AcDbLine
 10
-7.716480254580633
 20
1.350000837902879
 30
0.0
 11
-2.12470060724582
 21
1.350000837902761
 31
0.0
  0
SPLINE
  5
2E86
330
1F
100
AcDbEntity
  8
AM_0
100
AcDbSpline
210
0.0
220
0.0
230
1.0
 70
     8
 71
     3
 72
    17
 73
    13
 74
     0
 42
0.0000000001
 43
0.0000000001
 40
1.580019955310467
 40
1.580019955310467
 40
1.580019955310467
 40
1.580019955310467
 40
2.030549285115227
 40
3.082371838836284
 40
4.126290986361125
 40
5.162752068350215
 40
6.192395305374981
 40
7.216039564037012
 40
8.234688489606833
 40
9.249433870634691
 40
10.26152376260694
 40
11.27226744710342
 40
11.27226744710342
 40
11.27226744710342
 40
11.27226744710352
 10
-4.920372297264601
 20
-0.9963389149941663
 30
0.0
 10
-4.962370791590956
 20
-1.006600386751813
 30
0.0
 10
-5.102659872547344
 20
-1.040233731052976
 30
0.0
 10
-5.342168123976056
 20
-1.092988835011291
 30
0.0
 10
-5.638834524900364
 20
-1.152067553001343
 30
0.0
 10
-5.935582597807095
 20
-1.203930823418022
 30
0.0
 10
-6.232344267606933
 20
-1.248404477742835
 30
0.0
 10
-6.529138269058835
 20
-1.285165012466462
 30
0.0
 10
-6.825952775156636
 20
-1.314002651426386
 30
0.0
 10
-7.122785763301569
 20
-1.334730517072961
 30
0.0
 10
-7.4196299202975
 20
-1.34721518172785
 30
0.0
 10
-7.617574056057899
 20
-1.349999169821892
 30
0.0
 10
-7.71648025458067
 20
-1.349999162097121
 30
0.0
  0
SPLINE
  5
2E87
330
1F
100
AcDbEntity
  8
AM_0
100
AcDbSpline
210
0.0
220
0.0
230
1.0
 70
     8
 71
     3
 72
    22
 73
    18
 74
     0
 42
0.0000000001
 43
0.0000000001
 40
17.17441611292
 40
17.17441611292
 40
17.17441611292
 40
17.17441611292
 40
17.38177636558528
 40
18.41823744757437
 40
19.46215659509824
 40
20.51397914882054
 40
21.57394542641293
 40
22.64209583141747
 40
23.71826625065247
 40
24.80210429862395
 40
25.8930771157021
 40
26.99048705697709
 40
28.09349309193389
 40
29.20112995599786
 40
30.31233024745139
 40
31.42594771747373
 40
32.5407895042663
 40
32.54078950426994
 40
32.54078950426994
 40
32.54078950426994
 10
-8.849468666407007
 20
-1.212308932923324
 30
0.0
 10
-8.869345774338802
 20
-1.209183815333714
 30
0.0
 10
-8.988498180869004
 20
-1.190148382511621
 30
0.0
 10
-9.206778675420959
 20
-1.151979862186581
 30
0.0
 10
-9.503486377378518
 20
-1.092991861174656
 30
0.0
 10
-9.800163845444071
 20
-1.02726780521509
 30
0.0
 10
-10.09681317414391
 20
-0.9552179601616625
 30
0.0
 10
-10.39343397162491
 20
-0.8772840980915869
 30
0.0
 10
-10.69002988894512
 20
-0.7939512374413402
 30
0.0
 10
-10.98660229942701
 20
-0.7057315151600746
 30
0.0
 10
-11.28315394707062
 20
-0.6131689774412143
 30
0.0
 10
-11.57968812934225
 20
-0.5168346765123979
 30
0.0
 10
-11.87620741997967
 20
-0.4173209749032566
 30
0.0
 10
-12.17271480392897
 20
-0.3152400977218853
 30
0.0
 10
-12.46921290947003
 20
-0.2112197268140416
 30
0.0
 10
-12.76570612896443
 20
-0.1059017240920685
 30
0.0
 10
-12.9633294765818
 20
-0.0352671736852611
 30
0.0
 10
-13.06219543894688
 20
0.0000695024539477
 30
0.0
  0
SPLINE
  5
2E88
330
1F
100
AcDbEntity
  8
AM_0
100
AcDbSpline
210
0.0
220
0.0
230
1.0
 70
     8
 71
     3
 72
    11
 73
     7
 74
     0
 42
0.0000000001
 43
0.0000000001
 40
11.27226913003534
 40
11.27226913003534
 40
11.27226913003534
 40
11.2722691300354
 40
12.28301561507924
 40
13.29510212255852
 40
14.30984805882082
 40
15.18258238371378
 40
15.18258238371378
 40
15.18258238371378
 40
15.18258238371378
 10
-7.716480254580686
 20
-1.349999162097121
 30
0.0
 10
-7.815010363044074
 20
-1.34339186978968
 30
0.0
 10
-8.011884733450127
 20
-1.327395902674469
 30
0.0
 10
-8.306179666513095
 20
-1.29512808041001
 30
0.0
 10
-8.585470747217581
 20
-1.256587704743839
 30
0.0
 10
-8.766099824159708
 20
-1.226960570934093
 30
0.0
 10
-8.849338846222902
 20
-1.212325585163002
 30
0.0
  0
SPLINE
  5
2E89
330
1F
100
AcDbEntity
  8
AM_0
100
AcDbSpline
210
0.0
220
0.0
230
1.0
 70
     8
 71
     3
 72
    46
 73
    42
 74
     0
 42
0.0000000001
 43
0.0000000001
 40
0.0
 40
0.0
 40
0.0
 40
0.0
 40
0.5056245176053715
 40
0.759310862862336
 40
1.013969309739036
 40
1.269880374404297
 40
1.527291183660732
 40
1.786406454158005
 40
2.047386241038974
 40
2.310345544571907
 40
2.575337113970003
 40
2.842374715221223
 40
3.111417320030211
 40
3.382376832022752
 40
3.655120036292296
 40
3.929472521611371
 40
4.205224030350333
 40
4.482133246366229
 40
4.759933319229942
 40
5.038338087391601
 40
5.317048131389549
 40
5.595758175387723
 40
5.874162943549383
 40
6.151963016412869
 40
6.428872232428759
 40
6.704623741167955
 40
6.978976226486705
 40
7.251719430756336
 40
7.522680721168327
 40
7.791723325977311
 40
8.058760927228529
 40
8.32375249662655
 40
8.586708135057122
 40
8.84768792193809
 40
9.106803192435362
 40
9.364213819003406
 40
9.620125035580644
 40
9.87478726697307
 40
10.12847352585208
 40
10.38149610319407
 40
10.63418200686337
 40
10.63418200686337
 40
10.63418200686337
 40
10.63418200686337
 10
-1.293738653805785
 20
-1.349999162097256
 30
0.0
 10
-1.491692457663984
 20
-1.346923757741018
 30
0.0
 10
-1.788965371418858
 20
-1.342305334673944
 30
0.0
 10
-2.184262128386374
 20
-1.313870552299462
 30
0.0
 10
-2.481078438514311
 20
-1.285200727678572
 30
0.0
 10
-2.777869377913571
 20
-1.248393542890435
 30
0.0
 10
-3.074634164735199
 20
-1.203938436403071
 30
0.0
 10
-3.371371274440288
 20
-1.152047941497711
 30
0.0
 10
-3.668080210038758
 20
-1.093060091808775
 30
0.0
 10
-3.964759651071048
 20
-1.027337081465427
 30
0.0
 10
-4.261410190528209
 20
-0.955286548950767
 30
0.0
 10
-4.558031030510487
 20
-0.8773527831473277
 30
0.0
 10
-4.854626936390379
 20
-0.7940198965377882
 30
0.0
 10
-5.151199349683276
 20
-0.7058001808117959
 30
0.0
 10
-5.447750997649105
 20
-0.6132376431101259
 30
0.0
 10
-5.744285175756897
 20
-0.5169033354337946
 30
0.0
 10
-6.040804482847201
 20
-0.4173896609996262
 30
0.0
 10
-6.337311804801013
 20
-0.3153086812894219
 30
0.0
 10
-6.633810285441197
 20
-0.2112886449179848
 30
0.0
 10
-6.930302633300759
 20
-0.1059692019893211
 30
0.0
 10
-7.226792488793293
 20
0.0000008378814284
 30
0.0
 10
-7.523282344220687
 20
0.1059708778809525
 30
0.0
 10
-7.819774692275626
 20
0.2112903204234796
 30
0.0
 10
-8.116273172201694
 20
0.3153103582060748
 30
0.0
 10
-8.412780496803485
 20
0.4173913326828087
 30
0.0
 10
-8.709299794075322
 20
0.5169050265221533
 30
0.0
 10
-9.005834008544235
 20
0.6132392623342874
 30
0.0
 10
-9.302386166701461
 20
0.7058022670892972
 30
0.0
 10
-9.598959732331676
 20
0.7940211812944515
 30
0.0
 10
-9.895556167293198
 20
0.8773544952064952
 30
0.0
 10
-10.1921770003693
 20
0.9552882841993772
 30
0.0
 10
-10.48882632121975
 20
1.027338154631217
 30
0.0
 10
-10.78550378553793
 20
1.093062181653862
 30
0.0
 10
-11.08221150999043
 20
1.15205027231462
 30
0.0
 10
-11.37894844795967
 20
1.203937372271381
 30
0.0
 10
-11.67571345235108
 20
1.24840537249143
 30
0.0
 10
-11.97250628589302
 20
1.285159996147722
 30
0.0
 10
-12.26932106660175
 20
1.314031650992997
 30
0.0
 10
-12.56615421109654
 20
1.334630056455781
 30
0.0
 10
-12.86299813041366
 20
1.347591843312875
 30
0.0
 10
-13.06094234593393
 20
1.349198196180912
 30
0.0
 10
-13.15984856335552
 20
1.350000837902997
 30
0.0
  0
SPLINE
  5
2E8A
330
1F
100
AcDbEntity
  8
AM_0
 48
0.5
100
AcDbSpline
210
0.0
220
0.0
230
1.0
 70
     8
 71
     3
 72
    25
 73
    21
 74
     0
 42
0.0000000001
 43
0.0000000001
 40
6.846175049578289
 40
6.846175049578289
 40
6.846175049578289
 40
6.846175049578289
 40
7.604337694224321
 40
8.711974558287883
 40
9.814980593243754
 40
10.91239053451967
 40
12.0033633515982
 40
13.08720139956839
 40
14.16337181880432
 40
15.23152222380919
 40
16.29148850140128
 40
17.34331105512262
 40
18.38723020264746
 40
19.42369128463655
 40
20.45333379090873
 40
21.47697865721768
 40
22.49561244472435
 40
23.5103574802404
 40
24.52244778960836
 40
25.53320666051913
 40
25.53320666051913
 40
25.53320666051913
 40
25.53320666051913
 10
-2.470895615629228
 20
0.2443596761514006
 30
0.0
 10
-2.538328448223537
 20
0.2680632751852414
 30
0.0
 10
-2.704419117338438
 20
0.3261594247002407
 30
0.0
 10
-2.969414451370845
 20
0.4173912930501984
 30
0.0
 10
-3.265933725803233
 20
0.5169050227791307
 30
0.0
 10
-3.562467912382513
 20
0.6132393162201067
 30
0.0
 10
-3.859019558889983
 20
0.7058018559620641
 30
0.0
 10
-4.155591969642831
 20
0.7940215775816459
 30
0.0
 10
-4.452187887004298
 20
0.8773544388676006
 30
0.0
 10
-4.748808684057272
 20
0.9552882990701661
 30
0.0
 10
-5.045458014409033
 20
1.027338150888076
 30
0.0
 10
-5.342135476360977
 20
1.093062181922966
 30
0.0
 10
-5.638843200885062
 20
1.152050274909325
 30
0.0
 10
-5.935580140886075
 20
1.203937361736601
 30
0.0
 10
-6.232345137159566
 20
1.248405411686017
 30
0.0
 10
-6.529136538347811
 20
1.285159669896567
 30
0.0
 10
-6.825949726495784
 20
1.314031921954483
 30
0.0
 10
-7.122781430420907
 20
1.334630011043332
 30
0.0
 10
-7.419626831650181
 20
1.34759192220722
 30
0.0
 10
-7.617572542864376
 20
1.34919821842549
 30
0.0
 10
-7.716480254580633
 20
1.350000837902879
 30
0.0
  0
SPLINE
  5
2E8B
330
1F
100
AcDbEntity
  8
AM_0
 48
0.5
100
AcDbSpline
210
0.0
220
0.0
230
1.0
 70
     8
 71
     3
 72
    17
 73
    13
 74
     0
 42
0.0000000001
 43
0.0000000001
 40
0.0
 40
0.0
 40
0.0
 40
0.0
 40
1.010743614677189
 40
2.022833924044153
 40
3.037578959561199
 40
4.056212747067873
 40
5.079857613375832
 40
6.109500119648989
 40
7.14596120163808
 40
8.18989512056258
 40
9.241717674284874
 40
9.693948937866434
 40
9.693948937866434
 40
9.693948937866434
 40
9.693948937866434
 10
-2.12470060724582
 20
1.350000837902761
 30
0.0
 10
-2.223606825073207
 20
1.349198199445952
 30
0.0
 10
-2.421551041405505
 20
1.347591853112828
 30
0.0
 10
-2.718394954620094
 20
1.334630017151051
 30
0.0
 10
-3.01522664694308
 20
1.314031901436767
 30
0.0
 10
-3.312039878860928
 20
1.285159746307058
 30
0.0
 10
-3.608831115414041
 20
1.248405124457454
 30
0.0
 10
-3.905596731590847
 20
1.203938443468792
 30
0.0
 10
-4.202332744298017
 20
1.152045950072244
 30
0.0
 10
-4.499050668083971
 20
1.093076997897751
 30
0.0
 10
-4.738569113462893
 20
1.039954885826365
 30
0.0
 10
-4.879228387814464
 20
1.006745926487772
 30
0.0
 10
-4.921446755511444
 20
0.9965808863447611
 30
0.0
  0
SPLINE
  5
2E8C
330
1F
100
AcDbEntity
  8
AM_0
100
AcDbSpline
210
0.0
220
0.0
230
1.0
 70
     8
 71
     3
 72
    55
 73
    51
 74
     0
 42
0.0000000001
 43
0.0000000001
 40
0.0
 40
0.0
 40
0.0
 40
0.0
 40
1.010743684496582
 40
2.022833576467832
 40
3.037578957496688
 40
4.056212745003489
 40
5.079857003664532
 40
6.109500240690281
 40
7.145961322679372
 40
8.189895241603872
 40
9.241717795325891
 40
10.30168407291828
 40
11.36983447792315
 40
12.44600489715814
 40
13.52984294512926
 40
14.62081576220742
 40
15.7182257034828
 40
16.82123173843959
 40
17.92886860250316
 40
19.0400688939571
 40
20.15368796660465
 40
21.26852814259644
 40
22.38336992938901
 40
23.49698739941135
 40
24.6081876908653
 40
25.71582455492886
 40
26.81883757994213
 40
27.91624752121713
 40
29.00722033829659
 40
30.09105838626677
 40
31.16722880550176
 40
32.23537921050758
 40
33.29534548809967
 40
34.347168041821
 40
35.39108718934584
 40
36.42754827133493
 40
37.45720575381954
 40
38.48085062012849
 40
39.49948440763516
 40
40.51422944315121
 40
41.52631975251916
 40
42.53706336719636
 40
43.54780698187354
 40
44.55989729124051
 40
45.57464232675757
 40
46.59327611426424
 40
47.6169209805722
 40
48.64656348684535
 40
49.68302456883444
 40
50.58557219878025
 40
50.58557219878025
 40
50.58557219878025
 40
50.58557219878025
 10
-2.124700607245881
 20
-1.349999162097239
 30
0.0
 10
-2.223606807073521
 20
-1.349195944802985
 30
0.0
 10
-2.421550939696856
 20
-1.34758844041099
 30
0.0
 10
-2.718395102989013
 20
-1.334630150361332
 30
0.0
 10
-3.015226595123078
 20
-1.314029854265399
 30
0.0
 10
-3.312039716301985
 20
-1.2851577557987
 30
0.0
 10
-3.608831504798019
 20
-1.248405127250743
 30
0.0
 10
-3.905596105572771
 20
-1.203935401703751
 30
0.0
 10
-4.202334511290676
 20
-1.152048143079364
 30
0.0
 10
-4.499044090481771
 20
-1.09306108412325
 30
0.0
 10
-4.795722822013066
 20
-1.027336401799007
 30
0.0
 10
-5.092372184664023
 20
-0.9552866431435413
 30
0.0
 10
-5.388992972920801
 20
-0.8773527576192275
 30
0.0
 10
-5.685588892822544
 20
-0.7940199034600136
 30
0.0
 10
-5.982161302295859
 20
-0.7058001789092986
 30
0.0
 10
-6.278712951378967
 20
-0.6132376437334867
 30
0.0
 10
-6.575247128869783
 20
-0.5169033348555409
 30
0.0
 10
-6.871766437310574
 20
-0.4173896626959496
 30
0.0
 10
-7.16827375445501
 20
-0.3153086750502686
 30
0.0
 10
-7.464772253057371
 20
-0.21128866826963
 30
0.0
 10
-7.761264533691758
 20
-0.1059691146072439
 30
0.0
 10
-8.057754783288412
 20
0.000000562453848
 30
0.0
 10
-8.354243701891924
 20
0.105972147035168
 30
0.0
 10
-8.650736976303806
 20
0.2112900605935269
 30
0.0
 10
-8.947235108874801
 20
0.3153103822368042
 30
0.0
 10
-9.243742954688499
 20
0.4173917587655484
 30
0.0
 10
-9.540263493233618
 20
0.5169045816579868
 30
0.0
 10
-9.836798138733712
 20
0.6132393790849166
 30
0.0
 10
-10.133349830629
 20
0.7058018392020552
 30
0.0
 10
-10.429922229311
 20
0.7940215823050473
 30
0.0
 10
-10.72651814997221
 20
0.8773544365861603
 30
0.0
 10
-11.02313894578415
 20
0.9552883034753067
 30
0.0
 10
-11.31978827781766
 20
1.027338135700204
 30
0.0
 10
-11.61646573433275
 20
1.093062237676345
 30
0.0
 10
-11.9131734787178
 20
1.152050069215762
 30
0.0
 10
-12.20991177436116
 20
1.203938371227644
 30
0.0
 10
-12.50667849413463
 20
1.248403017714672
 30
0.0
 10
-12.80347126314686
 20
1.285167021978103
 30
0.0
 10
-13.10028447231445
 20
1.314004896298668
 30
0.0
 10
-13.39711617069606
 20
1.334730290488448
 30
0.0
 10
-13.69396008229974
 20
1.347218872526991
 30
0.0
 10
-13.99081051686836
 20
1.35139089455074
 30
0.0
 10
-14.2876609510002
 20
1.347218872520461
 30
0.0
 10
-14.58450486391675
 20
1.334730290514712
 30
0.0
 10
-14.88133655746476
 20
1.314004896199804
 30
0.0
 10
-15.17814978475469
 20
1.285167022349773
 30
0.0
 10
-15.47494103871691
 20
1.248403195547747
 30
0.0
 10
-15.77170658934246
 20
1.203938825854686
 30
0.0
 10
-16.05495283865612
 20
1.15440546962033
 30
0.0
 10
-16.23872623091082
 20
1.118181257933966
 30
0.0
 10
-16.323986373829
 20
1.100527432455736
 30
0.0
  0
SPLINE
  5
2E8D
330
1F
100
AcDbEntity
  8
AM_0
100
AcDbSpline
210
0.0
220
0.0
230
1.0
 70
     8
 71
     3
 72
    23
 73
    19
 74
     0
 42
0.0000000001
 43
0.0000000001
 40
16.03460024169435
 40
16.03460024169435
 40
16.03460024169435
 40
16.03460024169435
 40
16.35212704903564
 40
17.38177054169784
 40
18.41822485651776
 40
19.46214173629503
 40
20.51396345435107
 40
21.57393551351153
 40
22.64208202342361
 40
23.7182574881101
 40
24.80209208578934
 40
25.89306333925047
 40
26.99048218457928
 40
28.09348763352352
 40
29.20111863782268
 40
30.31232390128032
 40
31.42594612798585
 40
32.5407912310448
 40
32.5407912310486
 40
32.5407912310486
 40
32.5407912310486
 10
-17.55926285186561
 20
1.350192629903048
 30
0.0
 10
-17.52876576215861
 20
1.345635267637529
 30
0.0
 10
-17.39950569507668
 20
1.325789237668885
 30
0.0
 10
-17.17181269487634
 20
1.286903970831335
 30
0.0
 10
-16.87694966355134
 20
1.229082004289037
 30
0.0
 10
-16.58236051487924
 20
1.164157573808095
 30
0.0
 10
-16.28802784135233
 20
1.092506428877223
 30
0.0
 10
-15.99394119658241
 20
1.014528026233466
 30
0.0
 10
-15.70008358306625
 20
0.9306681233108552
 30
0.0
 10
-15.40643453767653
 20
0.8414147637093345
 30
0.0
 10
-15.11297737421983
 20
0.7472733840005292
 30
0.0
 10
-14.81968856517125
 20
0.6487917709375287
 30
0.0
 10
-14.52654434275256
 20
0.5465423422042736
 30
0.0
 10
-14.23352517560033
 20
0.4411129891502736
 30
0.0
 10
-13.94060654715668
 20
0.3331167690255752
 30
0.0
 10
-13.64776132695306
 20
0.2231843005235136
 30
0.0
 10
-13.35496566912191
 20
0.1119526125303952
 30
0.0
 10
-13.15982099377551
 20
0.0373778478168473
 30
0.0
 10
-13.06219543894556
 20
0.0000695024534627
 30
0.0
  0
SPLINE
  5
2E8E
330
1F
100
AcDbEntity
  8
AM_0
 48
0.5
100
AcDbSpline
210
0.0
220
0.0
230
1.0
 70
     8
 71
     3
 72
    10
 73
     6
 74
     0
 42
0.0000000001
 43
0.0000000001
 40
0.0
 40
0.0
 40
0.0
 40
0.0
 40
2.69986029516136
 40
4.147722969032201
 40
6.285750005020438
 40
6.285750005020438
 40
6.285750005020438
 40
6.285750005020438
 10
-2.470895615629228
 20
0.2443596761514006
 30
0.0
 10
-2.001340736923663
 20
0.11891931293736
 30
0.0
 10
-1.713865858612714
 20
-0.0737667200663358
 30
0.0
 10
-1.03402638860276
 20
0.0195159640852613
 30
0.0
 10
-1.162059935155784
 20
0.333704387444213
 30
0.0
 10
-1.246656322319503
 20
0.5252119082244786
 30
0.0
  0
SPLINE
  5
2E8F
330
1F
100
AcDbEntity
  8
AM_0
 48
0.5
100
AcDbSpline
210
0.0
220
0.0
230
1.0
 70
     8
 71
     3
 72
    26
 73
    22
 74
     0
 42
0.0000000001
 43
0.0000000001
 40
0.0
 40
0.0
 40
0.0
 40
0.0
 40
0.2526859211241313
 40
0.5057083941171959
 40
0.7593947393741639
 40
1.01405318625086
 40
1.26996425091637
 40
1.527375060172565
 40
1.786490330669834
 40
2.047470117551047
 40
2.310425755981314
 40
2.575417325379407
 40
2.842456731169063
 40
3.111495753801943
 40
3.382458822635121
 40
3.655202026904655
 40
3.929554512223505
 40
4.205306020962704
 40
4.482215236978595
 40
4.76001530984208
 40
5.029821427366006
 40
5.029821427366006
 40
5.029821427366006
 40
5.029821427366006
 10
-12.87264276049567
 20
-1.350068618543612
 30
0.0
 10
-12.97154896033521
 20
-1.349265401284363
 30
0.0
 10
-13.16949309298245
 20
-1.347657896962411
 30
0.0
 10
-13.46633725609566
 20
-1.334699606386414
 30
0.0
 10
-13.76316874891249
 20
-1.314099312298849
 30
0.0
 10
-14.05998186752498
 20
-1.285227206282819
 30
0.0
 10
-14.35677366567179
 20
-1.248474606123389
 30
0.0
 10
-14.65353823010901
 20
-1.204004773686721
 30
0.0
 10
-14.95027536341235
 20
-1.152118164415162
 30
0.0
 10
-15.24698304184112
 20
-1.093129911441241
 30
0.0
 10
-15.54366056394963
 20
-1.027406027018824
 30
0.0
 10
-15.84031037140496
 20
-0.9553555820712634
 30
0.0
 10
-16.13693123498724
 20
-0.877423464871793
 30
0.0
 10
-16.43352651549431
 20
-0.7940877303524305
 30
0.0
 10
-16.73010017860957
 20
-0.705870550623608
 30
0.0
 10
-17.02665286511721
 20
-0.6133070738314313
 30
0.0
 10
-17.32318678566169
 20
-0.5169723756690598
 30
0.0
 10
-17.61970738573958
 20
-0.4174608204253626
 30
0.0
 10
-17.91620976501881
 20
-0.3153717076350544
 30
0.0
 10
-18.20966642067567
 20
-0.2124554989022444
 30
0.0
 10
-18.40409249603608
 20
-0.1433156679607831
 30
0.0
 10
-18.49999615540575
 20
-0.1092495458201412
 30
0.0
  0
SPLINE
  5
2E90
330
1F
100
AcDbEntity
  8
AM_0
 48
0.5
100
AcDbSpline
210
0.0
220
0.0
230
1.0
 70
     8
 71
     3
 72
    22
 73
    18
 74
     0
 42
0.0000000001
 43
0.0000000001
 40
0.0
 40
0.0
 40
0.0
 40
0.0
 40
1.010743684496582
 40
2.022833993863546
 40
3.037578683882831
 40
4.056212471389632
 40
5.079857945358201
 40
6.109499720892564
 40
7.145961650132166
 40
8.189873411961459
 40
9.241710626092514
 40
10.30166235592959
 40
11.36982472628033
 40
12.44598212828784
 40
13.52983440361964
 40
14.62080578343036
 40
14.90544694398022
 40
14.90544694398022
 40
14.90544694398022
 40
14.90544694398022
 10
-13.70360471393575
 20
-1.350068618543595
 30
0.0
 10
-13.80251093266268
 20
-1.349265641212137
 30
0.0
 10
-14.00045514395397
 20
-1.347658616733748
 30
0.0
 10
-14.2972989962092
 20
-1.334696717003242
 30
0.0
 10
-14.59413080954633
 20
-1.314099889040501
 30
0.0
 10
-14.89094408855116
 20
-1.285227763957901
 30
0.0
 10
-15.18773506868511
 20
-1.2484717065496
 30
0.0
 10
-15.48450065373583
 20
-1.204005719062838
 30
0.0
 10
-15.78123649503424
 20
-1.152117224285236
 30
0.0
 10
-16.07794463303949
 20
-1.093128117282346
 30
0.0
 10
-16.37462239545814
 20
-1.027406716176652
 30
0.0
 10
-16.67127133269902
 20
-0.9553530088183682
 30
0.0
 10
-16.96789335705783
 20
-0.8774255058907717
 30
0.0
 10
-17.26448824573659
 20
-0.7940874830998462
 30
0.0
 10
-17.56106155509116
 20
-0.7058698413823393
 30
0.0
 10
-17.78395712292699
 20
-0.636300686092274
 30
0.0
 10
-17.90816231157153
 20
-0.596537193168812
 30
0.0
 10
-17.89023210897461
 20
-0.602314666892911
 30
0.0
  0
SPLINE
  5
2E91
330
1F
100
AcDbEntity
  8
AM_0
100
AcDbSpline
210
0.0
220
0.0
230
1.0
 70
     8
 71
     3
 72
    13
 73
     9
 74
     0
 42
0.0000000001
 43
0.0000000001
 40
16.03460056234195
 40
16.03460056234195
 40
16.03460056234195
 40
16.03460056234195
 40
16.35212717791071
 40
17.38177067057215
 40
18.41822498539278
 40
19.46214186516937
 40
20.5139635832251
 40
21.34083983469381
 40
21.34083983469381
 40
21.34083983469381
 40
21.34083983469381
 10
-17.91293669605622
 20
-1.35006861854349
 30
0.0
 10
-17.82889638235477
 20
-1.345634167046695
 30
0.0
 10
-17.69963620831279
 20
-1.325788681589129
 30
0.0
 10
-17.47194333223141
 20
-1.286902960756966
 30
0.0
 10
-17.17708026379923
 20
-1.229081154541141
 30
0.0
 10
-16.88249112517651
 20
-1.164156680641088
 30
0.0
 10
-16.6098992611738
 20
-1.097798041171486
 30
0.0
 10
-16.43599045225679
 20
-1.052105395397399
 30
0.0
 10
-16.3596977000935
 20
-1.031451903156046
 30
0.0
  0
ELLIPSE
  5
2E92
330
1F
100
AcDbEntity
  8
AM_0
 48
0.5
100
AcDbEllipse
 10
-22.08416257512845
 20
-28.7026401161359
 30
0.0
 11
20.10377368766847
 21
28.62451841786321
 31
0.0
210
0.0
220
0.0
230
1.0
 40
0.5227116151360799
 41
-0.0445107113999059
 42
0.0320961865334015
  0
ELLIPSE
  5
2E93
330
1F
100
AcDbEntity
  8
AM_0
 48
0.5
100
AcDbEllipse
 10
1.141304622611759
 20
-0.3000855649902914
 30
0.0
 11
-2.501606738245187
 21
0.1110320354454247
 31
0.0
210
0.0
220
0.0
230
1.0
 40
0.8317441080557383
 41
0.1851813905931052
 42
0.5813974523227743
  0
ELLIPSE
  5
2E94
330
1F
100
AcDbEntity
  8
AM_0
 48
0.5
100
AcDbEllipse
 10
-0.6812637896583992
 20
-0.351828654308489
 30
0.0
 11
-0.0505003928295756
 21
0.220561826467494
 31
0.0
210
0.0
220
0.0
230
0.9999999999999998
 40
0.5713088457832978
 41
1.76372686071508
 42
4.899068750427055
  0
ELLIPSE
  5
2E95
330
1F
100
AcDbEntity
  8
AM_0
 48
0.5
100
AcDbEllipse
 10
-0.6812637896583992
 20
-0.351828654308489
 30
0.0
 11
-0.2293327156506574
 21
0.1050413056566203
 31
0.0
210
0.0
220
0.0
230
1.0
 40
0.4597112422453066
 41
4.410332427790048
 42
7.553772769119561
  0
ELLIPSE
  5
2E96
330
1F
100
AcDbEntity
  8
AM_0
 48
0.5
100
AcDbEllipse
 10
-2.700435975031894
 20
2.265790192584855
 30
0.0
 11
-3.264328252294535
 21
1.623114928811658
 31
0.0
210
0.0
220
0.0
230
1.0
 40
0.6644535005546435
 41
2.559426463692449
 42
2.793388433211806
  0
ELLIPSE
  5
2E97
330
1F
100
AcDbEntity
  8
AM_0
 48
0.5
100
AcDbEllipse
 10
-0.7950362318792929
 20
-1.526326568408842
 30
0.0
 11
2.042236638963438
 21
0.5922141499158858
 31
0.0
210
0.0
220
0.0
230
1.0
 40
0.5043616103094619
 41
1.425654293095167
 42
1.690031671641096
  0
ELLIPSE
  5
2E98
330
1F
100
AcDbEntity
  8
AM_0
 48
0.5
100
AcDbEllipse
 10
-17.91293651175684
 20
-0.9000686185435128
 30
0.0
 11
-0.5870967741935499
 21
0.0000000000000307
 31
0.0
210
0.0
220
0.0
230
1.0
 40
0.7664835164835124
 41
0.0112467747891998
 42
1.570796012878414
  0
ELLIPSE
  5
2E99
330
1F
100
AcDbEntity
  8
AM_0
 48
0.5
100
AcDbEllipse
 10
-18.05981820593512
 20
-0.9137792127207365
 30
0.0
 11
-0.4403225806451628
 21
0.0000000000000141
 31
0.0
210
0.0
220
0.0
230
1.0
 40
0.7664835164835151
 41
4.317028824483094
 42
6.257553905069375
  0
VIEWPORT
  5
110
330
101
100
AcDbEntity
 67
     1
  8
0
100
AcDbViewport
 10
420.5
 20
297.0
 30
0.0
 40
948.9782706766916
 41
628.452
 68
     1
 69
     1
1001
ACAD
1000
MVIEW
1002
{
1070
    16
1010
0.0
1020
0.0
1030
0.0
1010
0.0
1020
0.0
1030
1.0
1040
0.0
1040
628.452
1040
420.5
1040
297.0
1040
50.0
1040
0.0
1040
0.0
1070
     0
1070
   100
1070
     1
1070
     1
1070
     0
1070
     0
1070
     0
1070
     0
1040
0.0
1040
0.0
1040
0.0
1040
10.0
1040
10.0
1040
10.0
1040
10.0
1070
     0
1002
{
1002
}
1002
}
  0
ENDSEC
  0
SECTION
  2
OBJECTS
  0
DICTIONARY
  5
C
330
0
100
AcDbDictionary
  3
ACAD_GROUP
350
D
  3
ACAD_LAYOUT
350
1A
  3
ACAD_MLINESTYLE
350
17
  3
ACAD_PLOTSETTINGS
350
19
  3
ACAD_PLOTSTYLENAME
350
E
  3
ACDBVARIABLEDICTIONARY
350
34
  3
ACMDICTIONARY
350
43
  3
AMG
350
2B
  3
AMGSNAPSETTINGS
350
6E
  3
DWGPROPS
350
2F4D
  3
ACDBHEADERROUNDTRIPXREC
350
2F5A
  0
DICTIONARY
  5
74
330
1F
100
AcDbDictionary
280
     1
  3
ACAD_INDEX
360
2F4F
  3
ACAD_LAYOUTSELFREF
360
2F7D
  0
DICTIONARY
  5
2F82
330
101
100
AcDbDictionary
280
     1
  3
ACAD_LAYOUTSELFREF
360
2F83
  0
DICTIONARY
  5
D
102
{ACAD_REACTORS
330
C
102
}
330
C
100
AcDbDictionary
  0
DICTIONARY
  5
1A
102
{ACAD_REACTORS
330
C
102
}
330
C
100
AcDbDictionary
  0
DICTIONARY
  5
17
102
{ACAD_REACTORS
330
C
102
}
330
C
100
AcDbDictionary
  3
STANDARD
350
18
  0
DICTIONARY
  5
19
102
{ACAD_REACTORS
330
C
102
}
330
C
100
AcDbDictionary
  0
ACDBDICTIONARYWDFLT
  5
E
102
{ACAD_REACTORS
330
C
102
}
330
C
100
AcDbDictionary
281
     1
  3
Normal
350
F
100
AcDbDictionaryWithDefault
340
F
  0
DICTIONARY
  5
34
102
{ACAD_REACTORS
330
C
102
}
330
C
100
AcDbDictionary
  3
INDEXCTL
350
35
  3
SORTENTS
350
B5E
  0
DICTIONARY
  5
43
102
{ACAD_REACTORS
330
C
102
}
330
C
100
AcDbDictionary
  3
ACMSTDDICTIONARY
350
260
  0
DICTIONARY
  5
2B
102
{ACAD_REACTORS
330
C
102
}
330
C
100
AcDbDictionary
  3
ACMGSETTINGS
350
2C
  0
DICTIONARY
  5
6E
102
{ACAD_REACTORS
330
C
102
}
330
C
100
AcDbDictionary
  0
XRECORD
  5
2F4D
102
{ACAD_REACTORS
330
C
102
}
330
C
100
AcDbXrecord
  1
DWGPROPS COOKIE
  2

  3

  4

  6

  7

  8

  9

300
AmdtFileType=82
301
=
302
=
303
=
304
=
305
=
306
=
307
=
308
=
309
=
 40
0.0584517708333333
 41
2452800.443498622
 42
2452946.598567708
  1

 90
        1
  0
DICTIONARY
  5
2F5A
102
{ACAD_REACTORS
330
C
102
}
330
C
100
AcDbDictionary
  3
TSTACKALIGN
350
2F5B
  3
TSTACKSIZE
350
2F5C
  3
HYPERLINKBASE
350
2F5D
  3
STYLESHEET
350
2F5E
  3
LAYOUTDICT
350
2F5F
  3
PLOTSETDICT
350
2F60
  3
PLOTSTYLNAMDICT
350
2F61
  3
LWETCUNION
350
2F62
  3
INSUNITS
350
2F63
  3
CEPSNTYPE
350
2F64
  3
FINGERPRINTGUID
350
2F65
  3
VERSIONGUID
350
2F66
  3
PSVPSCALE
350
2F67
  3
DIMSTYLEDATA
350
2F68
  3
PUCSORTHOREF
350
2F69
  3
PUCSORTHOVIEW
350
2F6A
  3
PUCSBASE
350
2F6B
  3
PUCSORGTOP
350
2F6C
  3
PUCSORGBOTTOM
350
2F6D
  3
PUCSORGLEFT
350
2F6E
  3
PUCSORGRIGHT
350
2F6F
  3
PUCSORGFRONT
350
2F70
  3
PUCSORGBACK
350
2F71
  3
UCSORTHOREF
350
2F72
  3
UCSORTHOVIEW
350
2F73
  3
UCSBASE
350
2F74
  3
UCSORGTOP
350
2F75
  3
UCSORGBOTTOM
350
2F76
  3
UCSORGLEFT
350
2F77
  3
UCSORGRIGHT
350
2F78
  3
UCSORGFRONT
350
2F79
  3
UCSORGBACK
350
2F7A
  0
DICTIONARY
  5
2F4F
102
{ACAD_REACTORS
330
74
102
}
330
74
100
AcDbDictionary
  3
*A1
350
2F50
  0
XRECORD
  5
2F7D
102
{ACAD_REACTORS
330
74
102
}
330
74
100
AcDbXrecord
340
1F
  0
XRECORD
  5
2F83
102
{ACAD_REACTORS
330
2F82
102
}
330
2F82
100
AcDbXrecord
340
101
  0
MLINESTYLE
  5
18
102
{ACAD_REACTORS
330
17
102
}
330
17
100
AcDbMlineStyle
  2
STANDARD
 70
     0
  3

 62
   256
 51
90.0
 52
90.0
 71
     2
 49
0.5
 62
   256
  6
BYLAYER
 49
-0.5
 62
   256
  6
BYLAYER
  0
ACDBPLACEHOLDER
  5
F
102
{ACAD_REACTORS
330
E
102
}
330
E
100
AcDbPlaceHolder
280
     0
  0
DICTIONARYVAR
  5
35
102
{ACAD_REACTORS
330
34
102
}
330
34
100
DictionaryVariables
280
     0
  1
1
  0
DICTIONARYVAR
  5
B5E
102
{ACAD_REACTORS
330
34
102
}
330
34
100
DictionaryVariables
280
     0
  1
96
  0
DICTIONARY
  5
260
102
{ACAD_REACTORS
330
43
102
}
330
43
100
AcDbDictionary
  0
DICTIONARY
  5
2C
102
{ACAD_REACTORS
330
2B
102
}
330
2B
100
AcDbDictionary
  3
DWGSETTINGS
350
2D
  0
XRECORD
  5
2F5B
102
{ACAD_REACTORS
330
2F5A
102
}
330
2F5A
100
AcDbXrecord
 90
        1
  0
XRECORD
  5
2F5C
102
{ACAD_REACTORS
330
2F5A
102
}
330
2F5A
100
AcDbXrecord
 90
       70
  0
XRECORD
  5
2F5D
102
{ACAD_REACTORS
330
2F5A
102
}
330
2F5A
100
AcDbXrecord
  1

  0
XRECORD
  5
2F5E
102
{ACAD_REACTORS
330
2F5A
102
}
330
2F5A
100
AcDbXrecord
  1
ASAMI.ctb
  0
XRECORD
  5
2F5F
102
{ACAD_REACTORS
330
2F5A
102
}
330
2F5A
100
AcDbXrecord
340
1A
  0
XRECORD
  5
2F60
102
{ACAD_REACTORS
330
2F5A
102
}
330
2F5A
100
AcDbXrecord
340
19
  0
XRECORD
  5
2F61
102
{ACAD_REACTORS
330
2F5A
102
}
330
2F5A
100
AcDbXrecord
340
E
  0
XRECORD
  5
2F62
102
{ACAD_REACTORS
330
2F5A
102
}
330
2F5A
100
AcDbXrecord
 90
    10781
  0
XRECORD
  5
2F63
102
{ACAD_REACTORS
330
2F5A
102
}
330
2F5A
100
AcDbXrecord
 90
        4
  0
XRECORD
  5
2F64
102
{ACAD_REACTORS
330
2F5A
102
}
330
2F5A
100
AcDbXrecord
 90
        0
  0
XRECORD
  5
2F65
102
{ACAD_REACTORS
330
2F5A
102
}
330
2F5A
100
AcDbXrecord
  1
{AFB28963-8C59-40AE-9337-C84526B81ACE}
  0
XRECORD
  5
2F66
102
{ACAD_REACTORS
330
2F5A
102
}
330
2F5A
100
AcDbXrecord
  1
{A47F3211-2AC4-4424-97BB-2121C910AC9C}
  0
XRECORD
  5
2F67
102
{ACAD_REACTORS
330
2F5A
102
}
330
2F5A
100
AcDbXrecord
 40
0.0
  0
XRECORD
  5
2F68
102
{ACAD_REACTORS
330
2F5A
102
}
330
2F5A
100
AcDbXrecord
1000
DSTYLE
1002
{
1070
    79
 70
     2
1070
   341
340
59
1070
   342
340
59
1070
   371
 70
    -1
1070
   372
 70
    -1
1002
}
  0
XRECORD
  5
2F69
102
{ACAD_REACTORS
330
2F5A
102
}
330
2F5A
100
AcDbXrecord
340
0
  0
XRECORD
  5
2F6A
102
{ACAD_REACTORS
330
2F5A
102
}
330
2F5A
100
AcDbXrecord
 70
     0
  0
XRECORD
  5
2F6B
102
{ACAD_REACTORS
330
2F5A
102
}
330
2F5A
100
AcDbXrecord
340
0
  0
XRECORD
  5
2F6C
102
{ACAD_REACTORS
330
2F5A
102
}
330
2F5A
100
AcDbXrecord
 10
0.0
 20
0.0
 30
0.0
  0
XRECORD
  5
2F6D
102
{ACAD_REACTORS
330
2F5A
102
}
330
2F5A
100
AcDbXrecord
 10
0.0
 20
0.0
 30
0.0
  0
XRECORD
  5
2F6E
102
{ACAD_REACTORS
330
2F5A
102
}
330
2F5A
100
AcDbXrecord
 10
0.0
 20
0.0
 30
0.0
  0
XRECORD
  5
2F6F
102
{ACAD_REACTORS
330
2F5A
102
}
330
2F5A
100
AcDbXrecord
 10
0.0
 20
0.0
 30
0.0
  0
XRECORD
  5
2F70
102
{ACAD_REACTORS
330
2F5A
102
}
330
2F5A
100
AcDbXrecord
 10
0.0
 20
0.0
 30
0.0
  0
XRECORD
  5
2F71
102
{ACAD_REACTORS
330
2F5A
102
}
330
2F5A
100
AcDbXrecord
 10
0.0
 20
0.0
 30
0.0
  0
XRECORD
  5
2F72
102
{ACAD_REACTORS
330
2F5A
102
}
330
2F5A
100
AcDbXrecord
340
0
  0
XRECORD
  5
2F73
102
{ACAD_REACTORS
330
2F5A
102
}
330
2F5A
100
AcDbXrecord
 70
     0
  0
XRECORD
  5
2F74
102
{ACAD_REACTORS
330
2F5A
102
}
330
2F5A
100
AcDbXrecord
340
0
  0
XRECORD
  5
2F75
102
{ACAD_REACTORS
330
2F5A
102
}
330
2F5A
100
AcDbXrecord
 10
0.0
 20
0.0
 30
0.0
  0
XRECORD
  5
2F76
102
{ACAD_REACTORS
330
2F5A
102
}
330
2F5A
100
AcDbXrecord
 10
0.0
 20
0.0
 30
0.0
  0
XRECORD
  5
2F77
102
{ACAD_REACTORS
330
2F5A
102
}
330
2F5A
100
AcDbXrecord
 10
0.0
 20
0.0
 30
0.0
  0
XRECORD
  5
2F78
102
{ACAD_REACTORS
330
2F5A
102
}
330
2F5A
100
AcDbXrecord
 10
0.0
 20
0.0
 30
0.0
  0
XRECORD
  5
2F79
102
{ACAD_REACTORS
330
2F5A
102
}
330
2F5A
100
AcDbXrecord
 10
0.0
 20
0.0
 30
0.0
  0
XRECORD
  5
2F7A
102
{ACAD_REACTORS
330
2F5A
102
}
330
2F5A
100
AcDbXrecord
 10
0.0
 20
0.0
 30
0.0
  0
LAYER_INDEX
  5
2F50
102
{ACAD_REACTORS
330
2F4F
102
}
330
2F4F
100
AcDbIndex
 40
2453151.576057743
100
AcDbLayerIndex
  8
0
360
2F51
 90
        0
  8
AM_0
360
2F52
 90
       44
  8
AM_7
360
2F53
 90
        1
  8
AM_11
360
2F54
 90
       27
  8
AM_5
360
2F55
 90
        5
  8
Defpoints
360
2F56
 90
        0
  8
AM_6
360
2F57
 90
        1
  8
AM_CL
360
2F58
 90
        0
  0
XRECORD
  5
2D
102
{ACAD_REACTORS
330
2C
102
}
330
2C
100
AcDbXrecord
  1
VERSION
140
15.0
  1
PRODUCT
  2
AutoCAD Mechanical 2000
  0
IDBUFFER
  5
2F51
330
0
100
AcDbIdBuffer
  0
IDBUFFER
  5
2F52
330
0
100
AcDbIdBuffer
330
2E7A
330
2E7B
330
2E7C
330
2E7D
330
2E7E
330
2E7F
330
2E80
330
2E81
330
2E86
330
2E87
330
2E88
330
2E89
330
2E8A
330
2E8B
330
2E8C
330
2E8D
330
2E8E
330
2E8F
330
2E90
330
2E91
330
2E92
330
2E93
330
2E94
330
2E95
330
2E96
330
2E97
330
2E98
330
2E99
330
C1D
330
C20
330
C2E
330
C30
330
1B5C
330
1B60
330
1C15
330
1C1A
330
1C1E
330
1C85
330
1C86
330
1CF2
330
1CF3
330
1CF4
330
25CA
330
25CB
  0
IDBUFFER
  5
2F53
330
0
100
AcDbIdBuffer
330
C9F
  0
IDBUFFER
  5
2F54
330
0
100
AcDbIdBuffer
330
1C25
330
1C26
330
1C27
330
1C28
330
1C29
330
1C2C
330
1C2D
330
2E82
330
2E83
330
2E84
330
2E85
330
144A
330
144B
330
144E
330
144F
330
1450
330
1451
330
1452
330
1453
330
1454
330
18B8
330
18B9
330
18BA
330
18BB
330
1C22
330
1C23
330
1C24
  0
IDBUFFER
  5
2F55
330
0
100
AcDbIdBuffer
330
CC6
330
DF5
330
1C71
330
1DEF
330
2C50
  0
IDBUFFER
  5
2F56
330
0
100
AcDbIdBuffer
  0
IDBUFFER
  5
2F57
330
0
100
AcDbIdBuffer
330
19BD
  0
IDBUFFER
  5
2F58
330
0
100
AcDbIdBuffer
  0
ENDSEC
  0
EOF
